  0
SECTION
  2
HEADER
  9
$ACADVER
  1
AC1018
  9
$ACADMAINTVER
 70
     2
  9
$DWGCODEPAGE
  3
ANSI_1252
  9
$INSBASE
 10
0.0
 20
0.0
 30
0.0
  9
$EXTMIN
 10
-0.0192209888436992
 20
-0.0271839699362317
 30
-0.0000000000000058
  9
$EXTMAX
 10
420.0192288123714
 20
594.0271950346398
 30
0.0000000000000104
  9
$LIMMIN
 10
0.0
 20
0.0
  9
$LIMMAX
 10
420.0
 20
594.0
  9
$ORTHOMODE
 70
     1
  9
$REGENMODE
 70
     1
  9
$FILLMODE
 70
     1
  9
$QTEXTMODE
 70
     0
  9
$MIRRTEXT
 70
     1
  9
$LTSCALE
 40
20.0
  9
$ATTMODE
 70
     1
  9
$TEXTSIZE
 40
2.5
  9
$TRACEWID
 40
0.5
  9
$TEXTSTYLE
  7
GREEKS
  9
$CLAYER
  8
SCHRAFF
  9
$CELTYPE
  6
ByLayer
  9
$CECOLOR
 62
   256
  9
$CELTSCALE
 40
1.0
  9
$DISPSILH
 70
     0
  9
$DIMSCALE
 40
2.0
  9
$DIMASZ
 40
3.5
  9
$DIMEXO
 40
1.0
  9
$DIMDLI
 40
7.0
  9
$DIMRND
 40
0.0
  9
$DIMDLE
 40
0.0
  9
$DIMEXE
 40
1.0
  9
$DIMTP
 40
0.8
  9
$DIMTM
 40
0.8
  9
$DIMTXT
 40
3.5
  9
$DIMCEN
 40
1.5
  9
$DIMTSZ
 40
0.0
  9
$DIMTOL
 70
     0
  9
$DIMLIM
 70
     0
  9
$DIMTIH
 70
     0
  9
$DIMTOH
 70
     0
  9
$DIMSE1
 70
     0
  9
$DIMSE2
 70
     0
  9
$DIMTAD
 70
     1
  9
$DIMZIN
 70
     8
  9
$DIMBLK
  1

  9
$DIMASO
 70
     1
  9
$DIMSHO
 70
     0
  9
$DIMPOST
  1

  9
$DIMAPOST
  1

  9
$DIMALT
 70
     0
  9
$DIMALTD
 70
     2
  9
$DIMALTF
 40
25.4
  9
$DIMLFAC
 40
1.0
  9
$DIMTOFL
 70
     1
  9
$DIMTVP
 40
0.0
  9
$DIMTIX
 70
     0
  9
$DIMSOXD
 70
     0
  9
$DIMSAH
 70
     0
  9
$DIMBLK1
  1

  9
$DIMBLK2
  1

  9
$DIMSTYLE
  2
Standard
  9
$DIMCLRD
 70
     0
  9
$DIMCLRE
 70
     0
  9
$DIMCLRT
 70
     1
  9
$DIMTFAC
 40
0.5
  9
$DIMGAP
 40
1.5
  9
$DIMJUST
 70
     0
  9
$DIMSD1
 70
     0
  9
$DIMSD2
 70
     0
  9
$DIMTOLJ
 70
     1
  9
$DIMTZIN
 70
     8
  9
$DIMALTZ
 70
     8
  9
$DIMALTTZ
 70
     8
  9
$DIMUPT
 70
     0
  9
$DIMDEC
 70
     2
  9
$DIMTDEC
 70
     2
  9
$DIMALTU
 70
     2
  9
$DIMALTTD
 70
     2
  9
$DIMTXSTY
  7
GREEKS
  9
$DIMAUNIT
 70
     0
  9
$DIMADEC
 70
     2
  9
$DIMALTRND
 40
0.0
  9
$DIMAZIN
 70
     2
  9
$DIMDSEP
 70
    46
  9
$DIMATFIT
 70
     3
  9
$DIMFRAC
 70
     0
  9
$DIMLDRBLK
  1

  9
$DIMLUNIT
 70
     2
  9
$DIMLWD
 70
    -2
  9
$DIMLWE
 70
    -2
  9
$DIMTMOVE
 70
     0
  9
$LUNITS
 70
     2
  9
$LUPREC
 70
     2
  9
$SKETCHINC
 40
1.0
  9
$FILLETRAD
 40
0.0
  9
$AUNITS
 70
     0
  9
$AUPREC
 70
     0
  9
$MENU
  1
ACAD
  9
$ELEVATION
 40
0.0
  9
$PELEVATION
 40
0.0
  9
$THICKNESS
 40
0.0
  9
$LIMCHECK
 70
     0
  9
$CHAMFERA
 40
0.0
  9
$CHAMFERB
 40
0.0
  9
$CHAMFERC
 40
0.0
  9
$CHAMFERD
 40
0.0
  9
$SKPOLY
 70
     0
  9
$TDCREATE
 40
2452219.436751042
  9
$TDUCREATE
 40
2452219.353417709
  9
$TDUPDATE
 40
2455658.434924445
  9
$TDUUPDATE
 40
2455658.351591111
  9
$TDINDWG
 40
0.0958354514
  9
$TDUSRTIMER
 40
0.0958354514
  9
$USRTIMER
 70
     1
  9
$ANGBASE
 50
0.0
  9
$ANGDIR
 70
     0
  9
$PDMODE
 70
     0
  9
$PDSIZE
 40
0.0
  9
$PLINEWID
 40
0.0
  9
$SPLFRAME
 70
     0
  9
$SPLINETYPE
 70
     6
  9
$SPLINESEGS
 70
     8
  9
$HANDSEED
  5
1DD
  9
$SURFTAB1
 70
     6
  9
$SURFTAB2
 70
     6
  9
$SURFTYPE
 70
     6
  9
$SURFU
 70
     6
  9
$SURFV
 70
     6
  9
$UCSBASE
  2

  9
$UCSNAME
  2

  9
$UCSORG
 10
0.0
 20
0.0
 30
0.0
  9
$UCSXDIR
 10
1.0
 20
0.0
 30
0.0
  9
$UCSYDIR
 10
0.0
 20
1.0
 30
0.0
  9
$UCSORTHOREF
  2

  9
$UCSORTHOVIEW
 70
     0
  9
$UCSORGTOP
 10
0.0
 20
0.0
 30
0.0
  9
$UCSORGBOTTOM
 10
0.0
 20
0.0
 30
0.0
  9
$UCSORGLEFT
 10
0.0
 20
0.0
 30
0.0
  9
$UCSORGRIGHT
 10
0.0
 20
0.0
 30
0.0
  9
$UCSORGFRONT
 10
0.0
 20
0.0
 30
0.0
  9
$UCSORGBACK
 10
0.0
 20
0.0
 30
0.0
  9
$PUCSBASE
  2

  9
$PUCSNAME
  2

  9
$PUCSORG
 10
0.0
 20
0.0
 30
0.0
  9
$PUCSXDIR
 10
1.0
 20
0.0
 30
0.0
  9
$PUCSYDIR
 10
0.0
 20
1.0
 30
0.0
  9
$PUCSORTHOREF
  2

  9
$PUCSORTHOVIEW
 70
     0
  9
$PUCSORGTOP
 10
0.0
 20
0.0
 30
0.0
  9
$PUCSORGBOTTOM
 10
0.0
 20
0.0
 30
0.0
  9
$PUCSORGLEFT
 10
0.0
 20
0.0
 30
0.0
  9
$PUCSORGRIGHT
 10
0.0
 20
0.0
 30
0.0
  9
$PUCSORGFRONT
 10
0.0
 20
0.0
 30
0.0
  9
$PUCSORGBACK
 10
0.0
 20
0.0
 30
0.0
  9
$USERI1
 70
     0
  9
$USERI2
 70
     0
  9
$USERI3
 70
     0
  9
$USERI4
 70
     0
  9
$USERI5
 70
     0
  9
$USERR1
 40
0.0
  9
$USERR2
 40
0.0
  9
$USERR3
 40
0.0
  9
$USERR4
 40
0.0
  9
$USERR5
 40
0.0
  9
$WORLDVIEW
 70
     1
  9
$SHADEDGE
 70
     3
  9
$SHADEDIF
 70
    70
  9
$TILEMODE
 70
     1
  9
$MAXACTVP
 70
    16
  9
$PINSBASE
 10
0.0
 20
0.0
 30
0.0
  9
$PLIMCHECK
 70
     0
  9
$PEXTMIN
 10
1.000000000000000E+20
 20
1.000000000000000E+20
 30
1.000000000000000E+20
  9
$PEXTMAX
 10
-1.000000000000000E+20
 20
-1.000000000000000E+20
 30
-1.000000000000000E+20
  9
$PLIMMIN
 10
0.0
 20
0.0
  9
$PLIMMAX
 10
12.0
 20
9.0
  9
$UNITMODE
 70
     0
  9
$VISRETAIN
 70
     0
  9
$PLINEGEN
 70
     0
  9
$PSLTSCALE
 70
     0
  9
$TREEDEPTH
 70
  3020
  9
$CMLSTYLE
  2
Standard
  9
$CMLJUST
 70
     0
  9
$CMLSCALE
 40
1.0
  9
$PROXYGRAPHICS
 70
     1
  9
$MEASUREMENT
 70
     0
  9
$CELWEIGHT
370
    -1
  9
$ENDCAPS
280
     0
  9
$JOINSTYLE
280
     0
  9
$LWDISPLAY
290
     0
  9
$INSUNITS
 70
     0
  9
$HYPERLINKBASE
  1

  9
$STYLESHEET
  1
monochrome 1.ctb
  9
$XEDIT
290
     1
  9
$CEPSNTYPE
380
     0
  9
$PSTYLEMODE
290
     1
  9
$FINGERPRINTGUID
  2
{14BB1694-A5E0-46FE-80C9-D82A2589C803}
  9
$VERSIONGUID
  2
{ED13B096-1279-4AAB-97BC-FB28CA27BA6C}
  9
$EXTNAMES
290
     1
  9
$PSVPSCALE
 40
0.0
  9
$OLESTARTUP
290
     0
  9
$SORTENTS
280
   127
  9
$INDEXCTL
280
     0
  9
$HIDETEXT
280
     1
  9
$XCLIPFRAME
290
     0
  9
$HALOGAP
280
     0
  9
$OBSCOLOR
 70
   257
  9
$OBSLTYPE
280
     0
  9
$INTERSECTIONDISPLAY
280
     0
  9
$INTERSECTIONCOLOR
 70
   257
  9
$DIMASSOC
280
     2
  9
$PROJECTNAME
  1

  0
ENDSEC
  0
SECTION
  2
CLASSES
  0
CLASS
  1
ACDBDICTIONARYWDFLT
  2
AcDbDictionaryWithDefault
  3
ObjectDBX Classes
 90
        0
 91
        1
280
     0
281
     0
  0
CLASS
  1
DICTIONARYVAR
  2
AcDbDictionaryVar
  3
ObjectDBX Classes
 90
        0
 91
        3
280
     0
281
     0
  0
ENDSEC
  0
SECTION
  2
TABLES
  0
TABLE
  2
VPORT
  5
8
330
0
100
AcDbSymbolTable
 70
     3
  0
VPORT
  5
1DC
330
8
100
AcDbSymbolTableRecord
100
AcDbViewportTableRecord
  2
*Active
 70
     0
 10
0.0
 20
0.0
 11
1.0
 21
1.0
 12
210.0
 22
297.0
 13
0.0
 23
0.0
 14
1.0
 24
1.0
 15
10.0
 25
10.0
 16
0.0
 26
0.0
 36
1.0
 17
0.0
 27
0.0
 37
0.0
 40
594.0
 41
1.334231805929919
 42
50.0
 43
0.0
 44
0.0
 50
0.0
 51
0.0
 71
     0
 72
  1500
 73
     1
 74
     0
 75
     0
 76
     0
 77
     0
 78
     0
281
     0
 65
     1
110
0.0
120
0.0
130
0.0
111
1.0
121
0.0
131
0.0
112
0.0
122
1.0
132
0.0
 79
     0
146
0.0
  0
ENDTAB
  0
TABLE
  2
LTYPE
  5
5
330
0
100
AcDbSymbolTable
 70
     2
  0
LTYPE
  5
13
330
5
100
AcDbSymbolTableRecord
100
AcDbLinetypeTableRecord
  2
ByBlock
 70
     0
  3

 72
    65
 73
     0
 40
0.0
  0
LTYPE
  5
14
330
5
100
AcDbSymbolTableRecord
100
AcDbLinetypeTableRecord
  2
ByLayer
 70
     0
  3

 72
    65
 73
     0
 40
0.0
  0
LTYPE
  5
15
330
5
100
AcDbSymbolTableRecord
100
AcDbLinetypeTableRecord
  2
Continuous
 70
     0
  3
Solid line
 72
    65
 73
     0
 40
0.0
  0
LTYPE
  5
2E
330
5
100
AcDbSymbolTableRecord
100
AcDbLinetypeTableRecord
  2
STRICHPUNKT
 70
     0
  3
__ . __ . __ . __ . __ . __ . __ . __ . __ . __
 72
    65
 73
     4
 40
1.0
 49
0.5
 74
     0
 49
-0.25
 74
     0
 49
0.0
 74
     0
 49
-0.25
 74
     0
  0
ENDTAB
  0
TABLE
  2
LAYER
  5
2
330
0
100
AcDbSymbolTable
 70
     9
  0
LAYER
  5
10
330
2
100
AcDbSymbolTableRecord
100
AcDbLayerTableRecord
  2
0
 70
     0
 62
     7
  6
Continuous
370
    -3
390
F
  0
LAYER
  5
31
330
2
100
AcDbSymbolTableRecord
100
AcDbLayerTableRecord
  2
VOLL
 70
     0
 62
     1
  6
Continuous
370
    -3
390
F
  0
LAYER
  5
32
330
2
100
AcDbSymbolTableRecord
100
AcDbLayerTableRecord
  2
HILF
 70
     0
 62
     2
  6
Continuous
370
    -3
390
F
  0
LAYER
  5
33
330
2
100
AcDbSymbolTableRecord
100
AcDbLayerTableRecord
  2
MITTEL
 70
     0
 62
     2
  6
STRICHPUNKT
370
    -3
390
F
  0
LAYER
  5
34
330
2
100
AcDbSymbolTableRecord
100
AcDbLayerTableRecord
  2
BEM
 70
     0
 62
     7
  6
Continuous
370
    -3
390
F
  0
LAYER
  5
35
330
2
100
AcDbSymbolTableRecord
100
AcDbLayerTableRecord
  2
STEMPEL
 70
     0
 62
     3
  6
Continuous
370
    -3
390
F
  0
LAYER
  5
36
330
2
100
AcDbSymbolTableRecord
100
AcDbLayerTableRecord
  2
TEXT
 70
     0
 62
     7
  6
Continuous
370
    -3
390
F
  0
LAYER
  5
37
330
2
100
AcDbSymbolTableRecord
100
AcDbLayerTableRecord
  2
DEFPOINTS
 70
     0
 62
     7
  6
Continuous
290
     0
370
    -3
390
F
  0
LAYER
  5
38
330
2
100
AcDbSymbolTableRecord
100
AcDbLayerTableRecord
  2
SCHRAFF
 70
     0
 62
     7
  6
Continuous
370
    -3
390
F
  0
ENDTAB
  0
TABLE
  2
STYLE
  5
3
330
0
100
AcDbSymbolTable
 70
     2
  0
STYLE
  5
11
330
3
100
AcDbSymbolTableRecord
100
AcDbTextStyleTableRecord
  2
STANDARD
 70
     0
 40
0.0
 41
1.0
 50
0.0
 71
     0
 42
3.5
  3
txt
  4

  0
STYLE
  5
2D
330
3
100
AcDbSymbolTableRecord
100
AcDbTextStyleTableRecord
  2
GREEKS
 70
     0
 40
0.0
 41
0.8
 50
0.0
 71
     0
 42
2.5
  3
SIMPLEX.shx
  4

  0
ENDTAB
  0
TABLE
  2
VIEW
  5
6
330
0
100
AcDbSymbolTable
 70
     0
  0
ENDTAB
  0
TABLE
  2
UCS
  5
7
330
0
100
AcDbSymbolTable
 70
     0
  0
ENDTAB
  0
TABLE
  2
APPID
  5
9
330
0
100
AcDbSymbolTable
 70
     1
  0
APPID
  5
12
330
9
100
AcDbSymbolTableRecord
100
AcDbRegAppTableRecord
  2
ACAD
 70
     0
  0
ENDTAB
  0
TABLE
  2
DIMSTYLE
  5
A
330
0
100
AcDbSymbolTable
 70
     1
100
AcDbDimStyleTable
 71
     1
340
15A
  0
DIMSTYLE
105
15A
102
{ACAD_REACTORS
330
121
330
120
330
122
330
115
102
}
330
A
100
AcDbSymbolTableRecord
100
AcDbDimStyleTableRecord
  2
Standard
 70
     0
340
11
  0
ENDTAB
  0
TABLE
  2
BLOCK_RECORD
  5
1
330
0
100
AcDbSymbolTable
 70
     9
  0
BLOCK_RECORD
  5
20
330
1
100
AcDbSymbolTableRecord
100
AcDbBlockTableRecord
  2
*Model_Space
340
23
  0
BLOCK_RECORD
  5
1C
330
1
100
AcDbSymbolTableRecord
100
AcDbBlockTableRecord
  2
*Paper_Space
340
1F
  0
BLOCK_RECORD
  5
24
330
1
100
AcDbSymbolTableRecord
100
AcDbBlockTableRecord
  2
LOGO
340
0
102
{BLKREFS
331
111
102
}
  0
BLOCK_RECORD
  5
26
330
1
100
AcDbSymbolTableRecord
100
AcDbBlockTableRecord
  2
*X1
340
0
102
{BLKREFS
331
133
331
135
102
}
  0
BLOCK_RECORD
  5
17A
330
1
100
AcDbSymbolTableRecord
100
AcDbBlockTableRecord
  2
*D5
340
0
  0
BLOCK_RECORD
  5
188
330
1
100
AcDbSymbolTableRecord
100
AcDbBlockTableRecord
  2
*D6
340
0
  0
BLOCK_RECORD
  5
1A7
330
1
100
AcDbSymbolTableRecord
100
AcDbBlockTableRecord
  2
*D7
340
0
  0
BLOCK_RECORD
  5
1C6
330
1
100
AcDbSymbolTableRecord
100
AcDbBlockTableRecord
  2
*D8
340
0
  0
ENDTAB
  0
ENDSEC
  0
SECTION
  2
BLOCKS
  0
BLOCK
  5
3C
330
20
100
AcDbEntity
  8
0
100
AcDbBlockBegin
  2
*Model_Space
 70
     0
 10
0.0
 20
0.0
 30
0.0
  3
*Model_Space
  1

  0
ENDBLK
  5
3D
330
20
100
AcDbEntity
  8
0
100
AcDbBlockEnd
  0
BLOCK
  5
3A
330
1C
100
AcDbEntity
 67
     1
  8
0
100
AcDbBlockBegin
  2
*Paper_Space
 70
     0
 10
0.0
 20
0.0
 30
0.0
  3
*Paper_Space
  1

  0
ENDBLK
  5
3B
330
1C
100
AcDbEntity
 67
     1
  8
0
100
AcDbBlockEnd
  0
BLOCK
  5
3E
330
24
100
AcDbEntity
  8
0
100
AcDbBlockBegin
  2
LOGO
 70
     0
 10
0.0
 20
0.0
 30
0.0
  3
LOGO
  1

  0
ARC
  5
3F
330
24
100
AcDbEntity
  8
0
100
AcDbCircle
 10
11.59973089678112
 20
-9.271599258481501
 30
0.0
 40
4.5
100
AcDbArc
 50
270.0
 51
231.0575587310159
  0
LINE
  5
40
330
24
100
AcDbEntity
  8
0
100
AcDbLine
 10
3.599730896781125
 20
-4.771599258481529
 30
0.0
 11
3.599730896781153
 21
-11.77159925848133
 31
0.0
  0
LINE
  5
41
330
24
100
AcDbEntity
  8
0
100
AcDbLine
 10
2.599730896781125
 20
-4.771599258481529
 30
0.0
 11
2.599730896781153
 21
-11.77159925848133
 31
0.0
  0
CIRCLE
  5
42
330
24
100
AcDbEntity
  8
0
100
AcDbCircle
 10
11.59973089678112
 20
-9.271599258481501
 30
0.0
 40
3.5
  0
ARC
  5
43
330
24
100
AcDbEntity
  8
0
100
AcDbCircle
 10
31.59973089678115
 20
-9.271599258481472
 30
0.0
 40
4.5
100
AcDbArc
 50
270.0
 51
231.0575587310182
  0
LINE
  5
44
330
24
100
AcDbEntity
  8
0
100
AcDbLine
 10
17.59973089678112
 20
-4.771599258481472
 30
0.0
 11
17.59973089678115
 21
-13.77159925848147
 31
0.0
  0
ARC
  5
45
330
24
100
AcDbEntity
  8
0
100
AcDbCircle
 10
22.59973089678116
 20
-7.271599258481472
 30
0.0
 40
2.5
100
AcDbArc
 50
293.1161887722295
 51
90.0
  0
CIRCLE
  5
46
330
24
100
AcDbEntity
  8
0
100
AcDbCircle
 10
31.59973089678115
 20
-9.271599258481472
 30
0.0
 40
3.5
  0
ARC
  5
47
330
24
100
AcDbEntity
  8
0
100
AcDbCircle
 10
4.599730896781153
 20
-11.77159925848133
 30
0.0
 40
1.0
100
AcDbArc
 50
180.0
 51
270.0
  0
ARC
  5
48
330
24
100
AcDbEntity
  8
0
100
AcDbCircle
 10
4.599730896781153
 20
-11.77159925848133
 30
0.0
 40
2.0
100
AcDbArc
 50
179.9999999999992
 51
270.0
  0
LINE
  5
49
330
24
100
AcDbEntity
  8
0
100
AcDbLine
 10
11.59973089678115
 20
-13.77159925848144
 30
0.0
 11
4.599730896781153
 21
-13.77159925848147
 31
0.0
  0
LINE
  5
4A
330
24
100
AcDbEntity
  8
0
100
AcDbLine
 10
8.771303772034769
 20
-12.77159925848136
 30
0.0
 11
4.599730896781153
 21
-12.77159925848133
 31
0.0
  0
LINE
  5
4B
330
24
100
AcDbEntity
  8
0
100
AcDbLine
 10
31.59973089678115
 20
-13.77159925848147
 30
0.0
 11
23.6715276665056
 21
-13.77159925848144
 31
0.0
  0
LINE
  5
4C
330
24
100
AcDbEntity
  8
0
100
AcDbLine
 10
23.56565672307022
 20
-9.51278021337896
 30
0.0
 11
24.4388546544846
 21
-12.77159925848144
 31
0.0
  0
LINE
  5
4D
330
24
100
AcDbEntity
  8
0
100
AcDbLine
 10
22.59973089678116
 20
-9.771599258481472
 30
0.0
 11
18.59973089678112
 21
-9.771599258481472
 31
0.0
  0
LINE
  5
4E
330
24
100
AcDbEntity
  8
0
100
AcDbLine
 10
18.59973089678115
 20
-13.77159925848144
 30
0.0
 11
17.59973089678115
 21
-13.77159925848144
 31
0.0
  0
LINE
  5
4F
330
24
100
AcDbEntity
  8
0
100
AcDbLine
 10
18.59973089678115
 20
-9.771599258481472
 30
0.0
 11
18.59973089678115
 21
-13.77159925848144
 31
0.0
  0
LINE
  5
50
330
24
100
AcDbEntity
  8
0
100
AcDbLine
 10
22.59973089678116
 20
-9.771599258481472
 30
0.0
 11
23.67152766650562
 21
-13.77159925848147
 31
0.0
  0
ARC
  5
51
330
24
100
AcDbEntity
  8
0
100
AcDbCircle
 10
22.59973089678116
 20
-7.271599258481472
 30
0.0
 40
2.5
100
AcDbArc
 50
270.0
 51
270.0000000000007
  0
LINE
  5
52
330
24
100
AcDbEntity
  8
0
100
AcDbLine
 10
28.77130377203494
 20
-12.77159925848147
 30
0.0
 11
24.43885465448463
 21
-12.77159925848144
 31
0.0
  0
LINE
  5
53
330
24
100
AcDbEntity
  8
0
100
AcDbLine
 10
3.599730896781125
 20
-4.771599258481472
 30
0.0
 11
2.599730896781125
 21
-4.771599258481472
 31
0.0
  0
LINE
  5
54
330
24
100
AcDbEntity
  8
0
100
AcDbLine
 10
22.59973089678116
 20
-8.771599258481472
 30
0.0
 11
18.59973089678115
 21
-8.771599258481472
 31
0.0
  0
LINE
  5
55
330
24
100
AcDbEntity
  8
0
100
AcDbLine
 10
22.59973089678116
 20
-5.771599258481472
 30
0.0
 11
18.59973089678115
 21
-5.771599258481472
 31
0.0
  0
LINE
  5
56
330
24
100
AcDbEntity
  8
0
100
AcDbLine
 10
22.59973089678116
 20
-4.771599258481472
 30
0.0
 11
17.59973089678115
 21
-4.771599258481472
 31
0.0
  0
LINE
  5
57
330
24
100
AcDbEntity
  8
0
100
AcDbLine
 10
18.59973089678115
 20
-5.771599258481472
 30
0.0
 11
18.59973089678115
 21
-8.771599258481472
 31
0.0
  0
ARC
  5
58
330
24
100
AcDbEntity
  8
0
100
AcDbCircle
 10
22.59973089678116
 20
-7.271599258481472
 30
0.0
 40
1.5
100
AcDbArc
 50
270.0
 51
90.0
  0
ENDBLK
  5
59
330
24
100
AcDbEntity
  8
0
100
AcDbBlockEnd
  0
BLOCK
  5
5E
330
26
100
AcDbEntity
  8
0
100
AcDbBlockBegin
  2
*X1
 70
     1
 10
0.0
 20
0.0
 30
0.0
  3
*X1
  1

  0
LINE
  5
5F
330
26
100
AcDbEntity
  8
0
 62
     0
100
AcDbLine
 10
178.1345276427642
 20
506.5
 30
0.0
 11
181.6369333126745
 21
506.5
 31
0.0
  0
LINE
  5
60
330
26
100
AcDbEntity
  8
0
 62
     0
100
AcDbLine
 10
178.1345276427642
 20
506.6
 30
0.0
 11
181.5798749427895
 21
506.6
 31
0.0
  0
LINE
  5
61
330
26
100
AcDbEntity
  8
0
 62
     0
100
AcDbLine
 10
178.1345276427642
 20
506.7
 30
0.0
 11
181.5189021136176
 21
506.7
 31
0.0
  0
LINE
  5
62
330
26
100
AcDbEntity
  8
0
 62
     0
100
AcDbLine
 10
178.1345276427642
 20
506.8
 30
0.0
 11
181.4537991140568
 21
506.8
 31
0.0
  0
LINE
  5
63
330
26
100
AcDbEntity
  8
0
 62
     0
100
AcDbLine
 10
178.1345276427642
 20
506.9
 30
0.0
 11
181.3843177346484
 21
506.9
 31
0.0
  0
LINE
  5
64
330
26
100
AcDbEntity
  8
0
 62
     0
100
AcDbLine
 10
178.1345276427642
 20
507.0
 30
0.0
 11
181.3101705985263
 21
507.0
 31
0.0
  0
LINE
  5
65
330
26
100
AcDbEntity
  8
0
 62
     0
100
AcDbLine
 10
178.1345276427642
 20
507.1
 30
0.0
 11
181.231022552118
 21
507.1
 31
0.0
  0
LINE
  5
66
330
26
100
AcDbEntity
  8
0
 62
     0
100
AcDbLine
 10
178.1345276427642
 20
507.2
 30
0.0
 11
181.1464793795665
 21
507.2
 31
0.0
  0
LINE
  5
67
330
26
100
AcDbEntity
  8
0
 62
     0
100
AcDbLine
 10
178.1345276427642
 20
507.3
 30
0.0
 11
181.0560727486968
 21
507.3
 31
0.0
  0
LINE
  5
68
330
26
100
AcDbEntity
  8
0
 62
     0
100
AcDbLine
 10
178.1345276427642
 20
507.4
 30
0.0
 11
180.9592397249367
 21
507.4
 31
0.0
  0
LINE
  5
69
330
26
100
AcDbEntity
  8
0
 62
     0
100
AcDbLine
 10
178.1345276427642
 20
507.5
 30
0.0
 11
180.8552942421519
 21
507.5
 31
0.0
  0
LINE
  5
6A
330
26
100
AcDbEntity
  8
0
 62
     0
100
AcDbLine
 10
178.1345276427642
 20
507.6
 30
0.0
 11
180.7433862877498
 21
507.6
 31
0.0
  0
LINE
  5
6B
330
26
100
AcDbEntity
  8
0
 62
     0
100
AcDbLine
 10
178.1345276427642
 20
507.7
 30
0.0
 11
180.6224416225248
 21
507.7
 31
0.0
  0
LINE
  5
6C
330
26
100
AcDbEntity
  8
0
 62
     0
100
AcDbLine
 10
178.1345276427642
 20
507.8
 30
0.0
 11
180.4910692850572
 21
507.8
 31
0.0
  0
LINE
  5
6D
330
26
100
AcDbEntity
  8
0
 62
     0
100
AcDbLine
 10
178.1345276427642
 20
507.9
 30
0.0
 11
180.3474128754487
 21
507.9
 31
0.0
  0
LINE
  5
6E
330
26
100
AcDbEntity
  8
0
 62
     0
100
AcDbLine
 10
178.1345276427642
 20
508.0
 30
0.0
 11
180.1888970336494
 21
508.0
 31
0.0
  0
LINE
  5
6F
330
26
100
AcDbEntity
  8
0
 62
     0
100
AcDbLine
 10
178.1345276427642
 20
508.1
 30
0.0
 11
180.0117612817603
 21
508.1
 31
0.0
  0
LINE
  5
70
330
26
100
AcDbEntity
  8
0
 62
     0
100
AcDbLine
 10
178.1345276427642
 20
508.2
 30
0.0
 11
179.810110728305
 21
508.2
 31
0.0
  0
LINE
  5
71
330
26
100
AcDbEntity
  8
0
 62
     0
100
AcDbLine
 10
178.1345276427642
 20
508.3
 30
0.0
 11
179.5736771199636
 21
508.3
 31
0.0
  0
LINE
  5
72
330
26
100
AcDbEntity
  8
0
 62
     0
100
AcDbLine
 10
178.1345276427642
 20
508.4
 30
0.0
 11
179.2811416837106
 21
508.4
 31
0.0
  0
LINE
  5
73
330
26
100
AcDbEntity
  8
0
 62
     0
100
AcDbLine
 10
178.1345276427642
 20
508.4999999999999
 30
0.0
 11
178.8682144288441
 21
508.4999999999999
 31
0.0
  0
LINE
  5
74
330
26
100
AcDbEntity
  8
0
 62
     0
100
AcDbLine
 10
178.1345276427642
 20
506.4
 30
0.0
 11
181.6902656724068
 21
506.4
 31
0.0
  0
LINE
  5
75
330
26
100
AcDbEntity
  8
0
 62
     0
100
AcDbLine
 10
178.1345276427642
 20
506.3
 30
0.0
 11
181.7400373701501
 21
506.3
 31
0.0
  0
LINE
  5
76
330
26
100
AcDbEntity
  8
0
 62
     0
100
AcDbLine
 10
178.1345276427642
 20
506.2
 30
0.0
 11
181.786393994796
 21
506.2
 31
0.0
  0
LINE
  5
77
330
26
100
AcDbEntity
  8
0
 62
     0
100
AcDbLine
 10
178.1345276427642
 20
506.0999999999999
 30
0.0
 11
181.8294640849686
 21
506.0999999999999
 31
0.0
  0
LINE
  5
78
330
26
100
AcDbEntity
  8
0
 62
     0
100
AcDbLine
 10
178.1345276427642
 20
506.0
 30
0.0
 11
181.8693613433133
 21
506.0
 31
0.0
  0
LINE
  5
79
330
26
100
AcDbEntity
  8
0
 62
     0
100
AcDbLine
 10
178.1345276427642
 20
505.9
 30
0.0
 11
181.9061864594634
 21
505.9
 31
0.0
  0
LINE
  5
7A
330
26
100
AcDbEntity
  8
0
 62
     0
100
AcDbLine
 10
178.1345276427642
 20
505.7999999999999
 30
0.0
 11
181.940028620088
 21
505.7999999999999
 31
0.0
  0
LINE
  5
7B
330
26
100
AcDbEntity
  8
0
 62
     0
100
AcDbLine
 10
178.1345276427642
 20
505.7
 30
0.0
 11
181.9709667661233
 21
505.7
 31
0.0
  0
LINE
  5
7C
330
26
100
AcDbEntity
  8
0
 62
     0
100
AcDbLine
 10
178.1345276427642
 20
505.6
 30
0.0
 11
181.9990706436982
 21
505.6
 31
0.0
  0
LINE
  5
7D
330
26
100
AcDbEntity
  8
0
 62
     0
100
AcDbLine
 10
178.1345276427642
 20
505.4999999999999
 30
0.0
 11
182.024401685056
 21
505.4999999999999
 31
0.0
  0
LINE
  5
7E
330
26
100
AcDbEntity
  8
0
 62
     0
100
AcDbLine
 10
178.1345276427642
 20
505.4
 30
0.0
 11
182.0470137480076
 21
505.4
 31
0.0
  0
LINE
  5
7F
330
26
100
AcDbEntity
  8
0
 62
     0
100
AcDbLine
 10
178.1345276427642
 20
505.2999999999999
 30
0.0
 11
182.0669537364817
 21
505.2999999999999
 31
0.0
  0
LINE
  5
80
330
26
100
AcDbEntity
  8
0
 62
     0
100
AcDbLine
 10
178.1345276427642
 20
505.2
 30
0.0
 11
182.0842621200903
 21
505.2
 31
0.0
  0
LINE
  5
81
330
26
100
AcDbEntity
  8
0
 62
     0
100
AcDbLine
 10
178.1345276427642
 20
505.1
 30
0.0
 11
182.098973366974
 21
505.1
 31
0.0
  0
LINE
  5
82
330
26
100
AcDbEntity
  8
0
 62
     0
100
AcDbLine
 10
178.1345276427642
 20
505.0
 30
0.0
 11
182.1111163012796
 21
505.0
 31
0.0
  0
LINE
  5
83
330
26
100
AcDbEntity
  8
0
 62
     0
100
AcDbLine
 10
178.1345276427642
 20
504.9
 30
0.0
 11
182.1207143942675
 21
504.9
 31
0.0
  0
LINE
  5
84
330
26
100
AcDbEntity
  8
0
 62
     0
100
AcDbLine
 10
178.1345276427642
 20
504.8
 30
0.0
 11
182.1277859961253
 21
504.8
 31
0.0
  0
LINE
  5
85
330
26
100
AcDbEntity
  8
0
 62
     0
100
AcDbLine
 10
178.1345276427642
 20
504.7
 30
0.0
 11
182.1323445139473
 21
504.7
 31
0.0
  0
LINE
  5
86
330
26
100
AcDbEntity
  8
0
 62
     0
100
AcDbLine
 10
178.1345276427642
 20
504.6
 30
0.0
 11
182.1343985399737
 21
504.6
 31
0.0
  0
ENDBLK
  5
87
330
26
100
AcDbEntity
  8
0
100
AcDbBlockEnd
  0
BLOCK
  5
186
330
17A
100
AcDbEntity
  8
0
100
AcDbBlockBegin
  2
*D5
 70
     1
 10
0.0
 20
0.0
 30
0.0
  3
*D5
  1

  0
LINE
  5
17B
330
17A
100
AcDbEntity
  8
BEM
 62
     0
370
    -2
100
AcDbLine
 10
173.1345276427641
 20
221.5678627058619
 30
0.0
 11
173.1345276427641
 21
188.8369331084056
 31
0.0
  0
LINE
  5
17C
330
17A
100
AcDbEntity
  8
BEM
 62
     0
370
    -2
100
AcDbLine
 10
169.1345276427641
 20
221.5678627058619
 30
0.0
 11
169.1345276427641
 21
188.8369331084056
 31
0.0
  0
LINE
  5
17D
330
17A
100
AcDbEntity
  8
BEM
 62
     0
370
    -2
100
AcDbLine
 10
180.1345276427641
 20
190.8369331084056
 30
0.0
 11
187.1345276427641
 21
190.8369331084056
 31
0.0
  0
LINE
  5
17E
330
17A
100
AcDbEntity
  8
BEM
 62
     0
370
    -2
100
AcDbLine
 10
162.1345276427641
 20
190.8369331084056
 30
0.0
 11
145.1345276427641
 21
190.8369331084056
 31
0.0
  0
LINE
  5
17F
330
17A
100
AcDbEntity
  8
BEM
 62
     0
370
    -2
100
AcDbLine
 10
173.1345276427641
 20
190.8369331084056
 30
0.0
 11
169.1345276427641
 21
190.8369331084056
 31
0.0
  0
SOLID
  5
180
330
17A
100
AcDbEntity
  8
BEM
 62
     0
100
AcDbTrace
 10
180.1345276427641
 20
192.0035997750723
 30
0.0
 11
180.1345276427641
 21
189.6702664417389
 31
0.0
 12
173.1345276427641
 22
190.8369331084056
 32
0.0
 13
173.1345276427641
 23
190.8369331084056
 33
0.0
  0
SOLID
  5
181
330
17A
100
AcDbEntity
  8
BEM
 62
     0
100
AcDbTrace
 10
162.1345276427641
 20
192.0035997750723
 30
0.0
 11
162.1345276427641
 21
189.6702664417389
 31
0.0
 12
169.1345276427641
 22
190.8369331084056
 32
0.0
 13
169.1345276427641
 23
190.8369331084056
 33
0.0
  0
MTEXT
  5
182
330
17A
100
AcDbEntity
  8
BEM
 62
     1
100
AcDbMText
 10
150.1345276427642
 20
197.3369331084056
 30
0.0
 40
7.0
 41
0.0
 71
     5
 72
     1
  1
\A1;4
  7
GREEKS
 73
     1
 44
1.0
  0
POINT
  5
183
330
17A
100
AcDbEntity
  8
DEFPOINTS
 62
     0
100
AcDbPoint
 10
173.1345276427641
 20
223.5678627058619
 30
0.0
  0
POINT
  5
184
330
17A
100
AcDbEntity
  8
DEFPOINTS
 62
     0
100
AcDbPoint
 10
169.1345276427641
 20
223.5678627058619
 30
0.0
  0
POINT
  5
185
330
17A
100
AcDbEntity
  8
DEFPOINTS
 62
     0
100
AcDbPoint
 10
169.1345276427641
 20
190.8369331084056
 30
0.0
  0
ENDBLK
  5
187
330
17A
100
AcDbEntity
  8
0
100
AcDbBlockEnd
  0
BLOCK
  5
192
330
188
100
AcDbEntity
  8
0
100
AcDbBlockBegin
  2
*D6
 70
     1
 10
0.0
 20
0.0
 30
0.0
  3
*D6
  1

  0
LINE
  5
189
330
188
100
AcDbEntity
  8
BEM
 62
     0
370
    -2
100
AcDbLine
 10
258.1345276427642
 20
229.5678627058621
 30
0.0
 11
258.1345276427642
 21
188.8369331084056
 31
0.0
  0
LINE
  5
18A
330
188
100
AcDbEntity
  8
BEM
 62
     0
370
    -2
100
AcDbLine
 10
173.1345276427641
 20
221.5678627058619
 30
0.0
 11
173.1345276427641
 21
188.8369331084056
 31
0.0
  0
LINE
  5
18B
330
188
100
AcDbEntity
  8
BEM
 62
     0
370
    -2
100
AcDbLine
 10
251.1345276427642
 20
190.8369331084056
 30
0.0
 11
180.1345276427641
 21
190.8369331084056
 31
0.0
  0
SOLID
  5
18C
330
188
100
AcDbEntity
  8
BEM
 62
     0
100
AcDbTrace
 10
251.1345276427642
 20
192.0035997750723
 30
0.0
 11
251.1345276427642
 21
189.6702664417389
 31
0.0
 12
258.1345276427642
 22
190.8369331084056
 32
0.0
 13
258.1345276427642
 23
190.8369331084056
 33
0.0
  0
SOLID
  5
18D
330
188
100
AcDbEntity
  8
BEM
 62
     0
100
AcDbTrace
 10
180.1345276427641
 20
192.0035997750723
 30
0.0
 11
180.1345276427641
 21
189.6702664417389
 31
0.0
 12
173.1345276427641
 22
190.8369331084056
 32
0.0
 13
173.1345276427641
 23
190.8369331084056
 33
0.0
  0
MTEXT
  5
18E
330
188
100
AcDbEntity
  8
BEM
 62
     1
100
AcDbMText
 10
215.6345276427642
 20
197.3369331084056
 30
0.0
 40
7.0
 41
0.0
 71
     5
 72
     1
  1
\A1;85
  7
GREEKS
 73
     1
 44
1.0
  0
POINT
  5
18F
330
188
100
AcDbEntity
  8
DEFPOINTS
 62
     0
100
AcDbPoint
 10
258.1345276427642
 20
231.5678627058621
 30
0.0
  0
POINT
  5
190
330
188
100
AcDbEntity
  8
DEFPOINTS
 62
     0
100
AcDbPoint
 10
173.1345276427641
 20
223.5678627058619
 30
0.0
  0
POINT
  5
191
330
188
100
AcDbEntity
  8
DEFPOINTS
 62
     0
100
AcDbPoint
 10
173.1345276427641
 20
190.8369331084056
 30
0.0
  0
ENDBLK
  5
193
330
188
100
AcDbEntity
  8
0
100
AcDbBlockEnd
  0
BLOCK
  5
1B1
330
1A7
100
AcDbEntity
  8
0
100
AcDbBlockBegin
  2
*D7
 70
     1
 10
0.0
 20
0.0
 30
0.0
  3
*D7
  1

  0
LINE
  5
1A8
330
1A7
100
AcDbEntity
  8
BEM
 62
     0
370
    -2
100
AcDbLine
 10
167.1345276427642
 20
512.5678627058618
 30
0.0
 11
145.5192137933006
 21
512.5678627058618
 31
0.0
  0
LINE
  5
1A9
330
1A7
100
AcDbEntity
  8
BEM
 62
     0
370
    -2
100
AcDbLine
 10
167.1345276427642
 20
223.5678627058619
 30
0.0
 11
145.5192137933005
 21
223.5678627058619
 31
0.0
  0
LINE
  5
1AA
330
1A7
100
AcDbEntity
  8
BEM
 62
     0
370
    -2
100
AcDbLine
 10
147.5192137933006
 20
505.5678627058618
 30
0.0
 11
147.5192137933005
 21
230.5678627058619
 31
0.0
  0
SOLID
  5
1AB
330
1A7
100
AcDbEntity
  8
BEM
 62
     0
100
AcDbTrace
 10
146.3525471266339
 20
505.5678627058618
 30
0.0
 11
148.6858804599672
 21
505.5678627058618
 31
0.0
 12
147.5192137933006
 22
512.5678627058618
 32
0.0
 13
147.5192137933006
 23
512.5678627058618
 33
0.0
  0
SOLID
  5
1AC
330
1A7
100
AcDbEntity
  8
BEM
 62
     0
100
AcDbTrace
 10
146.3525471266339
 20
230.5678627058619
 30
0.0
 11
148.6858804599672
 21
230.5678627058619
 31
0.0
 12
147.5192137933005
 22
223.5678627058619
 32
0.0
 13
147.5192137933005
 23
223.5678627058619
 33
0.0
  0
MTEXT
  5
1AD
330
1A7
100
AcDbEntity
  8
BEM
 62
     1
100
AcDbMText
 10
141.0192137933005
 20
368.0678627058619
 30
0.0
 40
7.0
 41
0.0
 71
     5
 72
     1
  1
\A1;%%c289
  7
GREEKS
 11
0.0000000000000001
 21
1.0
 31
0.0
 73
     1
 44
1.0
  0
POINT
  5
1AE
330
1A7
100
AcDbEntity
  8
DEFPOINTS
 62
     0
100
AcDbPoint
 10
169.1345276427641
 20
512.5678627058618
 30
0.0
  0
POINT
  5
1AF
330
1A7
100
AcDbEntity
  8
DEFPOINTS
 62
     0
100
AcDbPoint
 10
169.1345276427641
 20
223.5678627058619
 30
0.0
  0
POINT
  5
1B0
330
1A7
100
AcDbEntity
  8
DEFPOINTS
 62
     0
100
AcDbPoint
 10
147.5192137933005
 20
223.5678627058619
 30
0.0
  0
ENDBLK
  5
1B2
330
1A7
100
AcDbEntity
  8
0
100
AcDbBlockEnd
  0
BLOCK
  5
1D0
330
1C6
100
AcDbEntity
  8
0
100
AcDbBlockBegin
  2
*D8
 70
     1
 10
0.0
 20
0.0
 30
0.0
  3
*D8
  1

  0
LINE
  5
1D2
330
1C6
100
AcDbEntity
  8
BEM
 62
     0
370
    -2
100
AcDbLine
 10
260.1345276427642
 20
504.5678627058621
 30
0.0
 11
284.3304521661453
 21
504.5678627058621
 31
0.0
  0
LINE
  5
1D3
330
1C6
100
AcDbEntity
  8
BEM
 62
     0
370
    -2
100
AcDbLine
 10
260.1345276427642
 20
231.5678627058621
 30
0.0
 11
284.3304521661453
 21
231.5678627058621
 31
0.0
  0
LINE
  5
1D4
330
1C6
100
AcDbEntity
  8
BEM
 62
     0
370
    -2
100
AcDbLine
 10
282.3304521661453
 20
497.5678627058621
 30
0.0
 11
282.3304521661453
 21
238.5678627058621
 31
0.0
  0
SOLID
  5
1D5
330
1C6
100
AcDbEntity
  8
BEM
 62
     0
100
AcDbTrace
 10
281.1637854994787
 20
497.5678627058621
 30
0.0
 11
283.497118832812
 21
497.5678627058621
 31
0.0
 12
282.3304521661453
 22
504.5678627058621
 32
0.0
 13
282.3304521661453
 23
504.5678627058621
 33
0.0
  0
SOLID
  5
1D6
330
1C6
100
AcDbEntity
  8
BEM
 62
     0
100
AcDbTrace
 10
281.1637854994786
 20
238.5678627058621
 30
0.0
 11
283.497118832812
 21
238.5678627058621
 31
0.0
 12
282.3304521661453
 22
231.5678627058621
 32
0.0
 13
282.3304521661453
 23
231.5678627058621
 33
0.0
  0
MTEXT
  5
1D7
330
1C6
100
AcDbEntity
  8
BEM
 62
     1
100
AcDbMText
 10
275.8304521661452
 20
368.0678627058622
 30
0.0
 40
7.0
 41
0.0
 71
     5
 72
     1
  1
\A1;%%c273
  7
GREEKS
 11
0.0000000000000001
 21
1.0
 31
0.0
 73
     1
 44
1.0
  0
POINT
  5
1D8
330
1C6
100
AcDbEntity
  8
DEFPOINTS
 62
     0
100
AcDbPoint
 10
258.1345276427642
 20
504.5678627058621
 30
0.0
  0
POINT
  5
1D9
330
1C6
100
AcDbEntity
  8
DEFPOINTS
 62
     0
100
AcDbPoint
 10
258.1345276427642
 20
231.5678627058621
 30
0.0
  0
POINT
  5
1DA
330
1C6
100
AcDbEntity
  8
DEFPOINTS
 62
     0
100
AcDbPoint
 10
282.3304521661453
 20
231.5678627058621
 30
0.0
  0
ENDBLK
  5
1D1
330
1C6
100
AcDbEntity
  8
0
100
AcDbBlockEnd
  0
ENDSEC
  0
SECTION
  2
ENTITIES
  0
LINE
  5
D0
330
20
100
AcDbEntity
  8
STEMPEL
100
AcDbLine
 10
410.0
 20
110.0
 30
0.0
 11
40.0
 21
110.0
 31
0.0
  0
LINE
  5
D1
330
20
100
AcDbEntity
  8
STEMPEL
100
AcDbLine
 10
146.0000000000001
 20
109.9999999999999
 30
0.0
 11
146.0
 21
9.999999999999971
 31
0.0
  0
LINE
  5
D2
330
20
100
AcDbEntity
  8
STEMPEL
100
AcDbLine
 10
230.0
 20
110.0
 30
0.0
 11
230.0
 21
9.999999999999971
 31
0.0
  0
LINE
  5
D3
330
20
100
AcDbEntity
  8
STEMPEL
100
AcDbLine
 10
332.0
 20
109.9999999999997
 30
0.0
 11
332.0
 21
40.0
 31
0.0
  0
LINE
  5
D4
330
20
100
AcDbEntity
  8
STEMPEL
100
AcDbLine
 10
145.9999999999999
 20
29.99999999999997
 30
0.0
 11
40.0
 21
29.99999999999997
 31
0.0
  0
LINE
  5
D5
330
20
100
AcDbEntity
  8
STEMPEL
100
AcDbLine
 10
410.0
 20
40.0
 30
0.0
 11
146.0000000000001
 21
39.99999999999997
 31
0.0
  0
LINE
  5
D6
330
20
100
AcDbEntity
  8
STEMPEL
100
AcDbLine
 10
410.0
 20
80.0
 30
0.0
 11
146.0000000000001
 21
79.99999999999994
 31
0.0
  0
LINE
  5
D7
330
20
100
AcDbEntity
  8
VOLL
100
AcDbLine
 10
54.00000000000011
 20
110.0
 30
0.0
 11
54.0
 21
9.999999999999971
 31
0.0
  0
LINE
  5
D8
330
20
100
AcDbEntity
  8
VOLL
100
AcDbLine
 10
104.0000000000001
 20
109.9999999999999
 30
0.0
 11
104.0
 21
9.999999999999971
 31
0.0
  0
LINE
  5
D9
330
20
100
AcDbEntity
  8
VOLL
100
AcDbLine
 10
124.0000000000001
 20
109.9999999999999
 30
0.0
 11
124.0
 21
9.999999999999971
 31
0.0
  0
LINE
  5
DA
330
20
100
AcDbEntity
  8
VOLL
100
AcDbLine
 10
164.0000000000001
 20
79.99999999999994
 30
0.0
 11
164.0000000000001
 21
39.99999999999997
 31
0.0
  0
LINE
  5
DB
330
20
100
AcDbEntity
  8
VOLL
100
AcDbLine
 10
190.0000000000001
 20
109.9999999999998
 30
0.0
 11
190.0
 21
39.99999999999997
 31
0.0
  0
LINE
  5
DC
330
20
100
AcDbEntity
  8
HILF
100
AcDbLine
 10
40.00000000000011
 20
100.0
 30
0.0
 11
146.0000000000001
 21
100.0
 31
0.0
  0
LINE
  5
DD
330
20
100
AcDbEntity
  8
HILF
100
AcDbLine
 10
40.00000000000011
 20
90.00000000000005
 30
0.0
 11
146.0000000000001
 21
90.00000000000005
 31
0.0
  0
LINE
  5
DE
330
20
100
AcDbEntity
  8
HILF
100
AcDbLine
 10
40.00000000000011
 20
79.99999999999994
 30
0.0
 11
146.0000000000001
 21
79.99999999999994
 31
0.0
  0
LINE
  5
DF
330
20
100
AcDbEntity
  8
HILF
100
AcDbLine
 10
40.00000000000011
 20
69.99999999999994
 30
0.0
 11
146.0000000000001
 21
69.99999999999994
 31
0.0
  0
LINE
  5
E0
330
20
100
AcDbEntity
  8
HILF
100
AcDbLine
 10
40.00000000000011
 20
59.99999999999997
 30
0.0
 11
146.0000000000001
 21
59.99999999999997
 31
0.0
  0
LINE
  5
E1
330
20
100
AcDbEntity
  8
HILF
100
AcDbLine
 10
40.00000000000011
 20
49.99999999999997
 30
0.0
 11
146.0000000000001
 21
49.99999999999997
 31
0.0
  0
LINE
  5
E2
330
20
100
AcDbEntity
  8
HILF
100
AcDbLine
 10
40.00000000000011
 20
39.99999999999997
 30
0.0
 11
146.0000000000001
 21
39.99999999999997
 31
0.0
  0
LINE
  5
E3
330
20
100
AcDbEntity
  8
HILF
100
AcDbLine
 10
146.0000000000001
 20
69.99999999999994
 30
0.0
 11
230.0
 21
69.99999999999994
 31
0.0
  0
LINE
  5
E4
330
20
100
AcDbEntity
  8
HILF
100
AcDbLine
 10
146.0000000000001
 20
59.99999999999997
 30
0.0
 11
230.0
 21
59.99999999999997
 31
0.0
  0
LINE
  5
E5
330
20
100
AcDbEntity
  8
HILF
100
AcDbLine
 10
146.0000000000001
 20
49.99999999999997
 30
0.0
 11
230.0
 21
49.99999999999997
 31
0.0
  0
LINE
  5
E6
330
20
100
AcDbEntity
  8
HILF
100
AcDbLine
 10
234.7736801096947
 20
84.03758247564139
 30
0.0
 11
324.8353916556312
 21
84.03758247564139
 31
0.0
  0
LINE
  5
E7
330
20
100
AcDbEntity
  8
HILF
100
AcDbLine
 10
234.7736801096947
 20
69.99999999999994
 30
0.0
 11
324.8353916556309
 21
69.99999999999994
 31
0.0
  0
LINE
  5
E8
330
20
100
AcDbEntity
  8
HILF
100
AcDbLine
 10
234.7736801096947
 20
59.99999999999997
 30
0.0
 11
324.8353916556309
 21
59.99999999999997
 31
0.0
  0
LINE
  5
E9
330
20
100
AcDbEntity
  8
HILF
100
AcDbLine
 10
234.7736801096947
 20
49.99999999999997
 30
0.0
 11
324.8353916556309
 21
49.99999999999997
 31
0.0
  0
LINE
  5
EA
330
20
100
AcDbEntity
  8
VOLL
100
AcDbLine
 10
332.0
 20
60.0
 30
0.0
 11
410.0
 21
60.0
 31
0.0
  0
LINE
  5
EB
330
20
100
AcDbEntity
  8
HILF
100
AcDbLine
 10
336.7238616296993
 20
83.77983636955827
 30
0.0
 11
404.8588839326728
 21
83.77983636955827
 31
0.0
  0
LINE
  5
EC
330
20
100
AcDbEntity
  8
HILF
100
AcDbLine
 10
233.4909699289885
 20
14.89398258028314
 30
0.0
 11
404.8588839326728
 21
14.89398258028314
 31
0.0
  0
TEXT
  5
ED
330
20
100
AcDbEntity
  8
TEXT
100
AcDbText
 10
66.07934794225748
 20
18.67381894984132
 30
0.0
 40
4.0
  1
Änderung
 41
0.8
  7
GREEKS
 72
     1
 11
76.82220508511463
 21
18.67381894984132
 31
0.0
100
AcDbText
  0
TEXT
  5
EE
330
20
100
AcDbEntity
  8
TEXT
100
AcDbText
 10
153.5163572150377
 20
102.4620895087088
 30
0.0
 40
5.0
  1
Maßstab
 41
0.8
  7
GREEKS
100
AcDbText
  0
TEXT
  5
EF
330
20
100
AcDbEntity
  8
TEXT
100
AcDbText
 10
194.2858954734051
 20
102.4184168434819
 30
0.0
 40
5.0
  1
Zul. Abw.
 41
0.8
  7
GREEKS
100
AcDbText
  0
TEXT
  5
F0
330
20
100
AcDbEntity
  8
TEXT
100
AcDbText
 10
234.877940380901
 20
102.5489328011779
 30
0.0
 40
5.0
  1
Benennung
 41
0.8
  7
GREEKS
100
AcDbText
  0
TEXT
  5
F1
330
20
100
AcDbEntity
  8
TEXT
100
AcDbText
 10
336.178754957634
 20
102.3132034537136
 30
0.0
 40
5.0
  1
Zeichnungs Nr.
 41
0.8
  7
GREEKS
100
AcDbText
  0
TEXT
  5
F2
330
20
100
AcDbEntity
  8
TEXT
100
AcDbText
 10
234.742238391136
 20
30.84560570193057
 30
0.0
 40
5.0
  1
Bauvorhaben
 41
0.8
  7
GREEKS
100
AcDbText
  0
TEXT
  5
F3
330
20
100
AcDbEntity
  8
TEXT
100
AcDbText
 10
336.7238616296993
 20
73.1811823709997
 30
0.0
 40
5.0
  1
Ersatz für:
 41
0.8
  7
GREEKS
100
AcDbText
  0
TEXT
  5
F4
330
20
100
AcDbEntity
  8
TEXT
100
AcDbText
 10
48.26641107045759
 20
13.65465846027192
 30
0.0
 40
4.0
  1
Index
 50
90.0
 41
0.8
  7
GREEKS
100
AcDbText
  0
TEXT
  5
F5
330
20
100
AcDbEntity
  8
TEXT
100
AcDbText
 10
109.8092654933962
 20
18.6715626933981
 30
0.0
 40
4.0
  1
Tag
 41
0.8
  7
GREEKS
 72
     1
 11
113.5425988267295
 21
18.6715626933981
 31
0.0
100
AcDbText
  0
TEXT
  5
F6
330
20
100
AcDbEntity
  8
TEXT
100
AcDbText
 10
128.3408936820852
 20
18.59324216966408
 30
0.0
 40
4.0
  1
Name
 41
0.8
  7
GREEKS
 72
     1
 11
134.6647032058947
 21
18.59324216966408
 31
0.0
100
AcDbText
  0
TEXT
  5
F7
330
20
100
AcDbEntity
  8
TEXT
100
AcDbText
 10
172.331167315365
 20
73.31880501229926
 30
0.0
 40
4.0
  1
Tag
 41
0.8
  7
GREEKS
100
AcDbText
  0
TEXT
  5
F8
330
20
100
AcDbEntity
  8
TEXT
100
AcDbText
 10
202.4626584226295
 20
73.30961091915225
 30
0.0
 40
4.0
  1
Name
 41
0.8
  7
GREEKS
100
AcDbText
  0
TEXT
  5
F9
330
20
100
AcDbEntity
  8
TEXT
100
AcDbText
 10
147.5836127167615
 20
63.62990369617964
 30
0.0
 40
4.0
  1
Gez.
 41
0.8
  7
GREEKS
100
AcDbText
  0
TEXT
  5
FA
330
20
100
AcDbEntity
  8
TEXT
100
AcDbText
 10
147.5515086571672
 20
53.68926291428377
 30
0.0
 40
4.0
  1
Gepr.
 41
0.8
  7
GREEKS
100
AcDbText
  0
TEXT
  5
FB
330
20
100
AcDbEntity
  8
TEXT
100
AcDbText
 10
147.6006777387303
 20
43.52946389649807
 30
0.0
 40
4.0
  1
Norm.
 41
0.8
  7
GREEKS
100
AcDbText
  0
LINE
  5
FC
330
20
100
AcDbEntity
  8
STEMPEL
100
AcDbLine
 10
49.99999999999989
 20
10.0
 30
0.0
 11
410.0
 21
10.0
 31
0.0
  0
TEXT
  5
FD
330
20
100
AcDbEntity
  8
TEXT
100
AcDbText
 10
337.2400861497006
 20
52.07416177878602
 30
0.0
 40
5.0
  1
ersetzt durch:
 41
0.8
  7
GREEKS
100
AcDbText
  0
LINE
  5
FE
330
20
100
AcDbEntity
  8
STEMPEL
100
AcDbLine
 10
410.0
 20
10.0
 30
0.0
 11
39.99999999999989
 21
10.0
 31
0.0
  0
LINE
  5
FF
330
20
100
AcDbEntity
  8
STEMPEL
100
AcDbLine
 10
410.0
 20
10.0
 30
0.0
 11
410.0
 21
584.0
 31
0.0
  0
LINE
  5
100
330
20
100
AcDbEntity
  8
STEMPEL
100
AcDbLine
 10
40.0
 20
10.0
 30
0.0
 11
39.99999999999989
 21
584.0
 31
0.0
  0
LINE
  5
101
330
20
100
AcDbEntity
  8
STEMPEL
100
AcDbLine
 10
410.0
 20
584.0
 30
0.0
 11
39.99999999999989
 21
584.0
 31
0.0
  0
LINE
  5
102
330
20
100
AcDbEntity
  8
HILF
100
AcDbLine
 10
0.0
 20
0.0
 30
0.0
 11
-0.0000000000001137
 21
594.0
 31
0.0
  0
LINE
  5
103
330
20
100
AcDbEntity
  8
HILF
100
AcDbLine
 10
420.0
 20
594.0000000000002
 30
0.0
 11
0.0
 21
594.0
 31
0.0
  0
LINE
  5
104
330
20
100
AcDbEntity
  8
HILF
100
AcDbLine
 10
420.0
 20
0.0
 30
0.0
 11
0.0
 21
0.0
 31
0.0
  0
LINE
  5
105
330
20
100
AcDbEntity
  8
HILF
100
AcDbLine
 10
31.08767135713856
 20
297.0000000000001
 30
0.0
 11
0.0000000000001137
 21
297.0000000000001
 31
0.0
  0
TEXT
  5
106
330
20
100
AcDbEntity
  8
TEXT
100
AcDbText
 10
148.622109822104
 20
73.14025471151666
 30
0.0
 40
4.0
  1
2011
 41
0.8
  7
GREEKS
100
AcDbText
  0
LINE
  5
107
330
20
100
AcDbEntity
  8
HILF
100
AcDbLine
 10
420.0
 20
-0.0000000000001137
 30
0.0
 11
420.0
 21
594.0
 31
0.0
  0
TEXT
  5
108
330
20
100
AcDbEntity
  8
VOLL
100
AcDbText
 10
78.07675471698113
 20
31.02594776470585
 30
0.0
 40
1.8
  1

  7
GREEKS
100
AcDbText
  0
TEXT
  5
109
330
20
100
AcDbEntity
  8
TEXT
100
AcDbText
 10
41.85509950977677
 20
111.6719999999999
 30
0.0
 40
5.0
  1
Erstellt mit AUTOCAD 2004
 41
0.8
  7
GREEKS
100
AcDbText
  0
TEXT
  5
10A
330
20
100
AcDbEntity
  8
TEXT
100
AcDbText
 10
204.4216048581258
 20
63.0896391972351
 30
0.0
 40
4.0
  1
Koeh
 41
0.8
  7
GREEKS
 72
     1
 11
209.6787477152686
 21
63.0896391972351
 31
0.0
100
AcDbText
  0
TEXT
  5
10B
330
20
100
AcDbEntity
  8
TEXT
 62
     1
100
AcDbText
 10
343.247717454267
 20
88.14901428913959
 30
0.0
 40
7.0
  1
08003250W
 41
0.8
  7
GREEKS
 72
     1
 11
367.247717454267
 21
88.14901428913959
 31
0.0
100
AcDbText
  0
TEXT
  5
10C
330
20
100
AcDbEntity
  8
TEXT
 62
     1
100
AcDbText
 10
160.5006306481887
 20
88.14901428913959
 30
0.0
 40
7.0
  1
1:2
 41
0.8
  7
GREEKS
100
AcDbText
  0
TEXT
  5
10D
330
20
100
AcDbEntity
  8
TEXT
100
AcDbText
 10
170.3989971082361
 20
63.10765040825732
 30
0.0
 40
4.0
  1
06.04.
 41
0.8
  7
GREEKS
 72
     1
 11
177.4085209177599
 21
63.10765040825732
 31
0.0
100
AcDbText
  0
TEXT
  5
10E
330
20
100
AcDbEntity
  8
TEXT
 62
     1
100
AcDbText
 10
236.8935731057402
 20
87.41748789253779
 30
0.0
 40
7.0
  1
Enddeckel DN250
 41
0.8
  7
GREEKS
100
AcDbText
  0
TEXT
  5
10F
330
20
100
AcDbEntity
  8
TEXT
100
AcDbText
 10
235.1296391125316
 20
51.64011943042158
 30
0.0
 40
5.0
  1
EDV-Art.Nr. 08003.250X
 41
0.8
  7
GREEKS
100
AcDbText
  0
TEXT
  5
110
330
20
100
AcDbEntity
  8
TEXT
100
AcDbText
 10
234.9837501577827
 20
42.62974153022634
 30
0.0
 40
4.0
  1
08003250W.DWG
 41
0.8
  7
GREEKS
100
AcDbText
  0
INSERT
  5
111
330
20
100
AcDbEntity
  8
STEMPEL
100
AcDbBlockReference
  2
LOGO
 10
150.9955485457794
 20
45.02105276448321
 30
0.0
 41
2.0
 42
2.0
 43
2.0
  0
LINE
  5
113
330
20
100
AcDbEntity
  8
MITTEL
100
AcDbLine
 10
164.1345276427641
 20
368.0678627058619
 30
0.0
 11
263.1345276427642
 21
368.0678627058619
 31
0.0
  0
LINE
  5
114
330
20
100
AcDbEntity
  8
STEMPEL
100
AcDbLine
 10
258.1345276427642
 20
504.5678627058621
 30
0.0
 11
258.1345276427642
 21
231.5678627058621
 31
0.0
  0
DIMENSION
  5
115
330
20
100
AcDbEntity
  8
BEM
100
AcDbDimension
  2
*D8
 10
282.3304521661453
 20
231.5678627058621
 30
0.0
 11
275.8304521661452
 21
368.0678627058622
 31
0.0
 70
    32
  1
%%c<>
 71
     5
 42
273.0
  3
Standard
100
AcDbAlignedDimension
 13
258.1345276427642
 23
504.5678627058621
 33
0.0
 14
258.1345276427642
 24
231.5678627058621
 34
0.0
 50
90.0
100
AcDbRotatedDimension
1001
ACAD
1000
DSTYLE
1002
{
1070
    40
1040
2.0
1070
    41
1040
3.5
1070
    42
1040
1.0
1070
    43
1040
7.0
1070
    44
1040
1.0
1070
    47
1040
0.8
1070
    48
1040
0.8
1070
    73
1070
     0
1070
    74
1070
     0
1070
    77
1070
     1
1070
    78
1070
     8
1070
    79
1070
     2
1070
   140
1040
3.5
1070
   141
1040
1.5
1070
   146
1040
0.5
1070
   147
1040
1.5
1070
   172
1070
     1
1070
   178
1070
     1
1070
   179
1070
     2
1070
   271
1070
     2
1070
   272
1070
     2
1070
   284
1070
     8
1070
   285
1070
     8
1070
   286
1070
     8
1070
   340
1005
2D
1002
}
  0
TEXT
  5
116
330
20
100
AcDbEntity
  8
TEXT
 62
     1
100
AcDbText
 10
188.5186271691948
 20
148.4433733384164
 30
0.0
 40
7.0
  1
Werkstoff: EN 10219 S235
 41
0.8
  7
GREEKS
100
AcDbText
  0
TEXT
  5
117
330
20
100
AcDbEntity
  8
TEXT
 62
     1
100
AcDbText
 10
236.5186271691948
 20
136.4433733384164
 30
0.0
 40
7.0
  1
feuerverzinkt und innen beschichtet
 41
0.8
  7
GREEKS
100
AcDbText
  0
LINE
  5
119
330
20
100
AcDbEntity
  8
STEMPEL
100
AcDbLine
 10
173.1345276427641
 20
231.5678627058621
 30
0.0
 11
258.1345276427642
 21
231.5678627058621
 31
0.0
  0
LINE
  5
11A
330
20
100
AcDbEntity
  8
STEMPEL
100
AcDbLine
 10
173.1345276427641
 20
504.5678627058621
 30
0.0
 11
258.1345276427642
 21
504.5678627058621
 31
0.0
  0
TEXT
  5
11B
330
20
100
AcDbEntity
  8
TEXT
 62
     1
100
AcDbText
 10
69.64115036283408
 20
158.6205116083504
 30
0.0
 40
7.0
  1
Rohrende leicht entgratet
 41
0.8
  7
GREEKS
100
AcDbText
  0
LINE
  5
11C
330
20
100
AcDbEntity
  8
STEMPEL
100
AcDbLine
 10
173.1345276427641
 20
512.5678627058618
 30
0.0
 11
173.1345276427641
 21
223.5678627058619
 31
0.0
  0
LINE
  5
11D
330
20
100
AcDbEntity
  8
STEMPEL
100
AcDbLine
 10
169.1345276427641
 20
512.5678627058618
 30
0.0
 11
169.1345276427641
 21
223.5678627058619
 31
0.0
  0
LINE
  5
11E
330
20
100
AcDbEntity
  8
STEMPEL
100
AcDbLine
 10
169.1345276427641
 20
512.5678627058618
 30
0.0
 11
173.1345276427641
 21
512.5678627058618
 31
0.0
  0
LINE
  5
11F
330
20
100
AcDbEntity
  8
STEMPEL
100
AcDbLine
 10
169.1345276427641
 20
223.5678627058619
 30
0.0
 11
173.1345276427641
 21
223.5678627058619
 31
0.0
  0
DIMENSION
  5
120
330
20
100
AcDbEntity
  8
BEM
100
AcDbDimension
  2
*D6
 10
173.1345276427641
 20
190.8369331084056
 30
0.0
 11
215.6345276427642
 21
197.3369331084056
 31
0.0
 70
    32
 71
     5
 42
85.0
  3
Standard
100
AcDbAlignedDimension
 13
258.1345276427642
 23
231.5678627058621
 33
0.0
 14
173.1345276427641
 24
223.5678627058619
 34
0.0
100
AcDbRotatedDimension
1001
ACAD
1000
DSTYLE
1002
{
1070
    40
1040
2.0
1070
    41
1040
3.5
1070
    42
1040
1.0
1070
    43
1040
7.0
1070
    44
1040
1.0
1070
    47
1040
0.8
1070
    48
1040
0.8
1070
    73
1070
     0
1070
    74
1070
     0
1070
    77
1070
     1
1070
    78
1070
     8
1070
    79
1070
     2
1070
   140
1040
3.5
1070
   141
1040
1.5
1070
   146
1040
0.5
1070
   147
1040
1.5
1070
   172
1070
     1
1070
   178
1070
     1
1070
   179
1070
     2
1070
   271
1070
     2
1070
   272
1070
     2
1070
   284
1070
     8
1070
   285
1070
     8
1070
   286
1070
     8
1070
   340
1005
2D
1002
}
  0
DIMENSION
  5
121
330
20
100
AcDbEntity
  8
BEM
100
AcDbDimension
  2
*D5
 10
169.1345276427641
 20
190.8369331084056
 30
0.0
 11
150.1345276427642
 21
197.3369331084056
 31
0.0
 70
    32
 71
     5
 42
4.0
  3
Standard
100
AcDbAlignedDimension
 13
173.1345276427641
 23
223.5678627058619
 33
0.0
 14
169.1345276427641
 24
223.5678627058619
 34
0.0
100
AcDbRotatedDimension
1001
ACAD
1000
DSTYLE
1002
{
1070
    40
1040
2.0
1070
    41
1040
3.5
1070
    42
1040
1.0
1070
    43
1040
7.0
1070
    44
1040
1.0
1070
    47
1040
0.8
1070
    48
1040
0.8
1070
    73
1070
     0
1070
    74
1070
     0
1070
    77
1070
     1
1070
    78
1070
     8
1070
    79
1070
     2
1070
   140
1040
3.5
1070
   141
1040
1.5
1070
   146
1040
0.5
1070
   147
1040
1.5
1070
   172
1070
     1
1070
   178
1070
     1
1070
   179
1070
     2
1070
   271
1070
     2
1070
   272
1070
     2
1070
   284
1070
     8
1070
   285
1070
     8
1070
   286
1070
     8
1070
   340
1005
2D
1002
}
  0
DIMENSION
  5
122
330
20
100
AcDbEntity
  8
BEM
100
AcDbDimension
  2
*D7
 10
147.5192137933005
 20
223.5678627058619
 30
0.0
 11
141.0192137933005
 21
368.0678627058619
 31
0.0
 70
    32
  1
%%c<>
 71
     5
 42
289.0
  3
Standard
100
AcDbAlignedDimension
 13
169.1345276427641
 23
512.5678627058618
 33
0.0
 14
169.1345276427641
 24
223.5678627058619
 34
0.0
 50
90.0
100
AcDbRotatedDimension
1001
ACAD
1000
DSTYLE
1002
{
1070
    40
1040
2.0
1070
    41
1040
3.5
1070
    42
1040
1.0
1070
    43
1040
7.0
1070
    44
1040
1.0
1070
    47
1040
0.8
1070
    48
1040
0.8
1070
    73
1070
     0
1070
    74
1070
     0
1070
    77
1070
     1
1070
    78
1070
     8
1070
    79
1070
     2
1070
   140
1040
3.5
1070
   141
1040
1.5
1070
   146
1040
0.5
1070
   147
1040
1.5
1070
   172
1070
     1
1070
   178
1070
     1
1070
   179
1070
     2
1070
   271
1070
     2
1070
   272
1070
     2
1070
   284
1070
     8
1070
   285
1070
     8
1070
   286
1070
     8
1070
   340
1005
2D
1002
}
  0
ARC
  5
132
330
20
100
AcDbEntity
  8
SCHRAFF
100
AcDbCircle
 10
173.1345276427641
 20
504.5678627058621
 30
0.0
 40
4.0
100
AcDbArc
 50
0.0000000000008142
 51
90.0
  0
INSERT
  5
133
330
20
100
AcDbEntity
  8
SCHRAFF
100
AcDbBlockReference
  2
*X1
 10
-5.0
 20
0.0
 30
0.0
1001
ACAD
1000
HATCH
1002
{
1070
    16
1000
_U,I
1040
0.1
1040
0.0
1070
     0
1002
}
  0
ARC
  5
134
330
20
100
AcDbEntity
  8
SCHRAFF
100
AcDbCircle
 10
173.1345276427641
 20
231.5678627058617
 30
0.0
 40
4.0
100
AcDbArc
 50
270.0
 51
359.9999999999992
  0
INSERT
  5
135
330
20
100
AcDbEntity
  8
SCHRAFF
100
AcDbBlockReference
  2
*X1
 10
-5.0
 20
736.1357254117238
 30
0.0
 41
-1.0
 50
180.0
1001
ACAD
1000
HATCH
1002
{
1070
    16
1000
_U,I
1040
0.1
1040
0.0
1070
     0
1002
}
  0
ARC
  5
136
330
20
100
AcDbEntity
  8
SCHRAFF
100
AcDbCircle
 10
175.1345276427642
 20
235.3071421207575
 30
0.0
 40
2.364194660705138
100
AcDbArc
 50
32.22570321825175
 51
147.7742967817483
  0
ARC
  5
137
330
20
100
AcDbEntity
  8
SCHRAFF
100
AcDbCircle
 10
175.1345276427642
 20
245.3071421207575
 30
0.0
 40
2.364194660705138
100
AcDbArc
 50
32.22570321825175
 51
147.7742967817483
  0
ARC
  5
138
330
20
100
AcDbEntity
  8
SCHRAFF
100
AcDbCircle
 10
175.1345276427642
 20
255.3071421207575
 30
0.0
 40
2.364194660705138
100
AcDbArc
 50
32.22570321825175
 51
147.7742967817483
  0
ARC
  5
139
330
20
100
AcDbEntity
  8
SCHRAFF
100
AcDbCircle
 10
175.1345276427642
 20
265.3071421207575
 30
0.0
 40
2.364194660705138
100
AcDbArc
 50
32.22570321825175
 51
147.7742967817483
  0
ARC
  5
13A
330
20
100
AcDbEntity
  8
SCHRAFF
100
AcDbCircle
 10
175.1345276427642
 20
275.3071421207575
 30
0.0
 40
2.364194660705138
100
AcDbArc
 50
32.22570321825175
 51
147.7742967817483
  0
ARC
  5
13B
330
20
100
AcDbEntity
  8
SCHRAFF
100
AcDbCircle
 10
175.1345276427642
 20
285.3071421207575
 30
0.0
 40
2.364194660705138
100
AcDbArc
 50
32.22570321825175
 51
147.7742967817483
  0
ARC
  5
13C
330
20
100
AcDbEntity
  8
SCHRAFF
100
AcDbCircle
 10
175.1345276427642
 20
315.3071421207576
 30
0.0
 40
2.364194660705138
100
AcDbArc
 50
32.22570321825175
 51
147.7742967817483
  0
ARC
  5
13D
330
20
100
AcDbEntity
  8
SCHRAFF
100
AcDbCircle
 10
175.1345276427642
 20
305.3071421207576
 30
0.0
 40
2.364194660705138
100
AcDbArc
 50
32.22570321825175
 51
147.7742967817483
  0
ARC
  5
13E
330
20
100
AcDbEntity
  8
SCHRAFF
100
AcDbCircle
 10
175.1345276427642
 20
295.3071421207575
 30
0.0
 40
2.364194660705138
100
AcDbArc
 50
32.22570321825175
 51
147.7742967817483
  0
ARC
  5
13F
330
20
100
AcDbEntity
  8
SCHRAFF
100
AcDbCircle
 10
175.1345276427642
 20
325.3071421207576
 30
0.0
 40
2.364194660705138
100
AcDbArc
 50
32.22570321825175
 51
147.7742967817483
  0
ARC
  5
140
330
20
100
AcDbEntity
  8
SCHRAFF
100
AcDbCircle
 10
175.1345276427642
 20
355.3071421207576
 30
0.0
 40
2.364194660705138
100
AcDbArc
 50
32.22570321825175
 51
147.7742967817483
  0
ARC
  5
141
330
20
100
AcDbEntity
  8
SCHRAFF
100
AcDbCircle
 10
175.1345276427642
 20
345.3071421207576
 30
0.0
 40
2.364194660705138
100
AcDbArc
 50
32.22570321825175
 51
147.7742967817483
  0
ARC
  5
142
330
20
100
AcDbEntity
  8
SCHRAFF
100
AcDbCircle
 10
175.1345276427642
 20
335.3071421207576
 30
0.0
 40
2.364194660705138
100
AcDbArc
 50
32.22570321825175
 51
147.7742967817483
  0
ARC
  5
143
330
20
100
AcDbEntity
  8
SCHRAFF
100
AcDbCircle
 10
175.1345276427642
 20
365.3071421207576
 30
0.0
 40
2.364194660705138
100
AcDbArc
 50
32.22570321825175
 51
147.7742967817483
  0
ARC
  5
144
330
20
100
AcDbEntity
  8
SCHRAFF
100
AcDbCircle
 10
175.1345276427642
 20
395.3071421207577
 30
0.0
 40
2.364194660705138
100
AcDbArc
 50
32.22570321825175
 51
147.7742967817483
  0
ARC
  5
145
330
20
100
AcDbEntity
  8
SCHRAFF
100
AcDbCircle
 10
175.1345276427642
 20
385.3071421207577
 30
0.0
 40
2.364194660705138
100
AcDbArc
 50
32.22570321825175
 51
147.7742967817483
  0
ARC
  5
146
330
20
100
AcDbEntity
  8
SCHRAFF
100
AcDbCircle
 10
175.1345276427642
 20
375.3071421207576
 30
0.0
 40
2.364194660705138
100
AcDbArc
 50
32.22570321825175
 51
147.7742967817483
  0
ARC
  5
147
330
20
100
AcDbEntity
  8
SCHRAFF
100
AcDbCircle
 10
175.1345276427642
 20
405.3071421207577
 30
0.0
 40
2.364194660705138
100
AcDbArc
 50
32.22570321825175
 51
147.7742967817483
  0
ARC
  5
148
330
20
100
AcDbEntity
  8
SCHRAFF
100
AcDbCircle
 10
175.1345276427642
 20
435.3071421207577
 30
0.0
 40
2.364194660705138
100
AcDbArc
 50
32.22570321825175
 51
147.7742967817483
  0
ARC
  5
149
330
20
100
AcDbEntity
  8
SCHRAFF
100
AcDbCircle
 10
175.1345276427642
 20
425.3071421207577
 30
0.0
 40
2.364194660705138
100
AcDbArc
 50
32.22570321825175
 51
147.7742967817483
  0
ARC
  5
14A
330
20
100
AcDbEntity
  8
SCHRAFF
100
AcDbCircle
 10
175.1345276427642
 20
415.3071421207576
 30
0.0
 40
2.364194660705138
100
AcDbArc
 50
32.22570321825175
 51
147.7742967817483
  0
ARC
  5
14B
330
20
100
AcDbEntity
  8
SCHRAFF
100
AcDbCircle
 10
175.1345276427642
 20
445.3071421207576
 30
0.0
 40
2.364194660705138
100
AcDbArc
 50
32.22570321825175
 51
147.7742967817483
  0
ARC
  5
14C
330
20
100
AcDbEntity
  8
SCHRAFF
100
AcDbCircle
 10
175.1345276427642
 20
475.3071421207578
 30
0.0
 40
2.364194660705138
100
AcDbArc
 50
32.22570321825175
 51
147.7742967817483
  0
ARC
  5
14D
330
20
100
AcDbEntity
  8
SCHRAFF
100
AcDbCircle
 10
175.1345276427642
 20
465.3071421207577
 30
0.0
 40
2.364194660705138
100
AcDbArc
 50
32.22570321825175
 51
147.7742967817483
  0
ARC
  5
14E
330
20
100
AcDbEntity
  8
SCHRAFF
100
AcDbCircle
 10
175.1345276427642
 20
455.3071421207577
 30
0.0
 40
2.364194660705138
100
AcDbArc
 50
32.22570321825175
 51
147.7742967817483
  0
ARC
  5
14F
330
20
100
AcDbEntity
  8
SCHRAFF
100
AcDbCircle
 10
175.1345276427642
 20
485.3071421207578
 30
0.0
 40
2.364194660705138
100
AcDbArc
 50
32.22570321825175
 51
147.7742967817483
  0
ARC
  5
150
330
20
100
AcDbEntity
  8
SCHRAFF
100
AcDbCircle
 10
175.1345276427642
 20
495.3071421207578
 30
0.0
 40
2.364194660705138
100
AcDbArc
 50
32.22570321825175
 51
147.7742967817483
  0
TEXT
  5
159
330
20
100
AcDbEntity
  8
TEXT
 62
     1
100
AcDbText
 10
202.4794943520558
 20
373.5125201200371
 30
0.0
 40
7.0
  1
DN250
 41
0.8
  7
GREEKS
100
AcDbText
  0
TEXT
  5
15D
330
20
100
AcDbEntity
  8
BEM
100
AcDbText
 10
416.5811541437437
 20
12.14804815338303
 30
0.0
 40
4.0
  1
Diese Zeichnung ist urheberrechtlich geschützt und bleibt unser Eigentum. Sie darf weder ganz noch teilweise vervielfältigt und nicht an Dritte weitergegeben werden.
 50
90.0
 41
0.8
  7
GREEKS
100
AcDbText
  0
TEXT
  5
15E
330
20
100
AcDbEntity
  8
TEXT
100
AcDbText
 10
192.6882715247924
 20
88.84756591906693
 30
0.0
 40
4.0
  1
DIN EN1123-2
 41
0.8
  7
GREEKS
 72
     1
 11
209.6787477152686
 21
88.84756591906693
 31
0.0
100
AcDbText
  0
ENDSEC
  0
SECTION
  2
OBJECTS
  0
DICTIONARY
  5
C
330
0
100
AcDbDictionary
281
     1
  3
ACAD_COLOR
350
1B
  3
ACAD_GROUP
350
D
  3
ACAD_LAYOUT
350
19
  3
ACAD_MATERIAL
350
1A
  3
ACAD_MLINESTYLE
350
16
  3
ACAD_PLOTSETTINGS
350
18
  3
ACAD_PLOTSTYLENAME
350
E
  3
AcDbVariableDictionary
350
173
  0
DICTIONARY
  5
1B
102
{ACAD_REACTORS
330
C
102
}
330
C
100
AcDbDictionary
281
     1
  0
DICTIONARY
  5
D
102
{ACAD_REACTORS
330
C
102
}
330
C
100
AcDbDictionary
281
     1
  0
DICTIONARY
  5
19
102
{ACAD_REACTORS
330
C
102
}
330
C
100
AcDbDictionary
281
     1
  3
Layout1
350
1F
  3
Model
350
23
  0
DICTIONARY
  5
1A
102
{ACAD_REACTORS
330
C
102
}
330
C
100
AcDbDictionary
281
     1
  0
DICTIONARY
  5
16
102
{ACAD_REACTORS
330
C
102
}
330
C
100
AcDbDictionary
281
     1
  3
Standard
350
17
  0
DICTIONARY
  5
18
102
{ACAD_REACTORS
330
C
102
}
330
C
100
AcDbDictionary
281
     1
  0
ACDBDICTIONARYWDFLT
  5
E
102
{ACAD_REACTORS
330
C
102
}
330
C
100
AcDbDictionary
281
     1
  3
Normal
350
F
100
AcDbDictionaryWithDefault
340
F
  0
DICTIONARY
  5
173
102
{ACAD_REACTORS
330
C
102
}
330
C
100
AcDbDictionary
281
     1
  3
DIMASSOC
350
175
  3
HIDETEXT
350
174
  3
PROJECTNAME
350
176
  0
LAYOUT
  5
1F
102
{ACAD_REACTORS
330
19
102
}
330
19
100
AcDbPlotSettings
  1

  2
RICOH Aficio 2027 PCL 6
  4

  6

 40
0.0
 41
0.0
 42
0.0
 43
0.0
 44
0.0
 45
0.0
 46
0.0
 47
0.0
 48
0.0
 49
0.0
140
0.0
141
0.0
142
1.0
143
1.0
 70
   688
 72
     0
 73
     0
 74
     5
  7
monochrome1.ctb
 75
    16
147
1.0
 76
     0
 77
     2
 78
   300
148
0.0
149
0.0
100
AcDbLayout
  1
Layout1
 70
     0
 71
     1
 10
0.0
 20
0.0
 11
12.0
 21
9.0
 12
0.0
 22
0.0
 32
0.0
 14
1.000000000000000E+20
 24
1.000000000000000E+20
 34
1.000000000000000E+20
 15
-1.000000000000000E+20
 25
-1.000000000000000E+20
 35
-1.000000000000000E+20
146
0.0
 13
0.0
 23
0.0
 33
0.0
 16
1.0
 26
0.0
 36
0.0
 17
0.0
 27
1.0
 37
0.0
 76
     0
330
1C
  0
LAYOUT
  5
23
102
{ACAD_REACTORS
330
19
102
}
330
19
100
AcDbPlotSettings
  1

  2
RICOH Aficio 2027 PCL 6
  4
A4
  6

 40
5.027083396911621
 41
5.027085304260253
 42
5.027084350585937
 43
5.027069091796875
 44
209.9733276367187
 45
296.9259948730469
 46
0.0
 47
0.0
 48
0.0
 49
0.0
140
0.0
141
0.0
142
1.0
143
1.0
 70
 11952
 72
     0
 73
     1
 74
     0
  7
monochrome1.ctb
 75
     0
147
1.0
 76
     0
 77
     2
 78
   300
148
2302.740748484264
149
92.94073819407698
100
AcDbLayout
  1
Model
 70
     1
 71
     0
 10
0.0
 20
0.0
 11
12.0
 21
9.0
 12
0.0
 22
0.0
 32
0.0
 14
0.0
 24
0.0
 34
0.0
 15
0.0
 25
0.0
 35
0.0
146
0.0
 13
0.0
 23
0.0
 33
0.0
 16
1.0
 26
0.0
 36
0.0
 17
0.0
 27
1.0
 37
0.0
 76
     0
330
20
  0
MLINESTYLE
  5
17
102
{ACAD_REACTORS
330
16
102
}
330
16
100
AcDbMlineStyle
  2
STANDARD
 70
     0
  3

 62
   256
 51
90.0
 52
90.0
 71
     2
 49
0.5
 62
   256
  6
BYLAYER
 49
-0.5
 62
   256
  6
BYLAYER
  0
ACDBPLACEHOLDER
  5
F
102
{ACAD_REACTORS
330
E
102
}
330
E
  0
DICTIONARYVAR
  5
175
102
{ACAD_REACTORS
330
173
102
}
330
173
100
DictionaryVariables
280
     0
  1
2
  0
DICTIONARYVAR
  5
174
102
{ACAD_REACTORS
330
173
102
}
330
173
100
DictionaryVariables
280
     0
  1
1
  0
DICTIONARYVAR
  5
176
102
{ACAD_REACTORS
330
173
102
}
330
173
100
DictionaryVariables
280
     0
  1

  0
ENDSEC
  0
EOF
