  0
SECTION
  2
HEADER
  9
$ACADVER
  1
AC1018
  9
$ACADMAINTVER
 70
     2
  9
$DWGCODEPAGE
  3
ANSI_1252
  9
$INSBASE
 10
0.0
 20
0.0
 30
0.0
  9
$EXTMIN
 10
-0.0160104821884488
 20
-0.022643396237072
 30
-0.0000000000112498
  9
$EXTMAX
 10
1050.016025151412
 20
1485.022664142714
 30
0.0000000000002956
  9
$LIMMIN
 10
0.0
 20
0.0
  9
$LIMMAX
 10
1050.0
 20
1485.0
  9
$ORTHOMODE
 70
     1
  9
$REGENMODE
 70
     1
  9
$FILLMODE
 70
     1
  9
$QTEXTMODE
 70
     0
  9
$MIRRTEXT
 70
     1
  9
$LTSCALE
 40
50.0
  9
$ATTMODE
 70
     1
  9
$TEXTSIZE
 40
2.5
  9
$TRACEWID
 40
0.5
  9
$TEXTSTYLE
  7
GREEKS
  9
$CLAYER
  8
VOLL
  9
$CELTYPE
  6
ByLayer
  9
$CECOLOR
 62
   256
  9
$CELTSCALE
 40
1.0
  9
$DISPSILH
 70
     0
  9
$DIMSCALE
 40
5.0
  9
$DIMASZ
 40
3.5
  9
$DIMEXO
 40
1.0
  9
$DIMDLI
 40
7.0
  9
$DIMRND
 40
0.0
  9
$DIMDLE
 40
0.0
  9
$DIMEXE
 40
1.0
  9
$DIMTP
 40
2.0
  9
$DIMTM
 40
2.0
  9
$DIMTXT
 40
3.5
  9
$DIMCEN
 40
1.5
  9
$DIMTSZ
 40
0.0
  9
$DIMTOL
 70
     0
  9
$DIMLIM
 70
     0
  9
$DIMTIH
 70
     0
  9
$DIMTOH
 70
     0
  9
$DIMSE1
 70
     0
  9
$DIMSE2
 70
     0
  9
$DIMTAD
 70
     1
  9
$DIMZIN
 70
     8
  9
$DIMBLK
  1

  9
$DIMASO
 70
     1
  9
$DIMSHO
 70
     0
  9
$DIMPOST
  1

  9
$DIMAPOST
  1

  9
$DIMALT
 70
     0
  9
$DIMALTD
 70
     2
  9
$DIMALTF
 40
25.4
  9
$DIMLFAC
 40
1.0
  9
$DIMTOFL
 70
     1
  9
$DIMTVP
 40
0.0
  9
$DIMTIX
 70
     0
  9
$DIMSOXD
 70
     0
  9
$DIMSAH
 70
     0
  9
$DIMBLK1
  1

  9
$DIMBLK2
  1

  9
$DIMSTYLE
  2
Standard
  9
$DIMCLRD
 70
     0
  9
$DIMCLRE
 70
     0
  9
$DIMCLRT
 70
     1
  9
$DIMTFAC
 40
0.5
  9
$DIMGAP
 40
1.5
  9
$DIMJUST
 70
     0
  9
$DIMSD1
 70
     0
  9
$DIMSD2
 70
     0
  9
$DIMTOLJ
 70
     1
  9
$DIMTZIN
 70
     8
  9
$DIMALTZ
 70
     8
  9
$DIMALTTZ
 70
     8
  9
$DIMUPT
 70
     0
  9
$DIMDEC
 70
     2
  9
$DIMTDEC
 70
     2
  9
$DIMALTU
 70
     2
  9
$DIMALTTD
 70
     2
  9
$DIMTXSTY
  7
GREEKS
  9
$DIMAUNIT
 70
     0
  9
$DIMADEC
 70
     2
  9
$DIMALTRND
 40
0.0
  9
$DIMAZIN
 70
     2
  9
$DIMDSEP
 70
    46
  9
$DIMATFIT
 70
     3
  9
$DIMFRAC
 70
     0
  9
$DIMLDRBLK
  1

  9
$DIMLUNIT
 70
     2
  9
$DIMLWD
 70
    -2
  9
$DIMLWE
 70
    -2
  9
$DIMTMOVE
 70
     0
  9
$LUNITS
 70
     2
  9
$LUPREC
 70
     2
  9
$SKETCHINC
 40
1.0
  9
$FILLETRAD
 40
0.0
  9
$AUNITS
 70
     0
  9
$AUPREC
 70
     0
  9
$MENU
  1
ACAD
  9
$ELEVATION
 40
0.0
  9
$PELEVATION
 40
0.0
  9
$THICKNESS
 40
0.0
  9
$LIMCHECK
 70
     0
  9
$CHAMFERA
 40
0.0
  9
$CHAMFERB
 40
0.0
  9
$CHAMFERC
 40
0.0
  9
$CHAMFERD
 40
0.0
  9
$SKPOLY
 70
     0
  9
$TDCREATE
 40
2452216.444647222
  9
$TDUCREATE
 40
2452216.361313889
  9
$TDUPDATE
 40
2455658.373133611
  9
$TDUUPDATE
 40
2455658.289800278
  9
$TDINDWG
 40
0.0391238773
  9
$TDUSRTIMER
 40
0.0391238773
  9
$USRTIMER
 70
     1
  9
$ANGBASE
 50
0.0
  9
$ANGDIR
 70
     0
  9
$PDMODE
 70
     0
  9
$PDSIZE
 40
0.0
  9
$PLINEWID
 40
0.0
  9
$SPLFRAME
 70
     0
  9
$SPLINETYPE
 70
     6
  9
$SPLINESEGS
 70
     8
  9
$HANDSEED
  5
35B
  9
$SURFTAB1
 70
     6
  9
$SURFTAB2
 70
     6
  9
$SURFTYPE
 70
     6
  9
$SURFU
 70
     6
  9
$SURFV
 70
     6
  9
$UCSBASE
  2

  9
$UCSNAME
  2

  9
$UCSORG
 10
0.0
 20
0.0
 30
0.0
  9
$UCSXDIR
 10
1.0
 20
0.0
 30
0.0
  9
$UCSYDIR
 10
0.0
 20
1.0
 30
0.0
  9
$UCSORTHOREF
  2

  9
$UCSORTHOVIEW
 70
     0
  9
$UCSORGTOP
 10
0.0
 20
0.0
 30
0.0
  9
$UCSORGBOTTOM
 10
0.0
 20
0.0
 30
0.0
  9
$UCSORGLEFT
 10
0.0
 20
0.0
 30
0.0
  9
$UCSORGRIGHT
 10
0.0
 20
0.0
 30
0.0
  9
$UCSORGFRONT
 10
0.0
 20
0.0
 30
0.0
  9
$UCSORGBACK
 10
0.0
 20
0.0
 30
0.0
  9
$PUCSBASE
  2

  9
$PUCSNAME
  2

  9
$PUCSORG
 10
0.0
 20
0.0
 30
0.0
  9
$PUCSXDIR
 10
1.0
 20
0.0
 30
0.0
  9
$PUCSYDIR
 10
0.0
 20
1.0
 30
0.0
  9
$PUCSORTHOREF
  2

  9
$PUCSORTHOVIEW
 70
     0
  9
$PUCSORGTOP
 10
0.0
 20
0.0
 30
0.0
  9
$PUCSORGBOTTOM
 10
0.0
 20
0.0
 30
0.0
  9
$PUCSORGLEFT
 10
0.0
 20
0.0
 30
0.0
  9
$PUCSORGRIGHT
 10
0.0
 20
0.0
 30
0.0
  9
$PUCSORGFRONT
 10
0.0
 20
0.0
 30
0.0
  9
$PUCSORGBACK
 10
0.0
 20
0.0
 30
0.0
  9
$USERI1
 70
     0
  9
$USERI2
 70
     0
  9
$USERI3
 70
     0
  9
$USERI4
 70
     0
  9
$USERI5
 70
     0
  9
$USERR1
 40
0.0
  9
$USERR2
 40
0.0
  9
$USERR3
 40
0.0
  9
$USERR4
 40
0.0
  9
$USERR5
 40
0.0
  9
$WORLDVIEW
 70
     1
  9
$SHADEDGE
 70
     3
  9
$SHADEDIF
 70
    70
  9
$TILEMODE
 70
     1
  9
$MAXACTVP
 70
    16
  9
$PINSBASE
 10
214.090173102852
 20
50.00000000000001
 30
234.8760879654383
  9
$PLIMCHECK
 70
     0
  9
$PEXTMIN
 10
1.000000000000000E+20
 20
1.000000000000000E+20
 30
1.000000000000000E+20
  9
$PEXTMAX
 10
-1.000000000000000E+20
 20
-1.000000000000000E+20
 30
-1.000000000000000E+20
  9
$PLIMMIN
 10
0.0
 20
0.0
  9
$PLIMMAX
 10
12.0
 20
9.0
  9
$UNITMODE
 70
     0
  9
$VISRETAIN
 70
     0
  9
$PLINEGEN
 70
     0
  9
$PSLTSCALE
 70
     0
  9
$TREEDEPTH
 70
  3020
  9
$CMLSTYLE
  2
Standard
  9
$CMLJUST
 70
     0
  9
$CMLSCALE
 40
1.0
  9
$PROXYGRAPHICS
 70
     1
  9
$MEASUREMENT
 70
     0
  9
$CELWEIGHT
370
    -1
  9
$ENDCAPS
280
     0
  9
$JOINSTYLE
280
     0
  9
$LWDISPLAY
290
     0
  9
$INSUNITS
 70
     0
  9
$HYPERLINKBASE
  1

  9
$STYLESHEET
  1
monochrome 1.ctb
  9
$XEDIT
290
     1
  9
$CEPSNTYPE
380
     0
  9
$PSTYLEMODE
290
     1
  9
$FINGERPRINTGUID
  2
{FA58976A-7F46-41BE-AB90-86B1AB072D7E}
  9
$VERSIONGUID
  2
{EA230ED7-417C-45AE-81CA-96CFB32EC747}
  9
$EXTNAMES
290
     1
  9
$PSVPSCALE
 40
0.0
  9
$OLESTARTUP
290
     0
  9
$SORTENTS
280
   127
  9
$INDEXCTL
280
     0
  9
$HIDETEXT
280
     1
  9
$XCLIPFRAME
290
     0
  9
$HALOGAP
280
     0
  9
$OBSCOLOR
 70
   257
  9
$OBSLTYPE
280
     0
  9
$INTERSECTIONDISPLAY
280
     0
  9
$INTERSECTIONCOLOR
 70
   257
  9
$DIMASSOC
280
     2
  9
$PROJECTNAME
  1

  0
ENDSEC
  0
SECTION
  2
CLASSES
  0
CLASS
  1
ACDBDICTIONARYWDFLT
  2
AcDbDictionaryWithDefault
  3
ObjectDBX Classes
 90
        0
 91
        1
280
     0
281
     0
  0
CLASS
  1
DICTIONARYVAR
  2
AcDbDictionaryVar
  3
ObjectDBX Classes
 90
        0
 91
        3
280
     0
281
     0
  0
ENDSEC
  0
SECTION
  2
TABLES
  0
TABLE
  2
VPORT
  5
8
330
0
100
AcDbSymbolTable
 70
     3
  0
VPORT
  5
35A
330
8
100
AcDbSymbolTableRecord
100
AcDbViewportTableRecord
  2
*Active
 70
     0
 10
0.0
 20
0.0
 11
1.0
 21
1.0
 12
524.9999999999998
 22
742.4999999999999
 13
0.0
 23
0.0
 14
1.0
 24
1.0
 15
10.0
 25
10.0
 16
0.0
 26
0.0
 36
1.0
 17
0.0
 27
0.0
 37
0.0
 40
1485.0
 41
1.334231805929919
 42
50.0
 43
0.0
 44
0.0
 50
0.0
 51
0.0
 71
     0
 72
  1500
 73
     1
 74
     0
 75
     0
 76
     0
 77
     0
 78
     0
281
     0
 65
     1
110
0.0
120
0.0
130
0.0
111
1.0
121
0.0
131
0.0
112
0.0
122
1.0
132
0.0
 79
     0
146
0.0
  0
ENDTAB
  0
TABLE
  2
LTYPE
  5
5
330
0
100
AcDbSymbolTable
 70
     2
  0
LTYPE
  5
13
330
5
100
AcDbSymbolTableRecord
100
AcDbLinetypeTableRecord
  2
ByBlock
 70
     0
  3

 72
    65
 73
     0
 40
0.0
  0
LTYPE
  5
14
330
5
100
AcDbSymbolTableRecord
100
AcDbLinetypeTableRecord
  2
ByLayer
 70
     0
  3

 72
    65
 73
     0
 40
0.0
  0
LTYPE
  5
15
330
5
100
AcDbSymbolTableRecord
100
AcDbLinetypeTableRecord
  2
Continuous
 70
     0
  3
Solid line
 72
    65
 73
     0
 40
0.0
  0
LTYPE
  5
4F
330
5
100
AcDbSymbolTableRecord
100
AcDbLinetypeTableRecord
  2
STRICHPUNKT
 70
     0
  3
__ . __ . __ . __ . __ . __ . __ . __ . __ . __
 72
    65
 73
     4
 40
1.0
 49
0.5
 74
     0
 49
-0.25
 74
     0
 49
0.0
 74
     0
 49
-0.25
 74
     0
  0
ENDTAB
  0
TABLE
  2
LAYER
  5
2
330
0
100
AcDbSymbolTable
 70
     9
  0
LAYER
  5
10
330
2
100
AcDbSymbolTableRecord
100
AcDbLayerTableRecord
  2
0
 70
     0
 62
     7
  6
Continuous
370
    -3
390
F
  0
LAYER
  5
52
330
2
100
AcDbSymbolTableRecord
100
AcDbLayerTableRecord
  2
VOLL
 70
     0
 62
     1
  6
Continuous
370
    -3
390
F
  0
LAYER
  5
53
330
2
100
AcDbSymbolTableRecord
100
AcDbLayerTableRecord
  2
HILF
 70
     0
 62
     2
  6
Continuous
370
    -3
390
F
  0
LAYER
  5
54
330
2
100
AcDbSymbolTableRecord
100
AcDbLayerTableRecord
  2
MITTEL
 70
     0
 62
     2
  6
STRICHPUNKT
370
    -3
390
F
  0
LAYER
  5
55
330
2
100
AcDbSymbolTableRecord
100
AcDbLayerTableRecord
  2
BEM
 70
     0
 62
     7
  6
Continuous
370
    -3
390
F
  0
LAYER
  5
56
330
2
100
AcDbSymbolTableRecord
100
AcDbLayerTableRecord
  2
STEMPEL
 70
     0
 62
     3
  6
Continuous
370
    -3
390
F
  0
LAYER
  5
57
330
2
100
AcDbSymbolTableRecord
100
AcDbLayerTableRecord
  2
TEXT
 70
     0
 62
     7
  6
Continuous
370
    -3
390
F
  0
LAYER
  5
58
330
2
100
AcDbSymbolTableRecord
100
AcDbLayerTableRecord
  2
DEFPOINTS
 70
     0
 62
     7
  6
Continuous
290
     0
370
    -3
390
F
  0
LAYER
  5
59
330
2
100
AcDbSymbolTableRecord
100
AcDbLayerTableRecord
  2
SCHRAFF
 70
     0
 62
     7
  6
Continuous
370
    -3
390
F
  0
ENDTAB
  0
TABLE
  2
STYLE
  5
3
330
0
100
AcDbSymbolTable
 70
     2
  0
STYLE
  5
11
330
3
100
AcDbSymbolTableRecord
100
AcDbTextStyleTableRecord
  2
STANDARD
 70
     0
 40
0.0
 41
1.0
 50
0.0
 71
     0
 42
3.5
  3
txt
  4

  0
STYLE
  5
4E
330
3
100
AcDbSymbolTableRecord
100
AcDbTextStyleTableRecord
  2
GREEKS
 70
     0
 40
0.0
 41
0.8
 50
0.0
 71
     0
 42
2.5
  3
SIMPLEX.shx
  4

  0
ENDTAB
  0
TABLE
  2
VIEW
  5
6
330
0
100
AcDbSymbolTable
 70
     0
  0
ENDTAB
  0
TABLE
  2
UCS
  5
7
330
0
100
AcDbSymbolTable
 70
     0
  0
ENDTAB
  0
TABLE
  2
APPID
  5
9
330
0
100
AcDbSymbolTable
 70
     1
  0
APPID
  5
12
330
9
100
AcDbSymbolTableRecord
100
AcDbRegAppTableRecord
  2
ACAD
 70
     0
  0
ENDTAB
  0
TABLE
  2
DIMSTYLE
  5
A
330
0
100
AcDbSymbolTable
 70
     1
100
AcDbDimStyleTable
 71
     1
340
273
  0
DIMSTYLE
105
273
102
{ACAD_REACTORS
330
270
330
228
330
22C
102
}
330
A
100
AcDbSymbolTableRecord
100
AcDbDimStyleTableRecord
  2
Standard
 70
     0
340
11
  0
ENDTAB
  0
TABLE
  2
BLOCK_RECORD
  5
1
330
0
100
AcDbSymbolTable
 70
    17
  0
BLOCK_RECORD
  5
20
330
1
100
AcDbSymbolTableRecord
100
AcDbBlockTableRecord
  2
*Model_Space
340
23
  0
BLOCK_RECORD
  5
1C
330
1
100
AcDbSymbolTableRecord
100
AcDbBlockTableRecord
  2
*Paper_Space
340
1F
  0
BLOCK_RECORD
  5
24
330
1
100
AcDbSymbolTableRecord
100
AcDbBlockTableRecord
  2
LOGO
340
0
102
{BLKREFS
331
1C7
102
}
  0
BLOCK_RECORD
  5
34
330
1
100
AcDbSymbolTableRecord
100
AcDbBlockTableRecord
  2
*D1
340
0
  0
BLOCK_RECORD
  5
43
330
1
100
AcDbSymbolTableRecord
100
AcDbBlockTableRecord
  2
*X2
340
0
102
{BLKREFS
331
265
331
268
102
}
  0
BLOCK_RECORD
  5
291
330
1
100
AcDbSymbolTableRecord
100
AcDbBlockTableRecord
  2
*D8
340
0
  0
BLOCK_RECORD
  5
2D9
330
1
100
AcDbSymbolTableRecord
100
AcDbBlockTableRecord
  2
*D14
340
0
  0
BLOCK_RECORD
  5
31F
330
1
100
AcDbSymbolTableRecord
100
AcDbBlockTableRecord
  2
*D16
340
0
  0
ENDTAB
  0
ENDSEC
  0
SECTION
  2
BLOCKS
  0
BLOCK
  5
5D
330
20
100
AcDbEntity
  8
0
100
AcDbBlockBegin
  2
*Model_Space
 70
     0
 10
0.0
 20
0.0
 30
0.0
  3
*Model_Space
  1

  0
ENDBLK
  5
5E
330
20
100
AcDbEntity
  8
0
100
AcDbBlockEnd
  0
BLOCK
  5
5B
330
1C
100
AcDbEntity
 67
     1
  8
0
100
AcDbBlockBegin
  2
*Paper_Space
 70
     0
 10
0.0
 20
0.0
 30
0.0
  3
*Paper_Space
  1

  0
ENDBLK
  5
5C
330
1C
100
AcDbEntity
 67
     1
  8
0
100
AcDbBlockEnd
  0
BLOCK
  5
5F
330
24
100
AcDbEntity
  8
0
100
AcDbBlockBegin
  2
LOGO
 70
     0
 10
0.0
 20
0.0
 30
0.0
  3
LOGO
  1

  0
ARC
  5
60
330
24
100
AcDbEntity
  8
0
100
AcDbCircle
 10
11.59973089678112
 20
-9.271599258481501
 30
0.0
 40
4.5
100
AcDbArc
 50
270.0
 51
231.0575587310159
  0
LINE
  5
61
330
24
100
AcDbEntity
  8
0
100
AcDbLine
 10
3.599730896781125
 20
-4.771599258481529
 30
0.0
 11
3.599730896781153
 21
-11.77159925848133
 31
0.0
  0
LINE
  5
62
330
24
100
AcDbEntity
  8
0
100
AcDbLine
 10
2.599730896781125
 20
-4.771599258481529
 30
0.0
 11
2.599730896781153
 21
-11.77159925848133
 31
0.0
  0
CIRCLE
  5
63
330
24
100
AcDbEntity
  8
0
100
AcDbCircle
 10
11.59973089678112
 20
-9.271599258481501
 30
0.0
 40
3.5
  0
ARC
  5
64
330
24
100
AcDbEntity
  8
0
100
AcDbCircle
 10
31.59973089678115
 20
-9.271599258481472
 30
0.0
 40
4.5
100
AcDbArc
 50
270.0
 51
231.0575587310182
  0
LINE
  5
65
330
24
100
AcDbEntity
  8
0
100
AcDbLine
 10
17.59973089678112
 20
-4.771599258481472
 30
0.0
 11
17.59973089678115
 21
-13.77159925848147
 31
0.0
  0
ARC
  5
66
330
24
100
AcDbEntity
  8
0
100
AcDbCircle
 10
22.59973089678116
 20
-7.271599258481472
 30
0.0
 40
2.5
100
AcDbArc
 50
293.1161887722295
 51
90.0
  0
CIRCLE
  5
67
330
24
100
AcDbEntity
  8
0
100
AcDbCircle
 10
31.59973089678115
 20
-9.271599258481472
 30
0.0
 40
3.5
  0
ARC
  5
68
330
24
100
AcDbEntity
  8
0
100
AcDbCircle
 10
4.599730896781153
 20
-11.77159925848133
 30
0.0
 40
1.0
100
AcDbArc
 50
180.0
 51
270.0
  0
ARC
  5
69
330
24
100
AcDbEntity
  8
0
100
AcDbCircle
 10
4.599730896781153
 20
-11.77159925848133
 30
0.0
 40
2.0
100
AcDbArc
 50
179.9999999999992
 51
270.0
  0
LINE
  5
6A
330
24
100
AcDbEntity
  8
0
100
AcDbLine
 10
11.59973089678115
 20
-13.77159925848144
 30
0.0
 11
4.599730896781153
 21
-13.77159925848147
 31
0.0
  0
LINE
  5
6B
330
24
100
AcDbEntity
  8
0
100
AcDbLine
 10
8.771303772034769
 20
-12.77159925848136
 30
0.0
 11
4.599730896781153
 21
-12.77159925848133
 31
0.0
  0
LINE
  5
6C
330
24
100
AcDbEntity
  8
0
100
AcDbLine
 10
31.59973089678115
 20
-13.77159925848147
 30
0.0
 11
23.6715276665056
 21
-13.77159925848144
 31
0.0
  0
LINE
  5
6D
330
24
100
AcDbEntity
  8
0
100
AcDbLine
 10
23.56565672307022
 20
-9.51278021337896
 30
0.0
 11
24.4388546544846
 21
-12.77159925848144
 31
0.0
  0
LINE
  5
6E
330
24
100
AcDbEntity
  8
0
100
AcDbLine
 10
22.59973089678116
 20
-9.771599258481472
 30
0.0
 11
18.59973089678112
 21
-9.771599258481472
 31
0.0
  0
LINE
  5
6F
330
24
100
AcDbEntity
  8
0
100
AcDbLine
 10
18.59973089678115
 20
-13.77159925848144
 30
0.0
 11
17.59973089678115
 21
-13.77159925848144
 31
0.0
  0
LINE
  5
70
330
24
100
AcDbEntity
  8
0
100
AcDbLine
 10
18.59973089678115
 20
-9.771599258481472
 30
0.0
 11
18.59973089678115
 21
-13.77159925848144
 31
0.0
  0
LINE
  5
71
330
24
100
AcDbEntity
  8
0
100
AcDbLine
 10
22.59973089678116
 20
-9.771599258481472
 30
0.0
 11
23.67152766650562
 21
-13.77159925848147
 31
0.0
  0
ARC
  5
72
330
24
100
AcDbEntity
  8
0
100
AcDbCircle
 10
22.59973089678116
 20
-7.271599258481472
 30
0.0
 40
2.5
100
AcDbArc
 50
270.0
 51
270.0000000000007
  0
LINE
  5
73
330
24
100
AcDbEntity
  8
0
100
AcDbLine
 10
28.77130377203494
 20
-12.77159925848147
 30
0.0
 11
24.43885465448463
 21
-12.77159925848144
 31
0.0
  0
LINE
  5
74
330
24
100
AcDbEntity
  8
0
100
AcDbLine
 10
3.599730896781125
 20
-4.771599258481472
 30
0.0
 11
2.599730896781125
 21
-4.771599258481472
 31
0.0
  0
LINE
  5
75
330
24
100
AcDbEntity
  8
0
100
AcDbLine
 10
22.59973089678116
 20
-8.771599258481472
 30
0.0
 11
18.59973089678115
 21
-8.771599258481472
 31
0.0
  0
LINE
  5
76
330
24
100
AcDbEntity
  8
0
100
AcDbLine
 10
22.59973089678116
 20
-5.771599258481472
 30
0.0
 11
18.59973089678115
 21
-5.771599258481472
 31
0.0
  0
LINE
  5
77
330
24
100
AcDbEntity
  8
0
100
AcDbLine
 10
22.59973089678116
 20
-4.771599258481472
 30
0.0
 11
17.59973089678115
 21
-4.771599258481472
 31
0.0
  0
LINE
  5
78
330
24
100
AcDbEntity
  8
0
100
AcDbLine
 10
18.59973089678115
 20
-5.771599258481472
 30
0.0
 11
18.59973089678115
 21
-8.771599258481472
 31
0.0
  0
ARC
  5
79
330
24
100
AcDbEntity
  8
0
100
AcDbCircle
 10
22.59973089678116
 20
-7.271599258481472
 30
0.0
 40
1.5
100
AcDbArc
 50
270.0
 51
90.0
  0
ENDBLK
  5
7A
330
24
100
AcDbEntity
  8
0
100
AcDbBlockEnd
  0
BLOCK
  5
8D
330
34
100
AcDbEntity
  8
0
100
AcDbBlockBegin
  2
*D1
 70
     1
 10
0.0
 20
0.0
 30
0.0
  3
*D1
  1

  0
LINE
  5
8E
330
34
100
AcDbEntity
  8
0
  6
ByBlock
 62
     0
100
AcDbLine
 10
410.2969904682558
 20
838.3347728788328
 30
0.0
 11
383.0001551569625
 21
838.3347728788328
 31
0.0
  0
LINE
  5
8F
330
34
100
AcDbEntity
  8
0
  6
ByBlock
 62
     0
100
AcDbLine
 10
410.5740255862751
 20
918.3347728788326
 30
0.0
 11
383.0001551569625
 21
918.3347728788326
 31
0.0
  0
LINE
  5
90
330
34
100
AcDbEntity
  8
0
  6
ByBlock
 62
     0
100
AcDbLine
 10
388.0001551569625
 20
855.8347728788326
 30
0.0
 11
388.0001551569625
 21
900.8347728788326
 31
0.0
  0
SOLID
  5
91
330
34
100
AcDbEntity
  8
0
  6
ByBlock
 62
     0
100
AcDbTrace
 10
385.0834884902958
 20
855.8347728788326
 30
0.0
 11
390.9168218236292
 21
855.8347728788326
 31
0.0
 12
388.0001551569625
 22
838.3347728788328
 32
0.0
 13
388.0001551569625
 23
838.3347728788328
 33
0.0
  0
SOLID
  5
92
330
34
100
AcDbEntity
  8
0
  6
ByBlock
 62
     0
100
AcDbTrace
 10
385.0834884902958
 20
900.8347728788326
 30
0.0
 11
390.9168218236292
 21
900.8347728788326
 31
0.0
 12
388.0001551569625
 22
918.3347728788326
 32
0.0
 13
388.0001551569625
 23
918.3347728788326
 33
0.0
  0
TEXT
  5
93
330
34
100
AcDbEntity
  8
0
  6
ByBlock
 62
     1
100
AcDbText
 10
379.2501551569625
 20
842.8542192447089
 30
0.0
 40
17.5
  1
min.80
 50
90.0
 41
0.8
  7
GREEKS
 72
     1
 11
370.5001551569625
 21
876.5208859113755
 31
0.0
100
AcDbText
 73
     2
  0
POINT
  5
94
330
34
100
AcDbEntity
  8
DEFPOINTS
  6
ByBlock
 62
     0
100
AcDbPoint
 10
415.2969904682557
 20
838.3347728788328
 30
0.0
  0
POINT
  5
95
330
34
100
AcDbEntity
  8
DEFPOINTS
  6
ByBlock
 62
     0
100
AcDbPoint
 10
415.5740255862751
 20
918.3347728788326
 30
0.0
  0
POINT
  5
96
330
34
100
AcDbEntity
  8
DEFPOINTS
  6
ByBlock
 62
     0
100
AcDbPoint
 10
388.0001551569625
 20
918.3347728788326
 30
0.0
  0
ENDBLK
  5
97
330
34
100
AcDbEntity
  8
0
100
AcDbBlockEnd
  0
BLOCK
  5
C4
330
43
100
AcDbEntity
  8
0
100
AcDbBlockBegin
  2
*X2
 70
     1
 10
0.0
 20
0.0
 30
0.0
  3
*X2
  1

  0
LINE
  5
C5
330
43
100
AcDbEntity
  8
0
 62
     0
100
AcDbLine
 10
454.0343846336778
 20
999.4000000000001
 30
0.0
 11
454.1069703300846
 21
999.4000000000001
 31
0.0
  0
LINE
  5
C6
330
43
100
AcDbEntity
  8
0
 62
     0
100
AcDbLine
 10
453.9819800460485
 20
999.5
 30
0.0
 11
454.1628526830257
 21
999.5
 31
0.0
  0
LINE
  5
C7
330
43
100
AcDbEntity
  8
0
 62
     0
100
AcDbLine
 10
453.9330631048897
 20
999.6
 30
0.0
 11
454.2187350359669
 21
999.6
 31
0.0
  0
LINE
  5
C8
330
43
100
AcDbEntity
  8
0
 62
     0
100
AcDbLine
 10
453.8874954233754
 20
999.6999999999999
 30
0.0
 11
454.2746173889081
 21
999.6999999999999
 31
0.0
  0
LINE
  5
C9
330
43
100
AcDbEntity
  8
0
 62
     0
100
AcDbLine
 10
453.8451546063771
 20
999.8000000000001
 30
0.0
 11
454.3304997418492
 21
999.8000000000001
 31
0.0
  0
LINE
  5
CA
330
43
100
AcDbEntity
  8
0
 62
     0
100
AcDbLine
 10
453.8059322193531
 20
999.9
 30
0.0
 11
454.3863820947904
 21
999.9
 31
0.0
  0
LINE
  5
CB
330
43
100
AcDbEntity
  8
0
 62
     0
100
AcDbLine
 10
453.7697321104463
 20
1000.0
 30
0.0
 11
454.4422644477315
 21
1000.0
 31
0.0
  0
LINE
  5
CC
330
43
100
AcDbEntity
  8
0
 62
     0
100
AcDbLine
 10
453.7364690163171
 20
1000.1
 30
0.0
 11
454.4981468006727
 21
1000.1
 31
0.0
  0
LINE
  5
CD
330
43
100
AcDbEntity
  8
0
 62
     0
100
AcDbLine
 10
453.7060673982026
 20
1000.2
 30
0.0
 11
454.554029153614
 21
1000.2
 31
0.0
  0
LINE
  5
CE
330
43
100
AcDbEntity
  8
0
 62
     0
100
AcDbLine
 10
453.6784604666032
 20
1000.3
 30
0.0
 11
454.6099115065551
 21
1000.3
 31
0.0
  0
LINE
  5
CF
330
43
100
AcDbEntity
  8
0
 62
     0
100
AcDbLine
 10
453.6535893620047
 20
1000.4
 30
0.0
 11
454.6657938594963
 21
1000.4
 31
0.0
  0
LINE
  5
D0
330
43
100
AcDbEntity
  8
0
 62
     0
100
AcDbLine
 10
453.6314024659167
 20
1000.5
 30
0.0
 11
454.7216762124374
 21
1000.5
 31
0.0
  0
LINE
  5
D1
330
43
100
AcDbEntity
  8
0
 62
     0
100
AcDbLine
 10
453.6118548218301
 20
1000.6
 30
0.0
 11
454.7775585653786
 21
1000.6
 31
0.0
  0
LINE
  5
D2
330
43
100
AcDbEntity
  8
0
 62
     0
100
AcDbLine
 10
453.5949076498468
 20
1000.7
 30
0.0
 11
454.8334409183198
 21
1000.7
 31
0.0
  0
LINE
  5
D3
330
43
100
AcDbEntity
  8
0
 62
     0
100
AcDbLine
 10
453.5805279420152
 20
1000.8
 30
0.0
 11
454.8893232712609
 21
1000.8
 31
0.0
  0
LINE
  5
D4
330
43
100
AcDbEntity
  8
0
 62
     0
100
AcDbLine
 10
453.5686881280382
 20
1000.9
 30
0.0
 11
454.9452056242022
 21
1000.9
 31
0.0
  0
LINE
  5
D5
330
43
100
AcDbEntity
  8
0
 62
     0
100
AcDbLine
 10
453.5593658031438
 20
1001.0
 30
0.0
 11
455.0010879771432
 21
1001.0
 31
0.0
  0
LINE
  5
D6
330
43
100
AcDbEntity
  8
0
 62
     0
100
AcDbLine
 10
453.552543511665
 20
1001.1
 30
0.0
 11
455.0569703300844
 21
1001.1
 31
0.0
  0
LINE
  5
D7
330
43
100
AcDbEntity
  8
0
 62
     0
100
AcDbLine
 10
453.5482085813455
 20
1001.2
 30
0.0
 11
455.1128526830257
 21
1001.2
 31
0.0
  0
LINE
  5
D8
330
43
100
AcDbEntity
  8
0
 62
     0
100
AcDbLine
 10
453.5463530046471
 20
1001.3
 30
0.0
 11
455.1687350359669
 21
1001.3
 31
0.0
  0
LINE
  5
D9
330
43
100
AcDbEntity
  8
0
 62
     0
100
AcDbLine
 10
453.5469733644364
 20
1001.4
 30
0.0
 11
455.2246173889081
 21
1001.4
 31
0.0
  0
LINE
  5
DA
330
43
100
AcDbEntity
  8
0
 62
     0
100
AcDbLine
 10
453.5500708024362
 20
1001.5
 30
0.0
 11
455.2804997418491
 21
1001.5
 31
0.0
  0
LINE
  5
DB
330
43
100
AcDbEntity
  8
0
 62
     0
100
AcDbLine
 10
453.5556510297551
 20
1001.6
 30
0.0
 11
455.3363820947904
 21
1001.6
 31
0.0
  0
LINE
  5
DC
330
43
100
AcDbEntity
  8
0
 62
     0
100
AcDbLine
 10
453.5637243797263
 20
1001.7
 30
0.0
 11
455.3922644477315
 21
1001.7
 31
0.0
  0
LINE
  5
DD
330
43
100
AcDbEntity
  8
0
 62
     0
100
AcDbLine
 10
453.5743059041989
 20
1001.8
 30
0.0
 11
455.4481468006727
 21
1001.8
 31
0.0
  0
LINE
  5
DE
330
43
100
AcDbEntity
  8
0
 62
     0
100
AcDbLine
 10
453.5874155153926
 20
1001.9
 30
0.0
 11
455.5040291536139
 21
1001.9
 31
0.0
  0
LINE
  5
DF
330
43
100
AcDbEntity
  8
0
 62
     0
100
AcDbLine
 10
453.6030781764751
 20
1002.0
 30
0.0
 11
455.559911506555
 21
1002.0
 31
0.0
  0
LINE
  5
E0
330
43
100
AcDbEntity
  8
0
 62
     0
100
AcDbLine
 10
453.6213241451914
 20
1002.1
 30
0.0
 11
455.6157938594962
 21
1002.1
 31
0.0
  0
LINE
  5
E1
330
43
100
AcDbEntity
  8
0
 62
     0
100
AcDbLine
 10
453.642189276239
 20
1002.2
 30
0.0
 11
455.6716762124374
 21
1002.2
 31
0.0
  0
LINE
  5
E2
330
43
100
AcDbEntity
  8
0
 62
     0
100
AcDbLine
 10
453.6657153896796
 20
1002.3
 30
0.0
 11
455.7275585653786
 21
1002.3
 31
0.0
  0
LINE
  5
E3
330
43
100
AcDbEntity
  8
0
 62
     0
100
AcDbLine
 10
453.6919507146068
 20
1002.4
 30
0.0
 11
455.7976406300686
 21
1002.4
 31
0.0
  0
LINE
  5
E4
330
43
100
AcDbEntity
  8
0
 62
     0
100
AcDbLine
 10
453.7209504196549
 20
1002.5
 30
0.0
 11
455.8752926265176
 21
1002.5
 31
0.0
  0
LINE
  5
E5
330
43
100
AcDbEntity
  8
0
 62
     0
100
AcDbLine
 10
453.7527772448613
 20
1002.6
 30
0.0
 11
455.9529446229667
 21
1002.6
 31
0.0
  0
LINE
  5
E6
330
43
100
AcDbEntity
  8
0
 62
     0
100
AcDbLine
 10
453.7875022530878
 20
1002.7
 30
0.0
 11
456.0305966194159
 21
1002.7
 31
0.0
  0
LINE
  5
E7
330
43
100
AcDbEntity
  8
0
 62
     0
100
AcDbLine
 10
453.8252057238958
 20
1002.8
 30
0.0
 11
456.1082486158651
 21
1002.8
 31
0.0
  0
LINE
  5
E8
330
43
100
AcDbEntity
  8
0
 62
     0
100
AcDbLine
 10
453.8659782188148
 20
1002.9
 30
0.0
 11
456.1859006123142
 21
1002.9
 31
0.0
  0
LINE
  5
E9
330
43
100
AcDbEntity
  8
0
 62
     0
100
AcDbLine
 10
453.9099218547995
 20
1003.0
 30
0.0
 11
456.2635526087633
 21
1003.0
 31
0.0
  0
LINE
  5
EA
330
43
100
AcDbEntity
  8
0
 62
     0
100
AcDbLine
 10
453.9571518330204
 20
1003.1
 30
0.0
 11
456.3412046052125
 21
1003.1
 31
0.0
  0
LINE
  5
EB
330
43
100
AcDbEntity
  8
0
 62
     0
100
AcDbLine
 10
454.0077982839014
 20
1003.2
 30
0.0
 11
456.4188566016616
 21
1003.2
 31
0.0
  0
LINE
  5
EC
330
43
100
AcDbEntity
  8
0
 62
     0
100
AcDbLine
 10
454.0620085078895
 20
1003.3
 30
0.0
 11
456.4965085981107
 21
1003.3
 31
0.0
  0
LINE
  5
ED
330
43
100
AcDbEntity
  8
0
 62
     0
100
AcDbLine
 10
454.1199497167895
 20
1003.4
 30
0.0
 11
456.5741605945599
 21
1003.4
 31
0.0
  0
LINE
  5
EE
330
43
100
AcDbEntity
  8
0
 62
     0
100
AcDbLine
 10
454.1818124156226
 20
1003.5
 30
0.0
 11
456.6518125910089
 21
1003.5
 31
0.0
  0
LINE
  5
EF
330
43
100
AcDbEntity
  8
0
 62
     0
100
AcDbLine
 10
454.2478146143547
 20
1003.6
 30
0.0
 11
456.7294645874581
 21
1003.6
 31
0.0
  0
LINE
  5
F0
330
43
100
AcDbEntity
  8
0
 62
     0
100
AcDbLine
 10
454.3182071294835
 20
1003.7
 30
0.0
 11
456.8071165839072
 21
1003.7
 31
0.0
  0
LINE
  5
F1
330
43
100
AcDbEntity
  8
0
 62
     0
100
AcDbLine
 10
454.3932803383793
 20
1003.8
 30
0.0
 11
456.8847685803564
 21
1003.8
 31
0.0
  0
LINE
  5
F2
330
43
100
AcDbEntity
  8
0
 62
     0
100
AcDbLine
 10
454.4733729022738
 20
1003.9
 30
0.0
 11
456.9624205768056
 21
1003.9
 31
0.0
  0
LINE
  5
F3
330
43
100
AcDbEntity
  8
0
 62
     0
100
AcDbLine
 10
454.558883206501
 20
1004.0
 30
0.0
 11
457.0400725732547
 21
1004.0
 31
0.0
  0
LINE
  5
F4
330
43
100
AcDbEntity
  8
0
 62
     0
100
AcDbLine
 10
454.6502846297
 20
1004.1
 30
0.0
 11
457.1177245697038
 21
1004.1
 31
0.0
  0
LINE
  5
F5
330
43
100
AcDbEntity
  8
0
 62
     0
100
AcDbLine
 10
454.748146336857
 20
1004.2
 30
0.0
 11
457.195376566153
 21
1004.2
 31
0.0
  0
LINE
  5
F6
330
43
100
AcDbEntity
  8
0
 62
     0
100
AcDbLine
 10
454.8531622591039
 20
1004.3
 30
0.0
 11
457.2730285626021
 21
1004.3
 31
0.0
  0
LINE
  5
F7
330
43
100
AcDbEntity
  8
0
 62
     0
100
AcDbLine
 10
454.966192592465
 20
1004.4
 30
0.0
 11
457.3506805590513
 21
1004.4
 31
0.0
  0
LINE
  5
F8
330
43
100
AcDbEntity
  8
0
 62
     0
100
AcDbLine
 10
455.088325157072
 20
1004.5
 30
0.0
 11
457.4283325555003
 21
1004.5
 31
0.0
  0
LINE
  5
F9
330
43
100
AcDbEntity
  8
0
 62
     0
100
AcDbLine
 10
455.220969677028
 20
1004.6
 30
0.0
 11
457.5059845519495
 21
1004.6
 31
0.0
  0
LINE
  5
FA
330
43
100
AcDbEntity
  8
0
 62
     0
100
AcDbLine
 10
455.3660096211159
 20
1004.7
 30
0.0
 11
457.5836365483986
 21
1004.7
 31
0.0
  0
LINE
  5
FB
330
43
100
AcDbEntity
  8
0
 62
     0
100
AcDbLine
 10
455.5260616047984
 20
1004.8
 30
0.0
 11
457.6612885448477
 21
1004.8
 31
0.0
  0
LINE
  5
FC
330
43
100
AcDbEntity
  8
0
 62
     0
100
AcDbLine
 10
455.7049537028819
 20
1004.9
 30
0.0
 11
457.738940541297
 21
1004.9
 31
0.0
  0
LINE
  5
FD
330
43
100
AcDbEntity
  8
0
 62
     0
100
AcDbLine
 10
455.9087032926805
 20
1005.0
 30
0.0
 11
457.8165925377461
 21
1005.0
 31
0.0
  0
LINE
  5
FE
330
43
100
AcDbEntity
  8
0
 62
     0
100
AcDbLine
 10
456.1478367795381
 20
1005.1
 30
0.0
 11
457.8942445341952
 21
1005.1
 31
0.0
  0
LINE
  5
FF
330
43
100
AcDbEntity
  8
0
 62
     0
100
AcDbLine
 10
456.4443770907774
 20
1005.2
 30
0.0
 11
457.9718965306443
 21
1005.2
 31
0.0
  0
LINE
  5
100
330
43
100
AcDbEntity
  8
0
 62
     0
100
AcDbLine
 10
456.8660744821129
 20
1005.3
 30
0.0
 11
458.0495485270935
 21
1005.3
 31
0.0
  0
LINE
  5
101
330
43
100
AcDbEntity
  8
0
 62
     0
100
AcDbLine
 10
428.1524712406461
 20
954.3000000000001
 30
0.0
 11
428.904029153614
 21
954.3000000000001
 31
0.0
  0
LINE
  5
102
330
43
100
AcDbEntity
  8
0
 62
     0
100
AcDbLine
 10
427.7012431416869
 20
954.1999999999999
 30
0.0
 11
428.8481468006728
 21
954.1999999999999
 31
0.0
  0
LINE
  5
103
330
43
100
AcDbEntity
  8
0
 62
     0
100
AcDbLine
 10
427.405938102914
 20
954.1
 30
0.0
 11
428.7922644477316
 21
954.1
 31
0.0
  0
LINE
  5
104
330
43
100
AcDbEntity
  8
0
 62
     0
100
AcDbLine
 10
427.1731018118601
 20
954.0
 30
0.0
 11
428.7363820947905
 21
954.0
 31
0.0
  0
LINE
  5
105
330
43
100
AcDbEntity
  8
0
 62
     0
100
AcDbLine
 10
426.9771863549574
 20
953.9000000000001
 30
0.0
 11
428.6804997418493
 21
953.9000000000001
 31
0.0
  0
LINE
  5
106
330
43
100
AcDbEntity
  8
0
 62
     0
100
AcDbLine
 10
426.8066827378198
 20
953.8
 30
0.0
 11
428.6246173889082
 21
953.8
 31
0.0
  0
LINE
  5
107
330
43
100
AcDbEntity
  8
0
 62
     0
100
AcDbLine
 10
426.655217687608
 20
953.7
 30
0.0
 11
428.568735035967
 21
953.7
 31
0.0
  0
LINE
  5
108
330
43
100
AcDbEntity
  8
0
 62
     0
100
AcDbLine
 10
426.5188175952301
 20
953.5999999999999
 30
0.0
 11
428.5128526830257
 21
953.5999999999999
 31
0.0
  0
LINE
  5
109
330
43
100
AcDbEntity
  8
0
 62
     0
100
AcDbLine
 10
426.3948042827845
 20
953.5
 30
0.0
 11
428.4569703300846
 21
953.5
 31
0.0
  0
LINE
  5
10A
330
43
100
AcDbEntity
  8
0
 62
     0
100
AcDbLine
 10
426.2812700747558
 20
953.4
 30
0.0
 11
428.4010879771435
 21
953.4
 31
0.0
  0
LINE
  5
10B
330
43
100
AcDbEntity
  8
0
 62
     0
100
AcDbLine
 10
426.1767988536178
 20
953.3000000000001
 30
0.0
 11
428.3452056242023
 21
953.3000000000001
 31
0.0
  0
LINE
  5
10C
330
43
100
AcDbEntity
  8
0
 62
     0
100
AcDbLine
 10
426.080305262637
 20
953.2
 30
0.0
 11
428.2893232712611
 21
953.2
 31
0.0
  0
LINE
  5
10D
330
43
100
AcDbEntity
  8
0
 62
     0
100
AcDbLine
 10
425.9909360536994
 20
953.1
 30
0.0
 11
428.2334409183199
 21
953.1
 31
0.0
  0
LINE
  5
10E
330
43
100
AcDbEntity
  8
0
 62
     0
100
AcDbLine
 10
425.9080064990947
 20
953.0
 30
0.0
 11
428.1775585653787
 21
953.0
 31
0.0
  0
LINE
  5
10F
330
43
100
AcDbEntity
  8
0
 62
     0
100
AcDbLine
 10
425.8309577266315
 20
952.9000000000001
 30
0.0
 11
428.1216762124375
 21
952.9000000000001
 31
0.0
  0
LINE
  5
110
330
43
100
AcDbEntity
  8
0
 62
     0
100
AcDbLine
 10
425.7593271254089
 20
952.8
 30
0.0
 11
428.0657938594964
 21
952.8
 31
0.0
  0
LINE
  5
111
330
43
100
AcDbEntity
  8
0
 62
     0
100
AcDbLine
 10
425.6927272350558
 20
952.7000000000001
 30
0.0
 11
428.0099115065552
 21
952.7000000000001
 31
0.0
  0
LINE
  5
112
330
43
100
AcDbEntity
  8
0
 62
     0
100
AcDbLine
 10
425.6308303227601
 20
952.5999999999999
 30
0.0
 11
427.954029153614
 21
952.5999999999999
 31
0.0
  0
LINE
  5
113
330
43
100
AcDbEntity
  8
0
 62
     0
100
AcDbLine
 10
425.5733568817072
 20
952.5
 30
0.0
 11
427.8981468006728
 21
952.5
 31
0.0
  0
LINE
  5
114
330
43
100
AcDbEntity
  8
0
 62
     0
100
AcDbLine
 10
425.5200668996812
 20
952.4
 30
0.0
 11
427.8422644477317
 21
952.4
 31
0.0
  0
LINE
  5
115
330
43
100
AcDbEntity
  8
0
 62
     0
100
AcDbLine
 10
425.470753126946
 20
952.3000000000001
 30
0.0
 11
427.7863820947906
 21
952.3000000000001
 31
0.0
  0
LINE
  5
116
330
43
100
AcDbEntity
  8
0
 62
     0
100
AcDbLine
 10
425.4252358148359
 20
952.2
 30
0.0
 11
427.7304997418493
 21
952.2
 31
0.0
  0
LINE
  5
117
330
43
100
AcDbEntity
  8
0
 62
     0
100
AcDbLine
 10
425.3833585549507
 20
952.1
 30
0.0
 11
427.6746173889081
 21
952.1
 31
0.0
  0
LINE
  5
118
330
43
100
AcDbEntity
  8
0
 62
     0
100
AcDbLine
 10
425.3449849549548
 20
952.0
 30
0.0
 11
427.618735035967
 21
952.0
 31
0.0
  0
LINE
  5
119
330
43
100
AcDbEntity
  8
0
 62
     0
100
AcDbLine
 10
425.3099959595124
 20
951.9000000000001
 30
0.0
 11
427.5628526830258
 21
951.9000000000001
 31
0.0
  0
LINE
  5
11A
330
43
100
AcDbEntity
  8
0
 62
     0
100
AcDbLine
 10
425.2782876754507
 20
951.8
 30
0.0
 11
427.5069703300847
 21
951.8
 31
0.0
  0
LINE
  5
11B
330
43
100
AcDbEntity
  8
0
 62
     0
100
AcDbLine
 10
425.2497695960775
 20
951.7000000000001
 30
0.0
 11
427.4510879771434
 21
951.7000000000001
 31
0.0
  0
LINE
  5
11C
330
43
100
AcDbEntity
  8
0
 62
     0
100
AcDbLine
 10
425.2243631454225
 20
951.6
 30
0.0
 11
427.3952056242023
 21
951.6
 31
0.0
  0
LINE
  5
11D
330
43
100
AcDbEntity
  8
0
 62
     0
100
AcDbLine
 10
425.2020004820556
 20
951.5
 30
0.0
 11
427.3393232712611
 21
951.5
 31
0.0
  0
LINE
  5
11E
330
43
100
AcDbEntity
  8
0
 62
     0
100
AcDbLine
 10
425.1826235161749
 20
951.4000000000001
 30
0.0
 11
427.2834409183199
 21
951.4000000000001
 31
0.0
  0
LINE
  5
11F
330
43
100
AcDbEntity
  8
0
 62
     0
100
AcDbLine
 10
425.1661831042103
 20
951.3000000000001
 30
0.0
 11
427.2335393312257
 21
951.3000000000001
 31
0.0
  0
LINE
  5
120
330
43
100
AcDbEntity
  8
0
 62
     0
100
AcDbLine
 10
425.152638393262
 20
951.2
 30
0.0
 11
427.1948564913759
 21
951.2
 31
0.0
  0
LINE
  5
121
330
43
100
AcDbEntity
  8
0
 62
     0
100
AcDbLine
 10
425.1419562939516
 20
951.1000000000001
 30
0.0
 11
427.1561736515261
 21
951.1000000000001
 31
0.0
  0
LINE
  5
122
330
43
100
AcDbEntity
  8
0
 62
     0
100
AcDbLine
 10
425.1341110652055
 20
951.0
 30
0.0
 11
427.1174908116762
 21
951.0
 31
0.0
  0
LINE
  5
123
330
43
100
AcDbEntity
  8
0
 62
     0
100
AcDbLine
 10
425.1290839984736
 20
950.9
 30
0.0
 11
427.0788079718264
 21
950.9
 31
0.0
  0
LINE
  5
124
330
43
100
AcDbEntity
  8
0
 62
     0
100
AcDbLine
 10
425.1268631921648
 20
950.8
 30
0.0
 11
427.0401251319766
 21
950.8
 31
0.0
  0
LINE
  5
125
330
43
100
AcDbEntity
  8
0
 62
     0
100
AcDbLine
 10
425.127443409874
 20
950.7000000000001
 30
0.0
 11
427.0014422921268
 21
950.7000000000001
 31
0.0
  0
LINE
  5
126
330
43
100
AcDbEntity
  8
0
 62
     0
100
AcDbLine
 10
425.1308260184283
 20
950.6
 30
0.0
 11
426.962759452277
 21
950.6
 31
0.0
  0
LINE
  5
127
330
43
100
AcDbEntity
  8
0
 62
     0
100
AcDbLine
 10
425.137019004034
 20
950.5
 30
0.0
 11
426.9240766124271
 21
950.5
 31
0.0
  0
LINE
  5
128
330
43
100
AcDbEntity
  8
0
 62
     0
100
AcDbLine
 10
425.1460370669698
 20
950.4000000000001
 30
0.0
 11
426.8853937725774
 21
950.4000000000001
 31
0.0
  0
LINE
  5
129
330
43
100
AcDbEntity
  8
0
 62
     0
100
AcDbLine
 10
425.1579017974637
 20
950.3
 30
0.0
 11
426.8467109327275
 21
950.3
 31
0.0
  0
LINE
  5
12A
330
43
100
AcDbEntity
  8
0
 62
     0
100
AcDbLine
 10
425.1726419377103
 20
950.2
 30
0.0
 11
426.8080280928777
 21
950.2
 31
0.0
  0
LINE
  5
12B
330
43
100
AcDbEntity
  8
0
 62
     0
100
AcDbLine
 10
425.1902937375618
 20
950.1000000000001
 30
0.0
 11
426.7693452530279
 21
950.1000000000001
 31
0.0
  0
LINE
  5
12C
330
43
100
AcDbEntity
  8
0
 62
     0
100
AcDbLine
 10
425.2109014143991
 20
950.0
 30
0.0
 11
426.730662413178
 21
950.0
 31
0.0
  0
LINE
  5
12D
330
43
100
AcDbEntity
  8
0
 62
     0
100
AcDbLine
 10
425.2345177312339
 20
949.9
 30
0.0
 11
426.6919795733283
 21
949.9
 31
0.0
  0
LINE
  5
12E
330
43
100
AcDbEntity
  8
0
 62
     0
100
AcDbLine
 10
425.2612047114334
 20
949.8000000000001
 30
0.0
 11
426.6532967334784
 21
949.8000000000001
 31
0.0
  0
LINE
  5
12F
330
43
100
AcDbEntity
  8
0
 62
     0
100
AcDbLine
 10
425.2910345139006
 20
949.6999999999999
 30
0.0
 11
426.6146138936286
 21
949.6999999999999
 31
0.0
  0
LINE
  5
130
330
43
100
AcDbEntity
  8
0
 62
     0
100
AcDbLine
 10
425.3240904994809
 20
949.6
 30
0.0
 11
426.5759310537787
 21
949.6
 31
0.0
  0
LINE
  5
131
330
43
100
AcDbEntity
  8
0
 62
     0
100
AcDbLine
 10
425.3604685283732
 20
949.5
 30
0.0
 11
426.5372482139289
 21
949.5
 31
0.0
  0
LINE
  5
132
330
43
100
AcDbEntity
  8
0
 62
     0
100
AcDbLine
 10
425.4002785401814
 20
949.4000000000001
 30
0.0
 11
426.4985653740792
 21
949.4000000000001
 31
0.0
  0
LINE
  5
133
330
43
100
AcDbEntity
  8
0
 62
     0
100
AcDbLine
 10
425.4436464840858
 20
949.3
 30
0.0
 11
426.4598825342293
 21
949.3
 31
0.0
  0
LINE
  5
134
330
43
100
AcDbEntity
  8
0
 62
     0
100
AcDbLine
 10
425.4907166880844
 20
949.2
 30
0.0
 11
426.4211996943795
 21
949.2
 31
0.0
  0
LINE
  5
135
330
43
100
AcDbEntity
  8
0
 62
     0
100
AcDbLine
 10
425.5416547857889
 20
949.0999999999999
 30
0.0
 11
426.3825168545296
 21
949.0999999999999
 31
0.0
  0
LINE
  5
136
330
43
100
AcDbEntity
  8
0
 62
     0
100
AcDbLine
 10
425.5966513605044
 20
949.0
 30
0.0
 11
426.3438340146798
 21
949.0
 31
0.0
  0
LINE
  5
137
330
43
100
AcDbEntity
  8
0
 62
     0
100
AcDbLine
 10
425.6559265249087
 20
948.9
 30
0.0
 11
426.30515117483
 21
948.9
 31
0.0
  0
LINE
  5
138
330
43
100
AcDbEntity
  8
0
 62
     0
100
AcDbLine
 10
425.7197357393578
 20
948.8000000000001
 30
0.0
 11
426.2664683349802
 21
948.8000000000001
 31
0.0
  0
LINE
  5
139
330
43
100
AcDbEntity
  8
0
 62
     0
100
AcDbLine
 10
425.7883772967971
 20
948.7
 30
0.0
 11
426.2277854951304
 21
948.7
 31
0.0
  0
LINE
  5
13A
330
43
100
AcDbEntity
  8
0
 62
     0
100
AcDbLine
 10
425.8622020906535
 20
948.6
 30
0.0
 11
426.1891026552805
 21
948.6
 31
0.0
  0
LINE
  5
13B
330
43
100
AcDbEntity
  8
0
 62
     0
100
AcDbLine
 10
425.941626573186
 20
948.4999999999999
 30
0.0
 11
426.1504198154307
 21
948.4999999999999
 31
0.0
  0
LINE
  5
13C
330
43
100
AcDbEntity
  8
0
 62
     0
100
AcDbLine
 10
426.0271502741974
 20
948.4000000000001
 30
0.0
 11
426.1117369755809
 21
948.4000000000001
 31
0.0
  0
ENDBLK
  5
13D
330
43
100
AcDbEntity
  8
0
100
AcDbBlockEnd
  0
BLOCK
  5
29B
330
291
100
AcDbEntity
  8
0
100
AcDbBlockBegin
  2
*D8
 70
     1
 10
0.0
 20
0.0
 30
0.0
  3
*D8
  1

  0
LINE
  5
292
330
291
100
AcDbEntity
  8
BEM
 62
     0
370
    -2
100
AcDbLine
 10
467.7469904682555
 20
1038.034628000995
 30
0.0
 11
467.7469904682555
 21
1190.127245833425
 31
0.0
  0
LINE
  5
293
330
291
100
AcDbEntity
  8
BEM
 62
     0
370
    -2
100
AcDbLine
 10
686.7469904682556
 20
1038.034628000996
 30
0.0
 11
686.7469904682556
 21
1190.127245833425
 31
0.0
  0
LINE
  5
294
330
291
100
AcDbEntity
  8
BEM
 62
     0
370
    -2
100
AcDbLine
 10
485.2469904682555
 20
1185.127245833425
 30
0.0
 11
669.2469904682556
 21
1185.127245833425
 31
0.0
  0
SOLID
  5
295
330
291
100
AcDbEntity
  8
BEM
 62
     0
100
AcDbTrace
 10
485.2469904682555
 20
1188.043912500092
 30
0.0
 11
485.2469904682555
 21
1182.210579166759
 31
0.0
 12
467.7469904682555
 22
1185.127245833425
 32
0.0
 13
467.7469904682555
 23
1185.127245833425
 33
0.0
  0
SOLID
  5
296
330
291
100
AcDbEntity
  8
BEM
 62
     0
100
AcDbTrace
 10
669.2469904682556
 20
1188.043912500092
 30
0.0
 11
669.2469904682556
 21
1182.210579166759
 31
0.0
 12
686.7469904682556
 22
1185.127245833425
 32
0.0
 13
686.7469904682556
 23
1185.127245833425
 33
0.0
  0
MTEXT
  5
297
330
291
100
AcDbEntity
  8
BEM
 62
     1
100
AcDbMText
 10
577.2469904682556
 20
1201.377245833425
 30
0.0
 40
17.5
 41
0.0
 71
     5
 72
     1
  1
\A1;%%c219
  7
GREEKS
 73
     1
 44
1.0
  0
POINT
  5
298
330
291
100
AcDbEntity
  8
DEFPOINTS
 62
     0
100
AcDbPoint
 10
467.7469904682555
 20
1033.034628000995
 30
0.0
  0
POINT
  5
299
330
291
100
AcDbEntity
  8
DEFPOINTS
 62
     0
100
AcDbPoint
 10
686.7469904682556
 20
1033.034628000996
 30
0.0
  0
POINT
  5
29A
330
291
100
AcDbEntity
  8
DEFPOINTS
 62
     0
100
AcDbPoint
 10
686.7469904682556
 20
1185.127245833425
 30
0.0
  0
ENDBLK
  5
29C
330
291
100
AcDbEntity
  8
0
100
AcDbBlockEnd
  0
BLOCK
  5
2E3
330
2D9
100
AcDbEntity
  8
0
100
AcDbBlockBegin
  2
*D14
 70
     1
 10
0.0
 20
0.0
 30
0.0
  3
*D14
  1

  0
LINE
  5
316
330
2D9
100
AcDbEntity
  8
BEM
 62
     0
370
    -2
100
AcDbLine
 10
410.2969904682558
 20
841.3347728788327
 30
0.0
 11
345.2149692663161
 21
841.3347728788327
 31
0.0
  0
LINE
  5
317
330
2D9
100
AcDbEntity
  8
BEM
 62
     0
370
    -2
100
AcDbLine
 10
454.8327655678191
 20
1161.334772878833
 30
0.0
 11
345.2149692663162
 21
1161.334772878833
 31
0.0
  0
LINE
  5
318
330
2D9
100
AcDbEntity
  8
BEM
 62
     0
370
    -2
100
AcDbLine
 10
350.2149692663161
 20
858.8347728788328
 30
0.0
 11
350.2149692663161
 21
1143.834772878832
 31
0.0
  0
SOLID
  5
319
330
2D9
100
AcDbEntity
  8
BEM
 62
     0
100
AcDbTrace
 10
347.2983025996494
 20
858.8347728788328
 30
0.0
 11
353.1316359329828
 21
858.8347728788328
 31
0.0
 12
350.2149692663161
 22
841.3347728788327
 32
0.0
 13
350.2149692663161
 23
841.3347728788327
 33
0.0
  0
SOLID
  5
31A
330
2D9
100
AcDbEntity
  8
BEM
 62
     0
100
AcDbTrace
 10
347.2983025996494
 20
1143.834772878832
 30
0.0
 11
353.1316359329828
 21
1143.834772878832
 31
0.0
 12
350.2149692663162
 22
1161.334772878833
 32
0.0
 13
350.2149692663162
 23
1161.334772878833
 33
0.0
  0
MTEXT
  5
31B
330
2D9
100
AcDbEntity
  8
BEM
 62
     1
100
AcDbMText
 10
333.964969266316
 20
1001.334772878832
 30
0.0
 40
17.5
 41
0.0
 71
     5
 72
     1
  1
\A1;320
  7
GREEKS
 11
0.0000000000000001
 21
1.0
 31
0.0
 73
     1
 44
1.0
  0
POINT
  5
31C
330
2D9
100
AcDbEntity
  8
DEFPOINTS
 62
     0
100
AcDbPoint
 10
415.2969904682557
 20
841.3347728788327
 30
0.0
  0
POINT
  5
31D
330
2D9
100
AcDbEntity
  8
DEFPOINTS
 62
     0
100
AcDbPoint
 10
459.8327655678191
 20
1161.334772878833
 30
0.0
  0
POINT
  5
31E
330
2D9
100
AcDbEntity
  8
DEFPOINTS
 62
     0
100
AcDbPoint
 10
350.2149692663162
 20
1161.334772878833
 30
0.0
  0
ENDBLK
  5
2E4
330
2D9
100
AcDbEntity
  8
0
100
AcDbBlockEnd
  0
BLOCK
  5
329
330
31F
100
AcDbEntity
  8
0
100
AcDbBlockBegin
  2
*D16
 70
     1
 10
0.0
 20
0.0
 30
0.0
  3
*D16
  1

  0
LINE
  5
334
330
31F
100
AcDbEntity
  8
BEM
 62
     0
370
    -2
100
AcDbLine
 10
415.2969904682557
 20
836.3347728788326
 30
0.0
 11
415.2969904682557
 21
789.7389508780144
 31
0.0
  0
LINE
  5
335
330
31F
100
AcDbEntity
  8
BEM
 62
     0
370
    -2
100
AcDbLine
 10
739.1969904682556
 20
836.3347728788326
 30
0.0
 11
739.1969904682556
 21
789.7389508780144
 31
0.0
  0
LINE
  5
336
330
31F
100
AcDbEntity
  8
BEM
 62
     0
370
    -2
100
AcDbLine
 10
432.7969904682557
 20
794.7389508780144
 30
0.0
 11
721.6969904682557
 21
794.7389508780144
 31
0.0
  0
SOLID
  5
337
330
31F
100
AcDbEntity
  8
BEM
 62
     0
100
AcDbTrace
 10
432.7969904682557
 20
797.655617544681
 30
0.0
 11
432.7969904682557
 21
791.8222842113477
 31
0.0
 12
415.2969904682557
 22
794.7389508780144
 32
0.0
 13
415.2969904682557
 23
794.7389508780144
 33
0.0
  0
SOLID
  5
338
330
31F
100
AcDbEntity
  8
BEM
 62
     0
100
AcDbTrace
 10
721.6969904682557
 20
797.655617544681
 30
0.0
 11
721.6969904682557
 21
791.8222842113477
 31
0.0
 12
739.1969904682556
 22
794.7389508780144
 32
0.0
 13
739.1969904682556
 23
794.7389508780144
 33
0.0
  0
MTEXT
  5
339
330
31F
100
AcDbEntity
  8
BEM
 62
     1
100
AcDbMText
 10
577.2469904682557
 20
810.9889508780144
 30
0.0
 40
17.5
 41
0.0
 71
     5
 72
     1
  1
\A1;%%c324
  7
GREEKS
 73
     1
 44
1.0
  0
POINT
  5
33A
330
31F
100
AcDbEntity
  8
DEFPOINTS
 62
     0
100
AcDbPoint
 10
415.2969904682557
 20
841.3347728788327
 30
0.0
  0
POINT
  5
33B
330
31F
100
AcDbEntity
  8
DEFPOINTS
 62
     0
100
AcDbPoint
 10
739.1969904682556
 20
841.3347728788327
 30
0.0
  0
POINT
  5
33C
330
31F
100
AcDbEntity
  8
DEFPOINTS
 62
     0
100
AcDbPoint
 10
739.1969904682556
 20
794.7389508780144
 30
0.0
  0
ENDBLK
  5
32A
330
31F
100
AcDbEntity
  8
0
100
AcDbBlockEnd
  0
ENDSEC
  0
SECTION
  2
ENTITIES
  0
TEXT
  5
1BE
330
20
100
AcDbEntity
  8
TEXT
 62
     1
100
AcDbText
 10
478.6674728771919
 20
372.4962034412095
 30
0.0
 40
17.5
  1
Werkstoff: EN 10219 S235, St37 DIN 2458
 41
0.8
  7
GREEKS
100
AcDbText
  0
LINE
  5
1BF
330
20
100
AcDbEntity
  8
STEMPEL
100
AcDbLine
 10
698.7469904682558
 20
1002.334772878832
 30
0.0
 11
455.7469904682557
 21
1002.334772878832
 31
0.0
  0
LINE
  5
1C0
330
20
100
AcDbEntity
  8
STEMPEL
  6
Continuous
100
AcDbLine
 10
459.8327655678191
 20
1161.334772878833
 30
0.0
 11
694.6612153686918
 21
1161.334772878833
 31
0.0
  0
LINE
  5
1C1
330
20
100
AcDbEntity
  8
HILF
  6
Continuous
100
AcDbLine
 10
470.0705175765308
 20
1036.847852307491
 30
0.0
 11
684.4234633599818
 21
1036.847852307491
 31
0.0
  0
LINE
  5
1C2
330
20
100
AcDbEntity
  8
HILF
  6
Continuous
100
AcDbLine
 10
466.0513712474063
 20
1045.165497385607
 30
0.0
 11
688.4426096891021
 21
1045.165497385607
 31
0.0
  0
LINE
  5
1C3
330
20
100
AcDbEntity
  8
HILF
  6
Continuous
100
AcDbLine
 10
464.5045335604552
 20
1081.680401497635
 30
0.0
 11
689.989447376054
 21
1081.680401497635
 31
0.0
  0
LINE
  5
1C4
330
20
100
AcDbEntity
  8
STEMPEL
100
AcDbLine
 10
727.2469904682557
 20
951.3347728788327
 30
0.0
 11
427.2469904682557
 21
951.3347728788327
 31
0.0
  0
LINE
  5
1C5
330
20
100
AcDbEntity
  8
STEMPEL
100
AcDbLine
 10
739.1969904682556
 20
841.3347728788327
 30
0.0
 11
415.2969904682557
 21
841.3347728788327
 31
0.0
  0
INSERT
  5
1C7
330
20
100
AcDbEntity
  8
STEMPEL
100
AcDbBlockReference
  2
LOGO
 10
377.4888713644485
 20
112.552631911208
 30
0.0
 41
5.0
 42
5.0
 43
5.0
  0
TEXT
  5
1C8
330
20
100
AcDbEntity
  8
TEXT
100
AcDbText
 10
511.0540121453142
 20
157.7240979930877
 30
0.0
 40
10.0
  1
Koeh
 41
0.8
  7
GREEKS
 72
     1
 11
524.1968692881714
 21
157.7240979930877
 31
0.0
100
AcDbText
  0
LINE
  5
1C9
330
20
100
AcDbEntity
  8
HILF
100
AcDbLine
 10
1050.0
 20
0.0
 30
0.0
 11
0.0
 21
0.0
 31
0.0
  0
LINE
  5
1CA
330
20
100
AcDbEntity
  8
HILF
100
AcDbLine
 10
1050.0
 20
1485.0
 30
0.0
 11
0.0
 21
1485.0
 31
0.0
  0
LINE
  5
1CB
330
20
100
AcDbEntity
  8
STEMPEL
100
AcDbLine
 10
1025.0
 20
1460.0
 30
0.0
 11
99.99999999999971
 21
1460.0
 31
0.0
  0
LINE
  5
1CC
330
20
100
AcDbEntity
  8
STEMPEL
100
AcDbLine
 10
1025.0
 20
25.0
 30
0.0
 11
99.99999999999971
 21
25.0
 31
0.0
  0
LINE
  5
1CD
330
20
100
AcDbEntity
  8
STEMPEL
100
AcDbLine
 10
124.9999999999997
 20
25.0
 30
0.0
 11
1025.0
 21
25.0
 31
0.0
  0
TEXT
  5
1CE
330
20
100
AcDbEntity
  8
TEXT
100
AcDbText
 10
506.1566460565737
 20
183.2740272978806
 30
0.0
 40
10.0
  1
Name
 41
0.8
  7
GREEKS
100
AcDbText
  0
TEXT
  5
1CF
330
20
100
AcDbEntity
  8
TEXT
100
AcDbText
 10
485.7147386835128
 20
256.0460421087048
 30
0.0
 40
12.5
  1
Zul. Abw.
 41
0.8
  7
GREEKS
100
AcDbText
  0
LINE
  5
1D0
330
20
100
AcDbEntity
  8
HILF
100
AcDbLine
 10
365.0000000000003
 20
124.9999999999999
 30
0.0
 11
575.0
 21
124.9999999999999
 31
0.0
  0
LINE
  5
1D1
330
20
100
AcDbEntity
  8
HILF
100
AcDbLine
 10
365.0000000000003
 20
149.9999999999999
 30
0.0
 11
575.0
 21
149.9999999999999
 31
0.0
  0
LINE
  5
1D2
330
20
100
AcDbEntity
  8
HILF
100
AcDbLine
 10
365.0000000000003
 20
174.9999999999998
 30
0.0
 11
575.0
 21
174.9999999999998
 31
0.0
  0
LINE
  5
1D3
330
20
100
AcDbEntity
  8
STEMPEL
100
AcDbLine
 10
1025.0
 20
200.0
 30
0.0
 11
365.0000000000003
 21
199.9999999999998
 31
0.0
  0
LINE
  5
1D4
330
20
100
AcDbEntity
  8
STEMPEL
100
AcDbLine
 10
1025.0
 20
100.0
 30
0.0
 11
365.0000000000003
 21
99.99999999999992
 31
0.0
  0
LINE
  5
1D5
330
20
100
AcDbEntity
  8
STEMPEL
100
AcDbLine
 10
1025.0
 20
275.0000000000001
 30
0.0
 11
99.99999999999992
 21
275.0
 31
0.0
  0
LINE
  5
1D6
330
20
100
AcDbEntity
  8
HILF
100
AcDbLine
 10
0.0
 20
0.0
 30
0.0
 11
-0.0000000000002842
 21
1485.0
 31
0.0
  0
LINE
  5
1D7
330
20
100
AcDbEntity
  8
STEMPEL
100
AcDbLine
 10
100.0
 20
25.0
 30
0.0
 11
99.99999999999971
 21
1460.0
 31
0.0
  0
TEXT
  5
1D8
330
20
100
AcDbEntity
  8
TEXT
 62
     1
100
AcDbText
 10
308.3177830464542
 20
537.6743890882522
 30
0.0
 40
17.5
  1
Rohrende leicht entgratet
 41
0.8
  7
GREEKS
100
AcDbText
  0
TEXT
  5
1D9
330
20
100
AcDbEntity
  8
TEXT
100
AcDbText
 10
104.6377487744418
 20
279.1799999999999
 30
0.0
 40
12.5
  1
Erstellt mit AUTOCAD 2004
 41
0.8
  7
GREEKS
100
AcDbText
  0
TEXT
  5
1DA
330
20
100
AcDbEntity
  8
TEXT
100
AcDbText
 10
171.389117907297
 20
46.68454737460329
 30
0.0
 40
10.0
  1
Änderung
 41
0.8
  7
GREEKS
 72
     1
 11
198.2462607644399
 21
46.68454737460329
 31
0.0
100
AcDbText
  0
LINE
  5
1DB
330
20
100
AcDbEntity
  8
HILF
100
AcDbLine
 10
100.0000000000002
 20
99.99999999999992
 30
0.0
 11
365.0000000000003
 21
99.99999999999992
 31
0.0
  0
LINE
  5
1DC
330
20
100
AcDbEntity
  8
HILF
100
AcDbLine
 10
100.0000000000002
 20
124.9999999999999
 30
0.0
 11
365.0000000000003
 21
124.9999999999999
 31
0.0
  0
LINE
  5
1DD
330
20
100
AcDbEntity
  8
HILF
100
AcDbLine
 10
100.0000000000002
 20
149.9999999999999
 30
0.0
 11
365.0000000000003
 21
149.9999999999999
 31
0.0
  0
LINE
  5
1DE
330
20
100
AcDbEntity
  8
HILF
100
AcDbLine
 10
100.0000000000002
 20
174.9999999999998
 30
0.0
 11
365.0000000000003
 21
174.9999999999998
 31
0.0
  0
LINE
  5
1DF
330
20
100
AcDbEntity
  8
HILF
100
AcDbLine
 10
100.0000000000002
 20
199.9999999999998
 30
0.0
 11
365.0000000000003
 21
199.9999999999998
 31
0.0
  0
LINE
  5
1E0
330
20
100
AcDbEntity
  8
HILF
100
AcDbLine
 10
100.0000000000002
 20
225.0000000000001
 30
0.0
 11
365.0000000000003
 21
225.0000000000001
 31
0.0
  0
LINE
  5
1E1
330
20
100
AcDbEntity
  8
HILF
100
AcDbLine
 10
100.0000000000002
 20
250.0000000000001
 30
0.0
 11
365.0000000000003
 21
250.0000000000001
 31
0.0
  0
LINE
  5
1E2
330
20
100
AcDbEntity
  8
STEMPEL
100
AcDbLine
 10
364.9999999999997
 20
74.99999999999992
 30
0.0
 11
99.99999999999992
 21
74.99999999999992
 31
0.0
  0
TEXT
  5
1E3
330
20
100
AcDbEntity
  8
TEXT
100
AcDbText
 10
120.6660276761439
 20
34.13664615067979
 30
0.0
 40
10.0
  1
Index
 50
90.0
 41
0.8
  7
GREEKS
100
AcDbText
  0
LINE
  5
1E4
330
20
100
AcDbEntity
  8
VOLL
100
AcDbLine
 10
135.0000000000002
 20
275.0000000000001
 30
0.0
 11
134.9999999999999
 21
24.99999999999993
 31
0.0
  0
LINE
  5
1E5
330
20
100
AcDbEntity
  8
HILF
100
AcDbLine
 10
77.7191783928464
 20
742.5000000000001
 30
0.0
 11
0.0000000000002842
 21
742.5000000000001
 31
0.0
  0
TEXT
  5
1E6
330
20
100
AcDbEntity
  8
TEXT
100
AcDbText
 10
275.4658338547003
 20
46.67890673349525
 30
0.0
 40
10.0
  1
Tag
 41
0.8
  7
GREEKS
 72
     1
 11
284.7991671880336
 21
46.67890673349525
 31
0.0
100
AcDbText
  0
LINE
  5
1E7
330
20
100
AcDbEntity
  8
VOLL
100
AcDbLine
 10
310.0000000000003
 20
274.9999999999999
 30
0.0
 11
310.0
 21
24.99999999999993
 31
0.0
  0
LINE
  5
1E8
330
20
100
AcDbEntity
  8
VOLL
100
AcDbLine
 10
260.0000000000003
 20
274.9999999999999
 30
0.0
 11
260.0
 21
24.99999999999993
 31
0.0
  0
TEXT
  5
1E9
330
20
100
AcDbEntity
  8
TEXT
100
AcDbText
 10
321.8459001331948
 20
46.4831054241602
 30
0.0
 40
10.0
  1
Name
 41
0.8
  7
GREEKS
 72
     1
 11
337.6554239427186
 21
46.4831054241602
 31
0.0
100
AcDbText
  0
LINE
  5
1EA
330
20
100
AcDbEntity
  8
STEMPEL
100
AcDbLine
 10
365.0000000000003
 20
274.9999999999999
 30
0.0
 11
365.0
 21
24.99999999999993
 31
0.0
  0
TEXT
  5
1EB
330
20
100
AcDbEntity
  8
TEXT
100
AcDbText
 10
425.9974927705902
 20
157.7691260206433
 30
0.0
 40
10.0
  1
06.04.
 41
0.8
  7
GREEKS
 72
     1
 11
443.5213022943996
 21
157.7691260206433
 31
0.0
100
AcDbText
  0
TEXT
  5
1EC
330
20
100
AcDbEntity
  8
TEXT
100
AcDbText
 10
430.8279182884127
 20
183.2970125307481
 30
0.0
 40
10.0
  1
Tag
 41
0.8
  7
GREEKS
100
AcDbText
  0
TEXT
  5
1ED
330
20
100
AcDbEntity
  8
TEXT
100
AcDbText
 10
368.9590317919039
 20
159.0747592404491
 30
0.0
 40
10.0
  1
Gez.
 41
0.8
  7
GREEKS
100
AcDbText
  0
LINE
  5
1EE
330
20
100
AcDbEntity
  8
VOLL
100
AcDbLine
 10
410.0000000000003
 20
199.9999999999998
 30
0.0
 11
410.0000000000003
 21
99.99999999999992
 31
0.0
  0
TEXT
  5
1EF
330
20
100
AcDbEntity
  8
TEXT
100
AcDbText
 10
369.0016943468259
 20
108.8236597412452
 30
0.0
 40
10.0
  1
Norm.
 41
0.8
  7
GREEKS
100
AcDbText
  0
TEXT
  5
1F0
330
20
100
AcDbEntity
  8
TEXT
100
AcDbText
 10
368.8787716429181
 20
134.2231572857094
 30
0.0
 40
10.0
  1
Gepr.
 41
0.8
  7
GREEKS
100
AcDbText
  0
TEXT
  5
1F1
330
20
100
AcDbEntity
  8
TEXT
 62
     1
100
AcDbText
 10
401.2515766204717
 20
220.372535722849
 30
0.0
 40
17.5
  1
1:5
 41
0.8
  7
GREEKS
100
AcDbText
  0
TEXT
  5
1F2
330
20
100
AcDbEntity
  8
TEXT
100
AcDbText
 10
383.7908930375943
 20
256.1552237717722
 30
0.0
 40
12.5
  1
Maßstab
 41
0.8
  7
GREEKS
100
AcDbText
  0
TEXT
  5
1F3
330
20
100
AcDbEntity
  8
TEXT
100
AcDbText
 10
371.55527455526
 20
182.8506367787916
 30
0.0
 40
10.0
  1
2011
 41
0.8
  7
GREEKS
100
AcDbText
  0
LINE
  5
1F4
330
20
100
AcDbEntity
  8
VOLL
100
AcDbLine
 10
475.0000000000002
 20
274.9999999999996
 30
0.0
 11
475.0
 21
99.99999999999992
 31
0.0
  0
LINE
  5
1F5
330
20
100
AcDbEntity
  8
STEMPEL
100
AcDbLine
 10
415.2969904682557
 20
916.7090369895213
 30
0.0
 11
415.2969904682557
 21
841.3347728788327
 31
0.0
  0
LINE
  5
1F6
330
20
100
AcDbEntity
  8
STEMPEL
  6
Continuous
100
AcDbLine
 10
453.8469904682555
 20
1139.477279884438
 30
0.0
 11
453.8469904682555
 21
1107.192265873227
 31
0.0
  0
LINE
  5
1F7
330
20
100
AcDbEntity
  8
STEMPEL
  6
Continuous
100
AcDbLine
 10
462.3469904682556
 20
1076.159218971577
 30
0.0
 11
462.3469904682555
 21
1050.486275487694
 31
0.0
  0
ARC
  5
1F8
330
20
100
AcDbEntity
  8
STEMPEL
  6
Continuous
100
AcDbCircle
 10
483.2469904682555
 20
1050.486275487694
 30
0.0
 40
20.9
100
AcDbArc
 50
179.9999999999999
 51
214.3868930268838
  0
ARC
  5
1F9
330
20
100
AcDbEntity
  8
STEMPEL
  6
Continuous
100
AcDbCircle
 10
457.7469904682555
 20
1033.034628000995
 30
0.0
 40
10.0
100
AcDbArc
 50
0.0
 51
34.38689302688368
  0
ARC
  5
1FA
330
20
100
AcDbEntity
  8
STEMPEL
  6
Continuous
100
AcDbCircle
 10
444.3469904682556
 20
1076.159218971577
 30
0.0
 40
18.0
100
AcDbArc
 50
359.9999999999999
 51
30.63544765814634
  0
ARC
  5
1FB
330
20
100
AcDbEntity
  8
STEMPEL
  6
Continuous
100
AcDbCircle
 10
496.7469904682555
 20
1107.192265873227
 30
0.0
 40
42.9
100
AcDbArc
 50
180.0
 51
210.6354476581464
  0
ARC
  5
1FC
330
20
100
AcDbEntity
  8
STEMPEL
  6
Continuous
100
AcDbCircle
 10
496.7469904682555
 20
1139.477279884438
 30
0.0
 40
42.9
100
AcDbArc
 50
149.3695577484716
 51
180.0
  0
LINE
  5
1FE
330
20
100
AcDbEntity
  8
HILF
100
AcDbLine
 10
1050.0
 20
-0.0000000000002842
 30
0.0
 11
1050.0
 21
1485.0
 31
0.0
  0
LINE
  5
1FF
330
20
100
AcDbEntity
  8
STEMPEL
100
AcDbLine
 10
1025.0
 20
25.0
 30
0.0
 11
1025.0
 21
1460.0
 31
0.0
  0
TEXT
  5
200
330
20
100
AcDbEntity
  8
TEXT
 62
     1
100
AcDbText
 10
598.6674728771919
 20
342.4962034412096
 30
0.0
 40
17.5
  1
feuerverzinkt und innen beschichtet
 41
0.8
  7
GREEKS
100
AcDbText
  0
TEXT
  5
201
330
20
100
AcDbEntity
  8
TEXT
100
AcDbText
 10
843.1002153742515
 20
130.185404446965
 30
0.0
 40
12.5
  1
ersetzt durch:
 41
0.8
  7
GREEKS
100
AcDbText
  0
TEXT
  5
202
330
20
100
AcDbEntity
  8
TEXT
100
AcDbText
 10
841.8096540742482
 20
182.9529559274992
 30
0.0
 40
12.5
  1
Ersatz für:
 41
0.8
  7
GREEKS
100
AcDbText
  0
TEXT
  5
203
330
20
100
AcDbEntity
  8
TEXT
100
AcDbText
 10
840.4468873940851
 20
255.7830086342841
 30
0.0
 40
12.5
  1
Zeichnungs Nr.
 41
0.8
  7
GREEKS
100
AcDbText
  0
LINE
  5
204
330
20
100
AcDbEntity
  8
HILF
100
AcDbLine
 10
583.7274248224712
 20
37.23495645070784
 30
0.0
 11
1012.147209831682
 21
37.23495645070784
 31
0.0
  0
LINE
  5
205
330
20
100
AcDbEntity
  8
HILF
100
AcDbLine
 10
841.8096540742482
 20
209.4495909238957
 30
0.0
 11
1012.147209831682
 21
209.4495909238957
 31
0.0
  0
LINE
  5
206
330
20
100
AcDbEntity
  8
VOLL
100
AcDbLine
 10
830.0
 20
150.0
 30
0.0
 11
1025.0
 21
150.0
 31
0.0
  0
TEXT
  5
207
330
20
100
AcDbEntity
  8
TEXT
100
AcDbText
 10
587.8240977813288
 20
178.7583604396322
 30
0.0
 40
12.5
  1
DN200/300 Muffenlos/Muffe
 41
0.8
  7
GREEKS
100
AcDbText
  0
TEXT
  5
208
330
20
100
AcDbEntity
  8
TEXT
100
AcDbText
 10
587.8240977813288
 20
129.100298576054
 30
0.0
 40
12.5
  1
EDV-Art.Nr. 06006.GK0X
 41
0.8
  7
GREEKS
100
AcDbText
  0
TEXT
  5
209
330
20
100
AcDbEntity
  8
TEXT
 62
     1
100
AcDbText
 10
586.206368455484
 20
218.5437197313445
 30
0.0
 40
17.5
  1
Übergangsrohr konzentrisch
 41
0.65
  7
GREEKS
100
AcDbText
  0
LINE
  5
20A
330
20
100
AcDbEntity
  8
HILF
100
AcDbLine
 10
586.9342002742369
 20
124.9999999999999
 30
0.0
 11
812.0884791390775
 21
124.9999999999999
 31
0.0
  0
LINE
  5
20B
330
20
100
AcDbEntity
  8
HILF
100
AcDbLine
 10
586.9342002742369
 20
149.9999999999999
 30
0.0
 11
812.0884791390775
 21
149.9999999999999
 31
0.0
  0
LINE
  5
20C
330
20
100
AcDbEntity
  8
HILF
100
AcDbLine
 10
586.9342002742369
 20
174.9999999999998
 30
0.0
 11
812.0884791390775
 21
174.9999999999998
 31
0.0
  0
LINE
  5
20D
330
20
100
AcDbEntity
  8
HILF
100
AcDbLine
 10
586.9342002742369
 20
210.0939561891034
 30
0.0
 11
812.0884791390777
 21
210.0939561891034
 31
0.0
  0
LINE
  5
20E
330
20
100
AcDbEntity
  8
STEMPEL
100
AcDbLine
 10
575.0
 20
275.0000000000001
 30
0.0
 11
575.0
 21
24.99999999999993
 31
0.0
  0
TEXT
  5
20F
330
20
100
AcDbEntity
  8
TEXT
100
AcDbText
 10
587.4593753944567
 20
106.5743538255658
 30
0.0
 40
10.0
  1
06006GK0W.DWG
 41
0.8
  7
GREEKS
100
AcDbText
  0
TEXT
  5
210
330
20
100
AcDbEntity
  8
TEXT
100
AcDbText
 10
586.8555959778399
 20
77.11401425482641
 30
0.0
 40
12.5
  1
Bauvorhaben
 41
0.8
  7
GREEKS
100
AcDbText
  0
TEXT
  5
211
330
20
100
AcDbEntity
  8
TEXT
100
AcDbText
 10
587.1948509522525
 20
256.3723320029449
 30
0.0
 40
12.5
  1
Benennung
 41
0.8
  7
GREEKS
100
AcDbText
  0
LINE
  5
212
330
20
100
AcDbEntity
  8
STEMPEL
100
AcDbLine
 10
830.0
 20
274.9999999999994
 30
0.0
 11
830.0
 21
100.0
 31
0.0
  0
TEXT
  5
213
330
20
100
AcDbEntity
  8
TEXT
 62
     1
100
AcDbText
 10
866.063321062052
 20
220.372535722849
 30
0.0
 40
17.5
  1
06006GK0W
 41
0.8
  7
GREEKS
 72
     1
 11
926.7299877287186
 21
220.372535722849
 31
0.0
100
AcDbText
  0
ARC
  5
216
330
20
100
AcDbEntity
  8
STEMPEL
  6
Continuous
100
AcDbCircle
 10
671.2469904682555
 20
1050.486275487694
 30
0.0
 40
20.9
100
AcDbArc
 50
325.6131069731178
 51
0.0
  0
LINE
  5
218
330
20
100
AcDbEntity
  8
MITTEL
100
AcDbLine
 10
577.2469904682556
 20
1171.334772878832
 30
0.0
 11
577.2469904682558
 21
831.3347728788324
 31
0.0
  0
LINE
  5
219
330
20
100
AcDbEntity
  8
STEMPEL
  6
Continuous
100
AcDbLine
 10
686.7469904682556
 20
1033.034628000996
 30
0.0
 11
686.7469904682556
 21
1021.172132931137
 31
0.0
  0
ARC
  5
21B
330
20
100
AcDbEntity
  8
STEMPEL
  6
Continuous
100
AcDbCircle
 10
696.7469904682555
 20
1033.034628000996
 30
0.0
 40
10.0
100
AcDbArc
 50
145.6131069731178
 51
180.0
  0
LINE
  5
21D
330
20
100
AcDbEntity
  8
STEMPEL
100
AcDbLine
 10
739.1969904682556
 20
916.7090369895213
 30
0.0
 11
739.1969904682556
 21
841.3347728788327
 31
0.0
  0
LINE
  5
220
330
20
100
AcDbEntity
  8
STEMPEL
  6
Continuous
100
AcDbLine
 10
700.6469904682554
 20
1139.477279884438
 30
0.0
 11
700.6469904682554
 21
1107.192265873227
 31
0.0
  0
LINE
  5
222
330
20
100
AcDbEntity
  8
STEMPEL
  6
Continuous
100
AcDbLine
 10
692.1469904682554
 20
1076.159218971577
 30
0.0
 11
692.1469904682554
 21
1050.486275487694
 31
0.0
  0
ARC
  5
223
330
20
100
AcDbEntity
  8
STEMPEL
  6
Continuous
100
AcDbCircle
 10
710.1469904682554
 20
1076.159218971577
 30
0.0
 40
18.0
100
AcDbArc
 50
149.3645523418536
 51
180.0
  0
ARC
  5
224
330
20
100
AcDbEntity
  8
STEMPEL
  6
Continuous
100
AcDbCircle
 10
657.7469904682556
 20
1107.192265873227
 30
0.0
 40
42.9
100
AcDbArc
 50
329.3645523418534
 51
0.0
  0
ARC
  5
226
330
20
100
AcDbEntity
  8
STEMPEL
  6
Continuous
100
AcDbCircle
 10
657.7469904682556
 20
1139.477279884438
 30
0.0
 40
42.9
100
AcDbArc
 50
0.0
 51
30.63044225152844
  0
DIMENSION
  5
228
330
20
100
AcDbEntity
  8
BEM
100
AcDbDimension
  2
*D14
 10
350.2149692663162
 20
1161.334772878833
 30
0.0
 11
333.964969266316
 21
1001.334772878832
 31
0.0
 70
    32
 71
     5
 42
319.9999999999998
  3
Standard
100
AcDbAlignedDimension
 13
415.2969904682557
 23
841.3347728788327
 33
0.0
 14
459.8327655678191
 24
1161.334772878833
 34
0.0
 50
90.0
100
AcDbRotatedDimension
1001
ACAD
1000
DSTYLE
1002
{
1070
    40
1040
5.0
1070
    41
1040
3.5
1070
    42
1040
1.0
1070
    43
1040
7.0
1070
    44
1040
1.0
1070
    47
1040
2.0
1070
    48
1040
2.0
1070
    73
1070
     0
1070
    74
1070
     0
1070
    77
1070
     1
1070
    78
1070
     8
1070
    79
1070
     2
1070
   140
1040
3.5
1070
   141
1040
1.5
1070
   146
1040
0.5
1070
   147
1040
1.5
1070
   172
1070
     1
1070
   178
1070
     1
1070
   179
1070
     2
1070
   271
1070
     2
1070
   272
1070
     2
1070
   284
1070
     8
1070
   285
1070
     8
1070
   286
1070
     8
1070
   340
1005
4E
1002
}
  0
DIMENSION
  5
22C
330
20
100
AcDbEntity
  8
BEM
100
AcDbDimension
  2
*D16
 10
739.1969904682556
 20
794.7389508780144
 30
0.0
 11
577.2469904682557
 21
810.9889508780144
 31
0.0
 70
    32
  1
%%c324
 71
     5
 42
323.8999999999998
  3
Standard
100
AcDbAlignedDimension
 13
415.2969904682557
 23
841.3347728788327
 33
0.0
 14
739.1969904682556
 24
841.3347728788327
 34
0.0
100
AcDbRotatedDimension
1001
ACAD
1000
DSTYLE
1002
{
1070
    40
1040
5.0
1070
    41
1040
3.5
1070
    42
1040
1.0
1070
    43
1040
7.0
1070
    44
1040
1.0
1070
    47
1040
2.0
1070
    48
1040
2.0
1070
    73
1070
     0
1070
    74
1070
     0
1070
    77
1070
     1
1070
    78
1070
     8
1070
    79
1070
     2
1070
   140
1040
3.5
1070
   141
1040
1.5
1070
   146
1040
0.5
1070
   147
1040
1.5
1070
   172
1070
     1
1070
   178
1070
     1
1070
   179
1070
     2
1070
   271
1070
     2
1070
   272
1070
     2
1070
   284
1070
     8
1070
   285
1070
     8
1070
   286
1070
     8
1070
   340
1005
4E
1002
}
  0
LINE
  5
22D
330
20
100
AcDbEntity
  8
HILF
100
AcDbLine
 10
734.7553030683065
 20
920.4425218279933
 30
0.0
 11
419.7386778682063
 21
920.4425218279931
 31
0.0
  0
LINE
  5
22E
330
20
100
AcDbEntity
  8
STEMPEL
100
AcDbLine
 10
689.314049005784
 20
1014.482485614912
 30
0.0
 11
698.7469904682558
 21
1002.334772878832
 31
0.0
  0
LINE
  5
22F
330
20
100
AcDbEntity
  8
HILF
100
AcDbLine
 10
684.7032871574589
 20
1016.550530334471
 30
0.0
 11
469.7906937790548
 21
1016.550530334471
 31
0.0
  0
ARC
  5
230
330
20
100
AcDbEntity
  8
STEMPEL
100
AcDbCircle
 10
696.7469904682555
 20
1021.172132931137
 30
0.0
 40
10.0
100
AcDbArc
 50
180.0000000000002
 51
221.9872124958169
  0
LINE
  5
233
330
20
100
AcDbEntity
  8
STEMPEL
100
AcDbLine
 10
465.1799319307273
 20
1014.482485614912
 30
0.0
 11
455.7469904682554
 21
1002.334772878832
 31
0.0
  0
ARC
  5
234
330
20
100
AcDbEntity
  8
STEMPEL
100
AcDbCircle
 10
457.7469904682556
 20
1021.172132931137
 30
0.0
 40
10.0
100
AcDbArc
 50
318.0127875041833
 51
0.0000000000000106
  0
LINE
  5
235
330
20
100
AcDbEntity
  8
STEMPEL
  6
Continuous
100
AcDbLine
 10
467.7469904682555
 20
1033.034628000996
 30
0.0
 11
467.7469904682555
 21
1021.172132931137
 31
0.0
  0
DIMENSION
  5
236
330
20
100
AcDbEntity
  8
BEM
100
AcDbDimension
  2
*D1
 10
388.0001551569625
 20
921.3347728788326
 30
0.0
 11
370.5001551569625
 21
879.5208859113754
 31
0.0
 12
0.0
 22
3.0
 32
0.0
 70
   128
  1
min.80
 71
     5
 42
-1.0
100
AcDbAlignedDimension
 13
415.2969904682557
 23
841.3347728788327
 33
0.0
 14
415.5740255862751
 24
921.3347728788326
 34
0.0
 50
90.0
100
AcDbRotatedDimension
  0
ARC
  5
239
330
20
100
AcDbEntity
  8
SCHRAFF
100
AcDbCircle
 10
563.7551108541505
 20
951.3347728788327
 30
0.0
 40
4.133152828388964
100
AcDbArc
 50
313.4613832973278
 51
46.53861670267221
  0
ARC
  5
23A
330
20
100
AcDbEntity
  8
SCHRAFF
100
AcDbCircle
 10
553.7551108541505
 20
951.3347728788327
 30
0.0
 40
4.133152828388964
100
AcDbArc
 50
313.4613832973278
 51
46.53861670267221
  0
ARC
  5
23B
330
20
100
AcDbEntity
  8
SCHRAFF
100
AcDbCircle
 10
543.7551108541505
 20
951.3347728788327
 30
0.0
 40
4.133152828388964
100
AcDbArc
 50
313.4613832973278
 51
46.53861670267221
  0
ARC
  5
23C
330
20
100
AcDbEntity
  8
SCHRAFF
100
AcDbCircle
 10
523.7551108541505
 20
951.3347728788327
 30
0.0
 40
4.133152828388964
100
AcDbArc
 50
313.4613832973278
 51
46.53861670267221
  0
ARC
  5
23D
330
20
100
AcDbEntity
  8
SCHRAFF
100
AcDbCircle
 10
533.7551108541505
 20
951.3347728788327
 30
0.0
 40
4.133152828388964
100
AcDbArc
 50
313.4613832973278
 51
46.53861670267221
  0
ARC
  5
23E
330
20
100
AcDbEntity
  8
SCHRAFF
100
AcDbCircle
 10
493.7551108541505
 20
951.3347728788327
 30
0.0
 40
4.133152828388964
100
AcDbArc
 50
313.4613832973278
 51
46.53861670267221
  0
ARC
  5
23F
330
20
100
AcDbEntity
  8
SCHRAFF
100
AcDbCircle
 10
483.7551108541505
 20
951.3347728788327
 30
0.0
 40
4.133152828388964
100
AcDbArc
 50
313.4613832973278
 51
46.53861670267221
  0
ARC
  5
240
330
20
100
AcDbEntity
  8
SCHRAFF
100
AcDbCircle
 10
503.7551108541505
 20
951.3347728788327
 30
0.0
 40
4.133152828388964
100
AcDbArc
 50
313.4613832973278
 51
46.53861670267221
  0
ARC
  5
241
330
20
100
AcDbEntity
  8
SCHRAFF
100
AcDbCircle
 10
513.7551108541505
 20
951.3347728788327
 30
0.0
 40
4.133152828388964
100
AcDbArc
 50
313.4613832973278
 51
46.53861670267221
  0
ARC
  5
242
330
20
100
AcDbEntity
  8
SCHRAFF
100
AcDbCircle
 10
443.7551108541505
 20
951.3347728788327
 30
0.0
 40
4.133152828388964
100
AcDbArc
 50
313.4613832973278
 51
46.53861670267221
  0
ARC
  5
243
330
20
100
AcDbEntity
  8
SCHRAFF
100
AcDbCircle
 10
433.7551108541505
 20
951.3347728788327
 30
0.0
 40
4.133152828388964
100
AcDbArc
 50
313.4613832973278
 51
46.53861670267221
  0
ARC
  5
244
330
20
100
AcDbEntity
  8
SCHRAFF
100
AcDbCircle
 10
453.7551108541506
 20
951.3347728788327
 30
0.0
 40
4.133152828388964
100
AcDbArc
 50
313.4613832973278
 51
46.53861670267221
  0
ARC
  5
245
330
20
100
AcDbEntity
  8
SCHRAFF
100
AcDbCircle
 10
473.7551108541506
 20
951.3347728788327
 30
0.0
 40
4.133152828388964
100
AcDbArc
 50
313.4613832973278
 51
46.53861670267221
  0
ARC
  5
246
330
20
100
AcDbEntity
  8
SCHRAFF
100
AcDbCircle
 10
463.7551108541505
 20
951.3347728788327
 30
0.0
 40
4.133152828388964
100
AcDbArc
 50
313.4613832973278
 51
46.53861670267221
  0
ARC
  5
247
330
20
100
AcDbEntity
  8
SCHRAFF
100
AcDbCircle
 10
468.9054507645081
 20
1002.334772878832
 30
0.0
 40
4.133152828388964
100
AcDbArc
 50
313.4613832973278
 51
46.53861670267221
  0
ARC
  5
248
330
20
100
AcDbEntity
  8
SCHRAFF
100
AcDbCircle
 10
478.905450764508
 20
1002.334772878832
 30
0.0
 40
4.133152828388964
100
AcDbArc
 50
313.4613832973278
 51
46.53861670267221
  0
ARC
  5
249
330
20
100
AcDbEntity
  8
SCHRAFF
100
AcDbCircle
 10
508.905450764508
 20
1002.334772878832
 30
0.0
 40
4.133152828388964
100
AcDbArc
 50
313.4613832973278
 51
46.53861670267221
  0
ARC
  5
24A
330
20
100
AcDbEntity
  8
SCHRAFF
100
AcDbCircle
 10
488.905450764508
 20
1002.334772878832
 30
0.0
 40
4.133152828388964
100
AcDbArc
 50
313.4613832973278
 51
46.53861670267221
  0
ARC
  5
24B
330
20
100
AcDbEntity
  8
SCHRAFF
100
AcDbCircle
 10
498.905450764508
 20
1002.334772878832
 30
0.0
 40
4.133152828388964
100
AcDbArc
 50
313.4613832973278
 51
46.53861670267221
  0
ARC
  5
24C
330
20
100
AcDbEntity
  8
SCHRAFF
100
AcDbCircle
 10
518.905450764508
 20
1002.334772878832
 30
0.0
 40
4.133152828388964
100
AcDbArc
 50
313.4613832973278
 51
46.53861670267221
  0
ARC
  5
24D
330
20
100
AcDbEntity
  8
SCHRAFF
100
AcDbCircle
 10
538.905450764508
 20
1002.334772878832
 30
0.0
 40
4.133152828388964
100
AcDbArc
 50
313.4613832973278
 51
46.53861670267221
  0
ARC
  5
24E
330
20
100
AcDbEntity
  8
SCHRAFF
100
AcDbCircle
 10
528.905450764508
 20
1002.334772878832
 30
0.0
 40
4.133152828388964
100
AcDbArc
 50
313.4613832973278
 51
46.53861670267221
  0
ARC
  5
24F
330
20
100
AcDbEntity
  8
SCHRAFF
100
AcDbCircle
 10
548.905450764508
 20
1002.334772878832
 30
0.0
 40
4.133152828388964
100
AcDbArc
 50
313.4613832973278
 51
46.53861670267221
  0
ARC
  5
250
330
20
100
AcDbEntity
  8
SCHRAFF
100
AcDbCircle
 10
558.905450764508
 20
1002.334772878832
 30
0.0
 40
4.133152828388964
100
AcDbArc
 50
313.4613832973278
 51
46.53861670267221
  0
ARC
  5
251
330
20
100
AcDbEntity
  8
SCHRAFF
100
AcDbCircle
 10
568.905450764508
 20
1002.334772878832
 30
0.0
 40
4.133152828388964
100
AcDbArc
 50
313.4613832973278
 51
46.53861670267221
  0
ARC
  5
252
330
20
100
AcDbEntity
  8
SCHRAFF
100
AcDbCircle
 10
458.905450764508
 20
1002.334772878832
 30
0.0
 40
4.133152828388964
100
AcDbArc
 50
313.4613832973278
 51
46.53861670267221
  0
TEXT
  5
258
330
20
100
AcDbEntity
  8
TEXT
 62
     1
100
AcDbText
 10
569.6597391913012
 20
1090.490525589023
 30
0.0
 40
17.5
  1
DN200
 50
90.0
 41
0.8
  7
GREEKS
100
AcDbText
  0
TEXT
  5
259
330
20
100
AcDbEntity
  8
TEXT
 62
     1
100
AcDbText
 10
569.6597391913012
 20
849.426368209475
 30
0.0
 40
17.5
  1
DN300
 50
90.0
 41
0.8
  7
GREEKS
100
AcDbText
  0
LINE
  5
25A
330
20
100
AcDbEntity
  8
STEMPEL
100
AcDbLine
 10
737.850037211655
 20
923.9245651883821
 30
0.0
 11
727.2469904682557
 21
951.3347728788327
 31
0.0
  0
ARC
  5
25C
330
20
100
AcDbEntity
  8
STEMPEL
100
AcDbCircle
 10
719.1969904682556
 20
916.7090369895213
 30
0.0
 40
20.0
100
AcDbArc
 50
0.0
 51
21.14788566784504
  0
LINE
  5
25E
330
20
100
AcDbEntity
  8
STEMPEL
100
AcDbLine
 10
416.6439437248564
 20
923.9245651883821
 30
0.0
 11
427.2469904682557
 21
951.3347728788327
 31
0.0
  0
ARC
  5
25F
330
20
100
AcDbEntity
  8
STEMPEL
100
AcDbCircle
 10
435.2969904682558
 20
916.7090369895213
 30
0.0
 40
20.0
100
AcDbArc
 50
158.852114332155
 51
180.0
  0
LINE
  5
260
330
20
100
AcDbEntity
  8
STEMPEL
100
AcDbLine
 10
698.7469904682558
 20
1002.334772878832
 30
0.0
 11
727.2469904682557
 21
951.3347728788327
 31
0.0
  0
LINE
  5
262
330
20
100
AcDbEntity
  8
STEMPEL
100
AcDbLine
 10
455.7469904682557
 20
1002.334772878832
 30
0.0
 11
427.2469904682558
 21
951.3347728788327
 31
0.0
  0
ARC
  5
263
330
20
100
AcDbEntity
  8
SCHRAFF
100
AcDbCircle
 10
457.5860018627414
 20
1001.324941567084
 30
0.0
 40
4.039725854378693
100
AcDbArc
 50
83.02529531164797
 51
209.5148709700327
  0
ARC
  5
264
330
20
100
AcDbEntity
  8
SCHRAFF
100
AcDbCircle
 10
428.6979265791573
 20
950.7707182589133
 30
0.0
 40
3.571183436094376
100
AcDbArc
 50
86.37913335253244
 51
223.0088662272322
  0
INSERT
  5
265
330
20
100
AcDbEntity
  8
SCHRAFF
100
AcDbBlockReference
  2
*X2
 10
0.0
 20
0.0
 30
0.0
1001
ACAD
1000
HATCH
1002
{
1070
    16
1000
_U,I
1040
0.1
1040
0.0
1070
     0
1002
}
  0
ARC
  5
266
330
20
100
AcDbEntity
  8
SCHRAFF
100
AcDbCircle
 10
725.7960543573541
 20
950.7707182589133
 30
0.0
 40
3.571183436094376
100
AcDbArc
 50
316.9911337727679
 51
93.62086664746755
  0
ARC
  5
267
330
20
100
AcDbEntity
  8
SCHRAFF
100
AcDbCircle
 10
696.90797907377
 20
1001.324941567084
 30
0.0
 40
4.039725854378693
100
AcDbArc
 50
330.4851290299673
 51
96.97470468835206
  0
INSERT
  5
268
330
20
100
AcDbEntity
  8
SCHRAFF
100
AcDbBlockReference
  2
*X2
 10
1154.493980936511
 20
0.0
 30
0.0
 41
-1.0
1001
ACAD
1000
HATCH
1002
{
1070
    16
1000
_U,I
1040
0.1
1040
0.0
1070
     0
1002
}
  0
DIMENSION
  5
270
330
20
100
AcDbEntity
  8
BEM
100
AcDbDimension
  2
*D8
 10
686.7469904682556
 20
1185.127245833425
 30
0.0
 11
577.2469904682556
 21
1201.377245833425
 31
0.0
 70
    32
  1
%%c<>
 71
     5
 42
219.0000000000001
  3
Standard
100
AcDbAlignedDimension
 13
467.7469904682555
 23
1033.034628000995
 33
0.0
 14
686.7469904682556
 24
1033.034628000996
 34
0.0
100
AcDbRotatedDimension
1001
ACAD
1000
DSTYLE
1002
{
1070
    40
1040
5.0
1070
    41
1040
3.5
1070
    42
1040
1.0
1070
    43
1040
7.0
1070
    44
1040
1.0
1070
    47
1040
2.0
1070
    48
1040
2.0
1070
    73
1070
     0
1070
    74
1070
     0
1070
    77
1070
     1
1070
    78
1070
     8
1070
    79
1070
     2
1070
   140
1040
3.5
1070
   141
1040
1.5
1070
   146
1040
0.5
1070
   147
1040
1.5
1070
   172
1070
     1
1070
   178
1070
     1
1070
   179
1070
     2
1070
   271
1070
     2
1070
   272
1070
     2
1070
   284
1070
     8
1070
   285
1070
     8
1070
   286
1070
     8
1070
   340
1005
4E
1002
}
  0
TEXT
  5
275
330
20
100
AcDbEntity
  8
BEM
100
AcDbText
 10
1041.452885359359
 20
30.37012038345757
 30
0.0
 40
10.0
  1
Diese Zeichnung ist urheberrechtlich geschützt und bleibt unser Eigentum. Sie darf weder ganz noch teilweise vervielfältigt und nicht an Dritte weitergegeben werden.
 50
90.0
 41
0.8
  7
GREEKS
100
AcDbText
  0
ARC
  5
33D
330
20
100
AcDbEntity
  8
SCHRAFF
100
AcDbCircle
 10
678.9054507645079
 20
1002.334772878832
 30
0.0
 40
4.133152828388964
100
AcDbArc
 50
313.4613832973278
 51
46.53861670267221
  0
ARC
  5
33E
330
20
100
AcDbEntity
  8
SCHRAFF
100
AcDbCircle
 10
668.9054507645079
 20
1002.334772878832
 30
0.0
 40
4.133152828388964
100
AcDbArc
 50
313.4613832973278
 51
46.53861670267221
  0
ARC
  5
33F
330
20
100
AcDbEntity
  8
SCHRAFF
100
AcDbCircle
 10
658.9054507645079
 20
1002.334772878832
 30
0.0
 40
4.133152828388964
100
AcDbArc
 50
313.4613832973278
 51
46.53861670267221
  0
ARC
  5
340
330
20
100
AcDbEntity
  8
SCHRAFF
100
AcDbCircle
 10
638.9054507645079
 20
1002.334772878832
 30
0.0
 40
4.133152828388964
100
AcDbArc
 50
313.4613832973278
 51
46.53861670267221
  0
ARC
  5
341
330
20
100
AcDbEntity
  8
SCHRAFF
100
AcDbCircle
 10
648.9054507645079
 20
1002.334772878832
 30
0.0
 40
4.133152828388964
100
AcDbArc
 50
313.4613832973278
 51
46.53861670267221
  0
ARC
  5
342
330
20
100
AcDbEntity
  8
SCHRAFF
100
AcDbCircle
 10
628.9054507645079
 20
1002.334772878832
 30
0.0
 40
4.133152828388964
100
AcDbArc
 50
313.4613832973278
 51
46.53861670267221
  0
ARC
  5
343
330
20
100
AcDbEntity
  8
SCHRAFF
100
AcDbCircle
 10
608.9054507645079
 20
1002.334772878832
 30
0.0
 40
4.133152828388964
100
AcDbArc
 50
313.4613832973278
 51
46.53861670267221
  0
ARC
  5
344
330
20
100
AcDbEntity
  8
SCHRAFF
100
AcDbCircle
 10
598.9054507645079
 20
1002.334772878832
 30
0.0
 40
4.133152828388964
100
AcDbArc
 50
313.4613832973278
 51
46.53861670267221
  0
ARC
  5
345
330
20
100
AcDbEntity
  8
SCHRAFF
100
AcDbCircle
 10
618.9054507645079
 20
1002.334772878832
 30
0.0
 40
4.133152828388964
100
AcDbArc
 50
313.4613832973278
 51
46.53861670267221
  0
ARC
  5
346
330
20
100
AcDbEntity
  8
SCHRAFF
100
AcDbCircle
 10
588.905450764508
 20
1002.334772878832
 30
0.0
 40
4.133152828388964
100
AcDbArc
 50
313.4613832973278
 51
46.53861670267221
  0
ARC
  5
347
330
20
100
AcDbEntity
  8
SCHRAFF
100
AcDbCircle
 10
578.905450764508
 20
1002.334772878832
 30
0.0
 40
4.133152828388964
100
AcDbArc
 50
313.4613832973278
 51
46.53861670267221
  0
ARC
  5
348
330
20
100
AcDbEntity
  8
SCHRAFF
100
AcDbCircle
 10
688.9054507645079
 20
1002.334772878832
 30
0.0
 40
4.133152828388964
100
AcDbArc
 50
313.4613832973278
 51
46.53861670267221
  0
ARC
  5
349
330
20
100
AcDbEntity
  8
SCHRAFF
100
AcDbCircle
 10
593.7551108541504
 20
951.3347728788327
 30
0.0
 40
4.133152828388964
100
AcDbArc
 50
313.4613832973278
 51
46.53861670267221
  0
ARC
  5
34A
330
20
100
AcDbEntity
  8
SCHRAFF
100
AcDbCircle
 10
603.7551108541504
 20
951.3347728788327
 30
0.0
 40
4.133152828388964
100
AcDbArc
 50
313.4613832973278
 51
46.53861670267221
  0
ARC
  5
34B
330
20
100
AcDbEntity
  8
SCHRAFF
100
AcDbCircle
 10
583.7551108541504
 20
951.3347728788327
 30
0.0
 40
4.133152828388964
100
AcDbArc
 50
313.4613832973278
 51
46.53861670267221
  0
ARC
  5
34C
330
20
100
AcDbEntity
  8
SCHRAFF
100
AcDbCircle
 10
573.7551108541504
 20
951.3347728788327
 30
0.0
 40
4.133152828388964
100
AcDbArc
 50
313.4613832973278
 51
46.53861670267221
  0
ARC
  5
34D
330
20
100
AcDbEntity
  8
SCHRAFF
100
AcDbCircle
 10
643.7551108541504
 20
951.3347728788327
 30
0.0
 40
4.133152828388964
100
AcDbArc
 50
313.4613832973278
 51
46.53861670267221
  0
ARC
  5
34E
330
20
100
AcDbEntity
  8
SCHRAFF
100
AcDbCircle
 10
633.7551108541504
 20
951.3347728788327
 30
0.0
 40
4.133152828388964
100
AcDbArc
 50
313.4613832973278
 51
46.53861670267221
  0
ARC
  5
34F
330
20
100
AcDbEntity
  8
SCHRAFF
100
AcDbCircle
 10
613.7551108541503
 20
951.3347728788327
 30
0.0
 40
4.133152828388964
100
AcDbArc
 50
313.4613832973278
 51
46.53861670267221
  0
ARC
  5
350
330
20
100
AcDbEntity
  8
SCHRAFF
100
AcDbCircle
 10
623.7551108541504
 20
951.3347728788327
 30
0.0
 40
4.133152828388964
100
AcDbArc
 50
313.4613832973278
 51
46.53861670267221
  0
ARC
  5
351
330
20
100
AcDbEntity
  8
SCHRAFF
100
AcDbCircle
 10
663.7551108541503
 20
951.3347728788327
 30
0.0
 40
4.133152828388964
100
AcDbArc
 50
313.4613832973278
 51
46.53861670267221
  0
ARC
  5
352
330
20
100
AcDbEntity
  8
SCHRAFF
100
AcDbCircle
 10
653.7551108541504
 20
951.3347728788327
 30
0.0
 40
4.133152828388964
100
AcDbArc
 50
313.4613832973278
 51
46.53861670267221
  0
ARC
  5
353
330
20
100
AcDbEntity
  8
SCHRAFF
100
AcDbCircle
 10
673.7551108541504
 20
951.3347728788327
 30
0.0
 40
4.133152828388964
100
AcDbArc
 50
313.4613832973278
 51
46.53861670267221
  0
ARC
  5
354
330
20
100
AcDbEntity
  8
SCHRAFF
100
AcDbCircle
 10
683.7551108541504
 20
951.3347728788327
 30
0.0
 40
4.133152828388964
100
AcDbArc
 50
313.4613832973278
 51
46.53861670267221
  0
ARC
  5
355
330
20
100
AcDbEntity
  8
SCHRAFF
100
AcDbCircle
 10
693.7551108541504
 20
951.3347728788327
 30
0.0
 40
4.133152828388964
100
AcDbArc
 50
313.4613832973278
 51
46.53861670267221
  0
ARC
  5
356
330
20
100
AcDbEntity
  8
SCHRAFF
100
AcDbCircle
 10
713.7551108541503
 20
951.3347728788327
 30
0.0
 40
4.133152828388964
100
AcDbArc
 50
313.4613832973278
 51
46.53861670267221
  0
ARC
  5
357
330
20
100
AcDbEntity
  8
SCHRAFF
100
AcDbCircle
 10
703.7551108541504
 20
951.3347728788327
 30
0.0
 40
4.133152828388964
100
AcDbArc
 50
313.4613832973278
 51
46.53861670267221
  0
TEXT
  5
358
330
20
100
AcDbEntity
  8
TEXT
100
AcDbText
 10
481.7206788119809
 20
227.4043440864691
 30
0.0
 40
10.0
  1
DIN EN1123-2
 41
0.8
  7
GREEKS
 72
     1
 11
524.1968692881714
 21
227.4043440864691
 31
0.0
100
AcDbText
  0
ENDSEC
  0
SECTION
  2
OBJECTS
  0
DICTIONARY
  5
C
330
0
100
AcDbDictionary
281
     1
  3
ACAD_COLOR
350
1B
  3
ACAD_GROUP
350
D
  3
ACAD_LAYOUT
350
19
  3
ACAD_MATERIAL
350
1A
  3
ACAD_MLINESTYLE
350
16
  3
ACAD_PLOTSETTINGS
350
18
  3
ACAD_PLOTSTYLENAME
350
E
  3
AcDbVariableDictionary
350
28A
  0
DICTIONARY
  5
1B
102
{ACAD_REACTORS
330
C
102
}
330
C
100
AcDbDictionary
281
     1
  0
DICTIONARY
  5
D
102
{ACAD_REACTORS
330
C
102
}
330
C
100
AcDbDictionary
281
     1
  0
DICTIONARY
  5
19
102
{ACAD_REACTORS
330
C
102
}
330
C
100
AcDbDictionary
281
     1
  3
Layout1
350
1F
  3
Model
350
23
  0
DICTIONARY
  5
1A
102
{ACAD_REACTORS
330
C
102
}
330
C
100
AcDbDictionary
281
     1
  0
DICTIONARY
  5
16
102
{ACAD_REACTORS
330
C
102
}
330
C
100
AcDbDictionary
281
     1
  3
Standard
350
17
  0
DICTIONARY
  5
18
102
{ACAD_REACTORS
330
C
102
}
330
C
100
AcDbDictionary
281
     1
  0
ACDBDICTIONARYWDFLT
  5
E
102
{ACAD_REACTORS
330
C
102
}
330
C
100
AcDbDictionary
281
     1
  3
Normal
350
F
100
AcDbDictionaryWithDefault
340
F
  0
DICTIONARY
  5
28A
102
{ACAD_REACTORS
330
C
102
}
330
C
100
AcDbDictionary
281
     1
  3
DIMASSOC
350
28C
  3
HIDETEXT
350
28B
  3
PROJECTNAME
350
28D
  0
LAYOUT
  5
1F
102
{ACAD_REACTORS
330
19
102
}
330
19
100
AcDbPlotSettings
  1

  2
RICOH Aficio 2027 PCL 6
  4

  6

 40
0.0
 41
0.0
 42
0.0
 43
0.0
 44
0.0
 45
0.0
 46
0.0
 47
0.0
 48
0.0
 49
0.0
140
0.0
141
0.0
142
1.0
143
1.0
 70
   688
 72
     0
 73
     0
 74
     5
  7
monochrome1.ctb
 75
    16
147
1.0
 76
     0
 77
     2
 78
   300
148
0.0
149
0.0
100
AcDbLayout
  1
Layout1
 70
     0
 71
     1
 10
0.0
 20
0.0
 11
12.0
 21
9.0
 12
214.090173102852
 22
50.00000000000001
 32
234.8760879654383
 14
1.000000000000000E+20
 24
1.000000000000000E+20
 34
1.000000000000000E+20
 15
-1.000000000000000E+20
 25
-1.000000000000000E+20
 35
-1.000000000000000E+20
146
0.0
 13
0.0
 23
0.0
 33
0.0
 16
1.0
 26
0.0
 36
0.0
 17
0.0
 27
1.0
 37
0.0
 76
     0
330
1C
  0
LAYOUT
  5
23
102
{ACAD_REACTORS
330
19
102
}
330
19
100
AcDbPlotSettings
  1

  2
RICOH Aficio 2027 PCL 6
  4
A4
  6

 40
5.027083396911621
 41
5.027085304260253
 42
5.027084350585937
 43
5.027069091796875
 44
209.9733276367187
 45
296.9259948730469
 46
0.0
 47
0.0
 48
0.0
 49
0.0
140
0.0
141
0.0
142
1.0
143
1.0
 70
 11952
 72
     0
 73
     1
 74
     0
  7
monochrome1.ctb
 75
     0
147
1.0
 76
     0
 77
     2
 78
   300
148
5749.737974108374
149
225.2379483828901
100
AcDbLayout
  1
Model
 70
     1
 71
     0
 10
0.0
 20
0.0
 11
12.0
 21
9.0
 12
0.0
 22
0.0
 32
0.0
 14
0.0
 24
0.0
 34
0.0
 15
0.0
 25
0.0
 35
0.0
146
0.0
 13
0.0
 23
0.0
 33
0.0
 16
1.0
 26
0.0
 36
0.0
 17
0.0
 27
1.0
 37
0.0
 76
     0
330
20
  0
MLINESTYLE
  5
17
102
{ACAD_REACTORS
330
16
102
}
330
16
100
AcDbMlineStyle
  2
STANDARD
 70
     0
  3

 62
   256
 51
90.0
 52
90.0
 71
     2
 49
0.5
 62
   256
  6
BYLAYER
 49
-0.5
 62
   256
  6
BYLAYER
  0
ACDBPLACEHOLDER
  5
F
102
{ACAD_REACTORS
330
E
102
}
330
E
  0
DICTIONARYVAR
  5
28C
102
{ACAD_REACTORS
330
28A
102
}
330
28A
100
DictionaryVariables
280
     0
  1
2
  0
DICTIONARYVAR
  5
28B
102
{ACAD_REACTORS
330
28A
102
}
330
28A
100
DictionaryVariables
280
     0
  1
1
  0
DICTIONARYVAR
  5
28D
102
{ACAD_REACTORS
330
28A
102
}
330
28A
100
DictionaryVariables
280
     0
  1

  0
ENDSEC
  0
EOF
