  0
SECTION
  2
HEADER
  9
$ACADVER
  1
AC1018
  9
$ACADMAINTVER
 70
     2
  9
$DWGCODEPAGE
  3
ANSI_1252
  9
$INSBASE
 10
0.0
 20
0.0
 30
0.0
  9
$EXTMIN
 10
-0.0348622793476352
 20
-0.022643396237072
 30
-0.0000000000112498
  9
$EXTMAX
 10
1050.013922467144
 20
1485.022664142714
 30
0.0000000000002956
  9
$LIMMIN
 10
0.0
 20
0.0
  9
$LIMMAX
 10
1050.0
 20
1485.0
  9
$ORTHOMODE
 70
     1
  9
$REGENMODE
 70
     1
  9
$FILLMODE
 70
     1
  9
$QTEXTMODE
 70
     0
  9
$MIRRTEXT
 70
     1
  9
$LTSCALE
 40
50.0
  9
$ATTMODE
 70
     1
  9
$TEXTSIZE
 40
2.5
  9
$TRACEWID
 40
0.5
  9
$TEXTSTYLE
  7
GREEKS
  9
$CLAYER
  8
VOLL
  9
$CELTYPE
  6
ByLayer
  9
$CECOLOR
 62
   256
  9
$CELTSCALE
 40
1.0
  9
$DISPSILH
 70
     0
  9
$DIMSCALE
 40
5.0
  9
$DIMASZ
 40
3.5
  9
$DIMEXO
 40
1.0
  9
$DIMDLI
 40
7.0
  9
$DIMRND
 40
0.0
  9
$DIMDLE
 40
0.0
  9
$DIMEXE
 40
1.0
  9
$DIMTP
 40
2.0
  9
$DIMTM
 40
2.0
  9
$DIMTXT
 40
3.5
  9
$DIMCEN
 40
1.5
  9
$DIMTSZ
 40
0.0
  9
$DIMTOL
 70
     0
  9
$DIMLIM
 70
     0
  9
$DIMTIH
 70
     0
  9
$DIMTOH
 70
     0
  9
$DIMSE1
 70
     0
  9
$DIMSE2
 70
     0
  9
$DIMTAD
 70
     1
  9
$DIMZIN
 70
     8
  9
$DIMBLK
  1

  9
$DIMASO
 70
     1
  9
$DIMSHO
 70
     0
  9
$DIMPOST
  1

  9
$DIMAPOST
  1

  9
$DIMALT
 70
     0
  9
$DIMALTD
 70
     2
  9
$DIMALTF
 40
25.4
  9
$DIMLFAC
 40
1.0
  9
$DIMTOFL
 70
     1
  9
$DIMTVP
 40
0.0
  9
$DIMTIX
 70
     0
  9
$DIMSOXD
 70
     0
  9
$DIMSAH
 70
     0
  9
$DIMBLK1
  1

  9
$DIMBLK2
  1

  9
$DIMSTYLE
  2
Standard
  9
$DIMCLRD
 70
     0
  9
$DIMCLRE
 70
     0
  9
$DIMCLRT
 70
     1
  9
$DIMTFAC
 40
0.5
  9
$DIMGAP
 40
1.5
  9
$DIMJUST
 70
     0
  9
$DIMSD1
 70
     0
  9
$DIMSD2
 70
     0
  9
$DIMTOLJ
 70
     1
  9
$DIMTZIN
 70
     8
  9
$DIMALTZ
 70
     8
  9
$DIMALTTZ
 70
     8
  9
$DIMUPT
 70
     0
  9
$DIMDEC
 70
     2
  9
$DIMTDEC
 70
     2
  9
$DIMALTU
 70
     2
  9
$DIMALTTD
 70
     2
  9
$DIMTXSTY
  7
GREEKS
  9
$DIMAUNIT
 70
     0
  9
$DIMADEC
 70
     2
  9
$DIMALTRND
 40
0.0
  9
$DIMAZIN
 70
     2
  9
$DIMDSEP
 70
    46
  9
$DIMATFIT
 70
     3
  9
$DIMFRAC
 70
     0
  9
$DIMLDRBLK
  1

  9
$DIMLUNIT
 70
     2
  9
$DIMLWD
 70
    -2
  9
$DIMLWE
 70
    -2
  9
$DIMTMOVE
 70
     0
  9
$LUNITS
 70
     2
  9
$LUPREC
 70
     2
  9
$SKETCHINC
 40
1.0
  9
$FILLETRAD
 40
10.0
  9
$AUNITS
 70
     0
  9
$AUPREC
 70
     0
  9
$MENU
  1
ACAD
  9
$ELEVATION
 40
0.0
  9
$PELEVATION
 40
0.0
  9
$THICKNESS
 40
0.0
  9
$LIMCHECK
 70
     0
  9
$CHAMFERA
 40
0.0
  9
$CHAMFERB
 40
0.0
  9
$CHAMFERC
 40
0.0
  9
$CHAMFERD
 40
0.0
  9
$SKPOLY
 70
     0
  9
$TDCREATE
 40
2452216.444647222
  9
$TDUCREATE
 40
2452216.361313889
  9
$TDUPDATE
 40
2455658.367203067
  9
$TDUUPDATE
 40
2455658.283869734
  9
$TDINDWG
 40
0.0587012963
  9
$TDUSRTIMER
 40
0.0587012963
  9
$USRTIMER
 70
     1
  9
$ANGBASE
 50
0.0
  9
$ANGDIR
 70
     0
  9
$PDMODE
 70
     0
  9
$PDSIZE
 40
0.0
  9
$PLINEWID
 40
0.0
  9
$SPLFRAME
 70
     0
  9
$SPLINETYPE
 70
     6
  9
$SPLINESEGS
 70
     8
  9
$HANDSEED
  5
524
  9
$SURFTAB1
 70
     6
  9
$SURFTAB2
 70
     6
  9
$SURFTYPE
 70
     6
  9
$SURFU
 70
     6
  9
$SURFV
 70
     6
  9
$UCSBASE
  2

  9
$UCSNAME
  2

  9
$UCSORG
 10
0.0
 20
0.0
 30
0.0
  9
$UCSXDIR
 10
1.0
 20
0.0
 30
0.0
  9
$UCSYDIR
 10
0.0
 20
1.0
 30
0.0
  9
$UCSORTHOREF
  2

  9
$UCSORTHOVIEW
 70
     0
  9
$UCSORGTOP
 10
0.0
 20
0.0
 30
0.0
  9
$UCSORGBOTTOM
 10
0.0
 20
0.0
 30
0.0
  9
$UCSORGLEFT
 10
0.0
 20
0.0
 30
0.0
  9
$UCSORGRIGHT
 10
0.0
 20
0.0
 30
0.0
  9
$UCSORGFRONT
 10
0.0
 20
0.0
 30
0.0
  9
$UCSORGBACK
 10
0.0
 20
0.0
 30
0.0
  9
$PUCSBASE
  2

  9
$PUCSNAME
  2

  9
$PUCSORG
 10
0.0
 20
0.0
 30
0.0
  9
$PUCSXDIR
 10
1.0
 20
0.0
 30
0.0
  9
$PUCSYDIR
 10
0.0
 20
1.0
 30
0.0
  9
$PUCSORTHOREF
  2

  9
$PUCSORTHOVIEW
 70
     0
  9
$PUCSORGTOP
 10
0.0
 20
0.0
 30
0.0
  9
$PUCSORGBOTTOM
 10
0.0
 20
0.0
 30
0.0
  9
$PUCSORGLEFT
 10
0.0
 20
0.0
 30
0.0
  9
$PUCSORGRIGHT
 10
0.0
 20
0.0
 30
0.0
  9
$PUCSORGFRONT
 10
0.0
 20
0.0
 30
0.0
  9
$PUCSORGBACK
 10
0.0
 20
0.0
 30
0.0
  9
$USERI1
 70
     0
  9
$USERI2
 70
     0
  9
$USERI3
 70
     0
  9
$USERI4
 70
     0
  9
$USERI5
 70
     0
  9
$USERR1
 40
0.0
  9
$USERR2
 40
0.0
  9
$USERR3
 40
0.0
  9
$USERR4
 40
0.0
  9
$USERR5
 40
0.0
  9
$WORLDVIEW
 70
     1
  9
$SHADEDGE
 70
     3
  9
$SHADEDIF
 70
    70
  9
$TILEMODE
 70
     1
  9
$MAXACTVP
 70
    16
  9
$PINSBASE
 10
214.090173102852
 20
50.00000000000001
 30
234.8760879654383
  9
$PLIMCHECK
 70
     0
  9
$PEXTMIN
 10
1.000000000000000E+20
 20
1.000000000000000E+20
 30
1.000000000000000E+20
  9
$PEXTMAX
 10
-1.000000000000000E+20
 20
-1.000000000000000E+20
 30
-1.000000000000000E+20
  9
$PLIMMIN
 10
0.0
 20
0.0
  9
$PLIMMAX
 10
12.0
 20
9.0
  9
$UNITMODE
 70
     0
  9
$VISRETAIN
 70
     0
  9
$PLINEGEN
 70
     0
  9
$PSLTSCALE
 70
     0
  9
$TREEDEPTH
 70
  3020
  9
$CMLSTYLE
  2
Standard
  9
$CMLJUST
 70
     0
  9
$CMLSCALE
 40
1.0
  9
$PROXYGRAPHICS
 70
     1
  9
$MEASUREMENT
 70
     0
  9
$CELWEIGHT
370
    -1
  9
$ENDCAPS
280
     0
  9
$JOINSTYLE
280
     0
  9
$LWDISPLAY
290
     0
  9
$INSUNITS
 70
     0
  9
$HYPERLINKBASE
  1

  9
$STYLESHEET
  1
monochrome 1.ctb
  9
$XEDIT
290
     1
  9
$CEPSNTYPE
380
     0
  9
$PSTYLEMODE
290
     1
  9
$FINGERPRINTGUID
  2
{3A717466-BB06-47D6-9F73-C620576A7B14}
  9
$VERSIONGUID
  2
{8B192C26-796C-478B-BB62-914AFA8FDD1D}
  9
$EXTNAMES
290
     1
  9
$PSVPSCALE
 40
0.0
  9
$OLESTARTUP
290
     0
  9
$SORTENTS
280
   127
  9
$INDEXCTL
280
     0
  9
$HIDETEXT
280
     1
  9
$XCLIPFRAME
290
     0
  9
$HALOGAP
280
     0
  9
$OBSCOLOR
 70
   257
  9
$OBSLTYPE
280
     0
  9
$INTERSECTIONDISPLAY
280
     0
  9
$INTERSECTIONCOLOR
 70
   257
  9
$DIMASSOC
280
     2
  9
$PROJECTNAME
  1

  0
ENDSEC
  0
SECTION
  2
CLASSES
  0
CLASS
  1
ACDBDICTIONARYWDFLT
  2
AcDbDictionaryWithDefault
  3
ObjectDBX Classes
 90
        0
 91
        1
280
     0
281
     0
  0
CLASS
  1
DICTIONARYVAR
  2
AcDbDictionaryVar
  3
ObjectDBX Classes
 90
        0
 91
        3
280
     0
281
     0
  0
ENDSEC
  0
SECTION
  2
TABLES
  0
TABLE
  2
VPORT
  5
8
330
0
100
AcDbSymbolTable
 70
     3
  0
VPORT
  5
523
330
8
100
AcDbSymbolTableRecord
100
AcDbViewportTableRecord
  2
*Active
 70
     0
 10
0.0
 20
0.0
 11
1.0
 21
1.0
 12
524.9999999999998
 22
742.4999999999999
 13
0.0
 23
0.0
 14
1.0
 24
1.0
 15
10.0
 25
10.0
 16
0.0
 26
0.0
 36
1.0
 17
0.0
 27
0.0
 37
0.0
 40
1485.0
 41
1.334231805929919
 42
50.0
 43
0.0
 44
0.0
 50
0.0
 51
0.0
 71
     0
 72
  1500
 73
     1
 74
     0
 75
     0
 76
     0
 77
     0
 78
     0
281
     0
 65
     1
110
0.0
120
0.0
130
0.0
111
1.0
121
0.0
131
0.0
112
0.0
122
1.0
132
0.0
 79
     0
146
0.0
  0
ENDTAB
  0
TABLE
  2
LTYPE
  5
5
330
0
100
AcDbSymbolTable
 70
     2
  0
LTYPE
  5
13
330
5
100
AcDbSymbolTableRecord
100
AcDbLinetypeTableRecord
  2
ByBlock
 70
     0
  3

 72
    65
 73
     0
 40
0.0
  0
LTYPE
  5
14
330
5
100
AcDbSymbolTableRecord
100
AcDbLinetypeTableRecord
  2
ByLayer
 70
     0
  3

 72
    65
 73
     0
 40
0.0
  0
LTYPE
  5
15
330
5
100
AcDbSymbolTableRecord
100
AcDbLinetypeTableRecord
  2
Continuous
 70
     0
  3
Solid line
 72
    65
 73
     0
 40
0.0
  0
LTYPE
  5
4C
330
5
100
AcDbSymbolTableRecord
100
AcDbLinetypeTableRecord
  2
STRICHPUNKT
 70
     0
  3
__ . __ . __ . __ . __ . __ . __ . __ . __ . __
 72
    65
 73
     4
 40
1.0
 49
0.5
 74
     0
 49
-0.25
 74
     0
 49
0.0
 74
     0
 49
-0.25
 74
     0
  0
ENDTAB
  0
TABLE
  2
LAYER
  5
2
330
0
100
AcDbSymbolTable
 70
     9
  0
LAYER
  5
10
330
2
100
AcDbSymbolTableRecord
100
AcDbLayerTableRecord
  2
0
 70
     0
 62
     7
  6
Continuous
370
    -3
390
F
  0
LAYER
  5
4F
330
2
100
AcDbSymbolTableRecord
100
AcDbLayerTableRecord
  2
VOLL
 70
     0
 62
     1
  6
Continuous
370
    -3
390
F
  0
LAYER
  5
50
330
2
100
AcDbSymbolTableRecord
100
AcDbLayerTableRecord
  2
HILF
 70
     0
 62
     2
  6
Continuous
370
    -3
390
F
  0
LAYER
  5
51
330
2
100
AcDbSymbolTableRecord
100
AcDbLayerTableRecord
  2
MITTEL
 70
     0
 62
     2
  6
STRICHPUNKT
370
    -3
390
F
  0
LAYER
  5
52
330
2
100
AcDbSymbolTableRecord
100
AcDbLayerTableRecord
  2
BEM
 70
     0
 62
     7
  6
Continuous
370
    -3
390
F
  0
LAYER
  5
53
330
2
100
AcDbSymbolTableRecord
100
AcDbLayerTableRecord
  2
STEMPEL
 70
     0
 62
     3
  6
Continuous
370
    -3
390
F
  0
LAYER
  5
54
330
2
100
AcDbSymbolTableRecord
100
AcDbLayerTableRecord
  2
TEXT
 70
     0
 62
     7
  6
Continuous
370
    -3
390
F
  0
LAYER
  5
55
330
2
100
AcDbSymbolTableRecord
100
AcDbLayerTableRecord
  2
DEFPOINTS
 70
     0
 62
     7
  6
Continuous
290
     0
370
    -3
390
F
  0
LAYER
  5
56
330
2
100
AcDbSymbolTableRecord
100
AcDbLayerTableRecord
  2
SCHRAFF
 70
     0
 62
     7
  6
Continuous
370
    -3
390
F
  0
ENDTAB
  0
TABLE
  2
STYLE
  5
3
330
0
100
AcDbSymbolTable
 70
     2
  0
STYLE
  5
11
330
3
100
AcDbSymbolTableRecord
100
AcDbTextStyleTableRecord
  2
STANDARD
 70
     0
 40
0.0
 41
1.0
 50
0.0
 71
     0
 42
3.5
  3
txt
  4

  0
STYLE
  5
4B
330
3
100
AcDbSymbolTableRecord
100
AcDbTextStyleTableRecord
  2
GREEKS
 70
     0
 40
0.0
 41
0.8
 50
0.0
 71
     0
 42
2.5
  3
SIMPLEX.shx
  4

  0
ENDTAB
  0
TABLE
  2
VIEW
  5
6
330
0
100
AcDbSymbolTable
 70
     0
  0
ENDTAB
  0
TABLE
  2
UCS
  5
7
330
0
100
AcDbSymbolTable
 70
     0
  0
ENDTAB
  0
TABLE
  2
APPID
  5
9
330
0
100
AcDbSymbolTable
 70
     1
  0
APPID
  5
12
330
9
100
AcDbSymbolTableRecord
100
AcDbRegAppTableRecord
  2
ACAD
 70
     0
  0
ENDTAB
  0
TABLE
  2
DIMSTYLE
  5
A
330
0
100
AcDbSymbolTable
 70
     1
100
AcDbDimStyleTable
 71
     1
340
395
  0
DIMSTYLE
105
395
102
{ACAD_REACTORS
330
392
330
38E
330
317
330
319
102
}
330
A
100
AcDbSymbolTableRecord
100
AcDbDimStyleTableRecord
  2
Standard
 70
     0
340
11
  0
ENDTAB
  0
TABLE
  2
BLOCK_RECORD
  5
1
330
0
100
AcDbSymbolTable
 70
    24
  0
BLOCK_RECORD
  5
20
330
1
100
AcDbSymbolTableRecord
100
AcDbBlockTableRecord
  2
*Model_Space
340
23
  0
BLOCK_RECORD
  5
1C
330
1
100
AcDbSymbolTableRecord
100
AcDbBlockTableRecord
  2
*Paper_Space
340
1F
  0
BLOCK_RECORD
  5
24
330
1
100
AcDbSymbolTableRecord
100
AcDbBlockTableRecord
  2
LOGO
340
0
102
{BLKREFS
331
2CB
102
}
  0
BLOCK_RECORD
  5
37
330
1
100
AcDbSymbolTableRecord
100
AcDbBlockTableRecord
  2
*X6
340
0
102
{BLKREFS
331
371
102
}
  0
BLOCK_RECORD
  5
38
330
1
100
AcDbSymbolTableRecord
100
AcDbBlockTableRecord
  2
*X7
340
0
102
{BLKREFS
331
37C
102
}
  0
BLOCK_RECORD
  5
39
330
1
100
AcDbSymbolTableRecord
100
AcDbBlockTableRecord
  2
*X8
340
0
102
{BLKREFS
331
37E
331
37F
102
}
  0
BLOCK_RECORD
  5
3CC
330
1
100
AcDbSymbolTableRecord
100
AcDbBlockTableRecord
  2
*D12
340
0
  0
BLOCK_RECORD
  5
420
330
1
100
AcDbSymbolTableRecord
100
AcDbBlockTableRecord
  2
*D19
340
0
  0
BLOCK_RECORD
  5
4B8
330
1
100
AcDbSymbolTableRecord
100
AcDbBlockTableRecord
  2
*D22
340
0
  0
BLOCK_RECORD
  5
4E9
330
1
100
AcDbSymbolTableRecord
100
AcDbBlockTableRecord
  2
*D23
340
0
  0
ENDTAB
  0
ENDSEC
  0
SECTION
  2
BLOCKS
  0
BLOCK
  5
5A
330
20
100
AcDbEntity
  8
0
100
AcDbBlockBegin
  2
*Model_Space
 70
     0
 10
0.0
 20
0.0
 30
0.0
  3
*Model_Space
  1

  0
ENDBLK
  5
5B
330
20
100
AcDbEntity
  8
0
100
AcDbBlockEnd
  0
BLOCK
  5
58
330
1C
100
AcDbEntity
 67
     1
  8
0
100
AcDbBlockBegin
  2
*Paper_Space
 70
     0
 10
0.0
 20
0.0
 30
0.0
  3
*Paper_Space
  1

  0
ENDBLK
  5
59
330
1C
100
AcDbEntity
 67
     1
  8
0
100
AcDbBlockEnd
  0
BLOCK
  5
5C
330
24
100
AcDbEntity
  8
0
100
AcDbBlockBegin
  2
LOGO
 70
     0
 10
0.0
 20
0.0
 30
0.0
  3
LOGO
  1

  0
ARC
  5
5D
330
24
100
AcDbEntity
  8
0
100
AcDbCircle
 10
11.59973089678112
 20
-9.271599258481501
 30
0.0
 40
4.5
100
AcDbArc
 50
270.0
 51
231.0575587310159
  0
LINE
  5
5E
330
24
100
AcDbEntity
  8
0
100
AcDbLine
 10
3.599730896781125
 20
-4.771599258481529
 30
0.0
 11
3.599730896781153
 21
-11.77159925848133
 31
0.0
  0
LINE
  5
5F
330
24
100
AcDbEntity
  8
0
100
AcDbLine
 10
2.599730896781125
 20
-4.771599258481529
 30
0.0
 11
2.599730896781153
 21
-11.77159925848133
 31
0.0
  0
CIRCLE
  5
60
330
24
100
AcDbEntity
  8
0
100
AcDbCircle
 10
11.59973089678112
 20
-9.271599258481501
 30
0.0
 40
3.5
  0
ARC
  5
61
330
24
100
AcDbEntity
  8
0
100
AcDbCircle
 10
31.59973089678115
 20
-9.271599258481472
 30
0.0
 40
4.5
100
AcDbArc
 50
270.0
 51
231.0575587310182
  0
LINE
  5
62
330
24
100
AcDbEntity
  8
0
100
AcDbLine
 10
17.59973089678112
 20
-4.771599258481472
 30
0.0
 11
17.59973089678115
 21
-13.77159925848147
 31
0.0
  0
ARC
  5
63
330
24
100
AcDbEntity
  8
0
100
AcDbCircle
 10
22.59973089678116
 20
-7.271599258481472
 30
0.0
 40
2.5
100
AcDbArc
 50
293.1161887722295
 51
90.0
  0
CIRCLE
  5
64
330
24
100
AcDbEntity
  8
0
100
AcDbCircle
 10
31.59973089678115
 20
-9.271599258481472
 30
0.0
 40
3.5
  0
ARC
  5
65
330
24
100
AcDbEntity
  8
0
100
AcDbCircle
 10
4.599730896781153
 20
-11.77159925848133
 30
0.0
 40
1.0
100
AcDbArc
 50
180.0
 51
270.0
  0
ARC
  5
66
330
24
100
AcDbEntity
  8
0
100
AcDbCircle
 10
4.599730896781153
 20
-11.77159925848133
 30
0.0
 40
2.0
100
AcDbArc
 50
179.9999999999992
 51
270.0
  0
LINE
  5
67
330
24
100
AcDbEntity
  8
0
100
AcDbLine
 10
11.59973089678115
 20
-13.77159925848144
 30
0.0
 11
4.599730896781153
 21
-13.77159925848147
 31
0.0
  0
LINE
  5
68
330
24
100
AcDbEntity
  8
0
100
AcDbLine
 10
8.771303772034769
 20
-12.77159925848136
 30
0.0
 11
4.599730896781153
 21
-12.77159925848133
 31
0.0
  0
LINE
  5
69
330
24
100
AcDbEntity
  8
0
100
AcDbLine
 10
31.59973089678115
 20
-13.77159925848147
 30
0.0
 11
23.6715276665056
 21
-13.77159925848144
 31
0.0
  0
LINE
  5
6A
330
24
100
AcDbEntity
  8
0
100
AcDbLine
 10
23.56565672307022
 20
-9.51278021337896
 30
0.0
 11
24.4388546544846
 21
-12.77159925848144
 31
0.0
  0
LINE
  5
6B
330
24
100
AcDbEntity
  8
0
100
AcDbLine
 10
22.59973089678116
 20
-9.771599258481472
 30
0.0
 11
18.59973089678112
 21
-9.771599258481472
 31
0.0
  0
LINE
  5
6C
330
24
100
AcDbEntity
  8
0
100
AcDbLine
 10
18.59973089678115
 20
-13.77159925848144
 30
0.0
 11
17.59973089678115
 21
-13.77159925848144
 31
0.0
  0
LINE
  5
6D
330
24
100
AcDbEntity
  8
0
100
AcDbLine
 10
18.59973089678115
 20
-9.771599258481472
 30
0.0
 11
18.59973089678115
 21
-13.77159925848144
 31
0.0
  0
LINE
  5
6E
330
24
100
AcDbEntity
  8
0
100
AcDbLine
 10
22.59973089678116
 20
-9.771599258481472
 30
0.0
 11
23.67152766650562
 21
-13.77159925848147
 31
0.0
  0
ARC
  5
6F
330
24
100
AcDbEntity
  8
0
100
AcDbCircle
 10
22.59973089678116
 20
-7.271599258481472
 30
0.0
 40
2.5
100
AcDbArc
 50
270.0
 51
270.0000000000007
  0
LINE
  5
70
330
24
100
AcDbEntity
  8
0
100
AcDbLine
 10
28.77130377203494
 20
-12.77159925848147
 30
0.0
 11
24.43885465448463
 21
-12.77159925848144
 31
0.0
  0
LINE
  5
71
330
24
100
AcDbEntity
  8
0
100
AcDbLine
 10
3.599730896781125
 20
-4.771599258481472
 30
0.0
 11
2.599730896781125
 21
-4.771599258481472
 31
0.0
  0
LINE
  5
72
330
24
100
AcDbEntity
  8
0
100
AcDbLine
 10
22.59973089678116
 20
-8.771599258481472
 30
0.0
 11
18.59973089678115
 21
-8.771599258481472
 31
0.0
  0
LINE
  5
73
330
24
100
AcDbEntity
  8
0
100
AcDbLine
 10
22.59973089678116
 20
-5.771599258481472
 30
0.0
 11
18.59973089678115
 21
-5.771599258481472
 31
0.0
  0
LINE
  5
74
330
24
100
AcDbEntity
  8
0
100
AcDbLine
 10
22.59973089678116
 20
-4.771599258481472
 30
0.0
 11
17.59973089678115
 21
-4.771599258481472
 31
0.0
  0
LINE
  5
75
330
24
100
AcDbEntity
  8
0
100
AcDbLine
 10
18.59973089678115
 20
-5.771599258481472
 30
0.0
 11
18.59973089678115
 21
-8.771599258481472
 31
0.0
  0
ARC
  5
76
330
24
100
AcDbEntity
  8
0
100
AcDbCircle
 10
22.59973089678116
 20
-7.271599258481472
 30
0.0
 40
1.5
100
AcDbArc
 50
270.0
 51
90.0
  0
ENDBLK
  5
77
330
24
100
AcDbEntity
  8
0
100
AcDbBlockEnd
  0
BLOCK
  5
120
330
37
100
AcDbEntity
  8
0
100
AcDbBlockBegin
  2
*X6
 70
     1
 10
0.0
 20
0.0
 30
0.0
  3
*X6
  1

  0
LINE
  5
121
330
37
100
AcDbEntity
  8
0
 62
     0
100
AcDbLine
 10
425.1661831042103
 20
951.3000000000001
 30
0.0
 11
427.2335393312257
 21
951.3000000000001
 31
0.0
  0
LINE
  5
122
330
37
100
AcDbEntity
  8
0
 62
     0
100
AcDbLine
 10
727.2604416052858
 20
951.3000000000001
 30
0.0
 11
729.3277978322881
 21
951.3000000000001
 31
0.0
  0
LINE
  5
123
330
37
100
AcDbEntity
  8
0
 62
     0
100
AcDbLine
 10
425.1826235161749
 20
951.4000000000001
 30
0.0
 11
427.2834409183199
 21
951.4000000000001
 31
0.0
  0
LINE
  5
124
330
37
100
AcDbEntity
  8
0
 62
     0
100
AcDbLine
 10
727.2105400181916
 20
951.4000000000001
 30
0.0
 11
729.3113574203233
 21
951.4000000000001
 31
0.0
  0
LINE
  5
125
330
37
100
AcDbEntity
  8
0
 62
     0
100
AcDbLine
 10
425.2020004820556
 20
951.5
 30
0.0
 11
427.3393232712611
 21
951.5
 31
0.0
  0
LINE
  5
126
330
37
100
AcDbEntity
  8
0
 62
     0
100
AcDbLine
 10
727.1546576652505
 20
951.5
 30
0.0
 11
729.2919804544425
 21
951.5
 31
0.0
  0
LINE
  5
127
330
37
100
AcDbEntity
  8
0
 62
     0
100
AcDbLine
 10
425.2243631454225
 20
951.6
 30
0.0
 11
427.3952056242023
 21
951.6
 31
0.0
  0
LINE
  5
128
330
37
100
AcDbEntity
  8
0
 62
     0
100
AcDbLine
 10
727.0987753123094
 20
951.6
 30
0.0
 11
729.2696177910755
 21
951.6
 31
0.0
  0
LINE
  5
129
330
37
100
AcDbEntity
  8
0
 62
     0
100
AcDbLine
 10
425.2497695960775
 20
951.7000000000001
 30
0.0
 11
427.4510879771434
 21
951.7000000000001
 31
0.0
  0
LINE
  5
12A
330
37
100
AcDbEntity
  8
0
 62
     0
100
AcDbLine
 10
727.0428929593681
 20
951.7000000000001
 30
0.0
 11
729.2442113404204
 21
951.7000000000001
 31
0.0
  0
LINE
  5
12B
330
37
100
AcDbEntity
  8
0
 62
     0
100
AcDbLine
 10
425.2782876754507
 20
951.8
 30
0.0
 11
427.5069703300847
 21
951.8
 31
0.0
  0
LINE
  5
12C
330
37
100
AcDbEntity
  8
0
 62
     0
100
AcDbLine
 10
726.987010606427
 20
951.8
 30
0.0
 11
729.2156932610472
 21
951.8
 31
0.0
  0
LINE
  5
12D
330
37
100
AcDbEntity
  8
0
 62
     0
100
AcDbLine
 10
425.3099959595124
 20
951.9000000000001
 30
0.0
 11
427.5628526830258
 21
951.9000000000001
 31
0.0
  0
LINE
  5
12E
330
37
100
AcDbEntity
  8
0
 62
     0
100
AcDbLine
 10
726.9311282534857
 20
951.9000000000001
 30
0.0
 11
729.1839849769852
 21
951.9000000000001
 31
0.0
  0
LINE
  5
12F
330
37
100
AcDbEntity
  8
0
 62
     0
100
AcDbLine
 10
425.3449849549548
 20
952.0
 30
0.0
 11
427.618735035967
 21
952.0
 31
0.0
  0
LINE
  5
130
330
37
100
AcDbEntity
  8
0
 62
     0
100
AcDbLine
 10
726.8752459005447
 20
952.0
 30
0.0
 11
729.1489959815428
 21
952.0
 31
0.0
  0
LINE
  5
131
330
37
100
AcDbEntity
  8
0
 62
     0
100
AcDbLine
 10
425.3833585549507
 20
952.1
 30
0.0
 11
427.6746173889081
 21
952.1
 31
0.0
  0
LINE
  5
132
330
37
100
AcDbEntity
  8
0
 62
     0
100
AcDbLine
 10
726.8193635476034
 20
952.1
 30
0.0
 11
729.1106223815467
 21
952.1
 31
0.0
  0
LINE
  5
133
330
37
100
AcDbEntity
  8
0
 62
     0
100
AcDbLine
 10
425.4252358148359
 20
952.2
 30
0.0
 11
427.7304997418493
 21
952.2
 31
0.0
  0
LINE
  5
134
330
37
100
AcDbEntity
  8
0
 62
     0
100
AcDbLine
 10
726.7634811946622
 20
952.2
 30
0.0
 11
729.0687451216614
 21
952.2
 31
0.0
  0
LINE
  5
135
330
37
100
AcDbEntity
  8
0
 62
     0
100
AcDbLine
 10
425.470753126946
 20
952.3000000000001
 30
0.0
 11
427.7863820947906
 21
952.3000000000001
 31
0.0
  0
LINE
  5
136
330
37
100
AcDbEntity
  8
0
 62
     0
100
AcDbLine
 10
726.707598841721
 20
952.3000000000001
 30
0.0
 11
729.023227809551
 21
952.3000000000001
 31
0.0
  0
LINE
  5
137
330
37
100
AcDbEntity
  8
0
 62
     0
100
AcDbLine
 10
425.5200668996812
 20
952.4
 30
0.0
 11
427.8422644477317
 21
952.4
 31
0.0
  0
LINE
  5
138
330
37
100
AcDbEntity
  8
0
 62
     0
100
AcDbLine
 10
726.6517164887799
 20
952.4
 30
0.0
 11
728.9739140368157
 21
952.4
 31
0.0
  0
LINE
  5
139
330
37
100
AcDbEntity
  8
0
 62
     0
100
AcDbLine
 10
425.5733568817072
 20
952.5
 30
0.0
 11
427.8981468006728
 21
952.5
 31
0.0
  0
LINE
  5
13A
330
37
100
AcDbEntity
  8
0
 62
     0
100
AcDbLine
 10
726.5958341358388
 20
952.5
 30
0.0
 11
728.9206240547892
 21
952.5
 31
0.0
  0
LINE
  5
13B
330
37
100
AcDbEntity
  8
0
 62
     0
100
AcDbLine
 10
425.6308303227601
 20
952.5999999999999
 30
0.0
 11
427.954029153614
 21
952.5999999999999
 31
0.0
  0
LINE
  5
13C
330
37
100
AcDbEntity
  8
0
 62
     0
100
AcDbLine
 10
726.5399517828975
 20
952.5999999999999
 30
0.0
 11
728.8631506137361
 21
952.5999999999999
 31
0.0
  0
LINE
  5
13D
330
37
100
AcDbEntity
  8
0
 62
     0
100
AcDbLine
 10
425.6927272350558
 20
952.7000000000001
 30
0.0
 11
428.0099115065552
 21
952.7000000000001
 31
0.0
  0
LINE
  5
13E
330
37
100
AcDbEntity
  8
0
 62
     0
100
AcDbLine
 10
726.4840694299564
 20
952.7000000000001
 30
0.0
 11
728.8012537014401
 21
952.7000000000001
 31
0.0
  0
LINE
  5
13F
330
37
100
AcDbEntity
  8
0
 62
     0
100
AcDbLine
 10
425.7593271254089
 20
952.8
 30
0.0
 11
428.0657938594964
 21
952.8
 31
0.0
  0
LINE
  5
140
330
37
100
AcDbEntity
  8
0
 62
     0
100
AcDbLine
 10
726.4281870770152
 20
952.8
 30
0.0
 11
728.7346538110868
 21
952.8
 31
0.0
  0
LINE
  5
141
330
37
100
AcDbEntity
  8
0
 62
     0
100
AcDbLine
 10
425.8309577266315
 20
952.9000000000001
 30
0.0
 11
428.1216762124375
 21
952.9000000000001
 31
0.0
  0
LINE
  5
142
330
37
100
AcDbEntity
  8
0
 62
     0
100
AcDbLine
 10
726.3723047240739
 20
952.9000000000001
 30
0.0
 11
728.6630232098637
 21
952.9000000000001
 31
0.0
  0
LINE
  5
143
330
37
100
AcDbEntity
  8
0
 62
     0
100
AcDbLine
 10
425.9080064990947
 20
953.0
 30
0.0
 11
428.1775585653787
 21
953.0
 31
0.0
  0
LINE
  5
144
330
37
100
AcDbEntity
  8
0
 62
     0
100
AcDbLine
 10
726.3164223711328
 20
953.0
 30
0.0
 11
728.5859744374
 21
953.0
 31
0.0
  0
LINE
  5
145
330
37
100
AcDbEntity
  8
0
 62
     0
100
AcDbLine
 10
425.9909360536994
 20
953.1
 30
0.0
 11
428.2334409183199
 21
953.1
 31
0.0
  0
LINE
  5
146
330
37
100
AcDbEntity
  8
0
 62
     0
100
AcDbLine
 10
726.2605400181917
 20
953.1
 30
0.0
 11
728.5030448827948
 21
953.1
 31
0.0
  0
LINE
  5
147
330
37
100
AcDbEntity
  8
0
 62
     0
100
AcDbLine
 10
426.080305262637
 20
953.2
 30
0.0
 11
428.2893232712611
 21
953.2
 31
0.0
  0
LINE
  5
148
330
37
100
AcDbEntity
  8
0
 62
     0
100
AcDbLine
 10
726.2046576652505
 20
953.2
 30
0.0
 11
728.4136756738567
 21
953.2
 31
0.0
  0
LINE
  5
149
330
37
100
AcDbEntity
  8
0
 62
     0
100
AcDbLine
 10
426.1767988536178
 20
953.3000000000001
 30
0.0
 11
428.3452056242023
 21
953.3000000000001
 31
0.0
  0
LINE
  5
14A
330
37
100
AcDbEntity
  8
0
 62
     0
100
AcDbLine
 10
726.1487753123093
 20
953.3000000000001
 30
0.0
 11
728.3171820828751
 21
953.3000000000001
 31
0.0
  0
LINE
  5
14B
330
37
100
AcDbEntity
  8
0
 62
     0
100
AcDbLine
 10
426.2812700747558
 20
953.4
 30
0.0
 11
428.4010879771435
 21
953.4
 31
0.0
  0
LINE
  5
14C
330
37
100
AcDbEntity
  8
0
 62
     0
100
AcDbLine
 10
726.092892959368
 20
953.4
 30
0.0
 11
728.2127108617364
 21
953.4
 31
0.0
  0
LINE
  5
14D
330
37
100
AcDbEntity
  8
0
 62
     0
100
AcDbLine
 10
426.3948042827845
 20
953.5
 30
0.0
 11
428.4569703300846
 21
953.5
 31
0.0
  0
LINE
  5
14E
330
37
100
AcDbEntity
  8
0
 62
     0
100
AcDbLine
 10
726.037010606427
 20
953.5
 30
0.0
 11
728.0991766537067
 21
953.5
 31
0.0
  0
LINE
  5
14F
330
37
100
AcDbEntity
  8
0
 62
     0
100
AcDbLine
 10
426.5188175952301
 20
953.5999999999999
 30
0.0
 11
428.5128526830257
 21
953.5999999999999
 31
0.0
  0
LINE
  5
150
330
37
100
AcDbEntity
  8
0
 62
     0
100
AcDbLine
 10
725.9811282534858
 20
953.5999999999999
 30
0.0
 11
727.9751633412599
 21
953.5999999999999
 31
0.0
  0
LINE
  5
151
330
37
100
AcDbEntity
  8
0
 62
     0
100
AcDbLine
 10
426.655217687608
 20
953.7
 30
0.0
 11
428.568735035967
 21
953.7
 31
0.0
  0
LINE
  5
152
330
37
100
AcDbEntity
  8
0
 62
     0
100
AcDbLine
 10
725.9252459005446
 20
953.7
 30
0.0
 11
727.8387632488807
 21
953.7
 31
0.0
  0
LINE
  5
153
330
37
100
AcDbEntity
  8
0
 62
     0
100
AcDbLine
 10
426.8066827378198
 20
953.8
 30
0.0
 11
428.6246173889082
 21
953.8
 31
0.0
  0
LINE
  5
154
330
37
100
AcDbEntity
  8
0
 62
     0
100
AcDbLine
 10
725.8693635476033
 20
953.8
 30
0.0
 11
727.6872981986671
 21
953.8
 31
0.0
  0
LINE
  5
155
330
37
100
AcDbEntity
  8
0
 62
     0
100
AcDbLine
 10
426.9771863549574
 20
953.9000000000001
 30
0.0
 11
428.6804997418493
 21
953.9000000000001
 31
0.0
  0
LINE
  5
156
330
37
100
AcDbEntity
  8
0
 62
     0
100
AcDbLine
 10
725.8134811946622
 20
953.9000000000001
 30
0.0
 11
727.516794581527
 21
953.9000000000001
 31
0.0
  0
LINE
  5
157
330
37
100
AcDbEntity
  8
0
 62
     0
100
AcDbLine
 10
427.1731018118601
 20
954.0
 30
0.0
 11
428.7363820947905
 21
954.0
 31
0.0
  0
LINE
  5
158
330
37
100
AcDbEntity
  8
0
 62
     0
100
AcDbLine
 10
725.7575988417211
 20
954.0
 30
0.0
 11
727.3208791246207
 21
954.0
 31
0.0
  0
LINE
  5
159
330
37
100
AcDbEntity
  8
0
 62
     0
100
AcDbLine
 10
427.405938102914
 20
954.1
 30
0.0
 11
428.7922644477316
 21
954.1
 31
0.0
  0
LINE
  5
15A
330
37
100
AcDbEntity
  8
0
 62
     0
100
AcDbLine
 10
725.7017164887798
 20
954.1
 30
0.0
 11
727.0880428335614
 21
954.1
 31
0.0
  0
LINE
  5
15B
330
37
100
AcDbEntity
  8
0
 62
     0
100
AcDbLine
 10
427.7012431416869
 20
954.1999999999999
 30
0.0
 11
428.8481468006728
 21
954.1999999999999
 31
0.0
  0
LINE
  5
15C
330
37
100
AcDbEntity
  8
0
 62
     0
100
AcDbLine
 10
725.6458341358388
 20
954.1999999999999
 30
0.0
 11
726.7927377947778
 21
954.1999999999999
 31
0.0
  0
LINE
  5
15D
330
37
100
AcDbEntity
  8
0
 62
     0
100
AcDbLine
 10
428.1524712406461
 20
954.3000000000001
 30
0.0
 11
428.904029153614
 21
954.3000000000001
 31
0.0
  0
LINE
  5
15E
330
37
100
AcDbEntity
  8
0
 62
     0
100
AcDbLine
 10
725.5899517828975
 20
954.3000000000001
 30
0.0
 11
726.34150969578
 21
954.3000000000001
 31
0.0
  0
LINE
  5
15F
330
37
100
AcDbEntity
  8
0
 62
     0
100
AcDbLine
 10
425.152638393262
 20
951.2
 30
0.0
 11
427.1948564913759
 21
951.2
 31
0.0
  0
LINE
  5
160
330
37
100
AcDbEntity
  8
0
 62
     0
100
AcDbLine
 10
727.2991244451356
 20
951.2
 30
0.0
 11
729.3413425432363
 21
951.2
 31
0.0
  0
LINE
  5
161
330
37
100
AcDbEntity
  8
0
 62
     0
100
AcDbLine
 10
425.1419562939516
 20
951.1000000000001
 30
0.0
 11
427.1561736515261
 21
951.1000000000001
 31
0.0
  0
LINE
  5
162
330
37
100
AcDbEntity
  8
0
 62
     0
100
AcDbLine
 10
727.3378072849854
 20
951.1000000000001
 30
0.0
 11
729.3520246425467
 21
951.1000000000001
 31
0.0
  0
LINE
  5
163
330
37
100
AcDbEntity
  8
0
 62
     0
100
AcDbLine
 10
425.1341110652055
 20
951.0
 30
0.0
 11
427.1174908116762
 21
951.0
 31
0.0
  0
LINE
  5
164
330
37
100
AcDbEntity
  8
0
 62
     0
100
AcDbLine
 10
727.3764901248353
 20
951.0
 30
0.0
 11
729.3598698712928
 21
951.0
 31
0.0
  0
LINE
  5
165
330
37
100
AcDbEntity
  8
0
 62
     0
100
AcDbLine
 10
425.1290839984736
 20
950.9
 30
0.0
 11
427.0788079718264
 21
950.9
 31
0.0
  0
LINE
  5
166
330
37
100
AcDbEntity
  8
0
 62
     0
100
AcDbLine
 10
727.4151729646851
 20
950.9
 30
0.0
 11
729.3648969380248
 21
950.9
 31
0.0
  0
LINE
  5
167
330
37
100
AcDbEntity
  8
0
 62
     0
100
AcDbLine
 10
425.1268631921648
 20
950.8
 30
0.0
 11
427.0401251319766
 21
950.8
 31
0.0
  0
LINE
  5
168
330
37
100
AcDbEntity
  8
0
 62
     0
100
AcDbLine
 10
727.4538558045349
 20
950.8
 30
0.0
 11
729.3671177443335
 21
950.8
 31
0.0
  0
LINE
  5
169
330
37
100
AcDbEntity
  8
0
 62
     0
100
AcDbLine
 10
425.127443409874
 20
950.7000000000001
 30
0.0
 11
427.0014422921268
 21
950.7000000000001
 31
0.0
  0
LINE
  5
16A
330
37
100
AcDbEntity
  8
0
 62
     0
100
AcDbLine
 10
727.4925386443847
 20
950.7000000000001
 30
0.0
 11
729.3665375266244
 21
950.7000000000001
 31
0.0
  0
LINE
  5
16B
330
37
100
AcDbEntity
  8
0
 62
     0
100
AcDbLine
 10
425.1308260184283
 20
950.6
 30
0.0
 11
426.962759452277
 21
950.6
 31
0.0
  0
LINE
  5
16C
330
37
100
AcDbEntity
  8
0
 62
     0
100
AcDbLine
 10
727.5312214842345
 20
950.6
 30
0.0
 11
729.3631549180701
 21
950.6
 31
0.0
  0
LINE
  5
16D
330
37
100
AcDbEntity
  8
0
 62
     0
100
AcDbLine
 10
425.137019004034
 20
950.5
 30
0.0
 11
426.9240766124271
 21
950.5
 31
0.0
  0
LINE
  5
16E
330
37
100
AcDbEntity
  8
0
 62
     0
100
AcDbLine
 10
727.5699043240843
 20
950.5
 30
0.0
 11
729.3569619324642
 21
950.5
 31
0.0
  0
LINE
  5
16F
330
37
100
AcDbEntity
  8
0
 62
     0
100
AcDbLine
 10
425.1460370669698
 20
950.4000000000001
 30
0.0
 11
426.8853937725774
 21
950.4000000000001
 31
0.0
  0
LINE
  5
170
330
37
100
AcDbEntity
  8
0
 62
     0
100
AcDbLine
 10
727.6085871639341
 20
950.4000000000001
 30
0.0
 11
729.3479438695285
 21
950.4000000000001
 31
0.0
  0
LINE
  5
171
330
37
100
AcDbEntity
  8
0
 62
     0
100
AcDbLine
 10
425.1579017974637
 20
950.3
 30
0.0
 11
426.8467109327275
 21
950.3
 31
0.0
  0
LINE
  5
172
330
37
100
AcDbEntity
  8
0
 62
     0
100
AcDbLine
 10
727.647270003784
 20
950.3
 30
0.0
 11
729.3360791390345
 21
950.3
 31
0.0
  0
LINE
  5
173
330
37
100
AcDbEntity
  8
0
 62
     0
100
AcDbLine
 10
425.1726419377103
 20
950.2
 30
0.0
 11
426.8080280928777
 21
950.2
 31
0.0
  0
LINE
  5
174
330
37
100
AcDbEntity
  8
0
 62
     0
100
AcDbLine
 10
727.6859528436338
 20
950.2
 30
0.0
 11
729.3213389987879
 21
950.2
 31
0.0
  0
LINE
  5
175
330
37
100
AcDbEntity
  8
0
 62
     0
100
AcDbLine
 10
425.1902937375618
 20
950.1000000000001
 30
0.0
 11
426.7693452530279
 21
950.1000000000001
 31
0.0
  0
LINE
  5
176
330
37
100
AcDbEntity
  8
0
 62
     0
100
AcDbLine
 10
727.7246356834836
 20
950.1000000000001
 30
0.0
 11
729.3036871989365
 21
950.1000000000001
 31
0.0
  0
LINE
  5
177
330
37
100
AcDbEntity
  8
0
 62
     0
100
AcDbLine
 10
425.2109014143991
 20
950.0
 30
0.0
 11
426.730662413178
 21
950.0
 31
0.0
  0
LINE
  5
178
330
37
100
AcDbEntity
  8
0
 62
     0
100
AcDbLine
 10
727.7633185233334
 20
950.0
 30
0.0
 11
729.2830795220989
 21
950.0
 31
0.0
  0
LINE
  5
179
330
37
100
AcDbEntity
  8
0
 62
     0
100
AcDbLine
 10
425.2345177312339
 20
949.9
 30
0.0
 11
426.6919795733283
 21
949.9
 31
0.0
  0
LINE
  5
17A
330
37
100
AcDbEntity
  8
0
 62
     0
100
AcDbLine
 10
727.8020013631832
 20
949.9
 30
0.0
 11
729.2594632052641
 21
949.9
 31
0.0
  0
LINE
  5
17B
330
37
100
AcDbEntity
  8
0
 62
     0
100
AcDbLine
 10
425.2612047114334
 20
949.8000000000001
 30
0.0
 11
426.6532967334784
 21
949.8000000000001
 31
0.0
  0
LINE
  5
17C
330
37
100
AcDbEntity
  8
0
 62
     0
100
AcDbLine
 10
727.840684203033
 20
949.8000000000001
 30
0.0
 11
729.2327762250645
 21
949.8000000000001
 31
0.0
  0
LINE
  5
17D
330
37
100
AcDbEntity
  8
0
 62
     0
100
AcDbLine
 10
425.2910345139006
 20
949.6999999999999
 30
0.0
 11
426.6146138936286
 21
949.6999999999999
 31
0.0
  0
LINE
  5
17E
330
37
100
AcDbEntity
  8
0
 62
     0
100
AcDbLine
 10
727.8793670428829
 20
949.6999999999999
 30
0.0
 11
729.2029464225971
 21
949.6999999999999
 31
0.0
  0
LINE
  5
17F
330
37
100
AcDbEntity
  8
0
 62
     0
100
AcDbLine
 10
425.3240904994809
 20
949.6
 30
0.0
 11
426.5759310537787
 21
949.6
 31
0.0
  0
LINE
  5
180
330
37
100
AcDbEntity
  8
0
 62
     0
100
AcDbLine
 10
727.9180498827327
 20
949.6
 30
0.0
 11
729.1698904370167
 21
949.6
 31
0.0
  0
LINE
  5
181
330
37
100
AcDbEntity
  8
0
 62
     0
100
AcDbLine
 10
425.3604685283732
 20
949.5
 30
0.0
 11
426.5372482139289
 21
949.5
 31
0.0
  0
LINE
  5
182
330
37
100
AcDbEntity
  8
0
 62
     0
100
AcDbLine
 10
727.9567327225825
 20
949.5
 30
0.0
 11
729.1335124081244
 21
949.5
 31
0.0
  0
LINE
  5
183
330
37
100
AcDbEntity
  8
0
 62
     0
100
AcDbLine
 10
425.4002785401814
 20
949.4000000000001
 30
0.0
 11
426.4985653740792
 21
949.4000000000001
 31
0.0
  0
LINE
  5
184
330
37
100
AcDbEntity
  8
0
 62
     0
100
AcDbLine
 10
727.9954155624323
 20
949.4000000000001
 30
0.0
 11
729.0937023963159
 21
949.4000000000001
 31
0.0
  0
LINE
  5
185
330
37
100
AcDbEntity
  8
0
 62
     0
100
AcDbLine
 10
425.4436464840858
 20
949.3
 30
0.0
 11
426.4598825342293
 21
949.3
 31
0.0
  0
LINE
  5
186
330
37
100
AcDbEntity
  8
0
 62
     0
100
AcDbLine
 10
728.0340984022821
 20
949.3
 30
0.0
 11
729.0503344524113
 21
949.3
 31
0.0
  0
LINE
  5
187
330
37
100
AcDbEntity
  8
0
 62
     0
100
AcDbLine
 10
425.4907166880844
 20
949.2
 30
0.0
 11
426.4211996943795
 21
949.2
 31
0.0
  0
LINE
  5
188
330
37
100
AcDbEntity
  8
0
 62
     0
100
AcDbLine
 10
728.072781242132
 20
949.2
 30
0.0
 11
729.0032642484125
 21
949.2
 31
0.0
  0
LINE
  5
189
330
37
100
AcDbEntity
  8
0
 62
     0
100
AcDbLine
 10
425.5416547857889
 20
949.0999999999999
 30
0.0
 11
426.3825168545296
 21
949.0999999999999
 31
0.0
  0
LINE
  5
18A
330
37
100
AcDbEntity
  8
0
 62
     0
100
AcDbLine
 10
728.1114640819818
 20
949.0999999999999
 30
0.0
 11
728.9523261507078
 21
949.0999999999999
 31
0.0
  0
LINE
  5
18B
330
37
100
AcDbEntity
  8
0
 62
     0
100
AcDbLine
 10
425.5966513605044
 20
949.0
 30
0.0
 11
426.3438340146798
 21
949.0
 31
0.0
  0
LINE
  5
18C
330
37
100
AcDbEntity
  8
0
 62
     0
100
AcDbLine
 10
728.1501469218316
 20
949.0
 30
0.0
 11
728.897329575992
 21
949.0
 31
0.0
  0
LINE
  5
18D
330
37
100
AcDbEntity
  8
0
 62
     0
100
AcDbLine
 10
425.6559265249087
 20
948.9
 30
0.0
 11
426.30515117483
 21
948.9
 31
0.0
  0
LINE
  5
18E
330
37
100
AcDbEntity
  8
0
 62
     0
100
AcDbLine
 10
728.1888297616814
 20
948.9
 30
0.0
 11
728.8380544115874
 21
948.9
 31
0.0
  0
LINE
  5
18F
330
37
100
AcDbEntity
  8
0
 62
     0
100
AcDbLine
 10
425.7197357393578
 20
948.8000000000001
 30
0.0
 11
426.2664683349802
 21
948.8000000000001
 31
0.0
  0
LINE
  5
190
330
37
100
AcDbEntity
  8
0
 62
     0
100
AcDbLine
 10
728.2275126015312
 20
948.8000000000001
 30
0.0
 11
728.774245197138
 21
948.8000000000001
 31
0.0
  0
LINE
  5
191
330
37
100
AcDbEntity
  8
0
 62
     0
100
AcDbLine
 10
425.7883772967971
 20
948.7
 30
0.0
 11
426.2277854951304
 21
948.7
 31
0.0
  0
LINE
  5
192
330
37
100
AcDbEntity
  8
0
 62
     0
100
AcDbLine
 10
728.266195441381
 20
948.7
 30
0.0
 11
728.7056036396982
 21
948.7
 31
0.0
  0
LINE
  5
193
330
37
100
AcDbEntity
  8
0
 62
     0
100
AcDbLine
 10
425.8622020906535
 20
948.6
 30
0.0
 11
426.1891026552805
 21
948.6
 31
0.0
  0
LINE
  5
194
330
37
100
AcDbEntity
  8
0
 62
     0
100
AcDbLine
 10
728.3048782812309
 20
948.6
 30
0.0
 11
728.6317788458415
 21
948.6
 31
0.0
  0
LINE
  5
195
330
37
100
AcDbEntity
  8
0
 62
     0
100
AcDbLine
 10
425.941626573186
 20
948.4999999999999
 30
0.0
 11
426.1504198154307
 21
948.4999999999999
 31
0.0
  0
LINE
  5
196
330
37
100
AcDbEntity
  8
0
 62
     0
100
AcDbLine
 10
728.3435611210807
 20
948.4999999999999
 30
0.0
 11
728.5523543633084
 21
948.4999999999999
 31
0.0
  0
LINE
  5
197
330
37
100
AcDbEntity
  8
0
 62
     0
100
AcDbLine
 10
426.0271502741974
 20
948.4000000000001
 30
0.0
 11
426.1117369755809
 21
948.4000000000001
 31
0.0
  0
LINE
  5
198
330
37
100
AcDbEntity
  8
0
 62
     0
100
AcDbLine
 10
728.3822439609305
 20
948.4000000000001
 30
0.0
 11
728.4668306622966
 21
948.4000000000001
 31
0.0
  0
ENDBLK
  5
199
330
37
100
AcDbEntity
  8
0
100
AcDbBlockEnd
  0
BLOCK
  5
19A
330
38
100
AcDbEntity
  8
0
100
AcDbBlockBegin
  2
*X7
 70
     1
 10
0.0
 20
0.0
 30
0.0
  3
*X7
  1

  0
LINE
  5
19B
330
38
100
AcDbEntity
  8
0
 62
     0
100
AcDbLine
 10
453.665715389673
 20
1002.3
 30
0.0
 11
455.7275585653786
 21
1002.3
 31
0.0
  0
LINE
  5
19C
330
38
100
AcDbEntity
  8
0
 62
     0
100
AcDbLine
 10
698.7664223711329
 20
1002.3
 30
0.0
 11
700.8282655468536
 21
1002.3
 31
0.0
  0
LINE
  5
19D
330
38
100
AcDbEntity
  8
0
 62
     0
100
AcDbLine
 10
453.6919507146002
 20
1002.4
 30
0.0
 11
455.7816423763759
 21
1002.4
 31
0.0
  0
LINE
  5
19E
330
38
100
AcDbEntity
  8
0
 62
     0
100
AcDbLine
 10
698.7123385601356
 20
1002.4
 30
0.0
 11
700.8020302219265
 21
1002.4
 31
0.0
  0
LINE
  5
19F
330
38
100
AcDbEntity
  8
0
 62
     0
100
AcDbLine
 10
453.7209504196481
 20
1002.5
 30
0.0
 11
455.8347673763758
 21
1002.5
 31
0.0
  0
LINE
  5
1A0
330
38
100
AcDbEntity
  8
0
 62
     0
100
AcDbLine
 10
698.6592135601357
 20
1002.5
 30
0.0
 11
700.7730305168787
 21
1002.5
 31
0.0
  0
LINE
  5
1A1
330
38
100
AcDbEntity
  8
0
 62
     0
100
AcDbLine
 10
453.7527772448545
 20
1002.6
 30
0.0
 11
455.8878923763757
 21
1002.6
 31
0.0
  0
LINE
  5
1A2
330
38
100
AcDbEntity
  8
0
 62
     0
100
AcDbLine
 10
698.6060885601357
 20
1002.6
 30
0.0
 11
700.7412036916725
 21
1002.6
 31
0.0
  0
LINE
  5
1A3
330
38
100
AcDbEntity
  8
0
 62
     0
100
AcDbLine
 10
453.7875022530809
 20
1002.7
 30
0.0
 11
455.9410173763758
 21
1002.7
 31
0.0
  0
LINE
  5
1A4
330
38
100
AcDbEntity
  8
0
 62
     0
100
AcDbLine
 10
698.5529635601356
 20
1002.7
 30
0.0
 11
700.7064786834462
 21
1002.7
 31
0.0
  0
LINE
  5
1A5
330
38
100
AcDbEntity
  8
0
 62
     0
100
AcDbLine
 10
453.825205723889
 20
1002.8
 30
0.0
 11
455.9941423763758
 21
1002.8
 31
0.0
  0
LINE
  5
1A6
330
38
100
AcDbEntity
  8
0
 62
     0
100
AcDbLine
 10
698.4998385601357
 20
1002.8
 30
0.0
 11
700.6687752126383
 21
1002.8
 31
0.0
  0
LINE
  5
1A7
330
38
100
AcDbEntity
  8
0
 62
     0
100
AcDbLine
 10
453.8659782188079
 20
1002.9
 30
0.0
 11
456.0472673763759
 21
1002.9
 31
0.0
  0
LINE
  5
1A8
330
38
100
AcDbEntity
  8
0
 62
     0
100
AcDbLine
 10
698.4467135601356
 20
1002.9
 30
0.0
 11
700.6280027177195
 21
1002.9
 31
0.0
  0
LINE
  5
1A9
330
38
100
AcDbEntity
  8
0
 62
     0
100
AcDbLine
 10
453.9099218547924
 20
1003.0
 30
0.0
 11
456.1003923763758
 21
1003.0
 31
0.0
  0
LINE
  5
1AA
330
38
100
AcDbEntity
  8
0
 62
     0
100
AcDbLine
 10
698.3935885601357
 20
1003.0
 30
0.0
 11
700.5840590817351
 21
1003.0
 31
0.0
  0
LINE
  5
1AB
330
38
100
AcDbEntity
  8
0
 62
     0
100
AcDbLine
 10
453.9571518330132
 20
1003.1
 30
0.0
 11
456.1535173763759
 21
1003.1
 31
0.0
  0
LINE
  5
1AC
330
38
100
AcDbEntity
  8
0
 62
     0
100
AcDbLine
 10
698.3404635601357
 20
1003.1
 30
0.0
 11
700.5368291035146
 21
1003.1
 31
0.0
  0
LINE
  5
1AD
330
38
100
AcDbEntity
  8
0
 62
     0
100
AcDbLine
 10
454.0077982838941
 20
1003.2
 30
0.0
 11
456.2066423763758
 21
1003.2
 31
0.0
  0
LINE
  5
1AE
330
38
100
AcDbEntity
  8
0
 62
     0
100
AcDbLine
 10
698.2873385601357
 20
1003.2
 30
0.0
 11
700.4861826526339
 21
1003.2
 31
0.0
  0
LINE
  5
1AF
330
38
100
AcDbEntity
  8
0
 62
     0
100
AcDbLine
 10
454.0620085078821
 20
1003.3
 30
0.0
 11
456.2597673763758
 21
1003.3
 31
0.0
  0
LINE
  5
1B0
330
38
100
AcDbEntity
  8
0
 62
     0
100
AcDbLine
 10
698.2342135601356
 20
1003.3
 30
0.0
 11
700.4319724286461
 21
1003.3
 31
0.0
  0
LINE
  5
1B1
330
38
100
AcDbEntity
  8
0
 62
     0
100
AcDbLine
 10
454.1199497167822
 20
1003.4
 30
0.0
 11
456.3128923763758
 21
1003.4
 31
0.0
  0
LINE
  5
1B2
330
38
100
AcDbEntity
  8
0
 62
     0
100
AcDbLine
 10
698.1810885601356
 20
1003.4
 30
0.0
 11
700.3740312197464
 21
1003.4
 31
0.0
  0
LINE
  5
1B3
330
38
100
AcDbEntity
  8
0
 62
     0
100
AcDbLine
 10
454.1818124156151
 20
1003.5
 30
0.0
 11
456.3660173763758
 21
1003.5
 31
0.0
  0
LINE
  5
1B4
330
38
100
AcDbEntity
  8
0
 62
     0
100
AcDbLine
 10
698.1279635601358
 20
1003.5
 30
0.0
 11
700.3121685209139
 21
1003.5
 31
0.0
  0
LINE
  5
1B5
330
38
100
AcDbEntity
  8
0
 62
     0
100
AcDbLine
 10
454.247814614347
 20
1003.6
 30
0.0
 11
456.4191423763758
 21
1003.6
 31
0.0
  0
LINE
  5
1B6
330
38
100
AcDbEntity
  8
0
 62
     0
100
AcDbLine
 10
698.0748385601357
 20
1003.6
 30
0.0
 11
700.2461663221823
 21
1003.6
 31
0.0
  0
LINE
  5
1B7
330
38
100
AcDbEntity
  8
0
 62
     0
100
AcDbLine
 10
454.3182071294756
 20
1003.7
 30
0.0
 11
456.4722673763758
 21
1003.7
 31
0.0
  0
LINE
  5
1B8
330
38
100
AcDbEntity
  8
0
 62
     0
100
AcDbLine
 10
698.0217135601357
 20
1003.7
 30
0.0
 11
700.1757738070542
 21
1003.7
 31
0.0
  0
LINE
  5
1B9
330
38
100
AcDbEntity
  8
0
 62
     0
100
AcDbLine
 10
454.3932803383712
 20
1003.8
 30
0.0
 11
456.5253923763759
 21
1003.8
 31
0.0
  0
LINE
  5
1BA
330
38
100
AcDbEntity
  8
0
 62
     0
100
AcDbLine
 10
697.9685885601356
 20
1003.8
 30
0.0
 11
700.1007005981589
 21
1003.8
 31
0.0
  0
LINE
  5
1BB
330
38
100
AcDbEntity
  8
0
 62
     0
100
AcDbLine
 10
454.4733729022655
 20
1003.9
 30
0.0
 11
456.5785173763758
 21
1003.9
 31
0.0
  0
LINE
  5
1BC
330
38
100
AcDbEntity
  8
0
 62
     0
100
AcDbLine
 10
697.9154635601356
 20
1003.9
 30
0.0
 11
700.0206080342651
 21
1003.9
 31
0.0
  0
LINE
  5
1BD
330
38
100
AcDbEntity
  8
0
 62
     0
100
AcDbLine
 10
454.5588832064924
 20
1004.0
 30
0.0
 11
456.6316423763758
 21
1004.0
 31
0.0
  0
LINE
  5
1BE
330
38
100
AcDbEntity
  8
0
 62
     0
100
AcDbLine
 10
697.8623385601357
 20
1004.0
 30
0.0
 11
699.9350977300387
 21
1004.0
 31
0.0
  0
LINE
  5
1BF
330
38
100
AcDbEntity
  8
0
 62
     0
100
AcDbLine
 10
454.6502846296912
 20
1004.1
 30
0.0
 11
456.6847673763758
 21
1004.1
 31
0.0
  0
LINE
  5
1C0
330
38
100
AcDbEntity
  8
0
 62
     0
100
AcDbLine
 10
697.8092135601357
 20
1004.1
 30
0.0
 11
699.8436963068404
 21
1004.1
 31
0.0
  0
LINE
  5
1C1
330
38
100
AcDbEntity
  8
0
 62
     0
100
AcDbLine
 10
454.7481463368479
 20
1004.2
 30
0.0
 11
456.7378923763759
 21
1004.2
 31
0.0
  0
LINE
  5
1C2
330
38
100
AcDbEntity
  8
0
 62
     0
100
AcDbLine
 10
697.7560885601357
 20
1004.2
 30
0.0
 11
699.7458345996846
 21
1004.2
 31
0.0
  0
LINE
  5
1C3
330
38
100
AcDbEntity
  8
0
 62
     0
100
AcDbLine
 10
454.8531622590944
 20
1004.3
 30
0.0
 11
456.7910173763758
 21
1004.3
 31
0.0
  0
LINE
  5
1C4
330
38
100
AcDbEntity
  8
0
 62
     0
100
AcDbLine
 10
697.7029635601357
 20
1004.3
 30
0.0
 11
699.6408186774388
 21
1004.3
 31
0.0
  0
LINE
  5
1C5
330
38
100
AcDbEntity
  8
0
 62
     0
100
AcDbLine
 10
454.9661925924551
 20
1004.4
 30
0.0
 11
456.8441423763759
 21
1004.4
 31
0.0
  0
LINE
  5
1C6
330
38
100
AcDbEntity
  8
0
 62
     0
100
AcDbLine
 10
697.6498385601356
 20
1004.4
 30
0.0
 11
699.5277883440791
 21
1004.4
 31
0.0
  0
LINE
  5
1C7
330
38
100
AcDbEntity
  8
0
 62
     0
100
AcDbLine
 10
455.0883251570616
 20
1004.5
 30
0.0
 11
456.8972673763759
 21
1004.5
 31
0.0
  0
LINE
  5
1C8
330
38
100
AcDbEntity
  8
0
 62
     0
100
AcDbLine
 10
697.5967135601357
 20
1004.5
 30
0.0
 11
699.4056557794737
 21
1004.5
 31
0.0
  0
LINE
  5
1C9
330
38
100
AcDbEntity
  8
0
 62
     0
100
AcDbLine
 10
455.2209696770169
 20
1004.6
 30
0.0
 11
456.9503923763758
 21
1004.6
 31
0.0
  0
LINE
  5
1CA
330
38
100
AcDbEntity
  8
0
 62
     0
100
AcDbLine
 10
697.5435885601357
 20
1004.6
 30
0.0
 11
699.2730112595197
 21
1004.6
 31
0.0
  0
LINE
  5
1CB
330
38
100
AcDbEntity
  8
0
 62
     0
100
AcDbLine
 10
455.3660096211043
 20
1004.7
 30
0.0
 11
457.0035173763758
 21
1004.7
 31
0.0
  0
LINE
  5
1CC
330
38
100
AcDbEntity
  8
0
 62
     0
100
AcDbLine
 10
697.4904635601356
 20
1004.7
 30
0.0
 11
699.127971315434
 21
1004.7
 31
0.0
  0
LINE
  5
1CD
330
38
100
AcDbEntity
  8
0
 62
     0
100
AcDbLine
 10
455.5260616047859
 20
1004.8
 30
0.0
 11
457.0566423763758
 21
1004.8
 31
0.0
  0
LINE
  5
1CE
330
38
100
AcDbEntity
  8
0
 62
     0
100
AcDbLine
 10
697.4373385601357
 20
1004.8
 30
0.0
 11
698.9679193317543
 21
1004.8
 31
0.0
  0
LINE
  5
1CF
330
38
100
AcDbEntity
  8
0
 62
     0
100
AcDbLine
 10
455.7049537028682
 20
1004.9
 30
0.0
 11
457.1097673763758
 21
1004.9
 31
0.0
  0
LINE
  5
1D0
330
38
100
AcDbEntity
  8
0
 62
     0
100
AcDbLine
 10
697.3842135601357
 20
1004.9
 30
0.0
 11
698.7890272336748
 21
1004.9
 31
0.0
  0
LINE
  5
1D1
330
38
100
AcDbEntity
  8
0
 62
     0
100
AcDbLine
 10
455.908703292665
 20
1005.0
 30
0.0
 11
457.1628923763758
 21
1005.0
 31
0.0
  0
LINE
  5
1D2
330
38
100
AcDbEntity
  8
0
 62
     0
100
AcDbLine
 10
697.3310885601357
 20
1005.0
 30
0.0
 11
698.5852776438818
 21
1005.0
 31
0.0
  0
LINE
  5
1D3
330
38
100
AcDbEntity
  8
0
 62
     0
100
AcDbLine
 10
456.1478367795201
 20
1005.1
 30
0.0
 11
457.2160173763759
 21
1005.1
 31
0.0
  0
LINE
  5
1D4
330
38
100
AcDbEntity
  8
0
 62
     0
100
AcDbLine
 10
697.2779635601357
 20
1005.1
 30
0.0
 11
698.3461441570327
 21
1005.1
 31
0.0
  0
LINE
  5
1D5
330
38
100
AcDbEntity
  8
0
 62
     0
100
AcDbLine
 10
456.4443770907547
 20
1005.2
 30
0.0
 11
457.2691423763759
 21
1005.2
 31
0.0
  0
LINE
  5
1D6
330
38
100
AcDbEntity
  8
0
 62
     0
100
AcDbLine
 10
697.2248385601357
 20
1005.2
 30
0.0
 11
698.0496038458087
 21
1005.2
 31
0.0
  0
LINE
  5
1D7
330
38
100
AcDbEntity
  8
0
 62
     0
100
AcDbLine
 10
456.8660744820768
 20
1005.3
 30
0.0
 11
457.3222673763758
 21
1005.3
 31
0.0
  0
LINE
  5
1D8
330
38
100
AcDbEntity
  8
0
 62
     0
100
AcDbLine
 10
697.1717135601356
 20
1005.3
 30
0.0
 11
697.6279064545169
 21
1005.3
 31
0.0
  0
LINE
  5
1D9
330
38
100
AcDbEntity
  8
0
 62
     0
100
AcDbLine
 10
453.6421892762325
 20
1002.2
 30
0.0
 11
455.6716762124374
 21
1002.2
 31
0.0
  0
LINE
  5
1DA
330
38
100
AcDbEntity
  8
0
 62
     0
100
AcDbLine
 10
698.8223047240741
 20
1002.2
 30
0.0
 11
700.8517916602941
 21
1002.2
 31
0.0
  0
LINE
  5
1DB
330
38
100
AcDbEntity
  8
0
 62
     0
100
AcDbLine
 10
453.6213241451849
 20
1002.1
 30
0.0
 11
455.6157938594962
 21
1002.1
 31
0.0
  0
LINE
  5
1DC
330
38
100
AcDbEntity
  8
0
 62
     0
100
AcDbLine
 10
698.8781870770154
 20
1002.1
 30
0.0
 11
700.8726567913416
 21
1002.1
 31
0.0
  0
LINE
  5
1DD
330
38
100
AcDbEntity
  8
0
 62
     0
100
AcDbLine
 10
453.6030781764686
 20
1002.0
 30
0.0
 11
455.559911506555
 21
1002.0
 31
0.0
  0
LINE
  5
1DE
330
38
100
AcDbEntity
  8
0
 62
     0
100
AcDbLine
 10
698.9340694299564
 20
1002.0
 30
0.0
 11
700.8909027600577
 21
1002.0
 31
0.0
  0
LINE
  5
1DF
330
38
100
AcDbEntity
  8
0
 62
     0
100
AcDbLine
 10
453.5874155153861
 20
1001.9
 30
0.0
 11
455.5040291536139
 21
1001.9
 31
0.0
  0
LINE
  5
1E0
330
38
100
AcDbEntity
  8
0
 62
     0
100
AcDbLine
 10
698.9899517828976
 20
1001.9
 30
0.0
 11
700.9065654211402
 21
1001.9
 31
0.0
  0
LINE
  5
1E1
330
38
100
AcDbEntity
  8
0
 62
     0
100
AcDbLine
 10
453.5743059041924
 20
1001.8
 30
0.0
 11
455.4481468006727
 21
1001.8
 31
0.0
  0
LINE
  5
1E2
330
38
100
AcDbEntity
  8
0
 62
     0
100
AcDbLine
 10
699.0458341358388
 20
1001.8
 30
0.0
 11
700.919675032334
 21
1001.8
 31
0.0
  0
LINE
  5
1E3
330
38
100
AcDbEntity
  8
0
 62
     0
100
AcDbLine
 10
453.5637243797199
 20
1001.7
 30
0.0
 11
455.3922644477315
 21
1001.7
 31
0.0
  0
LINE
  5
1E4
330
38
100
AcDbEntity
  8
0
 62
     0
100
AcDbLine
 10
699.1017164887799
 20
1001.7
 30
0.0
 11
700.9302565568064
 21
1001.7
 31
0.0
  0
LINE
  5
1E5
330
38
100
AcDbEntity
  8
0
 62
     0
100
AcDbLine
 10
453.5556510297488
 20
1001.6
 30
0.0
 11
455.3363820947904
 21
1001.6
 31
0.0
  0
LINE
  5
1E6
330
38
100
AcDbEntity
  8
0
 62
     0
100
AcDbLine
 10
699.1575988417212
 20
1001.6
 30
0.0
 11
700.9383299067775
 21
1001.6
 31
0.0
  0
LINE
  5
1E7
330
38
100
AcDbEntity
  8
0
 62
     0
100
AcDbLine
 10
453.5500708024298
 20
1001.5
 30
0.0
 11
455.2804997418491
 21
1001.5
 31
0.0
  0
LINE
  5
1E8
330
38
100
AcDbEntity
  8
0
 62
     0
100
AcDbLine
 10
699.2134811946623
 20
1001.5
 30
0.0
 11
700.9439101340964
 21
1001.5
 31
0.0
  0
LINE
  5
1E9
330
38
100
AcDbEntity
  8
0
 62
     0
100
AcDbLine
 10
453.5469733644301
 20
1001.4
 30
0.0
 11
455.2246173889081
 21
1001.4
 31
0.0
  0
LINE
  5
1EA
330
38
100
AcDbEntity
  8
0
 62
     0
100
AcDbLine
 10
699.2693635476034
 20
1001.4
 30
0.0
 11
700.9470075720961
 21
1001.4
 31
0.0
  0
LINE
  5
1EB
330
38
100
AcDbEntity
  8
0
 62
     0
100
AcDbLine
 10
453.5463530046407
 20
1001.3
 30
0.0
 11
455.1687350359669
 21
1001.3
 31
0.0
  0
LINE
  5
1EC
330
38
100
AcDbEntity
  8
0
 62
     0
100
AcDbLine
 10
699.3252459005447
 20
1001.3
 30
0.0
 11
700.9476279318854
 21
1001.3
 31
0.0
  0
LINE
  5
1ED
330
38
100
AcDbEntity
  8
0
 62
     0
100
AcDbLine
 10
453.5482085813391
 20
1001.2
 30
0.0
 11
455.1128526830257
 21
1001.2
 31
0.0
  0
LINE
  5
1EE
330
38
100
AcDbEntity
  8
0
 62
     0
100
AcDbLine
 10
699.3811282534858
 20
1001.2
 30
0.0
 11
700.945772355187
 21
1001.2
 31
0.0
  0
LINE
  5
1EF
330
38
100
AcDbEntity
  8
0
 62
     0
100
AcDbLine
 10
453.5525435116585
 20
1001.1
 30
0.0
 11
455.0569703300844
 21
1001.1
 31
0.0
  0
LINE
  5
1F0
330
38
100
AcDbEntity
  8
0
 62
     0
100
AcDbLine
 10
699.4370106064271
 20
1001.1
 30
0.0
 11
700.9414374248676
 21
1001.1
 31
0.0
  0
LINE
  5
1F1
330
38
100
AcDbEntity
  8
0
 62
     0
100
AcDbLine
 10
453.5593658031374
 20
1001.0
 30
0.0
 11
455.0010879771432
 21
1001.0
 31
0.0
  0
LINE
  5
1F2
330
38
100
AcDbEntity
  8
0
 62
     0
100
AcDbLine
 10
699.4928929593681
 20
1001.0
 30
0.0
 11
700.9346151333889
 21
1001.0
 31
0.0
  0
LINE
  5
1F3
330
38
100
AcDbEntity
  8
0
 62
     0
100
AcDbLine
 10
453.5686881280319
 20
1000.9
 30
0.0
 11
454.9452056242022
 21
1000.9
 31
0.0
  0
LINE
  5
1F4
330
38
100
AcDbEntity
  8
0
 62
     0
100
AcDbLine
 10
699.5487753123093
 20
1000.9
 30
0.0
 11
700.9252928084945
 21
1000.9
 31
0.0
  0
LINE
  5
1F5
330
38
100
AcDbEntity
  8
0
 62
     0
100
AcDbLine
 10
453.5805279420087
 20
1000.8
 30
0.0
 11
454.8893232712609
 21
1000.8
 31
0.0
  0
LINE
  5
1F6
330
38
100
AcDbEntity
  8
0
 62
     0
100
AcDbLine
 10
699.6046576652505
 20
1000.8
 30
0.0
 11
700.9134529945176
 21
1000.8
 31
0.0
  0
LINE
  5
1F7
330
38
100
AcDbEntity
  8
0
 62
     0
100
AcDbLine
 10
453.5949076498403
 20
1000.7
 30
0.0
 11
454.8334409183198
 21
1000.7
 31
0.0
  0
LINE
  5
1F8
330
38
100
AcDbEntity
  8
0
 62
     0
100
AcDbLine
 10
699.6605400181916
 20
1000.7
 30
0.0
 11
700.8990732866861
 21
1000.7
 31
0.0
  0
LINE
  5
1F9
330
38
100
AcDbEntity
  8
0
 62
     0
100
AcDbLine
 10
453.6118548218237
 20
1000.6
 30
0.0
 11
454.7775585653786
 21
1000.6
 31
0.0
  0
LINE
  5
1FA
330
38
100
AcDbEntity
  8
0
 62
     0
100
AcDbLine
 10
699.7164223711329
 20
1000.6
 30
0.0
 11
700.8821261147028
 21
1000.6
 31
0.0
  0
LINE
  5
1FB
330
38
100
AcDbEntity
  8
0
 62
     0
100
AcDbLine
 10
453.6314024659101
 20
1000.5
 30
0.0
 11
454.7216762124374
 21
1000.5
 31
0.0
  0
LINE
  5
1FC
330
38
100
AcDbEntity
  8
0
 62
     0
100
AcDbLine
 10
699.772304724074
 20
1000.5
 30
0.0
 11
700.8625784706164
 21
1000.5
 31
0.0
  0
LINE
  5
1FD
330
38
100
AcDbEntity
  8
0
 62
     0
100
AcDbLine
 10
453.6535893619982
 20
1000.4
 30
0.0
 11
454.6657938594963
 21
1000.4
 31
0.0
  0
LINE
  5
1FE
330
38
100
AcDbEntity
  8
0
 62
     0
100
AcDbLine
 10
699.8281870770151
 20
1000.4
 30
0.0
 11
700.8403915745284
 21
1000.4
 31
0.0
  0
LINE
  5
1FF
330
38
100
AcDbEntity
  8
0
 62
     0
100
AcDbLine
 10
453.6784604665967
 20
1000.3
 30
0.0
 11
454.6099115065551
 21
1000.3
 31
0.0
  0
LINE
  5
200
330
38
100
AcDbEntity
  8
0
 62
     0
100
AcDbLine
 10
699.8840694299564
 20
1000.3
 30
0.0
 11
700.8155204699301
 21
1000.3
 31
0.0
  0
LINE
  5
201
330
38
100
AcDbEntity
  8
0
 62
     0
100
AcDbLine
 10
453.7060673981959
 20
1000.2
 30
0.0
 11
454.554029153614
 21
1000.2
 31
0.0
  0
LINE
  5
202
330
38
100
AcDbEntity
  8
0
 62
     0
100
AcDbLine
 10
699.9399517828976
 20
1000.2
 30
0.0
 11
700.7879135383309
 21
1000.2
 31
0.0
  0
LINE
  5
203
330
38
100
AcDbEntity
  8
0
 62
     0
100
AcDbLine
 10
453.7364690163104
 20
1000.1
 30
0.0
 11
454.4981468006727
 21
1000.1
 31
0.0
  0
LINE
  5
204
330
38
100
AcDbEntity
  8
0
 62
     0
100
AcDbLine
 10
699.9958341358388
 20
1000.1
 30
0.0
 11
700.7575119202165
 21
1000.1
 31
0.0
  0
LINE
  5
205
330
38
100
AcDbEntity
  8
0
 62
     0
100
AcDbLine
 10
453.7697321104396
 20
1000.0
 30
0.0
 11
454.4422644477315
 21
1000.0
 31
0.0
  0
LINE
  5
206
330
38
100
AcDbEntity
  8
0
 62
     0
100
AcDbLine
 10
700.05171648878
 20
1000.0
 30
0.0
 11
700.7242488260875
 21
1000.0
 31
0.0
  0
LINE
  5
207
330
38
100
AcDbEntity
  8
0
 62
     0
100
AcDbLine
 10
453.8059322193462
 20
999.9
 30
0.0
 11
454.3863820947904
 21
999.9
 31
0.0
  0
LINE
  5
208
330
38
100
AcDbEntity
  8
0
 62
     0
100
AcDbLine
 10
700.1075988417211
 20
999.9
 30
0.0
 11
700.688048717181
 21
999.9
 31
0.0
  0
LINE
  5
209
330
38
100
AcDbEntity
  8
0
 62
     0
100
AcDbLine
 10
453.8451546063702
 20
999.8000000000001
 30
0.0
 11
454.3304997418492
 21
999.8000000000001
 31
0.0
  0
LINE
  5
20A
330
38
100
AcDbEntity
  8
0
 62
     0
100
AcDbLine
 10
700.1634811946622
 20
999.8000000000001
 30
0.0
 11
700.6488263301572
 21
999.8000000000001
 31
0.0
  0
LINE
  5
20B
330
38
100
AcDbEntity
  8
0
 62
     0
100
AcDbLine
 10
453.8874954233683
 20
999.6999999999999
 30
0.0
 11
454.274617388908
 21
999.6999999999999
 31
0.0
  0
LINE
  5
20C
330
38
100
AcDbEntity
  8
0
 62
     0
100
AcDbLine
 10
700.2193635476035
 20
999.6999999999999
 30
0.0
 11
700.6064855131592
 21
999.6999999999999
 31
0.0
  0
LINE
  5
20D
330
38
100
AcDbEntity
  8
0
 62
     0
100
AcDbLine
 10
453.9330631048827
 20
999.6
 30
0.0
 11
454.2187350359668
 21
999.6
 31
0.0
  0
LINE
  5
20E
330
38
100
AcDbEntity
  8
0
 62
     0
100
AcDbLine
 10
700.2752459005446
 20
999.6
 30
0.0
 11
700.5609178316452
 21
999.6
 31
0.0
  0
LINE
  5
20F
330
38
100
AcDbEntity
  8
0
 62
     0
100
AcDbLine
 10
453.9819800460414
 20
999.5
 30
0.0
 11
454.1628526830256
 21
999.5
 31
0.0
  0
LINE
  5
210
330
38
100
AcDbEntity
  8
0
 62
     0
100
AcDbLine
 10
700.3311282534858
 20
999.5
 30
0.0
 11
700.5120008904865
 21
999.5
 31
0.0
  0
LINE
  5
211
330
38
100
AcDbEntity
  8
0
 62
     0
100
AcDbLine
 10
454.0343846336705
 20
999.4000000000001
 30
0.0
 11
454.1069703300845
 21
999.4000000000001
 31
0.0
  0
LINE
  5
212
330
38
100
AcDbEntity
  8
0
 62
     0
100
AcDbLine
 10
700.387010606427
 20
999.4000000000001
 30
0.0
 11
700.4595963028577
 21
999.4000000000001
 31
0.0
  0
ENDBLK
  5
213
330
38
100
AcDbEntity
  8
0
100
AcDbBlockEnd
  0
BLOCK
  5
214
330
39
100
AcDbEntity
  8
0
100
AcDbBlockBegin
  2
*X8
 70
     1
 10
0.0
 20
0.0
 30
0.0
  3
*X8
  1

  0
LINE
  5
215
330
39
100
AcDbEntity
  8
0
 62
     0
100
AcDbLine
 10
487.6679358949435
 20
1066.3
 30
0.0
 11
489.7285173763758
 21
1066.3
 31
0.0
  0
LINE
  5
216
330
39
100
AcDbEntity
  8
0
 62
     0
100
AcDbLine
 10
487.692703745024
 20
1066.4
 30
0.0
 11
489.7817782662117
 21
1066.4
 31
0.0
  0
LINE
  5
217
330
39
100
AcDbEntity
  8
0
 62
     0
100
AcDbLine
 10
487.7202801774136
 20
1066.5
 30
0.0
 11
489.835111599545
 21
1066.5
 31
0.0
  0
LINE
  5
218
330
39
100
AcDbEntity
  8
0
 62
     0
100
AcDbLine
 10
487.7507272003879
 20
1066.6
 30
0.0
 11
489.8884449328784
 21
1066.6
 31
0.0
  0
LINE
  5
219
330
39
100
AcDbEntity
  8
0
 62
     0
100
AcDbLine
 10
487.7841154175847
 20
1066.7
 30
0.0
 11
489.9417782662117
 21
1066.7
 31
0.0
  0
LINE
  5
21A
330
39
100
AcDbEntity
  8
0
 62
     0
100
AcDbLine
 10
487.8205249425968
 20
1066.8
 30
0.0
 11
489.995111599545
 21
1066.8
 31
0.0
  0
LINE
  5
21B
330
39
100
AcDbEntity
  8
0
 62
     0
100
AcDbLine
 10
487.8600464929948
 20
1066.9
 30
0.0
 11
490.0484449328784
 21
1066.9
 31
0.0
  0
LINE
  5
21C
330
39
100
AcDbEntity
  8
0
 62
     0
100
AcDbLine
 10
487.9027827024855
 20
1067.0
 30
0.0
 11
490.1017782662116
 21
1067.0
 31
0.0
  0
LINE
  5
21D
330
39
100
AcDbEntity
  8
0
 62
     0
100
AcDbLine
 10
487.9488497009496
 20
1067.1
 30
0.0
 11
490.1551115995451
 21
1067.1
 31
0.0
  0
LINE
  5
21E
330
39
100
AcDbEntity
  8
0
 62
     0
100
AcDbLine
 10
487.9983790268444
 20
1067.2
 30
0.0
 11
490.2084449328783
 21
1067.2
 31
0.0
  0
LINE
  5
21F
330
39
100
AcDbEntity
  8
0
 62
     0
100
AcDbLine
 10
488.0515199563891
 20
1067.3
 30
0.0
 11
490.2617782662116
 21
1067.3
 31
0.0
  0
LINE
  5
220
330
39
100
AcDbEntity
  8
0
 62
     0
100
AcDbLine
 10
488.1084423612606
 20
1067.4
 30
0.0
 11
490.315111599545
 21
1067.4
 31
0.0
  0
LINE
  5
221
330
39
100
AcDbEntity
  8
0
 62
     0
100
AcDbLine
 10
488.1693402445031
 20
1067.5
 30
0.0
 11
490.3684449328783
 21
1067.5
 31
0.0
  0
LINE
  5
222
330
39
100
AcDbEntity
  8
0
 62
     0
100
AcDbLine
 10
488.2344361579945
 20
1067.6
 30
0.0
 11
490.4217782662117
 21
1067.6
 31
0.0
  0
LINE
  5
223
330
39
100
AcDbEntity
  8
0
 62
     0
100
AcDbLine
 10
488.3039867818773
 20
1067.7
 30
0.0
 11
490.475111599545
 21
1067.7
 31
0.0
  0
LINE
  5
224
330
39
100
AcDbEntity
  8
0
 62
     0
100
AcDbLine
 10
488.3782900592361
 20
1067.8
 30
0.0
 11
490.5284449328783
 21
1067.8
 31
0.0
  0
LINE
  5
225
330
39
100
AcDbEntity
  8
0
 62
     0
100
AcDbLine
 10
488.4576944480804
 20
1067.9
 30
0.0
 11
490.5817782662117
 21
1067.9
 31
0.0
  0
LINE
  5
226
330
39
100
AcDbEntity
  8
0
 62
     0
100
AcDbLine
 10
488.5426111111097
 20
1068.0
 30
0.0
 11
490.6351115995449
 21
1068.0
 31
0.0
  0
LINE
  5
227
330
39
100
AcDbEntity
  8
0
 62
     0
100
AcDbLine
 10
488.6335302699349
 20
1068.1
 30
0.0
 11
490.6884449328784
 21
1068.1
 31
0.0
  0
LINE
  5
228
330
39
100
AcDbEntity
  8
0
 62
     0
100
AcDbLine
 10
488.7310436083342
 20
1068.2
 30
0.0
 11
490.7417782662117
 21
1068.2
 31
0.0
  0
LINE
  5
229
330
39
100
AcDbEntity
  8
0
 62
     0
100
AcDbLine
 10
488.8358757118744
 20
1068.3
 30
0.0
 11
490.795111599545
 21
1068.3
 31
0.0
  0
LINE
  5
22A
330
39
100
AcDbEntity
  8
0
 62
     0
100
AcDbLine
 10
488.9489294543306
 20
1068.4
 30
0.0
 11
490.8484449328784
 21
1068.4
 31
0.0
  0
LINE
  5
22B
330
39
100
AcDbEntity
  8
0
 62
     0
100
AcDbLine
 10
489.0713537546632
 20
1068.5
 30
0.0
 11
490.9017782662116
 21
1068.5
 31
0.0
  0
LINE
  5
22C
330
39
100
AcDbEntity
  8
0
 62
     0
100
AcDbLine
 10
489.2046489117982
 20
1068.6
 30
0.0
 11
490.9551115995451
 21
1068.6
 31
0.0
  0
LINE
  5
22D
330
39
100
AcDbEntity
  8
0
 62
     0
100
AcDbLine
 10
489.350838730459
 20
1068.7
 30
0.0
 11
491.0084449328784
 21
1068.7
 31
0.0
  0
LINE
  5
22E
330
39
100
AcDbEntity
  8
0
 62
     0
100
AcDbLine
 10
489.5127700820958
 20
1068.8
 30
0.0
 11
491.0617782662116
 21
1068.8
 31
0.0
  0
LINE
  5
22F
330
39
100
AcDbEntity
  8
0
 62
     0
100
AcDbLine
 10
489.694679027654
 20
1068.9
 30
0.0
 11
491.115111599545
 21
1068.9
 31
0.0
  0
LINE
  5
230
330
39
100
AcDbEntity
  8
0
 62
     0
100
AcDbLine
 10
489.9033887538537
 20
1069.0
 30
0.0
 11
491.1684449328783
 21
1069.0
 31
0.0
  0
LINE
  5
231
330
39
100
AcDbEntity
  8
0
 62
     0
100
AcDbLine
 10
490.1513045651338
 20
1069.1
 30
0.0
 11
491.2217782662117
 21
1069.1
 31
0.0
  0
LINE
  5
232
330
39
100
AcDbEntity
  8
0
 62
     0
100
AcDbLine
 10
490.4663185509647
 20
1069.2
 30
0.0
 11
491.275111599545
 21
1069.2
 31
0.0
  0
LINE
  5
233
330
39
100
AcDbEntity
  8
0
 62
     0
100
AcDbLine
 10
490.9547886407304
 20
1069.3
 30
0.0
 11
491.3284449328783
 21
1069.3
 31
0.0
  0
LINE
  5
234
330
39
100
AcDbEntity
  8
0
 62
     0
100
AcDbLine
 10
487.6459224487669
 20
1066.2
 30
0.0
 11
489.6753923763758
 21
1066.2
 31
0.0
  0
LINE
  5
235
330
39
100
AcDbEntity
  8
0
 62
     0
100
AcDbLine
 10
487.6266164176559
 20
1066.1
 30
0.0
 11
489.6222673763759
 21
1066.1
 31
0.0
  0
LINE
  5
236
330
39
100
AcDbEntity
  8
0
 62
     0
100
AcDbLine
 10
487.6099774683023
 20
1066.0
 30
0.0
 11
489.5691423763758
 21
1066.0
 31
0.0
  0
LINE
  5
237
330
39
100
AcDbEntity
  8
0
 62
     0
100
AcDbLine
 10
487.5959714801473
 20
1065.9
 30
0.0
 11
489.5160173763758
 21
1065.9
 31
0.0
  0
LINE
  5
238
330
39
100
AcDbEntity
  8
0
 62
     0
100
AcDbLine
 10
487.5845701819669
 20
1065.8
 30
0.0
 11
489.4628923763757
 21
1065.8
 31
0.0
  0
LINE
  5
239
330
39
100
AcDbEntity
  8
0
 62
     0
100
AcDbLine
 10
487.5757508584458
 20
1065.7
 30
0.0
 11
489.4097673763758
 21
1065.7
 31
0.0
  0
LINE
  5
23A
330
39
100
AcDbEntity
  8
0
 62
     0
100
AcDbLine
 10
487.5694961194343
 20
1065.6
 30
0.0
 11
489.3566423763759
 21
1065.6
 31
0.0
  0
LINE
  5
23B
330
39
100
AcDbEntity
  8
0
 62
     0
100
AcDbLine
 10
487.5657937263005
 20
1065.5
 30
0.0
 11
489.3035173763758
 21
1065.5
 31
0.0
  0
LINE
  5
23C
330
39
100
AcDbEntity
  8
0
 62
     0
100
AcDbLine
 10
487.5646364712787
 20
1065.4
 30
0.0
 11
489.2503923763759
 21
1065.4
 31
0.0
  0
LINE
  5
23D
330
39
100
AcDbEntity
  8
0
 62
     0
100
AcDbLine
 10
487.5660221070137
 20
1065.3
 30
0.0
 11
489.1972673763758
 21
1065.3
 31
0.0
  0
LINE
  5
23E
330
39
100
AcDbEntity
  8
0
 62
     0
100
AcDbLine
 10
487.5699533246825
 20
1065.2
 30
0.0
 11
489.1441423763758
 21
1065.2
 31
0.0
  0
LINE
  5
23F
330
39
100
AcDbEntity
  8
0
 62
     0
100
AcDbLine
 10
487.5764377801979
 20
1065.1
 30
0.0
 11
489.0910173763759
 21
1065.1
 31
0.0
  0
LINE
  5
240
330
39
100
AcDbEntity
  8
0
 62
     0
100
AcDbLine
 10
487.5854881690893
 20
1065.0
 30
0.0
 11
489.0378923763758
 21
1065.0
 31
0.0
  0
LINE
  5
241
330
39
100
AcDbEntity
  8
0
 62
     0
100
AcDbLine
 10
487.5971223517796
 20
1064.9
 30
0.0
 11
488.9847673763759
 21
1064.9
 31
0.0
  0
LINE
  5
242
330
39
100
AcDbEntity
  8
0
 62
     0
100
AcDbLine
 10
487.6113635321722
 20
1064.8
 30
0.0
 11
488.9316423763758
 21
1064.8
 31
0.0
  0
LINE
  5
243
330
39
100
AcDbEntity
  8
0
 62
     0
100
AcDbLine
 10
487.6282404937714
 20
1064.7
 30
0.0
 11
488.8785173763758
 21
1064.7
 31
0.0
  0
LINE
  5
244
330
39
100
AcDbEntity
  8
0
 62
     0
100
AcDbLine
 10
487.6477878990657
 20
1064.6
 30
0.0
 11
488.8253923763759
 21
1064.6
 31
0.0
  0
LINE
  5
245
330
39
100
AcDbEntity
  8
0
 62
     0
100
AcDbLine
 10
487.6700466596532
 20
1064.5
 30
0.0
 11
488.7722673763758
 21
1064.5
 31
0.0
  0
LINE
  5
246
330
39
100
AcDbEntity
  8
0
 62
     0
100
AcDbLine
 10
487.6950643866887
 20
1064.4
 30
0.0
 11
488.7191423763758
 21
1064.4
 31
0.0
  0
LINE
  5
247
330
39
100
AcDbEntity
  8
0
 62
     0
100
AcDbLine
 10
487.7228959337987
 20
1064.3
 30
0.0
 11
488.6660173763758
 21
1064.3
 31
0.0
  0
LINE
  5
248
330
39
100
AcDbEntity
  8
0
 62
     0
100
AcDbLine
 10
487.7536040477861
 20
1064.2
 30
0.0
 11
488.6128923763758
 21
1064.2
 31
0.0
  0
LINE
  5
249
330
39
100
AcDbEntity
  8
0
 62
     0
100
AcDbLine
 10
487.7872601464511
 20
1064.1
 30
0.0
 11
488.5597673763759
 21
1064.1
 31
0.0
  0
LINE
  5
24A
330
39
100
AcDbEntity
  8
0
 62
     0
100
AcDbLine
 10
487.8239452479481
 20
1064.0
 30
0.0
 11
488.5066423763758
 21
1064.0
 31
0.0
  0
LINE
  5
24B
330
39
100
AcDbEntity
  8
0
 62
     0
100
AcDbLine
 10
487.8637510826707
 20
1063.9
 30
0.0
 11
488.4535173763758
 21
1063.9
 31
0.0
  0
LINE
  5
24C
330
39
100
AcDbEntity
  8
0
 62
     0
100
AcDbLine
 10
487.9067814272454
 20
1063.8
 30
0.0
 11
488.4003923763757
 21
1063.8
 31
0.0
  0
LINE
  5
24D
330
39
100
AcDbEntity
  8
0
 62
     0
100
AcDbLine
 10
487.9531537115233
 20
1063.7
 30
0.0
 11
488.3472673763758
 21
1063.7
 31
0.0
  0
LINE
  5
24E
330
39
100
AcDbEntity
  8
0
 62
     0
100
AcDbLine
 10
488.0030009646151
 20
1063.6
 30
0.0
 11
488.2941423763759
 21
1063.6
 31
0.0
  0
LINE
  5
24F
330
39
100
AcDbEntity
  8
0
 62
     0
100
AcDbLine
 10
488.056474186492
 20
1063.5
 30
0.0
 11
488.2410173763758
 21
1063.5
 31
0.0
  0
LINE
  5
250
330
39
100
AcDbEntity
  8
0
 62
     0
100
AcDbLine
 10
488.1137452597981
 20
1063.4
 30
0.0
 11
488.1878923763759
 21
1063.4
 31
0.0
  0
ENDBLK
  5
251
330
39
100
AcDbEntity
  8
0
100
AcDbBlockEnd
  0
BLOCK
  5
3D6
330
3CC
100
AcDbEntity
  8
0
100
AcDbBlockBegin
  2
*D12
 70
     1
 10
0.0
 20
0.0
 30
0.0
  3
*D12
  1

  0
LINE
  5
4FE
330
3CC
100
AcDbEntity
  8
BEM
 62
     0
370
    -2
100
AcDbLine
 10
482.9999999999998
 20
1057.465351782608
 30
0.0
 11
482.9999999999998
 21
1166.027424833679
 31
0.0
  0
LINE
  5
4FF
330
3CC
100
AcDbEntity
  8
BEM
 62
     0
370
    -2
100
AcDbLine
 10
641.9999999999998
 20
1057.465351782608
 30
0.0
 11
641.9999999999998
 21
1166.027424833679
 31
0.0
  0
LINE
  5
500
330
3CC
100
AcDbEntity
  8
BEM
 62
     0
370
    -2
100
AcDbLine
 10
500.4999999999998
 20
1161.027424833679
 30
0.0
 11
624.4999999999997
 21
1161.027424833679
 31
0.0
  0
SOLID
  5
501
330
3CC
100
AcDbEntity
  8
BEM
 62
     0
100
AcDbTrace
 10
500.4999999999998
 20
1163.944091500346
 30
0.0
 11
500.4999999999998
 21
1158.110758167012
 31
0.0
 12
482.9999999999998
 22
1161.027424833679
 32
0.0
 13
482.9999999999998
 23
1161.027424833679
 33
0.0
  0
SOLID
  5
502
330
3CC
100
AcDbEntity
  8
BEM
 62
     0
100
AcDbTrace
 10
624.4999999999997
 20
1163.944091500346
 30
0.0
 11
624.4999999999997
 21
1158.110758167012
 31
0.0
 12
641.9999999999998
 22
1161.027424833679
 32
0.0
 13
641.9999999999998
 23
1161.027424833679
 33
0.0
  0
MTEXT
  5
503
330
3CC
100
AcDbEntity
  8
BEM
 62
     1
100
AcDbMText
 10
562.4999999999998
 20
1177.277424833679
 30
0.0
 40
17.5
 41
0.0
 71
     5
 72
     1
  1
\A1;%%c159
  7
GREEKS
 73
     1
 44
1.0
  0
POINT
  5
504
330
3CC
100
AcDbEntity
  8
DEFPOINTS
 62
     0
100
AcDbPoint
 10
482.9999999999998
 20
1052.465351782609
 30
0.0
  0
POINT
  5
505
330
3CC
100
AcDbEntity
  8
DEFPOINTS
 62
     0
100
AcDbPoint
 10
641.9999999999998
 20
1052.465351782609
 30
0.0
  0
POINT
  5
506
330
3CC
100
AcDbEntity
  8
DEFPOINTS
 62
     0
100
AcDbPoint
 10
641.9999999999998
 20
1161.027424833679
 30
0.0
  0
ENDBLK
  5
3D7
330
3CC
100
AcDbEntity
  8
0
100
AcDbBlockEnd
  0
BLOCK
  5
42A
330
420
100
AcDbEntity
  8
0
100
AcDbBlockBegin
  2
*D19
 70
     1
 10
0.0
 20
0.0
 30
0.0
  3
*D19
  1

  0
LINE
  5
507
330
420
100
AcDbEntity
  8
BEM
 62
     0
370
    -2
100
AcDbLine
 10
395.55
 20
794.9930996972132
 30
0.0
 11
330.1770695740127
 21
794.9930996972132
 31
0.0
  0
LINE
  5
508
330
420
100
AcDbEntity
  8
BEM
 62
     0
370
    -2
100
AcDbLine
 10
470.7415552025936
 20
1139.993099697213
 30
0.0
 11
330.1770695740128
 21
1139.993099697213
 31
0.0
  0
LINE
  5
509
330
420
100
AcDbEntity
  8
BEM
 62
     0
370
    -2
100
AcDbLine
 10
335.1770695740127
 20
812.4930996972132
 30
0.0
 11
335.1770695740128
 21
1122.493099697213
 31
0.0
  0
SOLID
  5
50A
330
420
100
AcDbEntity
  8
BEM
 62
     0
100
AcDbTrace
 10
332.260402907346
 20
812.4930996972132
 30
0.0
 11
338.0937362406794
 21
812.4930996972132
 31
0.0
 12
335.1770695740127
 22
794.9930996972132
 32
0.0
 13
335.1770695740127
 23
794.9930996972132
 33
0.0
  0
SOLID
  5
50B
330
420
100
AcDbEntity
  8
BEM
 62
     0
100
AcDbTrace
 10
332.2604029073461
 20
1122.493099697213
 30
0.0
 11
338.0937362406795
 21
1122.493099697213
 31
0.0
 12
335.1770695740128
 22
1139.993099697213
 32
0.0
 13
335.1770695740128
 23
1139.993099697213
 33
0.0
  0
MTEXT
  5
50C
330
420
100
AcDbEntity
  8
BEM
 62
     1
100
AcDbMText
 10
318.9270695740126
 20
967.4930996972133
 30
0.0
 40
17.5
 41
0.0
 71
     5
 72
     1
  1
\A1;345
  7
GREEKS
 11
0.0000000000000001
 21
1.0
 31
0.0
 73
     1
 44
1.0
  0
POINT
  5
50D
330
420
100
AcDbEntity
  8
DEFPOINTS
 62
     0
100
AcDbPoint
 10
400.5499999999999
 20
794.9930996972132
 30
0.0
  0
POINT
  5
50E
330
420
100
AcDbEntity
  8
DEFPOINTS
 62
     0
100
AcDbPoint
 10
475.7415552025936
 20
1139.993099697213
 30
0.0
  0
POINT
  5
50F
330
420
100
AcDbEntity
  8
DEFPOINTS
 62
     0
100
AcDbPoint
 10
335.1770695740128
 20
1139.993099697213
 30
0.0
  0
ENDBLK
  5
42B
330
420
100
AcDbEntity
  8
0
100
AcDbBlockEnd
  0
BLOCK
  5
4C2
330
4B8
100
AcDbEntity
  8
0
100
AcDbBlockBegin
  2
*D22
 70
     1
 10
0.0
 20
0.0
 30
0.0
  3
*D22
  1

  0
LINE
  5
519
330
4B8
100
AcDbEntity
  8
BEM
 62
     0
370
    -2
100
AcDbLine
 10
400.5499999999999
 20
789.9930996972131
 30
0.0
 11
400.5499999999999
 21
739.7964898822226
 31
0.0
  0
LINE
  5
51A
330
4B8
100
AcDbEntity
  8
BEM
 62
     0
370
    -2
100
AcDbLine
 10
724.4499999999998
 20
789.9930996972131
 30
0.0
 11
724.4499999999998
 21
739.7964898822226
 31
0.0
  0
LINE
  5
51B
330
4B8
100
AcDbEntity
  8
BEM
 62
     0
370
    -2
100
AcDbLine
 10
418.0499999999999
 20
744.7964898822227
 30
0.0
 11
706.9499999999997
 21
744.7964898822227
 31
0.0
  0
SOLID
  5
51C
330
4B8
100
AcDbEntity
  8
BEM
 62
     0
100
AcDbTrace
 10
418.0499999999999
 20
747.7131565488893
 30
0.0
 11
418.0499999999999
 21
741.879823215556
 31
0.0
 12
400.5499999999999
 22
744.7964898822227
 32
0.0
 13
400.5499999999999
 23
744.7964898822227
 33
0.0
  0
SOLID
  5
51D
330
4B8
100
AcDbEntity
  8
BEM
 62
     0
100
AcDbTrace
 10
706.9499999999997
 20
747.7131565488893
 30
0.0
 11
706.9499999999997
 21
741.879823215556
 31
0.0
 12
724.4499999999998
 22
744.7964898822227
 32
0.0
 13
724.4499999999998
 23
744.7964898822227
 33
0.0
  0
MTEXT
  5
51E
330
4B8
100
AcDbEntity
  8
BEM
 62
     1
100
AcDbMText
 10
562.4999999999999
 20
761.0464898822226
 30
0.0
 40
17.5
 41
0.0
 71
     5
 72
     1
  1
\A1;%%c324
  7
GREEKS
 73
     1
 44
1.0
  0
POINT
  5
51F
330
4B8
100
AcDbEntity
  8
DEFPOINTS
 62
     0
100
AcDbPoint
 10
400.5499999999999
 20
794.9930996972132
 30
0.0
  0
POINT
  5
520
330
4B8
100
AcDbEntity
  8
DEFPOINTS
 62
     0
100
AcDbPoint
 10
724.4499999999998
 20
794.9930996972132
 30
0.0
  0
POINT
  5
521
330
4B8
100
AcDbEntity
  8
DEFPOINTS
 62
     0
100
AcDbPoint
 10
724.4499999999998
 20
744.7964898822227
 30
0.0
  0
ENDBLK
  5
4C3
330
4B8
100
AcDbEntity
  8
0
100
AcDbBlockEnd
  0
BLOCK
  5
4F3
330
4E9
100
AcDbEntity
  8
0
100
AcDbBlockBegin
  2
*D23
 70
     1
 10
0.0
 20
0.0
 30
0.0
  3
*D23
  1

  0
LINE
  5
510
330
4E9
100
AcDbEntity
  8
BEM
 62
     0
370
    -2
100
AcDbLine
 10
395.55
 20
794.9930996972132
 30
0.0
 11
350.7531646887068
 21
794.9930996972132
 31
0.0
  0
LINE
  5
511
330
4E9
100
AcDbEntity
  8
BEM
 62
     0
370
    -2
100
AcDbLine
 10
395.8270351180193
 20
874.993099697213
 30
0.0
 11
350.7531646887068
 21
874.993099697213
 31
0.0
  0
LINE
  5
512
330
4E9
100
AcDbEntity
  8
BEM
 62
     0
370
    -2
100
AcDbLine
 10
355.7531646887067
 20
812.4930996972132
 30
0.0
 11
355.7531646887067
 21
857.4930996972131
 31
0.0
  0
SOLID
  5
513
330
4E9
100
AcDbEntity
  8
BEM
 62
     0
100
AcDbTrace
 10
352.8364980220401
 20
812.4930996972132
 30
0.0
 11
358.6698313553735
 21
812.4930996972132
 31
0.0
 12
355.7531646887067
 22
794.9930996972132
 32
0.0
 13
355.7531646887067
 23
794.9930996972132
 33
0.0
  0
SOLID
  5
514
330
4E9
100
AcDbEntity
  8
BEM
 62
     0
100
AcDbTrace
 10
352.8364980220401
 20
857.4930996972131
 30
0.0
 11
358.6698313553735
 21
857.4930996972131
 31
0.0
 12
355.7531646887067
 22
874.993099697213
 32
0.0
 13
355.7531646887067
 23
874.993099697213
 33
0.0
  0
MTEXT
  5
515
330
4E9
100
AcDbEntity
  8
BEM
 62
     1
100
AcDbMText
 10
339.5031646887066
 20
833.1792127297561
 30
0.0
 40
17.5
 41
0.0
 71
     5
 72
     1
  1
\A1;min.80
  7
GREEKS
 11
0.0000000000000001
 21
1.0
 31
0.0
 73
     1
 44
1.0
  0
POINT
  5
516
330
4E9
100
AcDbEntity
  8
DEFPOINTS
 62
     0
100
AcDbPoint
 10
400.5499999999999
 20
794.9930996972132
 30
0.0
  0
POINT
  5
517
330
4E9
100
AcDbEntity
  8
DEFPOINTS
 62
     0
100
AcDbPoint
 10
400.8270351180192
 20
874.993099697213
 30
0.0
  0
POINT
  5
518
330
4E9
100
AcDbEntity
  8
DEFPOINTS
 62
     0
100
AcDbPoint
 10
355.7531646887067
 20
874.993099697213
 30
0.0
  0
ENDBLK
  5
4F4
330
4E9
100
AcDbEntity
  8
0
100
AcDbBlockEnd
  0
ENDSEC
  0
SECTION
  2
ENTITIES
  0
TEXT
  5
2C6
330
20
100
AcDbEntity
  8
TEXT
 62
     1
100
AcDbText
 10
478.6674728771919
 20
372.4962034412095
 30
0.0
 40
17.5
  1
Werkstoff: EN 10219 S235, E195 EN10305
 41
0.8
  7
GREEKS
100
AcDbText
  0
LINE
  5
2C7
330
20
100
AcDbEntity
  8
STEMPEL
100
AcDbLine
 10
684.0
 20
955.9930996972132
 30
0.0
 11
440.9999999999999
 21
955.9930996972132
 31
0.0
  0
LINE
  5
2C8
330
20
100
AcDbEntity
  8
STEMPEL
100
AcDbLine
 10
712.4999999999999
 20
904.9930996972133
 30
0.0
 11
412.4999999999999
 21
904.9930996972131
 31
0.0
  0
LINE
  5
2C9
330
20
100
AcDbEntity
  8
STEMPEL
100
AcDbLine
 10
724.4499999999998
 20
794.9930996972132
 30
0.0
 11
400.5499999999999
 21
794.9930996972132
 31
0.0
  0
INSERT
  5
2CB
330
20
100
AcDbEntity
  8
STEMPEL
100
AcDbBlockReference
  2
LOGO
 10
377.4888713644485
 20
112.552631911208
 30
0.0
 41
5.0
 42
5.0
 43
5.0
  0
TEXT
  5
2CC
330
20
100
AcDbEntity
  8
TEXT
100
AcDbText
 10
511.0540121453142
 20
157.7240979930877
 30
0.0
 40
10.0
  1
Koeh
 41
0.8
  7
GREEKS
 72
     1
 11
524.1968692881714
 21
157.7240979930877
 31
0.0
100
AcDbText
  0
LINE
  5
2CD
330
20
100
AcDbEntity
  8
HILF
100
AcDbLine
 10
1050.0
 20
0.0
 30
0.0
 11
0.0
 21
0.0
 31
0.0
  0
LINE
  5
2CE
330
20
100
AcDbEntity
  8
HILF
100
AcDbLine
 10
1050.0
 20
1485.0
 30
0.0
 11
0.0
 21
1485.0
 31
0.0
  0
LINE
  5
2CF
330
20
100
AcDbEntity
  8
STEMPEL
100
AcDbLine
 10
1025.0
 20
1460.0
 30
0.0
 11
99.99999999999971
 21
1460.0
 31
0.0
  0
LINE
  5
2D0
330
20
100
AcDbEntity
  8
STEMPEL
100
AcDbLine
 10
1025.0
 20
25.0
 30
0.0
 11
99.99999999999971
 21
25.0
 31
0.0
  0
LINE
  5
2D1
330
20
100
AcDbEntity
  8
STEMPEL
100
AcDbLine
 10
124.9999999999997
 20
25.0
 30
0.0
 11
1025.0
 21
25.0
 31
0.0
  0
TEXT
  5
2D2
330
20
100
AcDbEntity
  8
TEXT
100
AcDbText
 10
506.1566460565737
 20
183.2740272978806
 30
0.0
 40
10.0
  1
Name
 41
0.8
  7
GREEKS
100
AcDbText
  0
TEXT
  5
2D3
330
20
100
AcDbEntity
  8
TEXT
100
AcDbText
 10
485.7147386835128
 20
256.0460421087048
 30
0.0
 40
12.5
  1
Zul. Abw.
 41
0.8
  7
GREEKS
100
AcDbText
  0
LINE
  5
2D4
330
20
100
AcDbEntity
  8
HILF
100
AcDbLine
 10
365.0000000000003
 20
124.9999999999999
 30
0.0
 11
575.0
 21
124.9999999999999
 31
0.0
  0
LINE
  5
2D5
330
20
100
AcDbEntity
  8
HILF
100
AcDbLine
 10
365.0000000000003
 20
149.9999999999999
 30
0.0
 11
575.0
 21
149.9999999999999
 31
0.0
  0
LINE
  5
2D6
330
20
100
AcDbEntity
  8
HILF
100
AcDbLine
 10
365.0000000000003
 20
174.9999999999998
 30
0.0
 11
575.0
 21
174.9999999999998
 31
0.0
  0
LINE
  5
2D7
330
20
100
AcDbEntity
  8
STEMPEL
100
AcDbLine
 10
1025.0
 20
200.0
 30
0.0
 11
365.0000000000003
 21
199.9999999999998
 31
0.0
  0
LINE
  5
2D8
330
20
100
AcDbEntity
  8
STEMPEL
100
AcDbLine
 10
1025.0
 20
100.0
 30
0.0
 11
365.0000000000003
 21
99.99999999999992
 31
0.0
  0
LINE
  5
2D9
330
20
100
AcDbEntity
  8
STEMPEL
100
AcDbLine
 10
1025.0
 20
275.0000000000001
 30
0.0
 11
99.99999999999992
 21
275.0
 31
0.0
  0
LINE
  5
2DA
330
20
100
AcDbEntity
  8
HILF
100
AcDbLine
 10
0.0
 20
0.0
 30
0.0
 11
-0.0000000000002842
 21
1485.0
 31
0.0
  0
LINE
  5
2DB
330
20
100
AcDbEntity
  8
STEMPEL
100
AcDbLine
 10
100.0
 20
25.0
 30
0.0
 11
99.99999999999971
 21
1460.0
 31
0.0
  0
TEXT
  5
2DC
330
20
100
AcDbEntity
  8
TEXT
 62
     1
100
AcDbText
 10
308.3177830464542
 20
678.7142723561075
 30
0.0
 40
17.5
  1
Rohrende leicht entgratet
 41
0.8
  7
GREEKS
100
AcDbText
  0
TEXT
  5
2DD
330
20
100
AcDbEntity
  8
TEXT
100
AcDbText
 10
104.6377487744418
 20
279.1799999999999
 30
0.0
 40
12.5
  1
Erstellt mit AUTOCAD 2004
 41
0.8
  7
GREEKS
100
AcDbText
  0
TEXT
  5
2DE
330
20
100
AcDbEntity
  8
TEXT
100
AcDbText
 10
171.389117907297
 20
46.68454737460329
 30
0.0
 40
10.0
  1
Änderung
 41
0.8
  7
GREEKS
 72
     1
 11
198.2462607644399
 21
46.68454737460329
 31
0.0
100
AcDbText
  0
LINE
  5
2DF
330
20
100
AcDbEntity
  8
HILF
100
AcDbLine
 10
100.0000000000002
 20
99.99999999999992
 30
0.0
 11
365.0000000000003
 21
99.99999999999992
 31
0.0
  0
LINE
  5
2E0
330
20
100
AcDbEntity
  8
HILF
100
AcDbLine
 10
100.0000000000002
 20
124.9999999999999
 30
0.0
 11
365.0000000000003
 21
124.9999999999999
 31
0.0
  0
LINE
  5
2E1
330
20
100
AcDbEntity
  8
HILF
100
AcDbLine
 10
100.0000000000002
 20
149.9999999999999
 30
0.0
 11
365.0000000000003
 21
149.9999999999999
 31
0.0
  0
LINE
  5
2E2
330
20
100
AcDbEntity
  8
HILF
100
AcDbLine
 10
100.0000000000002
 20
174.9999999999998
 30
0.0
 11
365.0000000000003
 21
174.9999999999998
 31
0.0
  0
LINE
  5
2E3
330
20
100
AcDbEntity
  8
HILF
100
AcDbLine
 10
100.0000000000002
 20
199.9999999999998
 30
0.0
 11
365.0000000000003
 21
199.9999999999998
 31
0.0
  0
LINE
  5
2E4
330
20
100
AcDbEntity
  8
HILF
100
AcDbLine
 10
100.0000000000002
 20
225.0000000000001
 30
0.0
 11
365.0000000000003
 21
225.0000000000001
 31
0.0
  0
LINE
  5
2E5
330
20
100
AcDbEntity
  8
HILF
100
AcDbLine
 10
100.0000000000002
 20
250.0000000000001
 30
0.0
 11
365.0000000000003
 21
250.0000000000001
 31
0.0
  0
LINE
  5
2E6
330
20
100
AcDbEntity
  8
STEMPEL
100
AcDbLine
 10
364.9999999999997
 20
74.99999999999992
 30
0.0
 11
99.99999999999992
 21
74.99999999999992
 31
0.0
  0
TEXT
  5
2E7
330
20
100
AcDbEntity
  8
TEXT
100
AcDbText
 10
120.6660276761439
 20
34.13664615067979
 30
0.0
 40
10.0
  1
Index
 50
90.0
 41
0.8
  7
GREEKS
100
AcDbText
  0
LINE
  5
2E8
330
20
100
AcDbEntity
  8
VOLL
100
AcDbLine
 10
135.0000000000002
 20
275.0000000000001
 30
0.0
 11
134.9999999999999
 21
24.99999999999993
 31
0.0
  0
LINE
  5
2E9
330
20
100
AcDbEntity
  8
HILF
100
AcDbLine
 10
77.7191783928464
 20
742.5000000000001
 30
0.0
 11
0.0000000000002842
 21
742.5000000000001
 31
0.0
  0
TEXT
  5
2EA
330
20
100
AcDbEntity
  8
TEXT
100
AcDbText
 10
275.4658338547003
 20
46.67890673349525
 30
0.0
 40
10.0
  1
Tag
 41
0.8
  7
GREEKS
 72
     1
 11
284.7991671880336
 21
46.67890673349525
 31
0.0
100
AcDbText
  0
LINE
  5
2EB
330
20
100
AcDbEntity
  8
VOLL
100
AcDbLine
 10
310.0000000000003
 20
274.9999999999999
 30
0.0
 11
310.0
 21
24.99999999999993
 31
0.0
  0
LINE
  5
2EC
330
20
100
AcDbEntity
  8
VOLL
100
AcDbLine
 10
260.0000000000003
 20
274.9999999999999
 30
0.0
 11
260.0
 21
24.99999999999993
 31
0.0
  0
TEXT
  5
2ED
330
20
100
AcDbEntity
  8
TEXT
100
AcDbText
 10
321.8459001331948
 20
46.4831054241602
 30
0.0
 40
10.0
  1
Name
 41
0.8
  7
GREEKS
 72
     1
 11
337.6554239427186
 21
46.4831054241602
 31
0.0
100
AcDbText
  0
LINE
  5
2EE
330
20
100
AcDbEntity
  8
STEMPEL
100
AcDbLine
 10
365.0000000000003
 20
274.9999999999999
 30
0.0
 11
365.0
 21
24.99999999999993
 31
0.0
  0
TEXT
  5
2EF
330
20
100
AcDbEntity
  8
TEXT
100
AcDbText
 10
425.9974927705902
 20
157.7691260206433
 30
0.0
 40
10.0
  1
06.04.
 41
0.8
  7
GREEKS
 72
     1
 11
443.5213022943996
 21
157.7691260206433
 31
0.0
100
AcDbText
  0
TEXT
  5
2F0
330
20
100
AcDbEntity
  8
TEXT
100
AcDbText
 10
430.8279182884127
 20
183.2970125307481
 30
0.0
 40
10.0
  1
Tag
 41
0.8
  7
GREEKS
100
AcDbText
  0
TEXT
  5
2F1
330
20
100
AcDbEntity
  8
TEXT
100
AcDbText
 10
368.9590317919039
 20
159.0747592404491
 30
0.0
 40
10.0
  1
Gez.
 41
0.8
  7
GREEKS
100
AcDbText
  0
LINE
  5
2F2
330
20
100
AcDbEntity
  8
VOLL
100
AcDbLine
 10
410.0000000000003
 20
199.9999999999998
 30
0.0
 11
410.0000000000003
 21
99.99999999999992
 31
0.0
  0
TEXT
  5
2F3
330
20
100
AcDbEntity
  8
TEXT
100
AcDbText
 10
369.0016943468259
 20
108.8236597412452
 30
0.0
 40
10.0
  1
Norm.
 41
0.8
  7
GREEKS
100
AcDbText
  0
TEXT
  5
2F4
330
20
100
AcDbEntity
  8
TEXT
100
AcDbText
 10
368.8787716429181
 20
134.2231572857094
 30
0.0
 40
10.0
  1
Gepr.
 41
0.8
  7
GREEKS
100
AcDbText
  0
TEXT
  5
2F5
330
20
100
AcDbEntity
  8
TEXT
 62
     1
100
AcDbText
 10
401.2515766204717
 20
220.372535722849
 30
0.0
 40
17.5
  1
1:5
 41
0.8
  7
GREEKS
100
AcDbText
  0
TEXT
  5
2F6
330
20
100
AcDbEntity
  8
TEXT
100
AcDbText
 10
383.7908930375943
 20
256.1552237717722
 30
0.0
 40
12.5
  1
Maßstab
 41
0.8
  7
GREEKS
100
AcDbText
  0
TEXT
  5
2F7
330
20
100
AcDbEntity
  8
TEXT
100
AcDbText
 10
371.55527455526
 20
182.8506367787916
 30
0.0
 40
10.0
  1
2011
 41
0.8
  7
GREEKS
100
AcDbText
  0
LINE
  5
2F8
330
20
100
AcDbEntity
  8
VOLL
100
AcDbLine
 10
475.0000000000002
 20
274.9999999999996
 30
0.0
 11
475.0
 21
99.99999999999992
 31
0.0
  0
LINE
  5
2F9
330
20
100
AcDbEntity
  8
STEMPEL
100
AcDbLine
 10
400.5499999999999
 20
870.3673638079019
 30
0.0
 11
400.5499999999999
 21
794.9930996972132
 31
0.0
  0
LINE
  5
2FB
330
20
100
AcDbEntity
  8
HILF
100
AcDbLine
 10
1050.0
 20
-0.0000000000002842
 30
0.0
 11
1050.0
 21
1485.0
 31
0.0
  0
LINE
  5
2FC
330
20
100
AcDbEntity
  8
STEMPEL
100
AcDbLine
 10
1025.0
 20
25.0
 30
0.0
 11
1025.0
 21
1460.0
 31
0.0
  0
TEXT
  5
2FD
330
20
100
AcDbEntity
  8
TEXT
 62
     1
100
AcDbText
 10
598.6674728771919
 20
342.4962034412096
 30
0.0
 40
17.5
  1
feuerverzinkt und innen beschichtet
 41
0.8
  7
GREEKS
100
AcDbText
  0
TEXT
  5
2FE
330
20
100
AcDbEntity
  8
TEXT
100
AcDbText
 10
843.1002153742515
 20
130.185404446965
 30
0.0
 40
12.5
  1
ersetzt durch:
 41
0.8
  7
GREEKS
100
AcDbText
  0
TEXT
  5
2FF
330
20
100
AcDbEntity
  8
TEXT
100
AcDbText
 10
841.8096540742482
 20
182.9529559274992
 30
0.0
 40
12.5
  1
Ersatz für:
 41
0.8
  7
GREEKS
100
AcDbText
  0
TEXT
  5
300
330
20
100
AcDbEntity
  8
TEXT
100
AcDbText
 10
840.4468873940851
 20
255.7830086342841
 30
0.0
 40
12.5
  1
Zeichnungs Nr.
 41
0.8
  7
GREEKS
100
AcDbText
  0
LINE
  5
301
330
20
100
AcDbEntity
  8
HILF
100
AcDbLine
 10
583.7274248224712
 20
37.23495645070784
 30
0.0
 11
1012.147209831682
 21
37.23495645070784
 31
0.0
  0
LINE
  5
302
330
20
100
AcDbEntity
  8
HILF
100
AcDbLine
 10
841.8096540742482
 20
209.4495909238957
 30
0.0
 11
1012.147209831682
 21
209.4495909238957
 31
0.0
  0
LINE
  5
303
330
20
100
AcDbEntity
  8
VOLL
100
AcDbLine
 10
830.0
 20
150.0
 30
0.0
 11
1025.0
 21
150.0
 31
0.0
  0
TEXT
  5
304
330
20
100
AcDbEntity
  8
TEXT
100
AcDbText
 10
587.8240977813288
 20
178.7583604396322
 30
0.0
 40
12.5
  1
DN150/300 Muffenlos/Muffe
 41
0.8
  7
GREEKS
100
AcDbText
  0
TEXT
  5
305
330
20
100
AcDbEntity
  8
TEXT
100
AcDbText
 10
587.8240977813288
 20
129.100298576054
 30
0.0
 40
12.5
  1
EDV-Art.Nr. 06006.FK0X
 41
0.8
  7
GREEKS
100
AcDbText
  0
TEXT
  5
306
330
20
100
AcDbEntity
  8
TEXT
 62
     1
100
AcDbText
 10
586.206368455484
 20
218.5437197313445
 30
0.0
 40
17.5
  1
Übergangsrohr konzentrisch
 41
0.65
  7
GREEKS
100
AcDbText
  0
LINE
  5
307
330
20
100
AcDbEntity
  8
HILF
100
AcDbLine
 10
586.9342002742369
 20
124.9999999999999
 30
0.0
 11
812.0884791390775
 21
124.9999999999999
 31
0.0
  0
LINE
  5
308
330
20
100
AcDbEntity
  8
HILF
100
AcDbLine
 10
586.9342002742369
 20
149.9999999999999
 30
0.0
 11
812.0884791390775
 21
149.9999999999999
 31
0.0
  0
LINE
  5
309
330
20
100
AcDbEntity
  8
HILF
100
AcDbLine
 10
586.9342002742369
 20
174.9999999999998
 30
0.0
 11
812.0884791390775
 21
174.9999999999998
 31
0.0
  0
LINE
  5
30A
330
20
100
AcDbEntity
  8
HILF
100
AcDbLine
 10
586.9342002742369
 20
210.0939561891034
 30
0.0
 11
812.0884791390777
 21
210.0939561891034
 31
0.0
  0
LINE
  5
30B
330
20
100
AcDbEntity
  8
STEMPEL
100
AcDbLine
 10
575.0
 20
275.0000000000001
 30
0.0
 11
575.0
 21
24.99999999999993
 31
0.0
  0
TEXT
  5
30C
330
20
100
AcDbEntity
  8
TEXT
100
AcDbText
 10
587.4593753944567
 20
106.5743538255658
 30
0.0
 40
10.0
  1
06006FK0W.DWG
 41
0.8
  7
GREEKS
100
AcDbText
  0
TEXT
  5
30D
330
20
100
AcDbEntity
  8
TEXT
100
AcDbText
 10
586.8555959778399
 20
77.11401425482641
 30
0.0
 40
12.5
  1
Bauvorhaben
 41
0.8
  7
GREEKS
100
AcDbText
  0
TEXT
  5
30E
330
20
100
AcDbEntity
  8
TEXT
100
AcDbText
 10
587.1948509522525
 20
256.3723320029449
 30
0.0
 40
12.5
  1
Benennung
 41
0.8
  7
GREEKS
100
AcDbText
  0
LINE
  5
30F
330
20
100
AcDbEntity
  8
STEMPEL
100
AcDbLine
 10
830.0
 20
274.9999999999994
 30
0.0
 11
830.0
 21
100.0
 31
0.0
  0
TEXT
  5
310
330
20
100
AcDbEntity
  8
TEXT
 62
     1
100
AcDbText
 10
858.4526269690007
 20
220.372535722849
 30
0.0
 40
17.5
  1
06006FK0W
 41
0.8
  7
GREEKS
 72
     1
 11
918.1192936356675
 21
220.372535722849
 31
0.0
100
AcDbText
  0
LINE
  5
311
330
20
100
AcDbEntity
  8
MITTEL
100
AcDbLine
 10
562.4999999999999
 20
915.0562656305353
 30
0.0
 11
562.4999999999999
 21
784.9930996972132
 31
0.0
  0
LINE
  5
312
330
20
100
AcDbEntity
  8
MITTEL
100
AcDbLine
 10
562.4999999999998
 20
1149.993099697213
 30
0.0
 11
562.4999999999999
 21
1013.22343458852
 31
0.0
  0
LINE
  5
313
330
20
100
AcDbEntity
  8
STEMPEL
100
AcDbLine
 10
724.4499999999998
 20
870.3673638079019
 30
0.0
 11
724.4499999999998
 21
794.9930996972132
 31
0.0
  0
DIMENSION
  5
317
330
20
100
AcDbEntity
  8
BEM
100
AcDbDimension
  2
*D22
 10
724.4499999999998
 20
744.7964898822227
 30
0.0
 11
562.4999999999999
 21
761.0464898822226
 31
0.0
 70
    32
  1
%%c324
 71
     5
 42
323.8999999999998
  3
Standard
100
AcDbAlignedDimension
 13
400.5499999999999
 23
794.9930996972132
 33
0.0
 14
724.4499999999998
 24
794.9930996972132
 34
0.0
100
AcDbRotatedDimension
1001
ACAD
1000
DSTYLE
1002
{
1070
    40
1040
5.0
1070
    41
1040
3.5
1070
    42
1040
1.0
1070
    43
1040
7.0
1070
    44
1040
1.0
1070
    47
1040
2.0
1070
    48
1040
2.0
1070
    73
1070
     0
1070
    74
1070
     0
1070
    77
1070
     1
1070
    78
1070
     8
1070
    79
1070
     2
1070
   140
1040
3.5
1070
   141
1040
1.5
1070
   146
1040
0.5
1070
   147
1040
1.5
1070
   172
1070
     1
1070
   178
1070
     1
1070
   179
1070
     2
1070
   271
1070
     2
1070
   272
1070
     2
1070
   284
1070
     8
1070
   285
1070
     8
1070
   286
1070
     8
1070
   340
1005
4B
1002
}
  0
LINE
  5
318
330
20
100
AcDbEntity
  8
HILF
100
AcDbLine
 10
720.0083126000507
 20
874.1008486463737
 30
0.0
 11
404.9916873999505
 21
874.1008486463735
 31
0.0
  0
DIMENSION
  5
319
330
20
100
AcDbEntity
  8
BEM
100
AcDbDimension
  2
*D23
 10
355.7531646887067
 20
874.993099697213
 30
0.0
 11
355.7531646887067
 21
833.1792127297561
 31
0.0
 70
   160
  1
min.80
 71
     5
 42
79.99999999999989
  3
Standard
100
AcDbAlignedDimension
 13
400.5499999999999
 23
794.9930996972132
 33
0.0
 14
400.8270351180192
 24
874.993099697213
 34
0.0
 50
90.0
100
AcDbRotatedDimension
1001
ACAD
1000
DSTYLE
1002
{
1070
    40
1040
5.0
1070
    41
1040
3.5
1070
    42
1040
1.0
1070
    43
1040
7.0
1070
    44
1040
1.0
1070
    47
1040
2.0
1070
    48
1040
2.0
1070
    73
1070
     0
1070
    74
1070
     0
1070
    77
1070
     1
1070
    78
1070
     8
1070
    79
1070
     2
1070
   140
1040
3.5
1070
   141
1040
1.5
1070
   146
1040
0.5
1070
   147
1040
1.5
1070
   172
1070
     1
1070
   178
1070
     1
1070
   179
1070
     2
1070
   271
1070
     2
1070
   272
1070
     2
1070
   284
1070
     8
1070
   285
1070
     8
1070
   286
1070
     8
1070
   340
1005
4B
1002
}
  0
ARC
  5
31B
330
20
100
AcDbEntity
  8
SCHRAFF
100
AcDbCircle
 10
549.0081203858947
 20
904.9930996972133
 30
0.0
 40
4.133152828388964
100
AcDbArc
 50
313.4613832973278
 51
46.53861670267221
  0
ARC
  5
31C
330
20
100
AcDbEntity
  8
SCHRAFF
100
AcDbCircle
 10
539.0081203858946
 20
904.9930996972133
 30
0.0
 40
4.133152828388964
100
AcDbArc
 50
313.4613832973278
 51
46.53861670267221
  0
ARC
  5
31D
330
20
100
AcDbEntity
  8
SCHRAFF
100
AcDbCircle
 10
529.0081203858947
 20
904.9930996972133
 30
0.0
 40
4.133152828388964
100
AcDbArc
 50
313.4613832973278
 51
46.53861670267221
  0
ARC
  5
31E
330
20
100
AcDbEntity
  8
SCHRAFF
100
AcDbCircle
 10
509.0081203858947
 20
904.9930996972133
 30
0.0
 40
4.133152828388964
100
AcDbArc
 50
313.4613832973278
 51
46.53861670267221
  0
ARC
  5
31F
330
20
100
AcDbEntity
  8
SCHRAFF
100
AcDbCircle
 10
519.0081203858946
 20
904.9930996972133
 30
0.0
 40
4.133152828388964
100
AcDbArc
 50
313.4613832973278
 51
46.53861670267221
  0
ARC
  5
320
330
20
100
AcDbEntity
  8
SCHRAFF
100
AcDbCircle
 10
479.0081203858947
 20
904.9930996972133
 30
0.0
 40
4.133152828388964
100
AcDbArc
 50
313.4613832973278
 51
46.53861670267221
  0
ARC
  5
321
330
20
100
AcDbEntity
  8
SCHRAFF
100
AcDbCircle
 10
469.0081203858946
 20
904.9930996972133
 30
0.0
 40
4.133152828388964
100
AcDbArc
 50
313.4613832973278
 51
46.53861670267221
  0
ARC
  5
322
330
20
100
AcDbEntity
  8
SCHRAFF
100
AcDbCircle
 10
489.0081203858946
 20
904.9930996972133
 30
0.0
 40
4.133152828388964
100
AcDbArc
 50
313.4613832973278
 51
46.53861670267221
  0
ARC
  5
323
330
20
100
AcDbEntity
  8
SCHRAFF
100
AcDbCircle
 10
499.0081203858947
 20
904.9930996972133
 30
0.0
 40
4.133152828388964
100
AcDbArc
 50
313.4613832973278
 51
46.53861670267221
  0
ARC
  5
324
330
20
100
AcDbEntity
  8
SCHRAFF
100
AcDbCircle
 10
429.0081203858947
 20
904.9930996972133
 30
0.0
 40
4.133152828388964
100
AcDbArc
 50
313.4613832973278
 51
46.53861670267221
  0
ARC
  5
325
330
20
100
AcDbEntity
  8
SCHRAFF
100
AcDbCircle
 10
419.0081203858947
 20
904.9930996972133
 30
0.0
 40
4.133152828388964
100
AcDbArc
 50
313.4613832973278
 51
46.53861670267221
  0
ARC
  5
326
330
20
100
AcDbEntity
  8
SCHRAFF
100
AcDbCircle
 10
439.0081203858947
 20
904.9930996972133
 30
0.0
 40
4.133152828388964
100
AcDbArc
 50
313.4613832973278
 51
46.53861670267221
  0
ARC
  5
327
330
20
100
AcDbEntity
  8
SCHRAFF
100
AcDbCircle
 10
459.0081203858948
 20
904.9930996972133
 30
0.0
 40
4.133152828388964
100
AcDbArc
 50
313.4613832973278
 51
46.53861670267221
  0
ARC
  5
328
330
20
100
AcDbEntity
  8
SCHRAFF
100
AcDbCircle
 10
449.0081203858947
 20
904.9930996972133
 30
0.0
 40
4.133152828388964
100
AcDbArc
 50
313.4613832973278
 51
46.53861670267221
  0
ARC
  5
329
330
20
100
AcDbEntity
  8
SCHRAFF
100
AcDbCircle
 10
454.1584602962522
 20
955.9930996972132
 30
0.0
 40
4.133152828388964
100
AcDbArc
 50
313.4613832973278
 51
46.53861670267221
  0
ARC
  5
32A
330
20
100
AcDbEntity
  8
SCHRAFF
100
AcDbCircle
 10
464.1584602962522
 20
955.9930996972132
 30
0.0
 40
4.133152828388964
100
AcDbArc
 50
313.4613832973278
 51
46.53861670267221
  0
ARC
  5
32B
330
20
100
AcDbEntity
  8
SCHRAFF
100
AcDbCircle
 10
494.1584602962522
 20
955.9930996972132
 30
0.0
 40
4.133152828388964
100
AcDbArc
 50
313.4613832973278
 51
46.53861670267221
  0
ARC
  5
32C
330
20
100
AcDbEntity
  8
SCHRAFF
100
AcDbCircle
 10
474.1584602962522
 20
955.9930996972132
 30
0.0
 40
4.133152828388964
100
AcDbArc
 50
313.4613832973278
 51
46.53861670267221
  0
ARC
  5
32D
330
20
100
AcDbEntity
  8
SCHRAFF
100
AcDbCircle
 10
484.1584602962521
 20
955.9930996972132
 30
0.0
 40
4.133152828388964
100
AcDbArc
 50
313.4613832973278
 51
46.53861670267221
  0
ARC
  5
32E
330
20
100
AcDbEntity
  8
SCHRAFF
100
AcDbCircle
 10
504.1584602962521
 20
955.9930996972132
 30
0.0
 40
4.133152828388964
100
AcDbArc
 50
313.4613832973278
 51
46.53861670267221
  0
ARC
  5
32F
330
20
100
AcDbEntity
  8
SCHRAFF
100
AcDbCircle
 10
524.1584602962522
 20
955.9930996972132
 30
0.0
 40
4.133152828388964
100
AcDbArc
 50
313.4613832973278
 51
46.53861670267221
  0
ARC
  5
330
330
20
100
AcDbEntity
  8
SCHRAFF
100
AcDbCircle
 10
514.1584602962522
 20
955.9930996972132
 30
0.0
 40
4.133152828388964
100
AcDbArc
 50
313.4613832973278
 51
46.53861670267221
  0
ARC
  5
331
330
20
100
AcDbEntity
  8
SCHRAFF
100
AcDbCircle
 10
534.1584602962521
 20
955.9930996972132
 30
0.0
 40
4.133152828388964
100
AcDbArc
 50
313.4613832973278
 51
46.53861670267221
  0
ARC
  5
332
330
20
100
AcDbEntity
  8
SCHRAFF
100
AcDbCircle
 10
544.1584602962522
 20
955.9930996972132
 30
0.0
 40
4.133152828388964
100
AcDbArc
 50
313.4613832973278
 51
46.53861670267221
  0
ARC
  5
333
330
20
100
AcDbEntity
  8
SCHRAFF
100
AcDbCircle
 10
554.1584602962521
 20
955.9930996972132
 30
0.0
 40
4.133152828388964
100
AcDbArc
 50
313.4613832973278
 51
46.53861670267221
  0
ARC
  5
334
330
20
100
AcDbEntity
  8
SCHRAFF
100
AcDbCircle
 10
444.1584602962522
 20
955.9930996972132
 30
0.0
 40
4.133152828388964
100
AcDbArc
 50
313.4613832973278
 51
46.53861670267221
  0
TEXT
  5
339
330
20
100
AcDbEntity
  8
TEXT
 62
     1
100
AcDbText
 10
918.1192936356675
 20
157.4029598834335
 30
0.0
 40
17.5
  1

 41
0.8
  7
GREEKS
 72
     1
 11
918.1192936356675
 21
157.4029598834335
 31
0.0
100
AcDbText
  0
TEXT
  5
33A
330
20
100
AcDbEntity
  8
TEXT
 62
     1
100
AcDbText
 10
554.9127487230454
 20
1069.766034189691
 30
0.0
 40
17.5
  1
DN150
 50
90.0
 41
0.8
  7
GREEKS
100
AcDbText
  0
TEXT
  5
33B
330
20
100
AcDbEntity
  8
TEXT
 62
     1
100
AcDbText
 10
554.9127487230454
 20
803.0846950278554
 30
0.0
 40
17.5
  1
DN300
 50
90.0
 41
0.8
  7
GREEKS
100
AcDbText
  0
LINE
  5
33C
330
20
100
AcDbEntity
  8
STEMPEL
100
AcDbLine
 10
723.1030467433992
 20
877.5828920067626
 30
0.0
 11
712.4999999999999
 21
904.9930996972133
 31
0.0
  0
ARC
  5
33E
330
20
100
AcDbEntity
  8
STEMPEL
100
AcDbCircle
 10
704.4499999999998
 20
870.3673638079019
 30
0.0
 40
20.0
100
AcDbArc
 50
0.0
 51
21.14788566784504
  0
LINE
  5
340
330
20
100
AcDbEntity
  8
STEMPEL
100
AcDbLine
 10
401.8969532566005
 20
877.5828920067626
 30
0.0
 11
412.4999999999999
 21
904.9930996972133
 31
0.0
  0
ARC
  5
341
330
20
100
AcDbEntity
  8
STEMPEL
100
AcDbCircle
 10
420.5499999999999
 20
870.3673638079019
 30
0.0
 40
20.0
100
AcDbArc
 50
158.852114332155
 51
180.0
  0
LINE
  5
342
330
20
100
AcDbEntity
  8
STEMPEL
100
AcDbLine
 10
684.0
 20
955.9930996972132
 30
0.0
 11
712.4999999999999
 21
904.9930996972133
 31
0.0
  0
LINE
  5
344
330
20
100
AcDbEntity
  8
STEMPEL
100
AcDbLine
 10
440.9999999999999
 20
955.9930996972132
 30
0.0
 11
412.5
 21
904.9930996972133
 31
0.0
  0
ARC
  5
345
330
20
100
AcDbEntity
  8
SCHRAFF
100
AcDbCircle
 10
442.8390113944856
 20
954.9832683854651
 30
0.0
 40
4.039725854378693
100
AcDbArc
 50
93.30579887824537
 51
209.5148709700327
  0
ARC
  5
346
330
20
100
AcDbEntity
  8
SCHRAFF
100
AcDbCircle
 10
413.9509361109015
 20
904.4290450772937
 30
0.0
 40
3.571183436094376
100
AcDbArc
 50
86.37913335253244
 51
223.0088662272322
  0
ARC
  5
347
330
20
100
AcDbEntity
  8
SCHRAFF
100
AcDbCircle
 10
711.0490638890983
 20
904.4290450772937
 30
0.0
 40
3.571183436094376
100
AcDbArc
 50
316.9911337727679
 51
93.62086664746755
  0
ARC
  5
348
330
20
100
AcDbEntity
  8
SCHRAFF
100
AcDbCircle
 10
682.1609886055142
 20
954.9832683854651
 30
0.0
 40
4.039725854378693
100
AcDbArc
 50
330.4851290299673
 51
86.69420112175384
  0
LINE
  5
352
330
20
100
AcDbEntity
  8
STEMPEL
  6
Continuous
100
AcDbLine
 10
646.9999999999997
 20
1083.493099697213
 30
0.0
 11
646.9999999999997
 21
1068.43407120528
 31
0.0
  0
LINE
  5
353
330
20
100
AcDbEntity
  8
STEMPEL
  6
Continuous
100
AcDbLine
 10
477.9999999999998
 20
1083.493099697213
 30
0.0
 11
477.9999999999998
 21
1068.43407120528
 31
0.0
  0
LINE
  5
354
330
20
100
AcDbEntity
  8
HILF
  6
Continuous
100
AcDbLine
 10
484.9289189427517
 20
1056.200441186779
 30
0.0
 11
640.0710810572432
 21
1056.200441186779
 31
0.0
  0
LINE
  5
355
330
20
100
AcDbEntity
  8
HILF
  6
Continuous
100
AcDbLine
 10
481.2081405109851
 20
1063.802560344109
 30
0.0
 11
643.7918594890179
 21
1063.802560344109
 31
0.0
  0
ARC
  5
356
330
20
100
AcDbEntity
  8
STEMPEL
  6
Continuous
100
AcDbCircle
 10
472.9999999999998
 20
1052.465351782609
 30
0.0
 40
10.0
100
AcDbArc
 50
0.0
 51
34.7719440319485
  0
ARC
  5
357
330
20
100
AcDbEntity
  8
STEMPEL
  6
Continuous
100
AcDbCircle
 10
495.9999999999998
 20
1068.43407120528
 30
0.0
 40
18.0
100
AcDbArc
 50
180.0
 51
214.7719440319486
  0
LINE
  5
358
330
20
100
AcDbEntity
  8
STEMPEL
  6
Continuous
100
AcDbLine
 10
482.9999999999998
 20
1052.465351782609
 30
0.0
 11
482.9999999999998
 21
1037.493099697212
 31
0.0
  0
ARC
  5
35A
330
20
100
AcDbEntity
  8
STEMPEL
  6
Continuous
100
AcDbCircle
 10
651.9999999999997
 20
1052.465351782609
 30
0.0
 40
10.0
100
AcDbArc
 50
145.2280559680515
 51
180.0
  0
ARC
  5
35B
330
20
100
AcDbEntity
  8
STEMPEL
  6
Continuous
100
AcDbCircle
 10
628.9999999999998
 20
1068.43407120528
 30
0.0
 40
18.0
100
AcDbArc
 50
325.2280559680514
 51
0.0
  0
LINE
  5
35D
330
20
100
AcDbEntity
  8
STEMPEL
  6
Continuous
100
AcDbLine
 10
641.9999999999998
 20
1052.465351782609
 30
0.0
 11
641.9999999999998
 21
1037.493099697213
 31
0.0
  0
LINE
  5
35F
330
20
100
AcDbEntity
  8
STEMPEL
  6
Continuous
100
AcDbLine
 10
649.2584447974059
 20
1139.993099697213
 30
0.0
 11
475.7415552025936
 21
1139.993099697213
 31
0.0
  0
LINE
  5
360
330
20
100
AcDbEntity
  8
HILF
  6
Continuous
100
AcDbLine
 10
479.8960590299533
 20
1088.432414940913
 30
0.0
 11
535.1289416026296
 21
1088.432414940913
 31
0.0
  0
ARC
  5
361
330
20
100
AcDbEntity
  8
STEMPEL
  6
Continuous
100
AcDbCircle
 10
506.9999999999999
 20
1124.209995479279
 30
0.0
 40
35.0
100
AcDbArc
 50
155.0000000000069
 51
180.0
  0
ARC
  5
362
330
20
100
AcDbEntity
  8
STEMPEL
  6
Continuous
100
AcDbCircle
 10
506.9999999999999
 20
1107.988099697213
 30
0.0
 40
35.00004740563918
100
AcDbArc
 50
179.905698550909
 51
207.527183620552
  0
LINE
  5
363
330
20
100
AcDbEntity
  8
STEMPEL
  6
Continuous
100
AcDbLine
 10
471.9999999999997
 20
1124.209995479279
 30
0.0
 11
471.9999999999997
 21
1108.04570522639
 31
0.0
  0
ARC
  5
364
330
20
100
AcDbEntity
  8
STEMPEL
  6
Continuous
100
AcDbCircle
 10
459.9999999999998
 20
1083.493099697213
 30
0.0
 40
18.0
100
AcDbArc
 50
0.0
 51
27.52718362055202
  0
LINE
  5
365
330
20
100
AcDbEntity
  8
STEMPEL
  6
Continuous
100
AcDbLine
 10
475.7415552025936
 20
1139.993099697213
 30
0.0
 11
475.279227453717
 21
1139.001634640203
 31
0.0
  0
ARC
  5
367
330
20
100
AcDbEntity
  8
STEMPEL
  6
Continuous
100
AcDbCircle
 10
617.9999999999997
 20
1124.209995479279
 30
0.0
 40
35.0
100
AcDbArc
 50
0.0
 51
24.99999999998988
  0
ARC
  5
368
330
20
100
AcDbEntity
  8
STEMPEL
  6
Continuous
100
AcDbCircle
 10
617.9999999999997
 20
1107.988099697213
 30
0.0
 40
35.00004740563918
100
AcDbArc
 50
332.472816379448
 51
0.0943014490909915
  0
ARC
  5
36B
330
20
100
AcDbEntity
  8
STEMPEL
  6
Continuous
100
AcDbCircle
 10
664.9999999999997
 20
1083.493099697213
 30
0.0
 40
18.0
100
AcDbArc
 50
152.472816379448
 51
180.0
  0
LINE
  5
36D
330
20
100
AcDbEntity
  8
STEMPEL
  6
Continuous
100
AcDbLine
 10
652.9999999999997
 20
1124.209995479279
 30
0.0
 11
652.9999999999997
 21
1108.04570522639
 31
0.0
  0
LINE
  5
36F
330
20
100
AcDbEntity
  8
STEMPEL
  6
Continuous
100
AcDbLine
 10
649.258444797406
 20
1139.993099697213
 30
0.0
 11
649.7207725462825
 21
1139.001634640203
 31
0.0
  0
LINE
  5
370
330
20
100
AcDbEntity
  8
STEMPEL
  6
Continuous
100
AcDbLine
 10
649.9999999999999
 20
1019.993099697213
 30
0.0
 11
474.9999999999998
 21
1019.993099697213
 31
0.0
  0
INSERT
  5
371
330
20
100
AcDbEntity
  8
SCHRAFF
100
AcDbBlockReference
  2
*X6
 10
-14.74699046825583
 20
-46.34167318161951
 30
0.0
1001
ACAD
1000
HATCH
1002
{
1070
    16
1000
_U,I
1040
0.1
1040
0.0
1070
     0
1002
}
  0
LINE
  5
372
330
20
100
AcDbEntity
  8
HILF
  6
Continuous
100
AcDbLine
 10
639.7525512860839
 20
1034.993099697213
 30
0.0
 11
485.2474487139158
 21
1034.993099697213
 31
0.0
  0
LINE
  5
373
330
20
100
AcDbEntity
  8
STEMPEL
100
AcDbLine
 10
643.1764705882351
 20
1032.787217344272
 30
0.0
 11
649.9999999999999
 21
1019.993099697213
 31
0.0
  0
ARC
  5
375
330
20
100
AcDbEntity
  8
STEMPEL
100
AcDbCircle
 10
651.9999999999997
 20
1037.493099697213
 30
0.0
 40
10.0
100
AcDbArc
 50
180.0
 51
208.0724869358533
  0
ARC
  5
377
330
20
100
AcDbEntity
  8
STEMPEL
100
AcDbCircle
 10
472.9999999999997
 20
1037.493099697212
 30
0.0
 40
10.0
100
AcDbArc
 50
331.927513064147
 51
0.0000000000002485
  0
LINE
  5
378
330
20
100
AcDbEntity
  8
STEMPEL
100
AcDbLine
 10
481.8235294117644
 20
1032.787217344271
 30
0.0
 11
474.9999999999996
 21
1019.993099697212
 31
0.0
  0
LINE
  5
379
330
20
100
AcDbEntity
  8
STEMPEL
100
AcDbLine
 10
649.9999999999999
 20
1019.993099697213
 30
0.0
 11
684.0
 21
955.9930996972132
 31
0.0
  0
LINE
  5
37A
330
20
100
AcDbEntity
  8
STEMPEL
100
AcDbLine
 10
474.9999999999998
 20
1019.993099697213
 30
0.0
 11
440.9999999999999
 21
955.9930996972132
 31
0.0
  0
INSERT
  5
37C
330
20
100
AcDbEntity
  8
SCHRAFF
100
AcDbBlockReference
  2
*X7
 10
-14.74699046825583
 20
-46.34167318161951
 30
0.0
1001
ACAD
1000
HATCH
1002
{
1070
    16
1000
_U,I
1040
0.1
1040
0.0
1070
     0
1002
}
  0
ARC
  5
37D
330
20
100
AcDbEntity
  8
SCHRAFF
100
AcDbCircle
 10
476.7508191393733
 20
1019.062816670942
 30
0.0
 40
3.933175699023967
100
AcDbArc
 50
92.19756753044405
 51
211.7504309587441
  0
INSERT
  5
37E
330
20
100
AcDbEntity
  8
SCHRAFF
100
AcDbBlockReference
  2
*X8
 10
-14.74699046825583
 20
-46.34167318161951
 30
0.0
1001
ACAD
1000
HATCH
1002
{
1070
    16
1000
_U,I
1040
0.1
1040
0.0
1070
     0
1002
}
  0
INSERT
  5
37F
330
20
100
AcDbEntity
  8
SCHRAFF
100
AcDbBlockReference
  2
*X8
 10
1139.746990468261
 20
-46.34167318161632
 30
0.0
 41
-1.0
 50
0.0000000000003197
1001
ACAD
1000
HATCH
1002
{
1070
    16
1000
_U,I
1040
0.1
1040
0.0
1070
     0
1002
}
  0
ARC
  5
380
330
20
100
AcDbEntity
  8
SCHRAFF
100
AcDbCircle
 10
648.2491808606263
 20
1019.062816670943
 30
0.0
 40
3.933175699023967
100
AcDbArc
 50
328.2495690412562
 51
87.80243246955626
  0
ARC
  5
383
330
20
100
AcDbEntity
  8
SCHRAFF
100
AcDbCircle
 10
488.2528885708817
 20
1019.993099697213
 30
0.0
 40
4.133152828388964
100
AcDbArc
 50
313.4613832973278
 51
46.53861670267221
  0
ARC
  5
384
330
20
100
AcDbEntity
  8
SCHRAFF
100
AcDbCircle
 10
478.2528885708817
 20
1019.993099697213
 30
0.0
 40
4.133152828388964
100
AcDbArc
 50
313.4613832973278
 51
46.53861670267221
  0
ARC
  5
385
330
20
100
AcDbEntity
  8
SCHRAFF
100
AcDbCircle
 10
508.2528885708817
 20
1019.993099697213
 30
0.0
 40
4.133152828388964
100
AcDbArc
 50
313.4613832973278
 51
46.53861670267221
  0
ARC
  5
386
330
20
100
AcDbEntity
  8
SCHRAFF
100
AcDbCircle
 10
498.2528885708817
 20
1019.993099697213
 30
0.0
 40
4.133152828388964
100
AcDbArc
 50
313.4613832973278
 51
46.53861670267221
  0
ARC
  5
387
330
20
100
AcDbEntity
  8
SCHRAFF
100
AcDbCircle
 10
518.2528885708817
 20
1019.993099697213
 30
0.0
 40
4.133152828388964
100
AcDbArc
 50
313.4613832973278
 51
46.53861670267221
  0
ARC
  5
388
330
20
100
AcDbEntity
  8
SCHRAFF
100
AcDbCircle
 10
528.2528885708817
 20
1019.993099697213
 30
0.0
 40
4.133152828388964
100
AcDbArc
 50
313.4613832973278
 51
46.53861670267221
  0
ARC
  5
389
330
20
100
AcDbEntity
  8
SCHRAFF
100
AcDbCircle
 10
548.2528885708817
 20
1019.993099697213
 30
0.0
 40
4.133152828388964
100
AcDbArc
 50
313.4613832973278
 51
46.53861670267221
  0
ARC
  5
38A
330
20
100
AcDbEntity
  8
SCHRAFF
100
AcDbCircle
 10
538.2528885708817
 20
1019.993099697213
 30
0.0
 40
4.133152828388964
100
AcDbArc
 50
313.4613832973278
 51
46.53861670267221
  0
ARC
  5
38B
330
20
100
AcDbEntity
  8
SCHRAFF
100
AcDbCircle
 10
558.2528885708817
 20
1019.993099697213
 30
0.0
 40
4.133152828388964
100
AcDbArc
 50
313.4613832973278
 51
46.53861670267221
  0
DIMENSION
  5
38E
330
20
100
AcDbEntity
  8
BEM
100
AcDbDimension
  2
*D19
 10
335.1770695740128
 20
1139.993099697213
 30
0.0
 11
318.9270695740126
 21
967.4930996972133
 31
0.0
 70
    32
 71
     5
 42
344.9999999999997
  3
Standard
100
AcDbAlignedDimension
 13
400.5499999999999
 23
794.9930996972132
 33
0.0
 14
475.7415552025936
 24
1139.993099697213
 34
0.0
 50
90.0
100
AcDbRotatedDimension
1001
ACAD
1000
DSTYLE
1002
{
1070
    40
1040
5.0
1070
    41
1040
3.5
1070
    42
1040
1.0
1070
    43
1040
7.0
1070
    44
1040
1.0
1070
    47
1040
2.0
1070
    48
1040
2.0
1070
    73
1070
     0
1070
    74
1070
     0
1070
    77
1070
     1
1070
    78
1070
     8
1070
    79
1070
     2
1070
   140
1040
3.5
1070
   141
1040
1.5
1070
   146
1040
0.5
1070
   147
1040
1.5
1070
   172
1070
     1
1070
   178
1070
     1
1070
   179
1070
     2
1070
   271
1070
     2
1070
   272
1070
     2
1070
   284
1070
     8
1070
   285
1070
     8
1070
   286
1070
     8
1070
   340
1005
4B
1002
}
  0
DIMENSION
  5
392
330
20
100
AcDbEntity
  8
BEM
100
AcDbDimension
  2
*D12
 10
641.9999999999998
 20
1161.027424833679
 30
0.0
 11
562.4999999999998
 21
1177.277424833679
 31
0.0
 70
    32
  1
%%c<>
 71
     5
 42
158.9999999999999
  3
Standard
100
AcDbAlignedDimension
 13
482.9999999999998
 23
1052.465351782609
 33
0.0
 14
641.9999999999998
 24
1052.465351782609
 34
0.0
100
AcDbRotatedDimension
1001
ACAD
1000
DSTYLE
1002
{
1070
    40
1040
5.0
1070
    41
1040
3.5
1070
    42
1040
1.0
1070
    43
1040
7.0
1070
    44
1040
1.0
1070
    47
1040
2.0
1070
    48
1040
2.0
1070
    73
1070
     0
1070
    74
1070
     0
1070
    77
1070
     1
1070
    78
1070
     8
1070
    79
1070
     2
1070
   140
1040
3.5
1070
   141
1040
1.5
1070
   146
1040
0.5
1070
   147
1040
1.5
1070
   172
1070
     1
1070
   178
1070
     1
1070
   179
1070
     2
1070
   271
1070
     2
1070
   272
1070
     2
1070
   284
1070
     8
1070
   285
1070
     8
1070
   286
1070
     8
1070
   340
1005
4B
1002
}
  0
LINE
  5
394
330
20
100
AcDbEntity
  8
HILF
  6
Continuous
100
AcDbLine
 10
559.299368969355
 20
1088.432414940913
 30
0.0
 11
645.1039409700475
 21
1088.432414940913
 31
0.0
  0
TEXT
  5
397
330
20
100
AcDbEntity
  8
BEM
100
AcDbText
 10
1041.452885359359
 20
30.37012038345757
 30
0.0
 40
10.0
  1
Diese Zeichnung ist urheberrechtlich geschützt und bleibt unser Eigentum. Sie darf weder ganz noch teilweise vervielfältigt und nicht an Dritte weitergegeben werden.
 50
90.0
 41
0.8
  7
GREEKS
100
AcDbText
  0
TEXT
  5
398
330
20
100
AcDbEntity
  8
TEXT
100
AcDbText
 10
481.7206788119809
 20
225.9343496859663
 30
0.0
 40
10.0
  1
DIN EN1123-2
 41
0.8
  7
GREEKS
 72
     1
 11
524.1968692881714
 21
225.9343496859663
 31
0.0
100
AcDbText
  0
LINE
  5
468
330
20
100
AcDbEntity
  8
MITTEL
100
AcDbLine
 10
562.4999999999999
 20
975.8576738100334
 30
0.0
 11
562.4999999999999
 21
948.713370978694
 31
0.0
  0
ARC
  5
48B
330
20
100
AcDbEntity
  8
SCHRAFF
100
AcDbCircle
 10
638.2528885708817
 20
1019.993099697213
 30
0.0
 40
4.133152828388964
100
AcDbArc
 50
313.4613832973278
 51
46.53861670267221
  0
ARC
  5
48C
330
20
100
AcDbEntity
  8
SCHRAFF
100
AcDbCircle
 10
618.2528885708817
 20
1019.993099697213
 30
0.0
 40
4.133152828388964
100
AcDbArc
 50
313.4613832973278
 51
46.53861670267221
  0
ARC
  5
48D
330
20
100
AcDbEntity
  8
SCHRAFF
100
AcDbCircle
 10
628.2528885708817
 20
1019.993099697213
 30
0.0
 40
4.133152828388964
100
AcDbArc
 50
313.4613832973278
 51
46.53861670267221
  0
ARC
  5
48E
330
20
100
AcDbEntity
  8
SCHRAFF
100
AcDbCircle
 10
608.2528885708817
 20
1019.993099697213
 30
0.0
 40
4.133152828388964
100
AcDbArc
 50
313.4613832973278
 51
46.53861670267221
  0
ARC
  5
48F
330
20
100
AcDbEntity
  8
SCHRAFF
100
AcDbCircle
 10
598.2528885708817
 20
1019.993099697213
 30
0.0
 40
4.133152828388964
100
AcDbArc
 50
313.4613832973278
 51
46.53861670267221
  0
ARC
  5
490
330
20
100
AcDbEntity
  8
SCHRAFF
100
AcDbCircle
 10
578.2528885708817
 20
1019.993099697213
 30
0.0
 40
4.133152828388964
100
AcDbArc
 50
313.4613832973278
 51
46.53861670267221
  0
ARC
  5
491
330
20
100
AcDbEntity
  8
SCHRAFF
100
AcDbCircle
 10
588.2528885708817
 20
1019.993099697213
 30
0.0
 40
4.133152828388964
100
AcDbArc
 50
313.4613832973278
 51
46.53861670267221
  0
ARC
  5
492
330
20
100
AcDbEntity
  8
SCHRAFF
100
AcDbCircle
 10
568.2528885708817
 20
1019.993099697213
 30
0.0
 40
4.133152828388964
100
AcDbArc
 50
313.4613832973278
 51
46.53861670267221
  0
ARC
  5
493
330
20
100
AcDbEntity
  8
SCHRAFF
100
AcDbCircle
 10
664.158460296252
 20
955.9930996972132
 30
0.0
 40
4.133152828388964
100
AcDbArc
 50
313.4613832973278
 51
46.53861670267221
  0
ARC
  5
494
330
20
100
AcDbEntity
  8
SCHRAFF
100
AcDbCircle
 10
654.1584602962521
 20
955.9930996972132
 30
0.0
 40
4.133152828388964
100
AcDbArc
 50
313.4613832973278
 51
46.53861670267221
  0
ARC
  5
495
330
20
100
AcDbEntity
  8
SCHRAFF
100
AcDbCircle
 10
644.1584602962521
 20
955.9930996972132
 30
0.0
 40
4.133152828388964
100
AcDbArc
 50
313.4613832973278
 51
46.53861670267221
  0
ARC
  5
496
330
20
100
AcDbEntity
  8
SCHRAFF
100
AcDbCircle
 10
624.1584602962521
 20
955.9930996972132
 30
0.0
 40
4.133152828388964
100
AcDbArc
 50
313.4613832973278
 51
46.53861670267221
  0
ARC
  5
497
330
20
100
AcDbEntity
  8
SCHRAFF
100
AcDbCircle
 10
634.158460296252
 20
955.9930996972132
 30
0.0
 40
4.133152828388964
100
AcDbArc
 50
313.4613832973278
 51
46.53861670267221
  0
ARC
  5
498
330
20
100
AcDbEntity
  8
SCHRAFF
100
AcDbCircle
 10
614.158460296252
 20
955.9930996972132
 30
0.0
 40
4.133152828388964
100
AcDbArc
 50
313.4613832973278
 51
46.53861670267221
  0
ARC
  5
499
330
20
100
AcDbEntity
  8
SCHRAFF
100
AcDbCircle
 10
594.158460296252
 20
955.9930996972132
 30
0.0
 40
4.133152828388964
100
AcDbArc
 50
313.4613832973278
 51
46.53861670267221
  0
ARC
  5
49A
330
20
100
AcDbEntity
  8
SCHRAFF
100
AcDbCircle
 10
584.158460296252
 20
955.9930996972132
 30
0.0
 40
4.133152828388964
100
AcDbArc
 50
313.4613832973278
 51
46.53861670267221
  0
ARC
  5
49B
330
20
100
AcDbEntity
  8
SCHRAFF
100
AcDbCircle
 10
604.1584602962521
 20
955.9930996972132
 30
0.0
 40
4.133152828388964
100
AcDbArc
 50
313.4613832973278
 51
46.53861670267221
  0
ARC
  5
49C
330
20
100
AcDbEntity
  8
SCHRAFF
100
AcDbCircle
 10
574.1584602962522
 20
955.9930996972132
 30
0.0
 40
4.133152828388964
100
AcDbArc
 50
313.4613832973278
 51
46.53861670267221
  0
ARC
  5
49D
330
20
100
AcDbEntity
  8
SCHRAFF
100
AcDbCircle
 10
564.1584602962522
 20
955.9930996972132
 30
0.0
 40
4.133152828388964
100
AcDbArc
 50
313.4613832973278
 51
46.53861670267221
  0
ARC
  5
49E
330
20
100
AcDbEntity
  8
SCHRAFF
100
AcDbCircle
 10
674.1584602962521
 20
955.9930996972132
 30
0.0
 40
4.133152828388964
100
AcDbArc
 50
313.4613832973278
 51
46.53861670267221
  0
ARC
  5
49F
330
20
100
AcDbEntity
  8
SCHRAFF
100
AcDbCircle
 10
579.0081203858945
 20
904.9930996972133
 30
0.0
 40
4.133152828388964
100
AcDbArc
 50
313.4613832973278
 51
46.53861670267221
  0
ARC
  5
4A0
330
20
100
AcDbEntity
  8
SCHRAFF
100
AcDbCircle
 10
589.0081203858946
 20
904.9930996972133
 30
0.0
 40
4.133152828388964
100
AcDbArc
 50
313.4613832973278
 51
46.53861670267221
  0
ARC
  5
4A1
330
20
100
AcDbEntity
  8
SCHRAFF
100
AcDbCircle
 10
569.0081203858945
 20
904.9930996972133
 30
0.0
 40
4.133152828388964
100
AcDbArc
 50
313.4613832973278
 51
46.53861670267221
  0
ARC
  5
4A2
330
20
100
AcDbEntity
  8
SCHRAFF
100
AcDbCircle
 10
559.0081203858946
 20
904.9930996972133
 30
0.0
 40
4.133152828388964
100
AcDbArc
 50
313.4613832973278
 51
46.53861670267221
  0
ARC
  5
4A3
330
20
100
AcDbEntity
  8
SCHRAFF
100
AcDbCircle
 10
629.0081203858946
 20
904.9930996972133
 30
0.0
 40
4.133152828388964
100
AcDbArc
 50
313.4613832973278
 51
46.53861670267221
  0
ARC
  5
4A4
330
20
100
AcDbEntity
  8
SCHRAFF
100
AcDbCircle
 10
619.0081203858945
 20
904.9930996972133
 30
0.0
 40
4.133152828388964
100
AcDbArc
 50
313.4613832973278
 51
46.53861670267221
  0
ARC
  5
4A5
330
20
100
AcDbEntity
  8
SCHRAFF
100
AcDbCircle
 10
599.0081203858945
 20
904.9930996972133
 30
0.0
 40
4.133152828388964
100
AcDbArc
 50
313.4613832973278
 51
46.53861670267221
  0
ARC
  5
4A6
330
20
100
AcDbEntity
  8
SCHRAFF
100
AcDbCircle
 10
609.0081203858946
 20
904.9930996972133
 30
0.0
 40
4.133152828388964
100
AcDbArc
 50
313.4613832973278
 51
46.53861670267221
  0
ARC
  5
4A7
330
20
100
AcDbEntity
  8
SCHRAFF
100
AcDbCircle
 10
649.0081203858945
 20
904.9930996972133
 30
0.0
 40
4.133152828388964
100
AcDbArc
 50
313.4613832973278
 51
46.53861670267221
  0
ARC
  5
4A8
330
20
100
AcDbEntity
  8
SCHRAFF
100
AcDbCircle
 10
639.0081203858946
 20
904.9930996972133
 30
0.0
 40
4.133152828388964
100
AcDbArc
 50
313.4613832973278
 51
46.53861670267221
  0
ARC
  5
4A9
330
20
100
AcDbEntity
  8
SCHRAFF
100
AcDbCircle
 10
659.0081203858946
 20
904.9930996972133
 30
0.0
 40
4.133152828388964
100
AcDbArc
 50
313.4613832973278
 51
46.53861670267221
  0
ARC
  5
4AA
330
20
100
AcDbEntity
  8
SCHRAFF
100
AcDbCircle
 10
669.0081203858945
 20
904.9930996972133
 30
0.0
 40
4.133152828388964
100
AcDbArc
 50
313.4613832973278
 51
46.53861670267221
  0
ARC
  5
4AB
330
20
100
AcDbEntity
  8
SCHRAFF
100
AcDbCircle
 10
679.0081203858946
 20
904.9930996972133
 30
0.0
 40
4.133152828388964
100
AcDbArc
 50
313.4613832973278
 51
46.53861670267221
  0
ARC
  5
4AD
330
20
100
AcDbEntity
  8
SCHRAFF
100
AcDbCircle
 10
699.0081203858945
 20
904.9930996972133
 30
0.0
 40
4.133152828388964
100
AcDbArc
 50
313.4613832973278
 51
46.53861670267221
  0
ARC
  5
4AE
330
20
100
AcDbEntity
  8
SCHRAFF
100
AcDbCircle
 10
689.0081203858946
 20
904.9930996972133
 30
0.0
 40
4.133152828388964
100
AcDbArc
 50
313.4613832973278
 51
46.53861670267221
  0
ENDSEC
  0
SECTION
  2
OBJECTS
  0
DICTIONARY
  5
C
330
0
100
AcDbDictionary
281
     1
  3
ACAD_COLOR
350
1B
  3
ACAD_GROUP
350
D
  3
ACAD_LAYOUT
350
19
  3
ACAD_MATERIAL
350
1A
  3
ACAD_MLINESTYLE
350
16
  3
ACAD_PLOTSETTINGS
350
18
  3
ACAD_PLOTSTYLENAME
350
E
  3
AcDbVariableDictionary
350
3B9
  0
DICTIONARY
  5
1B
102
{ACAD_REACTORS
330
C
102
}
330
C
100
AcDbDictionary
281
     1
  0
DICTIONARY
  5
D
102
{ACAD_REACTORS
330
C
102
}
330
C
100
AcDbDictionary
281
     1
  0
DICTIONARY
  5
19
102
{ACAD_REACTORS
330
C
102
}
330
C
100
AcDbDictionary
281
     1
  3
Layout1
350
1F
  3
Model
350
23
  0
DICTIONARY
  5
1A
102
{ACAD_REACTORS
330
C
102
}
330
C
100
AcDbDictionary
281
     1
  0
DICTIONARY
  5
16
102
{ACAD_REACTORS
330
C
102
}
330
C
100
AcDbDictionary
281
     1
  3
Standard
350
17
  0
DICTIONARY
  5
18
102
{ACAD_REACTORS
330
C
102
}
330
C
100
AcDbDictionary
281
     1
  0
ACDBDICTIONARYWDFLT
  5
E
102
{ACAD_REACTORS
330
C
102
}
330
C
100
AcDbDictionary
281
     1
  3
Normal
350
F
100
AcDbDictionaryWithDefault
340
F
  0
DICTIONARY
  5
3B9
102
{ACAD_REACTORS
330
C
102
}
330
C
100
AcDbDictionary
281
     1
  3
DIMASSOC
350
3BB
  3
HIDETEXT
350
3BA
  3
PROJECTNAME
350
3BC
  0
LAYOUT
  5
1F
102
{ACAD_REACTORS
330
19
102
}
330
19
100
AcDbPlotSettings
  1

  2
RICOH Aficio 2027 PCL 6
  4

  6

 40
0.0
 41
0.0
 42
0.0
 43
0.0
 44
0.0
 45
0.0
 46
0.0
 47
0.0
 48
0.0
 49
0.0
140
0.0
141
0.0
142
1.0
143
1.0
 70
   688
 72
     0
 73
     0
 74
     5
  7
monochrome1.ctb
 75
    16
147
1.0
 76
     0
 77
     2
 78
   300
148
0.0
149
0.0
100
AcDbLayout
  1
Layout1
 70
     0
 71
     1
 10
0.0
 20
0.0
 11
12.0
 21
9.0
 12
214.090173102852
 22
50.00000000000001
 32
234.8760879654383
 14
1.000000000000000E+20
 24
1.000000000000000E+20
 34
1.000000000000000E+20
 15
-1.000000000000000E+20
 25
-1.000000000000000E+20
 35
-1.000000000000000E+20
146
0.0
 13
0.0
 23
0.0
 33
0.0
 16
1.0
 26
0.0
 36
0.0
 17
0.0
 27
1.0
 37
0.0
 76
     0
330
1C
  0
LAYOUT
  5
23
102
{ACAD_REACTORS
330
19
102
}
330
19
100
AcDbPlotSettings
  1

  2
RICOH Aficio 2027 PCL 6
  4
A4
  6

 40
5.027083396911621
 41
5.027085304260253
 42
5.027084350585937
 43
5.027069091796875
 44
209.9733276367187
 45
296.9259948730469
 46
0.0
 47
0.0
 48
0.0
 49
0.0
140
0.0
141
0.0
142
1.0
143
1.0
 70
 11952
 72
     0
 73
     1
 74
     0
  7
monochrome1.ctb
 75
     0
147
1.0
 76
     0
 77
     2
 78
   300
148
5763.55249492644
149
238.7863317644033
100
AcDbLayout
  1
Model
 70
     1
 71
     0
 10
0.0
 20
0.0
 11
12.0
 21
9.0
 12
0.0
 22
0.0
 32
0.0
 14
0.0
 24
0.0
 34
0.0
 15
0.0
 25
0.0
 35
0.0
146
0.0
 13
0.0
 23
0.0
 33
0.0
 16
1.0
 26
0.0
 36
0.0
 17
0.0
 27
1.0
 37
0.0
 76
     0
330
20
  0
MLINESTYLE
  5
17
102
{ACAD_REACTORS
330
16
102
}
330
16
100
AcDbMlineStyle
  2
STANDARD
 70
     0
  3

 62
   256
 51
90.0
 52
90.0
 71
     2
 49
0.5
 62
   256
  6
BYLAYER
 49
-0.5
 62
   256
  6
BYLAYER
  0
ACDBPLACEHOLDER
  5
F
102
{ACAD_REACTORS
330
E
102
}
330
E
  0
DICTIONARYVAR
  5
3BB
102
{ACAD_REACTORS
330
3B9
102
}
330
3B9
100
DictionaryVariables
280
     0
  1
2
  0
DICTIONARYVAR
  5
3BA
102
{ACAD_REACTORS
330
3B9
102
}
330
3B9
100
DictionaryVariables
280
     0
  1
1
  0
DICTIONARYVAR
  5
3BC
102
{ACAD_REACTORS
330
3B9
102
}
330
3B9
100
DictionaryVariables
280
     0
  1

  0
ENDSEC
  0
EOF
