  0
SECTION
  2
HEADER
  9
$ACADVER
  1
AC1018
  9
$ACADMAINTVER
 70
     2
  9
$DWGCODEPAGE
  3
ANSI_1252
  9
$INSBASE
 10
0.0
 20
0.0
 30
0.0
  9
$EXTMIN
 10
-0.0192209888436992
 20
-0.0271839699362317
 30
-0.0000000000000058
  9
$EXTMAX
 10
420.0192288123714
 20
594.0271950346398
 30
0.0000000000000104
  9
$LIMMIN
 10
0.0
 20
0.0
  9
$LIMMAX
 10
419.9999999999999
 20
594.0
  9
$ORTHOMODE
 70
     1
  9
$REGENMODE
 70
     1
  9
$FILLMODE
 70
     1
  9
$QTEXTMODE
 70
     0
  9
$MIRRTEXT
 70
     1
  9
$LTSCALE
 40
20.0
  9
$ATTMODE
 70
     1
  9
$TEXTSIZE
 40
3.5
  9
$TRACEWID
 40
0.5
  9
$TEXTSTYLE
  7
STANDARD
  9
$CLAYER
  8
STEMPEL
  9
$CELTYPE
  6
ByLayer
  9
$CECOLOR
 62
   256
  9
$CELTSCALE
 40
1.0
  9
$DISPSILH
 70
     0
  9
$DIMSCALE
 40
2.0
  9
$DIMASZ
 40
3.5
  9
$DIMEXO
 40
1.0
  9
$DIMDLI
 40
7.0
  9
$DIMRND
 40
0.0
  9
$DIMDLE
 40
0.0
  9
$DIMEXE
 40
1.0
  9
$DIMTP
 40
0.0
  9
$DIMTM
 40
0.0
  9
$DIMTXT
 40
3.5
  9
$DIMCEN
 40
1.5
  9
$DIMTSZ
 40
0.0
  9
$DIMTOL
 70
     0
  9
$DIMLIM
 70
     0
  9
$DIMTIH
 70
     0
  9
$DIMTOH
 70
     0
  9
$DIMSE1
 70
     0
  9
$DIMSE2
 70
     0
  9
$DIMTAD
 70
     1
  9
$DIMZIN
 70
     8
  9
$DIMBLK
  1

  9
$DIMASO
 70
     1
  9
$DIMSHO
 70
     0
  9
$DIMPOST
  1

  9
$DIMAPOST
  1

  9
$DIMALT
 70
     0
  9
$DIMALTD
 70
     2
  9
$DIMALTF
 40
25.4
  9
$DIMLFAC
 40
1.0
  9
$DIMTOFL
 70
     1
  9
$DIMTVP
 40
0.0
  9
$DIMTIX
 70
     0
  9
$DIMSOXD
 70
     0
  9
$DIMSAH
 70
     0
  9
$DIMBLK1
  1

  9
$DIMBLK2
  1

  9
$DIMSTYLE
  2
Standard
  9
$DIMCLRD
 70
     0
  9
$DIMCLRE
 70
     0
  9
$DIMCLRT
 70
     1
  9
$DIMTFAC
 40
0.5
  9
$DIMGAP
 40
1.5
  9
$DIMJUST
 70
     0
  9
$DIMSD1
 70
     0
  9
$DIMSD2
 70
     0
  9
$DIMTOLJ
 70
     1
  9
$DIMTZIN
 70
     8
  9
$DIMALTZ
 70
     8
  9
$DIMALTTZ
 70
     8
  9
$DIMUPT
 70
     0
  9
$DIMDEC
 70
     2
  9
$DIMTDEC
 70
     2
  9
$DIMALTU
 70
     2
  9
$DIMALTTD
 70
     2
  9
$DIMTXSTY
  7
STANDARD
  9
$DIMAUNIT
 70
     0
  9
$DIMADEC
 70
     2
  9
$DIMALTRND
 40
0.0
  9
$DIMAZIN
 70
     2
  9
$DIMDSEP
 70
    46
  9
$DIMATFIT
 70
     3
  9
$DIMFRAC
 70
     0
  9
$DIMLDRBLK
  1

  9
$DIMLUNIT
 70
     2
  9
$DIMLWD
 70
    -2
  9
$DIMLWE
 70
    -2
  9
$DIMTMOVE
 70
     0
  9
$LUNITS
 70
     2
  9
$LUPREC
 70
     2
  9
$SKETCHINC
 40
1.0
  9
$FILLETRAD
 40
0.0
  9
$AUNITS
 70
     0
  9
$AUPREC
 70
     0
  9
$MENU
  1
ACAD
  9
$ELEVATION
 40
0.0
  9
$PELEVATION
 40
0.0
  9
$THICKNESS
 40
0.0
  9
$LIMCHECK
 70
     0
  9
$CHAMFERA
 40
0.0
  9
$CHAMFERB
 40
0.0
  9
$CHAMFERC
 40
0.0
  9
$CHAMFERD
 40
0.0
  9
$SKPOLY
 70
     0
  9
$TDCREATE
 40
2455397.864709028
  9
$TDUCREATE
 40
2455397.781375695
  9
$TDUPDATE
 40
2455658.364217303
  9
$TDUUPDATE
 40
2455658.280883970
  9
$TDINDWG
 40
0.0285703009
  9
$TDUSRTIMER
 40
0.0285703009
  9
$USRTIMER
 70
     1
  9
$ANGBASE
 50
0.0
  9
$ANGDIR
 70
     0
  9
$PDMODE
 70
     0
  9
$PDSIZE
 40
0.0
  9
$PLINEWID
 40
0.0
  9
$SPLFRAME
 70
     0
  9
$SPLINETYPE
 70
     6
  9
$SPLINESEGS
 70
     8
  9
$HANDSEED
  5
60B
  9
$SURFTAB1
 70
     6
  9
$SURFTAB2
 70
     6
  9
$SURFTYPE
 70
     6
  9
$SURFU
 70
     6
  9
$SURFV
 70
     6
  9
$UCSBASE
  2

  9
$UCSNAME
  2

  9
$UCSORG
 10
0.0
 20
0.0
 30
0.0
  9
$UCSXDIR
 10
1.0
 20
0.0
 30
0.0
  9
$UCSYDIR
 10
0.0
 20
1.0
 30
0.0
  9
$UCSORTHOREF
  2

  9
$UCSORTHOVIEW
 70
     0
  9
$UCSORGTOP
 10
0.0
 20
0.0
 30
0.0
  9
$UCSORGBOTTOM
 10
0.0
 20
0.0
 30
0.0
  9
$UCSORGLEFT
 10
0.0
 20
0.0
 30
0.0
  9
$UCSORGRIGHT
 10
0.0
 20
0.0
 30
0.0
  9
$UCSORGFRONT
 10
0.0
 20
0.0
 30
0.0
  9
$UCSORGBACK
 10
0.0
 20
0.0
 30
0.0
  9
$PUCSBASE
  2

  9
$PUCSNAME
  2

  9
$PUCSORG
 10
0.0
 20
0.0
 30
0.0
  9
$PUCSXDIR
 10
1.0
 20
0.0
 30
0.0
  9
$PUCSYDIR
 10
0.0
 20
1.0
 30
0.0
  9
$PUCSORTHOREF
  2

  9
$PUCSORTHOVIEW
 70
     0
  9
$PUCSORGTOP
 10
0.0
 20
0.0
 30
0.0
  9
$PUCSORGBOTTOM
 10
0.0
 20
0.0
 30
0.0
  9
$PUCSORGLEFT
 10
0.0
 20
0.0
 30
0.0
  9
$PUCSORGRIGHT
 10
0.0
 20
0.0
 30
0.0
  9
$PUCSORGFRONT
 10
0.0
 20
0.0
 30
0.0
  9
$PUCSORGBACK
 10
0.0
 20
0.0
 30
0.0
  9
$USERI1
 70
     0
  9
$USERI2
 70
     0
  9
$USERI3
 70
     0
  9
$USERI4
 70
     0
  9
$USERI5
 70
     0
  9
$USERR1
 40
0.0
  9
$USERR2
 40
0.0
  9
$USERR3
 40
0.0
  9
$USERR4
 40
0.0
  9
$USERR5
 40
0.0
  9
$WORLDVIEW
 70
     1
  9
$SHADEDGE
 70
     3
  9
$SHADEDIF
 70
    70
  9
$TILEMODE
 70
     1
  9
$MAXACTVP
 70
    16
  9
$PINSBASE
 10
0.0
 20
0.0
 30
0.0
  9
$PLIMCHECK
 70
     0
  9
$PEXTMIN
 10
1.000000000000000E+20
 20
1.000000000000000E+20
 30
1.000000000000000E+20
  9
$PEXTMAX
 10
-1.000000000000000E+20
 20
-1.000000000000000E+20
 30
-1.000000000000000E+20
  9
$PLIMMIN
 10
0.0
 20
0.0
  9
$PLIMMAX
 10
12.0
 20
9.0
  9
$UNITMODE
 70
     0
  9
$VISRETAIN
 70
     0
  9
$PLINEGEN
 70
     0
  9
$PSLTSCALE
 70
     0
  9
$TREEDEPTH
 70
  3020
  9
$CMLSTYLE
  2
Standard
  9
$CMLJUST
 70
     0
  9
$CMLSCALE
 40
1.0
  9
$PROXYGRAPHICS
 70
     1
  9
$MEASUREMENT
 70
     0
  9
$CELWEIGHT
370
    -1
  9
$ENDCAPS
280
     0
  9
$JOINSTYLE
280
     0
  9
$LWDISPLAY
290
     0
  9
$INSUNITS
 70
     0
  9
$HYPERLINKBASE
  1

  9
$STYLESHEET
  1
monochrome 1.ctb
  9
$XEDIT
290
     1
  9
$CEPSNTYPE
380
     0
  9
$PSTYLEMODE
290
     1
  9
$FINGERPRINTGUID
  2
{D68B0D02-A558-11D7-B632-000102183313}
  9
$VERSIONGUID
  2
{03DC9553-0FCA-4DA6-A3C0-BD7DDCB41383}
  9
$EXTNAMES
290
     1
  9
$PSVPSCALE
 40
0.0
  9
$OLESTARTUP
290
     0
  9
$SORTENTS
280
   127
  9
$INDEXCTL
280
     0
  9
$HIDETEXT
280
     0
  9
$XCLIPFRAME
290
     0
  9
$HALOGAP
280
     0
  9
$OBSCOLOR
 70
   257
  9
$OBSLTYPE
280
     0
  9
$INTERSECTIONDISPLAY
280
     0
  9
$INTERSECTIONCOLOR
 70
   257
  9
$DIMASSOC
280
     1
  9
$PROJECTNAME
  1

  0
ENDSEC
  0
SECTION
  2
CLASSES
  0
CLASS
  1
ACDBDICTIONARYWDFLT
  2
AcDbDictionaryWithDefault
  3
ObjectDBX Classes
 90
        0
 91
        1
280
     0
281
     0
  0
CLASS
  1
DICTIONARYVAR
  2
AcDbDictionaryVar
  3
ObjectDBX Classes
 90
        0
 91
        2
280
     0
281
     0
  0
ENDSEC
  0
SECTION
  2
TABLES
  0
TABLE
  2
VPORT
  5
8
330
0
100
AcDbSymbolTable
 70
     3
  0
VPORT
  5
60A
330
8
100
AcDbSymbolTableRecord
100
AcDbViewportTableRecord
  2
*Active
 70
     0
 10
0.0
 20
0.0
 11
1.0
 21
1.0
 12
210.0
 22
297.0
 13
0.0
 23
0.0
 14
1.0
 24
1.0
 15
10.0
 25
10.0
 16
0.0
 26
0.0
 36
1.0
 17
0.0
 27
0.0
 37
0.0
 40
594.0
 41
1.334231805929919
 42
50.0
 43
0.0
 44
0.0
 50
0.0
 51
0.0
 71
     0
 72
  1500
 73
     1
 74
     0
 75
     0
 76
     0
 77
     0
 78
     0
281
     0
 65
     1
110
0.0
120
0.0
130
0.0
111
1.0
121
0.0
131
0.0
112
0.0
122
1.0
132
0.0
 79
     0
146
0.0
  0
ENDTAB
  0
TABLE
  2
LTYPE
  5
5
330
0
100
AcDbSymbolTable
 70
     2
  0
LTYPE
  5
13
330
5
100
AcDbSymbolTableRecord
100
AcDbLinetypeTableRecord
  2
ByBlock
 70
     0
  3

 72
    65
 73
     0
 40
0.0
  0
LTYPE
  5
14
330
5
100
AcDbSymbolTableRecord
100
AcDbLinetypeTableRecord
  2
ByLayer
 70
     0
  3

 72
    65
 73
     0
 40
0.0
  0
LTYPE
  5
15
330
5
100
AcDbSymbolTableRecord
100
AcDbLinetypeTableRecord
  2
Continuous
 70
     0
  3
Solid line
 72
    65
 73
     0
 40
0.0
  0
LTYPE
  5
25
330
5
100
AcDbSymbolTableRecord
100
AcDbLinetypeTableRecord
  2
STRICHPUNKT
 70
     0
  3
__ . __ . __ . __ . __ . __ . __ . __ . __ . __
 72
    65
 73
     4
 40
1.0
 49
0.5
 74
     0
 49
-0.25
 74
     0
 49
0.0
 74
     0
 49
-0.25
 74
     0
  0
ENDTAB
  0
TABLE
  2
LAYER
  5
2
330
0
100
AcDbSymbolTable
 70
     9
  0
LAYER
  5
10
330
2
100
AcDbSymbolTableRecord
100
AcDbLayerTableRecord
  2
0
 70
     0
 62
     7
  6
Continuous
370
    -3
390
F
  0
LAYER
  5
2A
330
2
100
AcDbSymbolTableRecord
100
AcDbLayerTableRecord
  2
VOLL
 70
     0
 62
     1
  6
Continuous
370
    -3
390
F
  0
LAYER
  5
2B
330
2
100
AcDbSymbolTableRecord
100
AcDbLayerTableRecord
  2
HILF
 70
     0
 62
     2
  6
Continuous
370
    -3
390
F
  0
LAYER
  5
2C
330
2
100
AcDbSymbolTableRecord
100
AcDbLayerTableRecord
  2
MITTEL
 70
     0
 62
     2
  6
STRICHPUNKT
370
    -3
390
F
  0
LAYER
  5
2F
330
2
100
AcDbSymbolTableRecord
100
AcDbLayerTableRecord
  2
BEM
 70
     0
 62
     7
  6
Continuous
370
    -3
390
F
  0
LAYER
  5
30
330
2
100
AcDbSymbolTableRecord
100
AcDbLayerTableRecord
  2
STEMPEL
 70
     0
 62
     3
  6
Continuous
370
    -3
390
F
  0
LAYER
  5
31
330
2
100
AcDbSymbolTableRecord
100
AcDbLayerTableRecord
  2
TEXT
 70
     0
 62
     7
  6
Continuous
370
    -3
390
F
  0
LAYER
  5
32B
330
2
100
AcDbSymbolTableRecord
100
AcDbLayerTableRecord
  2
DEFPOINTS
 70
     0
 62
     7
  6
Continuous
290
     0
370
    -3
390
F
  0
LAYER
  5
32C
330
2
100
AcDbSymbolTableRecord
100
AcDbLayerTableRecord
  2
SCHRAFF
 70
     0
 62
     7
  6
Continuous
370
    -3
390
F
  0
ENDTAB
  0
TABLE
  2
STYLE
  5
3
330
0
100
AcDbSymbolTable
 70
     2
  0
STYLE
  5
11
330
3
100
AcDbSymbolTableRecord
100
AcDbTextStyleTableRecord
  2
STANDARD
 70
     0
 40
0.0
 41
0.8
 50
0.0
 71
     0
 42
3.5
  3
simplex.shx
  4

  0
STYLE
  5
24
330
3
100
AcDbSymbolTableRecord
100
AcDbTextStyleTableRecord
  2
GREEKS
 70
     0
 40
0.0
 41
0.8
 50
0.0
 71
     0
 42
2.5
  3
SIMPLEX.shx
  4

  0
ENDTAB
  0
TABLE
  2
VIEW
  5
6
330
0
100
AcDbSymbolTable
 70
     0
  0
ENDTAB
  0
TABLE
  2
UCS
  5
7
330
0
100
AcDbSymbolTable
 70
     0
  0
ENDTAB
  0
TABLE
  2
APPID
  5
9
330
0
100
AcDbSymbolTable
 70
     1
  0
APPID
  5
12
330
9
100
AcDbSymbolTableRecord
100
AcDbRegAppTableRecord
  2
ACAD
 70
     0
  0
ENDTAB
  0
TABLE
  2
DIMSTYLE
  5
A
330
0
100
AcDbSymbolTable
 70
     1
100
AcDbDimStyleTable
 71
     1
340
9D
  0
DIMSTYLE
105
9D
102
{ACAD_REACTORS
330
3E9
330
3E6
330
3B3
330
3FC
102
}
330
A
100
AcDbSymbolTableRecord
100
AcDbDimStyleTableRecord
  2
Standard
 70
     0
340
11
  0
ENDTAB
  0
TABLE
  2
BLOCK_RECORD
  5
1
330
0
100
AcDbSymbolTable
 70
    17
  0
BLOCK_RECORD
  5
1E
102
{ACAD_XDICTIONARY
360
A0
102
}
330
1
100
AcDbSymbolTableRecord
100
AcDbBlockTableRecord
  2
*Model_Space
340
21
  0
BLOCK_RECORD
  5
1A
102
{ACAD_XDICTIONARY
360
A2
102
}
330
1
100
AcDbSymbolTableRecord
100
AcDbBlockTableRecord
  2
*Paper_Space
340
1D
  0
BLOCK_RECORD
  5
22
330
1
100
AcDbSymbolTableRecord
100
AcDbBlockTableRecord
  2
LOGO
340
0
102
{BLKREFS
331
9B
102
}
  0
BLOCK_RECORD
  5
194
330
1
100
AcDbSymbolTableRecord
100
AcDbBlockTableRecord
  2
*X1
340
0
102
{BLKREFS
331
3B6
102
}
  0
BLOCK_RECORD
  5
20F
330
1
100
AcDbSymbolTableRecord
100
AcDbBlockTableRecord
  2
*X2
340
0
102
{BLKREFS
331
3B5
102
}
  0
BLOCK_RECORD
  5
434
330
1
100
AcDbSymbolTableRecord
100
AcDbBlockTableRecord
  2
*D7
340
0
  0
BLOCK_RECORD
  5
45B
330
1
100
AcDbSymbolTableRecord
100
AcDbBlockTableRecord
  2
*D10
340
0
  0
BLOCK_RECORD
  5
482
330
1
100
AcDbSymbolTableRecord
100
AcDbBlockTableRecord
  2
*D13
340
0
  0
BLOCK_RECORD
  5
48F
330
1
100
AcDbSymbolTableRecord
100
AcDbBlockTableRecord
  2
*D14
340
0
  0
ENDTAB
  0
ENDSEC
  0
SECTION
  2
BLOCKS
  0
BLOCK
  5
35
330
1E
100
AcDbEntity
  8
0
100
AcDbBlockBegin
  2
*Model_Space
 70
     0
 10
0.0
 20
0.0
 30
0.0
  3
*Model_Space
  1

  0
ENDBLK
  5
36
330
1E
100
AcDbEntity
  8
0
100
AcDbBlockEnd
  0
BLOCK
  5
33
330
1A
100
AcDbEntity
 67
     1
  8
0
100
AcDbBlockBegin
  2
*Paper_Space
 70
     0
 10
0.0
 20
0.0
 30
0.0
  3
*Paper_Space
  1

  0
ENDBLK
  5
34
330
1A
100
AcDbEntity
 67
     1
  8
0
100
AcDbBlockEnd
  0
BLOCK
  5
37
330
22
100
AcDbEntity
  8
0
100
AcDbBlockBegin
  2
LOGO
 70
     0
 10
0.0
 20
0.0
 30
0.0
  3
LOGO
  1

  0
ARC
  5
38
330
22
100
AcDbEntity
  8
0
100
AcDbCircle
 10
11.59973089678112
 20
-9.271599258481501
 30
0.0
 40
4.5
100
AcDbArc
 50
270.0
 51
231.0575587310159
  0
LINE
  5
39
330
22
100
AcDbEntity
  8
0
100
AcDbLine
 10
3.599730896781125
 20
-4.771599258481529
 30
0.0
 11
3.599730896781153
 21
-11.77159925848133
 31
0.0
  0
LINE
  5
3A
330
22
100
AcDbEntity
  8
0
100
AcDbLine
 10
2.599730896781125
 20
-4.771599258481529
 30
0.0
 11
2.599730896781153
 21
-11.77159925848133
 31
0.0
  0
CIRCLE
  5
3B
330
22
100
AcDbEntity
  8
0
100
AcDbCircle
 10
11.59973089678112
 20
-9.271599258481501
 30
0.0
 40
3.5
  0
ARC
  5
3C
330
22
100
AcDbEntity
  8
0
100
AcDbCircle
 10
31.59973089678115
 20
-9.271599258481472
 30
0.0
 40
4.5
100
AcDbArc
 50
270.0
 51
231.0575587310182
  0
LINE
  5
3D
330
22
100
AcDbEntity
  8
0
100
AcDbLine
 10
17.59973089678112
 20
-4.771599258481472
 30
0.0
 11
17.59973089678115
 21
-13.77159925848147
 31
0.0
  0
ARC
  5
3E
330
22
100
AcDbEntity
  8
0
100
AcDbCircle
 10
22.59973089678116
 20
-7.271599258481472
 30
0.0
 40
2.5
100
AcDbArc
 50
293.1161887722295
 51
90.0
  0
CIRCLE
  5
3F
330
22
100
AcDbEntity
  8
0
100
AcDbCircle
 10
31.59973089678115
 20
-9.271599258481472
 30
0.0
 40
3.5
  0
ARC
  5
40
330
22
100
AcDbEntity
  8
0
100
AcDbCircle
 10
4.599730896781153
 20
-11.77159925848133
 30
0.0
 40
1.0
100
AcDbArc
 50
180.0
 51
270.0
  0
ARC
  5
41
330
22
100
AcDbEntity
  8
0
100
AcDbCircle
 10
4.599730896781153
 20
-11.77159925848133
 30
0.0
 40
2.0
100
AcDbArc
 50
179.9999999999992
 51
270.0
  0
LINE
  5
42
330
22
100
AcDbEntity
  8
0
100
AcDbLine
 10
11.59973089678115
 20
-13.77159925848144
 30
0.0
 11
4.599730896781153
 21
-13.77159925848147
 31
0.0
  0
LINE
  5
43
330
22
100
AcDbEntity
  8
0
100
AcDbLine
 10
8.771303772034769
 20
-12.77159925848136
 30
0.0
 11
4.599730896781153
 21
-12.77159925848133
 31
0.0
  0
LINE
  5
44
330
22
100
AcDbEntity
  8
0
100
AcDbLine
 10
31.59973089678115
 20
-13.77159925848147
 30
0.0
 11
23.6715276665056
 21
-13.77159925848144
 31
0.0
  0
LINE
  5
45
330
22
100
AcDbEntity
  8
0
100
AcDbLine
 10
23.56565672307022
 20
-9.51278021337896
 30
0.0
 11
24.4388546544846
 21
-12.77159925848144
 31
0.0
  0
LINE
  5
46
330
22
100
AcDbEntity
  8
0
100
AcDbLine
 10
22.59973089678116
 20
-9.771599258481472
 30
0.0
 11
18.59973089678112
 21
-9.771599258481472
 31
0.0
  0
LINE
  5
47
330
22
100
AcDbEntity
  8
0
100
AcDbLine
 10
18.59973089678115
 20
-13.77159925848144
 30
0.0
 11
17.59973089678115
 21
-13.77159925848144
 31
0.0
  0
LINE
  5
48
330
22
100
AcDbEntity
  8
0
100
AcDbLine
 10
18.59973089678115
 20
-9.771599258481472
 30
0.0
 11
18.59973089678115
 21
-13.77159925848144
 31
0.0
  0
LINE
  5
49
330
22
100
AcDbEntity
  8
0
100
AcDbLine
 10
22.59973089678116
 20
-9.771599258481472
 30
0.0
 11
23.67152766650562
 21
-13.77159925848147
 31
0.0
  0
ARC
  5
4A
330
22
100
AcDbEntity
  8
0
100
AcDbCircle
 10
22.59973089678116
 20
-7.271599258481472
 30
0.0
 40
2.5
100
AcDbArc
 50
270.0
 51
270.0000000000007
  0
LINE
  5
4B
330
22
100
AcDbEntity
  8
0
100
AcDbLine
 10
28.77130377203494
 20
-12.77159925848147
 30
0.0
 11
24.43885465448463
 21
-12.77159925848144
 31
0.0
  0
LINE
  5
4C
330
22
100
AcDbEntity
  8
0
100
AcDbLine
 10
3.599730896781125
 20
-4.771599258481472
 30
0.0
 11
2.599730896781125
 21
-4.771599258481472
 31
0.0
  0
LINE
  5
4D
330
22
100
AcDbEntity
  8
0
100
AcDbLine
 10
22.59973089678116
 20
-8.771599258481472
 30
0.0
 11
18.59973089678115
 21
-8.771599258481472
 31
0.0
  0
LINE
  5
4E
330
22
100
AcDbEntity
  8
0
100
AcDbLine
 10
22.59973089678116
 20
-5.771599258481472
 30
0.0
 11
18.59973089678115
 21
-5.771599258481472
 31
0.0
  0
LINE
  5
4F
330
22
100
AcDbEntity
  8
0
100
AcDbLine
 10
22.59973089678116
 20
-4.771599258481472
 30
0.0
 11
17.59973089678115
 21
-4.771599258481472
 31
0.0
  0
LINE
  5
50
330
22
100
AcDbEntity
  8
0
100
AcDbLine
 10
18.59973089678115
 20
-5.771599258481472
 30
0.0
 11
18.59973089678115
 21
-8.771599258481472
 31
0.0
  0
ARC
  5
51
330
22
100
AcDbEntity
  8
0
100
AcDbCircle
 10
22.59973089678116
 20
-7.271599258481472
 30
0.0
 40
1.5
100
AcDbArc
 50
270.0
 51
90.0
  0
ENDBLK
  5
52
330
22
100
AcDbEntity
  8
0
100
AcDbBlockEnd
  0
BLOCK
  5
195
330
194
100
AcDbEntity
  8
0
100
AcDbBlockBegin
  2
*X1
 70
     1
 10
0.0
 20
0.0
 30
0.0
  3
*X1
  1

  0
LINE
  5
196
330
194
100
AcDbEntity
  8
0
 62
     0
100
AcDbLine
 10
528.3526412647266
 20
384.8
 30
0.0
 11
530.1851476381773
 21
384.8
 31
0.0
  0
LINE
  5
197
330
194
100
AcDbEntity
  8
0
 62
     0
100
AcDbLine
 10
704.2536701538939
 20
384.8
 30
0.0
 11
706.086176527347
 21
384.8
 31
0.0
  0
LINE
  5
198
330
194
100
AcDbEntity
  8
0
 62
     0
100
AcDbLine
 10
528.3832435065544
 20
384.9000000000001
 30
0.0
 11
532.9358766100376
 21
384.9000000000001
 31
0.0
  0
LINE
  5
199
330
194
100
AcDbEntity
  8
0
 62
     0
100
AcDbLine
 10
701.6459841368529
 20
384.9000000000001
 30
0.0
 11
706.0555742855192
 21
384.9000000000001
 31
0.0
  0
LINE
  5
19A
330
194
100
AcDbEntity
  8
0
 62
     0
100
AcDbLine
 10
528.4164949372986
 20
385.0
 30
0.0
 11
532.7358766100377
 21
385.0
 31
0.0
  0
LINE
  5
19B
330
194
100
AcDbEntity
  8
0
 62
     0
100
AcDbLine
 10
701.7029411820342
 20
385.0
 30
0.0
 11
706.0223228547751
 21
385.0
 31
0.0
  0
LINE
  5
19C
330
194
100
AcDbEntity
  8
0
 62
     0
100
AcDbLine
 10
528.4524601545792
 20
385.1
 30
0.0
 11
532.5358766100377
 21
385.1
 31
0.0
  0
LINE
  5
19D
330
194
100
AcDbEntity
  8
0
 62
     0
100
AcDbLine
 10
701.9029411820342
 20
385.1
 30
0.0
 11
705.9863576374945
 21
385.1
 31
0.0
  0
LINE
  5
19E
330
194
100
AcDbEntity
  8
0
 62
     0
100
AcDbLine
 10
528.4912114161754
 20
385.2000000000001
 30
0.0
 11
532.3358766100376
 21
385.2000000000001
 31
0.0
  0
LINE
  5
19F
330
194
100
AcDbEntity
  8
0
 62
     0
100
AcDbLine
 10
702.1029411820343
 20
385.2000000000001
 30
0.0
 11
705.9476063758982
 21
385.2000000000001
 31
0.0
  0
LINE
  5
1A0
330
194
100
AcDbEntity
  8
0
 62
     0
100
AcDbLine
 10
528.5328294796275
 20
385.3
 30
0.0
 11
532.1358766100376
 21
385.3
 31
0.0
  0
LINE
  5
1A1
330
194
100
AcDbEntity
  8
0
 62
     0
100
AcDbLine
 10
702.3029411820342
 20
385.3
 30
0.0
 11
705.9059883124461
 21
385.3
 31
0.0
  0
LINE
  5
1A2
330
194
100
AcDbEntity
  8
0
 62
     0
100
AcDbLine
 10
528.5774045938782
 20
385.4
 30
0.0
 11
531.9358766100377
 21
385.4
 31
0.0
  0
LINE
  5
1A3
330
194
100
AcDbEntity
  8
0
 62
     0
100
AcDbLine
 10
702.5029411820343
 20
385.4
 30
0.0
 11
705.8614131981954
 21
385.4
 31
0.0
  0
LINE
  5
1A4
330
194
100
AcDbEntity
  8
0
 62
     0
100
AcDbLine
 10
528.6250376751011
 20
385.5
 30
0.0
 11
531.7358766100377
 21
385.5
 31
0.0
  0
LINE
  5
1A5
330
194
100
AcDbEntity
  8
0
 62
     0
100
AcDbLine
 10
702.7029411820343
 20
385.5
 30
0.0
 11
705.8137801169727
 21
385.5
 31
0.0
  0
LINE
  5
1A6
330
194
100
AcDbEntity
  8
0
 62
     0
100
AcDbLine
 10
528.6758417075553
 20
385.6
 30
0.0
 11
531.5358766100376
 21
385.6
 31
0.0
  0
LINE
  5
1A7
330
194
100
AcDbEntity
  8
0
 62
     0
100
AcDbLine
 10
702.9029411820344
 20
385.6
 30
0.0
 11
705.7629760845184
 21
385.6
 31
0.0
  0
LINE
  5
1A8
330
194
100
AcDbEntity
  8
0
 62
     0
100
AcDbLine
 10
528.729943421812
 20
385.7000000000001
 30
0.0
 11
531.3358766100376
 21
385.7000000000001
 31
0.0
  0
LINE
  5
1A9
330
194
100
AcDbEntity
  8
0
 62
     0
100
AcDbLine
 10
703.1029411820344
 20
385.7000000000001
 30
0.0
 11
705.7088743702617
 21
385.7000000000001
 31
0.0
  0
LINE
  5
1AA
330
194
100
AcDbEntity
  8
0
 62
     0
100
AcDbLine
 10
528.787485318066
 20
385.8
 30
0.0
 11
531.1358766100376
 21
385.8
 31
0.0
  0
LINE
  5
1AB
330
194
100
AcDbEntity
  8
0
 62
     0
100
AcDbLine
 10
703.3029411820344
 20
385.8
 30
0.0
 11
705.6513324740077
 21
385.8
 31
0.0
  0
LINE
  5
1AC
330
194
100
AcDbEntity
  8
0
 62
     0
100
AcDbLine
 10
528.8486281230547
 20
385.9
 30
0.0
 11
530.9358766100375
 21
385.9
 31
0.0
  0
LINE
  5
1AD
330
194
100
AcDbEntity
  8
0
 62
     0
100
AcDbLine
 10
703.5029411820344
 20
385.9
 30
0.0
 11
705.590189669019
 21
385.9
 31
0.0
  0
LINE
  5
1AE
330
194
100
AcDbEntity
  8
0
 62
     0
100
AcDbLine
 10
528.9135537976249
 20
386.0
 30
0.0
 11
530.7890632105041
 21
386.0
 31
0.0
  0
LINE
  5
1AF
330
194
100
AcDbEntity
  8
0
 62
     0
100
AcDbLine
 10
703.6497545815674
 20
386.0
 30
0.0
 11
705.525263994449
 21
386.0
 31
0.0
  0
LINE
  5
1B0
330
194
100
AcDbEntity
  8
0
 62
     0
100
AcDbLine
 10
528.9824692516654
 20
386.1
 30
0.0
 11
530.8390632105041
 21
386.1
 31
0.0
  0
LINE
  5
1B1
330
194
100
AcDbEntity
  8
0
 62
     0
100
AcDbLine
 10
703.5997545815673
 20
386.1
 30
0.0
 11
705.4563485404084
 21
386.1
 31
0.0
  0
LINE
  5
1B2
330
194
100
AcDbEntity
  8
0
 62
     0
100
AcDbLine
 10
529.0556109791624
 20
386.2
 30
0.0
 11
530.8890632105041
 21
386.2
 31
0.0
  0
LINE
  5
1B3
330
194
100
AcDbEntity
  8
0
 62
     0
100
AcDbLine
 10
703.5497545815673
 20
386.2
 30
0.0
 11
705.3832068129114
 21
386.2
 31
0.0
  0
LINE
  5
1B4
330
194
100
AcDbEntity
  8
0
 62
     0
100
AcDbLine
 10
529.1332509066604
 20
386.3
 30
0.0
 11
530.9390632105041
 21
386.3
 31
0.0
  0
LINE
  5
1B5
330
194
100
AcDbEntity
  8
0
 62
     0
100
AcDbLine
 10
703.4997545815675
 20
386.3
 30
0.0
 11
705.3055668854137
 21
386.3
 31
0.0
  0
LINE
  5
1B6
330
194
100
AcDbEntity
  8
0
 62
     0
100
AcDbLine
 10
529.2157038663352
 20
386.4
 30
0.0
 11
530.9890632105042
 21
386.4
 31
0.0
  0
LINE
  5
1B7
330
194
100
AcDbEntity
  8
0
 62
     0
100
AcDbLine
 10
703.4497545815674
 20
386.4
 30
0.0
 11
705.2231139257388
 21
386.4
 31
0.0
  0
LINE
  5
1B8
330
194
100
AcDbEntity
  8
0
 62
     0
100
AcDbLine
 10
529.3033372812039
 20
386.5
 30
0.0
 11
531.0390632105042
 21
386.5
 31
0.0
  0
LINE
  5
1B9
330
194
100
AcDbEntity
  8
0
 62
     0
100
AcDbLine
 10
703.3997545815674
 20
386.5
 30
0.0
 11
705.1354805108704
 21
386.5
 31
0.0
  0
LINE
  5
1BA
330
194
100
AcDbEntity
  8
0
 62
     0
100
AcDbLine
 10
529.3965839198875
 20
386.6
 30
0.0
 11
531.0890632105041
 21
386.6
 31
0.0
  0
LINE
  5
1BB
330
194
100
AcDbEntity
  8
0
 62
     0
100
AcDbLine
 10
703.3497545815674
 20
386.6
 30
0.0
 11
705.0422338721866
 21
386.6
 31
0.0
  0
LINE
  5
1BC
330
194
100
AcDbEntity
  8
0
 62
     0
100
AcDbLine
 10
529.4959590024834
 20
386.7
 30
0.0
 11
531.1390632105042
 21
386.7
 31
0.0
  0
LINE
  5
1BD
330
194
100
AcDbEntity
  8
0
 62
     0
100
AcDbLine
 10
703.2997545815674
 20
386.7
 30
0.0
 11
704.9428587895907
 21
386.7
 31
0.0
  0
LINE
  5
1BE
330
194
100
AcDbEntity
  8
0
 62
     0
100
AcDbLine
 10
529.6020836258348
 20
386.8
 30
0.0
 11
531.1890632105042
 21
386.8
 31
0.0
  0
LINE
  5
1BF
330
194
100
AcDbEntity
  8
0
 62
     0
100
AcDbLine
 10
703.2497545815673
 20
386.8
 30
0.0
 11
704.8367341662395
 21
386.8
 31
0.0
  0
LINE
  5
1C0
330
194
100
AcDbEntity
  8
0
 62
     0
100
AcDbLine
 10
529.7157176270992
 20
386.9
 30
0.0
 11
531.2390632105042
 21
386.9
 31
0.0
  0
LINE
  5
1C1
330
194
100
AcDbEntity
  8
0
 62
     0
100
AcDbLine
 10
703.1997545815674
 20
386.9
 30
0.0
 11
704.7231001649752
 21
386.9
 31
0.0
  0
LINE
  5
1C2
330
194
100
AcDbEntity
  8
0
 62
     0
100
AcDbLine
 10
529.8378070101026
 20
387.0
 30
0.0
 11
531.2890632105042
 21
387.0
 31
0.0
  0
LINE
  5
1C3
330
194
100
AcDbEntity
  8
0
 62
     0
100
AcDbLine
 10
703.1497545815674
 20
387.0
 30
0.0
 11
704.6010107819719
 21
387.0
 31
0.0
  0
LINE
  5
1C4
330
194
100
AcDbEntity
  8
0
 62
     0
100
AcDbLine
 10
529.969554720774
 20
387.1
 30
0.0
 11
531.3390632105043
 21
387.1
 31
0.0
  0
LINE
  5
1C5
330
194
100
AcDbEntity
  8
0
 62
     0
100
AcDbLine
 10
703.0997545815673
 20
387.1
 30
0.0
 11
704.4692630713007
 21
387.1
 31
0.0
  0
LINE
  5
1C6
330
194
100
AcDbEntity
  8
0
 62
     0
100
AcDbLine
 10
530.1125306227921
 20
387.2
 30
0.0
 11
531.3890632105041
 21
387.2
 31
0.0
  0
LINE
  5
1C7
330
194
100
AcDbEntity
  8
0
 62
     0
100
AcDbLine
 10
703.0497545815673
 20
387.2
 30
0.0
 11
704.3262871692827
 21
387.2
 31
0.0
  0
LINE
  5
1C8
330
194
100
AcDbEntity
  8
0
 62
     0
100
AcDbLine
 10
530.2688510976936
 20
387.3
 30
0.0
 11
531.4390632105041
 21
387.3
 31
0.0
  0
LINE
  5
1C9
330
194
100
AcDbEntity
  8
0
 62
     0
100
AcDbLine
 10
702.9997545815673
 20
387.3
 30
0.0
 11
704.1699666943815
 21
387.3
 31
0.0
  0
LINE
  5
1CA
330
194
100
AcDbEntity
  8
0
 62
     0
100
AcDbLine
 10
530.4414913568369
 20
387.4
 30
0.0
 11
531.4890632105042
 21
387.4
 31
0.0
  0
LINE
  5
1CB
330
194
100
AcDbEntity
  8
0
 62
     0
100
AcDbLine
 10
702.9497545815673
 20
387.4
 30
0.0
 11
703.9973264352384
 21
387.4
 31
0.0
  0
LINE
  5
1CC
330
194
100
AcDbEntity
  8
0
 62
     0
100
AcDbLine
 10
530.6348749783889
 20
387.5
 30
0.0
 11
531.5390632105041
 21
387.5
 31
0.0
  0
LINE
  5
1CD
330
194
100
AcDbEntity
  8
0
 62
     0
100
AcDbLine
 10
702.8997545815674
 20
387.5
 30
0.0
 11
703.8039428136869
 21
387.5
 31
0.0
  0
LINE
  5
1CE
330
194
100
AcDbEntity
  8
0
 62
     0
100
AcDbLine
 10
530.8561192440865
 20
387.6
 30
0.0
 11
531.5890632105042
 21
387.6
 31
0.0
  0
LINE
  5
1CF
330
194
100
AcDbEntity
  8
0
 62
     0
100
AcDbLine
 10
702.8497545815674
 20
387.6
 30
0.0
 11
703.5826985479898
 21
387.6
 31
0.0
  0
LINE
  5
1D0
330
194
100
AcDbEntity
  8
0
 62
     0
100
AcDbLine
 10
531.1181399963495
 20
387.7000000000001
 30
0.0
 11
531.6390632105042
 21
387.7000000000001
 31
0.0
  0
LINE
  5
1D1
330
194
100
AcDbEntity
  8
0
 62
     0
100
AcDbLine
 10
702.7997545815674
 20
387.7000000000001
 30
0.0
 11
703.3206777957277
 21
387.7000000000001
 31
0.0
  0
LINE
  5
1D2
330
194
100
AcDbEntity
  8
0
 62
     0
100
AcDbLine
 10
531.4498654777568
 20
387.8
 30
0.0
 11
531.6890632105041
 21
387.8
 31
0.0
  0
LINE
  5
1D3
330
194
100
AcDbEntity
  8
0
 62
     0
100
AcDbLine
 10
702.7497545815673
 20
387.8
 30
0.0
 11
702.9889523143221
 21
387.8
 31
0.0
  0
LINE
  5
1D4
330
194
100
AcDbEntity
  8
0
 62
     0
100
AcDbLine
 10
528.3246305613033
 20
384.7
 30
0.0
 11
530.128696025274
 21
384.7
 31
0.0
  0
LINE
  5
1D5
330
194
100
AcDbEntity
  8
0
 62
     0
100
AcDbLine
 10
704.3101217667972
 20
384.7
 30
0.0
 11
706.1141872307703
 21
384.7
 31
0.0
  0
LINE
  5
1D6
330
194
100
AcDbEntity
  8
0
 62
     0
100
AcDbLine
 10
528.2991600860273
 20
384.6
 30
0.0
 11
530.0722444123708
 21
384.6
 31
0.0
  0
LINE
  5
1D7
330
194
100
AcDbEntity
  8
0
 62
     0
100
AcDbLine
 10
704.3665733797004
 20
384.6
 30
0.0
 11
706.1396577060462
 21
384.6
 31
0.0
  0
LINE
  5
1D8
330
194
100
AcDbEntity
  8
0
 62
     0
100
AcDbLine
 10
528.2761843518947
 20
384.5
 30
0.0
 11
530.0157927994676
 21
384.5
 31
0.0
  0
LINE
  5
1D9
330
194
100
AcDbEntity
  8
0
 62
     0
100
AcDbLine
 10
704.4230249926036
 20
384.5
 30
0.0
 11
706.1626334401787
 21
384.5
 31
0.0
  0
LINE
  5
1DA
330
194
100
AcDbEntity
  8
0
 62
     0
100
AcDbLine
 10
528.2556632548176
 20
384.4
 30
0.0
 11
529.9593411865644
 21
384.4
 31
0.0
  0
LINE
  5
1DB
330
194
100
AcDbEntity
  8
0
 62
     0
100
AcDbLine
 10
704.4794766055068
 20
384.4
 30
0.0
 11
706.183154537256
 21
384.4
 31
0.0
  0
LINE
  5
1DC
330
194
100
AcDbEntity
  8
0
 62
     0
100
AcDbLine
 10
528.2375616992691
 20
384.3
 30
0.0
 11
529.902889573661
 21
384.3
 31
0.0
  0
LINE
  5
1DD
330
194
100
AcDbEntity
  8
0
 62
     0
100
AcDbLine
 10
704.5359282184101
 20
384.3
 30
0.0
 11
706.2012560928044
 21
384.3
 31
0.0
  0
LINE
  5
1DE
330
194
100
AcDbEntity
  8
0
 62
     0
100
AcDbLine
 10
528.221849281248
 20
384.2
 30
0.0
 11
529.8464379607579
 21
384.2
 31
0.0
  0
LINE
  5
1DF
330
194
100
AcDbEntity
  8
0
 62
     0
100
AcDbLine
 10
704.5923798313133
 20
384.2
 30
0.0
 11
706.2169685108255
 21
384.2
 31
0.0
  0
LINE
  5
1E0
330
194
100
AcDbEntity
  8
0
 62
     0
100
AcDbLine
 10
528.2085000215256
 20
384.1
 30
0.0
 11
529.7899863478546
 21
384.1
 31
0.0
  0
LINE
  5
1E1
330
194
100
AcDbEntity
  8
0
 62
     0
100
AcDbLine
 10
704.6488314442164
 20
384.1
 30
0.0
 11
706.2303177705479
 21
384.1
 31
0.0
  0
LINE
  5
1E2
330
194
100
AcDbEntity
  8
0
 62
     0
100
AcDbLine
 10
528.197492143484
 20
384.0
 30
0.0
 11
529.7335347349514
 21
384.0
 31
0.0
  0
LINE
  5
1E3
330
194
100
AcDbEntity
  8
0
 62
     0
100
AcDbLine
 10
704.7052830571198
 20
384.0
 30
0.0
 11
706.2413256485896
 21
384.0
 31
0.0
  0
LINE
  5
1E4
330
194
100
AcDbEntity
  8
0
 62
     0
100
AcDbLine
 10
528.1888078909613
 20
383.9
 30
0.0
 11
529.6770831220483
 21
383.9
 31
0.0
  0
LINE
  5
1E5
330
194
100
AcDbEntity
  8
0
 62
     0
100
AcDbLine
 10
704.761734670023
 20
383.9
 30
0.0
 11
706.2500099011123
 21
383.9
 31
0.0
  0
LINE
  5
1E6
330
194
100
AcDbEntity
  8
0
 62
     0
100
AcDbLine
 10
528.1824333824584
 20
383.8
 30
0.0
 11
529.620631509145
 21
383.8
 31
0.0
  0
LINE
  5
1E7
330
194
100
AcDbEntity
  8
0
 62
     0
100
AcDbLine
 10
704.8181862829262
 20
383.8
 30
0.0
 11
706.2563844096152
 21
383.8
 31
0.0
  0
LINE
  5
1E8
330
194
100
AcDbEntity
  8
0
 62
     0
100
AcDbLine
 10
528.1783584988597
 20
383.7000000000001
 30
0.0
 11
529.5641798962418
 21
383.7000000000001
 31
0.0
  0
LINE
  5
1E9
330
194
100
AcDbEntity
  8
0
 62
     0
100
AcDbLine
 10
704.8746378958294
 20
383.7000000000001
 30
0.0
 11
706.260459293214
 21
383.7000000000001
 31
0.0
  0
LINE
  5
1EA
330
194
100
AcDbEntity
  8
0
 62
     0
100
AcDbLine
 10
528.1765768025236
 20
383.6
 30
0.0
 11
529.5077282833386
 21
383.6
 31
0.0
  0
LINE
  5
1EB
330
194
100
AcDbEntity
  8
0
 62
     0
100
AcDbLine
 10
704.9310895087327
 20
383.6
 30
0.0
 11
706.26224098955
 21
383.6
 31
0.0
  0
LINE
  5
1EC
330
194
100
AcDbEntity
  8
0
 62
     0
100
AcDbLine
 10
528.177085486219
 20
383.5
 30
0.0
 11
529.4512766704354
 21
383.5
 31
0.0
  0
LINE
  5
1ED
330
194
100
AcDbEntity
  8
0
 62
     0
100
AcDbLine
 10
704.9875411216358
 20
383.5
 30
0.0
 11
706.2617323058544
 21
383.5
 31
0.0
  0
LINE
  5
1EE
330
194
100
AcDbEntity
  8
0
 62
     0
100
AcDbLine
 10
528.1798853509575
 20
383.4000000000001
 30
0.0
 11
529.394825057532
 21
383.4000000000001
 31
0.0
  0
LINE
  5
1EF
330
194
100
AcDbEntity
  8
0
 62
     0
100
AcDbLine
 10
705.043992734539
 20
383.4000000000001
 30
0.0
 11
706.2589324411161
 21
383.4000000000001
 31
0.0
  0
LINE
  5
1F0
330
194
100
AcDbEntity
  8
0
 62
     0
100
AcDbLine
 10
528.1849808123122
 20
383.3
 30
0.0
 11
529.3383734446289
 21
383.3
 31
0.0
  0
LINE
  5
1F1
330
194
100
AcDbEntity
  8
0
 62
     0
100
AcDbLine
 10
705.1004443474424
 20
383.3
 30
0.0
 11
706.2538369797614
 21
383.3
 31
0.0
  0
LINE
  5
1F2
330
194
100
AcDbEntity
  8
0
 62
     0
100
AcDbLine
 10
528.1923799353405
 20
383.2000000000001
 30
0.0
 11
529.2819218317257
 21
383.2000000000001
 31
0.0
  0
LINE
  5
1F3
330
194
100
AcDbEntity
  8
0
 62
     0
100
AcDbLine
 10
705.1568959603455
 20
383.2000000000001
 30
0.0
 11
706.2464378567331
 21
383.2000000000001
 31
0.0
  0
LINE
  5
1F4
330
194
100
AcDbEntity
  8
0
 62
     0
100
AcDbLine
 10
528.2020944987563
 20
383.1
 30
0.0
 11
529.2254702188224
 21
383.1
 31
0.0
  0
LINE
  5
1F5
330
194
100
AcDbEntity
  8
0
 62
     0
100
AcDbLine
 10
705.2133475732488
 20
383.1
 30
0.0
 11
706.2367232933172
 21
383.1
 31
0.0
  0
LINE
  5
1F6
330
194
100
AcDbEntity
  8
0
 62
     0
100
AcDbLine
 10
528.2141400895514
 20
383.0
 30
0.0
 11
529.1690186059192
 21
383.0
 31
0.0
  0
LINE
  5
1F7
330
194
100
AcDbEntity
  8
0
 62
     0
100
AcDbLine
 10
705.269799186152
 20
383.0
 30
0.0
 11
706.2246777025221
 21
383.0
 31
0.0
  0
LINE
  5
1F8
330
194
100
AcDbEntity
  8
0
 62
     0
100
AcDbLine
 10
528.2285362298583
 20
382.9
 30
0.0
 11
529.112566993016
 21
382.9
 31
0.0
  0
LINE
  5
1F9
330
194
100
AcDbEntity
  8
0
 62
     0
100
AcDbLine
 10
705.3262507990552
 20
382.9
 30
0.0
 11
706.2102815622153
 21
382.9
 31
0.0
  0
LINE
  5
1FA
330
194
100
AcDbEntity
  8
0
 62
     0
100
AcDbLine
 10
528.2453065385011
 20
382.8
 30
0.0
 11
529.0561153801128
 21
382.8
 31
0.0
  0
LINE
  5
1FB
330
194
100
AcDbEntity
  8
0
 62
     0
100
AcDbLine
 10
705.3827024119584
 20
382.8
 30
0.0
 11
706.1935112535725
 21
382.8
 31
0.0
  0
LINE
  5
1FC
330
194
100
AcDbEntity
  8
0
 62
     0
100
AcDbLine
 10
528.2644789304206
 20
382.7
 30
0.0
 11
528.9996637672095
 21
382.7
 31
0.0
  0
LINE
  5
1FD
330
194
100
AcDbEntity
  8
0
 62
     0
100
AcDbLine
 10
705.4391540248616
 20
382.7
 30
0.0
 11
706.174338861653
 21
382.7
 31
0.0
  0
LINE
  5
1FE
330
194
100
AcDbEntity
  8
0
 62
     0
100
AcDbLine
 10
528.2860858580181
 20
382.6
 30
0.0
 11
528.9432121543064
 21
382.6
 31
0.0
  0
LINE
  5
1FF
330
194
100
AcDbEntity
  8
0
 62
     0
100
AcDbLine
 10
705.4956056377648
 20
382.6
 30
0.0
 11
706.1527319340555
 21
382.6
 31
0.0
  0
LINE
  5
200
330
194
100
AcDbEntity
  8
0
 62
     0
100
AcDbLine
 10
528.3101645994695
 20
382.5
 30
0.0
 11
528.886760541403
 21
382.5
 31
0.0
  0
LINE
  5
201
330
194
100
AcDbEntity
  8
0
 62
     0
100
AcDbLine
 10
705.5520572506682
 20
382.5
 30
0.0
 11
706.1286531926042
 21
382.5
 31
0.0
  0
LINE
  5
202
330
194
100
AcDbEntity
  8
0
 62
     0
100
AcDbLine
 10
528.3367576002667
 20
382.4
 30
0.0
 11
528.8303089284998
 21
382.4
 31
0.0
  0
LINE
  5
203
330
194
100
AcDbEntity
  8
0
 62
     0
100
AcDbLine
 10
705.6085088635714
 20
382.4
 30
0.0
 11
706.1020601918069
 21
382.4
 31
0.0
  0
LINE
  5
204
330
194
100
AcDbEntity
  8
0
 62
     0
100
AcDbLine
 10
528.3659128757058
 20
382.3
 30
0.0
 11
528.7738573155966
 21
382.3
 31
0.0
  0
LINE
  5
205
330
194
100
AcDbEntity
  8
0
 62
     0
100
AcDbLine
 10
705.6649604764746
 20
382.3
 30
0.0
 11
706.0729049163678
 21
382.3
 31
0.0
  0
LINE
  5
206
330
194
100
AcDbEntity
  8
0
 62
     0
100
AcDbLine
 10
528.3976844838263
 20
382.2
 30
0.0
 11
528.7174057026934
 21
382.2
 31
0.0
  0
LINE
  5
207
330
194
100
AcDbEntity
  8
0
 62
     0
100
AcDbLine
 10
705.7214120893778
 20
382.2
 30
0.0
 11
706.0411333082474
 21
382.2
 31
0.0
  0
LINE
  5
208
330
194
100
AcDbEntity
  8
0
 62
     0
100
AcDbLine
 10
528.4321330805304
 20
382.1
 30
0.0
 11
528.6609540897901
 21
382.1
 31
0.0
  0
LINE
  5
209
330
194
100
AcDbEntity
  8
0
 62
     0
100
AcDbLine
 10
705.777863702281
 20
382.1
 30
0.0
 11
706.0066847115433
 21
382.1
 31
0.0
  0
LINE
  5
20A
330
194
100
AcDbEntity
  8
0
 62
     0
100
AcDbLine
 10
528.4693265713806
 20
382.0
 30
0.0
 11
528.604502476887
 21
382.0
 31
0.0
  0
LINE
  5
20B
330
194
100
AcDbEntity
  8
0
 62
     0
100
AcDbLine
 10
705.8343153151843
 20
382.0
 30
0.0
 11
705.9694912206931
 21
382.0
 31
0.0
  0
LINE
  5
20C
330
194
100
AcDbEntity
  8
0
 62
     0
100
AcDbLine
 10
528.5093408780815
 20
381.9
 30
0.0
 11
528.5480508639838
 21
381.9
 31
0.0
  0
LINE
  5
20D
330
194
100
AcDbEntity
  8
0
 62
     0
100
AcDbLine
 10
705.8907669280874
 20
381.9
 30
0.0
 11
705.9294769139924
 21
381.9
 31
0.0
  0
ENDBLK
  5
20E
330
194
100
AcDbEntity
  8
0
100
AcDbBlockEnd
  0
BLOCK
  5
210
330
20F
100
AcDbEntity
  8
0
100
AcDbBlockBegin
  2
*X2
 70
     1
 10
0.0
 20
0.0
 30
0.0
  3
*X2
  1

  0
LINE
  5
211
330
20F
100
AcDbEntity
  8
0
 62
     0
100
AcDbLine
 10
493.9063661699737
 20
322.8
 30
0.0
 11
495.1974082740251
 21
322.8
 31
0.0
  0
LINE
  5
212
330
20F
100
AcDbEntity
  8
0
 62
     0
100
AcDbLine
 10
739.241409518046
 20
322.8
 30
0.0
 11
740.5324516220933
 21
322.8
 31
0.0
  0
LINE
  5
213
330
20F
100
AcDbEntity
  8
0
 62
     0
100
AcDbLine
 10
493.9348741753653
 20
322.9
 30
0.0
 11
495.2415992510802
 21
322.9
 31
0.0
  0
LINE
  5
214
330
20F
100
AcDbEntity
  8
0
 62
     0
100
AcDbLine
 10
739.1972185409906
 20
322.9
 30
0.0
 11
740.5039436167018
 21
322.9
 31
0.0
  0
LINE
  5
215
330
20F
100
AcDbEntity
  8
0
 62
     0
100
AcDbLine
 10
493.9659708455983
 20
323.0
 30
0.0
 11
495.2980508639834
 21
323.0
 31
0.0
  0
LINE
  5
216
330
20F
100
AcDbEntity
  8
0
 62
     0
100
AcDbLine
 10
739.1407669280875
 20
323.0
 30
0.0
 11
740.4728469464687
 21
323.0
 31
0.0
  0
LINE
  5
217
330
20F
100
AcDbEntity
  8
0
 62
     0
100
AcDbLine
 10
493.9997144859332
 20
323.1
 30
0.0
 11
495.3545024768867
 21
323.1
 31
0.0
  0
LINE
  5
218
330
20F
100
AcDbEntity
  8
0
 62
     0
100
AcDbLine
 10
739.0843153151841
 20
323.1
 30
0.0
 11
740.4391033061338
 21
323.1
 31
0.0
  0
LINE
  5
219
330
20F
100
AcDbEntity
  8
0
 62
     0
100
AcDbLine
 10
494.0361703640323
 20
323.2000000000001
 30
0.0
 11
495.4109540897899
 21
323.2000000000001
 31
0.0
  0
LINE
  5
21A
330
20F
100
AcDbEntity
  8
0
 62
     0
100
AcDbLine
 10
739.0278637022809
 20
323.2000000000001
 30
0.0
 11
740.4026474280345
 21
323.2000000000001
 31
0.0
  0
LINE
  5
21B
330
20F
100
AcDbEntity
  8
0
 62
     0
100
AcDbLine
 10
494.0754114295176
 20
323.3
 30
0.0
 11
495.4674057026931
 21
323.3
 31
0.0
  0
LINE
  5
21C
330
20F
100
AcDbEntity
  8
0
 62
     0
100
AcDbLine
 10
738.9714120893778
 20
323.3
 30
0.0
 11
740.3634063625491
 21
323.3
 31
0.0
  0
LINE
  5
21D
330
20F
100
AcDbEntity
  8
0
 62
     0
100
AcDbLine
 10
494.1175191609274
 20
323.4
 30
0.0
 11
495.5238573155964
 21
323.4
 31
0.0
  0
LINE
  5
21E
330
20F
100
AcDbEntity
  8
0
 62
     0
100
AcDbLine
 10
738.9149604764745
 20
323.4
 30
0.0
 11
740.3212986311394
 21
323.4
 31
0.0
  0
LINE
  5
21F
330
20F
100
AcDbEntity
  8
0
 62
     0
100
AcDbLine
 10
494.1625845658122
 20
323.5
 30
0.0
 11
495.5803089284995
 21
323.5
 31
0.0
  0
LINE
  5
220
330
20F
100
AcDbEntity
  8
0
 62
     0
100
AcDbLine
 10
738.8585088635713
 20
323.5
 30
0.0
 11
740.2762332262546
 21
323.5
 31
0.0
  0
LINE
  5
221
330
20F
100
AcDbEntity
  8
0
 62
     0
100
AcDbLine
 10
494.2107093664284
 20
323.6
 30
0.0
 11
495.6367605414028
 21
323.6
 31
0.0
  0
LINE
  5
222
330
20F
100
AcDbEntity
  8
0
 62
     0
100
AcDbLine
 10
738.8020572506681
 20
323.6
 30
0.0
 11
740.2281084256383
 21
323.6
 31
0.0
  0
LINE
  5
223
330
20F
100
AcDbEntity
  8
0
 62
     0
100
AcDbLine
 10
494.2620074122788
 20
323.7
 30
0.0
 11
495.693212154306
 21
323.7
 31
0.0
  0
LINE
  5
224
330
20F
100
AcDbEntity
  8
0
 62
     0
100
AcDbLine
 10
738.7456056377649
 20
323.7
 30
0.0
 11
740.1768103797877
 21
323.7
 31
0.0
  0
LINE
  5
225
330
20F
100
AcDbEntity
  8
0
 62
     0
100
AcDbLine
 10
494.3166063723746
 20
323.8
 30
0.0
 11
495.7496637672092
 21
323.8
 31
0.0
  0
LINE
  5
226
330
20F
100
AcDbEntity
  8
0
 62
     0
100
AcDbLine
 10
738.6891540248616
 20
323.8
 30
0.0
 11
740.1222114196919
 21
323.8
 31
0.0
  0
LINE
  5
227
330
20F
100
AcDbEntity
  8
0
 62
     0
100
AcDbLine
 10
494.3746497756381
 20
323.9
 30
0.0
 11
495.8061153801124
 21
323.9
 31
0.0
  0
LINE
  5
228
330
20F
100
AcDbEntity
  8
0
 62
     0
100
AcDbLine
 10
738.6327024119585
 20
323.9
 30
0.0
 11
740.0641680164283
 21
323.9
 31
0.0
  0
LINE
  5
229
330
20F
100
AcDbEntity
  8
0
 62
     0
100
AcDbLine
 10
494.4362994889124
 20
324.0
 30
0.0
 11
495.8625669930157
 21
324.0
 31
0.0
  0
LINE
  5
22A
330
20F
100
AcDbEntity
  8
0
 62
     0
100
AcDbLine
 10
738.5762507990551
 20
324.0
 30
0.0
 11
740.0025183031539
 21
324.0
 31
0.0
  0
LINE
  5
22B
330
20F
100
AcDbEntity
  8
0
 62
     0
100
AcDbLine
 10
494.5017387509154
 20
324.1
 30
0.0
 11
495.9190186059189
 21
324.1
 31
0.0
  0
LINE
  5
22C
330
20F
100
AcDbEntity
  8
0
 62
     0
100
AcDbLine
 10
738.5197991861519
 20
324.1
 30
0.0
 11
739.9370790411508
 21
324.1
 31
0.0
  0
LINE
  5
22D
330
20F
100
AcDbEntity
  8
0
 62
     0
100
AcDbLine
 10
494.5711759206422
 20
324.2
 30
0.0
 11
495.9754702188221
 21
324.2
 31
0.0
  0
LINE
  5
22E
330
20F
100
AcDbEntity
  8
0
 62
     0
100
AcDbLine
 10
738.4633475732487
 20
324.2
 30
0.0
 11
739.867641871424
 21
324.2
 31
0.0
  0
LINE
  5
22F
330
20F
100
AcDbEntity
  8
0
 62
     0
100
AcDbLine
 10
494.6448491554964
 20
324.3
 30
0.0
 11
496.0319218317254
 21
324.3
 31
0.0
  0
LINE
  5
230
330
20F
100
AcDbEntity
  8
0
 62
     0
100
AcDbLine
 10
738.4068959603455
 20
324.3
 30
0.0
 11
739.7939686365694
 21
324.3
 31
0.0
  0
LINE
  5
231
330
20F
100
AcDbEntity
  8
0
 62
     0
100
AcDbLine
 10
494.7230323160578
 20
324.4
 30
0.0
 11
496.0883734446286
 21
324.4
 31
0.0
  0
LINE
  5
232
330
20F
100
AcDbEntity
  8
0
 62
     0
100
AcDbLine
 10
738.3504443474423
 20
324.4
 30
0.0
 11
739.7157854760081
 21
324.4
 31
0.0
  0
LINE
  5
233
330
20F
100
AcDbEntity
  8
0
 62
     0
100
AcDbLine
 10
494.8060425139828
 20
324.5
 30
0.0
 11
496.1448250575318
 21
324.5
 31
0.0
  0
LINE
  5
234
330
20F
100
AcDbEntity
  8
0
 62
     0
100
AcDbLine
 10
738.2939927345391
 20
324.5
 30
0.0
 11
739.6327752780829
 21
324.5
 31
0.0
  0
LINE
  5
235
330
20F
100
AcDbEntity
  8
0
 62
     0
100
AcDbLine
 10
494.8942498984977
 20
324.6
 30
0.0
 11
496.201276670435
 21
324.6
 31
0.0
  0
LINE
  5
236
330
20F
100
AcDbEntity
  8
0
 62
     0
100
AcDbLine
 10
738.2375411216359
 20
324.6
 30
0.0
 11
739.5445678935678
 21
324.6
 31
0.0
  0
LINE
  5
237
330
20F
100
AcDbEntity
  8
0
 62
     0
100
AcDbLine
 10
494.9880905510503
 20
324.7
 30
0.0
 11
496.2577282833383
 21
324.7
 31
0.0
  0
LINE
  5
238
330
20F
100
AcDbEntity
  8
0
 62
     0
100
AcDbLine
 10
738.1810895087326
 20
324.7
 30
0.0
 11
739.4507272410151
 21
324.7
 31
0.0
  0
LINE
  5
239
330
20F
100
AcDbEntity
  8
0
 62
     0
100
AcDbLine
 10
495.0880837888409
 20
324.8
 30
0.0
 11
496.3141798962415
 21
324.8
 31
0.0
  0
LINE
  5
23A
330
20F
100
AcDbEntity
  8
0
 62
     0
100
AcDbLine
 10
738.1246378958294
 20
324.8
 30
0.0
 11
739.3507340032242
 21
324.8
 31
0.0
  0
LINE
  5
23B
330
20F
100
AcDbEntity
  8
0
 62
     0
100
AcDbLine
 10
495.1948558767035
 20
324.9
 30
0.0
 11
496.3706315091447
 21
324.9
 31
0.0
  0
LINE
  5
23C
330
20F
100
AcDbEntity
  8
0
 62
     0
100
AcDbLine
 10
738.0681862829261
 20
324.9
 30
0.0
 11
739.2439619153614
 21
324.9
 31
0.0
  0
LINE
  5
23D
330
20F
100
AcDbEntity
  8
0
 62
     0
100
AcDbLine
 10
495.3091733188365
 20
325.0
 30
0.0
 11
496.4270831220479
 21
325.0
 31
0.0
  0
LINE
  5
23E
330
20F
100
AcDbEntity
  8
0
 62
     0
100
AcDbLine
 10
738.0117346700229
 20
325.0
 30
0.0
 11
739.129644473228
 21
325.0
 31
0.0
  0
LINE
  5
23F
330
20F
100
AcDbEntity
  8
0
 62
     0
100
AcDbLine
 10
495.431990947447
 20
325.1
 30
0.0
 11
496.4835347349512
 21
325.1
 31
0.0
  0
LINE
  5
240
330
20F
100
AcDbEntity
  8
0
 62
     0
100
AcDbLine
 10
737.9552830571197
 20
325.1
 30
0.0
 11
739.0068268446172
 21
325.1
 31
0.0
  0
LINE
  5
241
330
20F
100
AcDbEntity
  8
0
 62
     0
100
AcDbLine
 10
495.5645237657844
 20
325.2000000000001
 30
0.0
 11
496.5399863478544
 21
325.2000000000001
 31
0.0
  0
LINE
  5
242
330
20F
100
AcDbEntity
  8
0
 62
     0
100
AcDbLine
 10
737.8988314442165
 20
325.2000000000001
 30
0.0
 11
738.8742940262796
 21
325.2000000000001
 31
0.0
  0
LINE
  5
243
330
20F
100
AcDbEntity
  8
0
 62
     0
100
AcDbLine
 10
495.7083587326717
 20
325.3
 30
0.0
 11
496.5964379607576
 21
325.3
 31
0.0
  0
LINE
  5
244
330
20F
100
AcDbEntity
  8
0
 62
     0
100
AcDbLine
 10
737.8423798313133
 20
325.3
 30
0.0
 11
738.7304590593917
 21
325.3
 31
0.0
  0
LINE
  5
245
330
20F
100
AcDbEntity
  8
0
 62
     0
100
AcDbLine
 10
495.8656376218108
 20
325.4
 30
0.0
 11
496.6528895736608
 21
325.4
 31
0.0
  0
LINE
  5
246
330
20F
100
AcDbEntity
  8
0
 62
     0
100
AcDbLine
 10
737.78592821841
 20
325.4
 30
0.0
 11
738.573180170252
 21
325.4
 31
0.0
  0
LINE
  5
247
330
20F
100
AcDbEntity
  8
0
 62
     0
100
AcDbLine
 10
496.0393756821883
 20
325.5
 30
0.0
 11
496.709341186564
 21
325.5
 31
0.0
  0
LINE
  5
248
330
20F
100
AcDbEntity
  8
0
 62
     0
100
AcDbLine
 10
737.7294766055069
 20
325.5
 30
0.0
 11
738.3994421098739
 21
325.5
 31
0.0
  0
LINE
  5
249
330
20F
100
AcDbEntity
  8
0
 62
     0
100
AcDbLine
 10
496.2340648758684
 20
325.6
 30
0.0
 11
496.7657927994673
 21
325.6
 31
0.0
  0
LINE
  5
24A
330
20F
100
AcDbEntity
  8
0
 62
     0
100
AcDbLine
 10
737.6730249926035
 20
325.6
 30
0.0
 11
738.2047529161929
 21
325.6
 31
0.0
  0
LINE
  5
24B
330
20F
100
AcDbEntity
  8
0
 62
     0
100
AcDbLine
 10
496.4569532901728
 20
325.7000000000001
 30
0.0
 11
496.8222444123705
 21
325.7000000000001
 31
0.0
  0
LINE
  5
24C
330
20F
100
AcDbEntity
  8
0
 62
     0
100
AcDbLine
 10
737.6165733797003
 20
325.7000000000001
 30
0.0
 11
737.9818645018871
 21
325.7000000000001
 31
0.0
  0
LINE
  5
24D
330
20F
100
AcDbEntity
  8
0
 62
     0
100
AcDbLine
 10
496.7212548065679
 20
325.8
 30
0.0
 11
496.8786960252737
 21
325.8
 31
0.0
  0
LINE
  5
24E
330
20F
100
AcDbEntity
  8
0
 62
     0
100
AcDbLine
 10
737.5601217667971
 20
325.8
 30
0.0
 11
737.7175629854897
 21
325.8
 31
0.0
  0
LINE
  5
24F
330
20F
100
AcDbEntity
  8
0
 62
     0
100
AcDbLine
 10
493.8803948738558
 20
322.7
 30
0.0
 11
495.1611582740252
 21
322.7
 31
0.0
  0
LINE
  5
250
330
20F
100
AcDbEntity
  8
0
 62
     0
100
AcDbLine
 10
739.277659518046
 20
322.7
 30
0.0
 11
740.5584229182112
 21
322.7
 31
0.0
  0
LINE
  5
251
330
20F
100
AcDbEntity
  8
0
 62
     0
100
AcDbLine
 10
493.8569141587683
 20
322.6
 30
0.0
 11
495.1249082740251
 21
322.6
 31
0.0
  0
LINE
  5
252
330
20F
100
AcDbEntity
  8
0
 62
     0
100
AcDbLine
 10
739.3139095180459
 20
322.6
 30
0.0
 11
740.5819036332989
 21
322.6
 31
0.0
  0
LINE
  5
253
330
20F
100
AcDbEntity
  8
0
 62
     0
100
AcDbLine
 10
493.8358832784419
 20
322.5
 30
0.0
 11
495.0886582740252
 21
322.5
 31
0.0
  0
LINE
  5
254
330
20F
100
AcDbEntity
  8
0
 62
     0
100
AcDbLine
 10
739.350159518046
 20
322.5
 30
0.0
 11
740.6029345136253
 21
322.5
 31
0.0
  0
LINE
  5
255
330
20F
100
AcDbEntity
  8
0
 62
     0
100
AcDbLine
 10
493.8172664894556
 20
322.4
 30
0.0
 11
495.0524082740251
 21
322.4
 31
0.0
  0
LINE
  5
256
330
20F
100
AcDbEntity
  8
0
 62
     0
100
AcDbLine
 10
739.3864095180459
 20
322.4
 30
0.0
 11
740.6215513026116
 21
322.4
 31
0.0
  0
LINE
  5
257
330
20F
100
AcDbEntity
  8
0
 62
     0
100
AcDbLine
 10
493.8010327295669
 20
322.3
 30
0.0
 11
495.0161582740252
 21
322.3
 31
0.0
  0
LINE
  5
258
330
20F
100
AcDbEntity
  8
0
 62
     0
100
AcDbLine
 10
739.422659518046
 20
322.3
 30
0.0
 11
740.6377850625002
 21
322.3
 31
0.0
  0
LINE
  5
259
330
20F
100
AcDbEntity
  8
0
 62
     0
100
AcDbLine
 10
493.7871553463777
 20
322.2
 30
0.0
 11
494.9799082740252
 21
322.2
 31
0.0
  0
LINE
  5
25A
330
20F
100
AcDbEntity
  8
0
 62
     0
100
AcDbLine
 10
739.4589095180459
 20
322.2
 30
0.0
 11
740.6516624456895
 21
322.2
 31
0.0
  0
LINE
  5
25B
330
20F
100
AcDbEntity
  8
0
 62
     0
100
AcDbLine
 10
493.7756118705567
 20
322.1
 30
0.0
 11
494.9436582740251
 21
322.1
 31
0.0
  0
LINE
  5
25C
330
20F
100
AcDbEntity
  8
0
 62
     0
100
AcDbLine
 10
739.4951595180459
 20
322.1
 30
0.0
 11
740.6632059215106
 21
322.1
 31
0.0
  0
LINE
  5
25D
330
20F
100
AcDbEntity
  8
0
 62
     0
100
AcDbLine
 10
493.7663838289563
 20
322.0
 30
0.0
 11
494.9074082740251
 21
322.0
 31
0.0
  0
LINE
  5
25E
330
20F
100
AcDbEntity
  8
0
 62
     0
100
AcDbLine
 10
739.531409518046
 20
322.0
 30
0.0
 11
740.6724339631109
 21
322.0
 31
0.0
  0
LINE
  5
25F
330
20F
100
AcDbEntity
  8
0
 62
     0
100
AcDbLine
 10
493.7594565938979
 20
321.9
 30
0.0
 11
494.8711582740251
 21
321.9
 31
0.0
  0
LINE
  5
260
330
20F
100
AcDbEntity
  8
0
 62
     0
100
AcDbLine
 10
739.5676595180459
 20
321.9
 30
0.0
 11
740.6793611981695
 21
321.9
 31
0.0
  0
LINE
  5
261
330
20F
100
AcDbEntity
  8
0
 62
     0
100
AcDbLine
 10
493.7548192656966
 20
321.8
 30
0.0
 11
494.8349082740251
 21
321.8
 31
0.0
  0
LINE
  5
262
330
20F
100
AcDbEntity
  8
0
 62
     0
100
AcDbLine
 10
739.603909518046
 20
321.8
 30
0.0
 11
740.6839985263707
 21
321.8
 31
0.0
  0
LINE
  5
263
330
20F
100
AcDbEntity
  8
0
 62
     0
100
AcDbLine
 10
493.7524645861963
 20
321.7
 30
0.0
 11
494.7986582740251
 21
321.7
 31
0.0
  0
LINE
  5
264
330
20F
100
AcDbEntity
  8
0
 62
     0
100
AcDbLine
 10
739.6401595180459
 20
321.7
 30
0.0
 11
740.686353205871
 21
321.7
 31
0.0
  0
LINE
  5
265
330
20F
100
AcDbEntity
  8
0
 62
     0
100
AcDbLine
 10
493.7523888816953
 20
321.6
 30
0.0
 11
494.7624082740252
 21
321.6
 31
0.0
  0
LINE
  5
266
330
20F
100
AcDbEntity
  8
0
 62
     0
100
AcDbLine
 10
739.676409518046
 20
321.6
 30
0.0
 11
740.6864289103721
 21
321.6
 31
0.0
  0
LINE
  5
267
330
20F
100
AcDbEntity
  8
0
 62
     0
100
AcDbLine
 10
493.7545920342124
 20
321.5
 30
0.0
 11
494.7261582740251
 21
321.5
 31
0.0
  0
LINE
  5
268
330
20F
100
AcDbEntity
  8
0
 62
     0
100
AcDbLine
 10
739.712659518046
 20
321.5
 30
0.0
 11
740.6842257578549
 21
321.5
 31
0.0
  0
LINE
  5
269
330
20F
100
AcDbEntity
  8
0
 62
     0
100
AcDbLine
 10
493.7590774805665
 20
321.4
 30
0.0
 11
494.6899082740252
 21
321.4
 31
0.0
  0
LINE
  5
26A
330
20F
100
AcDbEntity
  8
0
 62
     0
100
AcDbLine
 10
739.7489095180461
 20
321.4
 30
0.0
 11
740.6797403115009
 21
321.4
 31
0.0
  0
LINE
  5
26B
330
20F
100
AcDbEntity
  8
0
 62
     0
100
AcDbLine
 10
493.7658522392503
 20
321.3
 30
0.0
 11
494.6536582740251
 21
321.3
 31
0.0
  0
LINE
  5
26C
330
20F
100
AcDbEntity
  8
0
 62
     0
100
AcDbLine
 10
739.785159518046
 20
321.3
 30
0.0
 11
740.6729655528171
 21
321.3
 31
0.0
  0
LINE
  5
26D
330
20F
100
AcDbEntity
  8
0
 62
     0
100
AcDbLine
 10
493.7749269655953
 20
321.2000000000001
 30
0.0
 11
494.6174082740252
 21
321.2000000000001
 31
0.0
  0
LINE
  5
26E
330
20F
100
AcDbEntity
  8
0
 62
     0
100
AcDbLine
 10
739.821409518046
 20
321.2000000000001
 30
0.0
 11
740.6638908264721
 21
321.2000000000001
 31
0.0
  0
LINE
  5
26F
330
20F
100
AcDbEntity
  8
0
 62
     0
100
AcDbLine
 10
493.7863160362399
 20
321.1
 30
0.0
 11
494.5811582740251
 21
321.1
 31
0.0
  0
LINE
  5
270
330
20F
100
AcDbEntity
  8
0
 62
     0
100
AcDbLine
 10
739.857659518046
 20
321.1
 30
0.0
 11
740.6525017558275
 21
321.1
 31
0.0
  0
LINE
  5
271
330
20F
100
AcDbEntity
  8
0
 62
     0
100
AcDbLine
 10
493.8000376644811
 20
321.0
 30
0.0
 11
494.5449082740251
 21
321.0
 31
0.0
  0
LINE
  5
272
330
20F
100
AcDbEntity
  8
0
 62
     0
100
AcDbLine
 10
739.893909518046
 20
321.0
 30
0.0
 11
740.6387801275863
 21
321.0
 31
0.0
  0
LINE
  5
273
330
20F
100
AcDbEntity
  8
0
 62
     0
100
AcDbLine
 10
493.8161140486981
 20
320.9
 30
0.0
 11
494.5086582740251
 21
320.9
 31
0.0
  0
LINE
  5
274
330
20F
100
AcDbEntity
  8
0
 62
     0
100
AcDbLine
 10
739.930159518046
 20
320.9
 30
0.0
 11
740.6227037433693
 21
320.9
 31
0.0
  0
LINE
  5
275
330
20F
100
AcDbEntity
  8
0
 62
     0
100
AcDbLine
 10
493.8345715567256
 20
320.8
 30
0.0
 11
494.4724082740251
 21
320.8
 31
0.0
  0
LINE
  5
276
330
20F
100
AcDbEntity
  8
0
 62
     0
100
AcDbLine
 10
739.966409518046
 20
320.8
 30
0.0
 11
740.6042462353418
 21
320.8
 31
0.0
  0
LINE
  5
277
330
20F
100
AcDbEntity
  8
0
 62
     0
100
AcDbLine
 10
493.8554409498468
 20
320.7000000000001
 30
0.0
 11
494.4361582740251
 21
320.7000000000001
 31
0.0
  0
LINE
  5
278
330
20F
100
AcDbEntity
  8
0
 62
     0
100
AcDbLine
 10
740.002659518046
 20
320.7000000000001
 30
0.0
 11
740.5833768422205
 21
320.7000000000001
 31
0.0
  0
LINE
  5
279
330
20F
100
AcDbEntity
  8
0
 62
     0
100
AcDbLine
 10
493.8787576510005
 20
320.6
 30
0.0
 11
494.3999082740251
 21
320.6
 31
0.0
  0
LINE
  5
27A
330
20F
100
AcDbEntity
  8
0
 62
     0
100
AcDbLine
 10
740.038909518046
 20
320.6
 30
0.0
 11
740.5600601410668
 21
320.6
 31
0.0
  0
LINE
  5
27B
330
20F
100
AcDbEntity
  8
0
 62
     0
100
AcDbLine
 10
493.9045620629006
 20
320.5
 30
0.0
 11
494.3636582740252
 21
320.5
 31
0.0
  0
LINE
  5
27C
330
20F
100
AcDbEntity
  8
0
 62
     0
100
AcDbLine
 10
740.075159518046
 20
320.5
 30
0.0
 11
740.5342557291666
 21
320.5
 31
0.0
  0
LINE
  5
27D
330
20F
100
AcDbEntity
  8
0
 62
     0
100
AcDbLine
 10
493.9328999430924
 20
320.4000000000001
 30
0.0
 11
494.3274082740251
 21
320.4000000000001
 31
0.0
  0
LINE
  5
27E
330
20F
100
AcDbEntity
  8
0
 62
     0
100
AcDbLine
 10
740.111409518046
 20
320.4000000000001
 30
0.0
 11
740.5059178489749
 21
320.4000000000001
 31
0.0
  0
LINE
  5
27F
330
20F
100
AcDbEntity
  8
0
 62
     0
100
AcDbLine
 10
493.9638228445912
 20
320.3
 30
0.0
 11
494.2911582740251
 21
320.3
 31
0.0
  0
LINE
  5
280
330
20F
100
AcDbEntity
  8
0
 62
     0
100
AcDbLine
 10
740.147659518046
 20
320.3
 30
0.0
 11
740.474994947476
 21
320.3
 31
0.0
  0
LINE
  5
281
330
20F
100
AcDbEntity
  8
0
 62
     0
100
AcDbLine
 10
493.9973886327504
 20
320.2
 30
0.0
 11
494.2549082740251
 21
320.2
 31
0.0
  0
LINE
  5
282
330
20F
100
AcDbEntity
  8
0
 62
     0
100
AcDbLine
 10
740.1839095180459
 20
320.2
 30
0.0
 11
740.441429159317
 21
320.2
 31
0.0
  0
LINE
  5
283
330
20F
100
AcDbEntity
  8
0
 62
     0
100
AcDbLine
 10
494.0336620914936
 20
320.1
 30
0.0
 11
494.2186582740251
 21
320.1
 31
0.0
  0
LINE
  5
284
330
20F
100
AcDbEntity
  8
0
 62
     0
100
AcDbLine
 10
740.220159518046
 20
320.1
 30
0.0
 11
740.4051557005735
 21
320.1
 31
0.0
  0
LINE
  5
285
330
20F
100
AcDbEntity
  8
0
 62
     0
100
AcDbLine
 10
494.0727156351847
 20
320.0
 30
0.0
 11
494.1824082740251
 21
320.0
 31
0.0
  0
LINE
  5
286
330
20F
100
AcDbEntity
  8
0
 62
     0
100
AcDbLine
 10
740.2564095180459
 20
320.0
 30
0.0
 11
740.3661021568824
 21
320.0
 31
0.0
  0
LINE
  5
287
330
20F
100
AcDbEntity
  8
0
 62
     0
100
AcDbLine
 10
494.1146301463835
 20
319.9
 30
0.0
 11
494.1461582740251
 21
319.9
 31
0.0
  0
LINE
  5
288
330
20F
100
AcDbEntity
  8
0
 62
     0
100
AcDbLine
 10
740.292659518046
 20
319.9
 30
0.0
 11
740.3241876456836
 21
319.9
 31
0.0
  0
ENDBLK
  5
289
330
20F
100
AcDbEntity
  8
0
100
AcDbBlockEnd
  0
BLOCK
  5
43F
330
434
100
AcDbEntity
  8
0
100
AcDbBlockBegin
  2
*D7
 70
     1
 10
0.0
 20
0.0
 30
0.0
  3
*D7
  1

  0
LINE
  5
577
330
434
100
AcDbEntity
  8
BEM
 62
     0
370
    -2
100
AcDbLine
 10
166.7356399313181
 20
438.7649088805567
 30
0.0
 11
166.7356399313181
 21
458.9319653359048
 31
0.0
  0
LINE
  5
578
330
434
100
AcDbEntity
  8
BEM
 62
     0
370
    -2
100
AcDbLine
 10
325.735639931318
 20
438.7649088805567
 30
0.0
 11
325.735639931318
 21
458.9319653359048
 31
0.0
  0
LINE
  5
579
330
434
100
AcDbEntity
  8
BEM
 62
     0
370
    -2
100
AcDbLine
 10
173.7356399313181
 20
456.9319653359048
 30
0.0
 11
318.735639931318
 21
456.9319653359048
 31
0.0
  0
SOLID
  5
57A
330
434
100
AcDbEntity
  8
BEM
 62
     0
100
AcDbTrace
 10
173.7356399313181
 20
458.0986320025715
 30
0.0
 11
173.7356399313181
 21
455.7652986692382
 31
0.0
 12
166.7356399313181
 22
456.9319653359048
 32
0.0
 13
166.7356399313181
 23
456.9319653359048
 33
0.0
  0
SOLID
  5
57B
330
434
100
AcDbEntity
  8
BEM
 62
     0
100
AcDbTrace
 10
318.735639931318
 20
458.0986320025715
 30
0.0
 11
318.735639931318
 21
455.7652986692382
 31
0.0
 12
325.735639931318
 22
456.9319653359048
 32
0.0
 13
325.735639931318
 23
456.9319653359048
 33
0.0
  0
MTEXT
  5
57C
330
434
100
AcDbEntity
  8
BEM
 62
     1
100
AcDbMText
 10
246.2356399313181
 20
463.4319653359049
 30
0.0
 40
7.0
 41
0.0
 71
     5
 72
     1
  1
\A1;%%c159
 73
     1
 44
1.0
  0
POINT
  5
57D
330
434
100
AcDbEntity
  8
DEFPOINTS
 62
     0
100
AcDbPoint
 10
166.7356399313181
 20
436.7649088805566
 30
0.0
  0
POINT
  5
57E
330
434
100
AcDbEntity
  8
DEFPOINTS
 62
     0
100
AcDbPoint
 10
325.735639931318
 20
436.7649088805566
 30
0.0
  0
POINT
  5
57F
330
434
100
AcDbEntity
  8
DEFPOINTS
 62
     0
100
AcDbPoint
 10
325.735639931318
 20
456.9319653359048
 30
0.0
  0
ENDBLK
  5
440
330
434
100
AcDbEntity
  8
0
100
AcDbBlockEnd
  0
BLOCK
  5
466
330
45B
100
AcDbEntity
  8
0
100
AcDbBlockBegin
  2
*D10
 70
     1
 10
0.0
 20
0.0
 30
0.0
  3
*D10
  1

  0
LINE
  5
5FC
330
45B
100
AcDbEntity
  8
BEM
 62
     0
370
    -2
100
AcDbLine
 10
157.4771951339119
 20
524.2926567951608
 30
0.0
 11
82.60928069708933
 21
524.2926567951608
 31
0.0
  0
LINE
  5
5FD
330
45B
100
AcDbEntity
  8
BEM
 62
     0
370
    -2
100
AcDbLine
 10
107.7356399313179
 20
244.2926567951608
 30
0.0
 11
82.60928069708928
 21
244.2926567951608
 31
0.0
  0
LINE
  5
5FE
330
45B
100
AcDbEntity
  8
BEM
 62
     0
370
    -2
100
AcDbLine
 10
84.60928069708932
 20
517.2926567951608
 30
0.0
 11
84.60928069708927
 21
251.2926567951609
 31
0.0
  0
SOLID
  5
5FF
330
45B
100
AcDbEntity
  8
BEM
 62
     0
100
AcDbTrace
 10
83.44261403042265
 20
517.2926567951608
 30
0.0
 11
85.77594736375599
 21
517.2926567951608
 31
0.0
 12
84.60928069708932
 22
524.2926567951608
 32
0.0
 13
84.60928069708932
 23
524.2926567951608
 33
0.0
  0
SOLID
  5
600
330
45B
100
AcDbEntity
  8
BEM
 62
     0
100
AcDbTrace
 10
83.4426140304226
 20
251.2926567951609
 30
0.0
 11
85.77594736375594
 21
251.2926567951609
 31
0.0
 12
84.60928069708927
 22
244.2926567951608
 32
0.0
 13
84.60928069708927
 23
244.2926567951608
 33
0.0
  0
MTEXT
  5
601
330
45B
100
AcDbEntity
  8
BEM
 62
     1
100
AcDbMText
 10
78.10928069708925
 20
384.2926567951608
 30
0.0
 40
7.0
 41
0.0
 71
     5
 72
     1
  1
\A1;280
 11
0.0000000000000001
 21
1.0
 31
0.0
 73
     1
 44
1.0
  0
POINT
  5
602
330
45B
100
AcDbEntity
  8
DEFPOINTS
 62
     0
100
AcDbPoint
 10
159.4771951339119
 20
524.2926567951608
 30
0.0
  0
POINT
  5
603
330
45B
100
AcDbEntity
  8
DEFPOINTS
 62
     0
100
AcDbPoint
 10
109.7356399313179
 20
244.2926567951608
 30
0.0
  0
POINT
  5
604
330
45B
100
AcDbEntity
  8
DEFPOINTS
 62
     0
100
AcDbPoint
 10
84.60928069708927
 20
244.2926567951608
 30
0.0
  0
ENDBLK
  5
467
330
45B
100
AcDbEntity
  8
0
100
AcDbBlockEnd
  0
BLOCK
  5
48D
330
482
100
AcDbEntity
  8
0
100
AcDbBlockBegin
  2
*D13
 70
     1
 10
0.0
 20
0.0
 30
0.0
  3
*D13
  1

  0
LINE
  5
541
330
482
100
AcDbEntity
  8
BEM
 62
     0
370
    -2
100
AcDbLine
 10
107.7356399313179
 20
244.2926567951608
 30
0.0
 11
98.21669658759883
 21
244.2926567951608
 31
0.0
  0
LINE
  5
542
330
482
100
AcDbEntity
  8
BEM
 62
     0
370
    -2
100
AcDbLine
 10
107.9222236995143
 20
314.2926567951609
 30
0.0
 11
98.21669658759885
 21
314.2926567951609
 31
0.0
  0
LINE
  5
543
330
482
100
AcDbEntity
  8
BEM
 62
     0
370
    -2
100
AcDbLine
 10
100.2166965875988
 20
251.2926567951609
 30
0.0
 11
100.2166965875988
 21
307.2926567951609
 31
0.0
  0
SOLID
  5
544
330
482
100
AcDbEntity
  8
BEM
 62
     0
100
AcDbTrace
 10
99.05002992093216
 20
251.2926567951609
 30
0.0
 11
101.3833632542655
 21
251.2926567951609
 31
0.0
 12
100.2166965875988
 22
244.2926567951608
 32
0.0
 13
100.2166965875988
 23
244.2926567951608
 33
0.0
  0
SOLID
  5
545
330
482
100
AcDbEntity
  8
BEM
 62
     0
100
AcDbTrace
 10
99.05002992093217
 20
307.2926567951609
 30
0.0
 11
101.3833632542655
 21
307.2926567951609
 31
0.0
 12
100.2166965875988
 22
314.2926567951609
 32
0.0
 13
100.2166965875988
 23
314.2926567951609
 33
0.0
  0
MTEXT
  5
546
330
482
100
AcDbEntity
  8
BEM
 62
     1
100
AcDbMText
 10
93.71669658759879
 20
279.2926567951609
 30
0.0
 40
7.0
 41
0.0
 71
     5
 72
     1
  1
\A1;min.70
 11
0.0000000000000001
 21
1.0
 31
0.0
 73
     1
 44
1.0
  0
POINT
  5
547
330
482
100
AcDbEntity
  8
DEFPOINTS
 62
     0
100
AcDbPoint
 10
109.7356399313179
 20
244.2926567951608
 30
0.0
  0
POINT
  5
548
330
482
100
AcDbEntity
  8
DEFPOINTS
 62
     0
100
AcDbPoint
 10
109.9222236995143
 20
314.2926567951609
 30
0.0
  0
POINT
  5
549
330
482
100
AcDbEntity
  8
DEFPOINTS
 62
     0
100
AcDbPoint
 10
100.2166965875988
 20
314.2926567951609
 30
0.0
  0
ENDBLK
  5
48E
330
482
100
AcDbEntity
  8
0
100
AcDbBlockEnd
  0
BLOCK
  5
49A
330
48F
100
AcDbEntity
  8
0
100
AcDbBlockBegin
  2
*D14
 70
     1
 10
0.0
 20
0.0
 30
0.0
  3
*D14
  1

  0
LINE
  5
5CA
330
48F
100
AcDbEntity
  8
BEM
 62
     0
370
    -2
100
AcDbLine
 10
382.7356399313179
 20
242.2926567951608
 30
0.0
 11
382.7356399313179
 21
215.4610091330858
 31
0.0
  0
LINE
  5
5CB
330
48F
100
AcDbEntity
  8
BEM
 62
     0
370
    -2
100
AcDbLine
 10
109.7356399313175
 20
242.2926567951608
 30
0.0
 11
109.7356399313175
 21
215.4610091330858
 31
0.0
  0
LINE
  5
5CC
330
48F
100
AcDbEntity
  8
BEM
 62
     0
370
    -2
100
AcDbLine
 10
375.7356399313179
 20
217.4610091330858
 30
0.0
 11
116.7356399313175
 21
217.4610091330858
 31
0.0
  0
SOLID
  5
5CD
330
48F
100
AcDbEntity
  8
BEM
 62
     0
100
AcDbTrace
 10
375.7356399313179
 20
218.6276757997525
 30
0.0
 11
375.7356399313179
 21
216.2943424664191
 31
0.0
 12
382.7356399313179
 22
217.4610091330858
 32
0.0
 13
382.7356399313179
 23
217.4610091330858
 33
0.0
  0
SOLID
  5
5CE
330
48F
100
AcDbEntity
  8
BEM
 62
     0
100
AcDbTrace
 10
116.7356399313175
 20
218.6276757997525
 30
0.0
 11
116.7356399313175
 21
216.2943424664191
 31
0.0
 12
109.7356399313175
 22
217.4610091330858
 32
0.0
 13
109.7356399313175
 23
217.4610091330858
 33
0.0
  0
MTEXT
  5
5CF
330
48F
100
AcDbEntity
  8
BEM
 62
     1
100
AcDbMText
 10
246.2356399313177
 20
223.9610091330858
 30
0.0
 40
7.0
 41
0.0
 71
     5
 72
     1
  1
\A1;%%c273
 73
     1
 44
1.0
  0
POINT
  5
5D0
330
48F
100
AcDbEntity
  8
DEFPOINTS
 62
     0
100
AcDbPoint
 10
382.7356399313179
 20
244.2926567951608
 30
0.0
  0
POINT
  5
5D1
330
48F
100
AcDbEntity
  8
DEFPOINTS
 62
     0
100
AcDbPoint
 10
109.7356399313175
 20
244.2926567951608
 30
0.0
  0
POINT
  5
5D2
330
48F
100
AcDbEntity
  8
DEFPOINTS
 62
     0
100
AcDbPoint
 10
109.7356399313175
 20
217.4610091330858
 30
0.0
  0
ENDBLK
  5
49B
330
48F
100
AcDbEntity
  8
0
100
AcDbBlockEnd
  0
ENDSEC
  0
SECTION
  2
ENTITIES
  0
LINE
  5
57
330
1E
100
AcDbEntity
  8
STEMPEL
100
AcDbLine
 10
410.0
 20
110.0
 30
0.0
 11
39.99999999999997
 21
110.0
 31
0.0
  0
LINE
  5
58
330
1E
100
AcDbEntity
  8
STEMPEL
100
AcDbLine
 10
136.0000000000001
 20
109.9999999999999
 30
0.0
 11
136.0
 21
9.999999999999971
 31
0.0
  0
LINE
  5
59
330
1E
100
AcDbEntity
  8
STEMPEL
100
AcDbLine
 10
220.0
 20
110.0
 30
0.0
 11
220.0
 21
9.999999999999971
 31
0.0
  0
LINE
  5
5A
330
1E
100
AcDbEntity
  8
STEMPEL
100
AcDbLine
 10
332.0
 20
109.9999999999997
 30
0.0
 11
332.0
 21
40.0
 31
0.0
  0
LINE
  5
5B
330
1E
100
AcDbEntity
  8
STEMPEL
100
AcDbLine
 10
135.9999999999999
 20
29.99999999999997
 30
0.0
 11
39.99999999999997
 21
29.99999999999997
 31
0.0
  0
LINE
  5
5C
330
1E
100
AcDbEntity
  8
STEMPEL
100
AcDbLine
 10
410.0
 20
40.0
 30
0.0
 11
136.0000000000001
 21
39.99999999999997
 31
0.0
  0
LINE
  5
5D
330
1E
100
AcDbEntity
  8
STEMPEL
100
AcDbLine
 10
410.0
 20
80.0
 30
0.0
 11
136.0000000000001
 21
79.99999999999994
 31
0.0
  0
LINE
  5
5E
330
1E
100
AcDbEntity
  8
VOLL
100
AcDbLine
 10
54.00000000000009
 20
110.0
 30
0.0
 11
53.99999999999997
 21
9.999999999999971
 31
0.0
  0
LINE
  5
5F
330
1E
100
AcDbEntity
  8
VOLL
100
AcDbLine
 10
94.00000000000011
 20
109.9999999999999
 30
0.0
 11
94.0
 21
9.999999999999971
 31
0.0
  0
LINE
  5
60
330
1E
100
AcDbEntity
  8
VOLL
100
AcDbLine
 10
114.0000000000001
 20
109.9999999999999
 30
0.0
 11
114.0
 21
9.999999999999971
 31
0.0
  0
LINE
  5
61
330
1E
100
AcDbEntity
  8
VOLL
100
AcDbLine
 10
154.0000000000001
 20
79.99999999999994
 30
0.0
 11
154.0000000000001
 21
39.99999999999997
 31
0.0
  0
LINE
  5
62
330
1E
100
AcDbEntity
  8
VOLL
100
AcDbLine
 10
180.0000000000001
 20
109.9999999999998
 30
0.0
 11
180.0
 21
39.99999999999997
 31
0.0
  0
LINE
  5
63
330
1E
100
AcDbEntity
  8
HILF
100
AcDbLine
 10
40.00000000000008
 20
100.0
 30
0.0
 11
136.0000000000001
 21
100.0
 31
0.0
  0
LINE
  5
64
330
1E
100
AcDbEntity
  8
HILF
100
AcDbLine
 10
40.00000000000008
 20
90.00000000000005
 30
0.0
 11
136.0000000000001
 21
90.00000000000005
 31
0.0
  0
LINE
  5
65
330
1E
100
AcDbEntity
  8
HILF
100
AcDbLine
 10
40.00000000000008
 20
79.99999999999994
 30
0.0
 11
136.0000000000001
 21
79.99999999999994
 31
0.0
  0
LINE
  5
66
330
1E
100
AcDbEntity
  8
HILF
100
AcDbLine
 10
40.00000000000008
 20
69.99999999999994
 30
0.0
 11
136.0000000000001
 21
69.99999999999994
 31
0.0
  0
LINE
  5
67
330
1E
100
AcDbEntity
  8
HILF
100
AcDbLine
 10
40.00000000000008
 20
59.99999999999997
 30
0.0
 11
136.0000000000001
 21
59.99999999999997
 31
0.0
  0
LINE
  5
68
330
1E
100
AcDbEntity
  8
HILF
100
AcDbLine
 10
40.00000000000008
 20
49.99999999999997
 30
0.0
 11
136.0000000000001
 21
49.99999999999997
 31
0.0
  0
LINE
  5
69
330
1E
100
AcDbEntity
  8
HILF
100
AcDbLine
 10
40.00000000000008
 20
39.99999999999997
 30
0.0
 11
136.0000000000001
 21
39.99999999999997
 31
0.0
  0
LINE
  5
6A
330
1E
100
AcDbEntity
  8
HILF
100
AcDbLine
 10
136.0000000000001
 20
69.99999999999994
 30
0.0
 11
220.0
 21
69.99999999999994
 31
0.0
  0
LINE
  5
6B
330
1E
100
AcDbEntity
  8
HILF
100
AcDbLine
 10
136.0000000000001
 20
59.99999999999997
 30
0.0
 11
220.0
 21
59.99999999999997
 31
0.0
  0
LINE
  5
6C
330
1E
100
AcDbEntity
  8
HILF
100
AcDbLine
 10
136.0000000000001
 20
49.99999999999997
 30
0.0
 11
220.0
 21
49.99999999999997
 31
0.0
  0
LINE
  5
6D
330
1E
100
AcDbEntity
  8
HILF
100
AcDbLine
 10
224.7736801096948
 20
84.03758247564139
 30
0.0
 11
324.8353916556311
 21
84.03758247564139
 31
0.0
  0
LINE
  5
6E
330
1E
100
AcDbEntity
  8
HILF
100
AcDbLine
 10
224.7736801096948
 20
69.99999999999994
 30
0.0
 11
324.835391655631
 21
69.99999999999994
 31
0.0
  0
LINE
  5
6F
330
1E
100
AcDbEntity
  8
HILF
100
AcDbLine
 10
224.7736801096948
 20
59.99999999999997
 30
0.0
 11
324.835391655631
 21
59.99999999999997
 31
0.0
  0
LINE
  5
70
330
1E
100
AcDbEntity
  8
HILF
100
AcDbLine
 10
224.7736801096948
 20
49.99999999999997
 30
0.0
 11
324.835391655631
 21
49.99999999999997
 31
0.0
  0
LINE
  5
71
330
1E
100
AcDbEntity
  8
VOLL
100
AcDbLine
 10
332.0
 20
60.0
 30
0.0
 11
410.0
 21
60.0
 31
0.0
  0
LINE
  5
72
330
1E
100
AcDbEntity
  8
HILF
100
AcDbLine
 10
336.7238616296993
 20
83.77983636955827
 30
0.0
 11
404.8588839326728
 21
83.77983636955827
 31
0.0
  0
LINE
  5
73
330
1E
100
AcDbEntity
  8
HILF
100
AcDbLine
 10
223.4909699289885
 20
14.89398258028314
 30
0.0
 11
404.8588839326728
 21
14.89398258028314
 31
0.0
  0
TEXT
  5
74
330
1E
100
AcDbEntity
  8
TEXT
100
AcDbText
 10
63.86165979631819
 20
18.67381894984132
 30
0.0
 40
4.0
  1
Änderung
 41
0.8
  7
GREEKS
 72
     1
 11
74.60451693917534
 21
18.67381894984132
 31
0.0
100
AcDbText
  0
TEXT
  5
75
330
1E
100
AcDbEntity
  8
TEXT
100
AcDbText
 10
143.5163572150377
 20
102.4620895087088
 30
0.0
 40
5.0
  1
Maßstab
 41
0.8
  7
GREEKS
100
AcDbText
  0
TEXT
  5
76
330
1E
100
AcDbEntity
  8
TEXT
100
AcDbText
 10
184.2858954734051
 20
102.4184168434819
 30
0.0
 40
5.0
  1
Zul. Abw.
 41
0.8
  7
GREEKS
100
AcDbText
  0
TEXT
  5
77
330
1E
100
AcDbEntity
  8
TEXT
100
AcDbText
 10
224.877940380901
 20
102.5489328011779
 30
0.0
 40
5.0
  1
Benennung
 41
0.8
  7
GREEKS
100
AcDbText
  0
TEXT
  5
78
330
1E
100
AcDbEntity
  8
TEXT
100
AcDbText
 10
336.178754957634
 20
102.3132034537136
 30
0.0
 40
5.0
  1
Zeichnungs Nr.
 41
0.8
  7
GREEKS
100
AcDbText
  0
TEXT
  5
79
330
1E
100
AcDbEntity
  8
TEXT
100
AcDbText
 10
224.742238391136
 20
30.84560570193057
 30
0.0
 40
5.0
  1
Bauvorhaben
 41
0.8
  7
GREEKS
100
AcDbText
  0
TEXT
  5
7A
330
1E
100
AcDbEntity
  8
TEXT
100
AcDbText
 10
336.7238616296993
 20
73.1811823709997
 30
0.0
 40
5.0
  1
Ersatz für:
 41
0.8
  7
GREEKS
100
AcDbText
  0
TEXT
  5
7B
330
1E
100
AcDbEntity
  8
TEXT
100
AcDbText
 10
48.26641107045756
 20
13.65465846027192
 30
0.0
 40
4.0
  1
Index
 50
90.0
 41
0.8
  7
GREEKS
100
AcDbText
  0
TEXT
  5
7C
330
1E
100
AcDbEntity
  8
TEXT
100
AcDbText
 10
100.0934676075481
 20
18.6715626933981
 30
0.0
 40
4.0
  1
Tag
 41
0.8
  7
GREEKS
 72
     1
 11
103.8268009408814
 21
18.6715626933981
 31
0.0
100
AcDbText
  0
TEXT
  5
7D
330
1E
100
AcDbEntity
  8
TEXT
100
AcDbText
 10
119.0122744386592
 20
18.59324216966408
 30
0.0
 40
4.0
  1
Name
 41
0.8
  7
GREEKS
 72
     1
 11
125.3360839624688
 21
18.59324216966408
 31
0.0
100
AcDbText
  0
TEXT
  5
7E
330
1E
100
AcDbEntity
  8
TEXT
100
AcDbText
 10
162.3311673153651
 20
73.31880501229926
 30
0.0
 40
4.0
  1
Tag
 41
0.8
  7
GREEKS
100
AcDbText
  0
TEXT
  5
7F
330
1E
100
AcDbEntity
  8
TEXT
100
AcDbText
 10
192.4626584226295
 20
73.30961091915225
 30
0.0
 40
4.0
  1
Name
 41
0.8
  7
GREEKS
100
AcDbText
  0
TEXT
  5
80
330
1E
100
AcDbEntity
  8
TEXT
100
AcDbText
 10
137.5836127167615
 20
63.62990369617964
 30
0.0
 40
4.0
  1
Gez.
 41
0.8
  7
GREEKS
100
AcDbText
  0
TEXT
  5
81
330
1E
100
AcDbEntity
  8
TEXT
100
AcDbText
 10
137.5515086571672
 20
53.68926291428377
 30
0.0
 40
4.0
  1
Gepr.
 41
0.8
  7
GREEKS
100
AcDbText
  0
TEXT
  5
82
330
1E
100
AcDbEntity
  8
TEXT
100
AcDbText
 10
137.6006777387304
 20
43.52946389649807
 30
0.0
 40
4.0
  1
Norm.
 41
0.8
  7
GREEKS
100
AcDbText
  0
LINE
  5
83
330
1E
100
AcDbEntity
  8
STEMPEL
100
AcDbLine
 10
49.99999999999989
 20
10.0
 30
0.0
 11
410.0
 21
10.0
 31
0.0
  0
TEXT
  5
84
330
1E
100
AcDbEntity
  8
TEXT
100
AcDbText
 10
337.2400861497006
 20
52.07416177878602
 30
0.0
 40
5.0
  1
ersetzt durch:
 41
0.8
  7
GREEKS
100
AcDbText
  0
LINE
  5
85
330
1E
100
AcDbEntity
  8
STEMPEL
100
AcDbLine
 10
410.0
 20
10.0
 30
0.0
 11
39.99999999999989
 21
10.0
 31
0.0
  0
LINE
  5
86
330
1E
100
AcDbEntity
  8
STEMPEL
100
AcDbLine
 10
410.0
 20
10.0
 30
0.0
 11
410.0
 21
584.0
 31
0.0
  0
LINE
  5
87
330
1E
100
AcDbEntity
  8
STEMPEL
100
AcDbLine
 10
40.0
 20
10.0
 30
0.0
 11
39.99999999999989
 21
584.0
 31
0.0
  0
LINE
  5
88
330
1E
100
AcDbEntity
  8
STEMPEL
100
AcDbLine
 10
410.0
 20
584.0
 30
0.0
 11
39.99999999999989
 21
584.0
 31
0.0
  0
LINE
  5
89
330
1E
100
AcDbEntity
  8
HILF
100
AcDbLine
 10
0.0
 20
0.0
 30
0.0
 11
-0.0000000000001137
 21
594.0
 31
0.0
  0
LINE
  5
8A
330
1E
100
AcDbEntity
  8
HILF
100
AcDbLine
 10
419.9999999999999
 20
594.0000000000002
 30
0.0
 11
0.0
 21
594.0
 31
0.0
  0
LINE
  5
8B
330
1E
100
AcDbEntity
  8
HILF
100
AcDbLine
 10
420.0
 20
0.0
 30
0.0
 11
0.0
 21
0.0
 31
0.0
  0
LINE
  5
8C
330
1E
100
AcDbEntity
  8
HILF
100
AcDbLine
 10
31.08767135713856
 20
297.0
 30
0.0
 11
0.0000000000001137
 21
297.0
 31
0.0
  0
TEXT
  5
8D
330
1E
100
AcDbEntity
  8
TEXT
100
AcDbText
 10
138.622109822104
 20
73.14025471151666
 30
0.0
 40
4.0
  1
2011
 41
0.8
  7
GREEKS
100
AcDbText
  0
LINE
  5
8E
330
1E
100
AcDbEntity
  8
HILF
100
AcDbLine
 10
420.0
 20
-0.0000000000001137
 30
0.0
 11
419.9999999999999
 21
594.0
 31
0.0
  0
TEXT
  5
8F
330
1E
100
AcDbEntity
  8
VOLL
100
AcDbText
 10
78.07675471698113
 20
31.02594776470585
 30
0.0
 40
1.8
  1

  7
GREEKS
100
AcDbText
  0
TEXT
  5
90
330
1E
100
AcDbEntity
  8
TEXT
100
AcDbText
 10
41.85509950977674
 20
111.6719999999999
 30
0.0
 40
5.0
  1
Erstellt mit AUTOCAD 2004
 41
0.8
  7
GREEKS
100
AcDbText
  0
TEXT
  5
91
330
1E
100
AcDbEntity
  8
TEXT
100
AcDbText
 10
194.4216048581257
 20
63.0896391972351
 30
0.0
 40
4.0
  1
Koeh
 41
0.8
  7
GREEKS
 72
     1
 11
199.6787477152685
 21
63.0896391972351
 31
0.0
100
AcDbText
  0
TEXT
  5
92
330
1E
100
AcDbEntity
  8
TEXT
 62
     1
100
AcDbText
 10
347.183850306833
 20
88.14901428913959
 30
0.0
 40
7.0
  1
06006FH0W
 41
0.8
  7
GREEKS
 72
     1
 11
371.1838503068331
 21
88.14901428913959
 31
0.0
100
AcDbText
  0
TEXT
  5
93
330
1E
100
AcDbEntity
  8
TEXT
 62
     1
100
AcDbText
 10
150.5006306481887
 20
88.14901428913959
 30
0.0
 40
7.0
  1
1:2
 41
0.8
  7
GREEKS
100
AcDbText
  0
TEXT
  5
94
330
1E
100
AcDbEntity
  8
TEXT
100
AcDbText
 10
160.398997108236
 20
63.10765040825732
 30
0.0
 40
4.0
  1
06.04.
 41
0.8
  7
GREEKS
 72
     1
 11
167.4085209177598
 21
63.10765040825732
 31
0.0
100
AcDbText
  0
TEXT
  5
95
330
1E
100
AcDbEntity
  8
TEXT
 62
     1
100
AcDbText
 10
226.8935731057402
 20
87.41748789253779
 30
0.0
 40
7.0
  1
Übergangsrohr konzentrisch
 41
0.65
  7
GREEKS
100
AcDbText
  0
TEXT
  5
96
330
1E
100
AcDbEntity
  8
TEXT
100
AcDbText
 10
225.1296391125315
 20
71.50334417585288
 30
0.0
 40
5.0
  1
DN150/200 Muffenlos/Muffe
 41
0.8
  7
GREEKS
100
AcDbText
  0
TEXT
  5
98
330
1E
100
AcDbEntity
  8
TEXT
100
AcDbText
 10
225.1296391125315
 20
51.64011943042158
 30
0.0
 40
5.0
  1
EDV-Art.Nr. 06006.FH0X
 41
0.8
  7
GREEKS
100
AcDbText
  0
TEXT
  5
99
330
1E
100
AcDbEntity
  8
TEXT
100
AcDbText
 10
224.9837501577827
 20
42.62974153022632
 30
0.0
 40
4.0
  1
06006FH0W.DWG
 41
0.8
  7
GREEKS
100
AcDbText
  0
TEXT
  5
9A
330
1E
100
AcDbEntity
  8
TEXT
100
AcDbText
 10
182.626132208084
 20
90.76363841023022
 30
0.0
 40
4.0
  1
DIN EN1123-2
 41
0.8
  7
GREEKS
 72
     1
 11
199.6166083985602
 21
90.76363841023022
 31
0.0
100
AcDbText
  0
INSERT
  5
9B
330
1E
100
AcDbEntity
  8
STEMPEL
100
AcDbBlockReference
  2
LOGO
 10
140.9955485457794
 20
45.02105276448322
 30
0.0
 41
2.0
 42
2.0
 43
2.0
  0
TEXT
  5
118
330
1E
100
AcDbEntity
  8
BEM
100
AcDbText
 10
417.3022923857165
 20
10.16790107998849
 30
0.0
 40
4.0
  1
Diese Zeichnung ist urheberrechtlich geschützt und bleibt unser Eigentum. Sie darf weder ganz noch teilweise verfielfältigt und nicht an Dritte weitergegeben werden.
 50
90.0
 41
0.8
  7
GREEKS
100
AcDbText
  0
TEXT
  5
3B0
330
1E
100
AcDbEntity
  8
TEXT
 62
     1
100
AcDbText
 10
238.6079228782886
 20
485.6618069263745
 30
0.0
 40
7.0
  1
DN150
 50
90.0
 41
0.8
  7
GREEKS
100
AcDbText
  0
TEXT
  5
3B1
330
1E
100
AcDbEntity
  8
TEXT
 62
     1
100
AcDbText
 10
238.6079228782886
 20
266.6574874079503
 30
0.0
 40
7.0
  1
DN250
 50
90.0
 41
0.8
  7
GREEKS
100
AcDbText
  0
LINE
  5
3B2
330
1E
100
AcDbEntity
  8
MITTEL
100
AcDbLine
 10
246.235639931318
 20
453.4205137852963
 30
0.0
 11
246.2356399313176
 21
239.2926567951608
 31
0.0
  0
DIMENSION
  5
3B3
330
1E
100
AcDbEntity
  8
BEM
100
AcDbDimension
  2
*D7
 10
325.735639931318
 20
456.9319653359048
 30
0.0
 11
246.2356399313181
 21
463.4319653359049
 31
0.0
 70
    32
  1
%%c<>
 71
     5
 42
158.9999999999999
  3
Standard
100
AcDbAlignedDimension
 13
166.7356399313181
 23
436.7649088805566
 33
0.0
 14
325.735639931318
 24
436.7649088805566
 34
0.0
100
AcDbRotatedDimension
1001
ACAD
1000
DSTYLE
1002
{
1070
    40
1040
2.0
1070
    41
1040
3.5
1070
    42
1040
1.0
1070
    43
1040
7.0
1070
    44
1040
1.0
1070
    73
1070
     0
1070
    74
1070
     0
1070
    77
1070
     1
1070
    78
1070
     8
1070
    79
1070
     2
1070
   140
1040
3.5
1070
   141
1040
1.5
1070
   146
1040
0.5
1070
   147
1040
1.5
1070
   172
1070
     1
1070
   178
1070
     1
1070
   179
1070
     2
1070
   271
1070
     2
1070
   272
1070
     2
1070
   284
1070
     8
1070
   285
1070
     8
1070
   286
1070
     8
1002
}
  0
INSERT
  5
3B5
330
1E
100
AcDbEntity
  8
SCHRAFF
100
AcDbBlockReference
  2
*X2
 10
-370.9837689647178
 20
21.43196542409737
 30
0.0
1001
ACAD
1000
HATCH
1002
{
1070
    16
1000
_U,I
1040
0.1
1040
0.0
1070
     0
1002
}
  0
INSERT
  5
3B6
330
1E
100
AcDbEntity
  8
SCHRAFF
100
AcDbBlockReference
  2
*X1
 10
-370.9837689647178
 20
19.43196542409737
 30
0.0
1001
ACAD
1000
HATCH
1002
{
1070
    16
1000
_U,I
1040
0.1
1040
0.0
1070
     0
1002
}
  0
ARC
  5
3B7
330
1E
100
AcDbEntity
  8
SCHRAFF
100
AcDbCircle
 10
330.911634878506
 20
403.004177518872
 30
0.0
 40
4.366925558126286
100
AcDbArc
 50
336.9254768865064
 51
79.12352417764314
  0
ARC
  5
3B8
330
1E
100
AcDbEntity
  8
SCHRAFF
100
AcDbCircle
 10
161.55964498413
 20
403.0041775188722
 30
0.0
 40
4.366925558126286
100
AcDbArc
 50
100.8764758223568
 51
203.0745231135009
  0
ARC
  5
3B9
330
1E
100
AcDbEntity
  8
SCHRAFF
100
AcDbCircle
 10
240.1290850916758
 20
404.2926567951608
 30
0.0
 40
3.9162881540558
100
AcDbArc
 50
310.0011557168441
 51
49.99884428315596
  0
ARC
  5
3BA
330
1E
100
AcDbEntity
  8
SCHRAFF
100
AcDbCircle
 10
235.1290850916758
 20
404.2926567951608
 30
0.0
 40
3.9162881540558
100
AcDbArc
 50
310.0011557168441
 51
49.99884428315596
  0
ARC
  5
3BB
330
1E
100
AcDbEntity
  8
SCHRAFF
100
AcDbCircle
 10
225.1290850916758
 20
404.2926567951608
 30
0.0
 40
3.9162881540558
100
AcDbArc
 50
310.0011557168441
 51
49.99884428315596
  0
ARC
  5
3BC
330
1E
100
AcDbEntity
  8
SCHRAFF
100
AcDbCircle
 10
220.1290850916759
 20
404.2926567951608
 30
0.0
 40
3.9162881540558
100
AcDbArc
 50
310.0011557168441
 51
49.99884428315596
  0
ARC
  5
3BD
330
1E
100
AcDbEntity
  8
SCHRAFF
100
AcDbCircle
 10
215.1290850916758
 20
404.2926567951608
 30
0.0
 40
3.9162881540558
100
AcDbArc
 50
310.0011557168441
 51
49.99884428315596
  0
ARC
  5
3BE
330
1E
100
AcDbEntity
  8
SCHRAFF
100
AcDbCircle
 10
210.1290850916758
 20
404.2926567951608
 30
0.0
 40
3.9162881540558
100
AcDbArc
 50
310.0011557168441
 51
49.99884428315596
  0
ARC
  5
3BF
330
1E
100
AcDbEntity
  8
SCHRAFF
100
AcDbCircle
 10
205.1290850916759
 20
404.2926567951608
 30
0.0
 40
3.9162881540558
100
AcDbArc
 50
310.0011557168441
 51
49.99884428315596
  0
ARC
  5
3C0
330
1E
100
AcDbEntity
  8
SCHRAFF
100
AcDbCircle
 10
200.1290850916758
 20
404.2926567951608
 30
0.0
 40
3.9162881540558
100
AcDbArc
 50
310.0011557168441
 51
49.99884428315596
  0
ARC
  5
3C1
330
1E
100
AcDbEntity
  8
SCHRAFF
100
AcDbCircle
 10
185.1290850916758
 20
404.2926567951608
 30
0.0
 40
3.9162881540558
100
AcDbArc
 50
310.0011557168441
 51
49.99884428315596
  0
ARC
  5
3C2
330
1E
100
AcDbEntity
  8
SCHRAFF
100
AcDbCircle
 10
190.1290850916758
 20
404.2926567951608
 30
0.0
 40
3.9162881540558
100
AcDbArc
 50
310.0011557168441
 51
49.99884428315596
  0
ARC
  5
3C3
330
1E
100
AcDbEntity
  8
SCHRAFF
100
AcDbCircle
 10
195.1290850916758
 20
404.2926567951608
 30
0.0
 40
3.9162881540558
100
AcDbArc
 50
310.0011557168441
 51
49.99884428315596
  0
ARC
  5
3C4
330
1E
100
AcDbEntity
  8
SCHRAFF
100
AcDbCircle
 10
170.1290850916758
 20
404.2926567951608
 30
0.0
 40
3.9162881540558
100
AcDbArc
 50
310.0011557168441
 51
49.99884428315596
  0
ARC
  5
3C5
330
1E
100
AcDbEntity
  8
SCHRAFF
100
AcDbCircle
 10
175.1290850916758
 20
404.2926567951608
 30
0.0
 40
3.9162881540558
100
AcDbArc
 50
310.0011557168441
 51
49.99884428315596
  0
ARC
  5
3C6
330
1E
100
AcDbEntity
  8
SCHRAFF
100
AcDbCircle
 10
165.1290850916758
 20
404.2926567951608
 30
0.0
 40
3.9162881540558
100
AcDbArc
 50
310.0011557168441
 51
49.99884428315596
  0
ARC
  5
3C7
330
1E
100
AcDbEntity
  8
SCHRAFF
100
AcDbCircle
 10
180.1290850916758
 20
404.2926567951608
 30
0.0
 40
3.9162881540558
100
AcDbArc
 50
310.0011557168441
 51
49.99884428315596
  0
ARC
  5
3C8
330
1E
100
AcDbEntity
  8
SCHRAFF
100
AcDbCircle
 10
160.1290850916758
 20
404.2926567951608
 30
0.0
 40
3.9162881540558
100
AcDbArc
 50
310.0011557168441
 51
49.99884428315596
  0
ARC
  5
3C9
330
1E
100
AcDbEntity
  8
SCHRAFF
100
AcDbCircle
 10
230.1290850916759
 20
404.2926567951608
 30
0.0
 40
3.9162881540558
100
AcDbArc
 50
310.0011557168441
 51
49.99884428315596
  0
ARC
  5
3CA
330
1E
100
AcDbEntity
  8
SCHRAFF
100
AcDbCircle
 10
365.3134289732792
 20
343.0786426073453
 30
0.0
 40
4.389479159119223
100
AcDbArc
 50
335.9910867554887
 51
73.74511966037686
  0
ARC
  5
3CB
330
1E
100
AcDbEntity
  8
SCHRAFF
100
AcDbCircle
 10
127.1578508893566
 20
343.0786426073457
 30
0.0
 40
4.389479159119223
100
AcDbArc
 50
106.2548803396231
 51
204.0089132445173
  0
ARC
  5
3CC
330
1E
100
AcDbEntity
  8
SCHRAFF
100
AcDbCircle
 10
175.1290850916757
 20
344.2926567951609
 30
0.0
 40
3.9162881540558
100
AcDbArc
 50
310.0011557168441
 51
49.99884428315596
  0
ARC
  5
3CD
330
1E
100
AcDbEntity
  8
SCHRAFF
100
AcDbCircle
 10
170.1290850916757
 20
344.2926567951609
 30
0.0
 40
3.9162881540558
100
AcDbArc
 50
310.0011557168441
 51
49.99884428315596
  0
ARC
  5
3CE
330
1E
100
AcDbEntity
  8
SCHRAFF
100
AcDbCircle
 10
165.1290850916757
 20
344.2926567951609
 30
0.0
 40
3.9162881540558
100
AcDbArc
 50
310.0011557168441
 51
49.99884428315596
  0
ARC
  5
3CF
330
1E
100
AcDbEntity
  8
SCHRAFF
100
AcDbCircle
 10
160.1290850916757
 20
344.2926567951609
 30
0.0
 40
3.9162881540558
100
AcDbArc
 50
310.0011557168441
 51
49.99884428315596
  0
ARC
  5
3D0
330
1E
100
AcDbEntity
  8
SCHRAFF
100
AcDbCircle
 10
155.1290850916757
 20
344.2926567951609
 30
0.0
 40
3.9162881540558
100
AcDbArc
 50
310.0011557168441
 51
49.99884428315596
  0
ARC
  5
3D1
330
1E
100
AcDbEntity
  8
SCHRAFF
100
AcDbCircle
 10
150.1290850916757
 20
344.2926567951609
 30
0.0
 40
3.9162881540558
100
AcDbArc
 50
310.0011557168441
 51
49.99884428315596
  0
ARC
  5
3D2
330
1E
100
AcDbEntity
  8
SCHRAFF
100
AcDbCircle
 10
130.1290850916757
 20
344.2926567951609
 30
0.0
 40
3.9162881540558
100
AcDbArc
 50
310.0011557168441
 51
49.99884428315596
  0
ARC
  5
3D3
330
1E
100
AcDbEntity
  8
SCHRAFF
100
AcDbCircle
 10
135.1290850916757
 20
344.2926567951609
 30
0.0
 40
3.9162881540558
100
AcDbArc
 50
310.0011557168441
 51
49.99884428315596
  0
ARC
  5
3D4
330
1E
100
AcDbEntity
  8
SCHRAFF
100
AcDbCircle
 10
140.1290850916757
 20
344.2926567951609
 30
0.0
 40
3.9162881540558
100
AcDbArc
 50
310.0011557168441
 51
49.99884428315596
  0
ARC
  5
3D5
330
1E
100
AcDbEntity
  8
SCHRAFF
100
AcDbCircle
 10
125.1290850916757
 20
344.2926567951609
 30
0.0
 40
3.9162881540558
100
AcDbArc
 50
310.0011557168441
 51
49.99884428315596
  0
ARC
  5
3D6
330
1E
100
AcDbEntity
  8
SCHRAFF
100
AcDbCircle
 10
145.1290850916757
 20
344.2926567951609
 30
0.0
 40
3.9162881540558
100
AcDbArc
 50
310.0011557168441
 51
49.99884428315596
  0
ARC
  5
3D7
330
1E
100
AcDbEntity
  8
SCHRAFF
100
AcDbCircle
 10
205.1290850916757
 20
344.2926567951609
 30
0.0
 40
3.9162881540558
100
AcDbArc
 50
310.0011557168441
 51
49.99884428315596
  0
ARC
  5
3D8
330
1E
100
AcDbEntity
  8
SCHRAFF
100
AcDbCircle
 10
200.1290850916757
 20
344.2926567951609
 30
0.0
 40
3.9162881540558
100
AcDbArc
 50
310.0011557168441
 51
49.99884428315596
  0
ARC
  5
3D9
330
1E
100
AcDbEntity
  8
SCHRAFF
100
AcDbCircle
 10
195.1290850916757
 20
344.2926567951609
 30
0.0
 40
3.9162881540558
100
AcDbArc
 50
310.0011557168441
 51
49.99884428315596
  0
ARC
  5
3DA
330
1E
100
AcDbEntity
  8
SCHRAFF
100
AcDbCircle
 10
190.1290850916757
 20
344.2926567951609
 30
0.0
 40
3.9162881540558
100
AcDbArc
 50
310.0011557168441
 51
49.99884428315596
  0
ARC
  5
3DB
330
1E
100
AcDbEntity
  8
SCHRAFF
100
AcDbCircle
 10
185.1290850916757
 20
344.2926567951609
 30
0.0
 40
3.9162881540558
100
AcDbArc
 50
310.0011557168441
 51
49.99884428315596
  0
ARC
  5
3DC
330
1E
100
AcDbEntity
  8
SCHRAFF
100
AcDbCircle
 10
180.1290850916757
 20
344.2926567951609
 30
0.0
 40
3.9162881540558
100
AcDbArc
 50
310.0011557168441
 51
49.99884428315596
  0
ARC
  5
3DD
330
1E
100
AcDbEntity
  8
SCHRAFF
100
AcDbCircle
 10
210.1290850916757
 20
344.2926567951609
 30
0.0
 40
3.9162881540558
100
AcDbArc
 50
310.0011557168441
 51
49.99884428315596
  0
ARC
  5
3DE
330
1E
100
AcDbEntity
  8
SCHRAFF
100
AcDbCircle
 10
215.1290850916757
 20
344.2926567951609
 30
0.0
 40
3.9162881540558
100
AcDbArc
 50
310.0011557168441
 51
49.99884428315596
  0
ARC
  5
3DF
330
1E
100
AcDbEntity
  8
SCHRAFF
100
AcDbCircle
 10
220.1290850916757
 20
344.2926567951609
 30
0.0
 40
3.9162881540558
100
AcDbArc
 50
310.0011557168441
 51
49.99884428315596
  0
ARC
  5
3E0
330
1E
100
AcDbEntity
  8
SCHRAFF
100
AcDbCircle
 10
225.1290850916757
 20
344.2926567951609
 30
0.0
 40
3.9162881540558
100
AcDbArc
 50
310.0011557168441
 51
49.99884428315596
  0
ARC
  5
3E1
330
1E
100
AcDbEntity
  8
SCHRAFF
100
AcDbCircle
 10
230.1290850916757
 20
344.2926567951609
 30
0.0
 40
3.9162881540558
100
AcDbArc
 50
310.0011557168441
 51
49.99884428315596
  0
ARC
  5
3E2
330
1E
100
AcDbEntity
  8
SCHRAFF
100
AcDbCircle
 10
235.1290850916758
 20
344.2926567951609
 30
0.0
 40
3.9162881540558
100
AcDbArc
 50
310.0011557168441
 51
49.99884428315596
  0
ARC
  5
3E3
330
1E
100
AcDbEntity
  8
SCHRAFF
100
AcDbCircle
 10
240.1290850916757
 20
344.2926567951609
 30
0.0
 40
3.9162881540558
100
AcDbArc
 50
310.0011557168441
 51
49.99884428315596
  0
DIMENSION
  5
3E6
330
1E
100
AcDbEntity
  8
BEM
100
AcDbDimension
  2
*D10
 10
84.60928069708927
 20
244.2926567951608
 30
0.0
 11
78.10928069708925
 21
384.2926567951608
 31
0.0
 70
    32
 71
     5
 42
280.0
  3
Standard
100
AcDbAlignedDimension
 13
159.4771951339119
 23
524.2926567951608
 33
0.0
 14
109.7356399313179
 24
244.2926567951608
 34
0.0
 50
90.0
100
AcDbRotatedDimension
1001
ACAD
1000
DSTYLE
1002
{
1070
    40
1040
2.0
1070
    41
1040
3.5
1070
    42
1040
1.0
1070
    43
1040
7.0
1070
    44
1040
1.0
1070
    73
1070
     0
1070
    74
1070
     0
1070
    77
1070
     1
1070
    78
1070
     8
1070
    79
1070
     2
1070
   140
1040
3.5
1070
   141
1040
1.5
1070
   146
1040
0.5
1070
   147
1040
1.5
1070
   172
1070
     1
1070
   178
1070
     1
1070
   179
1070
     2
1070
   271
1070
     2
1070
   272
1070
     2
1070
   284
1070
     8
1070
   285
1070
     8
1070
   286
1070
     8
1002
}
  0
DIMENSION
  5
3E9
330
1E
100
AcDbEntity
  8
BEM
100
AcDbDimension
  2
*D13
 10
100.2166965875988
 20
314.2926567951609
 30
0.0
 11
93.71669658759879
 21
279.2926567951609
 31
0.0
 70
    32
  1
min.70
 71
     5
 42
70.00000000000003
  3
Standard
100
AcDbAlignedDimension
 13
109.7356399313179
 23
244.2926567951608
 33
0.0
 14
109.9222236995143
 24
314.2926567951609
 34
0.0
 50
90.0
100
AcDbRotatedDimension
1001
ACAD
1000
DSTYLE
1002
{
1070
    40
1040
2.0
1070
    41
1040
3.5
1070
    42
1040
1.0
1070
    43
1040
7.0
1070
    44
1040
1.0
1070
    73
1070
     0
1070
    74
1070
     0
1070
    77
1070
     1
1070
    78
1070
     8
1070
    79
1070
     2
1070
   140
1040
3.5
1070
   141
1040
1.5
1070
   146
1040
0.5
1070
   147
1040
1.5
1070
   172
1070
     1
1070
   178
1070
     1
1070
   179
1070
     2
1070
   271
1070
     2
1070
   272
1070
     2
1070
   284
1070
     8
1070
   285
1070
     8
1070
   286
1070
     8
1002
}
  0
LINE
  5
3EA
330
1E
100
AcDbEntity
  8
STEMPEL
100
AcDbLine
 10
124.2356399313178
 20
344.2926567951612
 30
0.0
 11
159.235639931318
 21
404.2926567951609
 31
0.0
  0
LINE
  5
3EC
330
1E
100
AcDbEntity
  8
STEMPEL
100
AcDbLine
 10
368.2356399313177
 20
344.2926567951609
 30
0.0
 11
333.2356399313179
 21
404.2926567951607
 31
0.0
  0
LINE
  5
3ED
330
1E
100
AcDbEntity
  8
STEMPEL
100
AcDbLine
 10
162.0307249031929
 20
404.2926567951609
 30
0.0
 11
159.794656925693
 21
405.4106907839108
 31
0.0
  0
LINE
  5
3EE
330
1E
100
AcDbEntity
  8
STEMPEL
100
AcDbLine
 10
165.4687662233173
 20
416.758909379159
 30
0.0
 11
159.794656925693
 21
405.4106907839108
 31
0.0
  0
ARC
  5
3EF
330
1E
100
AcDbEntity
  8
STEMPEL
100
AcDbCircle
 10
154.7356399313182
 20
422.1254725251585
 30
0.0
 40
12.0
100
AcDbArc
 50
333.4349488229352
 51
0.0
  0
ARC
  5
3F1
330
1E
100
AcDbEntity
  8
STEMPEL
100
AcDbCircle
 10
337.7356399313179
 20
422.1254725251582
 30
0.0
 40
12.0
100
AcDbArc
 50
180.0
 51
206.5650511770794
  0
LINE
  5
3F2
330
1E
100
AcDbEntity
  8
STEMPEL
100
AcDbLine
 10
330.4405549594431
 20
404.2926567951607
 30
0.0
 11
332.676622936943
 21
405.4106907839106
 31
0.0
  0
LINE
  5
3F4
330
1E
100
AcDbEntity
  8
STEMPEL
100
AcDbLine
 10
327.0025136393189
 20
416.7589093791589
 30
0.0
 11
332.676622936943
 21
405.4106907839106
 31
0.0
  0
LINE
  5
3F5
330
1E
100
AcDbEntity
  8
HILF
  6
Continuous
100
AcDbLine
 10
323.5150508070981
 20
419.2926567951606
 30
0.0
 11
168.9562290555381
 21
419.2926567951609
 31
0.0
  0
ARC
  5
3F6
330
1E
100
AcDbEntity
  8
STEMPEL
100
AcDbCircle
 10
121.7356399313174
 20
312.1847675821874
 30
0.0
 40
12.0
100
AcDbArc
 50
160.0744193418186
 51
180.0
  0
LINE
  5
3F7
330
1E
100
AcDbEntity
  8
STEMPEL
100
AcDbLine
 10
124.2356399313179
 20
344.2926567951609
 30
0.0
 11
110.4540071493677
 21
316.2743594656443
 31
0.0
  0
ARC
  5
3F9
330
1E
100
AcDbEntity
  8
STEMPEL
100
AcDbCircle
 10
370.7356399313181
 20
312.1847675821874
 30
0.0
 40
12.0
100
AcDbArc
 50
0.0
 51
19.92558065818142
  0
LINE
  5
3FB
330
1E
100
AcDbEntity
  8
STEMPEL
100
AcDbLine
 10
368.2356399313177
 20
344.2926567951609
 30
0.0
 11
382.0172727132679
 21
316.2743594656443
 31
0.0
  0
DIMENSION
  5
3FC
330
1E
100
AcDbEntity
  8
BEM
100
AcDbDimension
  2
*D14
 10
109.7356399313175
 20
217.4610091330858
 30
0.0
 11
246.2356399313177
 21
223.9610091330858
 31
0.0
 70
    32
  1
%%c<>
 71
     5
 42
273.0000000000004
  3
Standard
100
AcDbAlignedDimension
 13
382.7356399313179
 23
244.2926567951608
 33
0.0
 14
109.7356399313175
 24
244.2926567951608
 34
0.0
100
AcDbRotatedDimension
1001
ACAD
1000
DSTYLE
1002
{
1070
    40
1040
2.0
1070
    41
1040
3.5
1070
    42
1040
1.0
1070
    43
1040
7.0
1070
    44
1040
1.0
1070
    73
1070
     0
1070
    74
1070
     0
1070
    77
1070
     1
1070
    78
1070
     8
1070
    79
1070
     2
1070
   140
1040
3.5
1070
   141
1040
1.5
1070
   146
1040
0.5
1070
   147
1040
1.5
1070
   172
1070
     1
1070
   178
1070
     1
1070
   179
1070
     2
1070
   271
1070
     2
1070
   272
1070
     2
1070
   284
1070
     8
1070
   285
1070
     8
1070
   286
1070
     8
1002
}
  0
LINE
  5
3FF
330
1E
100
AcDbEntity
  8
HILF
100
AcDbLine
 10
378.4529453591103
 20
314.2926567951608
 30
0.0
 11
114.0183345035253
 21
314.2926567951609
 31
0.0
  0
LINE
  5
400
330
1E
100
AcDbEntity
  8
STEMPEL
  6
Continuous
100
AcDbLine
 10
333.2356399313179
 20
404.2926567951607
 30
0.0
 11
159.235639931318
 21
404.2926567951608
 31
0.0
  0
LINE
  5
401
330
1E
100
AcDbEntity
  8
STEMPEL
  6
Continuous
100
AcDbLine
 10
159.4771951339119
 20
524.2926567951608
 30
0.0
 11
159.0148673850352
 21
523.3011917381514
 31
0.0
  0
ARC
  5
402
330
1E
100
AcDbEntity
  8
STEMPEL
  6
Continuous
100
AcDbCircle
 10
190.7356399313181
 20
508.5095525772271
 30
0.0
 40
35.0
100
AcDbArc
 50
155.0000000000079
 51
180.0
  0
ARC
  5
403
330
1E
100
AcDbEntity
  8
STEMPEL
  6
Continuous
100
AcDbCircle
 10
143.7356399313181
 20
467.7926567951608
 30
0.0
 40
18.0
100
AcDbArc
 50
0.0
 51
27.52718362055486
  0
ARC
  5
404
330
1E
100
AcDbEntity
  8
STEMPEL
  6
Continuous
100
AcDbCircle
 10
190.7356399313181
 20
492.2876567951609
 30
0.0
 40
35.00004740563918
100
AcDbArc
 50
179.9056985509114
 51
207.5271836205549
  0
LINE
  5
405
330
1E
100
AcDbEntity
  8
STEMPEL
  6
Continuous
100
AcDbLine
 10
166.7356399313181
 20
436.7649088805566
 30
0.0
 11
166.7356399313181
 21
422.1254725251585
 31
0.0
  0
ARC
  5
406
330
1E
100
AcDbEntity
  8
STEMPEL
  6
Continuous
100
AcDbCircle
 10
179.7356399313181
 20
452.7336283032279
 30
0.0
 40
18.0
100
AcDbArc
 50
180.0
 51
214.7719440319491
  0
ARC
  5
407
330
1E
100
AcDbEntity
  8
STEMPEL
  6
Continuous
100
AcDbCircle
 10
156.7356399313181
 20
436.7649088805566
 30
0.0
 40
10.0
100
AcDbArc
 50
0.0
 51
34.77194403194904
  0
LINE
  5
408
330
1E
100
AcDbEntity
  8
STEMPEL
  6
Continuous
100
AcDbLine
 10
161.7356399313181
 20
467.7926567951608
 30
0.0
 11
161.7356399313181
 21
452.7336283032279
 31
0.0
  0
LINE
  5
409
330
1E
100
AcDbEntity
  8
STEMPEL
  6
Continuous
100
AcDbLine
 10
155.7356399313181
 20
508.5095525772271
 30
0.0
 11
155.7356399313181
 21
492.3452623243378
 31
0.0
  0
LINE
  5
40A
330
1E
100
AcDbEntity
  8
STEMPEL
  6
Continuous
100
AcDbLine
 10
332.9940847287241
 20
524.2926567951608
 30
0.0
 11
159.4771951339119
 21
524.2926567951608
 31
0.0
  0
LINE
  5
40B
330
1E
100
AcDbEntity
  8
HILF
  6
Continuous
100
AcDbLine
 10
164.9437804423007
 20
448.1021174420571
 30
0.0
 11
327.5274994203362
 21
448.1021174420572
 31
0.0
  0
LINE
  5
40C
330
1E
100
AcDbEntity
  8
HILF
  6
Continuous
100
AcDbLine
 10
163.6316989612702
 20
472.7319720388613
 30
0.0
 11
328.8395809013656
 21
472.7319720388612
 31
0.0
  0
LINE
  5
40D
330
1E
100
AcDbEntity
  8
HILF
  6
Continuous
100
AcDbLine
 10
168.664558874075
 20
440.4999982847265
 30
0.0
 11
323.8067209885614
 21
440.4999982847265
 31
0.0
  0
LINE
  5
40E
330
1E
100
AcDbEntity
  8
STEMPEL
  6
Continuous
100
AcDbLine
 10
332.9940847287243
 20
524.2926567951608
 30
0.0
 11
333.4564124776008
 21
523.3011917381514
 31
0.0
  0
ARC
  5
40F
330
1E
100
AcDbEntity
  8
STEMPEL
  6
Continuous
100
AcDbCircle
 10
301.735639931318
 20
508.5095525772271
 30
0.0
 40
35.0
100
AcDbArc
 50
0.0
 51
24.99999999999207
  0
ARC
  5
413
330
1E
100
AcDbEntity
  8
STEMPEL
  6
Continuous
100
AcDbCircle
 10
301.735639931318
 20
492.2876567951609
 30
0.0
 40
35.00004740563918
100
AcDbArc
 50
332.4728163794451
 51
0.0943014490885628
  0
ARC
  5
415
330
1E
100
AcDbEntity
  8
STEMPEL
  6
Continuous
100
AcDbCircle
 10
348.735639931318
 20
467.7926567951608
 30
0.0
 40
18.0
100
AcDbArc
 50
152.4728163794451
 51
180.0
  0
LINE
  5
418
330
1E
100
AcDbEntity
  8
STEMPEL
  6
Continuous
100
AcDbLine
 10
325.735639931318
 20
436.7649088805566
 30
0.0
 11
325.7356399313179
 21
422.1254725251582
 31
0.0
  0
ARC
  5
41A
330
1E
100
AcDbEntity
  8
STEMPEL
  6
Continuous
100
AcDbCircle
 10
335.735639931318
 20
436.7649088805566
 30
0.0
 40
10.0
100
AcDbArc
 50
145.2280559680509
 51
180.0
  0
ARC
  5
41B
330
1E
100
AcDbEntity
  8
STEMPEL
  6
Continuous
100
AcDbCircle
 10
312.735639931318
 20
452.7336283032279
 30
0.0
 40
18.0
100
AcDbArc
 50
325.228055968051
 51
0.0
  0
LINE
  5
41D
330
1E
100
AcDbEntity
  8
STEMPEL
  6
Continuous
100
AcDbLine
 10
330.735639931318
 20
467.7926567951608
 30
0.0
 11
330.735639931318
 21
452.7336283032279
 31
0.0
  0
LINE
  5
41F
330
1E
100
AcDbEntity
  8
STEMPEL
  6
Continuous
100
AcDbLine
 10
336.735639931318
 20
508.5095525772271
 30
0.0
 11
336.735639931318
 21
492.3452623243378
 31
0.0
  0
LINE
  5
420
330
1E
100
AcDbEntity
  8
STEMPEL
100
AcDbLine
 10
368.2356399313177
 20
344.2926567951609
 30
0.0
 11
124.2356399313179
 21
344.2926567951609
 31
0.0
  0
LINE
  5
421
330
1E
100
AcDbEntity
  8
STEMPEL
100
AcDbLine
 10
109.7356399313174
 20
312.1847675821874
 30
0.0
 11
109.7356399313175
 21
244.2926567951608
 31
0.0
  0
LINE
  5
423
330
1E
100
AcDbEntity
  8
STEMPEL
100
AcDbLine
 10
382.7356399313181
 20
312.1847675821874
 30
0.0
 11
382.7356399313179
 21
244.2926567951608
 31
0.0
  0
LINE
  5
424
330
1E
100
AcDbEntity
  8
MITTEL
100
AcDbLine
 10
246.2356399313181
 20
529.2926567951609
 30
0.0
 11
246.235639931318
 21
470.3827189904507
 31
0.0
  0
LINE
  5
425
330
1E
100
AcDbEntity
  8
STEMPEL
100
AcDbLine
 10
382.7356399313179
 20
244.2926567951608
 30
0.0
 11
109.7356399313179
 21
244.2926567951608
 31
0.0
  0
TEXT
  5
426
330
1E
100
AcDbEntity
  8
TEXT
 62
     1
100
AcDbText
 10
69.64115036283402
 20
175.2986938158537
 30
0.0
 40
7.0
  1
Rohrenden leicht entgratet
 41
0.8
  7
GREEKS
100
AcDbText
  0
TEXT
  5
5AC
330
1E
100
AcDbEntity
  8
TEXT
 62
     1
100
AcDbText
 10
234.6057658946468
 20
129.0783465745483
 30
0.0
 40
7.0
  1
feuerverzinkt und innen beschichtet
 41
0.8
  7
GREEKS
100
AcDbText
  0
TEXT
  5
5AD
330
1E
100
AcDbEntity
  8
TEXT
 62
     1
100
AcDbText
 10
186.6560484572489
 20
139.8004583895517
 30
0.0
 40
7.0
  1
Werkstoff: E195 EN10305, EN 10219 S235
 41
0.8
  7
GREEKS
100
AcDbText
  0
ARC
  5
5D3
330
1E
100
AcDbEntity
  8
SCHRAFF
100
AcDbCircle
 10
310.1290850916758
 20
404.2926567951607
 30
0.0
 40
3.9162881540558
100
AcDbArc
 50
310.0011557168441
 51
49.99884428315596
  0
ARC
  5
5D4
330
1E
100
AcDbEntity
  8
SCHRAFF
100
AcDbCircle
 10
260.1290850916758
 20
404.2926567951607
 30
0.0
 40
3.9162881540558
100
AcDbArc
 50
310.0011557168441
 51
49.99884428315596
  0
ARC
  5
5D5
330
1E
100
AcDbEntity
  8
SCHRAFF
100
AcDbCircle
 10
245.1290850916759
 20
404.2926567951607
 30
0.0
 40
3.9162881540558
100
AcDbArc
 50
310.0011557168441
 51
49.99884428315596
  0
ARC
  5
5D6
330
1E
100
AcDbEntity
  8
SCHRAFF
100
AcDbCircle
 10
255.1290850916759
 20
404.2926567951607
 30
0.0
 40
3.9162881540558
100
AcDbArc
 50
310.0011557168441
 51
49.99884428315596
  0
ARC
  5
5D7
330
1E
100
AcDbEntity
  8
SCHRAFF
100
AcDbCircle
 10
250.1290850916758
 20
404.2926567951607
 30
0.0
 40
3.9162881540558
100
AcDbArc
 50
310.0011557168441
 51
49.99884428315596
  0
ARC
  5
5D8
330
1E
100
AcDbEntity
  8
SCHRAFF
100
AcDbCircle
 10
275.1290850916758
 20
404.2926567951607
 30
0.0
 40
3.9162881540558
100
AcDbArc
 50
310.0011557168441
 51
49.99884428315596
  0
ARC
  5
5D9
330
1E
100
AcDbEntity
  8
SCHRAFF
100
AcDbCircle
 10
270.1290850916759
 20
404.2926567951607
 30
0.0
 40
3.9162881540558
100
AcDbArc
 50
310.0011557168441
 51
49.99884428315596
  0
ARC
  5
5DA
330
1E
100
AcDbEntity
  8
SCHRAFF
100
AcDbCircle
 10
265.1290850916758
 20
404.2926567951607
 30
0.0
 40
3.9162881540558
100
AcDbArc
 50
310.0011557168441
 51
49.99884428315596
  0
ARC
  5
5DB
330
1E
100
AcDbEntity
  8
SCHRAFF
100
AcDbCircle
 10
280.1290850916759
 20
404.2926567951607
 30
0.0
 40
3.9162881540558
100
AcDbArc
 50
310.0011557168441
 51
49.99884428315596
  0
ARC
  5
5DC
330
1E
100
AcDbEntity
  8
SCHRAFF
100
AcDbCircle
 10
285.1290850916758
 20
404.2926567951607
 30
0.0
 40
3.9162881540558
100
AcDbArc
 50
310.0011557168441
 51
49.99884428315596
  0
ARC
  5
5DD
330
1E
100
AcDbEntity
  8
SCHRAFF
100
AcDbCircle
 10
290.1290850916758
 20
404.2926567951607
 30
0.0
 40
3.9162881540558
100
AcDbArc
 50
310.0011557168441
 51
49.99884428315596
  0
ARC
  5
5DE
330
1E
100
AcDbEntity
  8
SCHRAFF
100
AcDbCircle
 10
295.1290850916759
 20
404.2926567951607
 30
0.0
 40
3.9162881540558
100
AcDbArc
 50
310.0011557168441
 51
49.99884428315596
  0
ARC
  5
5DF
330
1E
100
AcDbEntity
  8
SCHRAFF
100
AcDbCircle
 10
300.1290850916758
 20
404.2926567951607
 30
0.0
 40
3.9162881540558
100
AcDbArc
 50
310.0011557168441
 51
49.99884428315596
  0
ARC
  5
5E0
330
1E
100
AcDbEntity
  8
SCHRAFF
100
AcDbCircle
 10
305.1290850916759
 20
404.2926567951607
 30
0.0
 40
3.9162881540558
100
AcDbArc
 50
310.0011557168441
 51
49.99884428315596
  0
ARC
  5
5E1
330
1E
100
AcDbEntity
  8
SCHRAFF
100
AcDbCircle
 10
315.1290850916759
 20
404.2926567951607
 30
0.0
 40
3.9162881540558
100
AcDbArc
 50
310.0011557168441
 51
49.99884428315596
  0
ARC
  5
5E2
330
1E
100
AcDbEntity
  8
SCHRAFF
100
AcDbCircle
 10
320.1290850916759
 20
404.2926567951607
 30
0.0
 40
3.9162881540558
100
AcDbArc
 50
310.0011557168441
 51
49.99884428315596
  0
ARC
  5
5E3
330
1E
100
AcDbEntity
  8
SCHRAFF
100
AcDbCircle
 10
325.1290850916758
 20
404.2926567951606
 30
0.0
 40
3.9162881540558
100
AcDbArc
 50
310.0011557168441
 51
49.99884428315596
  0
ARC
  5
5E4
330
1E
100
AcDbEntity
  8
SCHRAFF
100
AcDbCircle
 10
345.1290850916757
 20
344.2926567951609
 30
0.0
 40
3.9162881540558
100
AcDbArc
 50
310.0011557168441
 51
49.99884428315596
  0
ARC
  5
5E5
330
1E
100
AcDbEntity
  8
SCHRAFF
100
AcDbCircle
 10
340.1290850916757
 20
344.2926567951609
 30
0.0
 40
3.9162881540558
100
AcDbArc
 50
310.0011557168441
 51
49.99884428315596
  0
ARC
  5
5E6
330
1E
100
AcDbEntity
  8
SCHRAFF
100
AcDbCircle
 10
335.1290850916758
 20
344.2926567951609
 30
0.0
 40
3.9162881540558
100
AcDbArc
 50
310.0011557168441
 51
49.99884428315596
  0
ARC
  5
5E7
330
1E
100
AcDbEntity
  8
SCHRAFF
100
AcDbCircle
 10
330.1290850916757
 20
344.2926567951609
 30
0.0
 40
3.9162881540558
100
AcDbArc
 50
310.0011557168441
 51
49.99884428315596
  0
ARC
  5
5E8
330
1E
100
AcDbEntity
  8
SCHRAFF
100
AcDbCircle
 10
325.1290850916757
 20
344.2926567951609
 30
0.0
 40
3.9162881540558
100
AcDbArc
 50
310.0011557168441
 51
49.99884428315596
  0
ARC
  5
5E9
330
1E
100
AcDbEntity
  8
SCHRAFF
100
AcDbCircle
 10
320.1290850916757
 20
344.2926567951609
 30
0.0
 40
3.9162881540558
100
AcDbArc
 50
310.0011557168441
 51
49.99884428315596
  0
ARC
  5
5EA
330
1E
100
AcDbEntity
  8
SCHRAFF
100
AcDbCircle
 10
315.1290850916757
 20
344.2926567951609
 30
0.0
 40
3.9162881540558
100
AcDbArc
 50
310.0011557168441
 51
49.99884428315596
  0
ARC
  5
5EB
330
1E
100
AcDbEntity
  8
SCHRAFF
100
AcDbCircle
 10
285.1290850916758
 20
344.2926567951609
 30
0.0
 40
3.9162881540558
100
AcDbArc
 50
310.0011557168441
 51
49.99884428315596
  0
ARC
  5
5EC
330
1E
100
AcDbEntity
  8
SCHRAFF
100
AcDbCircle
 10
290.1290850916757
 20
344.2926567951609
 30
0.0
 40
3.9162881540558
100
AcDbArc
 50
310.0011557168441
 51
49.99884428315596
  0
ARC
  5
5ED
330
1E
100
AcDbEntity
  8
SCHRAFF
100
AcDbCircle
 10
295.1290850916757
 20
344.2926567951609
 30
0.0
 40
3.9162881540558
100
AcDbArc
 50
310.0011557168441
 51
49.99884428315596
  0
ARC
  5
5EE
330
1E
100
AcDbEntity
  8
SCHRAFF
100
AcDbCircle
 10
300.1290850916757
 20
344.2926567951609
 30
0.0
 40
3.9162881540558
100
AcDbArc
 50
310.0011557168441
 51
49.99884428315596
  0
ARC
  5
5EF
330
1E
100
AcDbEntity
  8
SCHRAFF
100
AcDbCircle
 10
305.1290850916757
 20
344.2926567951609
 30
0.0
 40
3.9162881540558
100
AcDbArc
 50
310.0011557168441
 51
49.99884428315596
  0
ARC
  5
5F0
330
1E
100
AcDbEntity
  8
SCHRAFF
100
AcDbCircle
 10
310.1290850916758
 20
344.2926567951609
 30
0.0
 40
3.9162881540558
100
AcDbArc
 50
310.0011557168441
 51
49.99884428315596
  0
ARC
  5
5F1
330
1E
100
AcDbEntity
  8
SCHRAFF
100
AcDbCircle
 10
250.1290850916757
 20
344.2926567951609
 30
0.0
 40
3.9162881540558
100
AcDbArc
 50
310.0011557168441
 51
49.99884428315596
  0
ARC
  5
5F2
330
1E
100
AcDbEntity
  8
SCHRAFF
100
AcDbCircle
 10
245.1290850916757
 20
344.2926567951609
 30
0.0
 40
3.9162881540558
100
AcDbArc
 50
310.0011557168441
 51
49.99884428315596
  0
ARC
  5
5F3
330
1E
100
AcDbEntity
  8
SCHRAFF
100
AcDbCircle
 10
255.1290850916757
 20
344.2926567951609
 30
0.0
 40
3.9162881540558
100
AcDbArc
 50
310.0011557168441
 51
49.99884428315596
  0
ARC
  5
5F4
330
1E
100
AcDbEntity
  8
SCHRAFF
100
AcDbCircle
 10
260.1290850916758
 20
344.2926567951609
 30
0.0
 40
3.9162881540558
100
AcDbArc
 50
310.0011557168441
 51
49.99884428315596
  0
ARC
  5
5F5
330
1E
100
AcDbEntity
  8
SCHRAFF
100
AcDbCircle
 10
265.1290850916757
 20
344.2926567951609
 30
0.0
 40
3.9162881540558
100
AcDbArc
 50
310.0011557168441
 51
49.99884428315596
  0
ARC
  5
5F6
330
1E
100
AcDbEntity
  8
SCHRAFF
100
AcDbCircle
 10
270.1290850916757
 20
344.2926567951609
 30
0.0
 40
3.9162881540558
100
AcDbArc
 50
310.0011557168441
 51
49.99884428315596
  0
ARC
  5
5F7
330
1E
100
AcDbEntity
  8
SCHRAFF
100
AcDbCircle
 10
275.1290850916757
 20
344.2926567951609
 30
0.0
 40
3.9162881540558
100
AcDbArc
 50
310.0011557168441
 51
49.99884428315596
  0
ARC
  5
5F8
330
1E
100
AcDbEntity
  8
SCHRAFF
100
AcDbCircle
 10
280.1290850916757
 20
344.2926567951609
 30
0.0
 40
3.9162881540558
100
AcDbArc
 50
310.0011557168441
 51
49.99884428315596
  0
ARC
  5
5F9
330
1E
100
AcDbEntity
  8
SCHRAFF
100
AcDbCircle
 10
350.1290850916757
 20
344.2926567951609
 30
0.0
 40
3.9162881540558
100
AcDbArc
 50
310.0011557168441
 51
49.99884428315596
  0
ARC
  5
5FA
330
1E
100
AcDbEntity
  8
SCHRAFF
100
AcDbCircle
 10
355.1290850916757
 20
344.2926567951609
 30
0.0
 40
3.9162881540558
100
AcDbArc
 50
310.0011557168441
 51
49.99884428315596
  0
ARC
  5
5FB
330
1E
100
AcDbEntity
  8
SCHRAFF
100
AcDbCircle
 10
360.1290850916758
 20
344.2926567951609
 30
0.0
 40
3.9162881540558
100
AcDbArc
 50
310.0011557168441
 51
49.99884428315596
  0
ENDSEC
  0
SECTION
  2
OBJECTS
  0
DICTIONARY
  5
C
330
0
100
AcDbDictionary
281
     1
  3
ACAD_COLOR
350
DF
  3
ACAD_GROUP
350
D
  3
ACAD_LAYOUT
350
19
  3
ACAD_MATERIAL
350
DE
  3
ACAD_MLINESTYLE
350
16
  3
ACAD_PLOTSETTINGS
350
18
  3
ACAD_PLOTSTYLENAME
350
E
  3
AcDbVariableDictionary
350
EA
  0
DICTIONARY
  5
A0
330
1E
100
AcDbDictionary
280
     1
281
     1
  3
ACAD_LAYOUTSELFREF
360
D4
  0
DICTIONARY
  5
A2
330
1A
100
AcDbDictionary
280
     1
281
     1
  3
ACAD_LAYOUTSELFREF
360
D3
  0
DICTIONARY
  5
DF
102
{ACAD_REACTORS
330
C
102
}
330
C
100
AcDbDictionary
281
     1
  0
DICTIONARY
  5
D
102
{ACAD_REACTORS
330
C
102
}
330
C
100
AcDbDictionary
281
     1
  0
DICTIONARY
  5
19
102
{ACAD_REACTORS
330
C
102
}
330
C
100
AcDbDictionary
281
     1
  3
Layout1
350
1D
  3
Model
350
21
  0
DICTIONARY
  5
DE
102
{ACAD_REACTORS
330
C
102
}
330
C
100
AcDbDictionary
281
     1
  0
DICTIONARY
  5
16
102
{ACAD_REACTORS
330
C
102
}
330
C
100
AcDbDictionary
281
     1
  3
Standard
350
17
  0
DICTIONARY
  5
18
102
{ACAD_REACTORS
330
C
102
}
330
C
100
AcDbDictionary
281
     1
  0
ACDBDICTIONARYWDFLT
  5
E
102
{ACAD_REACTORS
330
C
102
}
330
C
100
AcDbDictionary
281
     1
  3
Normal
350
F
100
AcDbDictionaryWithDefault
340
F
  0
DICTIONARY
  5
EA
102
{ACAD_REACTORS
330
C
102
}
330
C
100
AcDbDictionary
281
     1
  3
DIMASSOC
350
EB
  3
PROJECTNAME
350
EC
  0
XRECORD
  5
D4
102
{ACAD_REACTORS
330
A0
102
}
330
A0
100
AcDbXrecord
280
     1
340
1E
  0
XRECORD
  5
D3
102
{ACAD_REACTORS
330
A2
102
}
330
A2
100
AcDbXrecord
280
     1
340
1A
  0
LAYOUT
  5
1D
102
{ACAD_REACTORS
330
19
102
}
330
19
100
AcDbPlotSettings
  1

  2
\\NT_WORK01\HP LaserJet 5000 PCL 6
  4

  6

 40
0.0
 41
0.0
 42
0.0
 43
0.0
 44
0.0
 45
0.0
 46
0.0
 47
0.0
 48
0.0
 49
0.0
140
0.0
141
0.0
142
1.0
143
1.0
 70
   688
 72
     0
 73
     0
 74
     5
  7

 75
    16
147
1.0
 76
     0
 77
     2
 78
   300
148
0.0
149
0.0
100
AcDbLayout
  1
Layout1
 70
     0
 71
     1
 10
0.0
 20
0.0
 11
12.0
 21
9.0
 12
0.0
 22
0.0
 32
0.0
 14
1.000000000000000E+20
 24
1.000000000000000E+20
 34
1.000000000000000E+20
 15
-1.000000000000000E+20
 25
-1.000000000000000E+20
 35
-1.000000000000000E+20
146
0.0
 13
0.0
 23
0.0
 33
0.0
 16
1.0
 26
0.0
 36
0.0
 17
0.0
 27
1.0
 37
0.0
 76
     0
330
1A
  0
LAYOUT
  5
21
102
{ACAD_REACTORS
330
19
102
}
330
19
100
AcDbPlotSettings
  1

  2
none_device
  4
Letter_(8.50_x_11.00_Inches)
  6

 40
6.349999904632568
 41
6.349999904632568
 42
6.350006103515625
 43
6.350006103515625
 44
215.8999938964844
 45
279.3999938964844
 46
0.0
 47
0.0
 48
0.0
 49
0.0
140
0.0
141
0.0
142
1.0
143
1.0
 70
 11952
 72
     0
 73
     1
 74
     0
  7

 75
     0
147
1.0
 76
     0
 77
     2
 78
   300
148
2209.800000000001
149
0.0
100
AcDbLayout
  1
Model
 70
     1
 71
     0
 10
0.0
 20
0.0
 11
12.0
 21
9.0
 12
0.0
 22
0.0
 32
0.0
 14
0.0
 24
0.0
 34
0.0
 15
0.0
 25
0.0
 35
0.0
146
0.0
 13
0.0
 23
0.0
 33
0.0
 16
1.0
 26
0.0
 36
0.0
 17
0.0
 27
1.0
 37
0.0
 76
     0
330
1E
  0
MLINESTYLE
  5
17
102
{ACAD_REACTORS
330
16
102
}
330
16
100
AcDbMlineStyle
  2
STANDARD
 70
     0
  3

 62
   256
 51
90.0
 52
90.0
 71
     2
 49
0.5
 62
   256
  6
BYLAYER
 49
-0.5
 62
   256
  6
BYLAYER
  0
ACDBPLACEHOLDER
  5
F
102
{ACAD_REACTORS
330
E
102
}
330
E
  0
DICTIONARYVAR
  5
EB
102
{ACAD_REACTORS
330
EA
102
}
330
EA
100
DictionaryVariables
280
     0
  1
1
  0
DICTIONARYVAR
  5
EC
102
{ACAD_REACTORS
330
EA
102
}
330
EA
100
DictionaryVariables
280
     0
  1

  0
ENDSEC
  0
EOF
