  0
SECTION
  2
HEADER
  9
$ACADVER
  1
AC1018
  9
$ACADMAINTVER
 70
     2
  9
$DWGCODEPAGE
  3
ANSI_1252
  9
$INSBASE
 10
0.0
 20
0.0
 30
0.0
  9
$EXTMIN
 10
-0.0181466638032362
 20
-0.0128361091515217
 30
-0.0000000000000053
  9
$EXTMAX
 10
840.0277851682858
 20
594.0098325609897
 30
0.0000000000000099
  9
$LIMMIN
 10
0.0
 20
0.0
  9
$LIMMAX
 10
840.0
 20
594.0
  9
$ORTHOMODE
 70
     1
  9
$REGENMODE
 70
     1
  9
$FILLMODE
 70
     1
  9
$QTEXTMODE
 70
     0
  9
$MIRRTEXT
 70
     1
  9
$LTSCALE
 40
20.0
  9
$ATTMODE
 70
     1
  9
$TEXTSIZE
 40
3.5
  9
$TRACEWID
 40
1.0
  9
$TEXTSTYLE
  7
STANDARD
  9
$CLAYER
  8
VOLL
  9
$CELTYPE
  6
ByLayer
  9
$CECOLOR
 62
   256
  9
$CELTSCALE
 40
1.0
  9
$DISPSILH
 70
     0
  9
$DIMSCALE
 40
2.0
  9
$DIMASZ
 40
3.5
  9
$DIMEXO
 40
1.0
  9
$DIMDLI
 40
7.0
  9
$DIMRND
 40
0.0
  9
$DIMDLE
 40
0.0
  9
$DIMEXE
 40
1.0
  9
$DIMTP
 40
0.0
  9
$DIMTM
 40
0.0
  9
$DIMTXT
 40
3.5
  9
$DIMCEN
 40
1.5
  9
$DIMTSZ
 40
0.0
  9
$DIMTOL
 70
     0
  9
$DIMLIM
 70
     0
  9
$DIMTIH
 70
     0
  9
$DIMTOH
 70
     0
  9
$DIMSE1
 70
     0
  9
$DIMSE2
 70
     0
  9
$DIMTAD
 70
     1
  9
$DIMZIN
 70
     8
  9
$DIMBLK
  1

  9
$DIMASO
 70
     1
  9
$DIMSHO
 70
     0
  9
$DIMPOST
  1

  9
$DIMAPOST
  1

  9
$DIMALT
 70
     0
  9
$DIMALTD
 70
     2
  9
$DIMALTF
 40
25.4
  9
$DIMLFAC
 40
1.0
  9
$DIMTOFL
 70
     1
  9
$DIMTVP
 40
0.0
  9
$DIMTIX
 70
     0
  9
$DIMSOXD
 70
     0
  9
$DIMSAH
 70
     0
  9
$DIMBLK1
  1

  9
$DIMBLK2
  1

  9
$DIMSTYLE
  2
Standard
  9
$DIMCLRD
 70
     0
  9
$DIMCLRE
 70
     0
  9
$DIMCLRT
 70
     1
  9
$DIMTFAC
 40
0.5142857142857144
  9
$DIMGAP
 40
1.5
  9
$DIMJUST
 70
     0
  9
$DIMSD1
 70
     0
  9
$DIMSD2
 70
     0
  9
$DIMTOLJ
 70
     1
  9
$DIMTZIN
 70
     8
  9
$DIMALTZ
 70
     8
  9
$DIMALTTZ
 70
     8
  9
$DIMUPT
 70
     0
  9
$DIMDEC
 70
     2
  9
$DIMTDEC
 70
     2
  9
$DIMALTU
 70
     2
  9
$DIMALTTD
 70
     2
  9
$DIMTXSTY
  7
STANDARD
  9
$DIMAUNIT
 70
     0
  9
$DIMADEC
 70
     2
  9
$DIMALTRND
 40
0.0
  9
$DIMAZIN
 70
     2
  9
$DIMDSEP
 70
    46
  9
$DIMATFIT
 70
     3
  9
$DIMFRAC
 70
     0
  9
$DIMLDRBLK
  1

  9
$DIMLUNIT
 70
     2
  9
$DIMLWD
 70
    -2
  9
$DIMLWE
 70
    -2
  9
$DIMTMOVE
 70
     0
  9
$LUNITS
 70
     2
  9
$LUPREC
 70
     2
  9
$SKETCHINC
 40
1.0
  9
$FILLETRAD
 40
0.0
  9
$AUNITS
 70
     0
  9
$AUPREC
 70
     0
  9
$MENU
  1
ACAD
  9
$ELEVATION
 40
0.0
  9
$PELEVATION
 40
0.0
  9
$THICKNESS
 40
0.0
  9
$LIMCHECK
 70
     0
  9
$CHAMFERA
 40
0.0
  9
$CHAMFERB
 40
0.0
  9
$CHAMFERC
 40
0.0
  9
$CHAMFERD
 40
0.0
  9
$SKPOLY
 70
     0
  9
$TDCREATE
 40
2455397.867059838
  9
$TDUCREATE
 40
2455397.783726505
  9
$TDUPDATE
 40
2455455.409670417
  9
$TDUUPDATE
 40
2455455.326337084
  9
$TDINDWG
 40
0.0305486574
  9
$TDUSRTIMER
 40
0.0305486574
  9
$USRTIMER
 70
     1
  9
$ANGBASE
 50
0.0
  9
$ANGDIR
 70
     0
  9
$PDMODE
 70
     0
  9
$PDSIZE
 40
0.0
  9
$PLINEWID
 40
0.0
  9
$SPLFRAME
 70
     0
  9
$SPLINETYPE
 70
     6
  9
$SPLINESEGS
 70
     8
  9
$HANDSEED
  5
345
  9
$SURFTAB1
 70
     6
  9
$SURFTAB2
 70
     6
  9
$SURFTYPE
 70
     6
  9
$SURFU
 70
     6
  9
$SURFV
 70
     6
  9
$UCSBASE
  2

  9
$UCSNAME
  2

  9
$UCSORG
 10
0.0
 20
0.0
 30
0.0
  9
$UCSXDIR
 10
1.0
 20
0.0
 30
0.0
  9
$UCSYDIR
 10
0.0
 20
1.0
 30
0.0
  9
$UCSORTHOREF
  2

  9
$UCSORTHOVIEW
 70
     0
  9
$UCSORGTOP
 10
0.0
 20
0.0
 30
0.0
  9
$UCSORGBOTTOM
 10
0.0
 20
0.0
 30
0.0
  9
$UCSORGLEFT
 10
0.0
 20
0.0
 30
0.0
  9
$UCSORGRIGHT
 10
0.0
 20
0.0
 30
0.0
  9
$UCSORGFRONT
 10
0.0
 20
0.0
 30
0.0
  9
$UCSORGBACK
 10
0.0
 20
0.0
 30
0.0
  9
$PUCSBASE
  2

  9
$PUCSNAME
  2

  9
$PUCSORG
 10
0.0
 20
0.0
 30
0.0
  9
$PUCSXDIR
 10
1.0
 20
0.0
 30
0.0
  9
$PUCSYDIR
 10
0.0
 20
1.0
 30
0.0
  9
$PUCSORTHOREF
  2

  9
$PUCSORTHOVIEW
 70
     0
  9
$PUCSORGTOP
 10
0.0
 20
0.0
 30
0.0
  9
$PUCSORGBOTTOM
 10
0.0
 20
0.0
 30
0.0
  9
$PUCSORGLEFT
 10
0.0
 20
0.0
 30
0.0
  9
$PUCSORGRIGHT
 10
0.0
 20
0.0
 30
0.0
  9
$PUCSORGFRONT
 10
0.0
 20
0.0
 30
0.0
  9
$PUCSORGBACK
 10
0.0
 20
0.0
 30
0.0
  9
$USERI1
 70
     0
  9
$USERI2
 70
     0
  9
$USERI3
 70
     0
  9
$USERI4
 70
     0
  9
$USERI5
 70
     0
  9
$USERR1
 40
0.0
  9
$USERR2
 40
0.0
  9
$USERR3
 40
0.0
  9
$USERR4
 40
0.0
  9
$USERR5
 40
0.0
  9
$WORLDVIEW
 70
     1
  9
$SHADEDGE
 70
     3
  9
$SHADEDIF
 70
    70
  9
$TILEMODE
 70
     1
  9
$MAXACTVP
 70
    16
  9
$PINSBASE
 10
0.0
 20
0.0
 30
0.0
  9
$PLIMCHECK
 70
     0
  9
$PEXTMIN
 10
1.000000000000000E+20
 20
1.000000000000000E+20
 30
1.000000000000000E+20
  9
$PEXTMAX
 10
-1.000000000000000E+20
 20
-1.000000000000000E+20
 30
-1.000000000000000E+20
  9
$PLIMMIN
 10
0.0
 20
0.0
  9
$PLIMMAX
 10
12.0
 20
9.0
  9
$UNITMODE
 70
     0
  9
$VISRETAIN
 70
     0
  9
$PLINEGEN
 70
     0
  9
$PSLTSCALE
 70
     0
  9
$TREEDEPTH
 70
  3020
  9
$CMLSTYLE
  2
Standard
  9
$CMLJUST
 70
     0
  9
$CMLSCALE
 40
1.0
  9
$PROXYGRAPHICS
 70
     1
  9
$MEASUREMENT
 70
     0
  9
$CELWEIGHT
370
    -1
  9
$ENDCAPS
280
     0
  9
$JOINSTYLE
280
     0
  9
$LWDISPLAY
290
     0
  9
$INSUNITS
 70
     0
  9
$HYPERLINKBASE
  1

  9
$STYLESHEET
  1
monochrome 1.ctb
  9
$XEDIT
290
     1
  9
$CEPSNTYPE
380
     0
  9
$PSTYLEMODE
290
     1
  9
$FINGERPRINTGUID
  2
{D68B0D0D-A558-11D7-B632-000102183313}
  9
$VERSIONGUID
  2
{4F1B1E06-75C3-4C65-B0B7-47E48D1A9544}
  9
$EXTNAMES
290
     1
  9
$PSVPSCALE
 40
0.0
  9
$OLESTARTUP
290
     0
  9
$SORTENTS
280
   127
  9
$INDEXCTL
280
     0
  9
$HIDETEXT
280
     0
  9
$XCLIPFRAME
290
     0
  9
$HALOGAP
280
     0
  9
$OBSCOLOR
 70
   257
  9
$OBSLTYPE
280
     0
  9
$INTERSECTIONDISPLAY
280
     0
  9
$INTERSECTIONCOLOR
 70
   257
  9
$DIMASSOC
280
     1
  9
$PROJECTNAME
  1

  0
ENDSEC
  0
SECTION
  2
CLASSES
  0
CLASS
  1
ACDBDICTIONARYWDFLT
  2
AcDbDictionaryWithDefault
  3
ObjectDBX Classes
 90
        0
 91
        1
280
     0
281
     0
  0
CLASS
  1
DICTIONARYVAR
  2
AcDbDictionaryVar
  3
ObjectDBX Classes
 90
        0
 91
        2
280
     0
281
     0
  0
ENDSEC
  0
SECTION
  2
TABLES
  0
TABLE
  2
VPORT
  5
8
330
0
100
AcDbSymbolTable
 70
     2
  0
VPORT
  5
344
330
8
100
AcDbSymbolTableRecord
100
AcDbViewportTableRecord
  2
*Active
 70
     0
 10
0.0
 20
0.0
 11
1.0
 21
1.0
 12
420.0048192522412
 22
296.9984982259191
 13
0.0
 23
0.0
 14
1.0
 24
1.0
 15
10.0
 25
10.0
 16
0.0
 26
0.0
 36
1.0
 17
0.0
 27
0.0
 37
0.0
 40
632.13614131262
 41
1.336927223719676
 42
50.0
 43
0.0
 44
0.0
 50
0.0
 51
0.0
 71
     0
 72
  1500
 73
     1
 74
     0
 75
     0
 76
     0
 77
     0
 78
     0
281
     0
 65
     1
110
0.0
120
0.0
130
0.0
111
1.0
121
0.0
131
0.0
112
0.0
122
1.0
132
0.0
 79
     0
146
0.0
  0
ENDTAB
  0
TABLE
  2
LTYPE
  5
5
330
0
100
AcDbSymbolTable
 70
     2
  0
LTYPE
  5
13
330
5
100
AcDbSymbolTableRecord
100
AcDbLinetypeTableRecord
  2
ByBlock
 70
     0
  3

 72
    65
 73
     0
 40
0.0
  0
LTYPE
  5
14
330
5
100
AcDbSymbolTableRecord
100
AcDbLinetypeTableRecord
  2
ByLayer
 70
     0
  3

 72
    65
 73
     0
 40
0.0
  0
LTYPE
  5
15
330
5
100
AcDbSymbolTableRecord
100
AcDbLinetypeTableRecord
  2
Continuous
 70
     0
  3
Solid line
 72
    65
 73
     0
 40
0.0
  0
LTYPE
  5
25
330
5
100
AcDbSymbolTableRecord
100
AcDbLinetypeTableRecord
  2
STRICHPUNKT
 70
     0
  3
__ . __ . __ . __ . __ . __ . __ . __ . __ . __
 72
    65
 73
     4
 40
1.0
 49
0.5
 74
     0
 49
-0.25
 74
     0
 49
0.0
 74
     0
 49
-0.25
 74
     0
  0
ENDTAB
  0
TABLE
  2
LAYER
  5
2
330
0
100
AcDbSymbolTable
 70
     9
  0
LAYER
  5
10
330
2
100
AcDbSymbolTableRecord
100
AcDbLayerTableRecord
  2
0
 70
     0
 62
     7
  6
Continuous
370
    -3
390
F
  0
LAYER
  5
2B
330
2
100
AcDbSymbolTableRecord
100
AcDbLayerTableRecord
  2
VOLL
 70
     0
 62
     1
  6
Continuous
370
    -3
390
F
  0
LAYER
  5
2C
330
2
100
AcDbSymbolTableRecord
100
AcDbLayerTableRecord
  2
HILF
 70
     0
 62
     2
  6
Continuous
370
    -3
390
F
  0
LAYER
  5
2D
330
2
100
AcDbSymbolTableRecord
100
AcDbLayerTableRecord
  2
MITTEL
 70
     0
 62
     2
  6
STRICHPUNKT
370
    -3
390
F
  0
LAYER
  5
2F
330
2
100
AcDbSymbolTableRecord
100
AcDbLayerTableRecord
  2
BEM
 70
     0
 62
     7
  6
Continuous
370
    -3
390
F
  0
LAYER
  5
30
330
2
100
AcDbSymbolTableRecord
100
AcDbLayerTableRecord
  2
STEMPEL
 70
     0
 62
     3
  6
Continuous
370
    -3
390
F
  0
LAYER
  5
33
330
2
100
AcDbSymbolTableRecord
100
AcDbLayerTableRecord
  2
TEXT
 70
     0
 62
     7
  6
Continuous
370
    -3
390
F
  0
LAYER
  5
1AC
330
2
100
AcDbSymbolTableRecord
100
AcDbLayerTableRecord
  2
SCHRAFF
 70
     0
 62
     7
  6
Continuous
370
    -3
390
F
  0
LAYER
  5
1AD
330
2
100
AcDbSymbolTableRecord
100
AcDbLayerTableRecord
  2
DEFPOINTS
 70
     0
 62
     7
  6
Continuous
290
     0
370
    -3
390
F
  0
ENDTAB
  0
TABLE
  2
STYLE
  5
3
330
0
100
AcDbSymbolTable
 70
     2
  0
STYLE
  5
11
330
3
100
AcDbSymbolTableRecord
100
AcDbTextStyleTableRecord
  2
STANDARD
 70
     0
 40
0.0
 41
0.8
 50
0.0
 71
     0
 42
3.5
  3
simplex.shx
  4

  0
STYLE
  5
24
330
3
100
AcDbSymbolTableRecord
100
AcDbTextStyleTableRecord
  2
GREEKS
 70
     0
 40
0.0
 41
0.8
 50
0.0
 71
     0
 42
2.5
  3
SIMPLEX.shx
  4

  0
ENDTAB
  0
TABLE
  2
VIEW
  5
6
330
0
100
AcDbSymbolTable
 70
     0
  0
ENDTAB
  0
TABLE
  2
UCS
  5
7
330
0
100
AcDbSymbolTable
 70
     0
  0
ENDTAB
  0
TABLE
  2
APPID
  5
9
330
0
100
AcDbSymbolTable
 70
     1
  0
APPID
  5
12
330
9
100
AcDbSymbolTableRecord
100
AcDbRegAppTableRecord
  2
ACAD
 70
     0
  0
ENDTAB
  0
TABLE
  2
DIMSTYLE
  5
A
330
0
100
AcDbSymbolTable
 70
     1
100
AcDbDimStyleTable
 71
     1
340
A2
  0
DIMSTYLE
105
A2
102
{ACAD_REACTORS
330
22F
330
230
330
27E
330
2A5
102
}
330
A
100
AcDbSymbolTableRecord
100
AcDbDimStyleTableRecord
  2
Standard
 70
     0
340
11
  0
ENDTAB
  0
TABLE
  2
BLOCK_RECORD
  5
1
330
0
100
AcDbSymbolTable
 70
     6
  0
BLOCK_RECORD
  5
1E
102
{ACAD_XDICTIONARY
360
DB
102
}
330
1
100
AcDbSymbolTableRecord
100
AcDbBlockTableRecord
  2
*Model_Space
340
21
  0
BLOCK_RECORD
  5
1A
102
{ACAD_XDICTIONARY
360
DD
102
}
330
1
100
AcDbSymbolTableRecord
100
AcDbBlockTableRecord
  2
*Paper_Space
340
1D
  0
BLOCK_RECORD
  5
22
330
1
100
AcDbSymbolTableRecord
100
AcDbBlockTableRecord
  2
LOGO
340
0
102
{BLKREFS
331
56
102
}
  0
BLOCK_RECORD
  5
23
330
1
100
AcDbSymbolTableRecord
100
AcDbBlockTableRecord
  2
LORO
340
0
102
{BLKREFS
331
9B
102
}
  0
BLOCK_RECORD
  5
2A6
330
1
100
AcDbSymbolTableRecord
100
AcDbBlockTableRecord
  2
*D2
340
0
  0
BLOCK_RECORD
  5
2B2
330
1
100
AcDbSymbolTableRecord
100
AcDbBlockTableRecord
  2
*D3
340
0
  0
BLOCK_RECORD
  5
2BE
330
1
100
AcDbSymbolTableRecord
100
AcDbBlockTableRecord
  2
*D4
340
0
  0
BLOCK_RECORD
  5
2CB
330
1
100
AcDbSymbolTableRecord
100
AcDbBlockTableRecord
  2
*D5
340
0
  0
ENDTAB
  0
ENDSEC
  0
SECTION
  2
BLOCKS
  0
BLOCK
  5
37
330
1E
100
AcDbEntity
  8
0
100
AcDbBlockBegin
  2
*Model_Space
 70
     0
 10
0.0
 20
0.0
 30
0.0
  3
*Model_Space
  1

  0
ENDBLK
  5
38
330
1E
100
AcDbEntity
  8
0
100
AcDbBlockEnd
  0
BLOCK
  5
35
330
1A
100
AcDbEntity
 67
     1
  8
0
100
AcDbBlockBegin
  2
*Paper_Space
 70
     0
 10
0.0
 20
0.0
 30
0.0
  3
*Paper_Space
  1

  0
ENDBLK
  5
36
330
1A
100
AcDbEntity
 67
     1
  8
0
100
AcDbBlockEnd
  0
BLOCK
  5
39
330
22
100
AcDbEntity
  8
0
100
AcDbBlockBegin
  2
LOGO
 70
     0
 10
0.0
 20
0.0
 30
0.0
  3
LOGO
  1

  0
ARC
  5
3A
330
22
100
AcDbEntity
  8
0
100
AcDbCircle
 10
11.59973089678112
 20
-9.271599258481501
 30
0.0
 40
4.5
100
AcDbArc
 50
270.0
 51
231.0575587310159
  0
LINE
  5
3B
330
22
100
AcDbEntity
  8
0
100
AcDbLine
 10
3.599730896781125
 20
-4.771599258481529
 30
0.0
 11
3.599730896781153
 21
-11.77159925848133
 31
0.0
  0
LINE
  5
3C
330
22
100
AcDbEntity
  8
0
100
AcDbLine
 10
2.599730896781125
 20
-4.771599258481529
 30
0.0
 11
2.599730896781153
 21
-11.77159925848133
 31
0.0
  0
CIRCLE
  5
3D
330
22
100
AcDbEntity
  8
0
100
AcDbCircle
 10
11.59973089678112
 20
-9.271599258481501
 30
0.0
 40
3.5
  0
ARC
  5
3E
330
22
100
AcDbEntity
  8
0
100
AcDbCircle
 10
31.59973089678115
 20
-9.271599258481472
 30
0.0
 40
4.5
100
AcDbArc
 50
270.0
 51
231.0575587310182
  0
LINE
  5
3F
330
22
100
AcDbEntity
  8
0
100
AcDbLine
 10
17.59973089678112
 20
-4.771599258481472
 30
0.0
 11
17.59973089678115
 21
-13.77159925848147
 31
0.0
  0
ARC
  5
40
330
22
100
AcDbEntity
  8
0
100
AcDbCircle
 10
22.59973089678116
 20
-7.271599258481472
 30
0.0
 40
2.5
100
AcDbArc
 50
293.1161887722295
 51
90.0
  0
CIRCLE
  5
41
330
22
100
AcDbEntity
  8
0
100
AcDbCircle
 10
31.59973089678115
 20
-9.271599258481472
 30
0.0
 40
3.5
  0
ARC
  5
42
330
22
100
AcDbEntity
  8
0
100
AcDbCircle
 10
4.599730896781153
 20
-11.77159925848133
 30
0.0
 40
1.0
100
AcDbArc
 50
180.0
 51
270.0
  0
ARC
  5
43
330
22
100
AcDbEntity
  8
0
100
AcDbCircle
 10
4.599730896781153
 20
-11.77159925848133
 30
0.0
 40
2.0
100
AcDbArc
 50
179.9999999999992
 51
270.0
  0
LINE
  5
44
330
22
100
AcDbEntity
  8
0
100
AcDbLine
 10
11.59973089678115
 20
-13.77159925848144
 30
0.0
 11
4.599730896781153
 21
-13.77159925848147
 31
0.0
  0
LINE
  5
45
330
22
100
AcDbEntity
  8
0
100
AcDbLine
 10
8.771303772034769
 20
-12.77159925848136
 30
0.0
 11
4.599730896781153
 21
-12.77159925848133
 31
0.0
  0
LINE
  5
46
330
22
100
AcDbEntity
  8
0
100
AcDbLine
 10
31.59973089678115
 20
-13.77159925848147
 30
0.0
 11
23.6715276665056
 21
-13.77159925848144
 31
0.0
  0
LINE
  5
47
330
22
100
AcDbEntity
  8
0
100
AcDbLine
 10
23.56565672307022
 20
-9.51278021337896
 30
0.0
 11
24.4388546544846
 21
-12.77159925848144
 31
0.0
  0
LINE
  5
48
330
22
100
AcDbEntity
  8
0
100
AcDbLine
 10
22.59973089678116
 20
-9.771599258481472
 30
0.0
 11
18.59973089678112
 21
-9.771599258481472
 31
0.0
  0
LINE
  5
49
330
22
100
AcDbEntity
  8
0
100
AcDbLine
 10
18.59973089678115
 20
-13.77159925848144
 30
0.0
 11
17.59973089678115
 21
-13.77159925848144
 31
0.0
  0
LINE
  5
4A
330
22
100
AcDbEntity
  8
0
100
AcDbLine
 10
18.59973089678115
 20
-9.771599258481472
 30
0.0
 11
18.59973089678115
 21
-13.77159925848144
 31
0.0
  0
LINE
  5
4B
330
22
100
AcDbEntity
  8
0
100
AcDbLine
 10
22.59973089678116
 20
-9.771599258481472
 30
0.0
 11
23.67152766650562
 21
-13.77159925848147
 31
0.0
  0
ARC
  5
4C
330
22
100
AcDbEntity
  8
0
100
AcDbCircle
 10
22.59973089678116
 20
-7.271599258481472
 30
0.0
 40
2.5
100
AcDbArc
 50
270.0
 51
270.0000000000007
  0
LINE
  5
4D
330
22
100
AcDbEntity
  8
0
100
AcDbLine
 10
28.77130377203494
 20
-12.77159925848147
 30
0.0
 11
24.43885465448463
 21
-12.77159925848144
 31
0.0
  0
LINE
  5
4E
330
22
100
AcDbEntity
  8
0
100
AcDbLine
 10
3.599730896781125
 20
-4.771599258481472
 30
0.0
 11
2.599730896781125
 21
-4.771599258481472
 31
0.0
  0
LINE
  5
4F
330
22
100
AcDbEntity
  8
0
100
AcDbLine
 10
22.59973089678116
 20
-8.771599258481472
 30
0.0
 11
18.59973089678115
 21
-8.771599258481472
 31
0.0
  0
LINE
  5
50
330
22
100
AcDbEntity
  8
0
100
AcDbLine
 10
22.59973089678116
 20
-5.771599258481472
 30
0.0
 11
18.59973089678115
 21
-5.771599258481472
 31
0.0
  0
LINE
  5
51
330
22
100
AcDbEntity
  8
0
100
AcDbLine
 10
22.59973089678116
 20
-4.771599258481472
 30
0.0
 11
17.59973089678115
 21
-4.771599258481472
 31
0.0
  0
LINE
  5
52
330
22
100
AcDbEntity
  8
0
100
AcDbLine
 10
18.59973089678115
 20
-5.771599258481472
 30
0.0
 11
18.59973089678115
 21
-8.771599258481472
 31
0.0
  0
ARC
  5
53
330
22
100
AcDbEntity
  8
0
100
AcDbCircle
 10
22.59973089678116
 20
-7.271599258481472
 30
0.0
 40
1.5
100
AcDbArc
 50
270.0
 51
90.0
  0
ENDBLK
  5
54
330
22
100
AcDbEntity
  8
0
100
AcDbBlockEnd
  0
BLOCK
  5
55
330
23
100
AcDbEntity
  8
0
100
AcDbBlockBegin
  2
LORO
 70
     0
 10
0.0
 20
0.0
 30
0.0
  3
LORO
  1

  0
INSERT
  5
56
330
23
100
AcDbEntity
  8
STEMPEL
100
AcDbBlockReference
  2
LOGO
 10
-1.748032802467321
 20
3.771489518552062
 30
0.0
  0
ENDBLK
  5
57
330
23
100
AcDbEntity
  8
0
100
AcDbBlockEnd
  0
BLOCK
  5
2B0
330
2A6
100
AcDbEntity
  8
0
100
AcDbBlockBegin
  2
*D2
 70
     1
 10
0.0
 20
0.0
 30
0.0
  3
*D2
  1

  0
LINE
  5
2D7
330
2A6
100
AcDbEntity
  8
BEM
 62
     0
370
    -2
100
AcDbLine
 10
738.9678092932338
 20
274.6351602845829
 30
0.0
 11
738.9678092932338
 21
250.228043768853
 31
0.0
  0
LINE
  5
2D8
330
2A6
100
AcDbEntity
  8
BEM
 62
     0
370
    -2
100
AcDbLine
 10
588.9678092932338
 20
277.0374094477095
 30
0.0
 11
588.9678092932338
 21
250.228043768853
 31
0.0
  0
LINE
  5
2D9
330
2A6
100
AcDbEntity
  8
BEM
 62
     0
370
    -2
100
AcDbLine
 10
731.9678092932337
 20
252.228043768853
 30
0.0
 11
595.9678092932338
 21
252.228043768853
 31
0.0
  0
SOLID
  5
2DA
330
2A6
100
AcDbEntity
  8
BEM
 62
     0
100
AcDbTrace
 10
731.9678092932337
 20
253.3947104355197
 30
0.0
 11
731.9678092932337
 21
251.0613771021863
 31
0.0
 12
738.9678092932338
 22
252.228043768853
 32
0.0
 13
738.9678092932338
 23
252.228043768853
 33
0.0
  0
SOLID
  5
2DB
330
2A6
100
AcDbEntity
  8
BEM
 62
     0
100
AcDbTrace
 10
595.9678092932338
 20
253.3947104355197
 30
0.0
 11
595.9678092932338
 21
251.0613771021863
 31
0.0
 12
588.9678092932338
 22
252.228043768853
 32
0.0
 13
588.9678092932338
 23
252.228043768853
 33
0.0
  0
MTEXT
  5
2DC
330
2A6
100
AcDbEntity
  8
BEM
 62
     1
100
AcDbMText
 10
663.9678092932338
 20
258.128043768853
 30
0.0
 40
7.0
 41
0.0
 71
     5
 72
     1
  1
\A1;150
 73
     1
 44
1.0
  0
POINT
  5
2DD
330
2A6
100
AcDbEntity
  8
DEFPOINTS
 62
     0
100
AcDbPoint
 10
738.9678092932338
 20
276.6351602845829
 30
0.0
  0
POINT
  5
2DE
330
2A6
100
AcDbEntity
  8
DEFPOINTS
 62
     0
100
AcDbPoint
 10
588.9678092932338
 20
279.0374094477095
 30
0.0
  0
POINT
  5
2DF
330
2A6
100
AcDbEntity
  8
DEFPOINTS
 62
     0
100
AcDbPoint
 10
588.9678092932338
 20
252.228043768853
 30
0.0
  0
ENDBLK
  5
2B1
330
2A6
100
AcDbEntity
  8
0
100
AcDbBlockEnd
  0
BLOCK
  5
2BC
330
2B2
100
AcDbEntity
  8
0
100
AcDbBlockBegin
  2
*D3
 70
     1
 10
0.0
 20
0.0
 30
0.0
  3
*D3
  1

  0
LINE
  5
2E0
330
2B2
100
AcDbEntity
  8
BEM
 62
     0
370
    -2
100
AcDbLine
 10
136.9678092932334
 20
281.341916122508
 30
0.0
 11
119.2701067049132
 21
281.341916122508
 31
0.0
  0
LINE
  5
2E1
330
2B2
100
AcDbEntity
  8
BEM
 62
     0
370
    -2
100
AcDbLine
 10
136.9678092932334
 20
383.3419161225084
 30
0.0
 11
119.2701067049132
 21
383.3419161225084
 31
0.0
  0
LINE
  5
2E2
330
2B2
100
AcDbEntity
  8
BEM
 62
     0
370
    -2
100
AcDbLine
 10
121.2701067049132
 20
288.3419161225081
 30
0.0
 11
121.2701067049132
 21
376.3419161225085
 31
0.0
  0
SOLID
  5
2E3
330
2B2
100
AcDbEntity
  8
BEM
 62
     0
100
AcDbTrace
 10
120.1034400382465
 20
288.3419161225081
 30
0.0
 11
122.4367733715799
 21
288.3419161225081
 31
0.0
 12
121.2701067049132
 22
281.341916122508
 32
0.0
 13
121.2701067049132
 23
281.341916122508
 33
0.0
  0
SOLID
  5
2E4
330
2B2
100
AcDbEntity
  8
BEM
 62
     0
100
AcDbTrace
 10
120.1034400382466
 20
376.3419161225085
 30
0.0
 11
122.4367733715799
 21
376.3419161225085
 31
0.0
 12
121.2701067049132
 22
383.3419161225084
 32
0.0
 13
121.2701067049132
 23
383.3419161225084
 33
0.0
  0
MTEXT
  5
2E5
330
2B2
100
AcDbEntity
  8
BEM
 62
     1
100
AcDbMText
 10
115.3701067049131
 20
332.3419161225082
 30
0.0
 40
7.0
 41
0.0
 71
     5
 72
     1
  1
\A1;%%c102
 11
0.0000000000000001
 21
1.0
 31
0.0
 73
     1
 44
1.0
  0
POINT
  5
2E6
330
2B2
100
AcDbEntity
  8
DEFPOINTS
 62
     0
100
AcDbPoint
 10
138.9678092932334
 20
281.341916122508
 30
0.0
  0
POINT
  5
2E7
330
2B2
100
AcDbEntity
  8
DEFPOINTS
 62
     0
100
AcDbPoint
 10
138.9678092932334
 20
383.3419161225084
 30
0.0
  0
POINT
  5
2E8
330
2B2
100
AcDbEntity
  8
DEFPOINTS
 62
     0
100
AcDbPoint
 10
121.2701067049132
 20
383.3419161225084
 30
0.0
  0
ENDBLK
  5
2BD
330
2B2
100
AcDbEntity
  8
0
100
AcDbBlockEnd
  0
BLOCK
  5
2C9
330
2BE
100
AcDbEntity
  8
0
100
AcDbBlockBegin
  2
*D4
 70
     1
 10
0.0
 20
0.0
 30
0.0
  3
*D4
  1

  0
LINE
  5
2E9
330
2BE
100
AcDbEntity
  8
BEM
 62
     0
370
    -2
100
AcDbLine
 10
390.8386232624846
 20
281.3419161225084
 30
0.0
 11
391.0006663221586
 21
281.3419161225084
 31
0.0
  0
LINE
  5
2EA
330
2BE
100
AcDbEntity
  8
BEM
 62
     0
370
    -2
100
AcDbLine
 10
389.0006663221586
 20
290.341916122508
 30
0.0
 11
389.0006663221586
 21
297.341916122508
 31
0.0
  0
LINE
  5
2EB
330
2BE
100
AcDbEntity
  8
BEM
 62
     0
370
    -2
100
AcDbLine
 10
389.0006663221586
 20
274.3419161225085
 30
0.0
 11
389.0006663221586
 21
258.8085827891751
 31
0.0
  0
LINE
  5
2EC
330
2BE
100
AcDbEntity
  8
BEM
 62
     0
370
    -2
100
AcDbLine
 10
389.0006663221586
 20
283.341916122508
 30
0.0
 11
389.0006663221586
 21
281.3419161225084
 31
0.0
  0
SOLID
  5
2ED
330
2BE
100
AcDbEntity
  8
BEM
 62
     0
100
AcDbTrace
 10
387.8339996554919
 20
290.341916122508
 30
0.0
 11
390.1673329888253
 21
290.341916122508
 31
0.0
 12
389.0006663221586
 22
283.341916122508
 32
0.0
 13
389.0006663221586
 23
283.341916122508
 33
0.0
  0
SOLID
  5
2EE
330
2BE
100
AcDbEntity
  8
BEM
 62
     0
100
AcDbTrace
 10
387.8339996554919
 20
274.3419161225085
 30
0.0
 11
390.1673329888253
 21
274.3419161225085
 31
0.0
 12
389.0006663221586
 22
281.3419161225084
 32
0.0
 13
389.0006663221586
 23
281.3419161225084
 33
0.0
  0
MTEXT
  5
2EF
330
2BE
100
AcDbEntity
  8
BEM
 62
     1
100
AcDbMText
 10
383.1006663221586
 20
263.0752494558419
 30
0.0
 40
7.0
 41
0.0
 71
     5
 72
     1
  1
\A1;2
 11
0.0000000000000001
 21
1.0
 31
0.0
 73
     1
 44
1.0
  0
POINT
  5
2F0
330
2BE
100
AcDbEntity
  8
DEFPOINTS
 62
     0
100
AcDbPoint
 10
389.0006663221586
 20
283.341916122508
 30
0.0
  0
POINT
  5
2F1
330
2BE
100
AcDbEntity
  8
DEFPOINTS
 62
     0
100
AcDbPoint
 10
388.8386232624846
 20
281.3419161225084
 30
0.0
  0
POINT
  5
2F2
330
2BE
100
AcDbEntity
  8
DEFPOINTS
 62
     0
100
AcDbPoint
 10
389.0006663221586
 20
281.3419161225084
 30
0.0
  0
ENDBLK
  5
2CA
330
2BE
100
AcDbEntity
  8
0
100
AcDbBlockEnd
  0
BLOCK
  5
2D5
330
2CB
100
AcDbEntity
  8
0
100
AcDbBlockBegin
  2
*D5
 70
     1
 10
0.0
 20
0.0
 30
0.0
  3
*D5
  1

  0
LINE
  5
327
330
2CB
100
AcDbEntity
  8
BEM
 62
     0
370
    -2
100
AcDbLine
 10
138.9678092932334
 20
280.3917800848191
 30
0.0
 11
138.9678092932334
 21
235.9607766199161
 31
0.0
  0
LINE
  5
328
330
2CB
100
AcDbEntity
  8
BEM
 62
     0
370
    -2
100
AcDbLine
 10
738.9678092932338
 20
274.6351602845831
 30
0.0
 11
738.9678092932338
 21
235.9607766199161
 31
0.0
  0
LINE
  5
329
330
2CB
100
AcDbEntity
  8
BEM
 62
     0
370
    -2
100
AcDbLine
 10
145.9678092932334
 20
237.9607766199161
 30
0.0
 11
731.9678092932337
 21
237.9607766199161
 31
0.0
  0
SOLID
  5
32A
330
2CB
100
AcDbEntity
  8
BEM
 62
     0
100
AcDbTrace
 10
145.9678092932334
 20
239.1274432865827
 30
0.0
 11
145.9678092932334
 21
236.7941099532494
 31
0.0
 12
138.9678092932334
 22
237.9607766199161
 32
0.0
 13
138.9678092932334
 23
237.9607766199161
 33
0.0
  0
SOLID
  5
32B
330
2CB
100
AcDbEntity
  8
BEM
 62
     0
100
AcDbTrace
 10
731.9678092932337
 20
239.1274432865827
 30
0.0
 11
731.9678092932337
 21
236.7941099532494
 31
0.0
 12
738.9678092932338
 22
237.9607766199161
 32
0.0
 13
738.9678092932338
 23
237.9607766199161
 33
0.0
  0
MTEXT
  5
32C
330
2CB
100
AcDbEntity
  8
BEM
 62
     1
100
AcDbMText
 10
438.9678092932336
 20
243.860776619916
 30
0.0
 40
7.0
 41
0.0
 71
     5
 72
     1
  1
\A1;1000
 73
     1
 44
1.0
  0
POINT
  5
32D
330
2CB
100
AcDbEntity
  8
DEFPOINTS
 62
     0
100
AcDbPoint
 10
138.9678092932334
 20
282.3917800848191
 30
0.0
  0
POINT
  5
32E
330
2CB
100
AcDbEntity
  8
DEFPOINTS
 62
     0
100
AcDbPoint
 10
738.9678092932338
 20
276.6351602845831
 30
0.0
  0
POINT
  5
32F
330
2CB
100
AcDbEntity
  8
DEFPOINTS
 62
     0
100
AcDbPoint
 10
738.9678092932338
 20
237.9607766199161
 30
0.0
  0
ENDBLK
  5
2D6
330
2CB
100
AcDbEntity
  8
0
100
AcDbBlockEnd
  0
ENDSEC
  0
SECTION
  2
ENTITIES
  0
LINE
  5
58
330
1E
100
AcDbEntity
  8
STEMPEL
100
AcDbLine
 10
830.0000000000002
 20
110.0
 30
0.0
 11
470.0000000000001
 21
110.0
 31
0.0
  0
LINE
  5
59
330
1E
100
AcDbEntity
  8
STEMPEL
100
AcDbLine
 10
470.0000000000001
 20
110.0
 30
0.0
 11
470.0000000000001
 21
10.0
 31
0.0
  0
LINE
  5
5A
330
1E
100
AcDbEntity
  8
STEMPEL
100
AcDbLine
 10
566.0000000000002
 20
109.9999999999999
 30
0.0
 11
566.0000000000001
 21
9.999999999999886
 31
0.0
  0
LINE
  5
5B
330
1E
100
AcDbEntity
  8
STEMPEL
100
AcDbLine
 10
650.0
 20
110.0
 30
0.0
 11
650.0
 21
10.0
 31
0.0
  0
LINE
  5
5C
330
1E
100
AcDbEntity
  8
STEMPEL
100
AcDbLine
 10
752.0000000000002
 20
109.9999999999997
 30
0.0
 11
752.0000000000002
 21
40.0
 31
0.0
  0
LINE
  5
5D
330
1E
100
AcDbEntity
  8
STEMPEL
100
AcDbLine
 10
566.0
 20
30.0
 30
0.0
 11
470.0000000000001
 21
30.0
 31
0.0
  0
LINE
  5
5E
330
1E
100
AcDbEntity
  8
STEMPEL
100
AcDbLine
 10
830.0000000000002
 20
40.0
 30
0.0
 11
566.0000000000001
 21
40.0
 31
0.0
  0
LINE
  5
5F
330
1E
100
AcDbEntity
  8
STEMPEL
100
AcDbLine
 10
830.0000000000002
 20
80.0
 30
0.0
 11
566.0000000000002
 21
80.0
 31
0.0
  0
LINE
  5
60
330
1E
100
AcDbEntity
  8
VOLL
100
AcDbLine
 10
484.0000000000002
 20
110.0
 30
0.0
 11
484.0000000000001
 21
9.999999999999985
 31
0.0
  0
LINE
  5
61
330
1E
100
AcDbEntity
  8
VOLL
100
AcDbLine
 10
524.0000000000001
 20
109.9999999999999
 30
0.0
 11
524.0000000000001
 21
9.999999999999943
 31
0.0
  0
LINE
  5
62
330
1E
100
AcDbEntity
  8
VOLL
100
AcDbLine
 10
544.0000000000002
 20
109.9999999999999
 30
0.0
 11
544.0000000000001
 21
9.999999999999914
 31
0.0
  0
LINE
  5
63
330
1E
100
AcDbEntity
  8
VOLL
100
AcDbLine
 10
584.0000000000002
 20
80.0
 30
0.0
 11
584.0000000000002
 21
40.0
 31
0.0
  0
LINE
  5
64
330
1E
100
AcDbEntity
  8
VOLL
100
AcDbLine
 10
610.0000000000002
 20
109.9999999999998
 30
0.0
 11
610.0000000000001
 21
40.0
 31
0.0
  0
LINE
  5
65
330
1E
100
AcDbEntity
  8
HILF
100
AcDbLine
 10
470.0000000000001
 20
100.0
 30
0.0
 11
566.0000000000002
 21
100.0
 31
0.0
  0
LINE
  5
66
330
1E
100
AcDbEntity
  8
HILF
100
AcDbLine
 10
470.0000000000001
 20
90.0
 30
0.0
 11
566.0000000000002
 21
90.0
 31
0.0
  0
LINE
  5
67
330
1E
100
AcDbEntity
  8
HILF
100
AcDbLine
 10
470.0000000000001
 20
80.0
 30
0.0
 11
566.0000000000002
 21
80.0
 31
0.0
  0
LINE
  5
68
330
1E
100
AcDbEntity
  8
HILF
100
AcDbLine
 10
470.0000000000001
 20
70.0
 30
0.0
 11
566.0000000000002
 21
70.0
 31
0.0
  0
LINE
  5
69
330
1E
100
AcDbEntity
  8
HILF
100
AcDbLine
 10
470.0000000000001
 20
60.0
 30
0.0
 11
566.0000000000002
 21
60.0
 31
0.0
  0
LINE
  5
6A
330
1E
100
AcDbEntity
  8
HILF
100
AcDbLine
 10
470.0000000000001
 20
50.0
 30
0.0
 11
566.0000000000002
 21
50.0
 31
0.0
  0
LINE
  5
6B
330
1E
100
AcDbEntity
  8
HILF
100
AcDbLine
 10
470.0000000000001
 20
40.0
 30
0.0
 11
566.0000000000002
 21
40.0
 31
0.0
  0
LINE
  5
6C
330
1E
100
AcDbEntity
  8
HILF
100
AcDbLine
 10
566.0000000000002
 20
70.0
 30
0.0
 11
650.0
 21
70.0
 31
0.0
  0
LINE
  5
6D
330
1E
100
AcDbEntity
  8
HILF
100
AcDbLine
 10
566.0000000000002
 20
60.0
 30
0.0
 11
650.0
 21
60.0
 31
0.0
  0
LINE
  5
6E
330
1E
100
AcDbEntity
  8
HILF
100
AcDbLine
 10
566.0000000000002
 20
50.0
 30
0.0
 11
650.0
 21
50.0
 31
0.0
  0
LINE
  5
6F
330
1E
100
AcDbEntity
  8
HILF
100
AcDbLine
 10
654.7736801096948
 20
84.03758247564136
 30
0.0
 11
746.6297842514811
 21
84.03758247564136
 31
0.0
  0
LINE
  5
70
330
1E
100
AcDbEntity
  8
HILF
100
AcDbLine
 10
654.7736801096948
 20
70.0
 30
0.0
 11
746.6297842514811
 21
70.0
 31
0.0
  0
LINE
  5
71
330
1E
100
AcDbEntity
  8
HILF
100
AcDbLine
 10
654.7736801096948
 20
60.0
 30
0.0
 11
746.6297842514811
 21
60.0
 31
0.0
  0
LINE
  5
72
330
1E
100
AcDbEntity
  8
HILF
100
AcDbLine
 10
654.7736801096948
 20
50.0
 30
0.0
 11
746.6297842514811
 21
50.0
 31
0.0
  0
LINE
  5
73
330
1E
100
AcDbEntity
  8
VOLL
100
AcDbLine
 10
752.0000000000002
 20
60.0
 30
0.0
 11
830.0000000000002
 21
60.0
 31
0.0
  0
LINE
  5
74
330
1E
100
AcDbEntity
  8
HILF
100
AcDbLine
 10
756.7238616296995
 20
83.77983636955823
 30
0.0
 11
824.858883932673
 21
83.77983636955823
 31
0.0
  0
LINE
  5
75
330
1E
100
AcDbEntity
  8
HILF
100
AcDbLine
 10
654.7736801096948
 20
14.89398258028305
 30
0.0
 11
824.858883932673
 21
14.89398258028305
 31
0.0
  0
TEXT
  5
76
330
1E
100
AcDbEntity
  8
TEXT
100
AcDbText
 10
492.3998239263297
 20
18.67381894984129
 30
0.0
 40
4.0
  1
Änderung
 41
0.8
  7
GREEKS
 72
     1
 11
503.1426810691868
 21
18.67381894984129
 31
0.0
100
AcDbText
  0
TEXT
  5
78
330
1E
100
AcDbEntity
  8
TEXT
100
AcDbText
 10
573.5163572150378
 20
102.4620895087088
 30
0.0
 40
5.0
  1
Maßstab
 41
0.8
  7
GREEKS
100
AcDbText
  0
TEXT
  5
79
330
1E
100
AcDbEntity
  8
TEXT
100
AcDbText
 10
654.8779403809011
 20
102.5489328011779
 30
0.0
 40
5.0
  1
Benennung
 41
0.8
  7
GREEKS
100
AcDbText
  0
TEXT
  5
7A
330
1E
100
AcDbEntity
  8
TEXT
100
AcDbText
 10
756.1787549576343
 20
102.3132034537135
 30
0.0
 40
5.0
  1
Zeichnungs Nr.
 41
0.8
  7
GREEKS
100
AcDbText
  0
TEXT
  5
7B
330
1E
100
AcDbEntity
  8
TEXT
100
AcDbText
 10
654.742238391136
 20
30.84560570193055
 30
0.0
 40
5.0
  1
Bauvorhaben
 41
0.8
  7
GREEKS
100
AcDbText
  0
TEXT
  5
7C
330
1E
100
AcDbEntity
  8
TEXT
100
AcDbText
 10
756.7238616296995
 20
73.18118237099965
 30
0.0
 40
5.0
  1
Ersatz für:
 41
0.8
  7
GREEKS
100
AcDbText
  0
TEXT
  5
7D
330
1E
100
AcDbEntity
  8
TEXT
100
AcDbText
 10
478.2664110704577
 20
13.65465846027187
 30
0.0
 40
4.0
  1
Index
 50
90.0
 41
0.8
  7
GREEKS
100
AcDbText
  0
TEXT
  5
7E
330
1E
100
AcDbEntity
  8
TEXT
100
AcDbText
 10
529.8990113186979
 20
18.67156269339808
 30
0.0
 40
4.0
  1
Tag
 41
0.8
  7
GREEKS
 72
     1
 11
533.6323446520313
 21
18.67156269339808
 31
0.0
100
AcDbText
  0
TEXT
  5
7F
330
1E
100
AcDbEntity
  8
TEXT
100
AcDbText
 10
548.9795678138293
 20
18.59324216966404
 30
0.0
 40
4.0
  1
Name
 41
0.8
  7
GREEKS
 72
     1
 11
555.3033773376388
 21
18.59324216966404
 31
0.0
100
AcDbText
  0
TEXT
  5
80
330
1E
100
AcDbEntity
  8
TEXT
100
AcDbText
 10
592.3311673153651
 20
73.31880501229919
 30
0.0
 40
4.0
  1
Tag
 41
0.8
  7
GREEKS
100
AcDbText
  0
TEXT
  5
81
330
1E
100
AcDbEntity
  8
TEXT
100
AcDbText
 10
622.4626584226296
 20
73.3096109191522
 30
0.0
 40
4.0
  1
Name
 41
0.8
  7
GREEKS
100
AcDbText
  0
TEXT
  5
82
330
1E
100
AcDbEntity
  8
TEXT
100
AcDbText
 10
567.5836127167616
 20
63.62990369617961
 30
0.0
 40
4.0
  1
Gez.
 41
0.8
  7
GREEKS
100
AcDbText
  0
TEXT
  5
83
330
1E
100
AcDbEntity
  8
TEXT
100
AcDbText
 10
567.5515086571673
 20
53.68926291428373
 30
0.0
 40
4.0
  1
Gepr.
 41
0.8
  7
GREEKS
100
AcDbText
  0
TEXT
  5
84
330
1E
100
AcDbEntity
  8
TEXT
100
AcDbText
 10
567.6006777387304
 20
43.52946389649804
 30
0.0
 40
4.0
  1
Norm.
 41
0.8
  7
GREEKS
100
AcDbText
  0
TEXT
  5
85
330
1E
100
AcDbEntity
  8
TEXT
100
AcDbText
 10
757.2400861497007
 20
52.07416177878596
 30
0.0
 40
5.0
  1
ersetzt durch:
 41
0.8
  7
GREEKS
100
AcDbText
  0
TEXT
  5
86
330
1E
100
AcDbEntity
  8
TEXT
100
AcDbText
 10
568.8693027807324
 20
72.96682596523723
 30
0.0
 40
4.0
  1
2008
 41
0.8
  7
GREEKS
100
AcDbText
  0
LINE
  5
87
330
1E
100
AcDbEntity
  8
HILF
100
AcDbLine
 10
0.0
 20
0.0
 30
0.0
 11
840.0
 21
0.0
 31
0.0
  0
LINE
  5
88
330
1E
100
AcDbEntity
  8
HILF
100
AcDbLine
 10
840.0
 20
0.0
 30
0.0
 11
840.0
 21
594.0
 31
0.0
  0
LINE
  5
89
330
1E
100
AcDbEntity
  8
HILF
100
AcDbLine
 10
840.0
 20
594.0
 30
0.0
 11
0.0
 21
594.0
 31
0.0
  0
LINE
  5
8B
330
1E
100
AcDbEntity
  8
STEMPEL
100
AcDbLine
 10
830.0
 20
584.0
 30
0.0
 11
40.0
 21
584.0
 31
0.0
  0
LINE
  5
8D
330
1E
100
AcDbEntity
  8
STEMPEL
100
AcDbLine
 10
40.0
 20
10.0
 30
0.0
 11
830.0
 21
10.0
 31
0.0
  0
LINE
  5
8E
330
1E
100
AcDbEntity
  8
STEMPEL
100
AcDbLine
 10
830.0
 20
10.0
 30
0.0
 11
830.0
 21
584.0
 31
0.0
  0
TEXT
  5
8F
330
1E
100
AcDbEntity
  8
TEXT
 62
     1
100
AcDbText
 10
655.0390572473189
 20
87.37343075652544
 30
0.0
 40
7.0
  1
Regenstandrohr DN100
 41
0.75
  7
GREEKS
100
AcDbText
  0
TEXT
  5
90
330
1E
100
AcDbEntity
  8
TEXT
 62
     1
100
AcDbText
 10
766.6628088850802
 20
87.37343075652544
 30
0.0
 40
7.0
  1
05526100W
 41
0.8
  7
GREEKS
 72
     1
 11
790.1294755517469
 21
87.37343075652544
 31
0.0
100
AcDbText
  0
TEXT
  5
91
330
1E
100
AcDbEntity
  8
TEXT
100
AcDbText
 10
618.509022641583
 20
102.83989611379
 30
0.0
 40
5.0
  1
Zul.Abw.
 41
0.8
  7
GREEKS
100
AcDbText
  0
TEXT
  5
93
330
1E
100
AcDbEntity
  8
TEXT
100
AcDbText
 10
590.1565237511869
 20
63.1508587612022
 30
0.0
 40
4.0
  1
20.06.
 41
0.8
  7
GREEKS
 72
     1
 11
597.1660475607107
 21
63.1508587612022
 31
0.0
100
AcDbText
  0
TEXT
  5
94
330
1E
100
AcDbEntity
  8
TEXT
100
AcDbText
 10
624.023175322661
 20
62.94297655165468
 30
0.0
 40
4.0
  1
Koeh
 41
0.8
  7
GREEKS
 72
     1
 11
629.2803181798038
 21
62.94297655165468
 31
0.0
100
AcDbText
  0
TEXT
  5
95
330
1E
100
AcDbEntity
  8
TEXT
100
AcDbText
 10
654.3410940884992
 20
72.10021383107525
 30
0.0
 40
5.0
  1
1000mm lang
 41
0.8
  7
GREEKS
100
AcDbText
  0
TEXT
  5
97
330
1E
100
AcDbEntity
  8
TEXT
100
AcDbText
 10
654.3410940884992
 20
52.59097337846058
 30
0.0
 40
5.0
  1
EDV-Art.Nr. 05526.100X
 41
0.8
  7
GREEKS
100
AcDbText
  0
TEXT
  5
98
330
1E
100
AcDbEntity
  8
TEXT
100
AcDbText
 10
654.1676050109348
 20
43.31127624791508
 30
0.0
 40
4.0
  1
05526100W.DWG
 41
0.8
  7
GREEKS
100
AcDbText
  0
TEXT
  5
99
330
1E
100
AcDbEntity
  8
TEXT
 62
     1
100
AcDbText
 10
582.7034912034222
 20
87.47077088414977
 30
0.0
 40
7.0
  1
1:2
 41
0.8
  7
GREEKS
100
AcDbText
  0
TEXT
  5
9A
330
1E
100
AcDbEntity
  8
TEXT
100
AcDbText
 10
470.0441139350127
 20
114.1143585051043
 30
0.0
 40
5.0
  1
Erstellt mit AUTOCAD 2004
 41
0.8
  7
GREEKS
100
AcDbText
  0
INSERT
  5
9B
330
1E
100
AcDbEntity
  8
HILF
100
AcDbBlockReference
  2
LORO
 10
573.0624985962354
 20
36.9805930029896
 30
0.0
 41
2.0
 42
2.0
 43
2.0
  0
LINE
  5
9C
330
1E
100
AcDbEntity
  8
BEM
100
AcDbLine
 10
456.0
 20
0.0
 30
0.0
 11
456.0
 21
10.0
 31
0.0
  0
LINE
  5
13E
330
1E
100
AcDbEntity
  8
HILF
100
AcDbLine
 10
0.0
 20
0.0
 30
0.0
 11
0.0
 21
594.0
 31
0.0
  0
LINE
  5
13F
330
1E
100
AcDbEntity
  8
STEMPEL
100
AcDbLine
 10
40.0
 20
10.0
 30
0.0
 11
40.0
 21
584.0
 31
0.0
  0
LINE
  5
14A
330
1E
100
AcDbEntity
  8
HILF
100
AcDbLine
 10
0.0
 20
297.0
 30
0.0
 11
40.0
 21
297.0
 31
0.0
  0
TEXT
  5
15B
330
1E
100
AcDbEntity
  8
BEM
100
AcDbText
 10
837.3022923857165
 20
10.16790107998861
 30
0.0
 40
4.0
  1
Diese Zeichnung ist urheberrechtlich geschützt und bleibt unser Eigentum. Sie darf weder ganz noch teilweise verfielfältigt und nicht an Dritte weitergegeben werden.
 50
90.0
 41
0.8
  7
GREEKS
100
AcDbText
  0
TEXT
  5
22C
330
1E
100
AcDbEntity
  8
TEXT
 62
     1
100
AcDbText
 10
616.6560484572488
 20
139.8004583895517
 30
0.0
 40
7.0
  1
Werkstoff: E195 EN10305 feuerverzinkt
 41
0.8
  7
GREEKS
100
AcDbText
  0
TEXT
  5
22D
330
1E
100
AcDbEntity
  8
TEXT
 62
     1
100
AcDbText
 10
664.6057658946467
 20
129.0783465745483
 30
0.0
 40
7.0
  1
und innen beschichtet
 41
0.8
  7
GREEKS
100
AcDbText
  0
TEXT
  5
22E
330
1E
100
AcDbEntity
  8
TEXT
 62
     1
100
AcDbText
 10
638.299281116508
 20
343.8070899817543
 30
0.0
 40
7.0
  1
DN100
 41
0.8
  7
GREEKS
100
AcDbText
  0
DIMENSION
  5
22F
330
1E
100
AcDbEntity
  8
BEM
100
AcDbDimension
  2
*D2
 10
588.9678092932338
 20
252.228043768853
 30
0.0
 11
663.9678092932338
 21
258.128043768853
 31
0.0
 70
    32
 71
     5
 42
150.0
  3
Standard
100
AcDbAlignedDimension
 13
738.9678092932338
 23
276.6351602845829
 33
0.0
 14
588.9678092932338
 24
279.0374094477095
 34
0.0
100
AcDbRotatedDimension
1001
ACAD
1000
DSTYLE
1002
{
1070
    40
1040
2.0
1070
    41
1040
3.5
1070
    42
1040
1.0
1070
    43
1040
7.0
1070
    44
1040
1.0
1070
    47
1040
3.0
1070
    48
1040
1.0
1070
    73
1070
     0
1070
    74
1070
     0
1070
    77
1070
     1
1070
    78
1070
     8
1070
    79
1070
     2
1070
   140
1040
3.5
1070
   141
1040
1.5
1070
   145
1040
0.5714285714285714
1070
   146
1040
0.5
1070
   147
1040
1.199999999999999
1070
   172
1070
     1
1070
   178
1070
     1
1070
   179
1070
     2
1070
   271
1070
     2
1070
   272
1070
     2
1070
   284
1070
     8
1070
   285
1070
     8
1070
   286
1070
     8
1002
}
  0
DIMENSION
  5
230
330
1E
100
AcDbEntity
  8
BEM
100
AcDbDimension
  2
*D3
 10
121.2701067049132
 20
383.3419161225084
 30
0.0
 11
115.3701067049131
 21
332.3419161225082
 31
0.0
 70
    32
  1
%%c<>
 71
     5
 42
102.0000000000004
  3
Standard
100
AcDbAlignedDimension
 13
138.9678092932334
 23
281.341916122508
 33
0.0
 14
138.9678092932334
 24
383.3419161225084
 34
0.0
 50
90.0
100
AcDbRotatedDimension
1001
ACAD
1000
DSTYLE
1002
{
1070
    40
1040
2.0
1070
    41
1040
3.5
1070
    42
1040
1.0
1070
    43
1040
7.0
1070
    44
1040
1.0
1070
    47
1040
3.0
1070
    48
1040
1.0
1070
    73
1070
     0
1070
    74
1070
     0
1070
    77
1070
     1
1070
    78
1070
     8
1070
    79
1070
     2
1070
   140
1040
3.5
1070
   141
1040
1.5
1070
   145
1040
0.5714285714285714
1070
   146
1040
0.5
1070
   147
1040
1.199999999999999
1070
   172
1070
     1
1070
   178
1070
     1
1070
   179
1070
     2
1070
   271
1070
     2
1070
   272
1070
     2
1070
   284
1070
     8
1070
   285
1070
     8
1070
   286
1070
     8
1002
}
  0
ARC
  5
231
330
1E
100
AcDbEntity
  8
STEMPEL
100
AcDbCircle
 10
726.3630578306626
 20
366.3419161225082
 30
0.0
 40
25.0
100
AcDbArc
 50
65.00000000000065
 51
90.0
  0
LINE
  5
232
330
1E
100
AcDbEntity
  8
STEMPEL
100
AcDbLine
 10
738.9678092932338
 20
388.0486719604329
 30
0.0
 11
736.9285143741802
 21
388.9996107984242
 31
0.0
  0
ARC
  5
233
330
1E
100
AcDbEntity
  8
STEMPEL
100
AcDbCircle
 10
726.3630578306626
 20
298.3419161225082
 30
0.0
 40
25.0
100
AcDbArc
 50
270.0
 51
294.9999999999935
  0
LINE
  5
234
330
1E
100
AcDbEntity
  8
STEMPEL
100
AcDbLine
 10
738.9678092932338
 20
276.6351602845829
 30
0.0
 11
736.9285143741802
 21
275.6842214465915
 31
0.0
  0
POINT
  5
235
330
1E
100
AcDbEntity
  8
STEMPEL
100
AcDbPoint
 10
738.9678092932338
 20
276.6351602845829
 30
0.0
  0
LINE
  5
236
330
1E
100
AcDbEntity
  8
STEMPEL
100
AcDbLine
 10
738.9678092932338
 20
276.6351602845829
 30
0.0
 11
738.9678092932338
 21
388.0486719604329
 31
0.0
  0
ARC
  5
237
330
1E
100
AcDbEntity
  8
STEMPEL
100
AcDbCircle
 10
708.2008092932335
 20
366.3419161225082
 30
0.0
 40
24.99990931069965
100
AcDbArc
 50
90.0
 51
116.8877706590191
  0
ARC
  5
238
330
1E
100
AcDbEntity
  8
STEMPEL
100
AcDbCircle
 10
691.4678092932338
 20
399.341916122508
 30
0.0
 40
12.0
100
AcDbArc
 50
270.0
 51
296.8877706590191
  0
ARC
  5
239
330
1E
100
AcDbEntity
  8
STEMPEL
100
AcDbCircle
 10
582.9338167733656
 20
391.341916122508
 30
0.0
 40
8.0
100
AcDbArc
 50
270.0
 51
304.3011527567897
  0
LINE
  5
23A
330
1E
100
AcDbEntity
  8
STEMPEL
100
AcDbLine
 10
582.9338167733656
 20
383.341916122508
 30
0.0
 11
340.0304579427145
 21
383.341916122508
 31
0.0
  0
ARC
  5
23B
330
1E
100
AcDbEntity
  8
STEMPEL
100
AcDbCircle
 10
595.8952981701815
 20
372.3419161225082
 30
0.0
 40
15.0
100
AcDbArc
 50
90.0
 51
124.3011527567897
  0
LINE
  5
23C
330
1E
100
AcDbEntity
  8
STEMPEL
100
AcDbLine
 10
691.4678092932338
 20
387.341916122508
 30
0.0
 11
595.8952981701815
 21
387.341916122508
 31
0.0
  0
ARC
  5
23D
330
1E
100
AcDbEntity
  8
STEMPEL
100
AcDbCircle
 10
708.2008092932335
 20
298.3419161225082
 30
0.0
 40
24.99990931069965
100
AcDbArc
 50
243.1122293409809
 51
270.0
  0
ARC
  5
23E
330
1E
100
AcDbEntity
  8
STEMPEL
100
AcDbCircle
 10
691.4678092932338
 20
265.341916122508
 30
0.0
 40
12.0
100
AcDbArc
 50
63.11222934098088
 51
90.0
  0
LINE
  5
23F
330
1E
100
AcDbEntity
  8
STEMPEL
100
AcDbLine
 10
582.9338167733656
 20
281.341916122508
 30
0.0
 11
338.9421159756518
 21
281.341916122508
 31
0.0
  0
ARC
  5
240
330
1E
100
AcDbEntity
  8
STEMPEL
100
AcDbCircle
 10
595.8952981701815
 20
292.3419161225082
 30
0.0
 40
15.0
100
AcDbArc
 50
235.6988472432103
 51
270.0
  0
POINT
  5
241
330
1E
100
AcDbEntity
  8
STEMPEL
100
AcDbPoint
 10
588.9678092932338
 20
279.0374094477091
 30
0.0
  0
ARC
  5
242
330
1E
100
AcDbEntity
  8
STEMPEL
100
AcDbCircle
 10
582.9338167733656
 20
273.341916122508
 30
0.0
 40
8.0
100
AcDbArc
 50
55.69884724321028
 51
90.0
  0
LINE
  5
243
330
1E
100
AcDbEntity
  8
STEMPEL
100
AcDbLine
 10
691.4678092932338
 20
277.341916122508
 30
0.0
 11
595.8952981701815
 21
277.341916122508
 31
0.0
  0
LINE
  5
247
330
1E
100
AcDbEntity
  8
STEMPEL
100
AcDbLine
 10
726.3630578306626
 20
273.341916122508
 30
0.0
 11
708.2008092932335
 21
273.341916122508
 31
0.0
  0
LINE
  5
248
330
1E
100
AcDbEntity
  8
STEMPEL
100
AcDbLine
 10
726.3630578306626
 20
391.341916122508
 30
0.0
 11
708.2008092932335
 21
391.341916122508
 31
0.0
  0
LINE
  5
249
330
1E
100
AcDbEntity
  8
STEMPEL
100
AcDbLine
 10
399.5583219493553
 20
283.341916122508
 30
0.0
 11
378.4430106949619
 21
283.3419161225084
 31
0.0
  0
POLYLINE
  5
24A
330
1E
100
AcDbEntity
  8
HILF
100
AcDb2dPolyline
 66
     1
 10
0.0
 20
0.0
 30
0.0
 70
     4
 75
     6
  0
VERTEX
  5
24B
330
24A
100
AcDbEntity
  8
HILF
100
AcDbVertex
100
AcDb2dVertex
 10
377.8682186787253
 20
281.3419161225082
 30
0.0
 70
    16
  0
VERTEX
  5
24C
330
24A
100
AcDbEntity
  8
HILF
100
AcDbVertex
100
AcDb2dVertex
 10
377.8682186787253
 20
281.3419161225082
 30
0.0
 70
     8
  0
VERTEX
  5
24D
330
24A
100
AcDbEntity
  8
HILF
100
AcDbVertex
100
AcDb2dVertex
 10
378.5027038576243
 20
283.5496196430028
 30
0.0
 70
     8
  0
VERTEX
  5
24E
330
24A
100
AcDbEntity
  8
HILF
100
AcDbVertex
100
AcDb2dVertex
 10
379.2090758560278
 20
285.406354178761
 30
0.0
 70
     8
  0
VERTEX
  5
24F
330
24A
100
AcDbEntity
  8
HILF
100
AcDbVertex
100
AcDb2dVertex
 10
379.9726481202408
 20
286.9503037824831
 30
0.0
 70
     8
  0
VERTEX
  5
250
330
24A
100
AcDbEntity
  8
HILF
100
AcDbVertex
100
AcDb2dVertex
 10
380.7787340965672
 20
288.219652506869
 30
0.0
 70
     8
  0
VERTEX
  5
251
330
24A
100
AcDbEntity
  8
HILF
100
AcDbVertex
100
AcDb2dVertex
 10
381.6126472313106
 20
289.2525844046196
 30
0.0
 70
     8
  0
VERTEX
  5
252
330
24A
100
AcDbEntity
  8
HILF
100
AcDbVertex
100
AcDb2dVertex
 10
382.4597009707757
 20
290.087283528435
 30
0.0
 70
     8
  0
VERTEX
  5
253
330
24A
100
AcDbEntity
  8
HILF
100
AcDbVertex
100
AcDb2dVertex
 10
383.3052087612666
 20
290.7619339310155
 30
0.0
 70
     8
  0
VERTEX
  5
254
330
24A
100
AcDbEntity
  8
HILF
100
AcDbVertex
100
AcDb2dVertex
 10
384.1344840490872
 20
291.3147196650612
 30
0.0
 70
     8
  0
VERTEX
  5
255
330
24A
100
AcDbEntity
  8
HILF
100
AcDbVertex
100
AcDb2dVertex
 10
384.9362184738795
 20
291.7785275988696
 30
0.0
 70
     8
  0
VERTEX
  5
256
330
24A
100
AcDbEntity
  8
HILF
100
AcDbVertex
100
AcDb2dVertex
 10
385.7126164486374
 20
292.1650558631224
 30
0.0
 70
     8
  0
VERTEX
  5
257
330
24A
100
AcDbEntity
  8
HILF
100
AcDbVertex
100
AcDb2dVertex
 10
386.469260579692
 20
292.4807054040995
 30
0.0
 70
     8
  0
VERTEX
  5
258
330
24A
100
AcDbEntity
  8
HILF
100
AcDbVertex
100
AcDb2dVertex
 10
387.211733473376
 20
292.7318771680804
 30
0.0
 70
     8
  0
VERTEX
  5
259
330
24A
100
AcDbEntity
  8
HILF
100
AcDbVertex
100
AcDb2dVertex
 10
387.9456177360205
 20
292.9249721013436
 30
0.0
 70
     8
  0
VERTEX
  5
25A
330
24A
100
AcDbEntity
  8
HILF
100
AcDbVertex
100
AcDb2dVertex
 10
388.6764959739574
 20
293.0663911501684
 30
0.0
 70
     8
  0
VERTEX
  5
25B
330
24A
100
AcDbEntity
  8
HILF
100
AcDbVertex
100
AcDb2dVertex
 10
389.4099507935178
 20
293.1625352608345
 30
0.0
 70
     8
  0
VERTEX
  5
25C
330
24A
100
AcDbEntity
  8
HILF
100
AcDbVertex
100
AcDb2dVertex
 10
390.1515648010343
 20
293.2198053796207
 30
0.0
 70
     8
  0
VERTEX
  5
25D
330
24A
100
AcDbEntity
  8
HILF
100
AcDbVertex
100
AcDb2dVertex
 10
390.9042724425619
 20
293.2433274674296
 30
0.0
 70
     8
  0
VERTEX
  5
25E
330
24A
100
AcDbEntity
  8
HILF
100
AcDbVertex
100
AcDb2dVertex
 10
391.6604155230514
 20
293.2331275436583
 30
0.0
 70
     8
  0
VERTEX
  5
25F
330
24A
100
AcDbEntity
  8
HILF
100
AcDbVertex
100
AcDb2dVertex
 10
392.4096876871779
 20
293.1879566423269
 30
0.0
 70
     8
  0
VERTEX
  5
260
330
24A
100
AcDbEntity
  8
HILF
100
AcDbVertex
100
AcDb2dVertex
 10
393.1417825796154
 20
293.1065657974556
 30
0.0
 70
     8
  0
VERTEX
  5
261
330
24A
100
AcDbEntity
  8
HILF
100
AcDbVertex
100
AcDb2dVertex
 10
393.8463938450393
 20
292.9877060430646
 30
0.0
 70
     8
  0
VERTEX
  5
262
330
24A
100
AcDbEntity
  8
HILF
100
AcDbVertex
100
AcDb2dVertex
 10
394.5132151281239
 20
292.8301284131741
 30
0.0
 70
     8
  0
VERTEX
  5
263
330
24A
100
AcDbEntity
  8
HILF
100
AcDbVertex
100
AcDb2dVertex
 10
395.1319400735436
 20
292.6325839418047
 30
0.0
 70
     8
  0
VERTEX
  5
264
330
24A
100
AcDbEntity
  8
HILF
100
AcDbVertex
100
AcDb2dVertex
 10
395.6922623259732
 20
292.3938236629762
 30
0.0
 70
     8
  0
VERTEX
  5
265
330
24A
100
AcDbEntity
  8
HILF
100
AcDbVertex
100
AcDb2dVertex
 10
396.1869244942188
 20
292.1117659689059
 30
0.0
 70
     8
  0
VERTEX
  5
266
330
24A
100
AcDbEntity
  8
HILF
100
AcDbVertex
100
AcDb2dVertex
 10
396.6208650436108
 20
291.7809986845993
 30
0.0
 70
     8
  0
VERTEX
  5
267
330
24A
100
AcDbEntity
  8
HILF
100
AcDbVertex
100
AcDb2dVertex
 10
397.0020714036098
 20
291.395276993259
 30
0.0
 70
     8
  0
VERTEX
  5
268
330
24A
100
AcDbEntity
  8
HILF
100
AcDbVertex
100
AcDb2dVertex
 10
397.3385310036772
 20
290.9483560780874
 30
0.0
 70
     8
  0
VERTEX
  5
269
330
24A
100
AcDbEntity
  8
HILF
100
AcDbVertex
100
AcDb2dVertex
 10
397.6382312732746
 20
290.4339911222866
 30
0.0
 70
     8
  0
VERTEX
  5
26A
330
24A
100
AcDbEntity
  8
HILF
100
AcDbVertex
100
AcDb2dVertex
 10
397.9091596418637
 20
289.8459373090588
 30
0.0
 70
     8
  0
VERTEX
  5
26B
330
24A
100
AcDbEntity
  8
HILF
100
AcDbVertex
100
AcDb2dVertex
 10
398.1593035389049
 20
289.1779498216071
 30
0.0
 70
     8
  0
VERTEX
  5
26C
330
24A
100
AcDbEntity
  8
HILF
100
AcDbVertex
100
AcDb2dVertex
 10
398.3966503938598
 20
288.4237838431337
 30
0.0
 70
     8
  0
VERTEX
  5
26D
330
24A
100
AcDbEntity
  8
HILF
100
AcDbVertex
100
AcDb2dVertex
 10
398.6275271623329
 20
287.5826696814499
 30
0.0
 70
     8
  0
VERTEX
  5
26E
330
24A
100
AcDbEntity
  8
HILF
100
AcDbVertex
100
AcDb2dVertex
 10
398.8516189045011
 20
286.6757381428007
 30
0.0
 70
     8
  0
VERTEX
  5
26F
330
24A
100
AcDbEntity
  8
HILF
100
AcDbVertex
100
AcDb2dVertex
 10
399.0669502066842
 20
285.7295951580419
 30
0.0
 70
     8
  0
VERTEX
  5
270
330
24A
100
AcDbEntity
  8
HILF
100
AcDbVertex
100
AcDb2dVertex
 10
399.2715456552017
 20
284.7708466580276
 30
0.0
 70
     8
  0
VERTEX
  5
271
330
24A
100
AcDbEntity
  8
HILF
100
AcDbVertex
100
AcDb2dVertex
 10
399.4634298363733
 20
283.8260985736125
 30
0.0
 70
     8
  0
VERTEX
  5
272
330
24A
100
AcDbEntity
  8
HILF
100
AcDbVertex
100
AcDb2dVertex
 10
399.6406273365194
 20
282.9219568356508
 30
0.0
 70
     8
  0
VERTEX
  5
273
330
24A
100
AcDbEntity
  8
HILF
100
AcDbVertex
100
AcDb2dVertex
 10
399.801162741959
 20
282.085027374998
 30
0.0
 70
     8
  0
VERTEX
  5
274
330
24A
100
AcDbEntity
  8
HILF
100
AcDbVertex
100
AcDb2dVertex
 10
399.9430606390126
 20
281.3419161225082
 30
0.0
 70
     8
  0
VERTEX
  5
275
330
24A
100
AcDbEntity
  8
HILF
100
AcDbVertex
100
AcDb2dVertex
 10
379.4512753487186
 20
287.7310255369877
 30
0.0
 70
    16
  0
VERTEX
  5
276
330
24A
100
AcDbEntity
  8
HILF
100
AcDbVertex
100
AcDb2dVertex
 10
384.4642873169931
 20
292.2073129006264
 30
0.0
 70
    16
  0
VERTEX
  5
277
330
24A
100
AcDbEntity
  8
HILF
100
AcDbVertex
100
AcDb2dVertex
 10
390.0049856619692
 20
293.5661845326937
 30
0.0
 70
    16
  0
VERTEX
  5
278
330
24A
100
AcDbEntity
  8
HILF
100
AcDbVertex
100
AcDb2dVertex
 10
396.4251588413365
 20
292.8467812463219
 30
0.0
 70
    16
  0
VERTEX
  5
279
330
24A
100
AcDbEntity
  8
HILF
100
AcDbVertex
100
AcDb2dVertex
 10
398.4479529285252
 20
289.4096324598737
 30
0.0
 70
    16
  0
VERTEX
  5
27A
330
24A
100
AcDbEntity
  8
HILF
100
AcDbVertex
100
AcDb2dVertex
 10
399.5912721813227
 20
283.1748054686151
 30
0.0
 70
    16
  0
VERTEX
  5
27B
330
24A
100
AcDbEntity
  8
HILF
100
AcDbVertex
100
AcDb2dVertex
 10
399.9430606390126
 20
281.3419161225082
 30
0.0
 70
    16
  0
SEQEND
  5
27C
330
24A
100
AcDbEntity
  8
HILF
  0
DIMENSION
  5
27E
330
1E
100
AcDbEntity
  8
BEM
100
AcDbDimension
  2
*D4
 10
389.0006663221586
 20
281.3419161225084
 30
0.0
 11
383.1006663221586
 21
263.0752494558419
 31
0.0
 70
    32
  1
2
 71
     5
 42
1.999999999999545
  3
Standard
100
AcDbAlignedDimension
 13
389.0006663221586
 23
283.341916122508
 33
0.0
 14
388.8386232624846
 24
281.3419161225084
 34
0.0
 50
90.0
100
AcDbRotatedDimension
1001
ACAD
1000
DSTYLE
1002
{
1070
    40
1040
2.0
1070
    41
1040
3.5
1070
    42
1040
1.0
1070
    43
1040
7.0
1070
    44
1040
1.0
1070
    47
1040
3.0
1070
    48
1040
1.0
1070
    73
1070
     0
1070
    74
1070
     0
1070
    77
1070
     1
1070
    78
1070
     8
1070
    79
1070
     2
1070
   140
1040
3.5
1070
   141
1040
1.5
1070
   145
1040
0.5714285714285714
1070
   146
1040
0.5
1070
   147
1040
1.199999999999999
1070
   172
1070
     1
1070
   178
1070
     1
1070
   179
1070
     2
1070
   271
1070
     2
1070
   272
1070
     2
1070
   284
1070
     8
1070
   285
1070
     8
1070
   286
1070
     8
1002
}
  0
POLYLINE
  5
27F
330
1E
100
AcDbEntity
  8
HILF
100
AcDb2dPolyline
 66
     1
 10
0.0
 20
0.0
 30
0.0
 70
     2
  0
VERTEX
  5
280
330
27F
100
AcDbEntity
  8
HILF
100
AcDbVertex
100
AcDb2dVertex
 10
340.0304579427145
 20
383.341916122508
 30
0.0
 42
0.0121929004348654
  0
VERTEX
  5
281
330
27F
100
AcDbEntity
  8
HILF
100
AcDbVertex
100
AcDb2dVertex
 10
335.8635117679257
 20
372.4304271374027
 30
0.0
 42
0.0180598744561613
 70
     1
  0
VERTEX
  5
282
330
27F
100
AcDbEntity
  8
HILF
100
AcDbVertex
100
AcDb2dVertex
 10
333.5003975073289
 20
364.9057138738478
 30
0.0
 42
0.0052201000386137
  0
VERTEX
  5
283
330
27F
100
AcDbEntity
  8
HILF
100
AcDbVertex
100
AcDb2dVertex
 10
330.0384911458861
 20
351.7725665225094
 30
0.0
 42
0.0168612676998402
 70
     1
  0
VERTEX
  5
284
330
27F
100
AcDbEntity
  8
HILF
100
AcDbVertex
100
AcDb2dVertex
 10
329.1470210060686
 20
347.6622535440234
 30
0.0
 42
0.0641755544296637
  0
VERTEX
  5
285
330
27F
100
AcDbEntity
  8
HILF
100
AcDbVertex
100
AcDb2dVertex
 10
328.5665249024389
 20
336.4405370561809
 30
0.0
 42
0.0699359878718527
 70
     1
  0
VERTEX
  5
286
330
27F
100
AcDbEntity
  8
HILF
100
AcDbVertex
100
AcDb2dVertex
 10
330.7795361149149
 20
326.3615119803473
 30
0.0
 42
0.004056519498209
  0
VERTEX
  5
287
330
27F
100
AcDbEntity
  8
HILF
100
AcDbVertex
100
AcDb2dVertex
 10
332.6274196410711
 20
321.5095772371479
 30
0.0
 42
0.0031039833680859
 70
     1
  0
VERTEX
  5
288
330
27F
100
AcDbEntity
  8
HILF
100
AcDbVertex
100
AcDb2dVertex
 10
335.1329126161752
 20
315.2039795356824
 30
0.0
 42
0.0110224921829013
  0
VERTEX
  5
289
330
27F
100
AcDbEntity
  8
HILF
100
AcDbVertex
100
AcDb2dVertex
 10
338.5620652833233
 20
307.2373038399625
 30
0.0
 42
-0.012126988856184
 70
     1
  0
VERTEX
  5
28A
330
27F
100
AcDbEntity
  8
HILF
100
AcDbVertex
100
AcDb2dVertex
 10
341.6629773680659
 20
299.9891618342441
 30
0.0
 42
-0.0848932264977562
  0
VERTEX
  5
28B
330
27F
100
AcDbEntity
  8
HILF
100
AcDbVertex
100
AcDb2dVertex
 10
342.8353342145263
 20
294.505631247975
 30
0.0
 42
-0.0613866774022237
 70
     1
  0
VERTEX
  5
28C
330
27F
100
AcDbEntity
  8
HILF
100
AcDbVertex
100
AcDb2dVertex
 10
342.2071461933449
 20
286.8029867611928
 30
0.0
 42
-0.0839111881417839
  0
VERTEX
  5
28D
330
27F
100
AcDbEntity
  8
HILF
100
AcDbVertex
100
AcDb2dVertex
 10
341.3739102762832
 20
284.663756843402
 30
0.0
 42
-0.0465672393298728
 70
     1
  0
VERTEX
  5
28E
330
27F
100
AcDbEntity
  8
HILF
100
AcDbVertex
100
AcDb2dVertex
 10
338.9421159756519
 20
281.341916122508
 30
0.0
  0
SEQEND
  5
28F
330
27F
100
AcDbEntity
  8
HILF
  0
POLYLINE
  5
290
330
1E
100
AcDbEntity
  8
HILF
100
AcDb2dPolyline
 66
     1
 10
0.0
 20
0.0
 30
0.0
 70
     2
  0
VERTEX
  5
291
330
290
100
AcDbEntity
  8
HILF
100
AcDbVertex
100
AcDb2dVertex
 10
337.0304579427145
 20
383.341916122508
 30
0.0
 42
0.0121929004348654
  0
VERTEX
  5
292
330
290
100
AcDbEntity
  8
HILF
100
AcDbVertex
100
AcDb2dVertex
 10
332.8635117679257
 20
372.4304271374027
 30
0.0
 42
0.0180598744561613
 70
     1
  0
VERTEX
  5
293
330
290
100
AcDbEntity
  8
HILF
100
AcDbVertex
100
AcDb2dVertex
 10
330.5003975073289
 20
364.9057138738478
 30
0.0
 42
0.0052201000386137
  0
VERTEX
  5
294
330
290
100
AcDbEntity
  8
HILF
100
AcDbVertex
100
AcDb2dVertex
 10
327.0384911458862
 20
351.7725665225094
 30
0.0
 42
0.0168612676998402
 70
     1
  0
VERTEX
  5
295
330
290
100
AcDbEntity
  8
HILF
100
AcDbVertex
100
AcDb2dVertex
 10
326.1470210060686
 20
347.6622535440234
 30
0.0
 42
0.0641755544296637
  0
VERTEX
  5
296
330
290
100
AcDbEntity
  8
HILF
100
AcDbVertex
100
AcDb2dVertex
 10
325.5665249024389
 20
336.4405370561809
 30
0.0
 42
0.0699359878718527
 70
     1
  0
VERTEX
  5
297
330
290
100
AcDbEntity
  8
HILF
100
AcDbVertex
100
AcDb2dVertex
 10
327.7795361149149
 20
326.3615119803473
 30
0.0
 42
0.004056519498209
  0
VERTEX
  5
298
330
290
100
AcDbEntity
  8
HILF
100
AcDbVertex
100
AcDb2dVertex
 10
329.6274196410711
 20
321.5095772371479
 30
0.0
 42
0.0031039833680859
 70
     1
  0
VERTEX
  5
299
330
290
100
AcDbEntity
  8
HILF
100
AcDbVertex
100
AcDb2dVertex
 10
332.1329126161752
 20
315.2039795356824
 30
0.0
 42
0.0110224921829013
  0
VERTEX
  5
29A
330
290
100
AcDbEntity
  8
HILF
100
AcDbVertex
100
AcDb2dVertex
 10
335.5620652833234
 20
307.2373038399625
 30
0.0
 42
-0.012126988856184
 70
     1
  0
VERTEX
  5
29B
330
290
100
AcDbEntity
  8
HILF
100
AcDbVertex
100
AcDb2dVertex
 10
338.6629773680659
 20
299.9891618342441
 30
0.0
 42
-0.0848932264977562
  0
VERTEX
  5
29C
330
290
100
AcDbEntity
  8
HILF
100
AcDbVertex
100
AcDb2dVertex
 10
339.8353342145262
 20
294.505631247975
 30
0.0
 42
-0.0613866774022237
 70
     1
  0
VERTEX
  5
29D
330
290
100
AcDbEntity
  8
HILF
100
AcDbVertex
100
AcDb2dVertex
 10
339.2071461933449
 20
286.8029867611928
 30
0.0
 42
-0.0839111881417839
  0
VERTEX
  5
29E
330
290
100
AcDbEntity
  8
HILF
100
AcDbVertex
100
AcDb2dVertex
 10
338.3739102762831
 20
284.663756843402
 30
0.0
 42
-0.0465672393298728
 70
     1
  0
VERTEX
  5
29F
330
290
100
AcDbEntity
  8
HILF
100
AcDbVertex
100
AcDb2dVertex
 10
335.9421159756518
 20
281.341916122508
 30
0.0
  0
SEQEND
  5
2A0
330
290
100
AcDbEntity
  8
HILF
  0
LINE
  5
2A1
330
1E
100
AcDbEntity
  8
STEMPEL
100
AcDbLine
 10
138.9678092932334
 20
281.341916122508
 30
0.0
 11
138.9678092932334
 21
383.3419161225084
 31
0.0
  0
LINE
  5
2A2
330
1E
100
AcDbEntity
  8
STEMPEL
100
AcDbLine
 10
337.0304579427148
 20
383.3419161225085
 30
0.0
 11
138.9678092932334
 21
383.3419161225084
 31
0.0
  0
LINE
  5
2A3
330
1E
100
AcDbEntity
  8
STEMPEL
100
AcDbLine
 10
335.9421159756518
 20
281.341916122508
 30
0.0
 11
138.9678092932334
 21
281.341916122508
 31
0.0
  0
LINE
  5
2A4
330
1E
100
AcDbEntity
  8
MITTEL
100
AcDbLine
 10
743.9678092932338
 20
332.3419161225082
 30
0.0
 11
131.9287673962247
 21
332.3419161225082
 31
0.0
  0
DIMENSION
  5
2A5
330
1E
100
AcDbEntity
  8
BEM
100
AcDbDimension
  2
*D5
 10
738.9678092932338
 20
237.9607766199161
 30
0.0
 11
438.9678092932336
 21
243.860776619916
 31
0.0
 70
    32
  1
1000
 71
     5
 42
600.0000000000003
  3
Standard
100
AcDbAlignedDimension
 13
138.9678092932334
 23
282.3917800848191
 33
0.0
 14
738.9678092932338
 24
276.6351602845831
 34
0.0
100
AcDbRotatedDimension
1001
ACAD
1000
DSTYLE
1002
{
1070
    40
1040
2.0
1070
    41
1040
3.5
1070
    42
1040
1.0
1070
    43
1040
7.0
1070
    44
1040
1.0
1070
    47
1040
3.0
1070
    48
1040
1.0
1070
    73
1070
     0
1070
    74
1070
     0
1070
    77
1070
     1
1070
    78
1070
     8
1070
    79
1070
     2
1070
   140
1040
3.5
1070
   141
1040
1.5
1070
   145
1040
0.5714285714285714
1070
   146
1040
0.5
1070
   147
1040
1.199999999999999
1070
   172
1070
     1
1070
   178
1070
     1
1070
   179
1070
     2
1070
   271
1070
     2
1070
   272
1070
     2
1070
   284
1070
     8
1070
   285
1070
     8
1070
   286
1070
     8
1002
}
  0
TEXT
  5
2FD
330
1E
100
AcDbEntity
  8
TEXT
100
AcDbText
 10
612.2898419893276
 20
88.34165697992029
 30
0.0
 40
4.0
  1
DIN EN1123-2
 41
0.8
  7
GREEKS
 72
     1
 11
629.2803181798038
 21
88.34165697992029
 31
0.0
100
AcDbText
  0
HATCH
  5
30D
330
1E
100
AcDbEntity
  8
SCHRAFF
100
AcDbHatch
 10
0.0
 20
0.0
 30
0.0
210
0.0
220
0.0
230
1.0
  2
_USER
 70
     0
 71
     0
 91
        1
 92
        7
 72
     0
 73
     1
 93
        6
 10
378.4430106949621
 20
283.3419161225084
 10
377.8682186787252
 20
281.341916122508
 10
399.9430606390127
 20
281.341916122508
 10
399.801162741959
 20
282.085027374998
 10
399.6406273365178
 20
282.9219568356463
 10
399.5583219493539
 20
283.341916122508
 97
        0
 75
     0
 76
     0
 52
45.0
 41
2.0
 77
     0
 78
     1
 53
45.0
 43
0.0
 44
0.0
 45
-1.414213562373094
 46
1.414213562373095
 79
     0
 47
0.0884065063268838
 98
        1
 10
391.5551476211803
 20
282.8069243612067
  0
LINE
  5
30E
330
1E
100
AcDbEntity
  8
HILF
100
AcDbLine
 10
591.4720394855349
 20
384.5662681547714
 30
0.0
 11
591.4720394855349
 21
280.117564090245
 31
0.0
  0
LINE
  5
30F
330
1E
100
AcDbEntity
  8
HILF
100
AcDbLine
 10
585.2928880718438
 20
381.6241600744949
 30
0.0
 11
585.2928880718438
 21
283.0596721705211
 31
0.0
  0
LINE
  5
310
330
1E
100
AcDbEntity
  8
HILF
100
AcDbLine
 10
694.2577244147848
 20
385.6227188568317
 30
0.0
 11
694.2577244147848
 21
279.0611133881843
 31
0.0
  0
ENDSEC
  0
SECTION
  2
OBJECTS
  0
DICTIONARY
  5
C
330
0
100
AcDbDictionary
281
     1
  3
ACAD_COLOR
350
11A
  3
ACAD_GROUP
350
D
  3
ACAD_LAYOUT
350
19
  3
ACAD_MATERIAL
350
119
  3
ACAD_MLINESTYLE
350
16
  3
ACAD_PLOTSETTINGS
350
18
  3
ACAD_PLOTSTYLENAME
350
E
  3
AcDbVariableDictionary
350
125
  0
DICTIONARY
  5
DB
330
1E
100
AcDbDictionary
280
     1
281
     1
  3
ACAD_LAYOUTSELFREF
360
10F
  0
DICTIONARY
  5
DD
330
1A
100
AcDbDictionary
280
     1
281
     1
  3
ACAD_LAYOUTSELFREF
360
10E
  0
DICTIONARY
  5
11A
102
{ACAD_REACTORS
330
C
102
}
330
C
100
AcDbDictionary
281
     1
  0
DICTIONARY
  5
D
102
{ACAD_REACTORS
330
C
102
}
330
C
100
AcDbDictionary
281
     1
  0
DICTIONARY
  5
19
102
{ACAD_REACTORS
330
C
102
}
330
C
100
AcDbDictionary
281
     1
  3
Layout1
350
1D
  3
Model
350
21
  0
DICTIONARY
  5
119
102
{ACAD_REACTORS
330
C
102
}
330
C
100
AcDbDictionary
281
     1
  0
DICTIONARY
  5
16
102
{ACAD_REACTORS
330
C
102
}
330
C
100
AcDbDictionary
281
     1
  3
Standard
350
17
  0
DICTIONARY
  5
18
102
{ACAD_REACTORS
330
C
102
}
330
C
100
AcDbDictionary
281
     1
  0
ACDBDICTIONARYWDFLT
  5
E
102
{ACAD_REACTORS
330
C
102
}
330
C
100
AcDbDictionary
281
     1
  3
Normal
350
F
100
AcDbDictionaryWithDefault
340
F
  0
DICTIONARY
  5
125
102
{ACAD_REACTORS
330
C
102
}
330
C
100
AcDbDictionary
281
     1
  3
DIMASSOC
350
126
  3
PROJECTNAME
350
127
  0
XRECORD
  5
10F
102
{ACAD_REACTORS
330
DB
102
}
330
DB
100
AcDbXrecord
280
     1
340
1E
  0
XRECORD
  5
10E
102
{ACAD_REACTORS
330
DD
102
}
330
DD
100
AcDbXrecord
280
     1
340
1A
  0
LAYOUT
  5
1D
102
{ACAD_REACTORS
330
19
102
}
330
19
100
AcDbPlotSettings
  1

  2
\\NT_WORK01\HP LaserJet 5000 PCL 6
  4

  6

 40
0.0
 41
0.0
 42
0.0
 43
0.0
 44
0.0
 45
0.0
 46
0.0
 47
0.0
 48
0.0
 49
0.0
140
0.0
141
0.0
142
1.0
143
1.0
 70
   688
 72
     0
 73
     0
 74
     5
  7

 75
    16
147
1.0
 76
     0
 77
     2
 78
   300
148
0.0
149
0.0
100
AcDbLayout
  1
Layout1
 70
     0
 71
     1
 10
0.0
 20
0.0
 11
12.0
 21
9.0
 12
0.0
 22
0.0
 32
0.0
 14
1.000000000000000E+20
 24
1.000000000000000E+20
 34
1.000000000000000E+20
 15
-1.000000000000000E+20
 25
-1.000000000000000E+20
 35
-1.000000000000000E+20
146
0.0
 13
0.0
 23
0.0
 33
0.0
 16
1.0
 26
0.0
 36
0.0
 17
0.0
 27
1.0
 37
0.0
 76
     0
330
1A
  0
LAYOUT
  5
21
102
{ACAD_REACTORS
330
19
102
}
330
19
100
AcDbPlotSettings
  1

  2
none_device
  4
Letter_(8.50_x_11.00_Inches)
  6

 40
6.349999904632568
 41
6.349999904632568
 42
6.350006103515625
 43
6.350006103515625
 44
215.8999938964844
 45
279.3999938964844
 46
0.0
 47
0.0
 48
0.0
 49
0.0
140
0.0
141
0.0
142
1.0
143
1.0
 70
 11952
 72
     0
 73
     1
 74
     0
  7

 75
     0
147
1.0
 76
     0
 77
     2
 78
   300
148
-2639.993414336655
149
484.3671397319289
100
AcDbLayout
  1
Model
 70
     1
 71
     0
 10
0.0
 20
0.0
 11
12.0
 21
9.0
 12
0.0
 22
0.0
 32
0.0
 14
0.0
 24
0.0
 34
0.0
 15
0.0
 25
0.0
 35
0.0
146
0.0
 13
0.0
 23
0.0
 33
0.0
 16
1.0
 26
0.0
 36
0.0
 17
0.0
 27
1.0
 37
0.0
 76
     0
330
1E
  0
MLINESTYLE
  5
17
102
{ACAD_REACTORS
330
16
102
}
330
16
100
AcDbMlineStyle
  2
STANDARD
 70
     0
  3

 62
   256
 51
90.0
 52
90.0
 71
     2
 49
0.5
 62
   256
  6
BYLAYER
 49
-0.5
 62
   256
  6
BYLAYER
  0
ACDBPLACEHOLDER
  5
F
102
{ACAD_REACTORS
330
E
102
}
330
E
  0
DICTIONARYVAR
  5
126
102
{ACAD_REACTORS
330
125
102
}
330
125
100
DictionaryVariables
280
     0
  1
1
  0
DICTIONARYVAR
  5
127
102
{ACAD_REACTORS
330
125
102
}
330
125
100
DictionaryVariables
280
     0
  1

  0
ENDSEC
  0
EOF
