  0
SECTION
  2
HEADER
  9
$ACADVER
  1
AC1018
  9
$ACADMAINTVER
 70
     2
  9
$DWGCODEPAGE
  3
ANSI_1252
  9
$INSBASE
 10
0.0
 20
0.0
 30
0.0
  9
$EXTMIN
 10
-0.0437808753019908
 20
-0.0309628593049638
 30
-0.0000000000000129
  9
$EXTMAX
 10
840.0534232915534
 20
594.0279620772769
 30
0.0000000000000023
  9
$LIMMIN
 10
0.0
 20
0.0
  9
$LIMMAX
 10
840.0
 20
594.0
  9
$ORTHOMODE
 70
     0
  9
$REGENMODE
 70
     1
  9
$FILLMODE
 70
     1
  9
$QTEXTMODE
 70
     0
  9
$MIRRTEXT
 70
     1
  9
$LTSCALE
 40
20.0
  9
$ATTMODE
 70
     1
  9
$TEXTSIZE
 40
3.5
  9
$TRACEWID
 40
1.0
  9
$TEXTSTYLE
  7
STANDARD
  9
$CLAYER
  8
VOLL
  9
$CELTYPE
  6
ByLayer
  9
$CECOLOR
 62
   256
  9
$CELTSCALE
 40
1.0
  9
$DISPSILH
 70
     0
  9
$DIMSCALE
 40
2.0
  9
$DIMASZ
 40
3.5
  9
$DIMEXO
 40
1.0
  9
$DIMDLI
 40
7.0
  9
$DIMRND
 40
0.0
  9
$DIMDLE
 40
0.0
  9
$DIMEXE
 40
1.0
  9
$DIMTP
 40
0.0
  9
$DIMTM
 40
0.0
  9
$DIMTXT
 40
3.5
  9
$DIMCEN
 40
1.5
  9
$DIMTSZ
 40
0.0
  9
$DIMTOL
 70
     0
  9
$DIMLIM
 70
     0
  9
$DIMTIH
 70
     0
  9
$DIMTOH
 70
     0
  9
$DIMSE1
 70
     0
  9
$DIMSE2
 70
     0
  9
$DIMTAD
 70
     1
  9
$DIMZIN
 70
     8
  9
$DIMBLK
  1

  9
$DIMASO
 70
     1
  9
$DIMSHO
 70
     0
  9
$DIMPOST
  1

  9
$DIMAPOST
  1

  9
$DIMALT
 70
     0
  9
$DIMALTD
 70
     2
  9
$DIMALTF
 40
25.4
  9
$DIMLFAC
 40
1.0
  9
$DIMTOFL
 70
     1
  9
$DIMTVP
 40
0.0
  9
$DIMTIX
 70
     0
  9
$DIMSOXD
 70
     0
  9
$DIMSAH
 70
     0
  9
$DIMBLK1
  1

  9
$DIMBLK2
  1

  9
$DIMSTYLE
  2
Standard
  9
$DIMCLRD
 70
     0
  9
$DIMCLRE
 70
     0
  9
$DIMCLRT
 70
     1
  9
$DIMTFAC
 40
0.5142857142857144
  9
$DIMGAP
 40
1.5
  9
$DIMJUST
 70
     0
  9
$DIMSD1
 70
     0
  9
$DIMSD2
 70
     0
  9
$DIMTOLJ
 70
     1
  9
$DIMTZIN
 70
     8
  9
$DIMALTZ
 70
     8
  9
$DIMALTTZ
 70
     8
  9
$DIMUPT
 70
     0
  9
$DIMDEC
 70
     2
  9
$DIMTDEC
 70
     2
  9
$DIMALTU
 70
     2
  9
$DIMALTTD
 70
     2
  9
$DIMTXSTY
  7
STANDARD
  9
$DIMAUNIT
 70
     0
  9
$DIMADEC
 70
     2
  9
$DIMALTRND
 40
0.0
  9
$DIMAZIN
 70
     2
  9
$DIMDSEP
 70
    46
  9
$DIMATFIT
 70
     3
  9
$DIMFRAC
 70
     0
  9
$DIMLDRBLK
  1

  9
$DIMLUNIT
 70
     2
  9
$DIMLWD
 70
    -2
  9
$DIMLWE
 70
    -2
  9
$DIMTMOVE
 70
     0
  9
$LUNITS
 70
     2
  9
$LUPREC
 70
     2
  9
$SKETCHINC
 40
1.0
  9
$FILLETRAD
 40
0.0
  9
$AUNITS
 70
     0
  9
$AUPREC
 70
     0
  9
$MENU
  1
ACAD
  9
$ELEVATION
 40
0.0
  9
$PELEVATION
 40
0.0
  9
$THICKNESS
 40
0.0
  9
$LIMCHECK
 70
     0
  9
$CHAMFERA
 40
0.0
  9
$CHAMFERB
 40
0.0
  9
$CHAMFERC
 40
0.0
  9
$CHAMFERD
 40
0.0
  9
$SKPOLY
 70
     0
  9
$TDCREATE
 40
2455397.867059838
  9
$TDUCREATE
 40
2455397.783726505
  9
$TDUPDATE
 40
2455455.409131192
  9
$TDUUPDATE
 40
2455455.325797859
  9
$TDINDWG
 40
0.0860051736
  9
$TDUSRTIMER
 40
0.0860051736
  9
$USRTIMER
 70
     1
  9
$ANGBASE
 50
0.0
  9
$ANGDIR
 70
     0
  9
$PDMODE
 70
     0
  9
$PDSIZE
 40
0.0
  9
$PLINEWID
 40
0.0
  9
$SPLFRAME
 70
     0
  9
$SPLINETYPE
 70
     6
  9
$SPLINESEGS
 70
     8
  9
$HANDSEED
  5
551
  9
$SURFTAB1
 70
     6
  9
$SURFTAB2
 70
     6
  9
$SURFTYPE
 70
     6
  9
$SURFU
 70
     6
  9
$SURFV
 70
     6
  9
$UCSBASE
  2

  9
$UCSNAME
  2

  9
$UCSORG
 10
0.0
 20
0.0
 30
0.0
  9
$UCSXDIR
 10
1.0
 20
0.0
 30
0.0
  9
$UCSYDIR
 10
0.0
 20
1.0
 30
0.0
  9
$UCSORTHOREF
  2

  9
$UCSORTHOVIEW
 70
     0
  9
$UCSORGTOP
 10
0.0
 20
0.0
 30
0.0
  9
$UCSORGBOTTOM
 10
0.0
 20
0.0
 30
0.0
  9
$UCSORGLEFT
 10
0.0
 20
0.0
 30
0.0
  9
$UCSORGRIGHT
 10
0.0
 20
0.0
 30
0.0
  9
$UCSORGFRONT
 10
0.0
 20
0.0
 30
0.0
  9
$UCSORGBACK
 10
0.0
 20
0.0
 30
0.0
  9
$PUCSBASE
  2

  9
$PUCSNAME
  2

  9
$PUCSORG
 10
0.0
 20
0.0
 30
0.0
  9
$PUCSXDIR
 10
1.0
 20
0.0
 30
0.0
  9
$PUCSYDIR
 10
0.0
 20
1.0
 30
0.0
  9
$PUCSORTHOREF
  2

  9
$PUCSORTHOVIEW
 70
     0
  9
$PUCSORGTOP
 10
0.0
 20
0.0
 30
0.0
  9
$PUCSORGBOTTOM
 10
0.0
 20
0.0
 30
0.0
  9
$PUCSORGLEFT
 10
0.0
 20
0.0
 30
0.0
  9
$PUCSORGRIGHT
 10
0.0
 20
0.0
 30
0.0
  9
$PUCSORGFRONT
 10
0.0
 20
0.0
 30
0.0
  9
$PUCSORGBACK
 10
0.0
 20
0.0
 30
0.0
  9
$USERI1
 70
     0
  9
$USERI2
 70
     0
  9
$USERI3
 70
     0
  9
$USERI4
 70
     0
  9
$USERI5
 70
     0
  9
$USERR1
 40
0.0
  9
$USERR2
 40
0.0
  9
$USERR3
 40
0.0
  9
$USERR4
 40
0.0
  9
$USERR5
 40
0.0
  9
$WORLDVIEW
 70
     1
  9
$SHADEDGE
 70
     3
  9
$SHADEDIF
 70
    70
  9
$TILEMODE
 70
     1
  9
$MAXACTVP
 70
    16
  9
$PINSBASE
 10
0.0
 20
0.0
 30
0.0
  9
$PLIMCHECK
 70
     0
  9
$PEXTMIN
 10
1.000000000000000E+20
 20
1.000000000000000E+20
 30
1.000000000000000E+20
  9
$PEXTMAX
 10
-1.000000000000000E+20
 20
-1.000000000000000E+20
 30
-1.000000000000000E+20
  9
$PLIMMIN
 10
0.0
 20
0.0
  9
$PLIMMAX
 10
12.0
 20
9.0
  9
$UNITMODE
 70
     0
  9
$VISRETAIN
 70
     0
  9
$PLINEGEN
 70
     0
  9
$PSLTSCALE
 70
     0
  9
$TREEDEPTH
 70
  3020
  9
$CMLSTYLE
  2
Standard
  9
$CMLJUST
 70
     0
  9
$CMLSCALE
 40
1.0
  9
$PROXYGRAPHICS
 70
     1
  9
$MEASUREMENT
 70
     0
  9
$CELWEIGHT
370
    -1
  9
$ENDCAPS
280
     0
  9
$JOINSTYLE
280
     0
  9
$LWDISPLAY
290
     0
  9
$INSUNITS
 70
     0
  9
$HYPERLINKBASE
  1

  9
$STYLESHEET
  1
monochrome 1.ctb
  9
$XEDIT
290
     1
  9
$CEPSNTYPE
380
     0
  9
$PSTYLEMODE
290
     1
  9
$FINGERPRINTGUID
  2
{D68B0D0D-A558-11D7-B632-000102183313}
  9
$VERSIONGUID
  2
{3273F93D-402C-4C77-802B-63338BA672AE}
  9
$EXTNAMES
290
     1
  9
$PSVPSCALE
 40
0.0
  9
$OLESTARTUP
290
     0
  9
$SORTENTS
280
   127
  9
$INDEXCTL
280
     0
  9
$HIDETEXT
280
     0
  9
$XCLIPFRAME
290
     0
  9
$HALOGAP
280
     0
  9
$OBSCOLOR
 70
   257
  9
$OBSLTYPE
280
     0
  9
$INTERSECTIONDISPLAY
280
     0
  9
$INTERSECTIONCOLOR
 70
   257
  9
$DIMASSOC
280
     1
  9
$PROJECTNAME
  1

  0
ENDSEC
  0
SECTION
  2
CLASSES
  0
CLASS
  1
ACDBDICTIONARYWDFLT
  2
AcDbDictionaryWithDefault
  3
ObjectDBX Classes
 90
        0
 91
        1
280
     0
281
     0
  0
CLASS
  1
DICTIONARYVAR
  2
AcDbDictionaryVar
  3
ObjectDBX Classes
 90
        0
 91
        2
280
     0
281
     0
  0
ENDSEC
  0
SECTION
  2
TABLES
  0
TABLE
  2
VPORT
  5
8
330
0
100
AcDbSymbolTable
 70
     2
  0
VPORT
  5
550
330
8
100
AcDbSymbolTableRecord
100
AcDbViewportTableRecord
  2
*Active
 70
     0
 10
0.0
 20
0.0
 11
1.0
 21
1.0
 12
420.0048212081256
 22
296.9984996089859
 13
0.0
 23
0.0
 14
1.0
 24
1.0
 15
10.0
 25
10.0
 16
0.0
 26
0.0
 36
1.0
 17
0.0
 27
0.0
 37
0.0
 40
632.1747238408212
 41
1.336927223719676
 42
50.0
 43
0.0
 44
0.0
 50
0.0
 51
0.0
 71
     0
 72
  1500
 73
     1
 74
     0
 75
     0
 76
     0
 77
     0
 78
     0
281
     0
 65
     1
110
0.0
120
0.0
130
0.0
111
1.0
121
0.0
131
0.0
112
0.0
122
1.0
132
0.0
 79
     0
146
0.0
  0
ENDTAB
  0
TABLE
  2
LTYPE
  5
5
330
0
100
AcDbSymbolTable
 70
     2
  0
LTYPE
  5
13
330
5
100
AcDbSymbolTableRecord
100
AcDbLinetypeTableRecord
  2
ByBlock
 70
     0
  3

 72
    65
 73
     0
 40
0.0
  0
LTYPE
  5
14
330
5
100
AcDbSymbolTableRecord
100
AcDbLinetypeTableRecord
  2
ByLayer
 70
     0
  3

 72
    65
 73
     0
 40
0.0
  0
LTYPE
  5
15
330
5
100
AcDbSymbolTableRecord
100
AcDbLinetypeTableRecord
  2
Continuous
 70
     0
  3
Solid line
 72
    65
 73
     0
 40
0.0
  0
LTYPE
  5
25
330
5
100
AcDbSymbolTableRecord
100
AcDbLinetypeTableRecord
  2
STRICHPUNKT
 70
     0
  3
__ . __ . __ . __ . __ . __ . __ . __ . __ . __
 72
    65
 73
     4
 40
1.0
 49
0.5
 74
     0
 49
-0.25
 74
     0
 49
0.0
 74
     0
 49
-0.25
 74
     0
  0
ENDTAB
  0
TABLE
  2
LAYER
  5
2
330
0
100
AcDbSymbolTable
 70
     9
  0
LAYER
  5
10
330
2
100
AcDbSymbolTableRecord
100
AcDbLayerTableRecord
  2
0
 70
     0
 62
     7
  6
Continuous
370
    -3
390
F
  0
LAYER
  5
2B
330
2
100
AcDbSymbolTableRecord
100
AcDbLayerTableRecord
  2
VOLL
 70
     0
 62
     1
  6
Continuous
370
    -3
390
F
  0
LAYER
  5
2C
330
2
100
AcDbSymbolTableRecord
100
AcDbLayerTableRecord
  2
HILF
 70
     0
 62
     2
  6
Continuous
370
    -3
390
F
  0
LAYER
  5
2D
330
2
100
AcDbSymbolTableRecord
100
AcDbLayerTableRecord
  2
MITTEL
 70
     0
 62
     2
  6
STRICHPUNKT
370
    -3
390
F
  0
LAYER
  5
2F
330
2
100
AcDbSymbolTableRecord
100
AcDbLayerTableRecord
  2
BEM
 70
     0
 62
     7
  6
Continuous
370
    -3
390
F
  0
LAYER
  5
30
330
2
100
AcDbSymbolTableRecord
100
AcDbLayerTableRecord
  2
STEMPEL
 70
     0
 62
     3
  6
Continuous
370
    -3
390
F
  0
LAYER
  5
33
330
2
100
AcDbSymbolTableRecord
100
AcDbLayerTableRecord
  2
TEXT
 70
     0
 62
     7
  6
Continuous
370
    -3
390
F
  0
LAYER
  5
1AC
330
2
100
AcDbSymbolTableRecord
100
AcDbLayerTableRecord
  2
SCHRAFF
 70
     0
 62
     7
  6
Continuous
370
    -3
390
F
  0
LAYER
  5
1AD
330
2
100
AcDbSymbolTableRecord
100
AcDbLayerTableRecord
  2
DEFPOINTS
 70
     0
 62
     7
  6
Continuous
290
     0
370
    -3
390
F
  0
ENDTAB
  0
TABLE
  2
STYLE
  5
3
330
0
100
AcDbSymbolTable
 70
     2
  0
STYLE
  5
11
330
3
100
AcDbSymbolTableRecord
100
AcDbTextStyleTableRecord
  2
STANDARD
 70
     0
 40
0.0
 41
0.8
 50
0.0
 71
     0
 42
3.5
  3
simplex.shx
  4

  0
STYLE
  5
24
330
3
100
AcDbSymbolTableRecord
100
AcDbTextStyleTableRecord
  2
GREEKS
 70
     0
 40
0.0
 41
0.8
 50
0.0
 71
     0
 42
2.5
  3
SIMPLEX.shx
  4

  0
ENDTAB
  0
TABLE
  2
VIEW
  5
6
330
0
100
AcDbSymbolTable
 70
     0
  0
ENDTAB
  0
TABLE
  2
UCS
  5
7
330
0
100
AcDbSymbolTable
 70
     0
  0
ENDTAB
  0
TABLE
  2
APPID
  5
9
330
0
100
AcDbSymbolTable
 70
     1
  0
APPID
  5
12
330
9
100
AcDbSymbolTableRecord
100
AcDbRegAppTableRecord
  2
ACAD
 70
     0
  0
ENDTAB
  0
TABLE
  2
DIMSTYLE
  5
A
330
0
100
AcDbSymbolTable
 70
     1
100
AcDbDimStyleTable
 71
     1
340
A2
  0
DIMSTYLE
105
A2
102
{ACAD_REACTORS
330
4A0
330
49A
330
468
330
452
102
}
330
A
100
AcDbSymbolTableRecord
100
AcDbDimStyleTableRecord
  2
Standard
 70
     0
340
11
  0
ENDTAB
  0
TABLE
  2
BLOCK_RECORD
  5
1
330
0
100
AcDbSymbolTable
 70
     6
  0
BLOCK_RECORD
  5
1E
102
{ACAD_XDICTIONARY
360
DB
102
}
330
1
100
AcDbSymbolTableRecord
100
AcDbBlockTableRecord
  2
*Model_Space
340
21
  0
BLOCK_RECORD
  5
1A
102
{ACAD_XDICTIONARY
360
DD
102
}
330
1
100
AcDbSymbolTableRecord
100
AcDbBlockTableRecord
  2
*Paper_Space
340
1D
  0
BLOCK_RECORD
  5
22
330
1
100
AcDbSymbolTableRecord
100
AcDbBlockTableRecord
  2
LOGO
340
0
102
{BLKREFS
331
56
102
}
  0
BLOCK_RECORD
  5
23
330
1
100
AcDbSymbolTableRecord
100
AcDbBlockTableRecord
  2
LORO
340
0
102
{BLKREFS
331
9B
102
}
  0
BLOCK_RECORD
  5
4A1
330
1
100
AcDbSymbolTableRecord
100
AcDbBlockTableRecord
  2
*D2
340
0
  0
BLOCK_RECORD
  5
4AE
330
1
100
AcDbSymbolTableRecord
100
AcDbBlockTableRecord
  2
*D3
340
0
  0
BLOCK_RECORD
  5
4BB
330
1
100
AcDbSymbolTableRecord
100
AcDbBlockTableRecord
  2
*D4
340
0
  0
BLOCK_RECORD
  5
4C8
330
1
100
AcDbSymbolTableRecord
100
AcDbBlockTableRecord
  2
*D5
340
0
  0
ENDTAB
  0
ENDSEC
  0
SECTION
  2
BLOCKS
  0
BLOCK
  5
37
330
1E
100
AcDbEntity
  8
0
100
AcDbBlockBegin
  2
*Model_Space
 70
     0
 10
0.0
 20
0.0
 30
0.0
  3
*Model_Space
  1

  0
ENDBLK
  5
38
330
1E
100
AcDbEntity
  8
0
100
AcDbBlockEnd
  0
BLOCK
  5
35
330
1A
100
AcDbEntity
 67
     1
  8
0
100
AcDbBlockBegin
  2
*Paper_Space
 70
     0
 10
0.0
 20
0.0
 30
0.0
  3
*Paper_Space
  1

  0
ENDBLK
  5
36
330
1A
100
AcDbEntity
 67
     1
  8
0
100
AcDbBlockEnd
  0
BLOCK
  5
39
330
22
100
AcDbEntity
  8
0
100
AcDbBlockBegin
  2
LOGO
 70
     0
 10
0.0
 20
0.0
 30
0.0
  3
LOGO
  1

  0
ARC
  5
3A
330
22
100
AcDbEntity
  8
0
100
AcDbCircle
 10
11.59973089678112
 20
-9.271599258481501
 30
0.0
 40
4.5
100
AcDbArc
 50
270.0
 51
231.0575587310159
  0
LINE
  5
3B
330
22
100
AcDbEntity
  8
0
100
AcDbLine
 10
3.599730896781125
 20
-4.771599258481529
 30
0.0
 11
3.599730896781153
 21
-11.77159925848133
 31
0.0
  0
LINE
  5
3C
330
22
100
AcDbEntity
  8
0
100
AcDbLine
 10
2.599730896781125
 20
-4.771599258481529
 30
0.0
 11
2.599730896781153
 21
-11.77159925848133
 31
0.0
  0
CIRCLE
  5
3D
330
22
100
AcDbEntity
  8
0
100
AcDbCircle
 10
11.59973089678112
 20
-9.271599258481501
 30
0.0
 40
3.5
  0
ARC
  5
3E
330
22
100
AcDbEntity
  8
0
100
AcDbCircle
 10
31.59973089678115
 20
-9.271599258481472
 30
0.0
 40
4.5
100
AcDbArc
 50
270.0
 51
231.0575587310182
  0
LINE
  5
3F
330
22
100
AcDbEntity
  8
0
100
AcDbLine
 10
17.59973089678112
 20
-4.771599258481472
 30
0.0
 11
17.59973089678115
 21
-13.77159925848147
 31
0.0
  0
ARC
  5
40
330
22
100
AcDbEntity
  8
0
100
AcDbCircle
 10
22.59973089678116
 20
-7.271599258481472
 30
0.0
 40
2.5
100
AcDbArc
 50
293.1161887722295
 51
90.0
  0
CIRCLE
  5
41
330
22
100
AcDbEntity
  8
0
100
AcDbCircle
 10
31.59973089678115
 20
-9.271599258481472
 30
0.0
 40
3.5
  0
ARC
  5
42
330
22
100
AcDbEntity
  8
0
100
AcDbCircle
 10
4.599730896781153
 20
-11.77159925848133
 30
0.0
 40
1.0
100
AcDbArc
 50
180.0
 51
270.0
  0
ARC
  5
43
330
22
100
AcDbEntity
  8
0
100
AcDbCircle
 10
4.599730896781153
 20
-11.77159925848133
 30
0.0
 40
2.0
100
AcDbArc
 50
179.9999999999992
 51
270.0
  0
LINE
  5
44
330
22
100
AcDbEntity
  8
0
100
AcDbLine
 10
11.59973089678115
 20
-13.77159925848144
 30
0.0
 11
4.599730896781153
 21
-13.77159925848147
 31
0.0
  0
LINE
  5
45
330
22
100
AcDbEntity
  8
0
100
AcDbLine
 10
8.771303772034769
 20
-12.77159925848136
 30
0.0
 11
4.599730896781153
 21
-12.77159925848133
 31
0.0
  0
LINE
  5
46
330
22
100
AcDbEntity
  8
0
100
AcDbLine
 10
31.59973089678115
 20
-13.77159925848147
 30
0.0
 11
23.6715276665056
 21
-13.77159925848144
 31
0.0
  0
LINE
  5
47
330
22
100
AcDbEntity
  8
0
100
AcDbLine
 10
23.56565672307022
 20
-9.51278021337896
 30
0.0
 11
24.4388546544846
 21
-12.77159925848144
 31
0.0
  0
LINE
  5
48
330
22
100
AcDbEntity
  8
0
100
AcDbLine
 10
22.59973089678116
 20
-9.771599258481472
 30
0.0
 11
18.59973089678112
 21
-9.771599258481472
 31
0.0
  0
LINE
  5
49
330
22
100
AcDbEntity
  8
0
100
AcDbLine
 10
18.59973089678115
 20
-13.77159925848144
 30
0.0
 11
17.59973089678115
 21
-13.77159925848144
 31
0.0
  0
LINE
  5
4A
330
22
100
AcDbEntity
  8
0
100
AcDbLine
 10
18.59973089678115
 20
-9.771599258481472
 30
0.0
 11
18.59973089678115
 21
-13.77159925848144
 31
0.0
  0
LINE
  5
4B
330
22
100
AcDbEntity
  8
0
100
AcDbLine
 10
22.59973089678116
 20
-9.771599258481472
 30
0.0
 11
23.67152766650562
 21
-13.77159925848147
 31
0.0
  0
ARC
  5
4C
330
22
100
AcDbEntity
  8
0
100
AcDbCircle
 10
22.59973089678116
 20
-7.271599258481472
 30
0.0
 40
2.5
100
AcDbArc
 50
270.0
 51
270.0000000000007
  0
LINE
  5
4D
330
22
100
AcDbEntity
  8
0
100
AcDbLine
 10
28.77130377203494
 20
-12.77159925848147
 30
0.0
 11
24.43885465448463
 21
-12.77159925848144
 31
0.0
  0
LINE
  5
4E
330
22
100
AcDbEntity
  8
0
100
AcDbLine
 10
3.599730896781125
 20
-4.771599258481472
 30
0.0
 11
2.599730896781125
 21
-4.771599258481472
 31
0.0
  0
LINE
  5
4F
330
22
100
AcDbEntity
  8
0
100
AcDbLine
 10
22.59973089678116
 20
-8.771599258481472
 30
0.0
 11
18.59973089678115
 21
-8.771599258481472
 31
0.0
  0
LINE
  5
50
330
22
100
AcDbEntity
  8
0
100
AcDbLine
 10
22.59973089678116
 20
-5.771599258481472
 30
0.0
 11
18.59973089678115
 21
-5.771599258481472
 31
0.0
  0
LINE
  5
51
330
22
100
AcDbEntity
  8
0
100
AcDbLine
 10
22.59973089678116
 20
-4.771599258481472
 30
0.0
 11
17.59973089678115
 21
-4.771599258481472
 31
0.0
  0
LINE
  5
52
330
22
100
AcDbEntity
  8
0
100
AcDbLine
 10
18.59973089678115
 20
-5.771599258481472
 30
0.0
 11
18.59973089678115
 21
-8.771599258481472
 31
0.0
  0
ARC
  5
53
330
22
100
AcDbEntity
  8
0
100
AcDbCircle
 10
22.59973089678116
 20
-7.271599258481472
 30
0.0
 40
1.5
100
AcDbArc
 50
270.0
 51
90.0
  0
ENDBLK
  5
54
330
22
100
AcDbEntity
  8
0
100
AcDbBlockEnd
  0
BLOCK
  5
55
330
23
100
AcDbEntity
  8
0
100
AcDbBlockBegin
  2
LORO
 70
     0
 10
0.0
 20
0.0
 30
0.0
  3
LORO
  1

  0
INSERT
  5
56
330
23
100
AcDbEntity
  8
STEMPEL
100
AcDbBlockReference
  2
LOGO
 10
-1.748032802467321
 20
3.771489518552062
 30
0.0
  0
ENDBLK
  5
57
330
23
100
AcDbEntity
  8
0
100
AcDbBlockEnd
  0
BLOCK
  5
4AC
330
4A1
100
AcDbEntity
  8
0
100
AcDbBlockBegin
  2
*D2
 70
     1
 10
0.0
 20
0.0
 30
0.0
  3
*D2
  1

  0
LINE
  5
518
330
4A1
100
AcDbEntity
  8
BEM
 62
     0
370
    -2
100
AcDbLine
 10
208.4966502048881
 20
379.671214312267
 30
0.0
 11
206.6035158374126
 21
379.671214312267
 31
0.0
  0
LINE
  5
519
330
4A1
100
AcDbEntity
  8
BEM
 62
     0
370
    -2
100
AcDbLine
 10
208.4966502048881
 20
381.271214312267
 30
0.0
 11
206.6035158374126
 21
381.271214312267
 31
0.0
  0
LINE
  5
51A
330
4A1
100
AcDbEntity
  8
BEM
 62
     0
370
    -2
100
AcDbLine
 10
208.6035158374126
 20
372.671214312267
 30
0.0
 11
208.6035158374126
 21
365.671214312267
 31
0.0
  0
LINE
  5
51B
330
4A1
100
AcDbEntity
  8
BEM
 62
     0
370
    -2
100
AcDbLine
 10
208.6035158374126
 20
388.271214312267
 30
0.0
 11
208.6035158374126
 21
411.6712143122669
 31
0.0
  0
LINE
  5
51C
330
4A1
100
AcDbEntity
  8
BEM
 62
     0
370
    -2
100
AcDbLine
 10
208.6035158374126
 20
379.671214312267
 30
0.0
 11
208.6035158374126
 21
381.271214312267
 31
0.0
  0
SOLID
  5
51D
330
4A1
100
AcDbEntity
  8
BEM
 62
     0
100
AcDbTrace
 10
207.4368491707459
 20
372.671214312267
 30
0.0
 11
209.7701825040793
 21
372.671214312267
 31
0.0
 12
208.6035158374126
 22
379.671214312267
 32
0.0
 13
208.6035158374126
 23
379.671214312267
 33
0.0
  0
SOLID
  5
51E
330
4A1
100
AcDbEntity
  8
BEM
 62
     0
100
AcDbTrace
 10
207.4368491707459
 20
388.271214312267
 30
0.0
 11
209.7701825040793
 21
388.271214312267
 31
0.0
 12
208.6035158374126
 22
381.271214312267
 32
0.0
 13
208.6035158374126
 23
381.271214312267
 33
0.0
  0
MTEXT
  5
51F
330
4A1
100
AcDbEntity
  8
BEM
 62
     1
100
AcDbMText
 10
202.1035158374125
 20
403.471214312267
 30
0.0
 40
7.0
 41
0.0
 71
     5
 72
     1
  1
\A1;1.6
 11
0.0000000000000001
 21
1.0
 31
0.0
 73
     1
 44
1.0
  0
POINT
  5
520
330
4A1
100
AcDbEntity
  8
DEFPOINTS
 62
     0
100
AcDbPoint
 10
210.4966502048881
 20
379.671214312267
 30
0.0
  0
POINT
  5
521
330
4A1
100
AcDbEntity
  8
DEFPOINTS
 62
     0
100
AcDbPoint
 10
210.4966502048881
 20
381.271214312267
 30
0.0
  0
POINT
  5
522
330
4A1
100
AcDbEntity
  8
DEFPOINTS
 62
     0
100
AcDbPoint
 10
208.6035158374126
 20
381.271214312267
 30
0.0
  0
ENDBLK
  5
4AD
330
4A1
100
AcDbEntity
  8
0
100
AcDbBlockEnd
  0
BLOCK
  5
4B9
330
4AE
100
AcDbEntity
  8
0
100
AcDbBlockBegin
  2
*D3
 70
     1
 10
0.0
 20
0.0
 30
0.0
  3
*D3
  1

  0
LINE
  5
50F
330
4AE
100
AcDbEntity
  8
BEM
 62
     0
370
    -2
100
AcDbLine
 10
791.8918587400075
 20
303.0058169839917
 30
0.0
 11
791.8918587400075
 21
278.7321229283823
 31
0.0
  0
LINE
  5
510
330
4AE
100
AcDbEntity
  8
BEM
 62
     0
370
    -2
100
AcDbLine
 10
671.8918587400074
 20
304.4491982892314
 30
0.0
 11
671.8918587400074
 21
278.7321229283823
 31
0.0
  0
LINE
  5
511
330
4AE
100
AcDbEntity
  8
BEM
 62
     0
370
    -2
100
AcDbLine
 10
784.8918587400076
 20
280.7321229283823
 30
0.0
 11
678.8918587400075
 21
280.7321229283823
 31
0.0
  0
SOLID
  5
512
330
4AE
100
AcDbEntity
  8
BEM
 62
     0
100
AcDbTrace
 10
784.8918587400076
 20
281.898789595049
 30
0.0
 11
784.8918587400076
 21
279.5654562617156
 31
0.0
 12
791.8918587400075
 22
280.7321229283823
 32
0.0
 13
791.8918587400075
 23
280.7321229283823
 33
0.0
  0
SOLID
  5
513
330
4AE
100
AcDbEntity
  8
BEM
 62
     0
100
AcDbTrace
 10
678.8918587400075
 20
281.898789595049
 30
0.0
 11
678.8918587400075
 21
279.5654562617156
 31
0.0
 12
671.8918587400074
 22
280.7321229283823
 32
0.0
 13
671.8918587400074
 23
280.7321229283823
 33
0.0
  0
MTEXT
  5
514
330
4AE
100
AcDbEntity
  8
BEM
 62
     1
100
AcDbMText
 10
731.8918587400076
 20
287.2321229283823
 30
0.0
 40
7.0
 41
0.0
 71
     5
 72
     1
  1
\A1;120
 73
     1
 44
1.0
  0
POINT
  5
515
330
4AE
100
AcDbEntity
  8
DEFPOINTS
 62
     0
100
AcDbPoint
 10
791.8918587400075
 20
305.0058169839917
 30
0.0
  0
POINT
  5
516
330
4AE
100
AcDbEntity
  8
DEFPOINTS
 62
     0
100
AcDbPoint
 10
671.8918587400074
 20
306.4491982892314
 30
0.0
  0
POINT
  5
517
330
4AE
100
AcDbEntity
  8
DEFPOINTS
 62
     0
100
AcDbPoint
 10
671.8918587400074
 20
280.7321229283823
 30
0.0
  0
ENDBLK
  5
4BA
330
4AE
100
AcDbEntity
  8
0
100
AcDbBlockEnd
  0
BLOCK
  5
4C6
330
4BB
100
AcDbEntity
  8
0
100
AcDbBlockBegin
  2
*D4
 70
     1
 10
0.0
 20
0.0
 30
0.0
  3
*D4
  1

  0
LINE
  5
506
330
4BB
100
AcDbEntity
  8
BEM
 62
     0
370
    -2
100
AcDbLine
 10
87.4081373768222
 20
308.2712143122671
 30
0.0
 11
74.4606006298212
 21
308.2712143122671
 31
0.0
  0
LINE
  5
507
330
4BB
100
AcDbEntity
  8
BEM
 62
     0
370
    -2
100
AcDbLine
 10
87.4081373768222
 20
381.2712143122671
 30
0.0
 11
74.46060062982121
 21
381.2712143122671
 31
0.0
  0
LINE
  5
508
330
4BB
100
AcDbEntity
  8
BEM
 62
     0
370
    -2
100
AcDbLine
 10
76.4606006298212
 20
315.2712143122671
 30
0.0
 11
76.46060062982122
 21
374.2712143122671
 31
0.0
  0
SOLID
  5
509
330
4BB
100
AcDbEntity
  8
BEM
 62
     0
100
AcDbTrace
 10
75.29393396315453
 20
315.2712143122671
 30
0.0
 11
77.62726729648787
 21
315.2712143122671
 31
0.0
 12
76.4606006298212
 22
308.2712143122671
 32
0.0
 13
76.4606006298212
 23
308.2712143122671
 33
0.0
  0
SOLID
  5
50A
330
4BB
100
AcDbEntity
  8
BEM
 62
     0
100
AcDbTrace
 10
75.29393396315454
 20
374.2712143122671
 30
0.0
 11
77.62726729648789
 21
374.2712143122671
 31
0.0
 12
76.46060062982122
 22
381.2712143122671
 32
0.0
 13
76.46060062982122
 23
381.2712143122671
 33
0.0
  0
MTEXT
  5
50B
330
4BB
100
AcDbEntity
  8
BEM
 62
     1
100
AcDbMText
 10
69.96060062982114
 20
344.7712143122671
 30
0.0
 40
7.0
 41
0.0
 71
     5
 72
     1
  1
\A1;%%c73
 11
0.0000000000000001
 21
1.0
 31
0.0
 73
     1
 44
1.0
  0
POINT
  5
50C
330
4BB
100
AcDbEntity
  8
DEFPOINTS
 62
     0
100
AcDbPoint
 10
89.40813737682219
 20
308.2712143122671
 30
0.0
  0
POINT
  5
50D
330
4BB
100
AcDbEntity
  8
DEFPOINTS
 62
     0
100
AcDbPoint
 10
89.40813737682219
 20
381.2712143122671
 30
0.0
  0
POINT
  5
50E
330
4BB
100
AcDbEntity
  8
DEFPOINTS
 62
     0
100
AcDbPoint
 10
76.46060062982122
 20
381.2712143122671
 30
0.0
  0
ENDBLK
  5
4C7
330
4BB
100
AcDbEntity
  8
0
100
AcDbBlockEnd
  0
BLOCK
  5
4D3
330
4C8
100
AcDbEntity
  8
0
100
AcDbBlockBegin
  2
*D5
 70
     1
 10
0.0
 20
0.0
 30
0.0
  3
*D5
  1

  0
LINE
  5
523
330
4C8
100
AcDbEntity
  8
BEM
 62
     0
370
    -2
100
AcDbLine
 10
89.40813737682219
 20
306.9711236204748
 30
0.0
 11
89.40813737682219
 21
258.8455402401361
 31
0.0
  0
LINE
  5
524
330
4C8
100
AcDbEntity
  8
BEM
 62
     0
370
    -2
100
AcDbLine
 10
791.8918587400075
 20
303.0058169839917
 30
0.0
 11
791.8918587400075
 21
258.8455402401361
 31
0.0
  0
LINE
  5
525
330
4C8
100
AcDbEntity
  8
BEM
 62
     0
370
    -2
100
AcDbLine
 10
96.4081373768222
 20
260.8455402401361
 30
0.0
 11
784.8918587400076
 21
260.8455402401361
 31
0.0
  0
SOLID
  5
526
330
4C8
100
AcDbEntity
  8
BEM
 62
     0
100
AcDbTrace
 10
96.4081373768222
 20
262.0122069068028
 30
0.0
 11
96.4081373768222
 21
259.6788735734695
 31
0.0
 12
89.40813737682219
 22
260.8455402401361
 32
0.0
 13
89.40813737682219
 23
260.8455402401361
 33
0.0
  0
SOLID
  5
527
330
4C8
100
AcDbEntity
  8
BEM
 62
     0
100
AcDbTrace
 10
784.8918587400076
 20
262.0122069068028
 30
0.0
 11
784.8918587400076
 21
259.6788735734695
 31
0.0
 12
791.8918587400075
 22
260.8455402401361
 32
0.0
 13
791.8918587400075
 23
260.8455402401361
 33
0.0
  0
MTEXT
  5
528
330
4C8
100
AcDbEntity
  8
BEM
 62
     1
100
AcDbMText
 10
440.6499980584149
 20
267.3455402401361
 30
0.0
 40
7.0
 41
0.0
 71
     5
 72
     1
  1
\A1;1000
 73
     1
 44
1.0
  0
POINT
  5
529
330
4C8
100
AcDbEntity
  8
DEFPOINTS
 62
     0
100
AcDbPoint
 10
89.40813737682219
 20
308.9711236204748
 30
0.0
  0
POINT
  5
52A
330
4C8
100
AcDbEntity
  8
DEFPOINTS
 62
     0
100
AcDbPoint
 10
791.8918587400075
 20
305.0058169839917
 30
0.0
  0
POINT
  5
52B
330
4C8
100
AcDbEntity
  8
DEFPOINTS
 62
     0
100
AcDbPoint
 10
791.8918587400075
 20
260.8455402401361
 30
0.0
  0
ENDBLK
  5
4D4
330
4C8
100
AcDbEntity
  8
0
100
AcDbBlockEnd
  0
ENDSEC
  0
SECTION
  2
ENTITIES
  0
LINE
  5
58
330
1E
100
AcDbEntity
  8
STEMPEL
100
AcDbLine
 10
830.0000000000002
 20
110.0
 30
0.0
 11
470.0000000000001
 21
110.0
 31
0.0
  0
LINE
  5
59
330
1E
100
AcDbEntity
  8
STEMPEL
100
AcDbLine
 10
470.0000000000001
 20
110.0
 30
0.0
 11
470.0000000000001
 21
10.0
 31
0.0
  0
LINE
  5
5A
330
1E
100
AcDbEntity
  8
STEMPEL
100
AcDbLine
 10
566.0000000000002
 20
109.9999999999999
 30
0.0
 11
566.0000000000001
 21
9.999999999999886
 31
0.0
  0
LINE
  5
5B
330
1E
100
AcDbEntity
  8
STEMPEL
100
AcDbLine
 10
650.0
 20
110.0
 30
0.0
 11
650.0
 21
10.0
 31
0.0
  0
LINE
  5
5C
330
1E
100
AcDbEntity
  8
STEMPEL
100
AcDbLine
 10
752.0000000000002
 20
109.9999999999997
 30
0.0
 11
752.0000000000002
 21
40.0
 31
0.0
  0
LINE
  5
5D
330
1E
100
AcDbEntity
  8
STEMPEL
100
AcDbLine
 10
566.0
 20
30.0
 30
0.0
 11
470.0000000000001
 21
30.0
 31
0.0
  0
LINE
  5
5E
330
1E
100
AcDbEntity
  8
STEMPEL
100
AcDbLine
 10
830.0000000000002
 20
40.0
 30
0.0
 11
566.0000000000001
 21
40.0
 31
0.0
  0
LINE
  5
5F
330
1E
100
AcDbEntity
  8
STEMPEL
100
AcDbLine
 10
830.0000000000002
 20
80.0
 30
0.0
 11
566.0000000000002
 21
80.0
 31
0.0
  0
LINE
  5
60
330
1E
100
AcDbEntity
  8
VOLL
100
AcDbLine
 10
484.0000000000002
 20
110.0
 30
0.0
 11
484.0000000000001
 21
9.999999999999985
 31
0.0
  0
LINE
  5
61
330
1E
100
AcDbEntity
  8
VOLL
100
AcDbLine
 10
524.0000000000001
 20
109.9999999999999
 30
0.0
 11
524.0000000000001
 21
9.999999999999943
 31
0.0
  0
LINE
  5
62
330
1E
100
AcDbEntity
  8
VOLL
100
AcDbLine
 10
544.0000000000002
 20
109.9999999999999
 30
0.0
 11
544.0000000000001
 21
9.999999999999914
 31
0.0
  0
LINE
  5
63
330
1E
100
AcDbEntity
  8
VOLL
100
AcDbLine
 10
584.0000000000002
 20
80.0
 30
0.0
 11
584.0000000000002
 21
40.0
 31
0.0
  0
LINE
  5
64
330
1E
100
AcDbEntity
  8
VOLL
100
AcDbLine
 10
610.0000000000002
 20
109.9999999999998
 30
0.0
 11
610.0000000000001
 21
40.0
 31
0.0
  0
LINE
  5
65
330
1E
100
AcDbEntity
  8
HILF
100
AcDbLine
 10
470.0000000000001
 20
100.0
 30
0.0
 11
566.0000000000002
 21
100.0
 31
0.0
  0
LINE
  5
66
330
1E
100
AcDbEntity
  8
HILF
100
AcDbLine
 10
470.0000000000001
 20
90.0
 30
0.0
 11
566.0000000000002
 21
90.0
 31
0.0
  0
LINE
  5
67
330
1E
100
AcDbEntity
  8
HILF
100
AcDbLine
 10
470.0000000000001
 20
80.0
 30
0.0
 11
566.0000000000002
 21
80.0
 31
0.0
  0
LINE
  5
68
330
1E
100
AcDbEntity
  8
HILF
100
AcDbLine
 10
470.0000000000001
 20
70.0
 30
0.0
 11
566.0000000000002
 21
70.0
 31
0.0
  0
LINE
  5
69
330
1E
100
AcDbEntity
  8
HILF
100
AcDbLine
 10
470.0000000000001
 20
60.0
 30
0.0
 11
566.0000000000002
 21
60.0
 31
0.0
  0
LINE
  5
6A
330
1E
100
AcDbEntity
  8
HILF
100
AcDbLine
 10
470.0000000000001
 20
50.0
 30
0.0
 11
566.0000000000002
 21
50.0
 31
0.0
  0
LINE
  5
6B
330
1E
100
AcDbEntity
  8
HILF
100
AcDbLine
 10
470.0000000000001
 20
40.0
 30
0.0
 11
566.0000000000002
 21
40.0
 31
0.0
  0
LINE
  5
6C
330
1E
100
AcDbEntity
  8
HILF
100
AcDbLine
 10
566.0000000000002
 20
70.0
 30
0.0
 11
650.0
 21
70.0
 31
0.0
  0
LINE
  5
6D
330
1E
100
AcDbEntity
  8
HILF
100
AcDbLine
 10
566.0000000000002
 20
60.0
 30
0.0
 11
650.0
 21
60.0
 31
0.0
  0
LINE
  5
6E
330
1E
100
AcDbEntity
  8
HILF
100
AcDbLine
 10
566.0000000000002
 20
50.0
 30
0.0
 11
650.0
 21
50.0
 31
0.0
  0
LINE
  5
6F
330
1E
100
AcDbEntity
  8
HILF
100
AcDbLine
 10
654.7736801096948
 20
84.03758247564136
 30
0.0
 11
746.6297842514811
 21
84.03758247564136
 31
0.0
  0
LINE
  5
70
330
1E
100
AcDbEntity
  8
HILF
100
AcDbLine
 10
654.7736801096948
 20
70.0
 30
0.0
 11
746.6297842514811
 21
70.0
 31
0.0
  0
LINE
  5
71
330
1E
100
AcDbEntity
  8
HILF
100
AcDbLine
 10
654.7736801096948
 20
60.0
 30
0.0
 11
746.6297842514811
 21
60.0
 31
0.0
  0
LINE
  5
72
330
1E
100
AcDbEntity
  8
HILF
100
AcDbLine
 10
654.7736801096948
 20
50.0
 30
0.0
 11
746.6297842514811
 21
50.0
 31
0.0
  0
LINE
  5
73
330
1E
100
AcDbEntity
  8
VOLL
100
AcDbLine
 10
752.0000000000002
 20
60.0
 30
0.0
 11
830.0000000000002
 21
60.0
 31
0.0
  0
LINE
  5
74
330
1E
100
AcDbEntity
  8
HILF
100
AcDbLine
 10
756.7238616296995
 20
83.77983636955823
 30
0.0
 11
824.858883932673
 21
83.77983636955823
 31
0.0
  0
LINE
  5
75
330
1E
100
AcDbEntity
  8
HILF
100
AcDbLine
 10
654.7736801096948
 20
14.89398258028305
 30
0.0
 11
824.858883932673
 21
14.89398258028305
 31
0.0
  0
TEXT
  5
76
330
1E
100
AcDbEntity
  8
TEXT
100
AcDbText
 10
492.3998239263297
 20
18.67381894984129
 30
0.0
 40
4.0
  1
Änderung
 41
0.8
  7
GREEKS
 72
     1
 11
503.1426810691868
 21
18.67381894984129
 31
0.0
100
AcDbText
  0
TEXT
  5
78
330
1E
100
AcDbEntity
  8
TEXT
100
AcDbText
 10
573.5163572150378
 20
102.4620895087088
 30
0.0
 40
5.0
  1
Maßstab
 41
0.8
  7
GREEKS
100
AcDbText
  0
TEXT
  5
79
330
1E
100
AcDbEntity
  8
TEXT
100
AcDbText
 10
654.8779403809011
 20
102.5489328011779
 30
0.0
 40
5.0
  1
Benennung
 41
0.8
  7
GREEKS
100
AcDbText
  0
TEXT
  5
7A
330
1E
100
AcDbEntity
  8
TEXT
100
AcDbText
 10
756.1787549576343
 20
102.3132034537135
 30
0.0
 40
5.0
  1
Zeichnungs Nr.
 41
0.8
  7
GREEKS
100
AcDbText
  0
TEXT
  5
7B
330
1E
100
AcDbEntity
  8
TEXT
100
AcDbText
 10
654.742238391136
 20
30.84560570193055
 30
0.0
 40
5.0
  1
Bauvorhaben
 41
0.8
  7
GREEKS
100
AcDbText
  0
TEXT
  5
7C
330
1E
100
AcDbEntity
  8
TEXT
100
AcDbText
 10
756.7238616296995
 20
73.18118237099965
 30
0.0
 40
5.0
  1
Ersatz für:
 41
0.8
  7
GREEKS
100
AcDbText
  0
TEXT
  5
7D
330
1E
100
AcDbEntity
  8
TEXT
100
AcDbText
 10
478.2664110704577
 20
13.65465846027187
 30
0.0
 40
4.0
  1
Index
 50
90.0
 41
0.8
  7
GREEKS
100
AcDbText
  0
TEXT
  5
7E
330
1E
100
AcDbEntity
  8
TEXT
100
AcDbText
 10
529.8990113186979
 20
18.67156269339808
 30
0.0
 40
4.0
  1
Tag
 41
0.8
  7
GREEKS
 72
     1
 11
533.6323446520313
 21
18.67156269339808
 31
0.0
100
AcDbText
  0
TEXT
  5
7F
330
1E
100
AcDbEntity
  8
TEXT
100
AcDbText
 10
548.9795678138293
 20
18.59324216966404
 30
0.0
 40
4.0
  1
Name
 41
0.8
  7
GREEKS
 72
     1
 11
555.3033773376388
 21
18.59324216966404
 31
0.0
100
AcDbText
  0
TEXT
  5
80
330
1E
100
AcDbEntity
  8
TEXT
100
AcDbText
 10
592.3311673153651
 20
73.31880501229919
 30
0.0
 40
4.0
  1
Tag
 41
0.8
  7
GREEKS
100
AcDbText
  0
TEXT
  5
81
330
1E
100
AcDbEntity
  8
TEXT
100
AcDbText
 10
622.4626584226296
 20
73.3096109191522
 30
0.0
 40
4.0
  1
Name
 41
0.8
  7
GREEKS
100
AcDbText
  0
TEXT
  5
82
330
1E
100
AcDbEntity
  8
TEXT
100
AcDbText
 10
567.5836127167616
 20
63.62990369617961
 30
0.0
 40
4.0
  1
Gez.
 41
0.8
  7
GREEKS
100
AcDbText
  0
TEXT
  5
83
330
1E
100
AcDbEntity
  8
TEXT
100
AcDbText
 10
567.5515086571673
 20
53.68926291428373
 30
0.0
 40
4.0
  1
Gepr.
 41
0.8
  7
GREEKS
100
AcDbText
  0
TEXT
  5
84
330
1E
100
AcDbEntity
  8
TEXT
100
AcDbText
 10
567.6006777387304
 20
43.52946389649804
 30
0.0
 40
4.0
  1
Norm.
 41
0.8
  7
GREEKS
100
AcDbText
  0
TEXT
  5
85
330
1E
100
AcDbEntity
  8
TEXT
100
AcDbText
 10
757.2400861497007
 20
52.07416177878596
 30
0.0
 40
5.0
  1
ersetzt durch:
 41
0.8
  7
GREEKS
100
AcDbText
  0
TEXT
  5
86
330
1E
100
AcDbEntity
  8
TEXT
100
AcDbText
 10
568.8693027807324
 20
72.96682596523723
 30
0.0
 40
4.0
  1
2008
 41
0.8
  7
GREEKS
100
AcDbText
  0
LINE
  5
87
330
1E
100
AcDbEntity
  8
HILF
100
AcDbLine
 10
0.0
 20
0.0
 30
0.0
 11
840.0
 21
0.0
 31
0.0
  0
LINE
  5
88
330
1E
100
AcDbEntity
  8
HILF
100
AcDbLine
 10
840.0
 20
0.0
 30
0.0
 11
840.0
 21
594.0
 31
0.0
  0
LINE
  5
89
330
1E
100
AcDbEntity
  8
HILF
100
AcDbLine
 10
840.0
 20
594.0
 30
0.0
 11
0.0
 21
594.0
 31
0.0
  0
LINE
  5
8B
330
1E
100
AcDbEntity
  8
STEMPEL
100
AcDbLine
 10
830.0
 20
584.0
 30
0.0
 11
40.0
 21
584.0
 31
0.0
  0
LINE
  5
8D
330
1E
100
AcDbEntity
  8
STEMPEL
100
AcDbLine
 10
40.0
 20
10.0
 30
0.0
 11
830.0
 21
10.0
 31
0.0
  0
LINE
  5
8E
330
1E
100
AcDbEntity
  8
STEMPEL
100
AcDbLine
 10
830.0
 20
10.0
 30
0.0
 11
830.0
 21
584.0
 31
0.0
  0
TEXT
  5
8F
330
1E
100
AcDbEntity
  8
TEXT
 62
     1
100
AcDbText
 10
655.0390572473189
 20
87.37343075652544
 30
0.0
 40
7.0
  1
Regenstandrohr DN70
 41
0.75
  7
GREEKS
100
AcDbText
  0
TEXT
  5
90
330
1E
100
AcDbEntity
  8
TEXT
 62
     1
100
AcDbText
 10
766.1294755517469
 20
87.37343075652544
 30
0.0
 40
7.0
  1
05526070W
 41
0.8
  7
GREEKS
 72
     1
 11
790.1294755517469
 21
87.37343075652544
 31
0.0
100
AcDbText
  0
TEXT
  5
91
330
1E
100
AcDbEntity
  8
TEXT
100
AcDbText
 10
618.509022641583
 20
102.83989611379
 30
0.0
 40
5.0
  1
Zul.Abw.
 41
0.8
  7
GREEKS
100
AcDbText
  0
TEXT
  5
93
330
1E
100
AcDbEntity
  8
TEXT
100
AcDbText
 10
590.1565237511869
 20
63.1508587612022
 30
0.0
 40
4.0
  1
20.06.
 41
0.8
  7
GREEKS
 72
     1
 11
597.1660475607107
 21
63.1508587612022
 31
0.0
100
AcDbText
  0
TEXT
  5
94
330
1E
100
AcDbEntity
  8
TEXT
100
AcDbText
 10
624.023175322661
 20
62.94297655165468
 30
0.0
 40
4.0
  1
Koeh
 41
0.8
  7
GREEKS
 72
     1
 11
629.2803181798038
 21
62.94297655165468
 31
0.0
100
AcDbText
  0
TEXT
  5
95
330
1E
100
AcDbEntity
  8
TEXT
100
AcDbText
 10
654.3410940884992
 20
72.10021383107525
 30
0.0
 40
5.0
  1
1000mm lang
 41
0.8
  7
GREEKS
100
AcDbText
  0
TEXT
  5
97
330
1E
100
AcDbEntity
  8
TEXT
100
AcDbText
 10
654.3410940884992
 20
52.59097337846058
 30
0.0
 40
5.0
  1
EDV-Art.Nr. 05526.070X
 41
0.8
  7
GREEKS
100
AcDbText
  0
TEXT
  5
98
330
1E
100
AcDbEntity
  8
TEXT
100
AcDbText
 10
654.1676050109348
 20
43.31127624791508
 30
0.0
 40
4.0
  1
05526070W.DWG
 41
0.8
  7
GREEKS
100
AcDbText
  0
TEXT
  5
99
330
1E
100
AcDbEntity
  8
TEXT
 62
     1
100
AcDbText
 10
582.7034912034222
 20
87.47077088414977
 30
0.0
 40
7.0
  1
1:2
 41
0.8
  7
GREEKS
100
AcDbText
  0
TEXT
  5
9A
330
1E
100
AcDbEntity
  8
TEXT
100
AcDbText
 10
470.0441139350127
 20
114.1143585051043
 30
0.0
 40
5.0
  1
Erstellt mit AUTOCAD 2004
 41
0.8
  7
GREEKS
100
AcDbText
  0
INSERT
  5
9B
330
1E
100
AcDbEntity
  8
HILF
100
AcDbBlockReference
  2
LORO
 10
573.0624985962354
 20
36.9805930029896
 30
0.0
 41
2.0
 42
2.0
 43
2.0
  0
LINE
  5
9C
330
1E
100
AcDbEntity
  8
BEM
100
AcDbLine
 10
456.0
 20
0.0
 30
0.0
 11
456.0
 21
10.0
 31
0.0
  0
LINE
  5
13E
330
1E
100
AcDbEntity
  8
HILF
100
AcDbLine
 10
0.0
 20
0.0
 30
0.0
 11
0.0
 21
594.0
 31
0.0
  0
LINE
  5
13F
330
1E
100
AcDbEntity
  8
STEMPEL
100
AcDbLine
 10
40.0
 20
10.0
 30
0.0
 11
40.0
 21
584.0
 31
0.0
  0
LINE
  5
14A
330
1E
100
AcDbEntity
  8
HILF
100
AcDbLine
 10
0.0
 20
297.0
 30
0.0
 11
40.0
 21
297.0
 31
0.0
  0
TEXT
  5
15B
330
1E
100
AcDbEntity
  8
BEM
100
AcDbText
 10
837.3022923857165
 20
10.16790107998861
 30
0.0
 40
4.0
  1
Diese Zeichnung ist urheberrechtlich geschützt und bleibt unser Eigentum. Sie darf weder ganz noch teilweise verfielfältigt und nicht an Dritte weitergegeben werden.
 50
90.0
 41
0.8
  7
GREEKS
100
AcDbText
  0
TEXT
  5
22C
330
1E
100
AcDbEntity
  8
TEXT
 62
     1
100
AcDbText
 10
616.6560484572488
 20
139.8004583895517
 30
0.0
 40
7.0
  1
Werkstoff: E195 EN10305 feuerverzinkt
 41
0.8
  7
GREEKS
100
AcDbText
  0
TEXT
  5
22D
330
1E
100
AcDbEntity
  8
TEXT
 62
     1
100
AcDbText
 10
664.6057658946467
 20
129.0783465745483
 30
0.0
 40
7.0
  1
und innen beschichtet
 41
0.8
  7
GREEKS
100
AcDbText
  0
TEXT
  5
22E
330
1E
100
AcDbEntity
  8
TEXT
 62
     1
100
AcDbText
 10
704.5028304564793
 20
355.6208423858722
 30
0.0
 40
7.0
  1
DN70
 41
0.8
  7
GREEKS
100
AcDbText
  0
TEXT
  5
2FD
330
1E
100
AcDbEntity
  8
TEXT
100
AcDbText
 10
612.2898419893276
 20
88.34165697992029
 30
0.0
 40
4.0
  1
DIN EN1123-2
 41
0.8
  7
GREEKS
 72
     1
 11
629.2803181798038
 21
88.34165697992029
 31
0.0
100
AcDbText
  0
POLYLINE
  5
416
102
{ACAD_REACTORS
330
53B
102
}
330
1E
100
AcDbEntity
  8
HILF
100
AcDb2dPolyline
 66
     1
 10
0.0
 20
0.0
 30
0.0
 70
     4
 75
     6
  0
VERTEX
  5
417
330
416
100
AcDbEntity
  8
HILF
100
AcDbVertex
100
AcDb2dVertex
 10
187.7991736857115
 20
381.2712143122671
 30
0.0
 70
    16
  0
VERTEX
  5
418
330
416
100
AcDbEntity
  8
HILF
100
AcDbVertex
100
AcDb2dVertex
 10
187.7991736857115
 20
381.2712143122671
 30
0.0
 70
     8
  0
VERTEX
  5
419
330
416
100
AcDbEntity
  8
HILF
100
AcDbVertex
100
AcDb2dVertex
 10
189.4264617866258
 20
378.1968584750479
 30
0.0
 70
     8
  0
VERTEX
  5
41A
330
416
100
AcDbEntity
  8
HILF
100
AcDbVertex
100
AcDb2dVertex
 10
190.8304704546564
 20
375.5851728914727
 30
0.0
 70
     8
  0
VERTEX
  5
41B
330
416
100
AcDbEntity
  8
HILF
100
AcDbVertex
100
AcDb2dVertex
 10
192.0413222362735
 20
373.3828513814708
 30
0.0
 70
     8
  0
VERTEX
  5
41C
330
416
100
AcDbEntity
  8
HILF
100
AcDbVertex
100
AcDb2dVertex
 10
193.0891396779474
 20
371.5365877649714
 30
0.0
 70
     8
  0
VERTEX
  5
41D
330
416
100
AcDbEntity
  8
HILF
100
AcDbVertex
100
AcDb2dVertex
 10
194.0040453261481
 20
369.9930758619038
 30
0.0
 70
     8
  0
VERTEX
  5
41E
330
416
100
AcDbEntity
  8
HILF
100
AcDbVertex
100
AcDb2dVertex
 10
194.8161617273458
 20
368.6990094921971
 30
0.0
 70
     8
  0
VERTEX
  5
41F
330
416
100
AcDbEntity
  8
HILF
100
AcDbVertex
100
AcDb2dVertex
 10
195.5556114280108
 20
367.6010824757807
 30
0.0
 70
     8
  0
VERTEX
  5
420
330
416
100
AcDbEntity
  8
HILF
100
AcDbVertex
100
AcDb2dVertex
 10
196.252516974613
 20
366.6459886325836
 30
0.0
 70
     8
  0
VERTEX
  5
421
330
416
100
AcDbEntity
  8
HILF
100
AcDbVertex
100
AcDb2dVertex
 10
196.9335504465057
 20
365.7877625833111
 30
0.0
 70
     8
  0
VERTEX
  5
422
330
416
100
AcDbEntity
  8
HILF
100
AcDbVertex
100
AcDb2dVertex
 10
197.6115820545733
 20
365.0098021517722
 30
0.0
 70
     8
  0
VERTEX
  5
423
330
416
100
AcDbEntity
  8
HILF
100
AcDbVertex
100
AcDb2dVertex
 10
198.2960315425831
 20
364.3028459625516
 30
0.0
 70
     8
  0
VERTEX
  5
424
330
416
100
AcDbEntity
  8
HILF
100
AcDbVertex
100
AcDb2dVertex
 10
198.9963186543025
 20
363.6576326402344
 30
0.0
 70
     8
  0
VERTEX
  5
425
330
416
100
AcDbEntity
  8
HILF
100
AcDbVertex
100
AcDb2dVertex
 10
199.721863133499
 20
363.0649008094053
 30
0.0
 70
     8
  0
VERTEX
  5
426
330
416
100
AcDbEntity
  8
HILF
100
AcDbVertex
100
AcDb2dVertex
 10
200.4820847239397
 20
362.5153890946494
 30
0.0
 70
     8
  0
VERTEX
  5
427
330
416
100
AcDbEntity
  8
HILF
100
AcDbVertex
100
AcDb2dVertex
 10
201.2864031693921
 20
361.9998361205514
 30
0.0
 70
     8
  0
VERTEX
  5
428
330
416
100
AcDbEntity
  8
HILF
100
AcDbVertex
100
AcDb2dVertex
 10
202.1442382136237
 20
361.5089805116963
 30
0.0
 70
     8
  0
VERTEX
  5
429
330
416
100
AcDbEntity
  8
HILF
100
AcDbVertex
100
AcDb2dVertex
 10
203.0625425256322
 20
361.0364872262467
 30
0.0
 70
     8
  0
VERTEX
  5
42A
330
416
100
AcDbEntity
  8
HILF
100
AcDbVertex
100
AcDb2dVertex
 10
204.0384004753383
 20
360.5877265566757
 30
0.0
 70
     8
  0
VERTEX
  5
42B
330
416
100
AcDbEntity
  8
HILF
100
AcDbVertex
100
AcDb2dVertex
 10
205.0664293578931
 20
360.1709951290341
 30
0.0
 70
     8
  0
VERTEX
  5
42C
330
416
100
AcDbEntity
  8
HILF
100
AcDbVertex
100
AcDb2dVertex
 10
206.1412464684476
 20
359.794589569373
 30
0.0
 70
     8
  0
VERTEX
  5
42D
330
416
100
AcDbEntity
  8
HILF
100
AcDbVertex
100
AcDb2dVertex
 10
207.2574691021532
 20
359.4668065037431
 30
0.0
 70
     8
  0
VERTEX
  5
42E
330
416
100
AcDbEntity
  8
HILF
100
AcDbVertex
100
AcDb2dVertex
 10
208.4097145541608
 20
359.1959425581954
 30
0.0
 70
     8
  0
VERTEX
  5
42F
330
416
100
AcDbEntity
  8
HILF
100
AcDbVertex
100
AcDb2dVertex
 10
209.5926001196216
 20
358.9902943587806
 30
0.0
 70
     8
  0
VERTEX
  5
430
330
416
100
AcDbEntity
  8
HILF
100
AcDbVertex
100
AcDb2dVertex
 10
210.8007430936866
 20
358.8581585315498
 30
0.0
 70
     8
  0
VERTEX
  5
431
330
416
100
AcDbEntity
  8
HILF
100
AcDbVertex
100
AcDb2dVertex
 10
212.0276911248501
 20
358.8068991504706
 30
0.0
 70
     8
  0
VERTEX
  5
432
330
416
100
AcDbEntity
  8
HILF
100
AcDbVertex
100
AcDb2dVertex
 10
213.2627132749779
 20
358.8401500811779
 30
0.0
 70
     8
  0
VERTEX
  5
433
330
416
100
AcDbEntity
  8
HILF
100
AcDbVertex
100
AcDb2dVertex
 10
214.494008959279
 20
358.9606126372239
 30
0.0
 70
     8
  0
VERTEX
  5
434
330
416
100
AcDbEntity
  8
HILF
100
AcDbVertex
100
AcDb2dVertex
 10
215.7097775929619
 20
359.1709881321602
 30
0.0
 70
     8
  0
VERTEX
  5
435
330
416
100
AcDbEntity
  8
HILF
100
AcDbVertex
100
AcDb2dVertex
 10
216.8982185912359
 20
359.473977879539
 30
0.0
 70
     8
  0
VERTEX
  5
436
330
416
100
AcDbEntity
  8
HILF
100
AcDbVertex
100
AcDb2dVertex
 10
218.0475313693098
 20
359.8722831929119
 30
0.0
 70
     8
  0
VERTEX
  5
437
330
416
100
AcDbEntity
  8
HILF
100
AcDbVertex
100
AcDb2dVertex
 10
219.1459153423923
 20
360.368605385831
 30
0.0
 70
     8
  0
VERTEX
  5
438
330
416
100
AcDbEntity
  8
HILF
100
AcDbVertex
100
AcDb2dVertex
 10
220.1815699256924
 20
360.9656457718481
 30
0.0
 70
     8
  0
VERTEX
  5
439
330
416
100
AcDbEntity
  8
HILF
100
AcDbVertex
100
AcDb2dVertex
 10
221.1463520159912
 20
361.6651730772961
 30
0.0
 70
     8
  0
VERTEX
  5
43A
330
416
100
AcDbEntity
  8
HILF
100
AcDbVertex
100
AcDb2dVertex
 10
222.046748436358
 20
362.4652256796314
 30
0.0
 70
     8
  0
VERTEX
  5
43B
330
416
100
AcDbEntity
  8
HILF
100
AcDbVertex
100
AcDb2dVertex
 10
222.8929034914347
 20
363.3629093690914
 30
0.0
 70
     8
  0
VERTEX
  5
43C
330
416
100
AcDbEntity
  8
HILF
100
AcDbVertex
100
AcDb2dVertex
 10
223.6949614858631
 20
364.3553299359136
 30
0.0
 70
     8
  0
VERTEX
  5
43D
330
416
100
AcDbEntity
  8
HILF
100
AcDbVertex
100
AcDb2dVertex
 10
224.4630667242848
 20
365.4395931703352
 30
0.0
 70
     8
  0
VERTEX
  5
43E
330
416
100
AcDbEntity
  8
HILF
100
AcDbVertex
100
AcDb2dVertex
 10
225.2073635113415
 20
366.6128048625937
 30
0.0
 70
     8
  0
VERTEX
  5
43F
330
416
100
AcDbEntity
  8
HILF
100
AcDbVertex
100
AcDb2dVertex
 10
225.9379961516751
 20
367.8720708029265
 30
0.0
 70
     8
  0
VERTEX
  5
440
330
416
100
AcDbEntity
  8
HILF
100
AcDbVertex
100
AcDb2dVertex
 10
226.6651089499271
 20
369.2144967815709
 30
0.0
 70
     8
  0
VERTEX
  5
441
330
416
100
AcDbEntity
  8
HILF
100
AcDbVertex
100
AcDb2dVertex
 10
227.3930839828168
 20
370.6345925994946
 30
0.0
 70
     8
  0
VERTEX
  5
442
330
416
100
AcDbEntity
  8
HILF
100
AcDbVertex
100
AcDb2dVertex
 10
228.103254415374
 20
372.1164841005855
 30
0.0
 70
     8
  0
VERTEX
  5
443
330
416
100
AcDbEntity
  8
HILF
100
AcDbVertex
100
AcDb2dVertex
 10
228.7711911847054
 20
373.6417011394621
 30
0.0
 70
     8
  0
VERTEX
  5
444
330
416
100
AcDbEntity
  8
HILF
100
AcDbVertex
100
AcDb2dVertex
 10
229.3724652279183
 20
375.1917735707424
 30
0.0
 70
     8
  0
VERTEX
  5
445
330
416
100
AcDbEntity
  8
HILF
100
AcDbVertex
100
AcDb2dVertex
 10
229.8826474821197
 20
376.7482312490448
 30
0.0
 70
     8
  0
VERTEX
  5
446
330
416
100
AcDbEntity
  8
HILF
100
AcDbVertex
100
AcDb2dVertex
 10
230.2773088844166
 20
378.2926040289876
 30
0.0
 70
     8
  0
VERTEX
  5
447
330
416
100
AcDbEntity
  8
HILF
100
AcDbVertex
100
AcDb2dVertex
 10
230.5320203719164
 20
379.8064217651889
 30
0.0
 70
     8
  0
VERTEX
  5
448
330
416
100
AcDbEntity
  8
HILF
100
AcDbVertex
100
AcDb2dVertex
 10
230.6223528817258
 20
381.271214312267
 30
0.0
 70
     8
  0
VERTEX
  5
449
330
416
100
AcDbEntity
  8
HILF
100
AcDbVertex
100
AcDb2dVertex
 10
192.4630901288567
 20
372.4086551369831
 30
0.0
 70
    16
  0
VERTEX
  5
44A
330
416
100
AcDbEntity
  8
HILF
100
AcDbVertex
100
AcDb2dVertex
 10
196.385014122266
 20
365.6910340389982
 30
0.0
 70
    16
  0
VERTEX
  5
44B
330
416
100
AcDbEntity
  8
HILF
100
AcDbVertex
100
AcDb2dVertex
 10
201.4729172264617
 20
361.3443299535335
 30
0.0
 70
    16
  0
VERTEX
  5
44C
330
416
100
AcDbEntity
  8
HILF
100
AcDbVertex
100
AcDb2dVertex
 10
210.5887462536287
 20
357.9855292170457
 30
0.0
 70
    16
  0
VERTEX
  5
44D
330
416
100
AcDbEntity
  8
HILF
100
AcDbVertex
100
AcDb2dVertex
 10
220.9765563211436
 20
359.8625043675822
 30
0.0
 70
    16
  0
VERTEX
  5
44E
330
416
100
AcDbEntity
  8
HILF
100
AcDbVertex
100
AcDb2dVertex
 10
226.5944480159514
 20
368.3583279437143
 30
0.0
 70
    16
  0
VERTEX
  5
44F
330
416
100
AcDbEntity
  8
HILF
100
AcDbVertex
100
AcDb2dVertex
 10
230.6223528817258
 20
377.4468856792288
 30
0.0
 70
    16
  0
VERTEX
  5
450
330
416
100
AcDbEntity
  8
HILF
100
AcDbVertex
100
AcDb2dVertex
 10
230.6223528817258
 20
381.271214312267
 30
0.0
 70
    16
  0
SEQEND
  5
451
330
416
100
AcDbEntity
  8
HILF
  0
DIMENSION
  5
452
330
1E
100
AcDbEntity
  8
BEM
100
AcDbDimension
  2
*D2
 10
208.6035158374126
 20
381.271214312267
 30
0.0
 11
202.1035158374125
 21
403.471214312267
 31
0.0
 70
    32
 71
     5
 42
1.600000000000022
  3
Standard
100
AcDbAlignedDimension
 13
210.4966502048881
 23
379.671214312267
 33
0.0
 14
210.4966502048881
 24
381.271214312267
 34
0.0
 50
90.0
100
AcDbRotatedDimension
1001
ACAD
1000
DSTYLE
1002
{
1070
    40
1040
2.0
1070
    41
1040
3.5
1070
    42
1040
1.0
1070
    43
1040
7.0
1070
    44
1040
1.0
1070
    73
1070
     0
1070
    74
1070
     0
1070
    77
1070
     1
1070
    78
1070
     8
1070
    79
1070
     2
1070
   140
1040
3.5
1070
   141
1040
1.5
1070
   146
1040
0.5142857142857144
1070
   147
1040
1.5
1070
   172
1070
     1
1070
   178
1070
     1
1070
   179
1070
     2
1070
   271
1070
     2
1070
   272
1070
     2
1070
   284
1070
     8
1070
   285
1070
     8
1070
   286
1070
     8
1002
}
  0
LINE
  5
453
102
{ACAD_REACTORS
330
53B
102
}
330
1E
100
AcDbEntity
  8
STEMPEL
  6
Continuous
100
AcDbLine
 10
230.5092706771339
 20
379.6712143122671
 30
0.0
 11
188.6460701086765
 21
379.6712143122671
 31
0.0
  0
ARC
  5
454
330
1E
100
AcDbEntity
  8
STEMPEL
100
AcDbCircle
 10
781.3429363328887
 20
361.871214312267
 30
0.0
 40
25.0
100
AcDbArc
 50
65.04180368769048
 51
90.0
  0
ARC
  5
455
330
1E
100
AcDbEntity
  8
STEMPEL
100
AcDbCircle
 10
758.8918587400074
 20
396.371214312267
 30
0.0
 40
12.0
100
AcDbArc
 50
270.0
 51
291.183154393037
  0
ARC
  5
456
330
1E
100
AcDbEntity
  8
STEMPEL
100
AcDbCircle
 10
772.2618587400075
 20
361.871214312267
 30
0.0
 40
25.00009324312574
100
AcDbArc
 50
89.84351404566565
 51
111.1831543930369
  0
LINE
  5
457
330
1E
100
AcDbEntity
  8
STEMPEL
100
AcDbLine
 10
781.3429363328887
 20
386.871214312267
 30
0.0
 11
772.1935786918138
 21
386.871214312267
 31
0.0
  0
ARC
  5
458
330
1E
100
AcDbEntity
  8
STEMPEL
100
AcDbCircle
 10
781.3429363328887
 20
327.6712143122672
 30
0.0
 40
25.0
100
AcDbArc
 50
270.0
 51
294.9581963123095
  0
ARC
  5
459
330
1E
100
AcDbEntity
  8
STEMPEL
100
AcDbCircle
 10
772.2618587400075
 20
327.6712143122672
 30
0.0
 40
25.00009324312574
100
AcDbArc
 50
248.816845606963
 51
270.1564859543343
  0
ARC
  5
45A
330
1E
100
AcDbEntity
  8
STEMPEL
100
AcDbCircle
 10
758.8918587400074
 20
293.1712143122672
 30
0.0
 40
12.0
100
AcDbArc
 50
68.81684560696301
 51
90.0
  0
LINE
  5
45B
330
1E
100
AcDbEntity
  8
STEMPEL
100
AcDbLine
 10
781.3429363328887
 20
302.6712143122672
 30
0.0
 11
772.1935786918138
 21
302.6712143122672
 31
0.0
  0
LINE
  5
45C
330
1E
100
AcDbEntity
  8
HILF
100
AcDbLine
 10
761.0975409588801
 20
382.9512677419802
 30
0.0
 11
761.0975409588801
 21
306.5911608825539
 31
0.0
  0
LINE
  5
45D
330
1E
100
AcDbEntity
  8
STEMPEL
100
AcDbLine
 10
791.8918587400075
 20
305.0058169839917
 30
0.0
 11
791.8918587400075
 21
384.5366116405425
 31
0.0
  0
ARC
  5
45E
330
1E
100
AcDbEntity
  8
STEMPEL
100
AcDbCircle
 10
666.5852590754387
 20
389.2712143122671
 30
0.0
 40
8.0
100
AcDbArc
 50
270.0
 51
302.3280641221636
  0
LINE
  5
45F
330
1E
100
AcDbEntity
  8
STEMPEL
100
AcDbLine
 10
666.5852590754387
 20
381.2712143122671
 30
0.0
 11
666.5688338625717
 21
381.2712143122671
 31
0.0
  0
ARC
  5
460
330
1E
100
AcDbEntity
  8
STEMPEL
100
AcDbCircle
 10
677.2805851574243
 20
372.371214312267
 30
0.0
 40
12.0
100
AcDbArc
 50
90.0
 51
122.3280641221636
  0
LINE
  5
461
330
1E
100
AcDbEntity
  8
STEMPEL
100
AcDbLine
 10
666.5852590754387
 20
381.2712143122671
 30
0.0
 11
648.9578914008513
 21
381.2712143122671
 31
0.0
  0
ARC
  5
462
330
1E
100
AcDbEntity
  8
STEMPEL
100
AcDbCircle
 10
666.5852590754387
 20
300.2712143122671
 30
0.0
 40
8.0
100
AcDbArc
 50
57.67193587783641
 51
90.0
  0
ARC
  5
463
330
1E
100
AcDbEntity
  8
STEMPEL
100
AcDbCircle
 10
677.2805851574243
 20
317.1712143122672
 30
0.0
 40
12.0
100
AcDbArc
 50
237.6719358778364
 51
270.0
  0
LINE
  5
464
330
1E
100
AcDbEntity
  8
HILF
100
AcDbLine
 10
673.9399265397263
 20
382.2200721140632
 30
0.0
 11
673.9399265397263
 21
307.322356510471
 31
0.0
  0
LINE
  5
465
330
1E
100
AcDbEntity
  8
HILF
100
AcDbLine
 10
668.8123648205709
 20
379.933120288324
 30
0.0
 11
668.8123648205709
 21
309.60930833621
 31
0.0
  0
LINE
  5
466
330
1E
100
AcDbEntity
  8
STEMPEL
100
AcDbLine
 10
758.8918587400074
 20
384.371214312267
 30
0.0
 11
677.2805851574243
 21
384.371214312267
 31
0.0
  0
LINE
  5
467
330
1E
100
AcDbEntity
  8
STEMPEL
100
AcDbLine
 10
758.8918587400074
 20
305.1712143122672
 30
0.0
 11
677.2805851574243
 21
305.1712143122672
 31
0.0
  0
DIMENSION
  5
468
330
1E
100
AcDbEntity
  8
BEM
100
AcDbDimension
  2
*D3
 10
671.8918587400074
 20
280.7321229283823
 30
0.0
 11
731.8918587400076
 21
287.2321229283823
 31
0.0
 70
    32
 71
     5
 42
120.0000000000001
  3
Standard
100
AcDbAlignedDimension
 13
791.8918587400075
 23
305.0058169839917
 33
0.0
 14
671.8918587400074
 24
306.4491982892314
 34
0.0
100
AcDbRotatedDimension
1001
ACAD
1000
DSTYLE
1002
{
1070
    40
1040
2.0
1070
    41
1040
3.5
1070
    42
1040
1.0
1070
    43
1040
7.0
1070
    44
1040
1.0
1070
    73
1070
     0
1070
    74
1070
     0
1070
    77
1070
     1
1070
    78
1070
     8
1070
    79
1070
     2
1070
   140
1040
3.5
1070
   141
1040
1.5
1070
   146
1040
0.5142857142857144
1070
   147
1040
1.5
1070
   172
1070
     1
1070
   178
1070
     1
1070
   179
1070
     2
1070
   271
1070
     2
1070
   272
1070
     2
1070
   284
1070
     8
1070
   285
1070
     8
1070
   286
1070
     8
1002
}
  0
POLYLINE
  5
469
330
1E
100
AcDbEntity
  8
HILF
100
AcDb2dPolyline
 66
     1
 10
0.0
 20
0.0
 30
0.0
 70
     4
 75
     6
  0
VERTEX
  5
46A
330
469
100
AcDbEntity
  8
HILF
100
AcDbVertex
100
AcDb2dVertex
 10
323.5851630329539
 20
381.2712143122669
 30
0.0
 70
    16
  0
VERTEX
  5
46B
330
469
100
AcDbEntity
  8
HILF
100
AcDbVertex
100
AcDb2dVertex
 10
323.5851630329539
 20
381.2712143122669
 30
0.0
 70
     8
  0
VERTEX
  5
46C
330
469
100
AcDbEntity
  8
HILF
100
AcDbVertex
100
AcDb2dVertex
 10
320.7456481025786
 20
373.6233087185944
 30
0.0
 70
     8
  0
VERTEX
  5
46D
330
469
100
AcDbEntity
  8
HILF
100
AcDbVertex
100
AcDb2dVertex
 10
318.7927176606008
 20
366.9924222258668
 30
0.0
 70
     8
  0
VERTEX
  5
46E
330
469
100
AcDbEntity
  8
HILF
100
AcDbVertex
100
AcDb2dVertex
 10
317.6163869826496
 20
361.2465832991423
 30
0.0
 70
     8
  0
VERTEX
  5
46F
330
469
100
AcDbEntity
  8
HILF
100
AcDbVertex
100
AcDb2dVertex
 10
317.1066713443538
 20
356.2538204034788
 30
0.0
 70
     8
  0
VERTEX
  5
470
330
469
100
AcDbEntity
  8
HILF
100
AcDbVertex
100
AcDb2dVertex
 10
317.153586021342
 20
351.8821620039342
 30
0.0
 70
     8
  0
VERTEX
  5
471
330
469
100
AcDbEntity
  8
HILF
100
AcDbVertex
100
AcDb2dVertex
 10
317.6471462892432
 20
347.9996365655667
 30
0.0
 70
     8
  0
VERTEX
  5
472
330
469
100
AcDbEntity
  8
HILF
100
AcDbVertex
100
AcDb2dVertex
 10
318.4773674236861
 20
344.4742725534344
 30
0.0
 70
     8
  0
VERTEX
  5
473
330
469
100
AcDbEntity
  8
HILF
100
AcDbVertex
100
AcDb2dVertex
 10
319.5342647002997
 20
341.1740984325951
 30
0.0
 70
     8
  0
VERTEX
  5
474
330
469
100
AcDbEntity
  8
HILF
100
AcDbVertex
100
AcDb2dVertex
 10
320.6987478070895
 20
337.9695416074681
 30
0.0
 70
     8
  0
VERTEX
  5
475
330
469
100
AcDbEntity
  8
HILF
100
AcDbVertex
100
AcDb2dVertex
 10
321.8153040815688
 20
334.7406252399167
 30
0.0
 70
     8
  0
VERTEX
  5
476
330
469
100
AcDbEntity
  8
HILF
100
AcDbVertex
100
AcDb2dVertex
 10
322.7193152736279
 20
331.3697714311654
 30
0.0
 70
     8
  0
VERTEX
  5
477
330
469
100
AcDbEntity
  8
HILF
100
AcDbVertex
100
AcDb2dVertex
 10
323.2461631331566
 20
327.7394022824387
 30
0.0
 70
     8
  0
VERTEX
  5
478
330
469
100
AcDbEntity
  8
HILF
100
AcDbVertex
100
AcDb2dVertex
 10
323.2312294100454
 20
323.731939894961
 30
0.0
 70
     8
  0
VERTEX
  5
479
330
469
100
AcDbEntity
  8
HILF
100
AcDbVertex
100
AcDb2dVertex
 10
322.5098958541843
 20
319.2298063699568
 30
0.0
 70
     8
  0
VERTEX
  5
47A
330
469
100
AcDbEntity
  8
HILF
100
AcDbVertex
100
AcDb2dVertex
 10
320.9175442154633
 20
314.1154238086506
 30
0.0
 70
     8
  0
VERTEX
  5
47B
330
469
100
AcDbEntity
  8
HILF
100
AcDbVertex
100
AcDb2dVertex
 10
318.2895562437727
 20
308.2712143122669
 30
0.0
 70
     8
  0
VERTEX
  5
47C
330
469
100
AcDbEntity
  8
HILF
100
AcDbVertex
100
AcDb2dVertex
 10
314.7332463679816
 20
359.4034658968208
 30
0.0
 70
    16
  0
VERTEX
  5
47D
330
469
100
AcDbEntity
  8
HILF
100
AcDbVertex
100
AcDb2dVertex
 10
318.2895562437727
 20
340.1797692981828
 30
0.0
 70
    16
  0
VERTEX
  5
47E
330
469
100
AcDbEntity
  8
HILF
100
AcDbVertex
100
AcDb2dVertex
 10
326.8246999456716
 20
324.933389237194
 30
0.0
 70
    16
  0
VERTEX
  5
47F
330
469
100
AcDbEntity
  8
HILF
100
AcDbVertex
100
AcDb2dVertex
 10
318.2895562437727
 20
308.2712143122669
 30
0.0
 70
    16
  0
SEQEND
  5
480
330
469
100
AcDbEntity
  8
HILF
  0
POLYLINE
  5
481
330
1E
100
AcDbEntity
  8
HILF
100
AcDb2dPolyline
 66
     1
 10
0.0
 20
0.0
 30
0.0
 70
     4
 75
     6
  0
VERTEX
  5
482
330
481
100
AcDbEntity
  8
HILF
100
AcDbVertex
100
AcDb2dVertex
 10
326.5851630329539
 20
381.2712143122669
 30
0.0
 70
    16
  0
VERTEX
  5
483
330
481
100
AcDbEntity
  8
HILF
100
AcDbVertex
100
AcDb2dVertex
 10
326.5851630329539
 20
381.2712143122669
 30
0.0
 70
     8
  0
VERTEX
  5
484
330
481
100
AcDbEntity
  8
HILF
100
AcDbVertex
100
AcDb2dVertex
 10
323.7456481025786
 20
373.6233087185944
 30
0.0
 70
     8
  0
VERTEX
  5
485
330
481
100
AcDbEntity
  8
HILF
100
AcDbVertex
100
AcDb2dVertex
 10
321.7927176606008
 20
366.9924222258668
 30
0.0
 70
     8
  0
VERTEX
  5
486
330
481
100
AcDbEntity
  8
HILF
100
AcDbVertex
100
AcDb2dVertex
 10
320.6163869826496
 20
361.2465832991423
 30
0.0
 70
     8
  0
VERTEX
  5
487
330
481
100
AcDbEntity
  8
HILF
100
AcDbVertex
100
AcDb2dVertex
 10
320.1066713443538
 20
356.2538204034788
 30
0.0
 70
     8
  0
VERTEX
  5
488
330
481
100
AcDbEntity
  8
HILF
100
AcDbVertex
100
AcDb2dVertex
 10
320.153586021342
 20
351.8821620039342
 30
0.0
 70
     8
  0
VERTEX
  5
489
330
481
100
AcDbEntity
  8
HILF
100
AcDbVertex
100
AcDb2dVertex
 10
320.6471462892432
 20
347.9996365655667
 30
0.0
 70
     8
  0
VERTEX
  5
48A
330
481
100
AcDbEntity
  8
HILF
100
AcDbVertex
100
AcDb2dVertex
 10
321.4773674236861
 20
344.4742725534344
 30
0.0
 70
     8
  0
VERTEX
  5
48B
330
481
100
AcDbEntity
  8
HILF
100
AcDbVertex
100
AcDb2dVertex
 10
322.5342647002997
 20
341.1740984325951
 30
0.0
 70
     8
  0
VERTEX
  5
48C
330
481
100
AcDbEntity
  8
HILF
100
AcDbVertex
100
AcDb2dVertex
 10
323.6987478070895
 20
337.9695416074681
 30
0.0
 70
     8
  0
VERTEX
  5
48D
330
481
100
AcDbEntity
  8
HILF
100
AcDbVertex
100
AcDb2dVertex
 10
324.8153040815688
 20
334.7406252399167
 30
0.0
 70
     8
  0
VERTEX
  5
48E
330
481
100
AcDbEntity
  8
HILF
100
AcDbVertex
100
AcDb2dVertex
 10
325.7193152736279
 20
331.3697714311654
 30
0.0
 70
     8
  0
VERTEX
  5
48F
330
481
100
AcDbEntity
  8
HILF
100
AcDbVertex
100
AcDb2dVertex
 10
326.2461631331567
 20
327.7394022824387
 30
0.0
 70
     8
  0
VERTEX
  5
490
330
481
100
AcDbEntity
  8
HILF
100
AcDbVertex
100
AcDb2dVertex
 10
326.2312294100454
 20
323.731939894961
 30
0.0
 70
     8
  0
VERTEX
  5
491
330
481
100
AcDbEntity
  8
HILF
100
AcDbVertex
100
AcDb2dVertex
 10
325.5098958541843
 20
319.2298063699568
 30
0.0
 70
     8
  0
VERTEX
  5
492
330
481
100
AcDbEntity
  8
HILF
100
AcDbVertex
100
AcDb2dVertex
 10
323.9175442154633
 20
314.1154238086506
 30
0.0
 70
     8
  0
VERTEX
  5
493
330
481
100
AcDbEntity
  8
HILF
100
AcDbVertex
100
AcDb2dVertex
 10
321.2895562437727
 20
308.2712143122669
 30
0.0
 70
     8
  0
VERTEX
  5
494
330
481
100
AcDbEntity
  8
HILF
100
AcDbVertex
100
AcDb2dVertex
 10
317.7332463679816
 20
359.4034658968208
 30
0.0
 70
    16
  0
VERTEX
  5
495
330
481
100
AcDbEntity
  8
HILF
100
AcDbVertex
100
AcDb2dVertex
 10
321.2895562437727
 20
340.1797692981828
 30
0.0
 70
    16
  0
VERTEX
  5
496
330
481
100
AcDbEntity
  8
HILF
100
AcDbVertex
100
AcDb2dVertex
 10
329.8246999456716
 20
324.933389237194
 30
0.0
 70
    16
  0
VERTEX
  5
497
330
481
100
AcDbEntity
  8
HILF
100
AcDbVertex
100
AcDb2dVertex
 10
321.2895562437727
 20
308.2712143122669
 30
0.0
 70
    16
  0
SEQEND
  5
498
330
481
100
AcDbEntity
  8
HILF
  0
LINE
  5
499
330
1E
100
AcDbEntity
  8
STEMPEL
100
AcDbLine
 10
89.40813737682219
 20
308.2712143122671
 30
0.0
 11
89.40813737682219
 21
381.2712143122671
 31
0.0
  0
DIMENSION
  5
49A
330
1E
100
AcDbEntity
  8
BEM
100
AcDbDimension
  2
*D4
 10
76.46060062982122
 20
381.2712143122671
 30
0.0
 11
69.96060062982114
 21
344.7712143122671
 31
0.0
 70
    32
  1
%%c<>
 71
     5
 42
73.0
  3
Standard
100
AcDbAlignedDimension
 13
89.40813737682219
 23
308.2712143122671
 33
0.0
 14
89.40813737682219
 24
381.2712143122671
 34
0.0
 50
90.0
100
AcDbRotatedDimension
1001
ACAD
1000
DSTYLE
1002
{
1070
    40
1040
2.0
1070
    41
1040
3.5
1070
    42
1040
1.0
1070
    43
1040
7.0
1070
    44
1040
1.0
1070
    73
1070
     0
1070
    74
1070
     0
1070
    77
1070
     1
1070
    78
1070
     8
1070
    79
1070
     2
1070
   140
1040
3.5
1070
   141
1040
1.5
1070
   146
1040
0.5142857142857144
1070
   147
1040
1.5
1070
   172
1070
     1
1070
   178
1070
     1
1070
   179
1070
     2
1070
   271
1070
     2
1070
   272
1070
     2
1070
   284
1070
     8
1070
   285
1070
     8
1070
   286
1070
     8
1002
}
  0
LINE
  5
49B
102
{ACAD_REACTORS
330
53B
102
}
330
1E
100
AcDbEntity
  8
STEMPEL
100
AcDbLine
 10
323.585163032954
 20
381.271214312267
 30
0.0
 11
89.40813737682219
 21
381.2712143122671
 31
0.0
  0
LINE
  5
49C
330
1E
100
AcDbEntity
  8
STEMPEL
100
AcDbLine
 10
318.2895562437729
 20
308.2712143122671
 30
0.0
 11
89.40813737682219
 21
308.2712143122671
 31
0.0
  0
LINE
  5
49D
330
1E
100
AcDbEntity
  8
STEMPEL
100
AcDbLine
 10
666.4854334384003
 20
381.2712143122671
 30
0.0
 11
326.585163032954
 21
381.271214312267
 31
0.0
  0
LINE
  5
49E
330
1E
100
AcDbEntity
  8
STEMPEL
100
AcDbLine
 10
666.5852590754387
 20
308.2712143122671
 30
0.0
 11
321.2895562437728
 21
308.2712143122671
 31
0.0
  0
LINE
  5
49F
330
1E
100
AcDbEntity
  8
MITTEL
100
AcDbLine
 10
796.8918587400076
 20
344.7712143122671
 30
0.0
 11
84.40813737682219
 21
344.7712143122671
 31
0.0
  0
DIMENSION
  5
4A0
330
1E
100
AcDbEntity
  8
BEM
100
AcDbDimension
  2
*D5
 10
791.8918587400075
 20
260.8455402401361
 30
0.0
 11
440.6499980584149
 21
267.3455402401361
 31
0.0
 70
    32
  1
1000
 71
     5
 42
702.4837213631854
  3
Standard
100
AcDbAlignedDimension
 13
89.40813737682219
 23
308.9711236204748
 33
0.0
 14
791.8918587400075
 24
305.0058169839917
 34
0.0
100
AcDbRotatedDimension
1001
ACAD
1000
DSTYLE
1002
{
1070
    40
1040
2.0
1070
    41
1040
3.5
1070
    42
1040
1.0
1070
    43
1040
7.0
1070
    44
1040
1.0
1070
    73
1070
     0
1070
    74
1070
     0
1070
    77
1070
     1
1070
    78
1070
     8
1070
    79
1070
     2
1070
   140
1040
3.5
1070
   141
1040
1.5
1070
   146
1040
0.5142857142857144
1070
   147
1040
1.5
1070
   172
1070
     1
1070
   178
1070
     1
1070
   179
1070
     2
1070
   271
1070
     2
1070
   272
1070
     2
1070
   284
1070
     8
1070
   285
1070
     8
1070
   286
1070
     8
1002
}
  0
HATCH
  5
53B
330
1E
100
AcDbEntity
  8
SCHRAFF
100
AcDbHatch
 10
0.0
 20
0.0
 30
0.0
210
0.0
220
0.0
230
1.0
  2
_USER
 70
     0
 71
     1
 91
        1
 92
        7
 72
     0
 73
     1
 93
        5
 10
230.509270677134
 20
379.6712143122671
 10
230.5320203719163
 20
379.8064217651889
 10
230.6223528817257
 20
381.271214312267
 10
187.7991736857115
 20
381.271214312267
 10
188.6460701086767
 20
379.6712143122671
 97
        3
330
49B
330
416
330
453
 75
     0
 76
     0
 52
45.0
 41
2.0
 77
     0
 78
     1
 53
45.0
 43
0.0
 44
0.0
 45
-1.414213562373094
 46
1.414213562373095
 79
     0
 47
0.1401577498065727
 98
        1
 10
213.9078632271258
 20
380.4251613411068
  0
ENDSEC
  0
SECTION
  2
OBJECTS
  0
DICTIONARY
  5
C
330
0
100
AcDbDictionary
281
     1
  3
ACAD_COLOR
350
11A
  3
ACAD_GROUP
350
D
  3
ACAD_LAYOUT
350
19
  3
ACAD_MATERIAL
350
119
  3
ACAD_MLINESTYLE
350
16
  3
ACAD_PLOTSETTINGS
350
18
  3
ACAD_PLOTSTYLENAME
350
E
  3
AcDbVariableDictionary
350
125
  0
DICTIONARY
  5
DB
330
1E
100
AcDbDictionary
280
     1
281
     1
  3
ACAD_LAYOUTSELFREF
360
10F
  0
DICTIONARY
  5
DD
330
1A
100
AcDbDictionary
280
     1
281
     1
  3
ACAD_LAYOUTSELFREF
360
10E
  0
DICTIONARY
  5
11A
102
{ACAD_REACTORS
330
C
102
}
330
C
100
AcDbDictionary
281
     1
  0
DICTIONARY
  5
D
102
{ACAD_REACTORS
330
C
102
}
330
C
100
AcDbDictionary
281
     1
  0
DICTIONARY
  5
19
102
{ACAD_REACTORS
330
C
102
}
330
C
100
AcDbDictionary
281
     1
  3
Layout1
350
1D
  3
Model
350
21
  0
DICTIONARY
  5
119
102
{ACAD_REACTORS
330
C
102
}
330
C
100
AcDbDictionary
281
     1
  0
DICTIONARY
  5
16
102
{ACAD_REACTORS
330
C
102
}
330
C
100
AcDbDictionary
281
     1
  3
Standard
350
17
  0
DICTIONARY
  5
18
102
{ACAD_REACTORS
330
C
102
}
330
C
100
AcDbDictionary
281
     1
  0
ACDBDICTIONARYWDFLT
  5
E
102
{ACAD_REACTORS
330
C
102
}
330
C
100
AcDbDictionary
281
     1
  3
Normal
350
F
100
AcDbDictionaryWithDefault
340
F
  0
DICTIONARY
  5
125
102
{ACAD_REACTORS
330
C
102
}
330
C
100
AcDbDictionary
281
     1
  3
DIMASSOC
350
126
  3
PROJECTNAME
350
127
  0
XRECORD
  5
10F
102
{ACAD_REACTORS
330
DB
102
}
330
DB
100
AcDbXrecord
280
     1
340
1E
  0
XRECORD
  5
10E
102
{ACAD_REACTORS
330
DD
102
}
330
DD
100
AcDbXrecord
280
     1
340
1A
  0
LAYOUT
  5
1D
102
{ACAD_REACTORS
330
19
102
}
330
19
100
AcDbPlotSettings
  1

  2
\\NT_WORK01\HP LaserJet 5000 PCL 6
  4

  6

 40
0.0
 41
0.0
 42
0.0
 43
0.0
 44
0.0
 45
0.0
 46
0.0
 47
0.0
 48
0.0
 49
0.0
140
0.0
141
0.0
142
1.0
143
1.0
 70
   688
 72
     0
 73
     0
 74
     5
  7

 75
    16
147
1.0
 76
     0
 77
     2
 78
   300
148
0.0
149
0.0
100
AcDbLayout
  1
Layout1
 70
     0
 71
     1
 10
0.0
 20
0.0
 11
12.0
 21
9.0
 12
0.0
 22
0.0
 32
0.0
 14
1.000000000000000E+20
 24
1.000000000000000E+20
 34
1.000000000000000E+20
 15
-1.000000000000000E+20
 25
-1.000000000000000E+20
 35
-1.000000000000000E+20
146
0.0
 13
0.0
 23
0.0
 33
0.0
 16
1.0
 26
0.0
 36
0.0
 17
0.0
 27
1.0
 37
0.0
 76
     0
330
1A
  0
LAYOUT
  5
21
102
{ACAD_REACTORS
330
19
102
}
330
19
100
AcDbPlotSettings
  1

  2
none_device
  4
Letter_(8.50_x_11.00_Inches)
  6

 40
6.349999904632568
 41
6.349999904632568
 42
6.350006103515625
 43
6.350006103515625
 44
215.8999938964844
 45
279.3999938964844
 46
0.0
 47
0.0
 48
0.0
 49
0.0
140
0.0
141
0.0
142
1.0
143
1.0
 70
 11952
 72
     0
 73
     1
 74
     0
  7

 75
     0
147
1.0
 76
     0
 77
     2
 78
   300
148
-2639.503465907962
149
484.8571027101871
100
AcDbLayout
  1
Model
 70
     1
 71
     0
 10
0.0
 20
0.0
 11
12.0
 21
9.0
 12
0.0
 22
0.0
 32
0.0
 14
0.0
 24
0.0
 34
0.0
 15
0.0
 25
0.0
 35
0.0
146
0.0
 13
0.0
 23
0.0
 33
0.0
 16
1.0
 26
0.0
 36
0.0
 17
0.0
 27
1.0
 37
0.0
 76
     0
330
1E
  0
MLINESTYLE
  5
17
102
{ACAD_REACTORS
330
16
102
}
330
16
100
AcDbMlineStyle
  2
STANDARD
 70
     0
  3

 62
   256
 51
90.0
 52
90.0
 71
     2
 49
0.5
 62
   256
  6
BYLAYER
 49
-0.5
 62
   256
  6
BYLAYER
  0
ACDBPLACEHOLDER
  5
F
102
{ACAD_REACTORS
330
E
102
}
330
E
  0
DICTIONARYVAR
  5
126
102
{ACAD_REACTORS
330
125
102
}
330
125
100
DictionaryVariables
280
     0
  1
1
  0
DICTIONARYVAR
  5
127
102
{ACAD_REACTORS
330
125
102
}
330
125
100
DictionaryVariables
280
     0
  1

  0
ENDSEC
  0
EOF
