  0
SECTION
  2
HEADER
  9
$ACADVER
  1
AC1018
  9
$ACADMAINTVER
 70
     2
  9
$DWGCODEPAGE
  3
ANSI_1252
  9
$INSBASE
 10
0.0
 20
0.0
 30
0.0
  9
$EXTMIN
 10
-0.0618756660201143
 20
-0.0240609251331989
 30
-0.0000000000000053
  9
$EXTMAX
 10
840.0022050798114
 20
594.0247285328551
 30
0.0000000000000099
  9
$LIMMIN
 10
0.0
 20
0.0
  9
$LIMMAX
 10
840.0000000000002
 20
593.9999999999998
  9
$ORTHOMODE
 70
     1
  9
$REGENMODE
 70
     1
  9
$FILLMODE
 70
     1
  9
$QTEXTMODE
 70
     0
  9
$MIRRTEXT
 70
     1
  9
$LTSCALE
 40
20.0
  9
$ATTMODE
 70
     1
  9
$TEXTSIZE
 40
3.5
  9
$TRACEWID
 40
1.0
  9
$TEXTSTYLE
  7
STANDARD
  9
$CLAYER
  8
VOLL
  9
$CELTYPE
  6
ByLayer
  9
$CECOLOR
 62
   256
  9
$CELTSCALE
 40
1.0
  9
$DISPSILH
 70
     0
  9
$DIMSCALE
 40
2.0
  9
$DIMASZ
 40
3.5
  9
$DIMEXO
 40
1.0
  9
$DIMDLI
 40
7.0
  9
$DIMRND
 40
0.0
  9
$DIMDLE
 40
0.0
  9
$DIMEXE
 40
1.0
  9
$DIMTP
 40
0.0
  9
$DIMTM
 40
0.0
  9
$DIMTXT
 40
3.5
  9
$DIMCEN
 40
1.5
  9
$DIMTSZ
 40
0.0
  9
$DIMTOL
 70
     0
  9
$DIMLIM
 70
     0
  9
$DIMTIH
 70
     0
  9
$DIMTOH
 70
     0
  9
$DIMSE1
 70
     0
  9
$DIMSE2
 70
     0
  9
$DIMTAD
 70
     1
  9
$DIMZIN
 70
     8
  9
$DIMBLK
  1

  9
$DIMASO
 70
     1
  9
$DIMSHO
 70
     0
  9
$DIMPOST
  1

  9
$DIMAPOST
  1

  9
$DIMALT
 70
     0
  9
$DIMALTD
 70
     2
  9
$DIMALTF
 40
25.4
  9
$DIMLFAC
 40
1.0
  9
$DIMTOFL
 70
     1
  9
$DIMTVP
 40
0.0
  9
$DIMTIX
 70
     0
  9
$DIMSOXD
 70
     0
  9
$DIMSAH
 70
     0
  9
$DIMBLK1
  1

  9
$DIMBLK2
  1

  9
$DIMSTYLE
  2
Standard
  9
$DIMCLRD
 70
     0
  9
$DIMCLRE
 70
     0
  9
$DIMCLRT
 70
     1
  9
$DIMTFAC
 40
0.5142857142857144
  9
$DIMGAP
 40
1.5
  9
$DIMJUST
 70
     0
  9
$DIMSD1
 70
     0
  9
$DIMSD2
 70
     0
  9
$DIMTOLJ
 70
     1
  9
$DIMTZIN
 70
     8
  9
$DIMALTZ
 70
     8
  9
$DIMALTTZ
 70
     8
  9
$DIMUPT
 70
     0
  9
$DIMDEC
 70
     2
  9
$DIMTDEC
 70
     2
  9
$DIMALTU
 70
     2
  9
$DIMALTTD
 70
     2
  9
$DIMTXSTY
  7
STANDARD
  9
$DIMAUNIT
 70
     0
  9
$DIMADEC
 70
     2
  9
$DIMALTRND
 40
0.0
  9
$DIMAZIN
 70
     2
  9
$DIMDSEP
 70
    46
  9
$DIMATFIT
 70
     3
  9
$DIMFRAC
 70
     0
  9
$DIMLDRBLK
  1

  9
$DIMLUNIT
 70
     2
  9
$DIMLWD
 70
    -2
  9
$DIMLWE
 70
    -2
  9
$DIMTMOVE
 70
     0
  9
$LUNITS
 70
     2
  9
$LUPREC
 70
     2
  9
$SKETCHINC
 40
1.0
  9
$FILLETRAD
 40
0.0
  9
$AUNITS
 70
     0
  9
$AUPREC
 70
     0
  9
$MENU
  1
ACAD
  9
$ELEVATION
 40
0.0
  9
$PELEVATION
 40
0.0
  9
$THICKNESS
 40
0.0
  9
$LIMCHECK
 70
     0
  9
$CHAMFERA
 40
0.0
  9
$CHAMFERB
 40
0.0
  9
$CHAMFERC
 40
0.0
  9
$CHAMFERD
 40
0.0
  9
$SKPOLY
 70
     0
  9
$TDCREATE
 40
2455397.825393172
  9
$TDUCREATE
 40
2455397.783726505
  9
$TDUPDATE
 40
2456230.351578091
  9
$TDUUPDATE
 40
2456230.309911424
  9
$TDINDWG
 40
0.0681008218
  9
$TDUSRTIMER
 40
0.0681008218
  9
$USRTIMER
 70
     1
  9
$ANGBASE
 50
0.0
  9
$ANGDIR
 70
     0
  9
$PDMODE
 70
     0
  9
$PDSIZE
 40
0.0
  9
$PLINEWID
 40
0.0
  9
$SPLFRAME
 70
     0
  9
$SPLINETYPE
 70
     6
  9
$SPLINESEGS
 70
     8
  9
$HANDSEED
  5
1B23
  9
$SURFTAB1
 70
     6
  9
$SURFTAB2
 70
     6
  9
$SURFTYPE
 70
     6
  9
$SURFU
 70
     6
  9
$SURFV
 70
     6
  9
$UCSBASE
  2

  9
$UCSNAME
  2

  9
$UCSORG
 10
0.0
 20
0.0
 30
0.0
  9
$UCSXDIR
 10
1.0
 20
0.0
 30
0.0
  9
$UCSYDIR
 10
0.0
 20
1.0
 30
0.0
  9
$UCSORTHOREF
  2

  9
$UCSORTHOVIEW
 70
     0
  9
$UCSORGTOP
 10
0.0
 20
0.0
 30
0.0
  9
$UCSORGBOTTOM
 10
0.0
 20
0.0
 30
0.0
  9
$UCSORGLEFT
 10
0.0
 20
0.0
 30
0.0
  9
$UCSORGRIGHT
 10
0.0
 20
0.0
 30
0.0
  9
$UCSORGFRONT
 10
0.0
 20
0.0
 30
0.0
  9
$UCSORGBACK
 10
0.0
 20
0.0
 30
0.0
  9
$PUCSBASE
  2

  9
$PUCSNAME
  2

  9
$PUCSORG
 10
0.0
 20
0.0
 30
0.0
  9
$PUCSXDIR
 10
1.0
 20
0.0
 30
0.0
  9
$PUCSYDIR
 10
0.0
 20
1.0
 30
0.0
  9
$PUCSORTHOREF
  2

  9
$PUCSORTHOVIEW
 70
     0
  9
$PUCSORGTOP
 10
0.0
 20
0.0
 30
0.0
  9
$PUCSORGBOTTOM
 10
0.0
 20
0.0
 30
0.0
  9
$PUCSORGLEFT
 10
0.0
 20
0.0
 30
0.0
  9
$PUCSORGRIGHT
 10
0.0
 20
0.0
 30
0.0
  9
$PUCSORGFRONT
 10
0.0
 20
0.0
 30
0.0
  9
$PUCSORGBACK
 10
0.0
 20
0.0
 30
0.0
  9
$USERI1
 70
     0
  9
$USERI2
 70
     0
  9
$USERI3
 70
     0
  9
$USERI4
 70
     0
  9
$USERI5
 70
     0
  9
$USERR1
 40
0.0
  9
$USERR2
 40
0.0
  9
$USERR3
 40
0.0
  9
$USERR4
 40
0.0
  9
$USERR5
 40
0.0
  9
$WORLDVIEW
 70
     1
  9
$SHADEDGE
 70
     3
  9
$SHADEDIF
 70
    70
  9
$TILEMODE
 70
     1
  9
$MAXACTVP
 70
    16
  9
$PINSBASE
 10
0.0
 20
0.0
 30
0.0
  9
$PLIMCHECK
 70
     0
  9
$PEXTMIN
 10
1.000000000000000E+20
 20
1.000000000000000E+20
 30
1.000000000000000E+20
  9
$PEXTMAX
 10
-1.000000000000000E+20
 20
-1.000000000000000E+20
 30
-1.000000000000000E+20
  9
$PLIMMIN
 10
0.0
 20
0.0
  9
$PLIMMAX
 10
12.0
 20
9.0
  9
$UNITMODE
 70
     0
  9
$VISRETAIN
 70
     0
  9
$PLINEGEN
 70
     0
  9
$PSLTSCALE
 70
     0
  9
$TREEDEPTH
 70
  3020
  9
$CMLSTYLE
  2
Standard
  9
$CMLJUST
 70
     0
  9
$CMLSCALE
 40
1.0
  9
$PROXYGRAPHICS
 70
     1
  9
$MEASUREMENT
 70
     0
  9
$CELWEIGHT
370
    -1
  9
$ENDCAPS
280
     0
  9
$JOINSTYLE
280
     0
  9
$LWDISPLAY
290
     0
  9
$INSUNITS
 70
     0
  9
$HYPERLINKBASE
  1

  9
$STYLESHEET
  1
monochrome 1.ctb
  9
$XEDIT
290
     1
  9
$CEPSNTYPE
380
     0
  9
$PSTYLEMODE
290
     1
  9
$FINGERPRINTGUID
  2
{D68B0D0D-A558-11D7-B632-000102183313}
  9
$VERSIONGUID
  2
{15FBB57F-0EFF-4CEB-A29F-0F86F0ED1596}
  9
$EXTNAMES
290
     1
  9
$PSVPSCALE
 40
0.0
  9
$OLESTARTUP
290
     0
  9
$SORTENTS
280
   127
  9
$INDEXCTL
280
     0
  9
$HIDETEXT
280
     0
  9
$XCLIPFRAME
290
     0
  9
$HALOGAP
280
     0
  9
$OBSCOLOR
 70
   257
  9
$OBSLTYPE
280
     0
  9
$INTERSECTIONDISPLAY
280
     0
  9
$INTERSECTIONCOLOR
 70
   257
  9
$DIMASSOC
280
     1
  9
$PROJECTNAME
  1

  0
ENDSEC
  0
SECTION
  2
CLASSES
  0
CLASS
  1
ACDBDICTIONARYWDFLT
  2
AcDbDictionaryWithDefault
  3
ObjectDBX Classes
 90
        0
 91
        1
280
     0
281
     0
  0
CLASS
  1
DICTIONARYVAR
  2
AcDbDictionaryVar
  3
ObjectDBX Classes
 90
        0
 91
        2
280
     0
281
     0
  0
ENDSEC
  0
SECTION
  2
TABLES
  0
TABLE
  2
VPORT
  5
8
330
0
100
AcDbSymbolTable
 70
     3
  0
VPORT
  5
1B22
330
8
100
AcDbSymbolTableRecord
100
AcDbViewportTableRecord
  2
*Active
 70
     0
 10
0.0
 20
0.0
 11
1.0
 21
1.0
 12
420.0000000000001
 22
296.9999999999999
 13
0.0
 23
0.0
 14
1.0
 24
1.0
 15
10.0
 25
10.0
 16
0.0
 26
0.0
 36
1.0
 17
0.0
 27
0.0
 37
0.0
 40
598.0776114931626
 41
1.404858299595141
 42
50.0
 43
0.0
 44
0.0
 50
0.0
 51
0.0
 71
     0
 72
  1500
 73
     1
 74
     0
 75
     0
 76
     0
 77
     0
 78
     0
281
     0
 65
     1
110
0.0
120
0.0
130
0.0
111
1.0
121
0.0
131
0.0
112
0.0
122
1.0
132
0.0
 79
     0
146
0.0
  0
ENDTAB
  0
TABLE
  2
LTYPE
  5
5
330
0
100
AcDbSymbolTable
 70
     2
  0
LTYPE
  5
13
330
5
100
AcDbSymbolTableRecord
100
AcDbLinetypeTableRecord
  2
ByBlock
 70
     0
  3

 72
    65
 73
     0
 40
0.0
  0
LTYPE
  5
14
330
5
100
AcDbSymbolTableRecord
100
AcDbLinetypeTableRecord
  2
ByLayer
 70
     0
  3

 72
    65
 73
     0
 40
0.0
  0
LTYPE
  5
15
330
5
100
AcDbSymbolTableRecord
100
AcDbLinetypeTableRecord
  2
Continuous
 70
     0
  3
Solid line
 72
    65
 73
     0
 40
0.0
  0
LTYPE
  5
25
330
5
100
AcDbSymbolTableRecord
100
AcDbLinetypeTableRecord
  2
STRICHPUNKT
 70
     0
  3
__ . __ . __ . __ . __ . __ . __ . __ . __ . __
 72
    65
 73
     4
 40
1.0
 49
0.5
 74
     0
 49
-0.25
 74
     0
 49
0.0
 74
     0
 49
-0.25
 74
     0
  0
ENDTAB
  0
TABLE
  2
LAYER
  5
2
330
0
100
AcDbSymbolTable
 70
     9
  0
LAYER
  5
10
330
2
100
AcDbSymbolTableRecord
100
AcDbLayerTableRecord
  2
0
 70
     0
 62
     7
  6
Continuous
370
    -3
390
F
  0
LAYER
  5
2B
330
2
100
AcDbSymbolTableRecord
100
AcDbLayerTableRecord
  2
VOLL
 70
     0
 62
     1
  6
Continuous
370
    -3
390
F
  0
LAYER
  5
2C
330
2
100
AcDbSymbolTableRecord
100
AcDbLayerTableRecord
  2
HILF
 70
     0
 62
     2
  6
Continuous
370
    -3
390
F
  0
LAYER
  5
2D
330
2
100
AcDbSymbolTableRecord
100
AcDbLayerTableRecord
  2
MITTEL
 70
     0
 62
     2
  6
STRICHPUNKT
370
    -3
390
F
  0
LAYER
  5
2F
330
2
100
AcDbSymbolTableRecord
100
AcDbLayerTableRecord
  2
BEM
 70
     0
 62
     7
  6
Continuous
370
    -3
390
F
  0
LAYER
  5
30
330
2
100
AcDbSymbolTableRecord
100
AcDbLayerTableRecord
  2
STEMPEL
 70
     0
 62
     3
  6
Continuous
370
    -3
390
F
  0
LAYER
  5
33
330
2
100
AcDbSymbolTableRecord
100
AcDbLayerTableRecord
  2
TEXT
 70
     0
 62
     7
  6
Continuous
370
    -3
390
F
  0
LAYER
  5
239
330
2
100
AcDbSymbolTableRecord
100
AcDbLayerTableRecord
  2
SCHRAFF
 70
     0
 62
     7
  6
Continuous
370
    -3
390
F
  0
LAYER
  5
23A
330
2
100
AcDbSymbolTableRecord
100
AcDbLayerTableRecord
  2
DEFPOINTS
 70
     0
 62
     7
  6
Continuous
290
     0
370
    -3
390
F
  0
ENDTAB
  0
TABLE
  2
STYLE
  5
3
330
0
100
AcDbSymbolTable
 70
     2
  0
STYLE
  5
11
330
3
100
AcDbSymbolTableRecord
100
AcDbTextStyleTableRecord
  2
STANDARD
 70
     0
 40
0.0
 41
0.8
 50
0.0
 71
     0
 42
3.5
  3
simplex.shx
  4

  0
STYLE
  5
24
330
3
100
AcDbSymbolTableRecord
100
AcDbTextStyleTableRecord
  2
GREEKS
 70
     0
 40
0.0
 41
0.8
 50
0.0
 71
     0
 42
2.5
  3
SIMPLEX.shx
  4

  0
ENDTAB
  0
TABLE
  2
VIEW
  5
6
330
0
100
AcDbSymbolTable
 70
     0
  0
ENDTAB
  0
TABLE
  2
UCS
  5
7
330
0
100
AcDbSymbolTable
 70
     0
  0
ENDTAB
  0
TABLE
  2
APPID
  5
9
330
0
100
AcDbSymbolTable
 70
     1
  0
APPID
  5
12
330
9
100
AcDbSymbolTableRecord
100
AcDbRegAppTableRecord
  2
ACAD
 70
     0
  0
ENDTAB
  0
TABLE
  2
DIMSTYLE
  5
A
330
0
100
AcDbSymbolTable
 70
     1
100
AcDbDimStyleTable
 71
     1
340
A2
  0
DIMSTYLE
105
A2
102
{ACAD_REACTORS
330
18CF
330
18C9
330
18C8
330
1891
330
1888
330
1884
102
}
330
A
100
AcDbSymbolTableRecord
100
AcDbDimStyleTableRecord
  2
Standard
 70
     0
340
11
  0
ENDTAB
  0
TABLE
  2
BLOCK_RECORD
  5
1
330
0
100
AcDbSymbolTable
 70
    12
  0
BLOCK_RECORD
  5
1E
102
{ACAD_XDICTIONARY
360
DB
102
}
330
1
100
AcDbSymbolTableRecord
100
AcDbBlockTableRecord
  2
*Model_Space
340
21
  0
BLOCK_RECORD
  5
1A
102
{ACAD_XDICTIONARY
360
DD
102
}
330
1
100
AcDbSymbolTableRecord
100
AcDbBlockTableRecord
  2
*Paper_Space
340
1D
  0
BLOCK_RECORD
  5
22
330
1
100
AcDbSymbolTableRecord
100
AcDbBlockTableRecord
  2
LOGO
340
0
102
{BLKREFS
331
56
102
}
  0
BLOCK_RECORD
  5
23
330
1
100
AcDbSymbolTableRecord
100
AcDbBlockTableRecord
  2
LORO
340
0
102
{BLKREFS
331
9B
102
}
  0
BLOCK_RECORD
  5
14CC
330
1
100
AcDbSymbolTableRecord
100
AcDbBlockTableRecord
  2
*X2
340
0
102
{BLKREFS
331
1869
102
}
  0
BLOCK_RECORD
  5
1520
330
1
100
AcDbSymbolTableRecord
100
AcDbBlockTableRecord
  2
*X3
340
0
102
{BLKREFS
331
17D8
102
}
  0
BLOCK_RECORD
  5
1546
330
1
100
AcDbSymbolTableRecord
100
AcDbBlockTableRecord
  2
*X4
340
0
102
{BLKREFS
331
1868
102
}
  0
BLOCK_RECORD
  5
1583
330
1
100
AcDbSymbolTableRecord
100
AcDbBlockTableRecord
  2
8DI931D
340
0
102
{BLKREFS
331
1893
331
18BA
102
}
  0
BLOCK_RECORD
  5
1924
330
1
100
AcDbSymbolTableRecord
100
AcDbBlockTableRecord
  2
*D6
340
0
  0
BLOCK_RECORD
  5
1931
330
1
100
AcDbSymbolTableRecord
100
AcDbBlockTableRecord
  2
*D7
340
0
  0
BLOCK_RECORD
  5
193E
330
1
100
AcDbSymbolTableRecord
100
AcDbBlockTableRecord
  2
*D8
340
0
  0
BLOCK_RECORD
  5
194B
330
1
100
AcDbSymbolTableRecord
100
AcDbBlockTableRecord
  2
*D9
340
0
  0
BLOCK_RECORD
  5
1958
330
1
100
AcDbSymbolTableRecord
100
AcDbBlockTableRecord
  2
*D10
340
0
  0
BLOCK_RECORD
  5
1965
330
1
100
AcDbSymbolTableRecord
100
AcDbBlockTableRecord
  2
*D11
340
0
  0
ENDTAB
  0
ENDSEC
  0
SECTION
  2
BLOCKS
  0
BLOCK
  5
37
330
1E
100
AcDbEntity
  8
0
100
AcDbBlockBegin
  2
*Model_Space
 70
     0
 10
0.0
 20
0.0
 30
0.0
  3
*Model_Space
  1

  0
ENDBLK
  5
38
330
1E
100
AcDbEntity
  8
0
100
AcDbBlockEnd
  0
BLOCK
  5
35
330
1A
100
AcDbEntity
 67
     1
  8
0
100
AcDbBlockBegin
  2
*Paper_Space
 70
     0
 10
0.0
 20
0.0
 30
0.0
  3
*Paper_Space
  1

  0
ENDBLK
  5
36
330
1A
100
AcDbEntity
 67
     1
  8
0
100
AcDbBlockEnd
  0
BLOCK
  5
39
330
22
100
AcDbEntity
  8
0
100
AcDbBlockBegin
  2
LOGO
 70
     0
 10
0.0
 20
0.0
 30
0.0
  3
LOGO
  1

  0
ARC
  5
3A
330
22
100
AcDbEntity
  8
0
100
AcDbCircle
 10
11.59973089678112
 20
-9.271599258481501
 30
0.0
 40
4.5
100
AcDbArc
 50
270.0
 51
231.0575587310159
  0
LINE
  5
3B
330
22
100
AcDbEntity
  8
0
100
AcDbLine
 10
3.599730896781125
 20
-4.771599258481529
 30
0.0
 11
3.599730896781153
 21
-11.77159925848133
 31
0.0
  0
LINE
  5
3C
330
22
100
AcDbEntity
  8
0
100
AcDbLine
 10
2.599730896781125
 20
-4.771599258481529
 30
0.0
 11
2.599730896781153
 21
-11.77159925848133
 31
0.0
  0
CIRCLE
  5
3D
330
22
100
AcDbEntity
  8
0
100
AcDbCircle
 10
11.59973089678112
 20
-9.271599258481501
 30
0.0
 40
3.5
  0
ARC
  5
3E
330
22
100
AcDbEntity
  8
0
100
AcDbCircle
 10
31.59973089678115
 20
-9.271599258481472
 30
0.0
 40
4.5
100
AcDbArc
 50
270.0
 51
231.0575587310182
  0
LINE
  5
3F
330
22
100
AcDbEntity
  8
0
100
AcDbLine
 10
17.59973089678112
 20
-4.771599258481472
 30
0.0
 11
17.59973089678115
 21
-13.77159925848147
 31
0.0
  0
ARC
  5
40
330
22
100
AcDbEntity
  8
0
100
AcDbCircle
 10
22.59973089678116
 20
-7.271599258481472
 30
0.0
 40
2.5
100
AcDbArc
 50
293.1161887722295
 51
90.0
  0
CIRCLE
  5
41
330
22
100
AcDbEntity
  8
0
100
AcDbCircle
 10
31.59973089678115
 20
-9.271599258481472
 30
0.0
 40
3.5
  0
ARC
  5
42
330
22
100
AcDbEntity
  8
0
100
AcDbCircle
 10
4.599730896781153
 20
-11.77159925848133
 30
0.0
 40
1.0
100
AcDbArc
 50
180.0
 51
270.0
  0
ARC
  5
43
330
22
100
AcDbEntity
  8
0
100
AcDbCircle
 10
4.599730896781153
 20
-11.77159925848133
 30
0.0
 40
2.0
100
AcDbArc
 50
179.9999999999992
 51
270.0
  0
LINE
  5
44
330
22
100
AcDbEntity
  8
0
100
AcDbLine
 10
11.59973089678115
 20
-13.77159925848144
 30
0.0
 11
4.599730896781153
 21
-13.77159925848147
 31
0.0
  0
LINE
  5
45
330
22
100
AcDbEntity
  8
0
100
AcDbLine
 10
8.771303772034769
 20
-12.77159925848136
 30
0.0
 11
4.599730896781153
 21
-12.77159925848133
 31
0.0
  0
LINE
  5
46
330
22
100
AcDbEntity
  8
0
100
AcDbLine
 10
31.59973089678115
 20
-13.77159925848147
 30
0.0
 11
23.6715276665056
 21
-13.77159925848144
 31
0.0
  0
LINE
  5
47
330
22
100
AcDbEntity
  8
0
100
AcDbLine
 10
23.56565672307022
 20
-9.51278021337896
 30
0.0
 11
24.4388546544846
 21
-12.77159925848144
 31
0.0
  0
LINE
  5
48
330
22
100
AcDbEntity
  8
0
100
AcDbLine
 10
22.59973089678116
 20
-9.771599258481472
 30
0.0
 11
18.59973089678112
 21
-9.771599258481472
 31
0.0
  0
LINE
  5
49
330
22
100
AcDbEntity
  8
0
100
AcDbLine
 10
18.59973089678115
 20
-13.77159925848144
 30
0.0
 11
17.59973089678115
 21
-13.77159925848144
 31
0.0
  0
LINE
  5
4A
330
22
100
AcDbEntity
  8
0
100
AcDbLine
 10
18.59973089678115
 20
-9.771599258481472
 30
0.0
 11
18.59973089678115
 21
-13.77159925848144
 31
0.0
  0
LINE
  5
4B
330
22
100
AcDbEntity
  8
0
100
AcDbLine
 10
22.59973089678116
 20
-9.771599258481472
 30
0.0
 11
23.67152766650562
 21
-13.77159925848147
 31
0.0
  0
ARC
  5
4C
330
22
100
AcDbEntity
  8
0
100
AcDbCircle
 10
22.59973089678116
 20
-7.271599258481472
 30
0.0
 40
2.5
100
AcDbArc
 50
270.0
 51
270.0000000000007
  0
LINE
  5
4D
330
22
100
AcDbEntity
  8
0
100
AcDbLine
 10
28.77130377203494
 20
-12.77159925848147
 30
0.0
 11
24.43885465448463
 21
-12.77159925848144
 31
0.0
  0
LINE
  5
4E
330
22
100
AcDbEntity
  8
0
100
AcDbLine
 10
3.599730896781125
 20
-4.771599258481472
 30
0.0
 11
2.599730896781125
 21
-4.771599258481472
 31
0.0
  0
LINE
  5
4F
330
22
100
AcDbEntity
  8
0
100
AcDbLine
 10
22.59973089678116
 20
-8.771599258481472
 30
0.0
 11
18.59973089678115
 21
-8.771599258481472
 31
0.0
  0
LINE
  5
50
330
22
100
AcDbEntity
  8
0
100
AcDbLine
 10
22.59973089678116
 20
-5.771599258481472
 30
0.0
 11
18.59973089678115
 21
-5.771599258481472
 31
0.0
  0
LINE
  5
51
330
22
100
AcDbEntity
  8
0
100
AcDbLine
 10
22.59973089678116
 20
-4.771599258481472
 30
0.0
 11
17.59973089678115
 21
-4.771599258481472
 31
0.0
  0
LINE
  5
52
330
22
100
AcDbEntity
  8
0
100
AcDbLine
 10
18.59973089678115
 20
-5.771599258481472
 30
0.0
 11
18.59973089678115
 21
-8.771599258481472
 31
0.0
  0
ARC
  5
53
330
22
100
AcDbEntity
  8
0
100
AcDbCircle
 10
22.59973089678116
 20
-7.271599258481472
 30
0.0
 40
1.5
100
AcDbArc
 50
270.0
 51
90.0
  0
ENDBLK
  5
54
330
22
100
AcDbEntity
  8
0
100
AcDbBlockEnd
  0
BLOCK
  5
55
330
23
100
AcDbEntity
  8
0
100
AcDbBlockBegin
  2
LORO
 70
     0
 10
0.0
 20
0.0
 30
0.0
  3
LORO
  1

  0
INSERT
  5
56
330
23
100
AcDbEntity
  8
STEMPEL
100
AcDbBlockReference
  2
LOGO
 10
-1.748032802467321
 20
3.771489518552062
 30
0.0
  0
ENDBLK
  5
57
330
23
100
AcDbEntity
  8
0
100
AcDbBlockEnd
  0
BLOCK
  5
14CD
330
14CC
100
AcDbEntity
  8
0
100
AcDbBlockBegin
  2
*X2
 70
     1
 10
0.0
 20
0.0
 30
0.0
  3
*X2
  1

  0
LINE
  5
14CE
330
14CC
100
AcDbEntity
  8
0
 62
     0
100
AcDbLine
 10
326.8068927245358
 20
417.3165607164138
 30
0.0
 11
331.2231444320108
 21
421.7328124238888
 31
0.0
  0
LINE
  5
14CF
330
14CC
100
AcDbEntity
  8
0
 62
     0
100
AcDbLine
 10
323.4859975618283
 20
416.8240926784525
 30
0.0
 11
325.1814181270789
 21
418.5195132437032
 31
0.0
  0
LINE
  5
14D0
330
14CC
100
AcDbEntity
  8
0
 62
     0
100
AcDbLine
 10
330.0201919047215
 20
423.3582870213457
 30
0.0
 11
331.7156124699721
 21
425.0537075865963
 31
0.0
  0
LINE
  5
14D1
330
14CC
100
AcDbEntity
  8
0
 62
     0
100
AcDbLine
 10
320.6575704370821
 20
416.8240926784525
 30
0.0
 11
322.2575704370821
 21
418.4240926784524
 31
0.0
  0
LINE
  5
14D2
330
14CC
100
AcDbEntity
  8
0
 62
     0
100
AcDbLine
 10
317.8291433123359
 20
416.8240926784525
 30
0.0
 11
319.4291433123358
 21
418.4240926784524
 31
0.0
  0
LINE
  5
14D3
330
14CC
100
AcDbEntity
  8
0
 62
     0
100
AcDbLine
 10
315.0007161875897
 20
416.8240926784525
 30
0.0
 11
316.6007161875897
 21
418.4240926784524
 31
0.0
  0
LINE
  5
14D4
330
14CC
100
AcDbEntity
  8
0
 62
     0
100
AcDbLine
 10
312.1722890628435
 20
416.8240926784525
 30
0.0
 11
313.7722890628435
 21
418.4240926784524
 31
0.0
  0
LINE
  5
14D5
330
14CC
100
AcDbEntity
  8
0
 62
     0
100
AcDbLine
 10
309.3438619380973
 20
416.8240926784525
 30
0.0
 11
310.9438619380973
 21
418.4240926784524
 31
0.0
  0
LINE
  5
14D6
330
14CC
100
AcDbEntity
  8
0
 62
     0
100
AcDbLine
 10
307.4111528996841
 20
417.7198107647854
 30
0.0
 11
308.1154348133511
 21
418.4240926784524
 31
0.0
  0
LINE
  5
14D7
330
14CC
100
AcDbEntity
  8
0
 62
     0
100
AcDbLine
 10
411.8250847583787
 20
423.1387932573634
 30
0.0
 11
413.3156124699722
 21
424.6293209689569
 31
0.0
  0
LINE
  5
14D8
330
14CC
100
AcDbEntity
  8
0
 62
     0
100
AcDbLine
 10
412.5253197408659
 20
421.0106011151045
 30
0.0
 11
413.7350012720654
 21
422.2202826463039
 31
0.0
  0
LINE
  5
14D9
330
14CC
100
AcDbEntity
  8
0
 62
     0
100
AcDbLine
 10
413.674413107596
 20
419.3312673570884
 30
0.0
 11
414.8076539065287
 21
420.4645081560211
 31
0.0
  0
LINE
  5
14DA
330
14CC
100
AcDbEntity
  8
0
 62
     0
100
AcDbLine
 10
415.2039402882033
 20
418.0323674129495
 30
0.0
 11
416.3690341271165
 21
419.1974612518627
 31
0.0
  0
LINE
  5
14DB
330
14CC
100
AcDbEntity
  8
0
 62
     0
100
AcDbLine
 10
417.1416544512598
 20
417.1416544512598
 30
0.0
 11
418.4822490717504
 21
418.4822490717504
 31
0.0
  0
LINE
  5
14DC
330
14CC
100
AcDbEntity
  8
0
 62
     0
100
AcDbLine
 10
419.6525198031987
 20
416.8240926784525
 30
0.0
 11
421.2525198031986
 21
418.4240926784524
 31
0.0
  0
LINE
  5
14DD
330
14CC
100
AcDbEntity
  8
0
 62
     0
100
AcDbLine
 10
422.4809469279448
 20
416.8240926784525
 30
0.0
 11
424.0809469279448
 21
418.4240926784524
 31
0.0
  0
LINE
  5
14DE
330
14CC
100
AcDbEntity
  8
0
 62
     0
100
AcDbLine
 10
425.3093740526911
 20
416.8240926784525
 30
0.0
 11
426.909374052691
 21
418.4240926784524
 31
0.0
  0
LINE
  5
14DF
330
14CC
100
AcDbEntity
  8
0
 62
     0
100
AcDbLine
 10
428.1378011774373
 20
416.8240926784525
 30
0.0
 11
429.7378011774372
 21
418.4240926784524
 31
0.0
  0
LINE
  5
14E0
330
14CC
100
AcDbEntity
  8
0
 62
     0
100
AcDbLine
 10
430.9662283021834
 20
416.8240926784525
 30
0.0
 11
432.5662283021834
 21
418.4240926784524
 31
0.0
  0
LINE
  5
14E1
330
14CC
100
AcDbEntity
  8
0
 62
     0
100
AcDbLine
 10
433.7946554269296
 20
416.8240926784525
 30
0.0
 11
435.3946554269295
 21
418.4240926784524
 31
0.0
  0
LINE
  5
14E2
330
14CC
100
AcDbEntity
  8
0
 62
     0
100
AcDbLine
 10
436.6230825516758
 20
416.8240926784525
 30
0.0
 11
438.2230825516757
 21
418.4240926784524
 31
0.0
  0
LINE
  5
14E3
330
14CC
100
AcDbEntity
  8
0
 62
     0
100
AcDbLine
 10
439.451509676422
 20
416.8240926784525
 30
0.0
 11
441.051509676422
 21
418.4240926784524
 31
0.0
  0
LINE
  5
14E4
330
14CC
100
AcDbEntity
  8
0
 62
     0
100
AcDbLine
 10
442.2799368011682
 20
416.8240926784525
 30
0.0
 11
443.8799368011681
 21
418.4240926784524
 31
0.0
  0
LINE
  5
14E5
330
14CC
100
AcDbEntity
  8
0
 62
     0
100
AcDbLine
 10
445.1083639259144
 20
416.8240926784525
 30
0.0
 11
446.7083639259143
 21
418.4240926784524
 31
0.0
  0
LINE
  5
14E6
330
14CC
100
AcDbEntity
  8
0
 62
     0
100
AcDbLine
 10
447.9367910506606
 20
416.8240926784525
 30
0.0
 11
449.5367910506606
 21
418.4240926784524
 31
0.0
  0
ENDBLK
  5
14E7
330
14CC
100
AcDbEntity
  8
0
100
AcDbBlockEnd
  0
BLOCK
  5
1521
330
1520
100
AcDbEntity
  8
0
100
AcDbBlockBegin
  2
*X3
 70
     1
 10
0.0
 20
0.0
 30
0.0
  3
*X3
  1

  0
LINE
  5
1522
330
1520
100
AcDbEntity
  8
0
 62
     0
100
AcDbLine
 10
332.4100201311313
 20
512.7222493337009
 30
0.0
 11
333.1593029571798
 21
513.4715321597493
 31
0.0
  0
LINE
  5
1523
330
1520
100
AcDbEntity
  8
0
 62
     0
100
AcDbLine
 10
330.642253178165
 20
512.7222493337009
 30
0.0
 11
333.1593029571798
 21
515.2392991127157
 31
0.0
  0
LINE
  5
1524
330
1520
100
AcDbEntity
  8
0
 62
     0
100
AcDbLine
 10
328.8744862251986
 20
512.7222493337009
 30
0.0
 11
332.7629502492472
 21
516.6107133577495
 31
0.0
  0
LINE
  5
1525
330
1520
100
AcDbEntity
  8
0
 62
     0
100
AcDbLine
 10
327.1067192722322
 20
512.7222493337009
 30
0.0
 11
332.004621907878
 21
517.6201519693466
 31
0.0
  0
LINE
  5
1526
330
1520
100
AcDbEntity
  8
0
 62
     0
100
AcDbLine
 10
325.3389523192658
 20
512.7222493337009
 30
0.0
 11
330.3389523192659
 21
517.7222493337009
 31
0.0
  0
LINE
  5
1527
330
1520
100
AcDbEntity
  8
0
 62
     0
100
AcDbLine
 10
323.5711853662995
 20
512.7222493337009
 30
0.0
 11
328.5711853662995
 21
517.7222493337009
 31
0.0
  0
LINE
  5
1528
330
1520
100
AcDbEntity
  8
0
 62
     0
100
AcDbLine
 10
322.1593029571798
 20
513.0781338775475
 30
0.0
 11
326.8034184133331
 21
517.7222493337009
 31
0.0
  0
LINE
  5
1529
330
1520
100
AcDbEntity
  8
0
 62
     0
100
AcDbLine
 10
322.1593029571798
 20
514.8459008305139
 30
0.0
 11
325.0356514603667
 21
517.7222493337009
 31
0.0
  0
LINE
  5
152A
330
1520
100
AcDbEntity
  8
0
 62
     0
100
AcDbLine
 10
322.1593029571798
 20
516.6136677834803
 30
0.0
 11
323.2678845074004
 21
517.7222493337009
 31
0.0
  0
LINE
  5
152B
330
1520
100
AcDbEntity
  8
0
 62
     0
100
AcDbLine
 10
403.6531485949766
 20
516.7902335848242
 30
0.0
 11
404.5676055203802
 21
517.7046905102278
 31
0.0
  0
LINE
  5
152C
330
1520
100
AcDbEntity
  8
0
 62
     0
100
AcDbLine
 10
403.1593029571797
 20
514.5286209940609
 30
0.0
 11
406.3529312968197
 21
517.7222493337009
 31
0.0
  0
LINE
  5
152D
330
1520
100
AcDbEntity
  8
0
 62
     0
100
AcDbLine
 10
403.1593029571797
 20
512.7608540410945
 30
0.0
 11
408.120698249786
 21
517.7222493337009
 31
0.0
  0
LINE
  5
152E
330
1520
100
AcDbEntity
  8
0
 62
     0
100
AcDbLine
 10
404.8884652027523
 20
512.7222493337009
 30
0.0
 11
409.8884652027524
 21
517.7222493337009
 31
0.0
  0
LINE
  5
152F
330
1520
100
AcDbEntity
  8
0
 62
     0
100
AcDbLine
 10
406.6562321557188
 20
512.7222493337009
 30
0.0
 11
411.6562321557188
 21
517.7222493337009
 31
0.0
  0
LINE
  5
1530
330
1520
100
AcDbEntity
  8
0
 62
     0
100
AcDbLine
 10
408.4239991086851
 20
512.7222493337009
 30
0.0
 11
413.4239991086852
 21
517.7222493337009
 31
0.0
  0
LINE
  5
1531
330
1520
100
AcDbEntity
  8
0
 62
     0
100
AcDbLine
 10
410.1917660616515
 20
512.7222493337009
 30
0.0
 11
414.1593029571796
 21
516.689786229229
 31
0.0
  0
LINE
  5
1532
330
1520
100
AcDbEntity
  8
0
 62
     0
100
AcDbLine
 10
411.9595330146179
 20
512.7222493337009
 30
0.0
 11
414.1593029571797
 21
514.9220192762627
 31
0.0
  0
LINE
  5
1533
330
1520
100
AcDbEntity
  8
0
 62
     0
100
AcDbLine
 10
413.7272999675842
 20
512.7222493337009
 30
0.0
 11
414.1593029571797
 21
513.1542523232964
 31
0.0
  0
LINE
  5
1534
330
1520
100
AcDbEntity
  8
0
 62
     0
100
AcDbLine
 10
333.1593029571798
 20
515.3688344666772
 30
0.0
 11
330.8058880901561
 21
517.7222493337009
 31
0.0
  0
LINE
  5
1535
330
1520
100
AcDbEntity
  8
0
 62
     0
100
AcDbLine
 10
333.1593029571798
 20
513.6010675137108
 30
0.0
 11
329.0381211371897
 21
517.7222493337009
 31
0.0
  0
LINE
  5
1536
330
1520
100
AcDbEntity
  8
0
 62
     0
100
AcDbLine
 10
332.2703541842233
 20
512.7222493337009
 30
0.0
 11
327.2703541842234
 21
517.7222493337009
 31
0.0
  0
LINE
  5
1537
330
1520
100
AcDbEntity
  8
0
 62
     0
100
AcDbLine
 10
330.5025872312569
 20
512.7222493337009
 30
0.0
 11
325.502587231257
 21
517.7222493337009
 31
0.0
  0
LINE
  5
1538
330
1520
100
AcDbEntity
  8
0
 62
     0
100
AcDbLine
 10
328.7348202782906
 20
512.7222493337009
 30
0.0
 11
323.7348202782906
 21
517.7222493337009
 31
0.0
  0
LINE
  5
1539
330
1520
100
AcDbEntity
  8
0
 62
     0
100
AcDbLine
 10
326.9670533253242
 20
512.7222493337009
 30
0.0
 11
322.1593029571798
 21
517.5299997018453
 31
0.0
  0
LINE
  5
153A
330
1520
100
AcDbEntity
  8
0
 62
     0
100
AcDbLine
 10
325.1992863723578
 20
512.7222493337009
 30
0.0
 11
322.1593029571798
 21
515.7622327488789
 31
0.0
  0
LINE
  5
153B
330
1520
100
AcDbEntity
  8
0
 62
     0
100
AcDbLine
 10
323.4315194193915
 20
512.7222493337009
 30
0.0
 11
322.1593029571798
 21
513.9944657959126
 31
0.0
  0
LINE
  5
153C
330
1520
100
AcDbEntity
  8
0
 62
     0
100
AcDbLine
 10
404.7487992558443
 20
512.7222493337009
 30
0.0
 11
403.1593029571797
 21
514.3117456323655
 31
0.0
  0
LINE
  5
153D
330
1520
100
AcDbEntity
  8
0
 62
     0
100
AcDbLine
 10
406.5165662088108
 20
512.7222493337009
 30
0.0
 11
403.229209414673
 21
516.0096061278387
 31
0.0
  0
LINE
  5
153E
330
1520
100
AcDbEntity
  8
0
 62
     0
100
AcDbLine
 10
408.2843331617771
 20
512.7222493337009
 30
0.0
 11
403.851363183347
 21
517.1552193121311
 31
0.0
  0
LINE
  5
153F
330
1520
100
AcDbEntity
  8
0
 62
     0
100
AcDbLine
 10
410.0521001147434
 20
512.7222493337009
 30
0.0
 11
405.0521001147434
 21
517.7222493337009
 31
0.0
  0
LINE
  5
1540
330
1520
100
AcDbEntity
  8
0
 62
     0
100
AcDbLine
 10
411.8198670677099
 20
512.7222493337009
 30
0.0
 11
406.8198670677098
 21
517.7222493337009
 31
0.0
  0
LINE
  5
1541
330
1520
100
AcDbEntity
  8
0
 62
     0
100
AcDbLine
 10
413.5876340206762
 20
512.7222493337009
 30
0.0
 11
408.5876340206763
 21
517.7222493337009
 31
0.0
  0
LINE
  5
1542
330
1520
100
AcDbEntity
  8
0
 62
     0
100
AcDbLine
 10
414.1593029571797
 20
513.9183473501637
 30
0.0
 11
410.3554009736425
 21
517.7222493337009
 31
0.0
  0
LINE
  5
1543
330
1520
100
AcDbEntity
  8
0
 62
     0
100
AcDbLine
 10
414.1593029571796
 20
515.6861143031302
 30
0.0
 11
412.1231679266089
 21
517.7222493337009
 31
0.0
  0
LINE
  5
1544
330
1520
100
AcDbEntity
  8
0
 62
     0
100
AcDbLine
 10
414.1593029571796
 20
517.4538812560966
 30
0.0
 11
413.8909348795754
 21
517.7222493337009
 31
0.0
  0
ENDBLK
  5
1545
330
1520
100
AcDbEntity
  8
0
100
AcDbBlockEnd
  0
BLOCK
  5
1547
330
1546
100
AcDbEntity
  8
0
100
AcDbBlockBegin
  2
*X4
 70
     1
 10
0.0
 20
0.0
 30
0.0
  3
*X4
  1

  0
LINE
  5
1548
330
1546
100
AcDbEntity
  8
0
 62
     0
100
AcDbLine
 10
369.7470135871103
 20
512.7222493337009
 30
0.0
 11
368.1593029571798
 21
514.3099599636315
 31
0.0
  0
LINE
  5
1549
330
1546
100
AcDbEntity
  8
0
 62
     0
100
AcDbLine
 10
368.1593029571798
 20
514.3099599636315
 30
0.0
 11
367.3231918460686
 21
515.1460710747426
 31
0.0
  0
LINE
  5
154A
330
1546
100
AcDbEntity
  8
0
 62
     0
100
AcDbLine
 10
366.9185864623641
 20
512.7222493337009
 30
0.0
 11
364.9185864623639
 21
514.7222493337011
 31
0.0
  0
LINE
  5
154B
330
1546
100
AcDbEntity
  8
0
 62
     0
100
AcDbLine
 10
364.0901593376179
 20
512.7222493337009
 30
0.0
 11
362.0901593376178
 21
514.722249333701
 31
0.0
  0
LINE
  5
154C
330
1546
100
AcDbEntity
  8
0
 62
     0
100
AcDbLine
 10
361.2617322128717
 20
512.7222493337009
 30
0.0
 11
359.2617322128715
 21
514.722249333701
 31
0.0
  0
LINE
  5
154D
330
1546
100
AcDbEntity
  8
0
 62
     0
100
AcDbLine
 10
358.4333050881255
 20
512.7222493337009
 30
0.0
 11
356.4333050881254
 21
514.722249333701
 31
0.0
  0
LINE
  5
154E
330
1546
100
AcDbEntity
  8
0
 62
     0
100
AcDbLine
 10
355.6048779633794
 20
512.7222493337009
 30
0.0
 11
353.6048779633792
 21
514.722249333701
 31
0.0
  0
LINE
  5
154F
330
1546
100
AcDbEntity
  8
0
 62
     0
100
AcDbLine
 10
352.7764508386332
 20
512.7222493337009
 30
0.0
 11
350.776450838633
 21
514.722249333701
 31
0.0
  0
LINE
  5
1550
330
1546
100
AcDbEntity
  8
0
 62
     0
100
AcDbLine
 10
349.948023713887
 20
512.7222493337009
 30
0.0
 11
347.9480237138868
 21
514.722249333701
 31
0.0
  0
LINE
  5
1551
330
1546
100
AcDbEntity
  8
0
 62
     0
100
AcDbLine
 10
347.1195965891407
 20
512.7222493337009
 30
0.0
 11
345.1195965891407
 21
514.722249333701
 31
0.0
  0
LINE
  5
1552
330
1546
100
AcDbEntity
  8
0
 62
     0
100
AcDbLine
 10
344.2911694643945
 20
512.7222493337009
 30
0.0
 11
342.2911694643945
 21
514.722249333701
 31
0.0
  0
LINE
  5
1553
330
1546
100
AcDbEntity
  8
0
 62
     0
100
AcDbLine
 10
341.4627423396484
 20
512.7222493337009
 30
0.0
 11
339.4627423396483
 21
514.722249333701
 31
0.0
  0
LINE
  5
1554
330
1546
100
AcDbEntity
  8
0
 62
     0
100
AcDbLine
 10
338.6343152149022
 20
512.7222493337009
 30
0.0
 11
336.6339949151057
 21
514.7225696334974
 31
0.0
  0
LINE
  5
1555
330
1546
100
AcDbEntity
  8
0
 62
     0
100
AcDbLine
 10
335.3870923697872
 20
515.9694721788159
 30
0.0
 11
331.635148910091
 21
519.7214156385121
 31
0.0
  0
LINE
  5
1556
330
1546
100
AcDbEntity
  8
0
 62
     0
100
AcDbLine
 10
335.6201756415475
 20
512.9079617823094
 30
0.0
 11
333.767894062764
 21
514.760243361093
 31
0.0
  0
LINE
  5
1557
330
1546
100
AcDbEntity
  8
0
 62
     0
100
AcDbLine
 10
330.805888090156
 20
517.7222493337009
 30
0.0
 11
328.8058880901561
 21
519.7222493337009
 31
0.0
  0
LINE
  5
1558
330
1546
100
AcDbEntity
  8
0
 62
     0
100
AcDbLine
 10
327.9774609654098
 20
517.7222493337009
 30
0.0
 11
325.9774609654099
 21
519.7222493337009
 31
0.0
  0
LINE
  5
1559
330
1546
100
AcDbEntity
  8
0
 62
     0
100
AcDbLine
 10
325.1490338406636
 20
517.7222493337009
 30
0.0
 11
323.1490338406637
 21
519.7222493337009
 31
0.0
  0
LINE
  5
155A
330
1546
100
AcDbEntity
  8
0
 62
     0
100
AcDbLine
 10
322.3206067159174
 20
517.7222493337009
 30
0.0
 11
321.1593029571798
 21
518.8835530924385
 31
0.0
  0
LINE
  5
155B
330
1546
100
AcDbEntity
  8
0
 62
     0
100
AcDbLine
 10
311.0068982169327
 20
517.7222493337009
 30
0.0
 11
309.312069893922
 21
519.4170776567117
 31
0.0
  0
LINE
  5
155C
330
1546
100
AcDbEntity
  8
0
 62
     0
100
AcDbLine
 10
309.5153645844137
 20
516.3853558414738
 30
0.0
 11
307.9111787855274
 21
517.9895416403598
 31
0.0
  0
LINE
  5
155D
330
1546
100
AcDbEntity
  8
0
 62
     0
100
AcDbLine
 10
308.9496791594644
 20
514.1226141416767
 30
0.0
 11
307.3004369092174
 21
515.7718563919239
 31
0.0
  0
LINE
  5
155E
330
1546
100
AcDbEntity
  8
0
 62
     0
100
AcDbLine
 10
308.3839937345152
 20
511.8598724418798
 30
0.0
 11
306.7347514842682
 21
513.5091146921269
 31
0.0
  0
LINE
  5
155F
330
1546
100
AcDbEntity
  8
0
 62
     0
100
AcDbLine
 10
306.2243903047737
 20
511.191048746875
 30
0.0
 11
306.1690660593189
 21
511.2463729923299
 31
0.0
  0
LINE
  5
1560
330
1546
100
AcDbEntity
  8
0
 62
     0
100
AcDbLine
 10
372.5754407118565
 20
512.7222493337009
 30
0.0
 11
370.5754407118563
 21
514.7222493337011
 31
0.0
  0
LINE
  5
1561
330
1546
100
AcDbEntity
  8
0
 62
     0
100
AcDbLine
 10
369.7193807177051
 20
515.5783093278524
 30
0.0
 11
369.6681407291089
 21
515.6295493164484
 31
0.0
  0
LINE
  5
1562
330
1546
100
AcDbEntity
  8
0
 62
     0
100
AcDbLine
 10
375.4038678366027
 20
512.7222493337009
 30
0.0
 11
372.4038678366027
 21
515.7222493337009
 31
0.0
  0
LINE
  5
1563
330
1546
100
AcDbEntity
  8
0
 62
     0
100
AcDbLine
 10
378.2322949613489
 20
512.7222493337009
 30
0.0
 11
376.2322949613487
 21
514.7222493337011
 31
0.0
  0
LINE
  5
1564
330
1546
100
AcDbEntity
  8
0
 62
     0
100
AcDbLine
 10
381.060722086095
 20
512.7222493337009
 30
0.0
 11
379.0607220860949
 21
514.7222493337011
 31
0.0
  0
LINE
  5
1565
330
1546
100
AcDbEntity
  8
0
 62
     0
100
AcDbLine
 10
383.8891492108412
 20
512.7222493337009
 30
0.0
 11
381.8891492108411
 21
514.7222493337011
 31
0.0
  0
LINE
  5
1566
330
1546
100
AcDbEntity
  8
0
 62
     0
100
AcDbLine
 10
386.7175763355874
 20
512.7222493337009
 30
0.0
 11
384.7175763355872
 21
514.7222493337011
 31
0.0
  0
LINE
  5
1567
330
1546
100
AcDbEntity
  8
0
 62
     0
100
AcDbLine
 10
389.5460034603336
 20
512.7222493337009
 30
0.0
 11
387.5460034603335
 21
514.7222493337011
 31
0.0
  0
LINE
  5
1568
330
1546
100
AcDbEntity
  8
0
 62
     0
100
AcDbLine
 10
392.3744305850799
 20
512.7222493337009
 30
0.0
 11
390.3744305850797
 21
514.7222493337011
 31
0.0
  0
LINE
  5
1569
330
1546
100
AcDbEntity
  8
0
 62
     0
100
AcDbLine
 10
395.202857709826
 20
512.7222493337009
 30
0.0
 11
393.2028577098258
 21
514.7222493337011
 31
0.0
  0
LINE
  5
156A
330
1546
100
AcDbEntity
  8
0
 62
     0
100
AcDbLine
 10
398.0312848345722
 20
512.7222493337009
 30
0.0
 11
396.031284834572
 21
514.7222493337011
 31
0.0
  0
LINE
  5
156B
330
1546
100
AcDbEntity
  8
0
 62
     0
100
AcDbLine
 10
400.6805405293116
 20
512.9014207637076
 30
0.0
 11
398.8597119593182
 21
514.7222493337011
 31
0.0
  0
LINE
  5
156C
330
1546
100
AcDbEntity
  8
0
 62
     0
100
AcDbLine
 10
402.2317234637734
 20
514.1786649539921
 30
0.0
 11
400.7588511005311
 21
515.6515373172344
 31
0.0
  0
LINE
  5
156D
330
1546
100
AcDbEntity
  8
0
 62
     0
100
AcDbLine
 10
403.229209414673
 20
516.0096061278387
 30
0.0
 11
401.7542971304093
 21
517.4845184121023
 31
0.0
  0
LINE
  5
156E
330
1546
100
AcDbEntity
  8
0
 62
     0
100
AcDbLine
 10
404.4071416855423
 20
517.6601009817155
 30
0.0
 11
402.948934792604
 21
519.1183078746538
 31
0.0
  0
LINE
  5
156F
330
1546
100
AcDbEntity
  8
0
 62
     0
100
AcDbLine
 10
407.1734204583032
 20
517.7222493337009
 30
0.0
 11
405.1734204583032
 21
519.7222493337009
 31
0.0
  0
LINE
  5
1570
330
1546
100
AcDbEntity
  8
0
 62
     0
100
AcDbLine
 10
410.0018475830494
 20
517.7222493337009
 30
0.0
 11
408.0018475830494
 21
519.7222493337009
 31
0.0
  0
LINE
  5
1571
330
1546
100
AcDbEntity
  8
0
 62
     0
100
AcDbLine
 10
412.8302747077955
 20
517.7222493337009
 30
0.0
 11
410.8302747077956
 21
519.7222493337009
 31
0.0
  0
LINE
  5
1572
330
1546
100
AcDbEntity
  8
0
 62
     0
100
AcDbLine
 10
415.1593029571798
 20
518.2216482090629
 30
0.0
 11
413.6587018325418
 21
519.7222493337009
 31
0.0
  0
LINE
  5
1573
330
1546
100
AcDbEntity
  8
0
 62
     0
100
AcDbLine
 10
428.2962484570051
 20
510.7415569587299
 30
0.0
 11
428.186838581841
 21
510.8509668338939
 31
0.0
  0
LINE
  5
1574
330
1546
100
AcDbEntity
  8
0
 62
     0
100
AcDbLine
 10
429.992766624004
 20
511.8734659164772
 30
0.0
 11
427.2440295402588
 21
514.6222030002223
 31
0.0
  0
LINE
  5
1575
330
1546
100
AcDbEntity
  8
0
 62
     0
100
AcDbLine
 10
429.0499575824219
 20
515.6447020828054
 30
0.0
 11
425.1593029571798
 21
519.5353567080476
 31
0.0
  0
ENDBLK
  5
1576
330
1546
100
AcDbEntity
  8
0
100
AcDbBlockEnd
  0
BLOCK
  5
1584
330
1583
100
AcDbEntity
  8
0
100
AcDbBlockBegin
  2
8DI931D
 70
     0
 10
0.0
 20
0.0
 30
0.0
  3
8DI931D
  1

  0
LWPOLYLINE
  5
1585
330
1583
100
AcDbEntity
  8
STEMPEL
100
AcDbPolyline
 90
        6
 70
     1
 43
0.0
 10
-3.752776749732561
 20
6.5
 10
-7.505553499465122
 20
0.0
 10
-3.752776749732561
 20
-6.5
 10
3.752776749732561
 20
-6.5
 10
7.505553499465122
 20
0.0
 10
3.752776749732561
 20
6.5
  0
CIRCLE
  5
1586
330
1583
100
AcDbEntity
  8
STEMPEL
100
AcDbCircle
 10
0.0
 20
0.0
 30
0.0
 40
6.5
  0
ENDBLK
  5
1587
330
1583
100
AcDbEntity
  8
0
100
AcDbBlockEnd
  0
BLOCK
  5
192F
330
1924
100
AcDbEntity
  8
0
100
AcDbBlockBegin
  2
*D6
 70
     1
 10
0.0
 20
0.0
 30
0.0
  3
*D6
  1

  0
LINE
  5
1A23
330
1924
100
AcDbEntity
  8
BEM
 62
     0
370
    -2
100
AcDbLine
 10
106.0238248471358
 20
392.4993747928663
 30
0.0
 11
92.95342876112348
 21
392.4993747928663
 31
0.0
  0
LINE
  5
1A24
330
1924
100
AcDbEntity
  8
BEM
 62
     0
370
    -2
100
AcDbLine
 10
106.0238248471357
 20
494.4993747928663
 30
0.0
 11
92.95342876112352
 21
494.4993747928663
 31
0.0
  0
LINE
  5
1A25
330
1924
100
AcDbEntity
  8
BEM
 62
     0
370
    -2
100
AcDbLine
 10
94.95342876112349
 20
399.4993747928663
 30
0.0
 11
94.95342876112351
 21
487.4993747928662
 31
0.0
  0
SOLID
  5
1A26
330
1924
100
AcDbEntity
  8
BEM
 62
     0
100
AcDbTrace
 10
93.78676209445682
 20
399.4993747928663
 30
0.0
 11
96.12009542779016
 21
399.4993747928663
 31
0.0
 12
94.95342876112349
 22
392.4993747928663
 32
0.0
 13
94.95342876112349
 23
392.4993747928663
 33
0.0
  0
SOLID
  5
1A27
330
1924
100
AcDbEntity
  8
BEM
 62
     0
100
AcDbTrace
 10
93.78676209445684
 20
487.4993747928662
 30
0.0
 11
96.1200954277902
 21
487.4993747928662
 31
0.0
 12
94.95342876112351
 22
494.4993747928663
 32
0.0
 13
94.95342876112351
 23
494.4993747928663
 33
0.0
  0
MTEXT
  5
1A28
330
1924
100
AcDbEntity
  8
BEM
 62
     1
100
AcDbMText
 10
88.45342876112344
 20
443.4993747928663
 30
0.0
 40
7.0
 41
0.0
 71
     5
 72
     1
  1
\A1;%%c102
 11
0.0000000000000001
 21
1.0
 31
0.0
 73
     1
 44
1.0
  0
POINT
  5
1A29
330
1924
100
AcDbEntity
  8
DEFPOINTS
 62
     0
100
AcDbPoint
 10
108.0238248471358
 20
392.4993747928663
 30
0.0
  0
POINT
  5
1A2A
330
1924
100
AcDbEntity
  8
DEFPOINTS
 62
     0
100
AcDbPoint
 10
108.0238248471357
 20
494.4993747928663
 30
0.0
  0
POINT
  5
1A2B
330
1924
100
AcDbEntity
  8
DEFPOINTS
 62
     0
100
AcDbPoint
 10
94.95342876112351
 20
494.4993747928663
 30
0.0
  0
ENDBLK
  5
1930
330
1924
100
AcDbEntity
  8
0
100
AcDbBlockEnd
  0
BLOCK
  5
193C
330
1931
100
AcDbEntity
  8
0
100
AcDbBlockBegin
  2
*D7
 70
     1
 10
0.0
 20
0.0
 30
0.0
  3
*D7
  1

  0
LINE
  5
1A1A
330
1931
100
AcDbEntity
  8
BEM
 62
     0
370
    -2
100
AcDbLine
 10
108.0238248471358
 20
390.4993747928663
 30
0.0
 11
108.0238248471358
 21
368.6111422041747
 31
0.0
  0
LINE
  5
1A1B
330
1931
100
AcDbEntity
  8
BEM
 62
     0
370
    -2
100
AcDbLine
 10
183.0238248471358
 20
390.4993747928663
 30
0.0
 11
183.0238248471358
 21
368.6111422041747
 31
0.0
  0
LINE
  5
1A1C
330
1931
100
AcDbEntity
  8
BEM
 62
     0
370
    -2
100
AcDbLine
 10
115.0238248471358
 20
370.6111422041747
 30
0.0
 11
176.0238248471359
 21
370.6111422041747
 31
0.0
  0
SOLID
  5
1A1D
330
1931
100
AcDbEntity
  8
BEM
 62
     0
100
AcDbTrace
 10
115.0238248471358
 20
371.7778088708414
 30
0.0
 11
115.0238248471358
 21
369.444475537508
 31
0.0
 12
108.0238248471358
 22
370.6111422041747
 32
0.0
 13
108.0238248471358
 23
370.6111422041747
 33
0.0
  0
SOLID
  5
1A1E
330
1931
100
AcDbEntity
  8
BEM
 62
     0
100
AcDbTrace
 10
176.0238248471359
 20
371.7778088708414
 30
0.0
 11
176.0238248471359
 21
369.444475537508
 31
0.0
 12
183.0238248471358
 22
370.6111422041747
 32
0.0
 13
183.0238248471358
 23
370.6111422041747
 33
0.0
  0
MTEXT
  5
1A1F
330
1931
100
AcDbEntity
  8
BEM
 62
     1
100
AcDbMText
 10
145.5238248471358
 20
377.1111422041747
 30
0.0
 40
7.0
 41
0.0
 71
     5
 72
     1
  1
\A1;75
 73
     1
 44
1.0
  0
POINT
  5
1A20
330
1931
100
AcDbEntity
  8
DEFPOINTS
 62
     0
100
AcDbPoint
 10
108.0238248471358
 20
392.4993747928663
 30
0.0
  0
POINT
  5
1A21
330
1931
100
AcDbEntity
  8
DEFPOINTS
 62
     0
100
AcDbPoint
 10
183.0238248471358
 20
392.4993747928663
 30
0.0
  0
POINT
  5
1A22
330
1931
100
AcDbEntity
  8
DEFPOINTS
 62
     0
100
AcDbPoint
 10
183.0238248471358
 20
370.6111422041747
 30
0.0
  0
ENDBLK
  5
193D
330
1931
100
AcDbEntity
  8
0
100
AcDbBlockEnd
  0
BLOCK
  5
1949
330
193E
100
AcDbEntity
  8
0
100
AcDbBlockBegin
  2
*D8
 70
     1
 10
0.0
 20
0.0
 30
0.0
  3
*D8
  1

  0
LINE
  5
1A11
330
193E
100
AcDbEntity
  8
BEM
 62
     0
370
    -2
100
AcDbLine
 10
748.15930295718
 20
227.1036472035282
 30
0.0
 11
748.15930295718
 21
200.7702742637384
 31
0.0
  0
LINE
  5
1A12
330
193E
100
AcDbEntity
  8
BEM
 62
     0
370
    -2
100
AcDbLine
 10
618.15930295718
 20
228.5470358508328
 30
0.0
 11
618.15930295718
 21
200.7702742637384
 31
0.0
  0
LINE
  5
1A13
330
193E
100
AcDbEntity
  8
BEM
 62
     0
370
    -2
100
AcDbLine
 10
741.1593029571799
 20
202.7702742637384
 30
0.0
 11
625.1593029571799
 21
202.7702742637384
 31
0.0
  0
SOLID
  5
1A14
330
193E
100
AcDbEntity
  8
BEM
 62
     0
100
AcDbTrace
 10
741.1593029571799
 20
203.9369409304051
 30
0.0
 11
741.1593029571799
 21
201.6036075970718
 31
0.0
 12
748.15930295718
 22
202.7702742637384
 32
0.0
 13
748.15930295718
 23
202.7702742637384
 33
0.0
  0
SOLID
  5
1A15
330
193E
100
AcDbEntity
  8
BEM
 62
     0
100
AcDbTrace
 10
625.1593029571799
 20
203.9369409304051
 30
0.0
 11
625.1593029571799
 21
201.6036075970718
 31
0.0
 12
618.15930295718
 22
202.7702742637384
 32
0.0
 13
618.15930295718
 23
202.7702742637384
 33
0.0
  0
MTEXT
  5
1A16
330
193E
100
AcDbEntity
  8
BEM
 62
     1
100
AcDbMText
 10
683.1593029571799
 20
209.2702742637384
 30
0.0
 40
7.0
 41
0.0
 71
     5
 72
     1
  1
\A1;130
 73
     1
 44
1.0
  0
POINT
  5
1A17
330
193E
100
AcDbEntity
  8
DEFPOINTS
 62
     0
100
AcDbPoint
 10
748.15930295718
 20
229.1036472035282
 30
0.0
  0
POINT
  5
1A18
330
193E
100
AcDbEntity
  8
DEFPOINTS
 62
     0
100
AcDbPoint
 10
618.15930295718
 20
230.5470358508328
 30
0.0
  0
POINT
  5
1A19
330
193E
100
AcDbEntity
  8
DEFPOINTS
 62
     0
100
AcDbPoint
 10
618.15930295718
 20
202.7702742637384
 30
0.0
  0
ENDBLK
  5
194A
330
193E
100
AcDbEntity
  8
0
100
AcDbBlockEnd
  0
BLOCK
  5
1956
330
194B
100
AcDbEntity
  8
0
100
AcDbBlockBegin
  2
*D9
 70
     1
 10
0.0
 20
0.0
 30
0.0
  3
*D9
  1

  0
LINE
  5
1A55
330
194B
100
AcDbEntity
  8
BEM
 62
     0
370
    -2
100
AcDbLine
 10
748.15930295718
 20
227.1036472035282
 30
0.0
 11
748.15930295718
 21
180.3513154076529
 31
0.0
  0
LINE
  5
1A56
330
194B
100
AcDbEntity
  8
BEM
 62
     0
370
    -2
100
AcDbLine
 10
108.0238248471358
 20
223.8690518738681
 30
0.0
 11
108.0238248471358
 21
180.3513154076529
 31
0.0
  0
LINE
  5
1A57
330
194B
100
AcDbEntity
  8
BEM
 62
     0
370
    -2
100
AcDbLine
 10
741.1593029571799
 20
182.3513154076529
 30
0.0
 11
115.0238248471358
 21
182.3513154076529
 31
0.0
  0
SOLID
  5
1A58
330
194B
100
AcDbEntity
  8
BEM
 62
     0
100
AcDbTrace
 10
741.1593029571799
 20
183.5179820743196
 30
0.0
 11
741.1593029571799
 21
181.1846487409862
 31
0.0
 12
748.15930295718
 22
182.3513154076529
 32
0.0
 13
748.15930295718
 23
182.3513154076529
 33
0.0
  0
SOLID
  5
1A59
330
194B
100
AcDbEntity
  8
BEM
 62
     0
100
AcDbTrace
 10
115.0238248471358
 20
183.5179820743196
 30
0.0
 11
115.0238248471358
 21
181.1846487409862
 31
0.0
 12
108.0238248471358
 22
182.3513154076529
 32
0.0
 13
108.0238248471358
 23
182.3513154076529
 33
0.0
  0
MTEXT
  5
1A5A
330
194B
100
AcDbEntity
  8
BEM
 62
     1
100
AcDbMText
 10
428.0915639021579
 20
188.8513154076529
 30
0.0
 40
7.0
 41
0.0
 71
     5
 72
     1
  1
\A1;2000
 73
     1
 44
1.0
  0
POINT
  5
1A5B
330
194B
100
AcDbEntity
  8
DEFPOINTS
 62
     0
100
AcDbPoint
 10
748.15930295718
 20
229.1036472035282
 30
0.0
  0
POINT
  5
1A5C
330
194B
100
AcDbEntity
  8
DEFPOINTS
 62
     0
100
AcDbPoint
 10
108.0238248471358
 20
225.8690518738681
 30
0.0
  0
POINT
  5
1A5D
330
194B
100
AcDbEntity
  8
DEFPOINTS
 62
     0
100
AcDbPoint
 10
108.0238248471358
 20
182.3513154076529
 30
0.0
  0
ENDBLK
  5
1957
330
194B
100
AcDbEntity
  8
0
100
AcDbBlockEnd
  0
BLOCK
  5
1963
330
1958
100
AcDbEntity
  8
0
100
AcDbBlockBegin
  2
*D10
 70
     1
 10
0.0
 20
0.0
 30
0.0
  3
*D10
  1

  0
LINE
  5
19FF
330
1958
100
AcDbEntity
  8
BEM
 62
     0
370
    -2
100
AcDbLine
 10
108.0238248471358
 20
223.8690518738681
 30
0.0
 11
108.0238248471358
 21
200.6866473438769
 31
0.0
  0
LINE
  5
1A00
330
1958
100
AcDbEntity
  8
BEM
 62
     0
370
    -2
100
AcDbLine
 10
368.15930295718
 20
220.8690518738681
 30
0.0
 11
368.15930295718
 21
200.6866473438769
 31
0.0
  0
LINE
  5
1A01
330
1958
100
AcDbEntity
  8
BEM
 62
     0
370
    -2
100
AcDbLine
 10
115.0238248471358
 20
202.6866473438769
 30
0.0
 11
361.15930295718
 21
202.6866473438769
 31
0.0
  0
SOLID
  5
1A02
330
1958
100
AcDbEntity
  8
BEM
 62
     0
100
AcDbTrace
 10
115.0238248471358
 20
203.8533140105435
 30
0.0
 11
115.0238248471358
 21
201.5199806772102
 31
0.0
 12
108.0238248471358
 22
202.6866473438769
 32
0.0
 13
108.0238248471358
 23
202.6866473438769
 33
0.0
  0
SOLID
  5
1A03
330
1958
100
AcDbEntity
  8
BEM
 62
     0
100
AcDbTrace
 10
361.15930295718
 20
203.8533140105435
 30
0.0
 11
361.15930295718
 21
201.5199806772102
 31
0.0
 12
368.15930295718
 22
202.6866473438769
 32
0.0
 13
368.15930295718
 23
202.6866473438769
 33
0.0
  0
MTEXT
  5
1A04
330
1958
100
AcDbEntity
  8
BEM
 62
     1
100
AcDbMText
 10
238.0915639021579
 20
209.1866473438769
 30
0.0
 40
7.0
 41
0.0
 71
     5
 72
     1
  1
\A1;620
 73
     1
 44
1.0
  0
POINT
  5
1A05
330
1958
100
AcDbEntity
  8
DEFPOINTS
 62
     0
100
AcDbPoint
 10
108.0238248471358
 20
225.8690518738681
 30
0.0
  0
POINT
  5
1A06
330
1958
100
AcDbEntity
  8
DEFPOINTS
 62
     0
100
AcDbPoint
 10
368.15930295718
 20
222.8690518738681
 30
0.0
  0
POINT
  5
1A07
330
1958
100
AcDbEntity
  8
DEFPOINTS
 62
     0
100
AcDbPoint
 10
368.15930295718
 20
202.6866473438769
 30
0.0
  0
ENDBLK
  5
1964
330
1958
100
AcDbEntity
  8
0
100
AcDbBlockEnd
  0
BLOCK
  5
1970
330
1965
100
AcDbEntity
  8
0
100
AcDbBlockBegin
  2
*D11
 70
     1
 10
0.0
 20
0.0
 30
0.0
  3
*D11
  1

  0
LINE
  5
19F6
330
1965
100
AcDbEntity
  8
BEM
 62
     0
370
    -2
100
AcDbLine
 10
197.4478925527927
 20
232.3690518738681
 30
0.0
 11
93.664689228136
 21
232.3690518738681
 31
0.0
  0
LINE
  5
19F7
330
1965
100
AcDbEntity
  8
BEM
 62
     0
370
    -2
100
AcDbLine
 10
197.4478925527927
 20
321.369051873868
 30
0.0
 11
93.664689228136
 21
321.3690518738681
 31
0.0
  0
LINE
  5
19F8
330
1965
100
AcDbEntity
  8
BEM
 62
     0
370
    -2
100
AcDbLine
 10
95.664689228136
 20
239.3690518738681
 30
0.0
 11
95.66468922813601
 21
314.369051873868
 31
0.0
  0
SOLID
  5
19F9
330
1965
100
AcDbEntity
  8
BEM
 62
     0
100
AcDbTrace
 10
94.49802256146933
 20
239.3690518738681
 30
0.0
 11
96.83135589480267
 21
239.3690518738681
 31
0.0
 12
95.664689228136
 22
232.3690518738681
 32
0.0
 13
95.664689228136
 23
232.3690518738681
 33
0.0
  0
SOLID
  5
19FA
330
1965
100
AcDbEntity
  8
BEM
 62
     0
100
AcDbTrace
 10
94.49802256146934
 20
314.369051873868
 30
0.0
 11
96.83135589480269
 21
314.369051873868
 31
0.0
 12
95.66468922813601
 22
321.3690518738681
 32
0.0
 13
95.66468922813601
 23
321.3690518738681
 33
0.0
  0
MTEXT
  5
19FB
330
1965
100
AcDbEntity
  8
BEM
 62
     1
100
AcDbMText
 10
89.16468922813596
 20
276.8690518738681
 30
0.0
 40
7.0
 41
0.0
 71
     5
 72
     1
  1
\A1;%%c89
 11
0.0000000000000001
 21
1.0
 31
0.0
 73
     1
 44
1.0
  0
POINT
  5
19FC
330
1965
100
AcDbEntity
  8
DEFPOINTS
 62
     0
100
AcDbPoint
 10
199.4478925527927
 20
232.3690518738681
 30
0.0
  0
POINT
  5
19FD
330
1965
100
AcDbEntity
  8
DEFPOINTS
 62
     0
100
AcDbPoint
 10
199.4478925527927
 20
321.369051873868
 30
0.0
  0
POINT
  5
19FE
330
1965
100
AcDbEntity
  8
DEFPOINTS
 62
     0
100
AcDbPoint
 10
95.66468922813601
 20
321.3690518738681
 30
0.0
  0
ENDBLK
  5
1971
330
1965
100
AcDbEntity
  8
0
100
AcDbBlockEnd
  0
ENDSEC
  0
SECTION
  2
ENTITIES
  0
LINE
  5
58
330
1E
100
AcDbEntity
  8
STEMPEL
100
AcDbLine
 10
830.0000000000004
 20
109.9999999999998
 30
0.0
 11
470.0000000000001
 21
109.9999999999999
 31
0.0
  0
LINE
  5
59
330
1E
100
AcDbEntity
  8
STEMPEL
100
AcDbLine
 10
470.0000000000001
 20
109.9999999999999
 30
0.0
 11
470.0000000000001
 21
9.999999999999886
 31
0.0
  0
LINE
  5
5A
330
1E
100
AcDbEntity
  8
STEMPEL
100
AcDbLine
 10
566.0000000000003
 20
109.9999999999997
 30
0.0
 11
566.0000000000001
 21
9.999999999999772
 31
0.0
  0
LINE
  5
5B
330
1E
100
AcDbEntity
  8
STEMPEL
100
AcDbLine
 10
650.0
 20
109.9999999999999
 30
0.0
 11
650.0
 21
9.999999999999886
 31
0.0
  0
LINE
  5
5C
330
1E
100
AcDbEntity
  8
STEMPEL
100
AcDbLine
 10
752.0000000000003
 20
109.9999999999995
 30
0.0
 11
752.0000000000003
 21
39.99999999999989
 31
0.0
  0
LINE
  5
5D
330
1E
100
AcDbEntity
  8
STEMPEL
100
AcDbLine
 10
566.0000000000001
 20
29.99999999999989
 30
0.0
 11
470.0000000000001
 21
29.99999999999989
 31
0.0
  0
LINE
  5
5E
330
1E
100
AcDbEntity
  8
STEMPEL
100
AcDbLine
 10
830.0000000000004
 20
39.99999999999989
 30
0.0
 11
566.0000000000001
 21
39.99999999999989
 31
0.0
  0
LINE
  5
5F
330
1E
100
AcDbEntity
  8
STEMPEL
100
AcDbLine
 10
830.0000000000004
 20
79.99999999999989
 30
0.0
 11
566.0000000000003
 21
79.99999999999989
 31
0.0
  0
LINE
  5
60
330
1E
100
AcDbEntity
  8
VOLL
100
AcDbLine
 10
484.0000000000002
 20
109.9999999999999
 30
0.0
 11
484.0000000000001
 21
9.999999999999886
 31
0.0
  0
LINE
  5
61
330
1E
100
AcDbEntity
  8
VOLL
100
AcDbLine
 10
524.0000000000001
 20
109.9999999999997
 30
0.0
 11
524.0
 21
9.999999999999772
 31
0.0
  0
LINE
  5
62
330
1E
100
AcDbEntity
  8
VOLL
100
AcDbLine
 10
544.0000000000002
 20
109.9999999999997
 30
0.0
 11
544.0
 21
9.999999999999772
 31
0.0
  0
LINE
  5
63
330
1E
100
AcDbEntity
  8
VOLL
100
AcDbLine
 10
584.0000000000003
 20
79.99999999999989
 30
0.0
 11
584.0000000000003
 21
39.99999999999989
 31
0.0
  0
LINE
  5
64
330
1E
100
AcDbEntity
  8
VOLL
100
AcDbLine
 10
610.0000000000003
 20
109.9999999999996
 30
0.0
 11
610.0000000000001
 21
39.99999999999989
 31
0.0
  0
LINE
  5
65
330
1E
100
AcDbEntity
  8
HILF
100
AcDbLine
 10
470.0000000000001
 20
99.99999999999989
 30
0.0
 11
566.0000000000003
 21
99.99999999999989
 31
0.0
  0
LINE
  5
66
330
1E
100
AcDbEntity
  8
HILF
100
AcDbLine
 10
470.0000000000001
 20
89.99999999999989
 30
0.0
 11
566.0000000000003
 21
89.99999999999989
 31
0.0
  0
LINE
  5
67
330
1E
100
AcDbEntity
  8
HILF
100
AcDbLine
 10
470.0000000000001
 20
79.99999999999989
 30
0.0
 11
566.0000000000003
 21
79.99999999999989
 31
0.0
  0
LINE
  5
68
330
1E
100
AcDbEntity
  8
HILF
100
AcDbLine
 10
470.0000000000001
 20
69.99999999999989
 30
0.0
 11
566.0000000000003
 21
69.99999999999989
 31
0.0
  0
LINE
  5
69
330
1E
100
AcDbEntity
  8
HILF
100
AcDbLine
 10
470.0000000000001
 20
59.99999999999989
 30
0.0
 11
566.0000000000003
 21
59.99999999999989
 31
0.0
  0
LINE
  5
6A
330
1E
100
AcDbEntity
  8
HILF
100
AcDbLine
 10
470.0000000000001
 20
49.99999999999989
 30
0.0
 11
566.0000000000003
 21
49.99999999999989
 31
0.0
  0
LINE
  5
6B
330
1E
100
AcDbEntity
  8
HILF
100
AcDbLine
 10
470.0000000000001
 20
39.99999999999989
 30
0.0
 11
566.0000000000003
 21
39.99999999999989
 31
0.0
  0
LINE
  5
6C
330
1E
100
AcDbEntity
  8
HILF
100
AcDbLine
 10
566.0000000000003
 20
69.99999999999989
 30
0.0
 11
650.0
 21
69.99999999999989
 31
0.0
  0
LINE
  5
6D
330
1E
100
AcDbEntity
  8
HILF
100
AcDbLine
 10
566.0000000000003
 20
59.99999999999989
 30
0.0
 11
650.0
 21
59.99999999999989
 31
0.0
  0
LINE
  5
6E
330
1E
100
AcDbEntity
  8
HILF
100
AcDbLine
 10
566.0000000000003
 20
49.99999999999989
 30
0.0
 11
650.0
 21
49.99999999999989
 31
0.0
  0
LINE
  5
6F
330
1E
100
AcDbEntity
  8
HILF
100
AcDbLine
 10
654.773680109695
 20
84.03758247564121
 30
0.0
 11
746.6297842514812
 21
84.03758247564121
 31
0.0
  0
LINE
  5
70
330
1E
100
AcDbEntity
  8
HILF
100
AcDbLine
 10
654.773680109695
 20
69.99999999999989
 30
0.0
 11
746.6297842514812
 21
69.99999999999989
 31
0.0
  0
LINE
  5
71
330
1E
100
AcDbEntity
  8
HILF
100
AcDbLine
 10
654.773680109695
 20
59.99999999999989
 30
0.0
 11
746.6297842514812
 21
59.99999999999989
 31
0.0
  0
LINE
  5
72
330
1E
100
AcDbEntity
  8
HILF
100
AcDbLine
 10
654.773680109695
 20
49.99999999999989
 30
0.0
 11
746.6297842514812
 21
49.99999999999989
 31
0.0
  0
LINE
  5
73
330
1E
100
AcDbEntity
  8
VOLL
100
AcDbLine
 10
752.0000000000003
 20
59.99999999999989
 30
0.0
 11
830.0000000000004
 21
59.99999999999989
 31
0.0
  0
LINE
  5
74
330
1E
100
AcDbEntity
  8
HILF
100
AcDbLine
 10
756.7238616296996
 20
83.77983636955809
 30
0.0
 11
824.8588839326732
 21
83.77983636955804
 31
0.0
  0
LINE
  5
75
330
1E
100
AcDbEntity
  8
HILF
100
AcDbLine
 10
654.773680109695
 20
14.89398258028291
 30
0.0
 11
824.8588839326732
 21
14.89398258028291
 31
0.0
  0
TEXT
  5
76
330
1E
100
AcDbEntity
  8
TEXT
100
AcDbText
 10
492.3998239263299
 20
18.67381894984115
 30
0.0
 40
4.0
  1
Änderung
 41
0.8
  7
GREEKS
 72
     1
 11
503.1426810691869
 21
18.67381894984115
 31
0.0
100
AcDbText
  0
TEXT
  5
78
330
1E
100
AcDbEntity
  8
TEXT
100
AcDbText
 10
573.5163572150376
 20
102.4620895087087
 30
0.0
 40
5.0
  1
Maßstab
 41
0.8
  7
GREEKS
100
AcDbText
  0
TEXT
  5
79
330
1E
100
AcDbEntity
  8
TEXT
100
AcDbText
 10
654.8779403809009
 20
102.5489328011778
 30
0.0
 40
5.0
  1
Benennung
 41
0.8
  7
GREEKS
100
AcDbText
  0
TEXT
  5
7A
330
1E
100
AcDbEntity
  8
TEXT
100
AcDbText
 10
756.1787549576343
 20
102.3132034537135
 30
0.0
 40
5.0
  1
Zeichnungs Nr.
 41
0.8
  7
GREEKS
100
AcDbText
  0
TEXT
  5
7B
330
1E
100
AcDbEntity
  8
TEXT
100
AcDbText
 10
654.7422383911359
 20
30.84560570193048
 30
0.0
 40
5.0
  1
Bauvorhaben
 41
0.8
  7
GREEKS
100
AcDbText
  0
TEXT
  5
7C
330
1E
100
AcDbEntity
  8
TEXT
100
AcDbText
 10
756.7238616296995
 20
73.18118237099949
 30
0.0
 40
5.0
  1
Ersatz für:
 41
0.8
  7
GREEKS
100
AcDbText
  0
TEXT
  5
7D
330
1E
100
AcDbEntity
  8
TEXT
100
AcDbText
 10
478.2664110704578
 20
13.6546584602718
 30
0.0
 40
4.0
  1
Index
 50
89.99999999999998
 41
0.8
  7
GREEKS
100
AcDbText
  0
TEXT
  5
7E
330
1E
100
AcDbEntity
  8
TEXT
100
AcDbText
 10
529.8990113186979
 20
18.67156269339799
 30
0.0
 40
4.0
  1
Tag
 41
0.8
  7
GREEKS
 72
     1
 11
533.6323446520313
 21
18.67156269339799
 31
0.0
100
AcDbText
  0
TEXT
  5
7F
330
1E
100
AcDbEntity
  8
TEXT
100
AcDbText
 10
548.9795678138292
 20
18.59324216966391
 30
0.0
 40
4.0
  1
Name
 41
0.8
  7
GREEKS
 72
     1
 11
555.3033773376387
 21
18.59324216966391
 31
0.0
100
AcDbText
  0
TEXT
  5
80
330
1E
100
AcDbEntity
  8
TEXT
100
AcDbText
 10
592.3311673153651
 20
73.31880501229909
 30
0.0
 40
4.0
  1
Tag
 41
0.8
  7
GREEKS
100
AcDbText
  0
TEXT
  5
81
330
1E
100
AcDbEntity
  8
TEXT
100
AcDbText
 10
622.4626584226296
 20
73.30961091915208
 30
0.0
 40
4.0
  1
Name
 41
0.8
  7
GREEKS
100
AcDbText
  0
TEXT
  5
82
330
1E
100
AcDbEntity
  8
TEXT
100
AcDbText
 10
567.5836127167615
 20
63.62990369617946
 30
0.0
 40
4.0
  1
Gez.
 41
0.8
  7
GREEKS
100
AcDbText
  0
TEXT
  5
83
330
1E
100
AcDbEntity
  8
TEXT
100
AcDbText
 10
567.5515086571672
 20
53.68926291428365
 30
0.0
 40
4.0
  1
Gepr.
 41
0.8
  7
GREEKS
100
AcDbText
  0
TEXT
  5
84
330
1E
100
AcDbEntity
  8
TEXT
100
AcDbText
 10
567.6006777387303
 20
43.52946389649789
 30
0.0
 40
4.0
  1
Norm.
 41
0.8
  7
GREEKS
100
AcDbText
  0
TEXT
  5
85
330
1E
100
AcDbEntity
  8
TEXT
100
AcDbText
 10
757.2400861497007
 20
52.07416177878585
 30
0.0
 40
5.0
  1
ersetzt durch:
 41
0.8
  7
GREEKS
100
AcDbText
  0
TEXT
  5
86
330
1E
100
AcDbEntity
  8
TEXT
100
AcDbText
 10
568.8693027807324
 20
72.96682596523718
 30
0.0
 40
4.0
  1
2012
 41
0.8
  7
GREEKS
100
AcDbText
  0
LINE
  5
87
330
1E
100
AcDbEntity
  8
HILF
100
AcDbLine
 10
0.0
 20
0.0
 30
0.0
 11
840.0000000000002
 21
-0.0000000000001137
 31
0.0
  0
LINE
  5
88
330
1E
100
AcDbEntity
  8
HILF
100
AcDbLine
 10
840.0000000000002
 20
-0.0000000000001137
 30
0.0
 11
840.0000000000002
 21
593.9999999999998
 31
0.0
  0
LINE
  5
89
330
1E
100
AcDbEntity
  8
HILF
100
AcDbLine
 10
840.0000000000002
 20
593.9999999999998
 30
0.0
 11
0.0000000000001705
 21
594.0
 31
0.0
  0
LINE
  5
8B
330
1E
100
AcDbEntity
  8
STEMPEL
100
AcDbLine
 10
830.0
 20
583.9999999999998
 30
0.0
 11
40.00000000000011
 21
584.0
 31
0.0
  0
LINE
  5
8D
330
1E
100
AcDbEntity
  8
STEMPEL
100
AcDbLine
 10
40.0
 20
10.0
 30
0.0
 11
830.0
 21
9.999999999999886
 31
0.0
  0
LINE
  5
8E
330
1E
100
AcDbEntity
  8
STEMPEL
100
AcDbLine
 10
830.0
 20
9.999999999999886
 30
0.0
 11
830.0
 21
583.9999999999998
 31
0.0
  0
TEXT
  5
8F
330
1E
100
AcDbEntity
  8
TEXT
 62
     1
100
AcDbText
 10
655.0390572473189
 20
87.3734307565253
 30
0.0
 40
7.0
  1
Regenstandrohr DN80
 41
0.75
  7
GREEKS
100
AcDbText
  0
TEXT
  5
90
330
1E
100
AcDbEntity
  8
TEXT
 62
     1
100
AcDbText
 10
766.1294755517469
 20
87.37343075652526
 30
0.0
 40
7.0
  1
05520080W
 41
0.8
  7
GREEKS
 72
     1
 11
790.1294755517469
 21
87.37343075652526
 31
0.0
100
AcDbText
  0
TEXT
  5
91
330
1E
100
AcDbEntity
  8
TEXT
100
AcDbText
 10
618.5090226415829
 20
102.8398961137899
 30
0.0
 40
5.0
  1
Zul.Abw.
 41
0.8
  7
GREEKS
100
AcDbText
  0
TEXT
  5
93
330
1E
100
AcDbEntity
  8
TEXT
100
AcDbText
 10
590.4612856559488
 20
63.15085876120213
 30
0.0
 40
4.0
  1
29.10.
 41
0.8
  7
GREEKS
 72
     1
 11
597.1660475607107
 21
63.15085876120213
 31
0.0
100
AcDbText
  0
TEXT
  5
94
330
1E
100
AcDbEntity
  8
TEXT
100
AcDbText
 10
624.0231753226609
 20
62.94297655165462
 30
0.0
 40
4.0
  1
Koeh
 41
0.8
  7
GREEKS
 72
     1
 11
629.2803181798038
 21
62.94297655165462
 31
0.0
100
AcDbText
  0
TEXT
  5
95
330
1E
100
AcDbEntity
  8
TEXT
100
AcDbText
 10
654.3410940884991
 20
72.10021383107516
 30
0.0
 40
5.0
  1
mit runder Reinigungsöffnung
 41
0.8
  7
GREEKS
100
AcDbText
  0
TEXT
  5
97
330
1E
100
AcDbEntity
  8
TEXT
100
AcDbText
 10
654.3410940884991
 20
52.59097337846049
 30
0.0
 40
5.0
  1
EDV-Art.Nr. 05520.080X
 41
0.8
  7
GREEKS
100
AcDbText
  0
TEXT
  5
98
330
1E
100
AcDbEntity
  8
TEXT
100
AcDbText
 10
654.1676050109347
 20
43.31127624791498
 30
0.0
 40
4.0
  1
05520080W.DWG
 41
0.8
  7
GREEKS
100
AcDbText
  0
TEXT
  5
99
330
1E
100
AcDbEntity
  8
TEXT
 62
     1
100
AcDbText
 10
582.703491203422
 20
87.47077088414959
 30
0.0
 40
7.0
  1
1:2
 41
0.8
  7
GREEKS
100
AcDbText
  0
TEXT
  5
9A
330
1E
100
AcDbEntity
  8
TEXT
100
AcDbText
 10
470.0441139350129
 20
114.1143585051042
 30
0.0
 40
5.0
  1
Erstellt mit AUTOCAD 2004
 41
0.8
  7
GREEKS
100
AcDbText
  0
INSERT
  5
9B
330
1E
100
AcDbEntity
  8
HILF
100
AcDbBlockReference
  2
LORO
 10
573.0624985962354
 20
36.98059300298954
 30
0.0
 41
2.0
 42
2.0
 43
2.0
  0
LINE
  5
9C
330
1E
100
AcDbEntity
  8
BEM
100
AcDbLine
 10
456.0
 20
-0.0000000000001137
 30
0.0
 11
456.0
 21
9.999999999999886
 31
0.0
  0
LINE
  5
13E
330
1E
100
AcDbEntity
  8
HILF
100
AcDbLine
 10
0.0
 20
0.0
 30
0.0
 11
0.0000000000001705
 21
594.0
 31
0.0
  0
LINE
  5
13F
330
1E
100
AcDbEntity
  8
STEMPEL
100
AcDbLine
 10
40.0
 20
10.0
 30
0.0
 11
40.00000000000011
 21
584.0
 31
0.0
  0
LINE
  5
14A
330
1E
100
AcDbEntity
  8
HILF
100
AcDbLine
 10
0.0000000000000568
 20
297.0
 30
0.0
 11
40.00000000000006
 21
297.0
 31
0.0
  0
TEXT
  5
15B
330
1E
100
AcDbEntity
  8
BEM
100
AcDbText
 10
837.3022923857165
 20
10.16790107998847
 30
0.0
 40
4.0
  1
Diese Zeichnung ist urheberrechtlich geschützt und bleibt unser Eigentum. Sie darf weder ganz noch teilweise verfielfältigt und nicht an Dritte weitergegeben werden.
 50
89.99999999999998
 41
0.8
  7
GREEKS
100
AcDbText
  0
TEXT
  5
ACA
330
1E
100
AcDbEntity
  8
TEXT
100
AcDbText
 10
612.2898419893275
 20
89.26643524492067
 30
0.0
 40
4.0
  1
DIN EN1123-2
 41
0.8
  7
GREEKS
 72
     1
 11
629.2803181798038
 21
89.26643524492067
 31
0.0
100
AcDbText
  0
TEXT
  5
AE3
330
1E
100
AcDbEntity
  8
TEXT
 62
     1
100
AcDbText
 10
664.6057658946469
 20
129.0783465745481
 30
0.0
 40
7.0
  1

 41
0.8
  7
GREEKS
100
AcDbText
  0
TEXT
  5
1074
330
1E
100
AcDbEntity
  8
TEXT
 62
     1
100
AcDbText
 10
664.6057658946469
 20
129.0783465745481
 30
0.0
 40
7.0
  1
und innen beschichtet
 41
0.8
  7
GREEKS
100
AcDbText
  0
TEXT
  5
1075
330
1E
100
AcDbEntity
  8
TEXT
 62
     1
100
AcDbText
 10
616.6560484572491
 20
139.8004583895515
 30
0.0
 40
7.0
  1
Werkstoff: E195 EN10305 feuerverzinkt
 41
0.8
  7
GREEKS
100
AcDbText
  0
TEXT
  5
1081
330
1E
100
AcDbEntity
  8
TEXT
100
AcDbText
 10
654.3410940884991
 20
62.10021383107516
 30
0.0
 40
5.0
  1
2000mm lang
 41
0.8
  7
GREEKS
100
AcDbText
  0
TEXT
  5
14B4
330
1E
100
AcDbEntity
  8
TEXT
 62
     1
100
AcDbText
 10
659.7387890069635
 20
455.8275803988055
 30
0.0
 40
7.0
  1
DN80
 41
0.75
  7
GREEKS
100
AcDbText
  0
LINE
  5
1758
330
1E
100
AcDbEntity
  8
STEMPEL
100
AcDbLine
 10
735.5545514946091
 20
494.5993747928662
 30
0.0
 11
728.4591679181992
 21
494.5993747928662
 31
0.0
  0
LINE
  5
1759
330
1E
100
AcDbEntity
  8
STEMPEL
  6
Continuous
100
AcDbLine
 10
748.15930295718
 20
491.2647794632062
 30
0.0
 11
745.9509607334303
 21
492.2945463539678
 31
0.0
  0
ARC
  5
175A
330
1E
100
AcDbEntity
  8
STEMPEL
100
AcDbCircle
 10
712.819169893985
 20
503.0993747928662
 30
0.0
 40
12.0
100
AcDbArc
 50
270.0
 51
295.1220601866324
  0
LINE
  5
175B
330
1E
100
AcDbEntity
  8
STEMPEL
  6
Continuous
100
AcDbLine
 10
748.15930295718
 20
395.7339701225262
 30
0.0
 11
745.9509607334303
 21
394.7042032317647
 31
0.0
  0
ARC
  5
175C
330
1E
100
AcDbEntity
  8
STEMPEL
100
AcDbCircle
 10
712.819169893985
 20
383.8993747928662
 30
0.0
 40
12.0
100
AcDbArc
 50
64.87793981336759
 51
90.0
  0
LINE
  5
175D
330
1E
100
AcDbEntity
  8
STEMPEL
100
AcDbLine
 10
748.1593029571798
 20
491.2647794632062
 30
0.0
 11
748.15930295718
 21
395.7339701225262
 31
0.0
  0
LINE
  5
175E
330
1E
100
AcDbEntity
  8
HILF
100
AcDbLine
 10
715.4289229111904
 20
397.2466287871975
 30
0.0
 11
715.4289229111904
 21
489.7521207985359
 31
0.0
  0
LINE
  5
175F
330
1E
100
AcDbEntity
  8
STEMPEL
100
AcDbLine
 10
735.5545514946091
 20
392.3993747928662
 30
0.0
 11
728.4591679181992
 21
392.3993747928662
 31
0.0
  0
ARC
  5
1760
330
1E
100
AcDbEntity
  8
STEMPEL
  6
Continuous
100
AcDbCircle
 10
735.5545514946091
 20
303.3690518738681
 30
0.0
 40
24.6
100
AcDbArc
 50
65.00000000000655
 51
90.0
  0
LINE
  5
1761
330
1E
100
AcDbEntity
  8
STEMPEL
  6
Continuous
100
AcDbLine
 10
748.15930295718
 20
324.6344565442082
 30
0.0
 11
745.9509607334303
 21
325.6642234349697
 31
0.0
  0
ARC
  5
1762
330
1E
100
AcDbEntity
  8
STEMPEL
100
AcDbCircle
 10
728.5274479663899
 20
302.9690518738683
 30
0.0
 40
25.00009324312574
100
AcDbArc
 50
89.84351404566565
 51
115.2111779316851
  0
ARC
  5
1763
330
1E
100
AcDbEntity
  8
STEMPEL
100
AcDbCircle
 10
712.819169893985
 20
336.4690518738683
 30
0.0
 40
12.0
100
AcDbArc
 50
270.0
 51
295.1220601866324
  0
LINE
  5
1764
330
1E
100
AcDbEntity
  8
STEMPEL
100
AcDbLine
 10
735.5545514946091
 20
327.9690518738683
 30
0.0
 11
728.4591679181992
 21
327.9690518738683
 31
0.0
  0
ARC
  5
1765
330
1E
100
AcDbEntity
  8
STEMPEL
100
AcDbCircle
 10
728.5274479663899
 20
417.3993747928661
 30
0.0
 40
25.00009324312574
100
AcDbArc
 50
244.7888220683149
 51
270.1564859543343
  0
ARC
  5
1766
330
1E
100
AcDbEntity
  8
STEMPEL
  6
Continuous
100
AcDbCircle
 10
735.5545514946091
 20
416.9993747928662
 30
0.0
 40
24.6
100
AcDbArc
 50
270.0
 51
294.9999999999935
  0
LINE
  5
1767
330
1E
100
AcDbEntity
  8
HILF
100
AcDbLine
 10
620.2073707568989
 20
398.0505169910716
 30
0.0
 11
620.2073707568989
 21
488.9482325946598
 31
0.0
  0
ARC
  5
1768
330
1E
100
AcDbEntity
  8
STEMPEL
100
AcDbCircle
 10
612.8527032926115
 20
495.9993747928662
 30
0.0
 40
8.0
100
AcDbArc
 50
270.0
 51
302.3280641221636
  0
ARC
  5
1769
330
1E
100
AcDbEntity
  8
STEMPEL
100
AcDbCircle
 10
612.8527032926115
 20
390.9993747928663
 30
0.0
 40
8.0
100
AcDbArc
 50
57.67193587783641
 51
90.0
  0
LINE
  5
176A
330
1E
100
AcDbEntity
  8
HILF
100
AcDbLine
 10
615.0798090377435
 20
400.3374688168082
 30
0.0
 11
615.0798090377435
 21
486.6612807689228
 31
0.0
  0
ARC
  5
176B
330
1E
100
AcDbEntity
  8
STEMPEL
100
AcDbCircle
 10
623.548029374597
 20
407.8993747928661
 30
0.0
 40
12.0
100
AcDbArc
 50
237.6719358778364
 51
270.0
  0
ARC
  5
176C
330
1E
100
AcDbEntity
  8
STEMPEL
100
AcDbCircle
 10
623.548029374597
 20
479.0993747928662
 30
0.0
 40
12.0
100
AcDbArc
 50
90.0
 51
122.3280641221636
  0
ARC
  5
176D
330
1E
100
AcDbEntity
  8
STEMPEL
100
AcDbCircle
 10
612.8527032926115
 20
329.3690518738681
 30
0.0
 40
8.0
100
AcDbArc
 50
270.0
 51
302.3280641221636
  0
ARC
  5
176E
330
1E
100
AcDbEntity
  8
STEMPEL
100
AcDbCircle
 10
623.548029374597
 20
312.4690518738682
 30
0.0
 40
12.0
100
AcDbArc
 50
90.0
 51
122.3280641221636
  0
LINE
  5
176F
330
1E
100
AcDbEntity
  8
STEMPEL
100
AcDbLine
 10
712.819169893985
 20
395.8993747928662
 30
0.0
 11
623.548029374597
 21
395.8993747928662
 31
0.0
  0
LINE
  5
1770
330
1E
100
AcDbEntity
  8
STEMPEL
100
AcDbLine
 10
712.819169893985
 20
324.4690518738682
 30
0.0
 11
623.548029374597
 21
324.4690518738682
 31
0.0
  0
LINE
  5
1771
330
1E
100
AcDbEntity
  8
STEMPEL
100
AcDbLine
 10
712.819169893985
 20
491.0993747928662
 30
0.0
 11
623.548029374597
 21
491.0993747928662
 31
0.0
  0
ARC
  5
1772
330
1E
100
AcDbEntity
  8
STEMPEL
100
AcDbCircle
 10
728.5274479663899
 20
469.5993747928662
 30
0.0
 40
25.00009324312574
100
AcDbArc
 50
89.84351404566565
 51
115.2111779316851
  0
ARC
  5
1773
330
1E
100
AcDbEntity
  8
STEMPEL
  6
Continuous
100
AcDbCircle
 10
735.5545514946091
 20
469.9993747928663
 30
0.0
 40
24.6
100
AcDbArc
 50
65.00000000000655
 51
90.0
  0
TEXT
  5
1774
330
1E
100
AcDbEntity
  8
TEXT
 62
     1
100
AcDbText
 10
453.0909978140173
 20
526.4229171018524
 30
0.0
 40
7.0
  1
Deckel DN100
 41
0.75
  7
GREEKS
100
AcDbText
  0
ARC
  5
1775
330
1E
100
AcDbEntity
  8
STEMPEL
100
AcDbCircle
 10
425.6882415504848
 20
498.9993747928661
 30
0.0
 40
1.0
100
AcDbArc
 50
14.03624346792648
 51
90.0
  0
ARC
  5
1776
330
1E
100
AcDbEntity
  8
STEMPEL
100
AcDbCircle
 10
425.6882415504848
 20
498.9993747928661
 30
0.0
 40
3.0
100
AcDbArc
 50
14.03624346792648
 51
90.0
  0
LINE
  5
1777
330
1E
100
AcDbEntity
  8
STEMPEL
100
AcDbLine
 10
415.1593029571799
 20
501.999374792866
 30
0.0
 11
415.1593029571799
 21
499.9993747928661
 31
0.0
  0
LINE
  5
1778
330
1E
100
AcDbEntity
  8
STEMPEL
100
AcDbLine
 10
414.1593029571798
 20
499.9993747928661
 30
0.0
 11
414.1593029571799
 21
494.9993747928661
 31
0.0
  0
LINE
  5
1779
330
1E
100
AcDbEntity
  8
STEMPEL
100
AcDbLine
 10
425.1593029571798
 20
501.999374792866
 30
0.0
 11
425.1593029571798
 21
499.9993747928661
 31
0.0
  0
LINE
  5
177A
330
1E
100
AcDbEntity
  8
STEMPEL
100
AcDbLine
 10
425.6882415504848
 20
499.9993747928661
 30
0.0
 11
424.1593029571798
 21
499.9993747928661
 31
0.0
  0
LINE
  5
177B
330
1E
100
AcDbEntity
  8
STEMPEL
100
AcDbLine
 10
428.5986690509209
 20
499.7269816679752
 30
0.0
 11
430.1593029571799
 21
493.4844460429388
 31
0.0
  0
ARC
  5
177C
330
1E
100
AcDbEntity
  8
STEMPEL
100
AcDbCircle
 10
414.7676969910679
 20
505.5724238550026
 30
0.0
 40
2.926950985085932
100
AcDbArc
 50
52.11936428281847
 51
121.4691945238291
  0
LINE
  5
177D
330
1E
100
AcDbEntity
  8
STEMPEL
100
AcDbLine
 10
414.7682227623545
 20
508.4993747928661
 30
0.0
 11
425.5503831519958
 21
508.4993747928661
 31
0.0
  0
ARC
  5
177E
330
1E
100
AcDbEntity
  8
STEMPEL
100
AcDbCircle
 10
414.7676969910679
 20
504.9263257307295
 30
0.0
 40
2.926950985085932
100
AcDbArc
 50
238.5308054768434
 51
307.8806357171815
  0
LINE
  5
177F
330
1E
100
AcDbEntity
  8
STEMPEL
100
AcDbLine
 10
414.7682227623545
 20
501.999374792866
 30
0.0
 11
425.5503831519958
 21
501.999374792866
 31
0.0
  0
LINE
  5
1780
330
1E
100
AcDbEntity
  8
STEMPEL
100
AcDbLine
 10
412.9704950023638
 20
507.9134496037995
 30
0.0
 11
412.9704950023638
 21
502.5852999819326
 31
0.0
  0
LINE
  5
1781
330
1E
100
AcDbEntity
  8
STEMPEL
100
AcDbLine
 10
412.9704950023638
 20
502.5852999819326
 30
0.0
 11
413.2397113194923
 21
502.4298678687682
 31
0.0
  0
LINE
  5
1782
330
1E
100
AcDbEntity
  8
STEMPEL
100
AcDbLine
 10
412.9704950023638
 20
507.9134496037995
 30
0.0
 11
413.2397113194625
 21
508.0688817169467
 31
0.0
  0
ARC
  5
1783
330
1E
100
AcDbEntity
  8
STEMPEL
100
AcDbCircle
 10
425.5509089232918
 20
505.5724238550026
 30
0.0
 40
2.926950985085932
100
AcDbArc
 50
58.53080547515316
 51
127.8806357171815
  0
ARC
  5
1784
330
1E
100
AcDbEntity
  8
STEMPEL
100
AcDbCircle
 10
425.5509089232918
 20
504.9263257307295
 30
0.0
 40
2.926950985085932
100
AcDbArc
 50
232.1193642828185
 51
301.4691945241509
  0
ARC
  5
1785
330
1E
100
AcDbEntity
  8
STEMPEL
100
AcDbCircle
 10
420.1593029571799
 20
497.7166695928661
 30
0.0
 40
10.7827052
100
AcDbArc
 50
70.52782738138624
 51
109.4721726186137
  0
ARC
  5
1786
330
1E
100
AcDbEntity
  8
STEMPEL
100
AcDbCircle
 10
420.1593029571799
 20
512.782079992866
 30
0.0
 40
10.7827052
100
AcDbArc
 50
250.5278273813862
 51
289.4721726186137
  0
LINE
  5
1787
330
1E
100
AcDbEntity
  8
STEMPEL
100
AcDbLine
 10
416.5648989797719
 20
507.8826418275963
 30
0.0
 11
416.5648989797719
 21
502.6161077581362
 31
0.0
  0
LINE
  5
1788
330
1E
100
AcDbEntity
  8
STEMPEL
100
AcDbLine
 10
423.7537069345878
 20
507.8826418275963
 30
0.0
 11
423.7537069345878
 21
502.6161077581362
 31
0.0
  0
LINE
  5
1789
330
1E
100
AcDbEntity
  8
STEMPEL
100
AcDbLine
 10
427.3481109119958
 20
507.9134496037995
 30
0.0
 11
427.3481109119958
 21
502.5852999819326
 31
0.0
  0
LINE
  5
178A
330
1E
100
AcDbEntity
  8
STEMPEL
100
AcDbLine
 10
425.5457536819387
 20
501.999374792866
 30
0.0
 11
425.5503831519855
 21
501.999374792866
 31
0.0
  0
LINE
  5
178B
330
1E
100
AcDbEntity
  8
STEMPEL
100
AcDbLine
 10
427.3481109119958
 20
502.5852999819326
 30
0.0
 11
427.0788945949113
 21
502.4298678687936
 31
0.0
  0
LINE
  5
178C
330
1E
100
AcDbEntity
  8
STEMPEL
100
AcDbLine
 10
425.5457536819387
 20
508.4993747928661
 30
0.0
 11
425.5503831519855
 21
508.4993747928661
 31
0.0
  0
LINE
  5
178D
330
1E
100
AcDbEntity
  8
STEMPEL
100
AcDbLine
 10
427.3481109119958
 20
507.9134496037995
 30
0.0
 11
427.0788945949421
 21
508.0688817169208
 31
0.0
  0
ARC
  5
178E
330
1E
100
AcDbEntity
  8
STEMPEL
100
AcDbCircle
 10
420.1593029571799
 20
510.9493747928661
 30
0.0
 40
5.65
100
AcDbArc
 50
0.0
 51
180.0
  0
LINE
  5
178F
330
1E
100
AcDbEntity
  8
STEMPEL
100
AcDbLine
 10
414.5093029571798
 20
510.9493747928661
 30
0.0
 11
414.5093029571798
 21
508.4879468942439
 31
0.0
  0
LINE
  5
1790
330
1E
100
AcDbEntity
  8
STEMPEL
100
AcDbLine
 10
425.8093029571798
 20
510.9493747928661
 30
0.0
 11
425.8093029571798
 21
508.4879468942439
 31
0.0
  0
ARC
  5
1791
330
1E
100
AcDbEntity
  8
STEMPEL
100
AcDbCircle
 10
404.7541781192266
 20
498.9993747928662
 30
0.0
 40
1.0
100
AcDbArc
 50
90.0
 51
151.4947254476736
  0
ARC
  5
1792
330
1E
100
AcDbEntity
  8
STEMPEL
100
AcDbCircle
 10
404.7541781192266
 20
498.9993747928662
 30
0.0
 40
3.0
100
AcDbArc
 50
90.0
 51
151.4947254476736
  0
ARC
  5
1793
330
1E
100
AcDbEntity
  8
STEMPEL
100
AcDbCircle
 10
399.6593029571799
 20
497.9993747928662
 30
0.0
 40
3.0
100
AcDbArc
 50
270.0
 51
331.4947254476736
  0
LINE
  5
1794
330
1E
100
AcDbEntity
  8
STEMPEL
100
AcDbLine
 10
403.875404936715
 20
499.4766144535173
 30
0.0
 11
402.2956225047147
 21
496.5676558109128
 31
0.0
  0
LINE
  5
1795
330
1E
100
AcDbEntity
  8
STEMPEL
100
AcDbLine
 10
402.1178585716917
 20
500.4310937748195
 30
0.0
 11
400.5380761396915
 21
497.522135132215
 31
0.0
  0
ARC
  5
1796
330
1E
100
AcDbEntity
  8
STEMPEL
100
AcDbCircle
 10
399.6593029571799
 20
497.9993747928662
 30
0.0
 40
1.0
100
AcDbArc
 50
270.0
 51
331.4947254476736
  0
LINE
  5
1797
330
1E
100
AcDbEntity
  8
STEMPEL
100
AcDbLine
 10
403.1593029571799
 20
498.1580081694118
 30
0.0
 11
403.1593029571799
 21
494.9993747928661
 31
0.0
  0
LINE
  5
1798
330
1E
100
AcDbEntity
  8
STEMPEL
100
AcDbLine
 10
408.1593029571799
 20
494.9993747928661
 30
0.0
 11
408.1593029571799
 21
493.999374792866
 31
0.0
  0
LINE
  5
1799
330
1E
100
AcDbEntity
  8
STEMPEL
100
AcDbLine
 10
409.7593029571799
 20
494.9993747928661
 30
0.0
 11
409.7593029571799
 21
493.999374792866
 31
0.0
  0
LINE
  5
179A
330
1E
100
AcDbEntity
  8
STEMPEL
100
AcDbLine
 10
416.1593029571797
 20
499.9993747928661
 30
0.0
 11
404.7541781192266
 21
499.9993747928661
 31
0.0
  0
ARC
  5
179B
330
1E
100
AcDbEntity
  8
STEMPEL
100
AcDbCircle
 10
371.9231918460687
 20
497.599374792866
 30
0.0
 40
0.4
100
AcDbArc
 50
90.0
 51
180.0
  0
ARC
  5
179C
330
1E
100
AcDbEntity
  8
STEMPEL
100
AcDbCircle
 10
367.7231918460687
 20
497.5993747928661
 30
0.0
 40
0.4
100
AcDbArc
 50
90.0
 51
180.0
  0
LINE
  5
179D
330
1E
100
AcDbEntity
  8
STEMPEL
100
AcDbLine
 10
367.3231918460687
 20
497.3993747928662
 30
0.0
 11
367.3231918460687
 21
497.5993747928661
 31
0.0
  0
ARC
  5
179E
330
1E
100
AcDbEntity
  8
STEMPEL
100
AcDbCircle
 10
366.9231918460687
 20
497.3993747928662
 30
0.0
 40
0.4
100
AcDbArc
 50
270.0
 51
0.0
  0
LINE
  5
179F
330
1E
100
AcDbEntity
  8
STEMPEL
100
AcDbLine
 10
371.1231918460687
 20
496.9993747928663
 30
0.0
 11
370.2120807349576
 21
496.9993747928663
 31
0.0
  0
ARC
  5
17A0
330
1E
100
AcDbEntity
  8
STEMPEL
100
AcDbCircle
 10
370.2120807349576
 20
497.3993747928662
 30
0.0
 40
0.4
100
AcDbArc
 50
180.0
 51
270.0
  0
LINE
  5
17A1
330
1E
100
AcDbEntity
  8
STEMPEL
100
AcDbLine
 10
369.8120807349576
 20
497.3993747928662
 30
0.0
 11
369.8120807349576
 21
497.5993747928661
 31
0.0
  0
ARC
  5
17A2
330
1E
100
AcDbEntity
  8
STEMPEL
100
AcDbCircle
 10
369.4120807349577
 20
497.5993747928661
 30
0.0
 40
0.4
100
AcDbArc
 50
0.0
 51
90.0
  0
LINE
  5
17A3
330
1E
100
AcDbEntity
  8
STEMPEL
100
AcDbLine
 10
371.5231918460688
 20
497.3993747928663
 30
0.0
 11
371.5231918460688
 21
497.599374792866
 31
0.0
  0
ARC
  5
17A4
330
1E
100
AcDbEntity
  8
STEMPEL
100
AcDbCircle
 10
371.1231918460687
 20
497.3993747928663
 30
0.0
 40
0.4
100
AcDbArc
 50
270.0
 51
0.0
  0
ARC
  5
17A5
330
1E
100
AcDbEntity
  8
STEMPEL
100
AcDbCircle
 10
374.4120807349577
 20
497.3993747928662
 30
0.0
 40
0.4
100
AcDbArc
 50
180.0
 51
270.0
  0
LINE
  5
17A6
330
1E
100
AcDbEntity
  8
STEMPEL
100
AcDbLine
 10
374.0120807349577
 20
497.3993747928662
 30
0.0
 11
374.0120807349577
 21
497.599374792866
 31
0.0
  0
ARC
  5
17A7
330
1E
100
AcDbEntity
  8
STEMPEL
100
AcDbCircle
 10
373.6120807349577
 20
497.599374792866
 30
0.0
 40
0.4
100
AcDbArc
 50
0.0
 51
90.0
  0
LINE
  5
17A8
330
1E
100
AcDbEntity
  8
STEMPEL
100
AcDbLine
 10
362.3065251794022
 20
497.3993747928662
 30
0.0
 11
362.3065251794022
 21
497.5993747928661
 31
0.0
  0
ARC
  5
17A9
330
1E
100
AcDbEntity
  8
STEMPEL
100
AcDbCircle
 10
362.7065251794022
 20
497.5993747928661
 30
0.0
 40
0.4
100
AcDbArc
 50
90.0
 51
180.0
  0
ARC
  5
17AA
330
1E
100
AcDbEntity
  8
STEMPEL
100
AcDbCircle
 10
361.9065251794022
 20
497.3993747928662
 30
0.0
 40
0.4
100
AcDbArc
 50
270.0
 51
0.0
  0
LINE
  5
17AB
330
1E
100
AcDbEntity
  8
STEMPEL
100
AcDbLine
 10
373.6120807349577
 20
497.999374792866
 30
0.0
 11
362.7065251794022
 21
497.9993747928662
 31
0.0
  0
LINE
  5
17AC
330
1E
100
AcDbEntity
  8
STEMPEL
100
AcDbLine
 10
399.6593029571799
 20
496.9993747928663
 30
0.0
 11
374.4120807349577
 21
496.9993747928663
 31
0.0
  0
LINE
  5
17AD
330
1E
100
AcDbEntity
  8
TEXT
 62
     2
100
AcDbLine
 10
452.7753744254671
 20
523.043011684956
 30
0.0
 11
428.5593369182623
 21
496.712641544688
 31
0.0
  0
LINE
  5
17B0
330
1E
100
AcDbEntity
  8
STEMPEL
100
AcDbLine
 10
331.5644277951333
 20
499.9993747928661
 30
0.0
 11
320.1593029571799
 21
499.9993747928661
 31
0.0
  0
LINE
  5
17B1
330
1E
100
AcDbEntity
  8
STEMPEL
100
AcDbLine
 10
321.1593029571799
 20
501.999374792866
 30
0.0
 11
321.1593029571799
 21
499.9993747928661
 31
0.0
  0
LINE
  5
17B2
330
1E
100
AcDbEntity
  8
STEMPEL
100
AcDbLine
 10
322.1593029571799
 20
499.9993747928661
 30
0.0
 11
322.1593029571799
 21
494.9993747928661
 31
0.0
  0
LINE
  5
17B3
330
1E
100
AcDbEntity
  8
STEMPEL
100
AcDbLine
 10
328.1593029571799
 20
494.9993747928661
 30
0.0
 11
328.1593029571799
 21
493.999374792866
 31
0.0
  0
LINE
  5
17B4
330
1E
100
AcDbEntity
  8
STEMPEL
100
AcDbLine
 10
326.5593029571799
 20
494.9993747928661
 30
0.0
 11
326.5593029571799
 21
493.999374792866
 31
0.0
  0
ARC
  5
17B5
330
1E
100
AcDbEntity
  8
STEMPEL
100
AcDbCircle
 10
331.5644277951333
 20
498.9993747928661
 30
0.0
 40
1.0
100
AcDbArc
 50
28.50527455232638
 51
90.0
  0
LINE
  5
17B6
330
1E
100
AcDbEntity
  8
STEMPEL
100
AcDbLine
 10
332.443200977645
 20
499.4766144535171
 30
0.0
 11
334.0229834096452
 21
496.5676558109126
 31
0.0
  0
ARC
  5
17B7
330
1E
100
AcDbEntity
  8
STEMPEL
100
AcDbCircle
 10
336.6593029571799
 20
497.999374792866
 30
0.0
 40
3.0
100
AcDbArc
 50
208.5052745523264
 51
270.0
  0
ARC
  5
17B8
330
1E
100
AcDbEntity
  8
STEMPEL
100
AcDbCircle
 10
336.6593029571799
 20
497.999374792866
 30
0.0
 40
1.0
100
AcDbArc
 50
208.5052745523264
 51
270.0
  0
LINE
  5
17B9
330
1E
100
AcDbEntity
  8
STEMPEL
100
AcDbLine
 10
334.2007473426681
 20
500.4310937748194
 30
0.0
 11
335.7805297746683
 21
497.5221351322148
 31
0.0
  0
ARC
  5
17BA
330
1E
100
AcDbEntity
  8
STEMPEL
100
AcDbCircle
 10
331.5644277951333
 20
498.9993747928661
 30
0.0
 40
3.0
100
AcDbArc
 50
28.50527455232638
 51
90.0
  0
LINE
  5
17BB
330
1E
100
AcDbEntity
  8
STEMPEL
100
AcDbLine
 10
333.1593029571799
 20
498.1580081694121
 30
0.0
 11
333.1593029571798
 21
494.9993747928661
 31
0.0
  0
LINE
  5
17BC
330
1E
100
AcDbEntity
  8
STEMPEL
100
AcDbLine
 10
321.8093029571798
 20
510.9493747928661
 30
0.0
 11
321.8093029571798
 21
508.4879468942439
 31
0.0
  0
LINE
  5
17BD
330
1E
100
AcDbEntity
  8
STEMPEL
100
AcDbLine
 10
323.3481109119959
 20
507.9134496037995
 30
0.0
 11
323.0788945949421
 21
508.0688817169208
 31
0.0
  0
LINE
  5
17BE
330
1E
100
AcDbEntity
  8
STEMPEL
100
AcDbLine
 10
321.5457536819388
 20
508.4993747928661
 30
0.0
 11
321.5503831519856
 21
508.4993747928661
 31
0.0
  0
LINE
  5
17BF
330
1E
100
AcDbEntity
  8
STEMPEL
100
AcDbLine
 10
323.3481109119959
 20
502.5852999819326
 30
0.0
 11
323.0788945949113
 21
502.4298678687936
 31
0.0
  0
LINE
  5
17C0
330
1E
100
AcDbEntity
  8
STEMPEL
100
AcDbLine
 10
321.5457536819388
 20
501.999374792866
 30
0.0
 11
321.5503831519856
 21
501.999374792866
 31
0.0
  0
LINE
  5
17C1
330
1E
100
AcDbEntity
  8
STEMPEL
100
AcDbLine
 10
323.3481109119959
 20
507.9134496037995
 30
0.0
 11
323.3481109119959
 21
502.5852999819326
 31
0.0
  0
LINE
  5
17C2
330
1E
100
AcDbEntity
  8
STEMPEL
100
AcDbLine
 10
319.7537069345879
 20
507.8826418275963
 30
0.0
 11
319.7537069345878
 21
502.6161077581362
 31
0.0
  0
ARC
  5
17C3
330
1E
100
AcDbEntity
  8
STEMPEL
100
AcDbCircle
 10
321.5509089232919
 20
504.9263257307295
 30
0.0
 40
2.926950985085932
100
AcDbArc
 50
232.1193642828185
 51
301.4691945241509
  0
ARC
  5
17C4
330
1E
100
AcDbEntity
  8
STEMPEL
100
AcDbCircle
 10
321.5509089232919
 20
505.5724238550026
 30
0.0
 40
2.926950985085932
100
AcDbArc
 50
58.53080547515316
 51
127.8806357171815
  0
LINE
  5
17C5
330
1E
100
AcDbEntity
  8
STEMPEL
100
AcDbLine
 10
307.7199368634389
 20
499.7269816679751
 30
0.0
 11
306.1593029571799
 21
493.4844460429387
 31
0.0
  0
LINE
  5
17C6
330
1E
100
AcDbEntity
  8
STEMPEL
100
AcDbLine
 10
312.1593029571799
 20
499.9993747928661
 30
0.0
 11
310.6303643638749
 21
499.9993747928661
 31
0.0
  0
LINE
  5
17C7
330
1E
100
AcDbEntity
  8
STEMPEL
100
AcDbLine
 10
311.1593029571799
 20
501.999374792866
 30
0.0
 11
311.1593029571799
 21
499.9993747928661
 31
0.0
  0
ARC
  5
17C8
330
1E
100
AcDbEntity
  8
STEMPEL
100
AcDbCircle
 10
310.6303643638749
 20
498.9993747928661
 30
0.0
 40
3.0
100
AcDbArc
 50
90.0
 51
165.9637565320735
  0
ARC
  5
17C9
330
1E
100
AcDbEntity
  8
STEMPEL
100
AcDbCircle
 10
310.6303643638749
 20
498.9993747928661
 30
0.0
 40
1.0
100
AcDbArc
 50
90.0
 51
165.9637565320735
  0
LINE
  5
17CA
330
1E
100
AcDbEntity
  8
STEMPEL
100
AcDbLine
 10
310.5093029571798
 20
510.9493747928661
 30
0.0
 11
310.5093029571798
 21
508.4879468942439
 31
0.0
  0
LINE
  5
17CB
330
1E
100
AcDbEntity
  8
STEMPEL
100
AcDbLine
 10
312.5648989797719
 20
507.8826418275963
 30
0.0
 11
312.5648989797719
 21
502.6161077581362
 31
0.0
  0
LINE
  5
17CC
330
1E
100
AcDbEntity
  8
STEMPEL
100
AcDbLine
 10
308.9704950023639
 20
507.9134496037995
 30
0.0
 11
309.2397113194626
 21
508.0688817169467
 31
0.0
  0
LINE
  5
17CD
330
1E
100
AcDbEntity
  8
STEMPEL
100
AcDbLine
 10
308.9704950023639
 20
502.5852999819326
 30
0.0
 11
309.2397113194924
 21
502.4298678687682
 31
0.0
  0
LINE
  5
17CE
330
1E
100
AcDbEntity
  8
STEMPEL
100
AcDbLine
 10
308.9704950023639
 20
507.9134496037995
 30
0.0
 11
308.9704950023639
 21
502.5852999819326
 31
0.0
  0
ARC
  5
17CF
330
1E
100
AcDbEntity
  8
STEMPEL
100
AcDbCircle
 10
310.767696991068
 20
504.9263257307295
 30
0.0
 40
2.926950985085932
100
AcDbArc
 50
238.5308054768434
 51
307.8806357171815
  0
ARC
  5
17D0
330
1E
100
AcDbEntity
  8
STEMPEL
100
AcDbCircle
 10
310.767696991068
 20
505.5724238550026
 30
0.0
 40
2.926950985085932
100
AcDbArc
 50
52.11936428281847
 51
121.4691945238291
  0
ARC
  5
17D1
330
1E
100
AcDbEntity
  8
STEMPEL
100
AcDbCircle
 10
316.1593029571799
 20
510.9493747928661
 30
0.0
 40
5.65
100
AcDbArc
 50
0.0
 51
180.0
  0
ARC
  5
17D2
330
1E
100
AcDbEntity
  8
STEMPEL
100
AcDbCircle
 10
316.1593029571799
 20
512.782079992866
 30
0.0
 40
10.7827052
100
AcDbArc
 50
250.5278273813862
 51
289.4721726186137
  0
ARC
  5
17D3
330
1E
100
AcDbEntity
  8
STEMPEL
100
AcDbCircle
 10
316.1593029571799
 20
497.7166695928661
 30
0.0
 40
10.7827052
100
AcDbArc
 50
70.52782738138624
 51
109.4721726186137
  0
LINE
  5
17D4
330
1E
100
AcDbEntity
  8
STEMPEL
100
AcDbLine
 10
310.7682227623545
 20
501.999374792866
 30
0.0
 11
321.5503831519959
 21
501.999374792866
 31
0.0
  0
LINE
  5
17D5
330
1E
100
AcDbEntity
  8
STEMPEL
100
AcDbLine
 10
310.7682227623545
 20
508.4993747928661
 30
0.0
 11
321.5503831519959
 21
508.4993747928661
 31
0.0
  0
LINE
  5
17D6
330
1E
100
AcDbEntity
  8
STEMPEL
100
AcDbLine
 10
425.6882415504848
 20
501.999374792866
 30
0.0
 11
310.6303643638749
 21
501.999374792866
 31
0.0
  0
LINE
  5
17D7
330
1E
100
AcDbEntity
  8
STEMPEL
100
AcDbLine
 10
414.1593029571799
 20
494.9993747928661
 30
0.0
 11
322.1593029571799
 21
494.9993747928661
 31
0.0
  0
INSERT
  5
17D8
330
1E
100
AcDbEntity
  8
SCHRAFF
100
AcDbBlockReference
  2
*X3
 10
0.0000000000001137
 20
-17.72287454083482
 30
0.0
1001
ACAD
1000
HATCH
1002
{
1070
    16
1000
NET,I
1040
10.0
1040
0.7853981633974483
1002
}
  0
LINE
  5
17D9
330
1E
100
AcDbEntity
  8
STEMPEL
100
AcDbLine
 10
399.6593029571799
 20
494.9993747928661
 30
0.0
 11
336.6593029571799
 21
494.9993747928661
 31
0.0
  0
LINE
  5
17DA
330
1E
100
AcDbEntity
  8
STEMPEL
100
AcDbLine
 10
366.9231918460687
 20
496.9993747928663
 30
0.0
 11
336.6593029571799
 21
496.9993747928661
 31
0.0
  0
LINE
  5
17DC
330
1E
100
AcDbEntity
  8
STEMPEL
100
AcDbLine
 10
428.2190179568894
 20
492.999374792866
 30
0.0
 11
424.1593029571798
 21
492.999374792866
 31
0.0
  0
LINE
  5
17DD
330
1E
100
AcDbEntity
  8
STEMPEL
100
AcDbLine
 10
416.1593029571797
 20
492.999374792866
 30
0.0
 11
409.8432231740802
 21
492.999374792866
 31
0.0
  0
LINE
  5
17DE
330
1E
100
AcDbEntity
  8
HILF
100
AcDbLine
 10
409.3275432344464
 20
487.4211936712308
 30
0.0
 11
370.2109018166877
 21
445.6881968778393
 31
0.0
  0
LINE
  5
17DF
330
1E
100
AcDbEntity
  8
STEMPEL
100
AcDbLine
 10
446.0038893970128
 20
486.3993747928661
 30
0.0
 11
415.7593029571798
 21
486.3993747928661
 31
0.0
  0
LINE
  5
17E2
330
1E
100
AcDbEntity
  8
STEMPEL
100
AcDbLine
 10
326.4753827402795
 20
492.999374792866
 30
0.0
 11
320.1593029571799
 21
492.9993747928661
 31
0.0
  0
LINE
  5
17E3
330
1E
100
AcDbEntity
  8
STEMPEL
100
AcDbLine
 10
312.1593029571799
 20
492.999374792866
 30
0.0
 11
308.0995879574706
 21
492.999374792866
 31
0.0
  0
LINE
  5
17E4
330
1E
100
AcDbEntity
  8
STEMPEL
100
AcDbLine
 10
320.5593029571799
 20
486.3993747928661
 30
0.0
 11
304.2271983100985
 21
486.3993747928661
 31
0.0
  0
ARC
  5
17E5
330
1E
100
AcDbEntity
  8
STEMPEL
100
AcDbCircle
 10
199.4478925527927
 20
499.9993747928662
 30
0.0
 40
12.0
100
AcDbArc
 50
226.8165782038261
 51
270.0
  0
LINE
  5
17E6
330
1E
100
AcDbEntity
  8
STEMPEL
100
AcDbLine
 10
222.7856390301431
 20
487.9993747928661
 30
0.0
 11
199.4478925527927
 21
487.9993747928661
 31
0.0
  0
ARC
  5
17E7
330
1E
100
AcDbEntity
  8
STEMPEL
100
AcDbCircle
 10
199.4478925527927
 20
386.9993747928664
 30
0.0
 40
12.0
100
AcDbArc
 50
90.0
 51
133.1834217961739
  0
LINE
  5
17E8
330
1E
100
AcDbEntity
  8
STEMPEL
100
AcDbLine
 10
222.7856390301432
 20
398.9993747928661
 30
0.0
 11
199.4478925527927
 21
398.9993747928661
 31
0.0
  0
POLYLINE
  5
17E9
330
1E
100
AcDbEntity
  8
HILF
100
AcDb2dPolyline
 66
     1
 10
0.0
 20
0.0
 30
0.0
 70
     4
 75
     6
  0
VERTEX
  5
17EA
330
17E9
100
AcDbEntity
  8
HILF
100
AcDbVertex
100
AcDb2dVertex
 10
222.7856390301431
 20
487.9993747928663
 30
0.0
 70
    16
  0
VERTEX
  5
17EB
330
17E9
100
AcDbEntity
  8
HILF
100
AcDbVertex
100
AcDb2dVertex
 10
222.7856390301431
 20
487.9993747928663
 30
0.0
 70
     8
  0
VERTEX
  5
17EC
330
17E9
100
AcDbEntity
  8
HILF
100
AcDbVertex
100
AcDb2dVertex
 10
225.4278269562757
 20
480.9458564441329
 30
0.0
 70
     8
  0
VERTEX
  5
17ED
330
17E9
100
AcDbEntity
  8
HILF
100
AcDbVertex
100
AcDb2dVertex
 10
227.166184107721
 20
474.4983488983889
 30
0.0
 70
     8
  0
VERTEX
  5
17EE
330
17E9
100
AcDbEntity
  8
HILF
100
AcDbVertex
100
AcDb2dVertex
 10
228.1131589718349
 20
468.5658402165056
 30
0.0
 70
     8
  0
VERTEX
  5
17EF
330
17E9
100
AcDbEntity
  8
HILF
100
AcDbVertex
100
AcDb2dVertex
 10
228.3812000359729
 20
463.0573184593544
 30
0.0
 70
     8
  0
VERTEX
  5
17F0
330
17E9
100
AcDbEntity
  8
HILF
100
AcDbVertex
100
AcDb2dVertex
 10
228.0827557874909
 20
457.8817716878068
 30
0.0
 70
     8
  0
VERTEX
  5
17F1
330
17E9
100
AcDbEntity
  8
HILF
100
AcDbVertex
100
AcDb2dVertex
 10
227.3302747137444
 20
452.9481879627342
 30
0.0
 70
     8
  0
VERTEX
  5
17F2
330
17E9
100
AcDbEntity
  8
HILF
100
AcDbVertex
100
AcDb2dVertex
 10
226.2362053020895
 20
448.165555345008
 30
0.0
 70
     8
  0
VERTEX
  5
17F3
330
17E9
100
AcDbEntity
  8
HILF
100
AcDbVertex
100
AcDb2dVertex
 10
224.9129960398816
 20
443.4428618954995
 30
0.0
 70
     8
  0
VERTEX
  5
17F4
330
17E9
100
AcDbEntity
  8
HILF
100
AcDbVertex
100
AcDb2dVertex
 10
223.479371846557
 20
438.6932005249494
 30
0.0
 70
     8
  0
VERTEX
  5
17F5
330
17E9
100
AcDbEntity
  8
HILF
100
AcDbVertex
100
AcDb2dVertex
 10
222.0791633698731
 20
433.8460835435751
 30
0.0
 70
     8
  0
VERTEX
  5
17F6
330
17E9
100
AcDbEntity
  8
HILF
100
AcDbVertex
100
AcDb2dVertex
 10
220.8624776896676
 20
428.8351281114629
 30
0.0
 70
     8
  0
VERTEX
  5
17F7
330
17E9
100
AcDbEntity
  8
HILF
100
AcDbVertex
100
AcDb2dVertex
 10
219.9794218857786
 20
423.5939513886997
 30
0.0
 70
     8
  0
VERTEX
  5
17F8
330
17E9
100
AcDbEntity
  8
HILF
100
AcDbVertex
100
AcDb2dVertex
 10
219.5801030380438
 20
418.056170535372
 30
0.0
 70
     8
  0
VERTEX
  5
17F9
330
17E9
100
AcDbEntity
  8
HILF
100
AcDbVertex
100
AcDb2dVertex
 10
219.814628226301
 20
412.1554027115661
 30
0.0
 70
     8
  0
VERTEX
  5
17FA
330
17E9
100
AcDbEntity
  8
HILF
100
AcDbVertex
100
AcDb2dVertex
 10
220.8331045303883
 20
405.8252650773686
 30
0.0
 70
     8
  0
VERTEX
  5
17FB
330
17E9
100
AcDbEntity
  8
HILF
100
AcDbVertex
100
AcDb2dVertex
 10
222.7856390301432
 20
398.9993747928663
 30
0.0
 70
     8
  0
VERTEX
  5
17FC
330
17E9
100
AcDbEntity
  8
HILF
100
AcDbVertex
100
AcDb2dVertex
 10
231.1365354103959
 20
468.3010786241438
 30
0.0
 70
    16
  0
VERTEX
  5
17FD
330
17E9
100
AcDbEntity
  8
HILF
100
AcDbVertex
100
AcDb2dVertex
 10
226.1577039139845
 20
443.7743047852148
 30
0.0
 70
    16
  0
VERTEX
  5
17FE
330
17E9
100
AcDbEntity
  8
HILF
100
AcDbVertex
100
AcDb2dVertex
 10
216.2000409211615
 20
417.9217593874246
 30
0.0
 70
    16
  0
VERTEX
  5
17FF
330
17E9
100
AcDbEntity
  8
HILF
100
AcDbVertex
100
AcDb2dVertex
 10
222.7856390301432
 20
398.9993747928663
 30
0.0
 70
    16
  0
SEQEND
  5
1800
330
17E9
100
AcDbEntity
  8
HILF
  0
POLYLINE
  5
1801
330
1E
100
AcDbEntity
  8
HILF
100
AcDb2dPolyline
 66
     1
 10
0.0
 20
0.0
 30
0.0
 70
     4
 75
     6
  0
VERTEX
  5
1802
330
1801
100
AcDbEntity
  8
HILF
100
AcDbVertex
100
AcDb2dVertex
 10
222.7856390301431
 20
487.9993747928663
 30
0.0
 70
    16
  0
VERTEX
  5
1803
330
1801
100
AcDbEntity
  8
HILF
100
AcDbVertex
100
AcDb2dVertex
 10
222.7856390301431
 20
487.9993747928663
 30
0.0
 70
     8
  0
VERTEX
  5
1804
330
1801
100
AcDbEntity
  8
HILF
100
AcDbVertex
100
AcDb2dVertex
 10
225.4278269562757
 20
480.9458564441329
 30
0.0
 70
     8
  0
VERTEX
  5
1805
330
1801
100
AcDbEntity
  8
HILF
100
AcDbVertex
100
AcDb2dVertex
 10
227.166184107721
 20
474.4983488983889
 30
0.0
 70
     8
  0
VERTEX
  5
1806
330
1801
100
AcDbEntity
  8
HILF
100
AcDbVertex
100
AcDb2dVertex
 10
228.1131589718349
 20
468.5658402165056
 30
0.0
 70
     8
  0
VERTEX
  5
1807
330
1801
100
AcDbEntity
  8
HILF
100
AcDbVertex
100
AcDb2dVertex
 10
228.3812000359729
 20
463.0573184593544
 30
0.0
 70
     8
  0
VERTEX
  5
1808
330
1801
100
AcDbEntity
  8
HILF
100
AcDbVertex
100
AcDb2dVertex
 10
228.0827557874909
 20
457.8817716878068
 30
0.0
 70
     8
  0
VERTEX
  5
1809
330
1801
100
AcDbEntity
  8
HILF
100
AcDbVertex
100
AcDb2dVertex
 10
227.3302747137444
 20
452.9481879627342
 30
0.0
 70
     8
  0
VERTEX
  5
180A
330
1801
100
AcDbEntity
  8
HILF
100
AcDbVertex
100
AcDb2dVertex
 10
226.2362053020895
 20
448.165555345008
 30
0.0
 70
     8
  0
VERTEX
  5
180B
330
1801
100
AcDbEntity
  8
HILF
100
AcDbVertex
100
AcDb2dVertex
 10
224.9129960398816
 20
443.4428618954995
 30
0.0
 70
     8
  0
VERTEX
  5
180C
330
1801
100
AcDbEntity
  8
HILF
100
AcDbVertex
100
AcDb2dVertex
 10
223.479371846557
 20
438.6932005249494
 30
0.0
 70
     8
  0
VERTEX
  5
180D
330
1801
100
AcDbEntity
  8
HILF
100
AcDbVertex
100
AcDb2dVertex
 10
222.0791633698731
 20
433.8460835435751
 30
0.0
 70
     8
  0
VERTEX
  5
180E
330
1801
100
AcDbEntity
  8
HILF
100
AcDbVertex
100
AcDb2dVertex
 10
220.8624776896676
 20
428.8351281114629
 30
0.0
 70
     8
  0
VERTEX
  5
180F
330
1801
100
AcDbEntity
  8
HILF
100
AcDbVertex
100
AcDb2dVertex
 10
219.9794218857786
 20
423.5939513886997
 30
0.0
 70
     8
  0
VERTEX
  5
1810
330
1801
100
AcDbEntity
  8
HILF
100
AcDbVertex
100
AcDb2dVertex
 10
219.5801030380438
 20
418.056170535372
 30
0.0
 70
     8
  0
VERTEX
  5
1811
330
1801
100
AcDbEntity
  8
HILF
100
AcDbVertex
100
AcDb2dVertex
 10
219.814628226301
 20
412.1554027115661
 30
0.0
 70
     8
  0
VERTEX
  5
1812
330
1801
100
AcDbEntity
  8
HILF
100
AcDbVertex
100
AcDb2dVertex
 10
220.8331045303883
 20
405.8252650773686
 30
0.0
 70
     8
  0
VERTEX
  5
1813
330
1801
100
AcDbEntity
  8
HILF
100
AcDbVertex
100
AcDb2dVertex
 10
222.7856390301432
 20
398.9993747928663
 30
0.0
 70
     8
  0
VERTEX
  5
1814
330
1801
100
AcDbEntity
  8
HILF
100
AcDbVertex
100
AcDb2dVertex
 10
231.1365354103959
 20
468.3010786241438
 30
0.0
 70
    16
  0
VERTEX
  5
1815
330
1801
100
AcDbEntity
  8
HILF
100
AcDbVertex
100
AcDb2dVertex
 10
226.1577039139845
 20
443.7743047852148
 30
0.0
 70
    16
  0
VERTEX
  5
1816
330
1801
100
AcDbEntity
  8
HILF
100
AcDbVertex
100
AcDb2dVertex
 10
216.2000409211615
 20
417.9217593874246
 30
0.0
 70
    16
  0
VERTEX
  5
1817
330
1801
100
AcDbEntity
  8
HILF
100
AcDbVertex
100
AcDb2dVertex
 10
222.7856390301432
 20
398.9993747928663
 30
0.0
 70
    16
  0
SEQEND
  5
1818
330
1801
100
AcDbEntity
  8
HILF
  0
LINE
  5
1819
330
1E
100
AcDbEntity
  8
HILF
100
AcDbLine
 10
195.0320121196288
 20
487.1362492006932
 30
0.0
 11
195.0320121196288
 21
399.8625003850392
 31
0.0
  0
LINE
  5
181A
330
1E
100
AcDbEntity
  8
HILF
100
AcDbLine
 10
187.4397052802997
 20
395.0834308677996
 30
0.0
 11
187.4397052802997
 21
491.9153187179327
 31
0.0
  0
POLYLINE
  5
181B
330
1E
100
AcDbEntity
  8
HILF
100
AcDb2dPolyline
 66
     1
 10
0.0
 20
0.0
 30
0.0
 70
     4
 75
     6
  0
VERTEX
  5
181C
330
181B
100
AcDbEntity
  8
HILF
100
AcDbVertex
100
AcDb2dVertex
 10
227.7856390301431
 20
487.9993747928663
 30
0.0
 70
    16
  0
VERTEX
  5
181D
330
181B
100
AcDbEntity
  8
HILF
100
AcDbVertex
100
AcDb2dVertex
 10
227.7856390301431
 20
487.9993747928663
 30
0.0
 70
     8
  0
VERTEX
  5
181E
330
181B
100
AcDbEntity
  8
HILF
100
AcDbVertex
100
AcDb2dVertex
 10
230.4278269562757
 20
480.9458564441329
 30
0.0
 70
     8
  0
VERTEX
  5
181F
330
181B
100
AcDbEntity
  8
HILF
100
AcDbVertex
100
AcDb2dVertex
 10
232.1661841077211
 20
474.4983488983889
 30
0.0
 70
     8
  0
VERTEX
  5
1820
330
181B
100
AcDbEntity
  8
HILF
100
AcDbVertex
100
AcDb2dVertex
 10
233.1131589718349
 20
468.5658402165056
 30
0.0
 70
     8
  0
VERTEX
  5
1821
330
181B
100
AcDbEntity
  8
HILF
100
AcDbVertex
100
AcDb2dVertex
 10
233.381200035973
 20
463.0573184593544
 30
0.0
 70
     8
  0
VERTEX
  5
1822
330
181B
100
AcDbEntity
  8
HILF
100
AcDbVertex
100
AcDb2dVertex
 10
233.0827557874909
 20
457.8817716878068
 30
0.0
 70
     8
  0
VERTEX
  5
1823
330
181B
100
AcDbEntity
  8
HILF
100
AcDbVertex
100
AcDb2dVertex
 10
232.3302747137444
 20
452.9481879627342
 30
0.0
 70
     8
  0
VERTEX
  5
1824
330
181B
100
AcDbEntity
  8
HILF
100
AcDbVertex
100
AcDb2dVertex
 10
231.2362053020895
 20
448.165555345008
 30
0.0
 70
     8
  0
VERTEX
  5
1825
330
181B
100
AcDbEntity
  8
HILF
100
AcDbVertex
100
AcDb2dVertex
 10
229.9129960398816
 20
443.4428618954995
 30
0.0
 70
     8
  0
VERTEX
  5
1826
330
181B
100
AcDbEntity
  8
HILF
100
AcDbVertex
100
AcDb2dVertex
 10
228.479371846557
 20
438.6932005249494
 30
0.0
 70
     8
  0
VERTEX
  5
1827
330
181B
100
AcDbEntity
  8
HILF
100
AcDbVertex
100
AcDb2dVertex
 10
227.0791633698731
 20
433.8460835435751
 30
0.0
 70
     8
  0
VERTEX
  5
1828
330
181B
100
AcDbEntity
  8
HILF
100
AcDbVertex
100
AcDb2dVertex
 10
225.8624776896676
 20
428.8351281114629
 30
0.0
 70
     8
  0
VERTEX
  5
1829
330
181B
100
AcDbEntity
  8
HILF
100
AcDbVertex
100
AcDb2dVertex
 10
224.9794218857786
 20
423.5939513886997
 30
0.0
 70
     8
  0
VERTEX
  5
182A
330
181B
100
AcDbEntity
  8
HILF
100
AcDbVertex
100
AcDb2dVertex
 10
224.5801030380438
 20
418.056170535372
 30
0.0
 70
     8
  0
VERTEX
  5
182B
330
181B
100
AcDbEntity
  8
HILF
100
AcDbVertex
100
AcDb2dVertex
 10
224.814628226301
 20
412.1554027115661
 30
0.0
 70
     8
  0
VERTEX
  5
182C
330
181B
100
AcDbEntity
  8
HILF
100
AcDbVertex
100
AcDb2dVertex
 10
225.8331045303882
 20
405.8252650773686
 30
0.0
 70
     8
  0
VERTEX
  5
182D
330
181B
100
AcDbEntity
  8
HILF
100
AcDbVertex
100
AcDb2dVertex
 10
227.7856390301432
 20
398.9993747928663
 30
0.0
 70
     8
  0
VERTEX
  5
182E
330
181B
100
AcDbEntity
  8
HILF
100
AcDbVertex
100
AcDb2dVertex
 10
236.1365354103959
 20
468.3010786241438
 30
0.0
 70
    16
  0
VERTEX
  5
182F
330
181B
100
AcDbEntity
  8
HILF
100
AcDbVertex
100
AcDb2dVertex
 10
231.1577039139845
 20
443.7743047852148
 30
0.0
 70
    16
  0
VERTEX
  5
1830
330
181B
100
AcDbEntity
  8
HILF
100
AcDbVertex
100
AcDb2dVertex
 10
221.2000409211615
 20
417.9217593874246
 30
0.0
 70
    16
  0
VERTEX
  5
1831
330
181B
100
AcDbEntity
  8
HILF
100
AcDbVertex
100
AcDb2dVertex
 10
227.7856390301432
 20
398.9993747928663
 30
0.0
 70
    16
  0
SEQEND
  5
1832
330
181B
100
AcDbEntity
  8
HILF
  0
LINE
  5
1833
330
1E
100
AcDbEntity
  8
STEMPEL
100
AcDbLine
 10
320.5593029571799
 20
487.9993747928661
 30
0.0
 11
227.7856390301431
 21
487.9993747928661
 31
0.0
  0
ARC
  5
1834
330
1E
100
AcDbEntity
  8
STEMPEL
100
AcDbCircle
 10
183.0238248471358
 20
315.8690518738681
 30
0.0
 40
12.0
100
AcDbArc
 50
46.81657820382612
 51
90.0
  0
ARC
  5
1835
330
1E
100
AcDbEntity
  8
STEMPEL
100
AcDbCircle
 10
199.4478925527927
 20
333.369051873868
 30
0.0
 40
12.0
100
AcDbArc
 50
226.8165782038261
 51
270.0
  0
LINE
  5
1836
330
1E
100
AcDbEntity
  8
STEMPEL
100
AcDbLine
 10
222.7856390301432
 20
321.3690518738681
 30
0.0
 11
199.4478925527927
 21
321.3690518738681
 31
0.0
  0
ARC
  5
1837
330
1E
100
AcDbEntity
  8
STEMPEL
100
AcDbCircle
 10
183.0238248471358
 20
404.4993747928662
 30
0.0
 40
12.0
100
AcDbArc
 50
270.0
 51
313.1834217961739
  0
LINE
  5
1838
330
1E
100
AcDbEntity
  8
HILF
100
AcDbLine
 10
366.1077040976721
 20
445.6881968778393
 30
0.0
 11
326.9910626799128
 21
487.4211936712315
 31
0.0
  0
POLYLINE
  5
1839
330
1E
100
AcDbEntity
  8
HILF
100
AcDb2dPolyline
 66
     1
 10
0.0
 20
0.0
 30
0.0
 70
     4
 75
     6
  0
VERTEX
  5
183A
330
1839
100
AcDbEntity
  8
HILF
100
AcDbVertex
100
AcDb2dVertex
 10
303.5620695310541
 20
487.9993747928661
 30
0.0
 70
    16
  0
VERTEX
  5
183B
330
1839
100
AcDbEntity
  8
HILF
100
AcDbVertex
100
AcDb2dVertex
 10
303.5620695310541
 20
487.9993747928661
 30
0.0
 70
     8
  0
VERTEX
  5
183C
330
1839
100
AcDbEntity
  8
HILF
100
AcDbVertex
100
AcDb2dVertex
 10
307.0398841691673
 20
479.6333205845731
 30
0.0
 70
     8
  0
VERTEX
  5
183D
330
1839
100
AcDbEntity
  8
HILF
100
AcDbVertex
100
AcDb2dVertex
 10
310.6994288539379
 20
472.253208118969
 30
0.0
 70
     8
  0
VERTEX
  5
183E
330
1839
100
AcDbEntity
  8
HILF
100
AcDbVertex
100
AcDb2dVertex
 10
314.578118595868
 20
465.7656904143273
 30
0.0
 70
     8
  0
VERTEX
  5
183F
330
1839
100
AcDbEntity
  8
HILF
100
AcDbVertex
100
AcDb2dVertex
 10
318.7133684054598
 20
460.0774204889208
 30
0.0
 70
     8
  0
VERTEX
  5
1840
330
1839
100
AcDbEntity
  8
HILF
100
AcDbVertex
100
AcDb2dVertex
 10
323.142593293215
 20
455.0950513610225
 30
0.0
 70
     8
  0
VERTEX
  5
1841
330
1839
100
AcDbEntity
  8
HILF
100
AcDbVertex
100
AcDb2dVertex
 10
327.9032082696359
 20
450.7252360489062
 30
0.0
 70
     8
  0
VERTEX
  5
1842
330
1839
100
AcDbEntity
  8
HILF
100
AcDbVertex
100
AcDb2dVertex
 10
333.0326283452242
 20
446.8746275708447
 30
0.0
 70
     8
  0
VERTEX
  5
1843
330
1839
100
AcDbEntity
  8
HILF
100
AcDbVertex
100
AcDb2dVertex
 10
338.5682685304822
 20
443.4498789451112
 30
0.0
 70
     8
  0
VERTEX
  5
1844
330
1839
100
AcDbEntity
  8
HILF
100
AcDbVertex
100
AcDb2dVertex
 10
344.5246605486466
 20
440.3788311143789
 30
0.0
 70
     8
  0
VERTEX
  5
1845
330
1839
100
AcDbEntity
  8
HILF
100
AcDbVertex
100
AcDb2dVertex
 10
350.8248029738941
 20
437.6740767189219
 30
0.0
 70
     8
  0
VERTEX
  5
1846
330
1839
100
AcDbEntity
  8
HILF
100
AcDbVertex
100
AcDb2dVertex
 10
357.3688110931363
 20
435.3693963234142
 30
0.0
 70
     8
  0
VERTEX
  5
1847
330
1839
100
AcDbEntity
  8
HILF
100
AcDbVertex
100
AcDb2dVertex
 10
364.0568001932846
 20
433.4985704925302
 30
0.0
 70
     8
  0
VERTEX
  5
1848
330
1839
100
AcDbEntity
  8
HILF
100
AcDbVertex
100
AcDb2dVertex
 10
370.7888855612505
 20
432.0953797909435
 30
0.0
 70
     8
  0
VERTEX
  5
1849
330
1839
100
AcDbEntity
  8
HILF
100
AcDbVertex
100
AcDb2dVertex
 10
377.4651824839456
 20
431.1936047833283
 30
0.0
 70
     8
  0
VERTEX
  5
184A
330
1839
100
AcDbEntity
  8
HILF
100
AcDbVertex
100
AcDb2dVertex
 10
383.9858062482814
 20
430.827026034359
 30
0.0
 70
     8
  0
VERTEX
  5
184B
330
1839
100
AcDbEntity
  8
HILF
100
AcDbVertex
100
AcDb2dVertex
 10
390.2508721411694
 20
431.0294241087096
 30
0.0
 70
     8
  0
VERTEX
  5
184C
330
1839
100
AcDbEntity
  8
HILF
100
AcDbVertex
100
AcDb2dVertex
 10
396.1782007661747
 20
431.8215032223697
 30
0.0
 70
     8
  0
VERTEX
  5
184D
330
1839
100
AcDbEntity
  8
HILF
100
AcDbVertex
100
AcDb2dVertex
 10
401.7564339934772
 20
433.1716621965916
 30
0.0
 70
     8
  0
VERTEX
  5
184E
330
1839
100
AcDbEntity
  8
HILF
100
AcDbVertex
100
AcDb2dVertex
 10
406.9919190099104
 20
435.0352235039435
 30
0.0
 70
     8
  0
VERTEX
  5
184F
330
1839
100
AcDbEntity
  8
HILF
100
AcDbVertex
100
AcDb2dVertex
 10
411.8910030023077
 20
437.3675096169931
 30
0.0
 70
     8
  0
VERTEX
  5
1850
330
1839
100
AcDbEntity
  8
HILF
100
AcDbVertex
100
AcDb2dVertex
 10
416.4600331575027
 20
440.1238430083087
 30
0.0
 70
     8
  0
VERTEX
  5
1851
330
1839
100
AcDbEntity
  8
HILF
100
AcDbVertex
100
AcDb2dVertex
 10
420.7053566623286
 20
443.2595461504583
 30
0.0
 70
     8
  0
VERTEX
  5
1852
330
1839
100
AcDbEntity
  8
HILF
100
AcDbVertex
100
AcDb2dVertex
 10
424.6333207036191
 20
446.7299415160096
 30
0.0
 70
     8
  0
VERTEX
  5
1853
330
1839
100
AcDbEntity
  8
HILF
100
AcDbVertex
100
AcDb2dVertex
 10
428.2502724682074
 20
450.4903515775306
 30
0.0
 70
     8
  0
VERTEX
  5
1854
330
1839
100
AcDbEntity
  8
HILF
100
AcDbVertex
100
AcDb2dVertex
 10
431.5618353362432
 20
454.5006818485271
 30
0.0
 70
     8
  0
VERTEX
  5
1855
330
1839
100
AcDbEntity
  8
HILF
100
AcDbVertex
100
AcDb2dVertex
 10
434.5707374611396
 20
458.7391700062558
 30
0.0
 70
     8
  0
VERTEX
  5
1856
330
1839
100
AcDbEntity
  8
HILF
100
AcDbVertex
100
AcDb2dVertex
 10
437.2789831896255
 20
463.1886367689103
 30
0.0
 70
     8
  0
VERTEX
  5
1857
330
1839
100
AcDbEntity
  8
HILF
100
AcDbVertex
100
AcDb2dVertex
 10
439.6885768684301
 20
467.8319028546848
 30
0.0
 70
     8
  0
VERTEX
  5
1858
330
1839
100
AcDbEntity
  8
HILF
100
AcDbVertex
100
AcDb2dVertex
 10
441.8015228442825
 20
472.6517889817737
 30
0.0
 70
     8
  0
VERTEX
  5
1859
330
1839
100
AcDbEntity
  8
HILF
100
AcDbVertex
100
AcDb2dVertex
 10
443.6198254639119
 20
477.6311158683706
 30
0.0
 70
     8
  0
VERTEX
  5
185A
330
1839
100
AcDbEntity
  8
HILF
100
AcDbVertex
100
AcDb2dVertex
 10
445.1454890740473
 20
482.7527042326701
 30
0.0
 70
     8
  0
VERTEX
  5
185B
330
1839
100
AcDbEntity
  8
HILF
100
AcDbVertex
100
AcDb2dVertex
 10
446.3805180214178
 20
487.9993747928661
 30
0.0
 70
     8
  0
VERTEX
  5
185C
330
1839
100
AcDbEntity
  8
HILF
100
AcDbVertex
100
AcDb2dVertex
 10
312.627192957592
 20
464.2923328189644
 30
0.0
 70
    16
  0
VERTEX
  5
185D
330
1839
100
AcDbEntity
  8
HILF
100
AcDbVertex
100
AcDb2dVertex
 10
333.8361605819854
 20
439.9030749920322
 30
0.0
 70
    16
  0
VERTEX
  5
185E
330
1839
100
AcDbEntity
  8
HILF
100
AcDbVertex
100
AcDb2dVertex
 10
394.0422597095562
 20
424.6000119701079
 30
0.0
 70
    16
  0
VERTEX
  5
185F
330
1839
100
AcDbEntity
  8
HILF
100
AcDbVertex
100
AcDb2dVertex
 10
431.5000334268056
 20
447.8734217797941
 30
0.0
 70
    16
  0
VERTEX
  5
1860
330
1839
100
AcDbEntity
  8
HILF
100
AcDbVertex
100
AcDb2dVertex
 10
443.472838737246
 20
473.8567475105312
 30
0.0
 70
    16
  0
VERTEX
  5
1861
330
1839
100
AcDbEntity
  8
HILF
100
AcDbVertex
100
AcDb2dVertex
 10
446.3805180214178
 20
487.9993747928661
 30
0.0
 70
    16
  0
SEQEND
  5
1862
330
1839
100
AcDbEntity
  8
HILF
  0
ARC
  5
1863
330
1E
100
AcDbEntity
  8
HILF
100
AcDbCircle
 10
368.15930295718
 20
276.8690518738681
 30
0.0
 40
46.37517522151287
100
AcDbArc
 50
44.16910586740863
 51
135.8308941325913
  0
ARC
  5
1864
330
1E
100
AcDbEntity
  8
STEMPEL
100
AcDbCircle
 10
368.15930295718
 20
276.8690518738681
 30
0.0
 40
48.99999999999997
100
AcDbArc
 50
44.16048042994929
 51
135.8395195700507
  0
LINE
  5
1865
330
1E
100
AcDbEntity
  8
STEMPEL
100
AcDbLine
 10
347.647111460414
 20
321.3690518738681
 30
0.0
 11
227.7856390301432
 21
321.3690518738681
 31
0.0
  0
LINE
  5
1866
330
1E
100
AcDbEntity
  8
MITTEL
100
AcDbLine
 10
368.1593029571799
 20
506.9993747928661
 30
0.0
 11
368.15930295718
 21
443.4993747928663
 31
0.0
  0
ARC
  5
1867
330
1E
100
AcDbEntity
  8
STEMPEL
100
AcDbCircle
 10
183.0238248471358
 20
482.4993747928663
 30
0.0
 40
12.0
100
AcDbArc
 50
46.81657820382612
 51
90.0
  0
INSERT
  5
1868
330
1E
100
AcDbEntity
  8
SCHRAFF
100
AcDbBlockReference
  2
*X4
 10
0.0000000000001137
 20
-17.72287454083482
 30
0.0
1001
ACAD
1000
HATCH
1002
{
1070
    16
1000
_U,I
1040
2.0
1040
2.356194490192344
1070
     0
1002
}
  0
INSERT
  5
1869
330
1E
100
AcDbEntity
  8
SCHRAFF
100
AcDbBlockReference
  2
*X2
 10
-3.556309512792267
 20
69.57528211441377
 30
0.0
1001
ACAD
1000
HATCH
1002
{
1070
    16
1000
_U,I
1040
2.0
1040
0.7853981633974483
1070
     0
1002
}
  0
LINE
  5
186A
330
1E
100
AcDbEntity
  8
STEMPEL
100
AcDbLine
 10
320.1593029571799
 20
501.999374792866
 30
0.0
 11
320.1593029571799
 21
487.9993747928661
 31
0.0
  0
LINE
  5
186B
330
1E
100
AcDbEntity
  8
HILF
100
AcDbLine
 10
319.1593029571799
 20
501.999374792866
 30
0.0
 11
319.1593029571799
 21
487.9993747928661
 31
0.0
  0
LINE
  5
186C
330
1E
100
AcDbEntity
  8
STEMPEL
100
AcDbLine
 10
312.1593029571799
 20
501.999374792866
 30
0.0
 11
312.1593029571799
 21
487.9993747928661
 31
0.0
  0
LINE
  5
186D
330
1E
100
AcDbEntity
  8
HILF
100
AcDbLine
 10
313.1593029571799
 20
501.999374792866
 30
0.0
 11
313.1593029571799
 21
487.9993747928661
 31
0.0
  0
LINE
  5
186E
330
1E
100
AcDbEntity
  8
STEMPEL
100
AcDbLine
 10
308.0995879574706
 20
492.999374792866
 30
0.0
 11
306.1593029571799
 21
493.4844460429387
 31
0.0
  0
LINE
  5
186F
330
1E
100
AcDbEntity
  8
STEMPEL
100
AcDbLine
 10
309.6602218637296
 20
499.2419104179024
 30
0.0
 11
308.0995879574706
 21
492.999374792866
 31
0.0
  0
ARC
  5
1870
330
1E
100
AcDbEntity
  8
STEMPEL
100
AcDbCircle
 10
320.5593029571799
 20
493.999374792866
 30
0.0
 40
6.0
100
AcDbArc
 50
270.0
 51
0.0
  0
ARC
  5
1871
330
1E
100
AcDbEntity
  8
STEMPEL
100
AcDbCircle
 10
320.5593029571799
 20
493.999374792866
 30
0.0
 40
7.599999999999999
100
AcDbArc
 50
270.0
 51
0.0
  0
ARC
  5
1872
330
1E
100
AcDbEntity
  8
STEMPEL
100
AcDbCircle
 10
415.7593029571798
 20
493.999374792866
 30
0.0
 40
6.0
100
AcDbArc
 50
180.0
 51
270.0
  0
ARC
  5
1873
330
1E
100
AcDbEntity
  8
STEMPEL
100
AcDbCircle
 10
415.7593029571798
 20
493.999374792866
 30
0.0
 40
7.599999999999999
100
AcDbArc
 50
180.0
 51
270.0
  0
LINE
  5
1874
330
1E
100
AcDbEntity
  8
STEMPEL
100
AcDbLine
 10
426.6583840506302
 20
499.2419104179025
 30
0.0
 11
428.2190179568894
 21
492.9993747928661
 31
0.0
  0
LINE
  5
1875
330
1E
100
AcDbEntity
  8
STEMPEL
100
AcDbLine
 10
428.2190179568894
 20
492.9993747928661
 30
0.0
 11
430.1593029571799
 21
493.4844460429388
 31
0.0
  0
LINE
  5
1876
330
1E
100
AcDbEntity
  8
HILF
100
AcDbLine
 10
417.1593029571798
 20
501.999374792866
 30
0.0
 11
417.1593029571798
 21
487.9993747928661
 31
0.0
  0
LINE
  5
1877
330
1E
100
AcDbEntity
  8
STEMPEL
100
AcDbLine
 10
416.1593029571797
 20
501.999374792866
 30
0.0
 11
416.1593029571798
 21
487.9993747928661
 31
0.0
  0
LINE
  5
1878
330
1E
100
AcDbEntity
  8
HILF
100
AcDbLine
 10
423.1593029571797
 20
501.999374792866
 30
0.0
 11
423.1593029571798
 21
487.9993747928661
 31
0.0
  0
LINE
  5
1879
330
1E
100
AcDbEntity
  8
STEMPEL
100
AcDbLine
 10
424.1593029571798
 20
501.999374792866
 30
0.0
 11
424.1593029571798
 21
487.9993747928661
 31
0.0
  0
LINE
  5
187A
330
1E
100
AcDbEntity
  8
MITTEL
100
AcDbLine
 10
420.1593029571798
 20
521.5993747928663
 30
0.0
 11
420.1593029571799
 21
487.9993747928661
 31
0.0
  0
LINE
  5
187B
330
1E
100
AcDbEntity
  8
MITTEL
100
AcDbLine
 10
316.1593029571799
 20
521.5993747928654
 30
0.0
 11
316.1593029571799
 21
487.9993747928661
 31
0.0
  0
LINE
  5
187C
330
1E
100
AcDbEntity
  8
STEMPEL
100
AcDbLine
 10
612.8527032926115
 20
321.3690518738681
 30
0.0
 11
574.0067308380852
 21
321.3690518738681
 31
0.0
  0
LINE
  5
187D
330
1E
100
AcDbEntity
  8
STEMPEL
100
AcDbLine
 10
612.8527032926115
 20
487.9993747928663
 30
0.0
 11
574.006730838085
 21
487.9993747928661
 31
0.0
  0
LINE
  5
187E
330
1E
100
AcDbEntity
  8
STEMPEL
100
AcDbLine
 10
612.8527032926115
 20
398.9993747928663
 30
0.0
 11
574.0067308380851
 21
398.9993747928662
 31
0.0
  0
LINE
  5
1881
330
1E
100
AcDbEntity
  8
TEXT
 62
     2
100
AcDbLine
 10
452.7753744254671
 20
523.043011684956
 30
0.0
 11
553.5060110929442
 21
523.043011684956
 31
0.0
  0
TEXT
  5
1882
330
1E
100
AcDbEntity
  8
TEXT
 62
     1
100
AcDbText
 10
453.0909978140173
 20
513.4099230882311
 30
0.0
 40
7.0
  1
EDV-Art.Nr. 55880.100X
 41
0.75
  7
GREEKS
100
AcDbText
  0
LINE
  5
1883
330
1E
100
AcDbEntity
  8
STEMPEL
100
AcDbLine
 10
108.0238248471357
 20
494.4993747928663
 30
0.0
 11
108.0238248471358
 21
392.4993747928663
 31
0.0
  0
DIMENSION
  5
1884
330
1E
100
AcDbEntity
  8
BEM
100
AcDbDimension
  2
*D6
 10
94.95342876112351
 20
494.4993747928663
 30
0.0
 11
88.45342876112344
 21
443.4993747928663
 31
0.0
 70
    32
  1
%%c<>
 71
     5
 42
102.0
  3
Standard
100
AcDbAlignedDimension
 13
108.0238248471358
 23
392.4993747928663
 33
0.0
 14
108.0238248471357
 24
494.4993747928663
 34
0.0
 50
90.0
100
AcDbRotatedDimension
1001
ACAD
1000
DSTYLE
1002
{
1070
    40
1040
2.0
1070
    41
1040
3.5
1070
    42
1040
1.0
1070
    43
1040
7.0
1070
    44
1040
1.0
1070
    73
1070
     0
1070
    74
1070
     0
1070
    77
1070
     1
1070
    78
1070
     8
1070
    79
1070
     2
1070
   140
1040
3.5
1070
   141
1040
1.5
1070
   146
1040
0.5142857142857144
1070
   147
1040
1.5
1070
   172
1070
     1
1070
   178
1070
     1
1070
   179
1070
     2
1070
   271
1070
     2
1070
   272
1070
     2
1070
   284
1070
     8
1070
   285
1070
     8
1070
   286
1070
     8
1002
}
  0
LINE
  5
1885
330
1E
100
AcDbEntity
  8
MITTEL
  6
STRICHPUNKT
100
AcDbLine
 10
753.1593029571799
 20
443.499374792866
 30
0.0
 11
103.0238248471359
 21
443.4993747928663
 31
0.0
  0
LINE
  5
1886
330
1E
100
AcDbEntity
  8
STEMPEL
100
AcDbLine
 10
183.0238248471358
 20
392.4993747928663
 30
0.0
 11
108.0238248471358
 21
392.4993747928663
 31
0.0
  0
LINE
  5
1887
330
1E
100
AcDbEntity
  8
STEMPEL
100
AcDbLine
 10
183.0238248471358
 20
327.8690518738681
 30
0.0
 11
108.0238248471357
 21
327.8690518738681
 31
0.0
  0
DIMENSION
  5
1888
330
1E
100
AcDbEntity
  8
BEM
100
AcDbDimension
  2
*D7
 10
183.0238248471358
 20
370.6111422041747
 30
0.0
 11
145.5238248471358
 21
377.1111422041747
 31
0.0
 70
    32
 71
     5
 42
75.0
  3
Standard
100
AcDbAlignedDimension
 13
108.0238248471358
 23
392.4993747928663
 33
0.0
 14
183.0238248471358
 24
392.4993747928663
 34
0.0
100
AcDbRotatedDimension
1001
ACAD
1000
DSTYLE
1002
{
1070
    40
1040
2.0
1070
    41
1040
3.5
1070
    42
1040
1.0
1070
    43
1040
7.0
1070
    44
1040
1.0
1070
    73
1070
     0
1070
    74
1070
     0
1070
    77
1070
     1
1070
    78
1070
     8
1070
    79
1070
     2
1070
   140
1040
3.5
1070
   141
1040
1.5
1070
   146
1040
0.5142857142857144
1070
   147
1040
1.5
1070
   172
1070
     1
1070
   178
1070
     1
1070
   179
1070
     2
1070
   271
1070
     2
1070
   272
1070
     2
1070
   284
1070
     8
1070
   285
1070
     8
1070
   286
1070
     8
1002
}
  0
LINE
  5
1889
330
1E
100
AcDbEntity
  8
STEMPEL
100
AcDbLine
 10
183.0238248471358
 20
494.4993747928663
 30
0.0
 11
108.0238248471357
 21
494.4993747928663
 31
0.0
  0
ARC
  5
188A
330
1E
100
AcDbEntity
  8
STEMPEL
  6
Continuous
100
AcDbCircle
 10
735.5545514946091
 20
250.3690518738681
 30
0.0
 40
24.6
100
AcDbArc
 50
270.0
 51
294.9999999999935
  0
LINE
  5
188B
330
1E
100
AcDbEntity
  8
STEMPEL
  6
Continuous
100
AcDbLine
 10
748.15930295718
 20
229.1036472035282
 30
0.0
 11
745.9509607334303
 21
228.0738803127665
 31
0.0
  0
ARC
  5
188C
330
1E
100
AcDbEntity
  8
STEMPEL
100
AcDbCircle
 10
728.5274479663899
 20
250.7690518738682
 30
0.0
 40
25.00009324312574
100
AcDbArc
 50
244.7888220683149
 51
270.1564859543343
  0
ARC
  5
188D
330
1E
100
AcDbEntity
  8
STEMPEL
100
AcDbCircle
 10
712.819169893985
 20
217.2690518738682
 30
0.0
 40
12.0
100
AcDbArc
 50
64.87793981336759
 51
90.0
  0
LINE
  5
188E
330
1E
100
AcDbEntity
  8
STEMPEL
100
AcDbLine
 10
735.5545514946091
 20
225.7690518738682
 30
0.0
 11
728.4591679181992
 21
225.7690518738682
 31
0.0
  0
ARC
  5
188F
330
1E
100
AcDbEntity
  8
STEMPEL
100
AcDbCircle
 10
612.8527032926115
 20
224.3690518738681
 30
0.0
 40
8.0
100
AcDbArc
 50
57.67193587783641
 51
90.0
  0
ARC
  5
1890
330
1E
100
AcDbEntity
  8
STEMPEL
100
AcDbCircle
 10
623.548029374597
 20
241.2690518738682
 30
0.0
 40
12.0
100
AcDbArc
 50
237.6719358778364
 51
270.0
  0
DIMENSION
  5
1891
330
1E
100
AcDbEntity
  8
BEM
100
AcDbDimension
  2
*D8
 10
618.15930295718
 20
202.7702742637384
 30
0.0
 11
683.1593029571799
 21
209.2702742637384
 31
0.0
 70
    32
 71
     5
 42
130.0
  3
Standard
100
AcDbAlignedDimension
 13
748.15930295718
 23
229.1036472035282
 33
0.0
 14
618.15930295718
 24
230.5470358508328
 34
0.0
100
AcDbRotatedDimension
1001
ACAD
1000
DSTYLE
1002
{
1070
    40
1040
2.0
1070
    41
1040
3.5
1070
    42
1040
1.0
1070
    43
1040
7.0
1070
    44
1040
1.0
1070
    73
1070
     0
1070
    74
1070
     0
1070
    77
1070
     1
1070
    78
1070
     8
1070
    79
1070
     2
1070
   140
1040
3.5
1070
   141
1040
1.5
1070
   146
1040
0.5142857142857144
1070
   147
1040
1.5
1070
   172
1070
     1
1070
   178
1070
     1
1070
   179
1070
     2
1070
   271
1070
     2
1070
   272
1070
     2
1070
   284
1070
     8
1070
   285
1070
     8
1070
   286
1070
     8
1002
}
  0
LINE
  5
1892
330
1E
100
AcDbEntity
  8
STEMPEL
100
AcDbLine
 10
712.819169893985
 20
229.2690518738682
 30
0.0
 11
623.548029374597
 21
229.2690518738682
 31
0.0
  0
INSERT
  5
1893
330
1E
100
AcDbEntity
  8
HILF
100
AcDbBlockReference
  2
8DI931D
 10
420.1593029571799
 20
276.8690518738681
 30
0.0
  0
CIRCLE
  5
1894
330
1E
100
AcDbEntity
  8
STEMPEL
100
AcDbCircle
 10
420.1593029571799
 20
276.8690518738681
 30
0.0
 40
5.65
  0
ARC
  5
1895
330
1E
100
AcDbEntity
  8
STEMPEL
100
AcDbCircle
 10
414.1593029571799
 20
276.8690518738681
 30
0.0
 40
16.0
100
AcDbArc
 50
315.8395195700507
 51
44.16048042994929
  0
ARC
  5
1896
330
1E
100
AcDbEntity
  8
HILF
100
AcDbCircle
 10
414.1593029571799
 20
276.8690518738681
 30
0.0
 40
13.38
100
AcDbArc
 50
315.8308941325913
 51
44.16910586740863
  0
LINE
  5
1897
330
1E
100
AcDbEntity
  8
MITTEL
100
AcDbLine
 10
420.1593029571799
 20
266.8690518738682
 30
0.0
 11
420.1593029571799
 21
286.8690518738682
 31
0.0
  0
LINE
  5
1898
330
1E
100
AcDbEntity
  8
STEMPEL
100
AcDbLine
 10
365.1197496024183
 20
270.9748966692377
 30
0.0
 11
367.1995477198606
 21
271.3249883113109
 31
0.0
  0
ARC
  5
1899
330
1E
100
AcDbEntity
  8
STEMPEL
100
AcDbCircle
 10
370.6676362905132
 20
274.6232185405347
 30
0.0
 40
3.344444444444391
100
AcDbArc
 50
232.49196016292
 51
0.0
  0
ARC
  5
189A
330
1E
100
AcDbEntity
  8
STEMPEL
100
AcDbCircle
 10
365.1843029571799
 20
270.5914029505274
 30
0.0
 40
0.3888888888888889
100
AcDbArc
 50
99.55500261066136
 51
180.0
  0
LINE
  5
189B
330
1E
100
AcDbEntity
  8
STEMPEL
100
AcDbLine
 10
373.23430295718
 20
280.0676629849793
 30
0.0
 11
370.9706899111473
 21
280.0676629849793
 31
0.0
  0
CIRCLE
  5
189C
330
1E
100
AcDbEntity
  8
STEMPEL
100
AcDbCircle
 10
368.15930295718
 20
285.2009963183126
 30
0.0
 40
3.363888888888853
  0
LINE
  5
189D
330
1E
100
AcDbEntity
  8
STEMPEL
100
AcDbLine
 10
371.5231918460688
 20
277.5787740960903
 30
0.0
 11
371.5231918460688
 21
274.6232185405347
 31
0.0
  0
ARC
  5
189E
330
1E
100
AcDbEntity
  8
STEMPEL
100
AcDbCircle
 10
366.6620807349577
 20
274.4287740960904
 30
0.0
 40
3.150000000000008
100
AcDbArc
 50
279.9999999999986
 51
308.6930109383293
  0
LINE
  5
189F
330
1E
100
AcDbEntity
  8
STEMPEL
100
AcDbLine
 10
369.8120807349576
 20
277.5787740960903
 30
0.0
 11
369.8120807349576
 21
274.6232185405347
 31
0.0
  0
LINE
  5
18A0
330
1E
100
AcDbEntity
  8
STEMPEL
100
AcDbLine
 10
367.3231918460687
 20
277.5787740960903
 30
0.0
 11
367.3231918460687
 21
274.4287740960904
 31
0.0
  0
ARC
  5
18A1
330
1E
100
AcDbEntity
  8
STEMPEL
100
AcDbCircle
 10
366.6620807349577
 20
274.4287740960904
 30
0.0
 40
0.6611111111111199
100
AcDbArc
 50
279.9999999999986
 51
0.0
  0
LINE
  5
18A2
330
1E
100
AcDbEntity
  8
STEMPEL
100
AcDbLine
 10
371.5231918460688
 20
277.5787740960903
 30
0.0
 11
369.8120807349576
 21
277.5787740960903
 31
0.0
  0
ARC
  5
18A3
330
1E
100
AcDbEntity
  8
STEMPEL
100
AcDbCircle
 10
370.6676362905132
 20
274.6232185405347
 30
0.0
 40
0.8555555555555024
100
AcDbArc
 50
180.0
 51
0.0
  0
LINE
  5
18A4
330
1E
100
AcDbEntity
  8
STEMPEL
100
AcDbLine
 10
374.0120807349577
 20
279.2898852072015
 30
0.0
 11
374.0120807349577
 21
274.6232185405347
 31
0.0
  0
ARC
  5
18A5
330
1E
100
AcDbEntity
  8
STEMPEL
100
AcDbCircle
 10
373.23430295718
 20
279.2898852072015
 30
0.0
 40
0.7777777777777778
100
AcDbArc
 50
0.0
 51
90.0
  0
LINE
  5
18A6
330
1E
100
AcDbEntity
  8
STEMPEL
100
AcDbLine
 10
372.7676362905133
 20
294.6121074294236
 30
0.0
 11
364.6009696238467
 21
294.6121074294236
 31
0.0
  0
LINE
  5
18A7
330
1E
100
AcDbEntity
  8
STEMPEL
100
AcDbLine
 10
372.7676362905133
 20
292.1232185405348
 30
0.0
 11
365.18430295718
 21
292.1232185405348
 31
0.0
  0
ARC
  5
18A8
330
1E
100
AcDbEntity
  8
STEMPEL
100
AcDbCircle
 10
365.18430295718
 20
291.7343296516459
 30
0.0
 40
0.3888888888888889
100
AcDbArc
 50
90.0
 51
180.0
  0
LINE
  5
18A9
330
1E
100
AcDbEntity
  8
STEMPEL
100
AcDbLine
 10
364.7954140682911
 20
291.7343296516459
 30
0.0
 11
364.7954140682911
 21
289.9904909951289
 31
0.0
  0
POINT
  5
18AA
330
1E
100
AcDbEntity
  8
DEFPOINTS
  6
ByBlock
 62
     0
100
AcDbPoint
 10
368.15930295718
 20
294.6121074294236
 30
0.0
  0
ARC
  5
18AB
330
1E
100
AcDbEntity
  8
STEMPEL
100
AcDbCircle
 10
372.7676362905133
 20
293.3676629849793
 30
0.0
 40
1.244444444444462
100
AcDbArc
 50
270.0
 51
90.0
  0
LINE
  5
18AC
330
1E
100
AcDbEntity
  8
STEMPEL
100
AcDbLine
 10
362.3065251794022
 20
292.3176629849793
 30
0.0
 11
362.3065251794022
 21
285.2009963183126
 31
0.0
  0
ARC
  5
18AD
330
1E
100
AcDbEntity
  8
STEMPEL
100
AcDbCircle
 10
363.5509696238466
 20
278.8232185405348
 30
0.0
 40
1.244444444444462
100
AcDbArc
 50
90.0
 51
270.0
  0
ARC
  5
18AE
330
1E
100
AcDbEntity
  8
STEMPEL
100
AcDbCircle
 10
364.6009696238467
 20
271.0967645661129
 30
0.0
 40
2.294444444444444
100
AcDbArc
 50
99.99999999999861
 51
180.0
  0
ARC
  5
18AF
330
1E
100
AcDbEntity
  8
STEMPEL
100
AcDbCircle
 10
368.15930295718
 20
285.2009963183126
 30
0.0
 40
5.852777777777742
100
AcDbArc
 50
298.7083210227483
 51
125.0821845754665
  0
LINE
  5
18B0
330
1E
100
AcDbEntity
  8
STEMPEL
100
AcDbLine
 10
365.3479160032126
 20
280.0676629849793
 30
0.0
 11
363.5509696238466
 21
280.0676629849792
 31
0.0
  0
LINE
  5
18B1
330
1E
100
AcDbEntity
  8
STEMPEL
100
AcDbLine
 10
367.3231918460687
 20
277.5787740960903
 30
0.0
 11
363.5509696238466
 21
277.5787740960903
 31
0.0
  0
LINE
  5
18B2
330
1E
100
AcDbEntity
  8
STEMPEL
100
AcDbLine
 10
364.2141201240077
 20
273.3463561461331
 30
0.0
 11
366.7864062493855
 21
273.7793481110567
 31
0.0
  0
ARC
  5
18B3
330
1E
100
AcDbEntity
  8
STEMPEL
100
AcDbCircle
 10
368.15930295718
 20
285.2009963183126
 30
0.0
 40
5.852777777777742
100
AcDbArc
 50
180.0
 51
241.2916789772517
  0
CIRCLE
  5
18B4
330
1E
100
AcDbEntity
  8
STEMPEL
100
AcDbCircle
 10
368.15930295718
 20
264.9787740960904
 30
0.0
 40
3.363888888888853
  0
LINE
  5
18B5
330
1E
100
AcDbEntity
  8
STEMPEL
100
AcDbLine
 10
362.3065251794022
 20
271.0967645661129
 30
0.0
 11
362.3065251794022
 21
264.9787740960904
 31
0.0
  0
ARC
  5
18B6
330
1E
100
AcDbEntity
  8
STEMPEL
100
AcDbCircle
 10
368.15930295718
 20
264.9787740960904
 30
0.0
 40
5.852777777777742
100
AcDbArc
 50
180.0
 51
125.0821845754612
  0
LINE
  5
18B7
330
1E
100
AcDbEntity
  8
STEMPEL
100
AcDbLine
 10
364.795414068291
 20
270.5914029505274
 30
0.0
 11
364.7954140682911
 21
269.7682687729074
 31
0.0
  0
LINE
  5
18B8
330
1E
100
AcDbEntity
  8
HILF
100
AcDbLine
 10
401.4235862694012
 20
244.5558296181058
 30
0.0
 11
423.7565952281331
 21
267.5461563437282
 31
0.0
  0
LINE
  5
18B9
330
1E
100
AcDbEntity
  8
STEMPEL
100
AcDbLine
 10
403.3114768702234
 20
242.7321998047751
 30
0.0
 11
425.6375638267451
 21
265.7223246676336
 31
0.0
  0
INSERT
  5
18BA
330
1E
100
AcDbEntity
  8
HILF
100
AcDbBlockReference
  2
8DI931D
 10
316.1593029571799
 20
276.8690518738681
 30
0.0
  0
CIRCLE
  5
18BB
330
1E
100
AcDbEntity
  8
STEMPEL
100
AcDbCircle
 10
316.1593029571799
 20
276.8690518738681
 30
0.0
 40
5.65
  0
ARC
  5
18BC
330
1E
100
AcDbEntity
  8
STEMPEL
100
AcDbCircle
 10
322.15930295718
 20
276.8690518738681
 30
0.0
 40
16.0
100
AcDbArc
 50
135.8395195700507
 51
224.1604804299493
  0
ARC
  5
18BD
330
1E
100
AcDbEntity
  8
HILF
100
AcDbCircle
 10
322.15930295718
 20
276.8690518738681
 30
0.0
 40
13.38
100
AcDbArc
 50
135.8308941325913
 51
224.1691058674086
  0
LINE
  5
18BE
330
1E
100
AcDbEntity
  8
MITTEL
100
AcDbLine
 10
316.1593029571799
 20
266.8690518738682
 30
0.0
 11
316.1593029571799
 21
286.8690518738682
 31
0.0
  0
LINE
  5
18BF
330
1E
100
AcDbEntity
  8
HILF
100
AcDbLine
 10
312.5620106862267
 20
267.5461563437282
 30
0.0
 11
334.8950196449586
 21
244.5558296181058
 31
0.0
  0
LINE
  5
18C0
330
1E
100
AcDbEntity
  8
STEMPEL
100
AcDbLine
 10
310.6810420876146
 20
265.7223246676336
 30
0.0
 11
333.0071290441365
 21
242.7321998047751
 31
0.0
  0
ARC
  5
18C1
330
1E
100
AcDbEntity
  8
STEMPEL
100
AcDbCircle
 10
183.0238248471358
 20
237.8690518738681
 30
0.0
 40
12.0
100
AcDbArc
 50
270.0
 51
313.1834217961739
  0
ARC
  5
18C2
330
1E
100
AcDbEntity
  8
STEMPEL
100
AcDbCircle
 10
199.4478925527927
 20
220.3690518738682
 30
0.0
 40
12.0
100
AcDbArc
 50
90.0
 51
133.1834217961739
  0
LINE
  5
18C3
330
1E
100
AcDbEntity
  8
STEMPEL
100
AcDbLine
 10
222.7856390301432
 20
232.3690518738681
 30
0.0
 11
199.4478925527927
 21
232.3690518738681
 31
0.0
  0
ARC
  5
18C4
330
1E
100
AcDbEntity
  8
STEMPEL
100
AcDbCircle
 10
368.15930295718
 20
276.8690518738681
 30
0.0
 40
48.99999999999997
100
AcDbArc
 50
224.1604804299493
 51
315.8395195700507
  0
ARC
  5
18C5
330
1E
100
AcDbEntity
  8
HILF
100
AcDbCircle
 10
368.15930295718
 20
276.8690518738681
 30
0.0
 40
46.37517522151287
100
AcDbArc
 50
224.1691058674086
 51
315.8308941325913
  0
LINE
  5
18C6
330
1E
100
AcDbEntity
  8
STEMPEL
100
AcDbLine
 10
347.647111460414
 20
232.3690518738681
 30
0.0
 11
227.7856390301432
 21
232.3690518738681
 31
0.0
  0
LINE
  5
18C7
330
1E
100
AcDbEntity
  8
STEMPEL
100
AcDbLine
 10
612.8527032926115
 20
232.3690518738681
 30
0.0
 11
574.0067308380851
 21
232.3690518738681
 31
0.0
  0
DIMENSION
  5
18C8
330
1E
100
AcDbEntity
  8
BEM
100
AcDbDimension
  2
*D9
 10
108.0238248471358
 20
182.3513154076529
 30
0.0
 11
428.0915639021579
 21
188.8513154076529
 31
0.0
 70
    32
  1
2000
 71
     5
 42
640.1354781100441
  3
Standard
100
AcDbAlignedDimension
 13
748.15930295718
 23
229.1036472035282
 33
0.0
 14
108.0238248471358
 24
225.8690518738681
 34
0.0
100
AcDbRotatedDimension
1001
ACAD
1000
DSTYLE
1002
{
1070
    40
1040
2.0
1070
    41
1040
3.5
1070
    42
1040
1.0
1070
    43
1040
7.0
1070
    44
1040
1.0
1070
    73
1070
     0
1070
    74
1070
     0
1070
    77
1070
     1
1070
    78
1070
     8
1070
    79
1070
     2
1070
   140
1040
3.5
1070
   141
1040
1.5
1070
   146
1040
0.5142857142857144
1070
   147
1040
1.5
1070
   172
1070
     1
1070
   178
1070
     1
1070
   179
1070
     2
1070
   271
1070
     2
1070
   272
1070
     2
1070
   284
1070
     8
1070
   285
1070
     8
1070
   286
1070
     8
1002
}
  0
DIMENSION
  5
18C9
330
1E
100
AcDbEntity
  8
BEM
100
AcDbDimension
  2
*D10
 10
368.15930295718
 20
202.6866473438769
 30
0.0
 11
238.0915639021579
 21
209.1866473438769
 31
0.0
 70
    32
  1
620
 71
     5
 42
260.1354781100441
  3
Standard
100
AcDbAlignedDimension
 13
108.0238248471358
 23
225.8690518738681
 33
0.0
 14
368.15930295718
 24
222.8690518738681
 34
0.0
100
AcDbRotatedDimension
1001
ACAD
1000
DSTYLE
1002
{
1070
    40
1040
2.0
1070
    41
1040
3.5
1070
    42
1040
1.0
1070
    43
1040
7.0
1070
    44
1040
1.0
1070
    73
1070
     0
1070
    74
1070
     0
1070
    77
1070
     1
1070
    78
1070
     8
1070
    79
1070
     2
1070
   140
1040
3.5
1070
   141
1040
1.5
1070
   146
1040
0.5142857142857144
1070
   147
1040
1.5
1070
   172
1070
     1
1070
   178
1070
     1
1070
   179
1070
     2
1070
   271
1070
     2
1070
   272
1070
     2
1070
   284
1070
     8
1070
   285
1070
     8
1070
   286
1070
     8
1002
}
  0
LINE
  5
18CA
330
1E
100
AcDbEntity
  8
STEMPEL
100
AcDbLine
 10
183.0238248471358
 20
225.8690518738681
 30
0.0
 11
108.0238248471358
 21
225.8690518738681
 31
0.0
  0
LINE
  5
18CB
330
1E
100
AcDbEntity
  8
MITTEL
100
AcDbLine
 10
753.1593029571799
 20
276.8690518738681
 30
0.0
 11
103.0238248471359
 21
276.8690518738681
 31
0.0
  0
LINE
  5
18CC
330
1E
100
AcDbEntity
  8
STEMPEL
100
AcDbLine
 10
108.0238248471357
 20
327.8690518738681
 30
0.0
 11
108.0238248471358
 21
225.8690518738681
 31
0.0
  0
LINE
  5
18CD
330
1E
100
AcDbEntity
  8
HILF
100
AcDbLine
 10
187.4397052802997
 20
228.4531079488014
 30
0.0
 11
187.4397052802997
 21
325.2849957989346
 31
0.0
  0
LINE
  5
18CE
330
1E
100
AcDbEntity
  8
HILF
100
AcDbLine
 10
195.0320121196288
 20
320.505926281695
 30
0.0
 11
195.0320121196288
 21
233.232177466041
 31
0.0
  0
DIMENSION
  5
18CF
330
1E
100
AcDbEntity
  8
BEM
100
AcDbDimension
  2
*D11
 10
95.66468922813601
 20
321.3690518738681
 30
0.0
 11
89.16468922813596
 21
276.8690518738681
 31
0.0
 70
    32
  1
%%c<>
 71
     5
 42
88.99999999999989
  3
Standard
100
AcDbAlignedDimension
 13
199.4478925527927
 23
232.3690518738681
 33
0.0
 14
199.4478925527927
 24
321.369051873868
 34
0.0
 50
90.0
100
AcDbRotatedDimension
1001
ACAD
1000
DSTYLE
1002
{
1070
    40
1040
2.0
1070
    41
1040
3.5
1070
    42
1040
1.0
1070
    43
1040
7.0
1070
    44
1040
1.0
1070
    73
1070
     0
1070
    74
1070
     0
1070
    77
1070
     1
1070
    78
1070
     8
1070
    79
1070
     2
1070
   140
1040
3.5
1070
   141
1040
1.5
1070
   146
1040
0.5142857142857144
1070
   147
1040
1.5
1070
   172
1070
     1
1070
   178
1070
     1
1070
   179
1070
     2
1070
   271
1070
     2
1070
   272
1070
     2
1070
   284
1070
     8
1070
   285
1070
     8
1070
   286
1070
     8
1002
}
  0
CIRCLE
  5
18D0
330
1E
100
AcDbEntity
  8
HILF
100
AcDbCircle
 10
368.15930295718
 20
276.8690518738681
 30
0.0
 40
35.06111457868633
  0
CIRCLE
  5
18D1
330
1E
100
AcDbEntity
  8
STEMPEL
100
AcDbCircle
 10
368.15930295718
 20
276.8690518738681
 30
0.0
 40
31.5
  0
LINE
  5
18D2
330
1E
100
AcDbEntity
  8
MITTEL
100
AcDbLine
 10
368.15930295718
 20
330.8690518738682
 30
0.0
 11
368.15930295718
 21
222.8690518738681
 31
0.0
  0
LINE
  5
18D3
330
1E
100
AcDbEntity
  8
STEMPEL
100
AcDbLine
 10
333.0071290441365
 20
311.0059039429613
 30
0.0
 11
310.6810420876146
 21
288.0157790801026
 31
0.0
  0
LINE
  5
18D4
330
1E
100
AcDbEntity
  8
HILF
100
AcDbLine
 10
334.8950196449586
 20
309.1822741296305
 30
0.0
 11
312.5620106862267
 21
286.1919474040082
 31
0.0
  0
POLYLINE
  5
18D5
330
1E
100
AcDbEntity
  8
HILF
100
AcDb2dPolyline
 66
     1
 10
0.0
 20
0.0
 30
0.0
 70
     4
 75
     6
  0
VERTEX
  5
18D6
330
18D5
100
AcDbEntity
  8
HILF
100
AcDbVertex
100
AcDb2dVertex
 10
227.7856390301431
 20
321.3690518738681
 30
0.0
 70
    16
  0
VERTEX
  5
18D7
330
18D5
100
AcDbEntity
  8
HILF
100
AcDbVertex
100
AcDb2dVertex
 10
227.7856390301431
 20
321.3690518738681
 30
0.0
 70
     8
  0
VERTEX
  5
18D8
330
18D5
100
AcDbEntity
  8
HILF
100
AcDbVertex
100
AcDb2dVertex
 10
230.4278269562757
 20
314.3155335251348
 30
0.0
 70
     8
  0
VERTEX
  5
18D9
330
18D5
100
AcDbEntity
  8
HILF
100
AcDbVertex
100
AcDb2dVertex
 10
232.1661841077211
 20
307.8680259793908
 30
0.0
 70
     8
  0
VERTEX
  5
18DA
330
18D5
100
AcDbEntity
  8
HILF
100
AcDbVertex
100
AcDb2dVertex
 10
233.1131589718349
 20
301.9355172975075
 30
0.0
 70
     8
  0
VERTEX
  5
18DB
330
18D5
100
AcDbEntity
  8
HILF
100
AcDbVertex
100
AcDb2dVertex
 10
233.381200035973
 20
296.4269955403564
 30
0.0
 70
     8
  0
VERTEX
  5
18DC
330
18D5
100
AcDbEntity
  8
HILF
100
AcDbVertex
100
AcDb2dVertex
 10
233.0827557874909
 20
291.2514487688087
 30
0.0
 70
     8
  0
VERTEX
  5
18DD
330
18D5
100
AcDbEntity
  8
HILF
100
AcDbVertex
100
AcDb2dVertex
 10
232.3302747137444
 20
286.3178650437361
 30
0.0
 70
     8
  0
VERTEX
  5
18DE
330
18D5
100
AcDbEntity
  8
HILF
100
AcDbVertex
100
AcDb2dVertex
 10
231.2362053020895
 20
281.5352324260099
 30
0.0
 70
     8
  0
VERTEX
  5
18DF
330
18D5
100
AcDbEntity
  8
HILF
100
AcDbVertex
100
AcDb2dVertex
 10
229.9129960398816
 20
276.8125389765014
 30
0.0
 70
     8
  0
VERTEX
  5
18E0
330
18D5
100
AcDbEntity
  8
HILF
100
AcDbVertex
100
AcDb2dVertex
 10
228.479371846557
 20
272.0628776059513
 30
0.0
 70
     8
  0
VERTEX
  5
18E1
330
18D5
100
AcDbEntity
  8
HILF
100
AcDbVertex
100
AcDb2dVertex
 10
227.0791633698731
 20
267.215760624577
 30
0.0
 70
     8
  0
VERTEX
  5
18E2
330
18D5
100
AcDbEntity
  8
HILF
100
AcDbVertex
100
AcDb2dVertex
 10
225.8624776896676
 20
262.204805192465
 30
0.0
 70
     8
  0
VERTEX
  5
18E3
330
18D5
100
AcDbEntity
  8
HILF
100
AcDbVertex
100
AcDb2dVertex
 10
224.9794218857786
 20
256.9636284697017
 30
0.0
 70
     8
  0
VERTEX
  5
18E4
330
18D5
100
AcDbEntity
  8
HILF
100
AcDbVertex
100
AcDb2dVertex
 10
224.5801030380438
 20
251.4258476163739
 30
0.0
 70
     8
  0
VERTEX
  5
18E5
330
18D5
100
AcDbEntity
  8
HILF
100
AcDbVertex
100
AcDb2dVertex
 10
224.814628226301
 20
245.525079792568
 30
0.0
 70
     8
  0
VERTEX
  5
18E6
330
18D5
100
AcDbEntity
  8
HILF
100
AcDbVertex
100
AcDb2dVertex
 10
225.8331045303882
 20
239.1949421583706
 30
0.0
 70
     8
  0
VERTEX
  5
18E7
330
18D5
100
AcDbEntity
  8
HILF
100
AcDbVertex
100
AcDb2dVertex
 10
227.7856390301432
 20
232.3690518738681
 30
0.0
 70
     8
  0
VERTEX
  5
18E8
330
18D5
100
AcDbEntity
  8
HILF
100
AcDbVertex
100
AcDb2dVertex
 10
236.1365354103959
 20
301.6707557051459
 30
0.0
 70
    16
  0
VERTEX
  5
18E9
330
18D5
100
AcDbEntity
  8
HILF
100
AcDbVertex
100
AcDb2dVertex
 10
231.1577039139845
 20
277.1439818662166
 30
0.0
 70
    16
  0
VERTEX
  5
18EA
330
18D5
100
AcDbEntity
  8
HILF
100
AcDbVertex
100
AcDb2dVertex
 10
221.2000409211615
 20
251.2914364684266
 30
0.0
 70
    16
  0
VERTEX
  5
18EB
330
18D5
100
AcDbEntity
  8
HILF
100
AcDbVertex
100
AcDb2dVertex
 10
227.7856390301432
 20
232.3690518738681
 30
0.0
 70
    16
  0
SEQEND
  5
18EC
330
18D5
100
AcDbEntity
  8
HILF
  0
POLYLINE
  5
18ED
330
1E
100
AcDbEntity
  8
HILF
100
AcDb2dPolyline
 66
     1
 10
0.0
 20
0.0
 30
0.0
 70
     4
 75
     6
  0
VERTEX
  5
18EE
330
18ED
100
AcDbEntity
  8
HILF
100
AcDbVertex
100
AcDb2dVertex
 10
222.7856390301431
 20
321.3690518738681
 30
0.0
 70
    16
  0
VERTEX
  5
18EF
330
18ED
100
AcDbEntity
  8
HILF
100
AcDbVertex
100
AcDb2dVertex
 10
222.7856390301431
 20
321.3690518738681
 30
0.0
 70
     8
  0
VERTEX
  5
18F0
330
18ED
100
AcDbEntity
  8
HILF
100
AcDbVertex
100
AcDb2dVertex
 10
225.4278269562757
 20
314.3155335251348
 30
0.0
 70
     8
  0
VERTEX
  5
18F1
330
18ED
100
AcDbEntity
  8
HILF
100
AcDbVertex
100
AcDb2dVertex
 10
227.166184107721
 20
307.8680259793908
 30
0.0
 70
     8
  0
VERTEX
  5
18F2
330
18ED
100
AcDbEntity
  8
HILF
100
AcDbVertex
100
AcDb2dVertex
 10
228.1131589718349
 20
301.9355172975075
 30
0.0
 70
     8
  0
VERTEX
  5
18F3
330
18ED
100
AcDbEntity
  8
HILF
100
AcDbVertex
100
AcDb2dVertex
 10
228.3812000359729
 20
296.4269955403564
 30
0.0
 70
     8
  0
VERTEX
  5
18F4
330
18ED
100
AcDbEntity
  8
HILF
100
AcDbVertex
100
AcDb2dVertex
 10
228.0827557874909
 20
291.2514487688087
 30
0.0
 70
     8
  0
VERTEX
  5
18F5
330
18ED
100
AcDbEntity
  8
HILF
100
AcDbVertex
100
AcDb2dVertex
 10
227.3302747137444
 20
286.3178650437361
 30
0.0
 70
     8
  0
VERTEX
  5
18F6
330
18ED
100
AcDbEntity
  8
HILF
100
AcDbVertex
100
AcDb2dVertex
 10
226.2362053020895
 20
281.5352324260099
 30
0.0
 70
     8
  0
VERTEX
  5
18F7
330
18ED
100
AcDbEntity
  8
HILF
100
AcDbVertex
100
AcDb2dVertex
 10
224.9129960398816
 20
276.8125389765014
 30
0.0
 70
     8
  0
VERTEX
  5
18F8
330
18ED
100
AcDbEntity
  8
HILF
100
AcDbVertex
100
AcDb2dVertex
 10
223.479371846557
 20
272.0628776059513
 30
0.0
 70
     8
  0
VERTEX
  5
18F9
330
18ED
100
AcDbEntity
  8
HILF
100
AcDbVertex
100
AcDb2dVertex
 10
222.0791633698731
 20
267.215760624577
 30
0.0
 70
     8
  0
VERTEX
  5
18FA
330
18ED
100
AcDbEntity
  8
HILF
100
AcDbVertex
100
AcDb2dVertex
 10
220.8624776896676
 20
262.204805192465
 30
0.0
 70
     8
  0
VERTEX
  5
18FB
330
18ED
100
AcDbEntity
  8
HILF
100
AcDbVertex
100
AcDb2dVertex
 10
219.9794218857786
 20
256.9636284697017
 30
0.0
 70
     8
  0
VERTEX
  5
18FC
330
18ED
100
AcDbEntity
  8
HILF
100
AcDbVertex
100
AcDb2dVertex
 10
219.5801030380438
 20
251.4258476163739
 30
0.0
 70
     8
  0
VERTEX
  5
18FD
330
18ED
100
AcDbEntity
  8
HILF
100
AcDbVertex
100
AcDb2dVertex
 10
219.814628226301
 20
245.525079792568
 30
0.0
 70
     8
  0
VERTEX
  5
18FE
330
18ED
100
AcDbEntity
  8
HILF
100
AcDbVertex
100
AcDb2dVertex
 10
220.8331045303883
 20
239.1949421583706
 30
0.0
 70
     8
  0
VERTEX
  5
18FF
330
18ED
100
AcDbEntity
  8
HILF
100
AcDbVertex
100
AcDb2dVertex
 10
222.7856390301432
 20
232.3690518738681
 30
0.0
 70
     8
  0
VERTEX
  5
1900
330
18ED
100
AcDbEntity
  8
HILF
100
AcDbVertex
100
AcDb2dVertex
 10
231.1365354103959
 20
301.6707557051459
 30
0.0
 70
    16
  0
VERTEX
  5
1901
330
18ED
100
AcDbEntity
  8
HILF
100
AcDbVertex
100
AcDb2dVertex
 10
226.1577039139845
 20
277.1439818662166
 30
0.0
 70
    16
  0
VERTEX
  5
1902
330
18ED
100
AcDbEntity
  8
HILF
100
AcDbVertex
100
AcDb2dVertex
 10
216.2000409211615
 20
251.2914364684266
 30
0.0
 70
    16
  0
VERTEX
  5
1903
330
18ED
100
AcDbEntity
  8
HILF
100
AcDbVertex
100
AcDb2dVertex
 10
222.7856390301432
 20
232.3690518738681
 30
0.0
 70
    16
  0
SEQEND
  5
1904
330
18ED
100
AcDbEntity
  8
HILF
  0
POLYLINE
  5
1905
330
1E
100
AcDbEntity
  8
HILF
100
AcDb2dPolyline
 66
     1
 10
0.0
 20
0.0
 30
0.0
 70
     4
 75
     6
  0
VERTEX
  5
1906
330
1905
100
AcDbEntity
  8
HILF
100
AcDbVertex
100
AcDb2dVertex
 10
222.7856390301431
 20
321.3690518738681
 30
0.0
 70
    16
  0
VERTEX
  5
1907
330
1905
100
AcDbEntity
  8
HILF
100
AcDbVertex
100
AcDb2dVertex
 10
222.7856390301431
 20
321.3690518738681
 30
0.0
 70
     8
  0
VERTEX
  5
1908
330
1905
100
AcDbEntity
  8
HILF
100
AcDbVertex
100
AcDb2dVertex
 10
225.4278269562757
 20
314.3155335251348
 30
0.0
 70
     8
  0
VERTEX
  5
1909
330
1905
100
AcDbEntity
  8
HILF
100
AcDbVertex
100
AcDb2dVertex
 10
227.166184107721
 20
307.8680259793908
 30
0.0
 70
     8
  0
VERTEX
  5
190A
330
1905
100
AcDbEntity
  8
HILF
100
AcDbVertex
100
AcDb2dVertex
 10
228.1131589718349
 20
301.9355172975075
 30
0.0
 70
     8
  0
VERTEX
  5
190B
330
1905
100
AcDbEntity
  8
HILF
100
AcDbVertex
100
AcDb2dVertex
 10
228.3812000359729
 20
296.4269955403564
 30
0.0
 70
     8
  0
VERTEX
  5
190C
330
1905
100
AcDbEntity
  8
HILF
100
AcDbVertex
100
AcDb2dVertex
 10
228.0827557874909
 20
291.2514487688087
 30
0.0
 70
     8
  0
VERTEX
  5
190D
330
1905
100
AcDbEntity
  8
HILF
100
AcDbVertex
100
AcDb2dVertex
 10
227.3302747137444
 20
286.3178650437361
 30
0.0
 70
     8
  0
VERTEX
  5
190E
330
1905
100
AcDbEntity
  8
HILF
100
AcDbVertex
100
AcDb2dVertex
 10
226.2362053020895
 20
281.5352324260099
 30
0.0
 70
     8
  0
VERTEX
  5
190F
330
1905
100
AcDbEntity
  8
HILF
100
AcDbVertex
100
AcDb2dVertex
 10
224.9129960398816
 20
276.8125389765014
 30
0.0
 70
     8
  0
VERTEX
  5
1910
330
1905
100
AcDbEntity
  8
HILF
100
AcDbVertex
100
AcDb2dVertex
 10
223.479371846557
 20
272.0628776059513
 30
0.0
 70
     8
  0
VERTEX
  5
1911
330
1905
100
AcDbEntity
  8
HILF
100
AcDbVertex
100
AcDb2dVertex
 10
222.0791633698731
 20
267.215760624577
 30
0.0
 70
     8
  0
VERTEX
  5
1912
330
1905
100
AcDbEntity
  8
HILF
100
AcDbVertex
100
AcDb2dVertex
 10
220.8624776896676
 20
262.204805192465
 30
0.0
 70
     8
  0
VERTEX
  5
1913
330
1905
100
AcDbEntity
  8
HILF
100
AcDbVertex
100
AcDb2dVertex
 10
219.9794218857786
 20
256.9636284697017
 30
0.0
 70
     8
  0
VERTEX
  5
1914
330
1905
100
AcDbEntity
  8
HILF
100
AcDbVertex
100
AcDb2dVertex
 10
219.5801030380438
 20
251.4258476163739
 30
0.0
 70
     8
  0
VERTEX
  5
1915
330
1905
100
AcDbEntity
  8
HILF
100
AcDbVertex
100
AcDb2dVertex
 10
219.814628226301
 20
245.525079792568
 30
0.0
 70
     8
  0
VERTEX
  5
1916
330
1905
100
AcDbEntity
  8
HILF
100
AcDbVertex
100
AcDb2dVertex
 10
220.8331045303883
 20
239.1949421583706
 30
0.0
 70
     8
  0
VERTEX
  5
1917
330
1905
100
AcDbEntity
  8
HILF
100
AcDbVertex
100
AcDb2dVertex
 10
222.7856390301432
 20
232.3690518738681
 30
0.0
 70
     8
  0
VERTEX
  5
1918
330
1905
100
AcDbEntity
  8
HILF
100
AcDbVertex
100
AcDb2dVertex
 10
231.1365354103959
 20
301.6707557051459
 30
0.0
 70
    16
  0
VERTEX
  5
1919
330
1905
100
AcDbEntity
  8
HILF
100
AcDbVertex
100
AcDb2dVertex
 10
226.1577039139845
 20
277.1439818662166
 30
0.0
 70
    16
  0
VERTEX
  5
191A
330
1905
100
AcDbEntity
  8
HILF
100
AcDbVertex
100
AcDb2dVertex
 10
216.2000409211615
 20
251.2914364684266
 30
0.0
 70
    16
  0
VERTEX
  5
191B
330
1905
100
AcDbEntity
  8
HILF
100
AcDbVertex
100
AcDb2dVertex
 10
222.7856390301432
 20
232.3690518738681
 30
0.0
 70
    16
  0
SEQEND
  5
191C
330
1905
100
AcDbEntity
  8
HILF
  0
ARC
  5
191D
330
1E
100
AcDbEntity
  8
STEMPEL
100
AcDbCircle
 10
364.6009696238467
 20
292.3176629849793
 30
0.0
 40
2.294444444444444
100
AcDbArc
 50
90.0
 51
180.0
  0
LINE
  5
191E
330
1E
100
AcDbEntity
  8
HILF
100
AcDbLine
 10
423.7565952281331
 20
286.1919474040082
 30
0.0
 11
401.4235862694012
 21
309.1822741296305
 31
0.0
  0
LINE
  5
191F
330
1E
100
AcDbEntity
  8
STEMPEL
100
AcDbLine
 10
425.6375638267451
 20
288.0157790801026
 30
0.0
 11
403.3114768702234
 21
311.0059039429613
 31
0.0
  0
LINE
  5
1920
330
1E
100
AcDbEntity
  8
HILF
100
AcDbLine
 10
620.2073707568989
 20
231.4201940720734
 30
0.0
 11
620.2073707568989
 21
322.3179096756619
 31
0.0
  0
LINE
  5
1921
330
1E
100
AcDbEntity
  8
HILF
100
AcDbLine
 10
615.0798090377435
 20
233.7071458978103
 30
0.0
 11
615.0798090377435
 21
320.0309578499246
 31
0.0
  0
LINE
  5
1922
330
1E
100
AcDbEntity
  8
HILF
100
AcDbLine
 10
715.4289229111904
 20
230.6163058681995
 30
0.0
 11
715.4289229111904
 21
323.1217978795378
 31
0.0
  0
LINE
  5
1923
330
1E
100
AcDbEntity
  8
STEMPEL
100
AcDbLine
 10
748.1593029571798
 20
324.6344565442082
 30
0.0
 11
748.15930295718
 21
229.1036472035282
 31
0.0
  0
POLYLINE
  5
1A70
330
1E
100
AcDbEntity
  8
HILF
100
AcDb2dPolyline
 66
     1
 10
0.0
 20
0.0
 30
0.0
 70
     4
 75
     6
  0
VERTEX
  5
1A71
330
1A70
100
AcDbEntity
  8
HILF
100
AcDbVertex
100
AcDb2dVertex
 10
574.0067308380851
 20
487.9993747928663
 30
0.0
 70
    16
  0
VERTEX
  5
1A72
330
1A70
100
AcDbEntity
  8
HILF
100
AcDbVertex
100
AcDb2dVertex
 10
574.0067308380851
 20
487.9993747928663
 30
0.0
 70
     8
  0
VERTEX
  5
1A73
330
1A70
100
AcDbEntity
  8
HILF
100
AcDbVertex
100
AcDb2dVertex
 10
576.6489187642177
 20
480.9458564441329
 30
0.0
 70
     8
  0
VERTEX
  5
1A74
330
1A70
100
AcDbEntity
  8
HILF
100
AcDbVertex
100
AcDb2dVertex
 10
578.387275915663
 20
474.4983488983889
 30
0.0
 70
     8
  0
VERTEX
  5
1A75
330
1A70
100
AcDbEntity
  8
HILF
100
AcDbVertex
100
AcDb2dVertex
 10
579.3342507797769
 20
468.5658402165056
 30
0.0
 70
     8
  0
VERTEX
  5
1A76
330
1A70
100
AcDbEntity
  8
HILF
100
AcDbVertex
100
AcDb2dVertex
 10
579.6022918439149
 20
463.0573184593544
 30
0.0
 70
     8
  0
VERTEX
  5
1A77
330
1A70
100
AcDbEntity
  8
HILF
100
AcDbVertex
100
AcDb2dVertex
 10
579.3038475954329
 20
457.8817716878068
 30
0.0
 70
     8
  0
VERTEX
  5
1A78
330
1A70
100
AcDbEntity
  8
HILF
100
AcDbVertex
100
AcDb2dVertex
 10
578.5513665216864
 20
452.9481879627342
 30
0.0
 70
     8
  0
VERTEX
  5
1A79
330
1A70
100
AcDbEntity
  8
HILF
100
AcDbVertex
100
AcDb2dVertex
 10
577.4572971100314
 20
448.165555345008
 30
0.0
 70
     8
  0
VERTEX
  5
1A7A
330
1A70
100
AcDbEntity
  8
HILF
100
AcDbVertex
100
AcDb2dVertex
 10
576.1340878478235
 20
443.4428618954995
 30
0.0
 70
     8
  0
VERTEX
  5
1A7B
330
1A70
100
AcDbEntity
  8
HILF
100
AcDbVertex
100
AcDb2dVertex
 10
574.700463654499
 20
438.6932005249494
 30
0.0
 70
     8
  0
VERTEX
  5
1A7C
330
1A70
100
AcDbEntity
  8
HILF
100
AcDbVertex
100
AcDb2dVertex
 10
573.3002551778151
 20
433.8460835435751
 30
0.0
 70
     8
  0
VERTEX
  5
1A7D
330
1A70
100
AcDbEntity
  8
HILF
100
AcDbVertex
100
AcDb2dVertex
 10
572.0835694976095
 20
428.8351281114629
 30
0.0
 70
     8
  0
VERTEX
  5
1A7E
330
1A70
100
AcDbEntity
  8
HILF
100
AcDbVertex
100
AcDb2dVertex
 10
571.2005136937206
 20
423.5939513886997
 30
0.0
 70
     8
  0
VERTEX
  5
1A7F
330
1A70
100
AcDbEntity
  8
HILF
100
AcDbVertex
100
AcDb2dVertex
 10
570.8011948459858
 20
418.056170535372
 30
0.0
 70
     8
  0
VERTEX
  5
1A80
330
1A70
100
AcDbEntity
  8
HILF
100
AcDbVertex
100
AcDb2dVertex
 10
571.0357200342429
 20
412.1554027115661
 30
0.0
 70
     8
  0
VERTEX
  5
1A81
330
1A70
100
AcDbEntity
  8
HILF
100
AcDbVertex
100
AcDb2dVertex
 10
572.0541963383302
 20
405.8252650773686
 30
0.0
 70
     8
  0
VERTEX
  5
1A82
330
1A70
100
AcDbEntity
  8
HILF
100
AcDbVertex
100
AcDb2dVertex
 10
574.0067308380852
 20
398.9993747928663
 30
0.0
 70
     8
  0
VERTEX
  5
1A83
330
1A70
100
AcDbEntity
  8
HILF
100
AcDbVertex
100
AcDb2dVertex
 10
582.3576272183379
 20
468.3010786241438
 30
0.0
 70
    16
  0
VERTEX
  5
1A84
330
1A70
100
AcDbEntity
  8
HILF
100
AcDbVertex
100
AcDb2dVertex
 10
577.3787957219265
 20
443.7743047852148
 30
0.0
 70
    16
  0
VERTEX
  5
1A85
330
1A70
100
AcDbEntity
  8
HILF
100
AcDbVertex
100
AcDb2dVertex
 10
567.4211327291035
 20
417.9217593874246
 30
0.0
 70
    16
  0
VERTEX
  5
1A86
330
1A70
100
AcDbEntity
  8
HILF
100
AcDbVertex
100
AcDb2dVertex
 10
574.0067308380852
 20
398.9993747928663
 30
0.0
 70
    16
  0
SEQEND
  5
1A87
330
1A70
100
AcDbEntity
  8
HILF
  0
POLYLINE
  5
1A88
330
1E
100
AcDbEntity
  8
HILF
100
AcDb2dPolyline
 66
     1
 10
0.0
 20
0.0
 30
0.0
 70
     4
 75
     6
  0
VERTEX
  5
1A89
330
1A88
100
AcDbEntity
  8
HILF
100
AcDbVertex
100
AcDb2dVertex
 10
569.0067308380851
 20
487.9993747928663
 30
0.0
 70
    16
  0
VERTEX
  5
1A8A
330
1A88
100
AcDbEntity
  8
HILF
100
AcDbVertex
100
AcDb2dVertex
 10
569.0067308380851
 20
487.9993747928663
 30
0.0
 70
     8
  0
VERTEX
  5
1A8B
330
1A88
100
AcDbEntity
  8
HILF
100
AcDbVertex
100
AcDb2dVertex
 10
571.6489187642176
 20
480.9458564441329
 30
0.0
 70
     8
  0
VERTEX
  5
1A8C
330
1A88
100
AcDbEntity
  8
HILF
100
AcDbVertex
100
AcDb2dVertex
 10
573.387275915663
 20
474.4983488983889
 30
0.0
 70
     8
  0
VERTEX
  5
1A8D
330
1A88
100
AcDbEntity
  8
HILF
100
AcDbVertex
100
AcDb2dVertex
 10
574.3342507797769
 20
468.5658402165056
 30
0.0
 70
     8
  0
VERTEX
  5
1A8E
330
1A88
100
AcDbEntity
  8
HILF
100
AcDbVertex
100
AcDb2dVertex
 10
574.6022918439149
 20
463.0573184593544
 30
0.0
 70
     8
  0
VERTEX
  5
1A8F
330
1A88
100
AcDbEntity
  8
HILF
100
AcDbVertex
100
AcDb2dVertex
 10
574.3038475954328
 20
457.8817716878068
 30
0.0
 70
     8
  0
VERTEX
  5
1A90
330
1A88
100
AcDbEntity
  8
HILF
100
AcDbVertex
100
AcDb2dVertex
 10
573.5513665216863
 20
452.9481879627342
 30
0.0
 70
     8
  0
VERTEX
  5
1A91
330
1A88
100
AcDbEntity
  8
HILF
100
AcDbVertex
100
AcDb2dVertex
 10
572.4572971100315
 20
448.165555345008
 30
0.0
 70
     8
  0
VERTEX
  5
1A92
330
1A88
100
AcDbEntity
  8
HILF
100
AcDbVertex
100
AcDb2dVertex
 10
571.1340878478235
 20
443.4428618954995
 30
0.0
 70
     8
  0
VERTEX
  5
1A93
330
1A88
100
AcDbEntity
  8
HILF
100
AcDbVertex
100
AcDb2dVertex
 10
569.7004636544989
 20
438.6932005249494
 30
0.0
 70
     8
  0
VERTEX
  5
1A94
330
1A88
100
AcDbEntity
  8
HILF
100
AcDbVertex
100
AcDb2dVertex
 10
568.3002551778151
 20
433.8460835435751
 30
0.0
 70
     8
  0
VERTEX
  5
1A95
330
1A88
100
AcDbEntity
  8
HILF
100
AcDbVertex
100
AcDb2dVertex
 10
567.0835694976095
 20
428.8351281114629
 30
0.0
 70
     8
  0
VERTEX
  5
1A96
330
1A88
100
AcDbEntity
  8
HILF
100
AcDbVertex
100
AcDb2dVertex
 10
566.2005136937206
 20
423.5939513886997
 30
0.0
 70
     8
  0
VERTEX
  5
1A97
330
1A88
100
AcDbEntity
  8
HILF
100
AcDbVertex
100
AcDb2dVertex
 10
565.8011948459858
 20
418.056170535372
 30
0.0
 70
     8
  0
VERTEX
  5
1A98
330
1A88
100
AcDbEntity
  8
HILF
100
AcDbVertex
100
AcDb2dVertex
 10
566.035720034243
 20
412.1554027115661
 30
0.0
 70
     8
  0
VERTEX
  5
1A99
330
1A88
100
AcDbEntity
  8
HILF
100
AcDbVertex
100
AcDb2dVertex
 10
567.0541963383302
 20
405.8252650773686
 30
0.0
 70
     8
  0
VERTEX
  5
1A9A
330
1A88
100
AcDbEntity
  8
HILF
100
AcDbVertex
100
AcDb2dVertex
 10
569.0067308380852
 20
398.9993747928663
 30
0.0
 70
     8
  0
VERTEX
  5
1A9B
330
1A88
100
AcDbEntity
  8
HILF
100
AcDbVertex
100
AcDb2dVertex
 10
577.3576272183379
 20
468.3010786241438
 30
0.0
 70
    16
  0
VERTEX
  5
1A9C
330
1A88
100
AcDbEntity
  8
HILF
100
AcDbVertex
100
AcDb2dVertex
 10
572.3787957219265
 20
443.7743047852148
 30
0.0
 70
    16
  0
VERTEX
  5
1A9D
330
1A88
100
AcDbEntity
  8
HILF
100
AcDbVertex
100
AcDb2dVertex
 10
562.4211327291035
 20
417.9217593874246
 30
0.0
 70
    16
  0
VERTEX
  5
1A9E
330
1A88
100
AcDbEntity
  8
HILF
100
AcDbVertex
100
AcDb2dVertex
 10
569.0067308380852
 20
398.9993747928663
 30
0.0
 70
    16
  0
SEQEND
  5
1A9F
330
1A88
100
AcDbEntity
  8
HILF
  0
POLYLINE
  5
1AA0
330
1E
100
AcDbEntity
  8
HILF
100
AcDb2dPolyline
 66
     1
 10
0.0
 20
0.0
 30
0.0
 70
     4
 75
     6
  0
VERTEX
  5
1AA1
330
1AA0
100
AcDbEntity
  8
HILF
100
AcDbVertex
100
AcDb2dVertex
 10
569.0067308380851
 20
487.9993747928663
 30
0.0
 70
    16
  0
VERTEX
  5
1AA2
330
1AA0
100
AcDbEntity
  8
HILF
100
AcDbVertex
100
AcDb2dVertex
 10
569.0067308380851
 20
487.9993747928663
 30
0.0
 70
     8
  0
VERTEX
  5
1AA3
330
1AA0
100
AcDbEntity
  8
HILF
100
AcDbVertex
100
AcDb2dVertex
 10
571.6489187642176
 20
480.9458564441329
 30
0.0
 70
     8
  0
VERTEX
  5
1AA4
330
1AA0
100
AcDbEntity
  8
HILF
100
AcDbVertex
100
AcDb2dVertex
 10
573.387275915663
 20
474.4983488983889
 30
0.0
 70
     8
  0
VERTEX
  5
1AA5
330
1AA0
100
AcDbEntity
  8
HILF
100
AcDbVertex
100
AcDb2dVertex
 10
574.3342507797769
 20
468.5658402165056
 30
0.0
 70
     8
  0
VERTEX
  5
1AA6
330
1AA0
100
AcDbEntity
  8
HILF
100
AcDbVertex
100
AcDb2dVertex
 10
574.6022918439149
 20
463.0573184593544
 30
0.0
 70
     8
  0
VERTEX
  5
1AA7
330
1AA0
100
AcDbEntity
  8
HILF
100
AcDbVertex
100
AcDb2dVertex
 10
574.3038475954328
 20
457.8817716878068
 30
0.0
 70
     8
  0
VERTEX
  5
1AA8
330
1AA0
100
AcDbEntity
  8
HILF
100
AcDbVertex
100
AcDb2dVertex
 10
573.5513665216863
 20
452.9481879627342
 30
0.0
 70
     8
  0
VERTEX
  5
1AA9
330
1AA0
100
AcDbEntity
  8
HILF
100
AcDbVertex
100
AcDb2dVertex
 10
572.4572971100315
 20
448.165555345008
 30
0.0
 70
     8
  0
VERTEX
  5
1AAA
330
1AA0
100
AcDbEntity
  8
HILF
100
AcDbVertex
100
AcDb2dVertex
 10
571.1340878478235
 20
443.4428618954995
 30
0.0
 70
     8
  0
VERTEX
  5
1AAB
330
1AA0
100
AcDbEntity
  8
HILF
100
AcDbVertex
100
AcDb2dVertex
 10
569.7004636544989
 20
438.6932005249494
 30
0.0
 70
     8
  0
VERTEX
  5
1AAC
330
1AA0
100
AcDbEntity
  8
HILF
100
AcDbVertex
100
AcDb2dVertex
 10
568.3002551778151
 20
433.8460835435751
 30
0.0
 70
     8
  0
VERTEX
  5
1AAD
330
1AA0
100
AcDbEntity
  8
HILF
100
AcDbVertex
100
AcDb2dVertex
 10
567.0835694976095
 20
428.8351281114629
 30
0.0
 70
     8
  0
VERTEX
  5
1AAE
330
1AA0
100
AcDbEntity
  8
HILF
100
AcDbVertex
100
AcDb2dVertex
 10
566.2005136937206
 20
423.5939513886997
 30
0.0
 70
     8
  0
VERTEX
  5
1AAF
330
1AA0
100
AcDbEntity
  8
HILF
100
AcDbVertex
100
AcDb2dVertex
 10
565.8011948459858
 20
418.056170535372
 30
0.0
 70
     8
  0
VERTEX
  5
1AB0
330
1AA0
100
AcDbEntity
  8
HILF
100
AcDbVertex
100
AcDb2dVertex
 10
566.035720034243
 20
412.1554027115661
 30
0.0
 70
     8
  0
VERTEX
  5
1AB1
330
1AA0
100
AcDbEntity
  8
HILF
100
AcDbVertex
100
AcDb2dVertex
 10
567.0541963383302
 20
405.8252650773686
 30
0.0
 70
     8
  0
VERTEX
  5
1AB2
330
1AA0
100
AcDbEntity
  8
HILF
100
AcDbVertex
100
AcDb2dVertex
 10
569.0067308380852
 20
398.9993747928663
 30
0.0
 70
     8
  0
VERTEX
  5
1AB3
330
1AA0
100
AcDbEntity
  8
HILF
100
AcDbVertex
100
AcDb2dVertex
 10
577.3576272183379
 20
468.3010786241438
 30
0.0
 70
    16
  0
VERTEX
  5
1AB4
330
1AA0
100
AcDbEntity
  8
HILF
100
AcDbVertex
100
AcDb2dVertex
 10
572.3787957219265
 20
443.7743047852148
 30
0.0
 70
    16
  0
VERTEX
  5
1AB5
330
1AA0
100
AcDbEntity
  8
HILF
100
AcDbVertex
100
AcDb2dVertex
 10
562.4211327291035
 20
417.9217593874246
 30
0.0
 70
    16
  0
VERTEX
  5
1AB6
330
1AA0
100
AcDbEntity
  8
HILF
100
AcDbVertex
100
AcDb2dVertex
 10
569.0067308380852
 20
398.9993747928663
 30
0.0
 70
    16
  0
SEQEND
  5
1AB7
330
1AA0
100
AcDbEntity
  8
HILF
  0
POLYLINE
  5
1AB8
330
1E
100
AcDbEntity
  8
HILF
100
AcDb2dPolyline
 66
     1
 10
0.0
 20
0.0
 30
0.0
 70
     4
 75
     6
  0
VERTEX
  5
1AB9
330
1AB8
100
AcDbEntity
  8
HILF
100
AcDbVertex
100
AcDb2dVertex
 10
569.0067308380851
 20
321.3690518738681
 30
0.0
 70
    16
  0
VERTEX
  5
1ABA
330
1AB8
100
AcDbEntity
  8
HILF
100
AcDbVertex
100
AcDb2dVertex
 10
569.0067308380851
 20
321.3690518738681
 30
0.0
 70
     8
  0
VERTEX
  5
1ABB
330
1AB8
100
AcDbEntity
  8
HILF
100
AcDbVertex
100
AcDb2dVertex
 10
571.6489187642176
 20
314.3155335251348
 30
0.0
 70
     8
  0
VERTEX
  5
1ABC
330
1AB8
100
AcDbEntity
  8
HILF
100
AcDbVertex
100
AcDb2dVertex
 10
573.387275915663
 20
307.8680259793908
 30
0.0
 70
     8
  0
VERTEX
  5
1ABD
330
1AB8
100
AcDbEntity
  8
HILF
100
AcDbVertex
100
AcDb2dVertex
 10
574.3342507797769
 20
301.9355172975075
 30
0.0
 70
     8
  0
VERTEX
  5
1ABE
330
1AB8
100
AcDbEntity
  8
HILF
100
AcDbVertex
100
AcDb2dVertex
 10
574.6022918439149
 20
296.4269955403564
 30
0.0
 70
     8
  0
VERTEX
  5
1ABF
330
1AB8
100
AcDbEntity
  8
HILF
100
AcDbVertex
100
AcDb2dVertex
 10
574.3038475954328
 20
291.2514487688087
 30
0.0
 70
     8
  0
VERTEX
  5
1AC0
330
1AB8
100
AcDbEntity
  8
HILF
100
AcDbVertex
100
AcDb2dVertex
 10
573.5513665216863
 20
286.3178650437361
 30
0.0
 70
     8
  0
VERTEX
  5
1AC1
330
1AB8
100
AcDbEntity
  8
HILF
100
AcDbVertex
100
AcDb2dVertex
 10
572.4572971100315
 20
281.5352324260099
 30
0.0
 70
     8
  0
VERTEX
  5
1AC2
330
1AB8
100
AcDbEntity
  8
HILF
100
AcDbVertex
100
AcDb2dVertex
 10
571.1340878478235
 20
276.8125389765014
 30
0.0
 70
     8
  0
VERTEX
  5
1AC3
330
1AB8
100
AcDbEntity
  8
HILF
100
AcDbVertex
100
AcDb2dVertex
 10
569.7004636544989
 20
272.0628776059513
 30
0.0
 70
     8
  0
VERTEX
  5
1AC4
330
1AB8
100
AcDbEntity
  8
HILF
100
AcDbVertex
100
AcDb2dVertex
 10
568.3002551778151
 20
267.215760624577
 30
0.0
 70
     8
  0
VERTEX
  5
1AC5
330
1AB8
100
AcDbEntity
  8
HILF
100
AcDbVertex
100
AcDb2dVertex
 10
567.0835694976095
 20
262.204805192465
 30
0.0
 70
     8
  0
VERTEX
  5
1AC6
330
1AB8
100
AcDbEntity
  8
HILF
100
AcDbVertex
100
AcDb2dVertex
 10
566.2005136937206
 20
256.9636284697017
 30
0.0
 70
     8
  0
VERTEX
  5
1AC7
330
1AB8
100
AcDbEntity
  8
HILF
100
AcDbVertex
100
AcDb2dVertex
 10
565.8011948459858
 20
251.4258476163739
 30
0.0
 70
     8
  0
VERTEX
  5
1AC8
330
1AB8
100
AcDbEntity
  8
HILF
100
AcDbVertex
100
AcDb2dVertex
 10
566.035720034243
 20
245.525079792568
 30
0.0
 70
     8
  0
VERTEX
  5
1AC9
330
1AB8
100
AcDbEntity
  8
HILF
100
AcDbVertex
100
AcDb2dVertex
 10
567.0541963383302
 20
239.1949421583706
 30
0.0
 70
     8
  0
VERTEX
  5
1ACA
330
1AB8
100
AcDbEntity
  8
HILF
100
AcDbVertex
100
AcDb2dVertex
 10
569.0067308380852
 20
232.3690518738681
 30
0.0
 70
     8
  0
VERTEX
  5
1ACB
330
1AB8
100
AcDbEntity
  8
HILF
100
AcDbVertex
100
AcDb2dVertex
 10
577.3576272183379
 20
301.6707557051459
 30
0.0
 70
    16
  0
VERTEX
  5
1ACC
330
1AB8
100
AcDbEntity
  8
HILF
100
AcDbVertex
100
AcDb2dVertex
 10
572.3787957219265
 20
277.1439818662166
 30
0.0
 70
    16
  0
VERTEX
  5
1ACD
330
1AB8
100
AcDbEntity
  8
HILF
100
AcDbVertex
100
AcDb2dVertex
 10
562.4211327291035
 20
251.2914364684266
 30
0.0
 70
    16
  0
VERTEX
  5
1ACE
330
1AB8
100
AcDbEntity
  8
HILF
100
AcDbVertex
100
AcDb2dVertex
 10
569.0067308380852
 20
232.3690518738681
 30
0.0
 70
    16
  0
SEQEND
  5
1ACF
330
1AB8
100
AcDbEntity
  8
HILF
  0
POLYLINE
  5
1AD0
330
1E
100
AcDbEntity
  8
HILF
100
AcDb2dPolyline
 66
     1
 10
0.0
 20
0.0
 30
0.0
 70
     4
 75
     6
  0
VERTEX
  5
1AD1
330
1AD0
100
AcDbEntity
  8
HILF
100
AcDbVertex
100
AcDb2dVertex
 10
569.0067308380851
 20
321.3690518738681
 30
0.0
 70
    16
  0
VERTEX
  5
1AD2
330
1AD0
100
AcDbEntity
  8
HILF
100
AcDbVertex
100
AcDb2dVertex
 10
569.0067308380851
 20
321.3690518738681
 30
0.0
 70
     8
  0
VERTEX
  5
1AD3
330
1AD0
100
AcDbEntity
  8
HILF
100
AcDbVertex
100
AcDb2dVertex
 10
571.6489187642176
 20
314.3155335251348
 30
0.0
 70
     8
  0
VERTEX
  5
1AD4
330
1AD0
100
AcDbEntity
  8
HILF
100
AcDbVertex
100
AcDb2dVertex
 10
573.387275915663
 20
307.8680259793908
 30
0.0
 70
     8
  0
VERTEX
  5
1AD5
330
1AD0
100
AcDbEntity
  8
HILF
100
AcDbVertex
100
AcDb2dVertex
 10
574.3342507797769
 20
301.9355172975075
 30
0.0
 70
     8
  0
VERTEX
  5
1AD6
330
1AD0
100
AcDbEntity
  8
HILF
100
AcDbVertex
100
AcDb2dVertex
 10
574.6022918439149
 20
296.4269955403564
 30
0.0
 70
     8
  0
VERTEX
  5
1AD7
330
1AD0
100
AcDbEntity
  8
HILF
100
AcDbVertex
100
AcDb2dVertex
 10
574.3038475954328
 20
291.2514487688087
 30
0.0
 70
     8
  0
VERTEX
  5
1AD8
330
1AD0
100
AcDbEntity
  8
HILF
100
AcDbVertex
100
AcDb2dVertex
 10
573.5513665216863
 20
286.3178650437361
 30
0.0
 70
     8
  0
VERTEX
  5
1AD9
330
1AD0
100
AcDbEntity
  8
HILF
100
AcDbVertex
100
AcDb2dVertex
 10
572.4572971100315
 20
281.5352324260099
 30
0.0
 70
     8
  0
VERTEX
  5
1ADA
330
1AD0
100
AcDbEntity
  8
HILF
100
AcDbVertex
100
AcDb2dVertex
 10
571.1340878478235
 20
276.8125389765014
 30
0.0
 70
     8
  0
VERTEX
  5
1ADB
330
1AD0
100
AcDbEntity
  8
HILF
100
AcDbVertex
100
AcDb2dVertex
 10
569.7004636544989
 20
272.0628776059513
 30
0.0
 70
     8
  0
VERTEX
  5
1ADC
330
1AD0
100
AcDbEntity
  8
HILF
100
AcDbVertex
100
AcDb2dVertex
 10
568.3002551778151
 20
267.215760624577
 30
0.0
 70
     8
  0
VERTEX
  5
1ADD
330
1AD0
100
AcDbEntity
  8
HILF
100
AcDbVertex
100
AcDb2dVertex
 10
567.0835694976095
 20
262.204805192465
 30
0.0
 70
     8
  0
VERTEX
  5
1ADE
330
1AD0
100
AcDbEntity
  8
HILF
100
AcDbVertex
100
AcDb2dVertex
 10
566.2005136937206
 20
256.9636284697017
 30
0.0
 70
     8
  0
VERTEX
  5
1ADF
330
1AD0
100
AcDbEntity
  8
HILF
100
AcDbVertex
100
AcDb2dVertex
 10
565.8011948459858
 20
251.4258476163739
 30
0.0
 70
     8
  0
VERTEX
  5
1AE0
330
1AD0
100
AcDbEntity
  8
HILF
100
AcDbVertex
100
AcDb2dVertex
 10
566.035720034243
 20
245.525079792568
 30
0.0
 70
     8
  0
VERTEX
  5
1AE1
330
1AD0
100
AcDbEntity
  8
HILF
100
AcDbVertex
100
AcDb2dVertex
 10
567.0541963383302
 20
239.1949421583706
 30
0.0
 70
     8
  0
VERTEX
  5
1AE2
330
1AD0
100
AcDbEntity
  8
HILF
100
AcDbVertex
100
AcDb2dVertex
 10
569.0067308380852
 20
232.3690518738681
 30
0.0
 70
     8
  0
VERTEX
  5
1AE3
330
1AD0
100
AcDbEntity
  8
HILF
100
AcDbVertex
100
AcDb2dVertex
 10
577.3576272183379
 20
301.6707557051459
 30
0.0
 70
    16
  0
VERTEX
  5
1AE4
330
1AD0
100
AcDbEntity
  8
HILF
100
AcDbVertex
100
AcDb2dVertex
 10
572.3787957219265
 20
277.1439818662166
 30
0.0
 70
    16
  0
VERTEX
  5
1AE5
330
1AD0
100
AcDbEntity
  8
HILF
100
AcDbVertex
100
AcDb2dVertex
 10
562.4211327291035
 20
251.2914364684266
 30
0.0
 70
    16
  0
VERTEX
  5
1AE6
330
1AD0
100
AcDbEntity
  8
HILF
100
AcDbVertex
100
AcDb2dVertex
 10
569.0067308380852
 20
232.3690518738681
 30
0.0
 70
    16
  0
SEQEND
  5
1AE7
330
1AD0
100
AcDbEntity
  8
HILF
  0
POLYLINE
  5
1AE8
330
1E
100
AcDbEntity
  8
HILF
100
AcDb2dPolyline
 66
     1
 10
0.0
 20
0.0
 30
0.0
 70
     4
 75
     6
  0
VERTEX
  5
1AE9
330
1AE8
100
AcDbEntity
  8
HILF
100
AcDbVertex
100
AcDb2dVertex
 10
574.0067308380851
 20
321.3690518738681
 30
0.0
 70
    16
  0
VERTEX
  5
1AEA
330
1AE8
100
AcDbEntity
  8
HILF
100
AcDbVertex
100
AcDb2dVertex
 10
574.0067308380851
 20
321.3690518738681
 30
0.0
 70
     8
  0
VERTEX
  5
1AEB
330
1AE8
100
AcDbEntity
  8
HILF
100
AcDbVertex
100
AcDb2dVertex
 10
576.6489187642177
 20
314.3155335251348
 30
0.0
 70
     8
  0
VERTEX
  5
1AEC
330
1AE8
100
AcDbEntity
  8
HILF
100
AcDbVertex
100
AcDb2dVertex
 10
578.387275915663
 20
307.8680259793908
 30
0.0
 70
     8
  0
VERTEX
  5
1AED
330
1AE8
100
AcDbEntity
  8
HILF
100
AcDbVertex
100
AcDb2dVertex
 10
579.3342507797769
 20
301.9355172975075
 30
0.0
 70
     8
  0
VERTEX
  5
1AEE
330
1AE8
100
AcDbEntity
  8
HILF
100
AcDbVertex
100
AcDb2dVertex
 10
579.6022918439149
 20
296.4269955403564
 30
0.0
 70
     8
  0
VERTEX
  5
1AEF
330
1AE8
100
AcDbEntity
  8
HILF
100
AcDbVertex
100
AcDb2dVertex
 10
579.3038475954329
 20
291.2514487688087
 30
0.0
 70
     8
  0
VERTEX
  5
1AF0
330
1AE8
100
AcDbEntity
  8
HILF
100
AcDbVertex
100
AcDb2dVertex
 10
578.5513665216864
 20
286.3178650437361
 30
0.0
 70
     8
  0
VERTEX
  5
1AF1
330
1AE8
100
AcDbEntity
  8
HILF
100
AcDbVertex
100
AcDb2dVertex
 10
577.4572971100314
 20
281.5352324260099
 30
0.0
 70
     8
  0
VERTEX
  5
1AF2
330
1AE8
100
AcDbEntity
  8
HILF
100
AcDbVertex
100
AcDb2dVertex
 10
576.1340878478235
 20
276.8125389765014
 30
0.0
 70
     8
  0
VERTEX
  5
1AF3
330
1AE8
100
AcDbEntity
  8
HILF
100
AcDbVertex
100
AcDb2dVertex
 10
574.700463654499
 20
272.0628776059513
 30
0.0
 70
     8
  0
VERTEX
  5
1AF4
330
1AE8
100
AcDbEntity
  8
HILF
100
AcDbVertex
100
AcDb2dVertex
 10
573.3002551778151
 20
267.215760624577
 30
0.0
 70
     8
  0
VERTEX
  5
1AF5
330
1AE8
100
AcDbEntity
  8
HILF
100
AcDbVertex
100
AcDb2dVertex
 10
572.0835694976095
 20
262.204805192465
 30
0.0
 70
     8
  0
VERTEX
  5
1AF6
330
1AE8
100
AcDbEntity
  8
HILF
100
AcDbVertex
100
AcDb2dVertex
 10
571.2005136937206
 20
256.9636284697017
 30
0.0
 70
     8
  0
VERTEX
  5
1AF7
330
1AE8
100
AcDbEntity
  8
HILF
100
AcDbVertex
100
AcDb2dVertex
 10
570.8011948459858
 20
251.4258476163739
 30
0.0
 70
     8
  0
VERTEX
  5
1AF8
330
1AE8
100
AcDbEntity
  8
HILF
100
AcDbVertex
100
AcDb2dVertex
 10
571.0357200342429
 20
245.525079792568
 30
0.0
 70
     8
  0
VERTEX
  5
1AF9
330
1AE8
100
AcDbEntity
  8
HILF
100
AcDbVertex
100
AcDb2dVertex
 10
572.0541963383302
 20
239.1949421583706
 30
0.0
 70
     8
  0
VERTEX
  5
1AFA
330
1AE8
100
AcDbEntity
  8
HILF
100
AcDbVertex
100
AcDb2dVertex
 10
574.0067308380852
 20
232.3690518738681
 30
0.0
 70
     8
  0
VERTEX
  5
1AFB
330
1AE8
100
AcDbEntity
  8
HILF
100
AcDbVertex
100
AcDb2dVertex
 10
582.3576272183379
 20
301.6707557051459
 30
0.0
 70
    16
  0
VERTEX
  5
1AFC
330
1AE8
100
AcDbEntity
  8
HILF
100
AcDbVertex
100
AcDb2dVertex
 10
577.3787957219265
 20
277.1439818662166
 30
0.0
 70
    16
  0
VERTEX
  5
1AFD
330
1AE8
100
AcDbEntity
  8
HILF
100
AcDbVertex
100
AcDb2dVertex
 10
567.4211327291035
 20
251.2914364684266
 30
0.0
 70
    16
  0
VERTEX
  5
1AFE
330
1AE8
100
AcDbEntity
  8
HILF
100
AcDbVertex
100
AcDb2dVertex
 10
574.0067308380852
 20
232.3690518738681
 30
0.0
 70
    16
  0
SEQEND
  5
1AFF
330
1AE8
100
AcDbEntity
  8
HILF
  0
LINE
  5
1B00
330
1E
100
AcDbEntity
  8
STEMPEL
100
AcDbLine
 10
569.0067308380851
 20
487.9993747928661
 30
0.0
 11
415.7593029571798
 21
487.9993747928661
 31
0.0
  0
LINE
  5
1B01
330
1E
100
AcDbEntity
  8
STEMPEL
100
AcDbLine
 10
569.0067308380851
 20
398.9993747928662
 30
0.0
 11
227.7856390301432
 21
398.9993747928661
 31
0.0
  0
LINE
  5
1B02
330
1E
100
AcDbEntity
  8
STEMPEL
100
AcDbLine
 10
569.0067308380851
 20
321.3690518738681
 30
0.0
 11
388.6714944539459
 21
321.3690518738681
 31
0.0
  0
LINE
  5
1B03
330
1E
100
AcDbEntity
  8
STEMPEL
100
AcDbLine
 10
569.0067308380852
 20
232.3690518738681
 30
0.0
 11
388.6714944539459
 21
232.3690518738681
 31
0.0
  0
ENDSEC
  0
SECTION
  2
OBJECTS
  0
DICTIONARY
  5
C
330
0
100
AcDbDictionary
281
     1
  3
ACAD_COLOR
350
11A
  3
ACAD_GROUP
350
D
  3
ACAD_LAYOUT
350
19
  3
ACAD_MATERIAL
350
119
  3
ACAD_MLINESTYLE
350
16
  3
ACAD_PLOTSETTINGS
350
18
  3
ACAD_PLOTSTYLENAME
350
E
  3
AcDbVariableDictionary
350
125
  0
DICTIONARY
  5
DB
330
1E
100
AcDbDictionary
280
     1
281
     1
  3
ACAD_LAYOUTSELFREF
360
10F
  0
DICTIONARY
  5
DD
330
1A
100
AcDbDictionary
280
     1
281
     1
  3
ACAD_LAYOUTSELFREF
360
10E
  0
DICTIONARY
  5
11A
102
{ACAD_REACTORS
330
C
102
}
330
C
100
AcDbDictionary
281
     1
  0
DICTIONARY
  5
D
102
{ACAD_REACTORS
330
C
102
}
330
C
100
AcDbDictionary
281
     1
  0
DICTIONARY
  5
19
102
{ACAD_REACTORS
330
C
102
}
330
C
100
AcDbDictionary
281
     1
  3
Layout1
350
1D
  3
Model
350
21
  0
DICTIONARY
  5
119
102
{ACAD_REACTORS
330
C
102
}
330
C
100
AcDbDictionary
281
     1
  0
DICTIONARY
  5
16
102
{ACAD_REACTORS
330
C
102
}
330
C
100
AcDbDictionary
281
     1
  3
Standard
350
17
  0
DICTIONARY
  5
18
102
{ACAD_REACTORS
330
C
102
}
330
C
100
AcDbDictionary
281
     1
  0
ACDBDICTIONARYWDFLT
  5
E
102
{ACAD_REACTORS
330
C
102
}
330
C
100
AcDbDictionary
281
     1
  3
Normal
350
F
100
AcDbDictionaryWithDefault
340
F
  0
DICTIONARY
  5
125
102
{ACAD_REACTORS
330
C
102
}
330
C
100
AcDbDictionary
281
     1
  3
DIMASSOC
350
126
  3
PROJECTNAME
350
127
  0
XRECORD
  5
10F
102
{ACAD_REACTORS
330
DB
102
}
330
DB
100
AcDbXrecord
280
     1
340
1E
  0
XRECORD
  5
10E
102
{ACAD_REACTORS
330
DD
102
}
330
DD
100
AcDbXrecord
280
     1
340
1A
  0
LAYOUT
  5
1D
102
{ACAD_REACTORS
330
19
102
}
330
19
100
AcDbPlotSettings
  1

  2
\\NT_WORK01\HP LaserJet 5000 PCL 6
  4

  6

 40
0.0
 41
0.0
 42
0.0
 43
0.0
 44
0.0
 45
0.0
 46
0.0
 47
0.0
 48
0.0
 49
0.0
140
0.0
141
0.0
142
1.0
143
1.0
 70
   688
 72
     0
 73
     0
 74
     5
  7

 75
    16
147
1.0
 76
     0
 77
     2
 78
   300
148
0.0
149
0.0
100
AcDbLayout
  1
Layout1
 70
     0
 71
     1
 10
0.0
 20
0.0
 11
12.0
 21
9.0
 12
0.0
 22
0.0
 32
0.0
 14
1.000000000000000E+20
 24
1.000000000000000E+20
 34
1.000000000000000E+20
 15
-1.000000000000000E+20
 25
-1.000000000000000E+20
 35
-1.000000000000000E+20
146
0.0
 13
0.0
 23
0.0
 33
0.0
 16
1.0
 26
0.0
 36
0.0
 17
0.0
 27
1.0
 37
0.0
 76
     0
330
1A
  0
LAYOUT
  5
21
102
{ACAD_REACTORS
330
19
102
}
330
19
100
AcDbPlotSettings
  1

  2
none_device
  4
Letter_(8.50_x_11.00_Inches)
  6

 40
6.349999904632568
 41
6.349999904632568
 42
6.350006103515625
 43
6.350006103515625
 44
215.8999938964844
 45
279.3999938964844
 46
0.0
 47
0.0
 48
0.0
 49
0.0
140
0.0
141
0.0
142
1.0
143
1.0
 70
 11952
 72
     0
 73
     1
 74
     0
  7

 75
     0
147
1.0
 76
     0
 77
     2
 78
   300
148
-3072.414334036836
149
51.78566596316691
100
AcDbLayout
  1
Model
 70
     1
 71
     0
 10
0.0
 20
0.0
 11
12.0
 21
9.0
 12
0.0
 22
0.0
 32
0.0
 14
0.0
 24
0.0
 34
0.0
 15
0.0
 25
0.0
 35
0.0
146
0.0
 13
0.0
 23
0.0
 33
0.0
 16
1.0
 26
0.0
 36
0.0
 17
0.0
 27
1.0
 37
0.0
 76
     0
330
1E
  0
MLINESTYLE
  5
17
102
{ACAD_REACTORS
330
16
102
}
330
16
100
AcDbMlineStyle
  2
STANDARD
 70
     0
  3

 62
   256
 51
90.0
 52
90.0
 71
     2
 49
0.5
 62
   256
  6
BYLAYER
 49
-0.5
 62
   256
  6
BYLAYER
  0
ACDBPLACEHOLDER
  5
F
102
{ACAD_REACTORS
330
E
102
}
330
E
  0
DICTIONARYVAR
  5
126
102
{ACAD_REACTORS
330
125
102
}
330
125
100
DictionaryVariables
280
     0
  1
1
  0
DICTIONARYVAR
  5
127
102
{ACAD_REACTORS
330
125
102
}
330
125
100
DictionaryVariables
280
     0
  1

  0
ENDSEC
  0
EOF
