  0
SECTION
  2
HEADER
  9
$ACADVER
  1
AC1018
  9
$ACADMAINTVER
 70
     2
  9
$DWGCODEPAGE
  3
ANSI_1252
  9
$INSBASE
 10
0.0
 20
0.0
 30
0.0
  9
$EXTMIN
 10
-0.0320410123476904
 20
-0.0453151460337722
 30
-0.0015258207003583
  9
$EXTMAX
 10
1050.03204590179
 20
1485.045322061104
 30
0.0000000349246037
  9
$LIMMIN
 10
0.0
 20
0.0
  9
$LIMMAX
 10
1050.0
 20
1485.0
  9
$ORTHOMODE
 70
     1
  9
$REGENMODE
 70
     1
  9
$FILLMODE
 70
     1
  9
$QTEXTMODE
 70
     0
  9
$MIRRTEXT
 70
     1
  9
$LTSCALE
 40
50.0
  9
$ATTMODE
 70
     1
  9
$TEXTSIZE
 40
3.5
  9
$TRACEWID
 40
0.5
  9
$TEXTSTYLE
  7
STANDARD
  9
$CLAYER
  8
BEM
  9
$CELTYPE
  6
ByLayer
  9
$CECOLOR
 62
   256
  9
$CELTSCALE
 40
1.0
  9
$DISPSILH
 70
     0
  9
$DIMSCALE
 40
5.0
  9
$DIMASZ
 40
3.5
  9
$DIMEXO
 40
1.0
  9
$DIMDLI
 40
7.0
  9
$DIMRND
 40
0.0
  9
$DIMDLE
 40
0.0
  9
$DIMEXE
 40
1.0
  9
$DIMTP
 40
0.0
  9
$DIMTM
 40
0.0
  9
$DIMTXT
 40
3.5
  9
$DIMCEN
 40
1.5
  9
$DIMTSZ
 40
0.0
  9
$DIMTOL
 70
     0
  9
$DIMLIM
 70
     0
  9
$DIMTIH
 70
     0
  9
$DIMTOH
 70
     0
  9
$DIMSE1
 70
     0
  9
$DIMSE2
 70
     0
  9
$DIMTAD
 70
     1
  9
$DIMZIN
 70
     8
  9
$DIMBLK
  1

  9
$DIMASO
 70
     1
  9
$DIMSHO
 70
     0
  9
$DIMPOST
  1

  9
$DIMAPOST
  1

  9
$DIMALT
 70
     0
  9
$DIMALTD
 70
     2
  9
$DIMALTF
 40
25.4
  9
$DIMLFAC
 40
1.0
  9
$DIMTOFL
 70
     1
  9
$DIMTVP
 40
0.0
  9
$DIMTIX
 70
     0
  9
$DIMSOXD
 70
     0
  9
$DIMSAH
 70
     0
  9
$DIMBLK1
  1

  9
$DIMBLK2
  1

  9
$DIMSTYLE
  2
Standard
  9
$DIMCLRD
 70
     0
  9
$DIMCLRE
 70
     0
  9
$DIMCLRT
 70
     1
  9
$DIMTFAC
 40
0.5142857142857144
  9
$DIMGAP
 40
1.5
  9
$DIMJUST
 70
     0
  9
$DIMSD1
 70
     0
  9
$DIMSD2
 70
     0
  9
$DIMTOLJ
 70
     1
  9
$DIMTZIN
 70
     8
  9
$DIMALTZ
 70
     8
  9
$DIMALTTZ
 70
     8
  9
$DIMUPT
 70
     0
  9
$DIMDEC
 70
     2
  9
$DIMTDEC
 70
     2
  9
$DIMALTU
 70
     2
  9
$DIMALTTD
 70
     2
  9
$DIMTXSTY
  7
STANDARD
  9
$DIMAUNIT
 70
     0
  9
$DIMADEC
 70
     2
  9
$DIMALTRND
 40
0.0
  9
$DIMAZIN
 70
     2
  9
$DIMDSEP
 70
    46
  9
$DIMATFIT
 70
     3
  9
$DIMFRAC
 70
     0
  9
$DIMLDRBLK
  1

  9
$DIMLUNIT
 70
     2
  9
$DIMLWD
 70
    -2
  9
$DIMLWE
 70
    -2
  9
$DIMTMOVE
 70
     0
  9
$LUNITS
 70
     2
  9
$LUPREC
 70
     2
  9
$SKETCHINC
 40
1.0
  9
$FILLETRAD
 40
17.5
  9
$AUNITS
 70
     0
  9
$AUPREC
 70
     0
  9
$MENU
  1
ACAD
  9
$ELEVATION
 40
0.0
  9
$PELEVATION
 40
0.0
  9
$THICKNESS
 40
0.0
  9
$LIMCHECK
 70
     0
  9
$CHAMFERA
 40
0.0
  9
$CHAMFERB
 40
0.0
  9
$CHAMFERC
 40
0.0
  9
$CHAMFERD
 40
0.0
  9
$SKPOLY
 70
     0
  9
$TDCREATE
 40
2455397.823042361
  9
$TDUCREATE
 40
2455397.781375695
  9
$TDUPDATE
 40
2455889.465377211
  9
$TDUUPDATE
 40
2455889.423710544
  9
$TDINDWG
 40
0.1652845602
  9
$TDUSRTIMER
 40
0.1652845602
  9
$USRTIMER
 70
     1
  9
$ANGBASE
 50
0.0
  9
$ANGDIR
 70
     0
  9
$PDMODE
 70
     0
  9
$PDSIZE
 40
0.0
  9
$PLINEWID
 40
0.0
  9
$SPLFRAME
 70
     0
  9
$SPLINETYPE
 70
     6
  9
$SPLINESEGS
 70
     8
  9
$HANDSEED
  5
DDB
  9
$SURFTAB1
 70
     6
  9
$SURFTAB2
 70
     6
  9
$SURFTYPE
 70
     6
  9
$SURFU
 70
     6
  9
$SURFV
 70
     6
  9
$UCSBASE
  2

  9
$UCSNAME
  2

  9
$UCSORG
 10
0.0
 20
0.0
 30
0.0
  9
$UCSXDIR
 10
1.0
 20
0.0
 30
0.0
  9
$UCSYDIR
 10
0.0
 20
1.0
 30
0.0
  9
$UCSORTHOREF
  2

  9
$UCSORTHOVIEW
 70
     0
  9
$UCSORGTOP
 10
0.0
 20
0.0
 30
0.0
  9
$UCSORGBOTTOM
 10
0.0
 20
0.0
 30
0.0
  9
$UCSORGLEFT
 10
0.0
 20
0.0
 30
0.0
  9
$UCSORGRIGHT
 10
0.0
 20
0.0
 30
0.0
  9
$UCSORGFRONT
 10
0.0
 20
0.0
 30
0.0
  9
$UCSORGBACK
 10
0.0
 20
0.0
 30
0.0
  9
$PUCSBASE
  2

  9
$PUCSNAME
  2

  9
$PUCSORG
 10
0.0
 20
0.0
 30
0.0
  9
$PUCSXDIR
 10
1.0
 20
0.0
 30
0.0
  9
$PUCSYDIR
 10
0.0
 20
1.0
 30
0.0
  9
$PUCSORTHOREF
  2

  9
$PUCSORTHOVIEW
 70
     0
  9
$PUCSORGTOP
 10
0.0
 20
0.0
 30
0.0
  9
$PUCSORGBOTTOM
 10
0.0
 20
0.0
 30
0.0
  9
$PUCSORGLEFT
 10
0.0
 20
0.0
 30
0.0
  9
$PUCSORGRIGHT
 10
0.0
 20
0.0
 30
0.0
  9
$PUCSORGFRONT
 10
0.0
 20
0.0
 30
0.0
  9
$PUCSORGBACK
 10
0.0
 20
0.0
 30
0.0
  9
$USERI1
 70
     0
  9
$USERI2
 70
     0
  9
$USERI3
 70
     0
  9
$USERI4
 70
     0
  9
$USERI5
 70
     0
  9
$USERR1
 40
0.0
  9
$USERR2
 40
0.0
  9
$USERR3
 40
0.0
  9
$USERR4
 40
0.0
  9
$USERR5
 40
0.0
  9
$WORLDVIEW
 70
     1
  9
$SHADEDGE
 70
     3
  9
$SHADEDIF
 70
    70
  9
$TILEMODE
 70
     1
  9
$MAXACTVP
 70
    16
  9
$PINSBASE
 10
0.0
 20
0.0
 30
0.0
  9
$PLIMCHECK
 70
     0
  9
$PEXTMIN
 10
1.000000000000000E+20
 20
1.000000000000000E+20
 30
1.000000000000000E+20
  9
$PEXTMAX
 10
-1.000000000000000E+20
 20
-1.000000000000000E+20
 30
-1.000000000000000E+20
  9
$PLIMMIN
 10
0.0
 20
0.0
  9
$PLIMMAX
 10
12.0
 20
9.0
  9
$UNITMODE
 70
     0
  9
$VISRETAIN
 70
     0
  9
$PLINEGEN
 70
     0
  9
$PSLTSCALE
 70
     0
  9
$TREEDEPTH
 70
  3020
  9
$CMLSTYLE
  2
Standard
  9
$CMLJUST
 70
     0
  9
$CMLSCALE
 40
1.0
  9
$PROXYGRAPHICS
 70
     1
  9
$MEASUREMENT
 70
     0
  9
$CELWEIGHT
370
    -1
  9
$ENDCAPS
280
     0
  9
$JOINSTYLE
280
     0
  9
$LWDISPLAY
290
     0
  9
$INSUNITS
 70
     0
  9
$HYPERLINKBASE
  1

  9
$STYLESHEET
  1
monochrome1.ctb
  9
$XEDIT
290
     1
  9
$CEPSNTYPE
380
     0
  9
$PSTYLEMODE
290
     1
  9
$FINGERPRINTGUID
  2
{D68B0D02-A558-11D7-B632-000102183313}
  9
$VERSIONGUID
  2
{C5B019F4-3E6D-4550-9792-501C08A0EFDF}
  9
$EXTNAMES
290
     1
  9
$PSVPSCALE
 40
0.0
  9
$OLESTARTUP
290
     0
  9
$SORTENTS
280
   127
  9
$INDEXCTL
280
     0
  9
$HIDETEXT
280
     0
  9
$XCLIPFRAME
290
     0
  9
$HALOGAP
280
     0
  9
$OBSCOLOR
 70
   257
  9
$OBSLTYPE
280
     0
  9
$INTERSECTIONDISPLAY
280
     0
  9
$INTERSECTIONCOLOR
 70
   257
  9
$DIMASSOC
280
     1
  9
$PROJECTNAME
  1

  0
ENDSEC
  0
SECTION
  2
CLASSES
  0
CLASS
  1
ACDBDICTIONARYWDFLT
  2
AcDbDictionaryWithDefault
  3
ObjectDBX Classes
 90
        0
 91
        1
280
     0
281
     0
  0
CLASS
  1
DICTIONARYVAR
  2
AcDbDictionaryVar
  3
ObjectDBX Classes
 90
        0
 91
        2
280
     0
281
     0
  0
ENDSEC
  0
SECTION
  2
TABLES
  0
TABLE
  2
VPORT
  5
8
330
0
100
AcDbSymbolTable
 70
     2
  0
VPORT
  5
DDA
330
8
100
AcDbSymbolTableRecord
100
AcDbViewportTableRecord
  2
*Active
 70
     0
 10
0.0
 20
0.0
 11
1.0
 21
1.0
 12
525.0
 22
742.5000000000001
 13
0.0
 23
0.0
 14
1.0
 24
1.0
 15
10.0
 25
10.0
 16
0.0
 26
0.0
 36
1.0
 17
0.0
 27
0.0
 37
0.0
 40
1485.161069372345
 41
1.395862068965517
 42
50.0
 43
0.0
 44
0.0
 50
0.0
 51
0.0
 71
     0
 72
  1500
 73
     1
 74
     0
 75
     0
 76
     0
 77
     0
 78
     0
281
     0
 65
     1
110
0.0
120
0.0
130
0.0
111
1.0
121
0.0
131
0.0
112
0.0
122
1.0
132
0.0
 79
     0
146
0.0
  0
ENDTAB
  0
TABLE
  2
LTYPE
  5
5
330
0
100
AcDbSymbolTable
 70
     2
  0
LTYPE
  5
13
330
5
100
AcDbSymbolTableRecord
100
AcDbLinetypeTableRecord
  2
ByBlock
 70
     0
  3

 72
    65
 73
     0
 40
0.0
  0
LTYPE
  5
14
330
5
100
AcDbSymbolTableRecord
100
AcDbLinetypeTableRecord
  2
ByLayer
 70
     0
  3

 72
    65
 73
     0
 40
0.0
  0
LTYPE
  5
15
330
5
100
AcDbSymbolTableRecord
100
AcDbLinetypeTableRecord
  2
Continuous
 70
     0
  3
Solid line
 72
    65
 73
     0
 40
0.0
  0
LTYPE
  5
25
330
5
100
AcDbSymbolTableRecord
100
AcDbLinetypeTableRecord
  2
STRICHPUNKT
 70
     0
  3
__ . __ . __ . __ . __ . __ . __ . __ . __ . __
 72
    65
 73
     4
 40
1.0
 49
0.5
 74
     0
 49
-0.25
 74
     0
 49
0.0
 74
     0
 49
-0.25
 74
     0
  0
ENDTAB
  0
TABLE
  2
LAYER
  5
2
330
0
100
AcDbSymbolTable
 70
     9
  0
LAYER
  5
10
330
2
100
AcDbSymbolTableRecord
100
AcDbLayerTableRecord
  2
0
 70
     0
 62
     7
  6
Continuous
370
    -3
390
F
  0
LAYER
  5
2A
330
2
100
AcDbSymbolTableRecord
100
AcDbLayerTableRecord
  2
VOLL
 70
     0
 62
     1
  6
Continuous
370
    -3
390
F
  0
LAYER
  5
2B
330
2
100
AcDbSymbolTableRecord
100
AcDbLayerTableRecord
  2
HILF
 70
     0
 62
     2
  6
Continuous
370
    -3
390
F
  0
LAYER
  5
2C
330
2
100
AcDbSymbolTableRecord
100
AcDbLayerTableRecord
  2
MITTEL
 70
     0
 62
     2
  6
STRICHPUNKT
370
    -3
390
F
  0
LAYER
  5
2F
330
2
100
AcDbSymbolTableRecord
100
AcDbLayerTableRecord
  2
BEM
 70
     0
 62
     7
  6
Continuous
370
    -3
390
F
  0
LAYER
  5
30
330
2
100
AcDbSymbolTableRecord
100
AcDbLayerTableRecord
  2
STEMPEL
 70
     0
 62
     3
  6
Continuous
370
    -3
390
F
  0
LAYER
  5
31
330
2
100
AcDbSymbolTableRecord
100
AcDbLayerTableRecord
  2
TEXT
 70
     0
 62
     7
  6
Continuous
370
    -3
390
F
  0
LAYER
  5
284
330
2
100
AcDbSymbolTableRecord
100
AcDbLayerTableRecord
  2
SCHRAFF
 70
     0
 62
     7
  6
Continuous
370
    -3
390
F
  0
LAYER
  5
285
330
2
100
AcDbSymbolTableRecord
100
AcDbLayerTableRecord
  2
DEFPOINTS
 70
     0
 62
     7
  6
Continuous
290
     0
370
    -3
390
F
  0
ENDTAB
  0
TABLE
  2
STYLE
  5
3
330
0
100
AcDbSymbolTable
 70
     2
  0
STYLE
  5
11
330
3
100
AcDbSymbolTableRecord
100
AcDbTextStyleTableRecord
  2
STANDARD
 70
     0
 40
0.0
 41
0.8
 50
0.0
 71
     0
 42
3.5
  3
simplex.shx
  4

  0
STYLE
  5
24
330
3
100
AcDbSymbolTableRecord
100
AcDbTextStyleTableRecord
  2
GREEKS
 70
     0
 40
0.0
 41
0.8
 50
0.0
 71
     0
 42
2.5
  3
SIMPLEX.shx
  4

  0
ENDTAB
  0
TABLE
  2
VIEW
  5
6
330
0
100
AcDbSymbolTable
 70
     0
  0
ENDTAB
  0
TABLE
  2
UCS
  5
7
330
0
100
AcDbSymbolTable
 70
     0
  0
ENDTAB
  0
TABLE
  2
APPID
  5
9
330
0
100
AcDbSymbolTable
 70
     1
  0
APPID
  5
12
330
9
100
AcDbSymbolTableRecord
100
AcDbRegAppTableRecord
  2
ACAD
 70
     0
  0
ENDTAB
  0
TABLE
  2
DIMSTYLE
  5
A
330
0
100
AcDbSymbolTable
 70
     1
100
AcDbDimStyleTable
 71
     1
340
9D
  0
DIMSTYLE
105
9D
102
{ACAD_REACTORS
330
96B
330
9E8
330
A5B
330
AAC
330
B1F
330
B2C
330
B4B
330
C67
330
D78
102
}
330
A
100
AcDbSymbolTableRecord
100
AcDbDimStyleTableRecord
  2
Standard
 70
     0
340
11
  0
ENDTAB
  0
TABLE
  2
BLOCK_RECORD
  5
1
330
0
100
AcDbSymbolTable
 70
    10
  0
BLOCK_RECORD
  5
1E
102
{ACAD_XDICTIONARY
360
A0
102
}
330
1
100
AcDbSymbolTableRecord
100
AcDbBlockTableRecord
  2
*Model_Space
340
21
  0
BLOCK_RECORD
  5
1A
102
{ACAD_XDICTIONARY
360
A2
102
}
330
1
100
AcDbSymbolTableRecord
100
AcDbBlockTableRecord
  2
*Paper_Space
340
1D
  0
BLOCK_RECORD
  5
22
330
1
100
AcDbSymbolTableRecord
100
AcDbBlockTableRecord
  2
LOGO
340
0
102
{BLKREFS
331
9B
102
}
  0
BLOCK_RECORD
  5
9A3
330
1
100
AcDbSymbolTableRecord
100
AcDbBlockTableRecord
  2
*D1
340
0
  0
BLOCK_RECORD
  5
9E9
330
1
100
AcDbSymbolTableRecord
100
AcDbBlockTableRecord
  2
*D2
340
0
  0
BLOCK_RECORD
  5
A5C
330
1
100
AcDbSymbolTableRecord
100
AcDbBlockTableRecord
  2
*D3
340
0
  0
BLOCK_RECORD
  5
AAD
330
1
100
AcDbSymbolTableRecord
100
AcDbBlockTableRecord
  2
*D4
340
0
  0
BLOCK_RECORD
  5
B20
330
1
100
AcDbSymbolTableRecord
100
AcDbBlockTableRecord
  2
*D5
340
0
  0
BLOCK_RECORD
  5
B2D
330
1
100
AcDbSymbolTableRecord
100
AcDbBlockTableRecord
  2
*D6
340
0
  0
BLOCK_RECORD
  5
B4C
330
1
100
AcDbSymbolTableRecord
100
AcDbBlockTableRecord
  2
*D7
340
0
  0
BLOCK_RECORD
  5
C7B
330
1
100
AcDbSymbolTableRecord
100
AcDbBlockTableRecord
  2
*D8
340
0
  0
BLOCK_RECORD
  5
D79
330
1
100
AcDbSymbolTableRecord
100
AcDbBlockTableRecord
  2
*D9
340
0
  0
ENDTAB
  0
ENDSEC
  0
SECTION
  2
BLOCKS
  0
BLOCK
  5
35
330
1E
100
AcDbEntity
  8
0
100
AcDbBlockBegin
  2
*Model_Space
 70
     0
 10
0.0
 20
0.0
 30
0.0
  3
*Model_Space
  1

  0
ENDBLK
  5
36
330
1E
100
AcDbEntity
  8
0
100
AcDbBlockEnd
  0
BLOCK
  5
33
330
1A
100
AcDbEntity
 67
     1
  8
0
100
AcDbBlockBegin
  2
*Paper_Space
 70
     0
 10
0.0
 20
0.0
 30
0.0
  3
*Paper_Space
  1

  0
ENDBLK
  5
34
330
1A
100
AcDbEntity
 67
     1
  8
0
100
AcDbBlockEnd
  0
BLOCK
  5
37
330
22
100
AcDbEntity
  8
0
100
AcDbBlockBegin
  2
LOGO
 70
     0
 10
0.0
 20
0.0
 30
0.0
  3
LOGO
  1

  0
ARC
  5
38
330
22
100
AcDbEntity
  8
0
100
AcDbCircle
 10
11.59973089678112
 20
-9.271599258481501
 30
0.0
 40
4.5
100
AcDbArc
 50
270.0
 51
231.0575587310159
  0
LINE
  5
39
330
22
100
AcDbEntity
  8
0
100
AcDbLine
 10
3.599730896781125
 20
-4.771599258481529
 30
0.0
 11
3.599730896781153
 21
-11.77159925848133
 31
0.0
  0
LINE
  5
3A
330
22
100
AcDbEntity
  8
0
100
AcDbLine
 10
2.599730896781125
 20
-4.771599258481529
 30
0.0
 11
2.599730896781153
 21
-11.77159925848133
 31
0.0
  0
CIRCLE
  5
3B
330
22
100
AcDbEntity
  8
0
100
AcDbCircle
 10
11.59973089678112
 20
-9.271599258481501
 30
0.0
 40
3.5
  0
ARC
  5
3C
330
22
100
AcDbEntity
  8
0
100
AcDbCircle
 10
31.59973089678115
 20
-9.271599258481472
 30
0.0
 40
4.5
100
AcDbArc
 50
270.0
 51
231.0575587310182
  0
LINE
  5
3D
330
22
100
AcDbEntity
  8
0
100
AcDbLine
 10
17.59973089678112
 20
-4.771599258481472
 30
0.0
 11
17.59973089678115
 21
-13.77159925848147
 31
0.0
  0
ARC
  5
3E
330
22
100
AcDbEntity
  8
0
100
AcDbCircle
 10
22.59973089678116
 20
-7.271599258481472
 30
0.0
 40
2.5
100
AcDbArc
 50
293.1161887722295
 51
90.0
  0
CIRCLE
  5
3F
330
22
100
AcDbEntity
  8
0
100
AcDbCircle
 10
31.59973089678115
 20
-9.271599258481472
 30
0.0
 40
3.5
  0
ARC
  5
40
330
22
100
AcDbEntity
  8
0
100
AcDbCircle
 10
4.599730896781153
 20
-11.77159925848133
 30
0.0
 40
1.0
100
AcDbArc
 50
180.0
 51
270.0
  0
ARC
  5
41
330
22
100
AcDbEntity
  8
0
100
AcDbCircle
 10
4.599730896781153
 20
-11.77159925848133
 30
0.0
 40
2.0
100
AcDbArc
 50
179.9999999999992
 51
270.0
  0
LINE
  5
42
330
22
100
AcDbEntity
  8
0
100
AcDbLine
 10
11.59973089678115
 20
-13.77159925848144
 30
0.0
 11
4.599730896781153
 21
-13.77159925848147
 31
0.0
  0
LINE
  5
43
330
22
100
AcDbEntity
  8
0
100
AcDbLine
 10
8.771303772034769
 20
-12.77159925848136
 30
0.0
 11
4.599730896781153
 21
-12.77159925848133
 31
0.0
  0
LINE
  5
44
330
22
100
AcDbEntity
  8
0
100
AcDbLine
 10
31.59973089678115
 20
-13.77159925848147
 30
0.0
 11
23.6715276665056
 21
-13.77159925848144
 31
0.0
  0
LINE
  5
45
330
22
100
AcDbEntity
  8
0
100
AcDbLine
 10
23.56565672307022
 20
-9.51278021337896
 30
0.0
 11
24.4388546544846
 21
-12.77159925848144
 31
0.0
  0
LINE
  5
46
330
22
100
AcDbEntity
  8
0
100
AcDbLine
 10
22.59973089678116
 20
-9.771599258481472
 30
0.0
 11
18.59973089678112
 21
-9.771599258481472
 31
0.0
  0
LINE
  5
47
330
22
100
AcDbEntity
  8
0
100
AcDbLine
 10
18.59973089678115
 20
-13.77159925848144
 30
0.0
 11
17.59973089678115
 21
-13.77159925848144
 31
0.0
  0
LINE
  5
48
330
22
100
AcDbEntity
  8
0
100
AcDbLine
 10
18.59973089678115
 20
-9.771599258481472
 30
0.0
 11
18.59973089678115
 21
-13.77159925848144
 31
0.0
  0
LINE
  5
49
330
22
100
AcDbEntity
  8
0
100
AcDbLine
 10
22.59973089678116
 20
-9.771599258481472
 30
0.0
 11
23.67152766650562
 21
-13.77159925848147
 31
0.0
  0
ARC
  5
4A
330
22
100
AcDbEntity
  8
0
100
AcDbCircle
 10
22.59973089678116
 20
-7.271599258481472
 30
0.0
 40
2.5
100
AcDbArc
 50
270.0
 51
270.0000000000007
  0
LINE
  5
4B
330
22
100
AcDbEntity
  8
0
100
AcDbLine
 10
28.77130377203494
 20
-12.77159925848147
 30
0.0
 11
24.43885465448463
 21
-12.77159925848144
 31
0.0
  0
LINE
  5
4C
330
22
100
AcDbEntity
  8
0
100
AcDbLine
 10
3.599730896781125
 20
-4.771599258481472
 30
0.0
 11
2.599730896781125
 21
-4.771599258481472
 31
0.0
  0
LINE
  5
4D
330
22
100
AcDbEntity
  8
0
100
AcDbLine
 10
22.59973089678116
 20
-8.771599258481472
 30
0.0
 11
18.59973089678115
 21
-8.771599258481472
 31
0.0
  0
LINE
  5
4E
330
22
100
AcDbEntity
  8
0
100
AcDbLine
 10
22.59973089678116
 20
-5.771599258481472
 30
0.0
 11
18.59973089678115
 21
-5.771599258481472
 31
0.0
  0
LINE
  5
4F
330
22
100
AcDbEntity
  8
0
100
AcDbLine
 10
22.59973089678116
 20
-4.771599258481472
 30
0.0
 11
17.59973089678115
 21
-4.771599258481472
 31
0.0
  0
LINE
  5
50
330
22
100
AcDbEntity
  8
0
100
AcDbLine
 10
18.59973089678115
 20
-5.771599258481472
 30
0.0
 11
18.59973089678115
 21
-8.771599258481472
 31
0.0
  0
ARC
  5
51
330
22
100
AcDbEntity
  8
0
100
AcDbCircle
 10
22.59973089678116
 20
-7.271599258481472
 30
0.0
 40
1.5
100
AcDbArc
 50
270.0
 51
90.0
  0
ENDBLK
  5
52
330
22
100
AcDbEntity
  8
0
100
AcDbBlockEnd
  0
BLOCK
  5
9AD
330
9A3
100
AcDbEntity
  8
0
100
AcDbBlockBegin
  2
*D1
 70
     1
 10
0.0
 20
0.0
 30
0.0
  3
*D1
  1

  0
LINE
  5
B0D
330
9A3
100
AcDbEntity
  8
BEM
 62
     0
370
    -2
100
AcDbLine
 10
511.4999999999997
 20
467.6752480353129
 30
0.0
 11
511.4999999999997
 21
425.784408274017
 31
0.0
  0
LINE
  5
B0E
330
9A3
100
AcDbEntity
  8
BEM
 62
     0
370
    -2
100
AcDbLine
 10
613.4999999999998
 20
467.6752480353129
 30
0.0
 11
613.4999999999998
 21
425.784408274017
 31
0.0
  0
LINE
  5
B0F
330
9A3
100
AcDbEntity
  8
BEM
 62
     0
370
    -2
100
AcDbLine
 10
528.9999999999998
 20
430.7844082740171
 30
0.0
 11
595.9999999999998
 21
430.7844082740171
 31
0.0
  0
SOLID
  5
B10
330
9A3
100
AcDbEntity
  8
BEM
 62
     0
100
AcDbTrace
 10
528.9999999999998
 20
433.7010749406838
 30
0.0
 11
528.9999999999998
 21
427.8677416073504
 31
0.0
 12
511.4999999999997
 22
430.7844082740171
 32
0.0
 13
511.4999999999997
 23
430.7844082740171
 33
0.0
  0
SOLID
  5
B11
330
9A3
100
AcDbEntity
  8
BEM
 62
     0
100
AcDbTrace
 10
595.9999999999998
 20
433.7010749406838
 30
0.0
 11
595.9999999999998
 21
427.8677416073504
 31
0.0
 12
613.4999999999998
 22
430.7844082740171
 32
0.0
 13
613.4999999999998
 23
430.7844082740171
 33
0.0
  0
MTEXT
  5
B12
330
9A3
100
AcDbEntity
  8
BEM
 62
     1
100
AcDbMText
 10
562.4999999999998
 20
447.0344082740171
 30
0.0
 40
17.5
 41
0.0
 71
     5
 72
     1
  1
\A1;%%c102
 73
     1
 44
1.0
  0
POINT
  5
B13
330
9A3
100
AcDbEntity
  8
DEFPOINTS
 62
     0
100
AcDbPoint
 10
511.4999999999997
 20
472.675248035313
 30
0.0
  0
POINT
  5
B14
330
9A3
100
AcDbEntity
  8
DEFPOINTS
 62
     0
100
AcDbPoint
 10
613.4999999999998
 20
472.675248035313
 30
0.0
  0
POINT
  5
B15
330
9A3
100
AcDbEntity
  8
DEFPOINTS
 62
     0
100
AcDbPoint
 10
613.4999999999998
 20
430.7844082740171
 30
0.0
  0
ENDBLK
  5
9AE
330
9A3
100
AcDbEntity
  8
0
100
AcDbBlockEnd
  0
BLOCK
  5
9F3
330
9E9
100
AcDbEntity
  8
0
100
AcDbBlockBegin
  2
*D2
 70
     1
 10
0.0
 20
0.0
 30
0.0
  3
*D2
  1

  0
LINE
  5
D56
330
9E9
100
AcDbEntity
  8
BEM
 62
     0
370
    -2
100
AcDbLine
 10
503.3499999999999
 20
1372.675248035313
 30
0.0
 11
469.5143758053435
 21
1372.675248035313
 31
0.0
  0
LINE
  5
D57
330
9E9
100
AcDbEntity
  8
BEM
 62
     0
370
    -2
100
AcDbLine
 10
504.5655937628863
 20
1302.675248035313
 30
0.0
 11
469.5143758053435
 21
1302.675248035313
 31
0.0
  0
LINE
  5
D58
330
9E9
100
AcDbEntity
  8
BEM
 62
     0
370
    -2
100
AcDbLine
 10
474.5143758053435
 20
1355.175248035313
 30
0.0
 11
474.5143758053435
 21
1320.175248035313
 31
0.0
  0
SOLID
  5
D59
330
9E9
100
AcDbEntity
  8
BEM
 62
     0
100
AcDbTrace
 10
471.5977091386768
 20
1355.175248035313
 30
0.0
 11
477.4310424720102
 21
1355.175248035313
 31
0.0
 12
474.5143758053435
 22
1372.675248035313
 32
0.0
 13
474.5143758053435
 23
1372.675248035313
 33
0.0
  0
SOLID
  5
D5A
330
9E9
100
AcDbEntity
  8
BEM
 62
     0
100
AcDbTrace
 10
471.5977091386768
 20
1320.175248035313
 30
0.0
 11
477.4310424720102
 21
1320.175248035313
 31
0.0
 12
474.5143758053435
 22
1302.675248035313
 32
0.0
 13
474.5143758053435
 23
1302.675248035313
 33
0.0
  0
MTEXT
  5
D5B
330
9E9
100
AcDbEntity
  8
BEM
 62
     1
100
AcDbMText
 10
458.2643758053433
 20
1337.675248035313
 30
0.0
 40
17.5
 41
0.0
 71
     5
 72
     1
  1
\A1;70
 11
0.0000000000000001
 21
1.0
 31
0.0
 73
     1
 44
1.0
  0
POINT
  5
D5C
330
9E9
100
AcDbEntity
  8
DEFPOINTS
 62
     0
100
AcDbPoint
 10
508.3499999999999
 20
1372.675248035313
 30
0.0
  0
POINT
  5
D5D
330
9E9
100
AcDbEntity
  8
DEFPOINTS
 62
     0
100
AcDbPoint
 10
509.5655937628863
 20
1302.675248035313
 30
0.0
  0
POINT
  5
D5E
330
9E9
100
AcDbEntity
  8
DEFPOINTS
 62
     0
100
AcDbPoint
 10
474.5143758053435
 20
1302.675248035313
 30
0.0
  0
ENDBLK
  5
9F4
330
9E9
100
AcDbEntity
  8
0
100
AcDbBlockEnd
  0
BLOCK
  5
A64
330
A5C
100
AcDbEntity
  8
0
100
AcDbBlockBegin
  2
*D3
 70
     1
 10
0.0
 20
0.0
 30
0.0
  3
*D3
  1

  0
LINE
  5
AF2
330
A5C
100
AcDbEntity
  8
BEM
 62
     0
370
    -2
100
AcDbLine
 10
512.5
 20
664.665461851464
 30
0.0
 11
512.5
 21
665.2403640941343
 31
0.0
  0
LINE
  5
AF3
330
A5C
100
AcDbEntity
  8
BEM
 62
     0
370
    -2
100
AcDbLine
 10
612.4999999999998
 20
664.665461851464
 30
0.0
 11
612.4999999999998
 21
665.2403640941343
 31
0.0
  0
LINE
  5
AF4
330
A5C
100
AcDbEntity
  8
BEM
 62
     0
370
    -2
100
AcDbLine
 10
530.0
 20
660.2403640941343
 30
0.0
 11
594.9999999999997
 21
660.2403640941343
 31
0.0
  0
SOLID
  5
AF5
330
A5C
100
AcDbEntity
  8
BEM
 62
     0
100
AcDbTrace
 10
530.0
 20
663.1570307608009
 30
0.0
 11
530.0
 21
657.3236974274676
 31
0.0
 12
512.5
 22
660.2403640941343
 32
0.0
 13
512.5
 23
660.2403640941343
 33
0.0
  0
SOLID
  5
AF6
330
A5C
100
AcDbEntity
  8
BEM
 62
     0
100
AcDbTrace
 10
594.9999999999997
 20
663.1570307608009
 30
0.0
 11
594.9999999999997
 21
657.3236974274676
 31
0.0
 12
612.4999999999998
 22
660.2403640941343
 32
0.0
 13
612.4999999999998
 23
660.2403640941343
 33
0.0
  0
MTEXT
  5
AF7
330
A5C
100
AcDbEntity
  8
BEM
 62
     1
100
AcDbMText
 10
570.9770212095262
 20
676.4903640941342
 30
0.0
 40
17.5
 41
0.0
 71
     5
 72
     1
  1
\A1;100
 73
     1
 44
1.0
  0
POINT
  5
AF8
330
A5C
100
AcDbEntity
  8
DEFPOINTS
 62
     0
100
AcDbPoint
 10
512.5
 20
659.665461851464
 30
0.0
  0
POINT
  5
AF9
330
A5C
100
AcDbEntity
  8
DEFPOINTS
 62
     0
100
AcDbPoint
 10
612.4999999999998
 20
659.665461851464
 30
0.0
  0
POINT
  5
AFA
330
A5C
100
AcDbEntity
  8
DEFPOINTS
 62
     0
100
AcDbPoint
 10
612.4999999999998
 20
660.2403640941343
 30
0.0
  0
ENDBLK
  5
A65
330
A5C
100
AcDbEntity
  8
0
100
AcDbBlockEnd
  0
BLOCK
  5
AB7
330
AAD
100
AcDbEntity
  8
0
100
AcDbBlockBegin
  2
*D4
 70
     1
 10
0.0
 20
0.0
 30
0.0
  3
*D4
  1

  0
LINE
  5
D3B
330
AAD
100
AcDbEntity
  8
BEM
 62
     0
370
    -2
100
AcDbLine
 10
511.3499999999999
 20
1377.675248035313
 30
0.0
 11
511.3499999999999
 21
1407.992902166769
 31
0.0
  0
LINE
  5
D3C
330
AAD
100
AcDbEntity
  8
BEM
 62
     0
370
    -2
100
AcDbLine
 10
613.6499999999998
 20
1377.675248035313
 30
0.0
 11
613.6499999999998
 21
1407.992902166769
 31
0.0
  0
LINE
  5
D3D
330
AAD
100
AcDbEntity
  8
BEM
 62
     0
370
    -2
100
AcDbLine
 10
528.8499999999999
 20
1402.992902166769
 30
0.0
 11
596.1499999999999
 21
1402.992902166769
 31
0.0
  0
SOLID
  5
D3E
330
AAD
100
AcDbEntity
  8
BEM
 62
     0
100
AcDbTrace
 10
528.8499999999999
 20
1405.909568833435
 30
0.0
 11
528.8499999999999
 21
1400.076235500102
 31
0.0
 12
511.3499999999999
 22
1402.992902166769
 32
0.0
 13
511.3499999999999
 23
1402.992902166769
 33
0.0
  0
SOLID
  5
D3F
330
AAD
100
AcDbEntity
  8
BEM
 62
     0
100
AcDbTrace
 10
596.1499999999999
 20
1405.909568833435
 30
0.0
 11
596.1499999999999
 21
1400.076235500102
 31
0.0
 12
613.6499999999998
 22
1402.992902166769
 32
0.0
 13
613.6499999999998
 23
1402.992902166769
 33
0.0
  0
MTEXT
  5
D40
330
AAD
100
AcDbEntity
  8
BEM
 62
     1
100
AcDbMText
 10
581.0497959513521
 20
1419.242902166769
 30
0.0
 40
17.5
 41
0.0
 71
     5
 72
     1
  1
\A1;102.3
 73
     1
 44
1.0
  0
POINT
  5
D41
330
AAD
100
AcDbEntity
  8
DEFPOINTS
 62
     0
100
AcDbPoint
 10
511.3499999999999
 20
1372.675248035313
 30
0.0
  0
POINT
  5
D42
330
AAD
100
AcDbEntity
  8
DEFPOINTS
 62
     0
100
AcDbPoint
 10
613.6499999999998
 20
1372.675248035313
 30
0.0
  0
POINT
  5
D43
330
AAD
100
AcDbEntity
  8
DEFPOINTS
 62
     0
100
AcDbPoint
 10
613.6499999999998
 20
1402.992902166769
 30
0.0
  0
ENDBLK
  5
AB8
330
AAD
100
AcDbEntity
  8
0
100
AcDbBlockEnd
  0
BLOCK
  5
B2A
330
B20
100
AcDbEntity
  8
0
100
AcDbBlockBegin
  2
*D5
 70
     1
 10
0.0
 20
0.0
 30
0.0
  3
*D5
  1

  0
LINE
  5
C99
330
B20
100
AcDbEntity
  8
BEM
 62
     0
370
    -2
100
AcDbLine
 10
506.4999999999997
 20
472.675248035313
 30
0.0
 11
426.1467960786512
 21
472.675248035313
 31
0.0
  0
LINE
  5
C9A
330
B20
100
AcDbEntity
  8
BEM
 62
     0
370
    -2
100
AcDbLine
 10
507.5
 20
612.6752480353129
 30
0.0
 11
426.1467960786512
 21
612.6752480353129
 31
0.0
  0
LINE
  5
C9B
330
B20
100
AcDbEntity
  8
BEM
 62
     0
370
    -2
100
AcDbLine
 10
431.1467960786512
 20
490.1752480353129
 30
0.0
 11
431.1467960786512
 21
595.1752480353129
 31
0.0
  0
SOLID
  5
C9C
330
B20
100
AcDbEntity
  8
BEM
 62
     0
100
AcDbTrace
 10
428.2301294119845
 20
490.1752480353129
 30
0.0
 11
434.0634627453178
 21
490.1752480353129
 31
0.0
 12
431.1467960786512
 22
472.675248035313
 32
0.0
 13
431.1467960786512
 23
472.675248035313
 33
0.0
  0
SOLID
  5
C9D
330
B20
100
AcDbEntity
  8
BEM
 62
     0
100
AcDbTrace
 10
428.2301294119845
 20
595.1752480353129
 30
0.0
 11
434.0634627453178
 21
595.1752480353129
 31
0.0
 12
431.1467960786512
 22
612.6752480353129
 32
0.0
 13
431.1467960786512
 23
612.6752480353129
 33
0.0
  0
MTEXT
  5
C9E
330
B20
100
AcDbEntity
  8
BEM
 62
     1
100
AcDbMText
 10
414.8967960786511
 20
542.6752480353131
 30
0.0
 40
17.5
 41
0.0
 71
     5
 72
     1
  1
\A1;140
 11
0.0000000000000001
 21
1.0
 31
0.0
 73
     1
 44
1.0
  0
POINT
  5
C9F
330
B20
100
AcDbEntity
  8
DEFPOINTS
 62
     0
100
AcDbPoint
 10
511.4999999999997
 20
472.675248035313
 30
0.0
  0
POINT
  5
CA0
330
B20
100
AcDbEntity
  8
DEFPOINTS
 62
     0
100
AcDbPoint
 10
512.5
 20
612.6752480353129
 30
0.0
  0
POINT
  5
CA1
330
B20
100
AcDbEntity
  8
DEFPOINTS
 62
     0
100
AcDbPoint
 10
431.1467960786512
 20
612.6752480353129
 30
0.0
  0
ENDBLK
  5
B2B
330
B20
100
AcDbEntity
  8
0
100
AcDbBlockEnd
  0
BLOCK
  5
B37
330
B2D
100
AcDbEntity
  8
0
100
AcDbBlockBegin
  2
*D6
 70
     1
 10
0.0
 20
0.0
 30
0.0
  3
*D6
  1

  0
LINE
  5
D4D
330
B2D
100
AcDbEntity
  8
BEM
 62
     0
370
    -2
100
AcDbLine
 10
507.5
 20
612.6752480353129
 30
0.0
 11
426.1467960786512
 21
612.6752480353129
 31
0.0
  0
LINE
  5
D4E
330
B2D
100
AcDbEntity
  8
BEM
 62
     0
370
    -2
100
AcDbLine
 10
503.3499999999999
 20
1372.675248035313
 30
0.0
 11
426.1467960786514
 21
1372.675248035313
 31
0.0
  0
LINE
  5
D4F
330
B2D
100
AcDbEntity
  8
BEM
 62
     0
370
    -2
100
AcDbLine
 10
431.1467960786512
 20
630.175248035313
 30
0.0
 11
431.1467960786513
 21
1355.175248035313
 31
0.0
  0
SOLID
  5
D50
330
B2D
100
AcDbEntity
  8
BEM
 62
     0
100
AcDbTrace
 10
428.2301294119845
 20
630.175248035313
 30
0.0
 11
434.0634627453178
 21
630.175248035313
 31
0.0
 12
431.1467960786512
 22
612.6752480353129
 32
0.0
 13
431.1467960786512
 23
612.6752480353129
 33
0.0
  0
SOLID
  5
D51
330
B2D
100
AcDbEntity
  8
BEM
 62
     0
100
AcDbTrace
 10
428.2301294119847
 20
1355.175248035313
 30
0.0
 11
434.063462745318
 21
1355.175248035313
 31
0.0
 12
431.1467960786513
 22
1372.675248035313
 32
0.0
 13
431.1467960786513
 23
1372.675248035313
 33
0.0
  0
MTEXT
  5
D52
330
B2D
100
AcDbEntity
  8
BEM
 62
     1
100
AcDbMText
 10
414.8967960786511
 20
992.675248035313
 30
0.0
 40
17.5
 41
0.0
 71
     5
 72
     1
  1
\A1;860
 11
0.0000000000000001
 21
1.0
 31
0.0
 73
     1
 44
1.0
  0
POINT
  5
D53
330
B2D
100
AcDbEntity
  8
DEFPOINTS
 62
     0
100
AcDbPoint
 10
512.5
 20
612.6752480353129
 30
0.0
  0
POINT
  5
D54
330
B2D
100
AcDbEntity
  8
DEFPOINTS
 62
     0
100
AcDbPoint
 10
508.3499999999999
 20
1372.675248035313
 30
0.0
  0
POINT
  5
D55
330
B2D
100
AcDbEntity
  8
DEFPOINTS
 62
     0
100
AcDbPoint
 10
431.1467960786513
 20
1372.675248035313
 30
0.0
  0
ENDBLK
  5
B38
330
B2D
100
AcDbEntity
  8
0
100
AcDbBlockEnd
  0
BLOCK
  5
B56
330
B4C
100
AcDbEntity
  8
0
100
AcDbBlockBegin
  2
*D7
 70
     1
 10
0.0
 20
0.0
 30
0.0
  3
*D7
  1

  0
LINE
  5
D44
330
B4C
100
AcDbEntity
  8
BEM
 62
     0
370
    -2
100
AcDbLine
 10
503.3499999999999
 20
1372.675248035313
 30
0.0
 11
384.3420477913852
 21
1372.675248035313
 31
0.0
  0
LINE
  5
D45
330
B4C
100
AcDbEntity
  8
BEM
 62
     0
370
    -2
100
AcDbLine
 10
506.4999999999997
 20
472.675248035313
 30
0.0
 11
384.3420477913851
 21
472.675248035313
 31
0.0
  0
LINE
  5
D46
330
B4C
100
AcDbEntity
  8
BEM
 62
     0
370
    -2
100
AcDbLine
 10
389.3420477913853
 20
1355.175248035313
 30
0.0
 11
389.3420477913851
 21
490.1752480353129
 31
0.0
  0
SOLID
  5
D47
330
B4C
100
AcDbEntity
  8
BEM
 62
     0
100
AcDbTrace
 10
386.4253811247186
 20
1355.175248035313
 30
0.0
 11
392.258714458052
 21
1355.175248035313
 31
0.0
 12
389.3420477913853
 22
1372.675248035313
 32
0.0
 13
389.3420477913853
 23
1372.675248035313
 33
0.0
  0
SOLID
  5
D48
330
B4C
100
AcDbEntity
  8
BEM
 62
     0
100
AcDbTrace
 10
386.4253811247184
 20
490.1752480353129
 30
0.0
 11
392.2587144580518
 21
490.1752480353129
 31
0.0
 12
389.3420477913851
 22
472.675248035313
 32
0.0
 13
389.3420477913851
 23
472.675248035313
 33
0.0
  0
MTEXT
  5
D49
330
B4C
100
AcDbEntity
  8
BEM
 62
     1
100
AcDbMText
 10
373.092047791385
 20
922.6752480353129
 30
0.0
 40
17.5
 41
0.0
 71
     5
 72
     1
  1
\A1;1000
 11
0.0000000000000001
 21
1.0
 31
0.0
 73
     1
 44
1.0
  0
POINT
  5
D4A
330
B4C
100
AcDbEntity
  8
DEFPOINTS
 62
     0
100
AcDbPoint
 10
508.3499999999999
 20
1372.675248035313
 30
0.0
  0
POINT
  5
D4B
330
B4C
100
AcDbEntity
  8
DEFPOINTS
 62
     0
100
AcDbPoint
 10
511.4999999999997
 20
472.675248035313
 30
0.0
  0
POINT
  5
D4C
330
B4C
100
AcDbEntity
  8
DEFPOINTS
 62
     0
100
AcDbPoint
 10
389.3420477913851
 20
472.675248035313
 30
0.0
  0
ENDBLK
  5
B57
330
B4C
100
AcDbEntity
  8
0
100
AcDbBlockEnd
  0
BLOCK
  5
C85
330
C7B
100
AcDbEntity
  8
0
100
AcDbBlockBegin
  2
*D8
 70
     1
 10
0.0
 20
0.0
 30
0.0
  3
*D8
  1

  0
LINE
  5
C87
330
C7B
100
AcDbEntity
  8
BEM
 62
     0
370
    -2
100
AcDbLine
 10
593.9999999999997
 20
525.1752480353129
 30
0.0
 11
576.4999999999997
 21
525.1752480353129
 31
0.0
  0
LINE
  5
C88
330
C7B
100
AcDbEntity
  8
BEM
 62
     0
370
    -2
100
AcDbLine
 10
630.9999999999997
 20
525.1752480353129
 30
0.0
 11
672.8333333333331
 21
525.1752480353129
 31
0.0
  0
LINE
  5
C89
330
C7B
100
AcDbEntity
  8
BEM
 62
     0
370
    -2
100
AcDbLine
 10
611.4999999999997
 20
525.1752480353129
 30
0.0
 11
613.4999999999998
 21
525.1752480353129
 31
0.0
  0
SOLID
  5
C8A
330
C7B
100
AcDbEntity
  8
BEM
 62
     0
100
AcDbTrace
 10
593.9999999999997
 20
528.0919147019796
 30
0.0
 11
593.9999999999997
 21
522.2585813686463
 31
0.0
 12
611.4999999999997
 22
525.1752480353129
 32
0.0
 13
611.4999999999997
 23
525.1752480353129
 33
0.0
  0
SOLID
  5
C8B
330
C7B
100
AcDbEntity
  8
BEM
 62
     0
100
AcDbTrace
 10
630.9999999999997
 20
528.0919147019796
 30
0.0
 11
630.9999999999997
 21
522.2585813686463
 31
0.0
 12
613.4999999999998
 22
525.1752480353129
 32
0.0
 13
613.4999999999998
 23
525.1752480353129
 33
0.0
  0
MTEXT
  5
C8C
330
C7B
100
AcDbEntity
  8
BEM
 62
     1
100
AcDbMText
 10
660.6666666666663
 20
541.425248035313
 30
0.0
 40
17.5
 41
0.0
 71
     5
 72
     1
  1
\A1;2
 73
     1
 44
1.0
  0
POINT
  5
C8D
330
C7B
100
AcDbEntity
  8
DEFPOINTS
 62
     0
100
AcDbPoint
 10
611.4999999999997
 20
525.1752480353129
 30
0.0
  0
POINT
  5
C8E
330
C7B
100
AcDbEntity
  8
DEFPOINTS
 62
     0
100
AcDbPoint
 10
613.4999999999998
 20
525.1752480353129
 30
0.0
  0
POINT
  5
C8F
330
C7B
100
AcDbEntity
  8
DEFPOINTS
 62
     0
100
AcDbPoint
 10
613.4999999999998
 20
525.1752480353129
 30
0.0
  0
ENDBLK
  5
C86
330
C7B
100
AcDbEntity
  8
0
100
AcDbBlockEnd
  0
BLOCK
  5
D85
330
D79
100
AcDbEntity
  8
0
100
AcDbBlockBegin
  2
*D9
 70
     1
 10
0.0
 20
0.0
 30
0.0
  3
*D9
  1

  0
LINE
  5
DC3
330
D79
100
AcDbEntity
  8
BEM
 62
     0
370
    -2
100
AcDbLine
 10
609.4999999999999
 20
1275.407092353298
 30
0.0
 11
609.4999999999999
 21
1252.889704178331
 31
0.0
  0
LINE
  5
DC4
330
D79
100
AcDbEntity
  8
BEM
 62
     0
370
    -2
100
AcDbLine
 10
612.4999999999998
 20
1275.930638059668
 30
0.0
 11
612.4999999999998
 21
1252.889704178331
 31
0.0
  0
LINE
  5
DC5
330
D79
100
AcDbEntity
  8
BEM
 62
     0
370
    -2
100
AcDbLine
 10
592.0
 20
1257.889704178331
 30
0.0
 11
574.5
 21
1257.889704178331
 31
0.0
  0
LINE
  5
DC6
330
D79
100
AcDbEntity
  8
BEM
 62
     0
370
    -2
100
AcDbLine
 10
629.9999999999998
 20
1257.889704178331
 30
0.0
 11
671.8333333333331
 21
1257.889704178331
 31
0.0
  0
LINE
  5
DC7
330
D79
100
AcDbEntity
  8
BEM
 62
     0
370
    -2
100
AcDbLine
 10
609.4999999999999
 20
1257.889704178331
 30
0.0
 11
612.4999999999998
 21
1257.889704178331
 31
0.0
  0
SOLID
  5
DC8
330
D79
100
AcDbEntity
  8
BEM
 62
     0
100
AcDbTrace
 10
592.0
 20
1260.806370844998
 30
0.0
 11
592.0
 21
1254.973037511664
 31
0.0
 12
609.4999999999999
 22
1257.889704178331
 32
0.0
 13
609.4999999999999
 23
1257.889704178331
 33
0.0
  0
SOLID
  5
DC9
330
D79
100
AcDbEntity
  8
BEM
 62
     0
100
AcDbTrace
 10
629.9999999999998
 20
1260.806370844998
 30
0.0
 11
629.9999999999998
 21
1254.973037511664
 31
0.0
 12
612.4999999999998
 22
1257.889704178331
 32
0.0
 13
612.4999999999998
 23
1257.889704178331
 33
0.0
  0
MTEXT
  5
DCA
330
D79
100
AcDbEntity
  8
BEM
 62
     1
100
AcDbMText
 10
659.6666666666664
 20
1274.139704178331
 30
0.0
 40
17.5
 41
0.0
 71
     5
 72
     1
  1
\A1;2
 73
     1
 44
1.0
  0
POINT
  5
DCB
330
D79
100
AcDbEntity
  8
DEFPOINTS
 62
     0
100
AcDbPoint
 10
609.4999999999999
 20
1280.407092353297
 30
0.0
  0
POINT
  5
DCC
330
D79
100
AcDbEntity
  8
DEFPOINTS
 62
     0
100
AcDbPoint
 10
612.4999999999998
 20
1280.930638059668
 30
0.0
  0
POINT
  5
DCD
330
D79
100
AcDbEntity
  8
DEFPOINTS
 62
     0
100
AcDbPoint
 10
612.4999999999998
 20
1257.889704178331
 30
0.0
  0
ENDBLK
  5
D86
330
D79
100
AcDbEntity
  8
0
100
AcDbBlockEnd
  0
ENDSEC
  0
SECTION
  2
ENTITIES
  0
LINE
  5
57
330
1E
100
AcDbEntity
  8
STEMPEL
100
AcDbLine
 10
1025.0
 20
275.0000000000001
 30
0.0
 11
99.99999999999992
 21
275.0
 31
0.0
  0
LINE
  5
58
330
1E
100
AcDbEntity
  8
STEMPEL
100
AcDbLine
 10
340.0000000000003
 20
274.9999999999999
 30
0.0
 11
340.0
 21
24.99999999999993
 31
0.0
  0
LINE
  5
59
330
1E
100
AcDbEntity
  8
STEMPEL
100
AcDbLine
 10
550.0
 20
275.0000000000001
 30
0.0
 11
550.0
 21
24.99999999999993
 31
0.0
  0
LINE
  5
5A
330
1E
100
AcDbEntity
  8
STEMPEL
100
AcDbLine
 10
830.0
 20
274.9999999999994
 30
0.0
 11
830.0
 21
100.0
 31
0.0
  0
LINE
  5
5B
330
1E
100
AcDbEntity
  8
STEMPEL
100
AcDbLine
 10
339.9999999999997
 20
74.99999999999992
 30
0.0
 11
99.99999999999992
 21
74.99999999999992
 31
0.0
  0
LINE
  5
5C
330
1E
100
AcDbEntity
  8
STEMPEL
100
AcDbLine
 10
1025.0
 20
100.0
 30
0.0
 11
340.0000000000003
 21
99.99999999999992
 31
0.0
  0
LINE
  5
5D
330
1E
100
AcDbEntity
  8
STEMPEL
100
AcDbLine
 10
1025.0
 20
200.0
 30
0.0
 11
340.0000000000003
 21
199.9999999999998
 31
0.0
  0
LINE
  5
5E
330
1E
100
AcDbEntity
  8
VOLL
100
AcDbLine
 10
135.0000000000002
 20
275.0000000000001
 30
0.0
 11
134.9999999999999
 21
24.99999999999993
 31
0.0
  0
LINE
  5
5F
330
1E
100
AcDbEntity
  8
VOLL
100
AcDbLine
 10
235.0000000000003
 20
274.9999999999999
 30
0.0
 11
235.0
 21
24.99999999999993
 31
0.0
  0
LINE
  5
60
330
1E
100
AcDbEntity
  8
VOLL
100
AcDbLine
 10
285.0000000000003
 20
274.9999999999999
 30
0.0
 11
285.0
 21
24.99999999999993
 31
0.0
  0
LINE
  5
61
330
1E
100
AcDbEntity
  8
VOLL
100
AcDbLine
 10
385.0000000000003
 20
199.9999999999998
 30
0.0
 11
385.0000000000003
 21
99.99999999999992
 31
0.0
  0
LINE
  5
62
330
1E
100
AcDbEntity
  8
VOLL
100
AcDbLine
 10
450.0000000000002
 20
274.9999999999996
 30
0.0
 11
450.0
 21
99.99999999999992
 31
0.0
  0
LINE
  5
63
330
1E
100
AcDbEntity
  8
HILF
100
AcDbLine
 10
100.0000000000002
 20
250.0000000000001
 30
0.0
 11
340.0000000000003
 21
250.0000000000001
 31
0.0
  0
LINE
  5
64
330
1E
100
AcDbEntity
  8
HILF
100
AcDbLine
 10
100.0000000000002
 20
225.0000000000001
 30
0.0
 11
340.0000000000003
 21
225.0000000000001
 31
0.0
  0
LINE
  5
65
330
1E
100
AcDbEntity
  8
HILF
100
AcDbLine
 10
100.0000000000002
 20
199.9999999999998
 30
0.0
 11
340.0000000000003
 21
199.9999999999998
 31
0.0
  0
LINE
  5
66
330
1E
100
AcDbEntity
  8
HILF
100
AcDbLine
 10
100.0000000000002
 20
174.9999999999998
 30
0.0
 11
340.0000000000003
 21
174.9999999999998
 31
0.0
  0
LINE
  5
67
330
1E
100
AcDbEntity
  8
HILF
100
AcDbLine
 10
100.0000000000002
 20
149.9999999999999
 30
0.0
 11
340.0000000000003
 21
149.9999999999999
 31
0.0
  0
LINE
  5
68
330
1E
100
AcDbEntity
  8
HILF
100
AcDbLine
 10
100.0000000000002
 20
124.9999999999999
 30
0.0
 11
340.0000000000003
 21
124.9999999999999
 31
0.0
  0
LINE
  5
69
330
1E
100
AcDbEntity
  8
HILF
100
AcDbLine
 10
100.0000000000002
 20
99.99999999999992
 30
0.0
 11
340.0000000000003
 21
99.99999999999992
 31
0.0
  0
LINE
  5
6A
330
1E
100
AcDbEntity
  8
HILF
100
AcDbLine
 10
340.0000000000003
 20
174.9999999999998
 30
0.0
 11
550.0
 21
174.9999999999998
 31
0.0
  0
LINE
  5
6B
330
1E
100
AcDbEntity
  8
HILF
100
AcDbLine
 10
340.0000000000003
 20
149.9999999999999
 30
0.0
 11
550.0
 21
149.9999999999999
 31
0.0
  0
LINE
  5
6C
330
1E
100
AcDbEntity
  8
HILF
100
AcDbLine
 10
340.0000000000003
 20
124.9999999999999
 30
0.0
 11
550.0
 21
124.9999999999999
 31
0.0
  0
LINE
  5
6D
330
1E
100
AcDbEntity
  8
HILF
100
AcDbLine
 10
561.9342002742369
 20
210.0939561891034
 30
0.0
 11
812.0884791390777
 21
210.0939561891034
 31
0.0
  0
LINE
  5
6E
330
1E
100
AcDbEntity
  8
HILF
100
AcDbLine
 10
561.9342002742369
 20
174.9999999999998
 30
0.0
 11
812.0884791390775
 21
174.9999999999998
 31
0.0
  0
LINE
  5
6F
330
1E
100
AcDbEntity
  8
HILF
100
AcDbLine
 10
561.9342002742369
 20
149.9999999999999
 30
0.0
 11
812.0884791390775
 21
149.9999999999999
 31
0.0
  0
LINE
  5
70
330
1E
100
AcDbEntity
  8
HILF
100
AcDbLine
 10
561.9342002742369
 20
124.9999999999999
 30
0.0
 11
812.0884791390775
 21
124.9999999999999
 31
0.0
  0
LINE
  5
71
330
1E
100
AcDbEntity
  8
VOLL
100
AcDbLine
 10
830.0
 20
150.0
 30
0.0
 11
1025.0
 21
150.0
 31
0.0
  0
LINE
  5
72
330
1E
100
AcDbEntity
  8
HILF
100
AcDbLine
 10
841.8096540742482
 20
209.4495909238957
 30
0.0
 11
1012.147209831682
 21
209.4495909238957
 31
0.0
  0
LINE
  5
73
330
1E
100
AcDbEntity
  8
HILF
100
AcDbLine
 10
558.7274248224712
 20
37.23495645070784
 30
0.0
 11
1012.147209831682
 21
37.23495645070784
 31
0.0
  0
TEXT
  5
74
330
1E
100
AcDbEntity
  8
TEXT
100
AcDbText
 10
159.6541494907955
 20
46.68454737460329
 30
0.0
 40
10.0
  1
Änderung
 41
0.8
  7
GREEKS
 72
     1
 11
186.5112923479383
 21
46.68454737460329
 31
0.0
100
AcDbText
  0
TEXT
  5
75
330
1E
100
AcDbEntity
  8
TEXT
100
AcDbText
 10
358.7908930375943
 20
256.1552237717722
 30
0.0
 40
12.5
  1
Maßstab
 41
0.8
  7
GREEKS
100
AcDbText
  0
TEXT
  5
76
330
1E
100
AcDbEntity
  8
TEXT
100
AcDbText
 10
460.7147386835128
 20
256.0460421087048
 30
0.0
 40
12.5
  1
Zul. Abw.
 41
0.8
  7
GREEKS
100
AcDbText
  0
TEXT
  5
77
330
1E
100
AcDbEntity
  8
TEXT
100
AcDbText
 10
562.1948509522525
 20
256.3723320029449
 30
0.0
 40
12.5
  1
Benennung
 41
0.8
  7
GREEKS
100
AcDbText
  0
TEXT
  5
78
330
1E
100
AcDbEntity
  8
TEXT
100
AcDbText
 10
840.4468873940851
 20
255.7830086342841
 30
0.0
 40
12.5
  1
Zeichnungs Nr.
 41
0.8
  7
GREEKS
100
AcDbText
  0
TEXT
  5
79
330
1E
100
AcDbEntity
  8
TEXT
100
AcDbText
 10
561.8555959778399
 20
77.11401425482641
 30
0.0
 40
12.5
  1
Bauvorhaben
 41
0.8
  7
GREEKS
100
AcDbText
  0
TEXT
  5
7A
330
1E
100
AcDbEntity
  8
TEXT
100
AcDbText
 10
841.8096540742482
 20
182.9529559274992
 30
0.0
 40
12.5
  1
Ersatz für:
 41
0.8
  7
GREEKS
100
AcDbText
  0
TEXT
  5
7B
330
1E
100
AcDbEntity
  8
TEXT
100
AcDbText
 10
120.6660276761439
 20
34.13664615067979
 30
0.0
 40
10.0
  1
Index
 50
90.0
 41
0.8
  7
GREEKS
100
AcDbText
  0
TEXT
  5
7C
330
1E
100
AcDbEntity
  8
TEXT
100
AcDbText
 10
250.2336690188702
 20
46.67890673349525
 30
0.0
 40
10.0
  1
Tag
 41
0.8
  7
GREEKS
 72
     1
 11
259.5670023522036
 21
46.67890673349525
 31
0.0
100
AcDbText
  0
TEXT
  5
7D
330
1E
100
AcDbEntity
  8
TEXT
100
AcDbText
 10
297.5306860966482
 20
46.4831054241602
 30
0.0
 40
10.0
  1
Name
 41
0.8
  7
GREEKS
 72
     1
 11
313.340209906172
 21
46.4831054241602
 31
0.0
100
AcDbText
  0
TEXT
  5
7E
330
1E
100
AcDbEntity
  8
TEXT
100
AcDbText
 10
405.8279182884126
 20
183.2970125307481
 30
0.0
 40
10.0
  1
Tag
 41
0.8
  7
GREEKS
100
AcDbText
  0
TEXT
  5
7F
330
1E
100
AcDbEntity
  8
TEXT
100
AcDbText
 10
481.1566460565737
 20
183.2740272978806
 30
0.0
 40
10.0
  1
Name
 41
0.8
  7
GREEKS
100
AcDbText
  0
TEXT
  5
80
330
1E
100
AcDbEntity
  8
TEXT
100
AcDbText
 10
343.9590317919039
 20
159.0747592404491
 30
0.0
 40
10.0
  1
Gez.
 41
0.8
  7
GREEKS
100
AcDbText
  0
TEXT
  5
81
330
1E
100
AcDbEntity
  8
TEXT
100
AcDbText
 10
343.8787716429181
 20
134.2231572857094
 30
0.0
 40
10.0
  1
Gepr.
 41
0.8
  7
GREEKS
100
AcDbText
  0
TEXT
  5
82
330
1E
100
AcDbEntity
  8
TEXT
100
AcDbText
 10
344.0016943468259
 20
108.8236597412452
 30
0.0
 40
10.0
  1
Norm.
 41
0.8
  7
GREEKS
100
AcDbText
  0
LINE
  5
83
330
1E
100
AcDbEntity
  8
STEMPEL
100
AcDbLine
 10
124.9999999999997
 20
25.0
 30
0.0
 11
1025.0
 21
25.0
 31
0.0
  0
TEXT
  5
84
330
1E
100
AcDbEntity
  8
TEXT
100
AcDbText
 10
843.1002153742515
 20
130.185404446965
 30
0.0
 40
12.5
  1
ersetzt durch:
 41
0.8
  7
GREEKS
100
AcDbText
  0
LINE
  5
85
330
1E
100
AcDbEntity
  8
STEMPEL
100
AcDbLine
 10
1025.0
 20
25.0
 30
0.0
 11
99.99999999999971
 21
25.0
 31
0.0
  0
LINE
  5
86
330
1E
100
AcDbEntity
  8
STEMPEL
100
AcDbLine
 10
1025.0
 20
25.0
 30
0.0
 11
1025.0
 21
1460.0
 31
0.0
  0
LINE
  5
87
330
1E
100
AcDbEntity
  8
STEMPEL
100
AcDbLine
 10
100.0
 20
25.0
 30
0.0
 11
99.99999999999971
 21
1460.0
 31
0.0
  0
LINE
  5
88
330
1E
100
AcDbEntity
  8
STEMPEL
100
AcDbLine
 10
1025.0
 20
1460.0
 30
0.0
 11
99.99999999999971
 21
1460.0
 31
0.0
  0
LINE
  5
89
330
1E
100
AcDbEntity
  8
HILF
100
AcDbLine
 10
0.0
 20
0.0
 30
0.0
 11
-0.0000000000002842
 21
1485.0
 31
0.0
  0
LINE
  5
8A
330
1E
100
AcDbEntity
  8
HILF
100
AcDbLine
 10
1050.0
 20
1485.0
 30
0.0
 11
0.0
 21
1485.0
 31
0.0
  0
LINE
  5
8B
330
1E
100
AcDbEntity
  8
HILF
100
AcDbLine
 10
1050.0
 20
0.0
 30
0.0
 11
0.0
 21
0.0
 31
0.0
  0
LINE
  5
8C
330
1E
100
AcDbEntity
  8
HILF
100
AcDbLine
 10
77.7191783928464
 20
742.5000000000001
 30
0.0
 11
0.0000000000002842
 21
742.5000000000001
 31
0.0
  0
TEXT
  5
8D
330
1E
100
AcDbEntity
  8
TEXT
100
AcDbText
 10
346.55527455526
 20
182.8506367787916
 30
0.0
 40
10.0
  1
2011
 41
0.8
  7
GREEKS
100
AcDbText
  0
LINE
  5
8E
330
1E
100
AcDbEntity
  8
HILF
100
AcDbLine
 10
1050.0
 20
-0.0000000000002842
 30
0.0
 11
1050.0
 21
1485.0
 31
0.0
  0
TEXT
  5
8F
330
1E
100
AcDbEntity
  8
VOLL
100
AcDbText
 10
78.07675471698113
 20
31.02594776470585
 30
0.0
 40
1.8
  1

  7
GREEKS
100
AcDbText
  0
TEXT
  5
90
330
1E
100
AcDbEntity
  8
TEXT
100
AcDbText
 10
104.6377487744418
 20
279.1799999999999
 30
0.0
 40
12.5
  1
Erstellt mit AUTOCAD 2004
 41
0.8
  7
GREEKS
100
AcDbText
  0
TEXT
  5
91
330
1E
100
AcDbEntity
  8
TEXT
100
AcDbText
 10
486.0540121453142
 20
157.7240979930877
 30
0.0
 40
10.0
  1
Koeh
 41
0.8
  7
GREEKS
 72
     1
 11
499.1968692881714
 21
157.7240979930877
 31
0.0
100
AcDbText
  0
TEXT
  5
92
330
1E
100
AcDbEntity
  8
TEXT
 62
     1
100
AcDbText
 10
866.2224848602612
 20
220.372535722849
 30
0.0
 40
17.5
  1
05506100N
 41
0.8
  7
GREEKS
 72
     1
 11
922.8891515269278
 21
220.372535722849
 31
0.0
100
AcDbText
  0
TEXT
  5
93
330
1E
100
AcDbEntity
  8
TEXT
 62
     1
100
AcDbText
 10
376.2515766204717
 20
220.372535722849
 30
0.0
 40
17.5
  1
1:5
 41
0.8
  7
GREEKS
100
AcDbText
  0
TEXT
  5
94
330
1E
100
AcDbEntity
  8
TEXT
100
AcDbText
 10
402.5213022943996
 20
157.7691260206433
 30
0.0
 40
10.0
  1
23.11.
 41
0.8
  7
GREEKS
 72
     1
 11
418.5213022943996
 21
157.7691260206433
 31
0.0
100
AcDbText
  0
TEXT
  5
95
330
1E
100
AcDbEntity
  8
TEXT
 62
     1
100
AcDbText
 10
567.2339327643505
 20
218.5437197313445
 30
0.0
 40
17.5
  1
Regenstandrohr DN100
 41
0.8
  7
GREEKS
100
AcDbText
  0
TEXT
  5
96
330
1E
100
AcDbEntity
  8
TEXT
100
AcDbText
 10
562.8240977813288
 20
181.8476716460108
 30
0.0
 40
12.5
  1
quadratisch
 41
0.8
  7
GREEKS
100
AcDbText
  0
TEXT
  5
98
330
1E
100
AcDbEntity
  8
TEXT
100
AcDbText
 10
562.8240977813288
 20
129.100298576054
 30
0.0
 40
12.5
  1
EDV-Art-Nr. 05506.100N
 41
0.8
  7
GREEKS
100
AcDbText
  0
TEXT
  5
99
330
1E
100
AcDbEntity
  8
TEXT
100
AcDbText
 10
562.4593753944567
 20
106.5743538255658
 30
0.0
 40
10.0
  1
05506100N.DWG
 41
0.8
  7
GREEKS
100
AcDbText
  0
TEXT
  5
9A
330
1E
100
AcDbEntity
  8
TEXT
100
AcDbText
 10
456.5653305202101
 20
226.9090960255756
 30
0.0
 40
10.0
  1
DIN EN1123-2
 41
0.8
  7
GREEKS
 72
     1
 11
499.0415209964005
 21
226.9090960255756
 31
0.0
100
AcDbText
  0
INSERT
  5
9B
330
1E
100
AcDbEntity
  8
STEMPEL
100
AcDbBlockReference
  2
LOGO
 10
352.4888713644485
 20
112.552631911208
 30
0.0
 41
5.0
 42
5.0
 43
5.0
  0
TEXT
  5
118
330
1E
100
AcDbEntity
  8
BEM
100
AcDbText
 10
1043.255730964291
 20
25.41975269997124
 30
0.0
 40
10.0
  1
Diese Zeichnung ist urheberrechtlich geschützt und bleibt unser Eigentum. Sie darf weder ganz noch teilweise verfielfältigt und nicht an Dritte weitergegeben werden.
 50
90.0
 41
0.8
  7
GREEKS
100
AcDbText
  0
LINE
  5
34E
330
1E
100
AcDbEntity
  8
BEM
 62
     1
100
AcDbLine
 10
531.7556756118506
 20
685.8033923763027
 30
0.0
 11
549.2556756118506
 21
685.8033923763027
 31
0.0
  0
LINE
  5
34F
330
1E
100
AcDbEntity
  8
BEM
 62
     1
100
AcDbLine
 10
549.2556756118506
 20
668.3033923763027
 30
0.0
 11
531.7556756118506
 21
668.3033923763027
 31
0.0
  0
LINE
  5
350
330
1E
100
AcDbEntity
  8
BEM
 62
     1
100
AcDbLine
 10
531.7556756118506
 20
668.3033923763027
 30
0.0
 11
531.7556756118506
 21
685.8033923763027
 31
0.0
  0
LINE
  5
351
330
1E
100
AcDbEntity
  8
BEM
 62
     1
100
AcDbLine
 10
549.2556756118506
 20
685.8033923763027
 30
0.0
 11
549.2556756118506
 21
668.3033923763027
 31
0.0
  0
LINE
  5
35C
330
1E
100
AcDbEntity
  8
BEM
 62
     1
100
AcDbLine
 10
531.8969799717502
 20
1428.181486779351
 30
0.0
 11
549.3969799717502
 21
1428.181486779351
 31
0.0
  0
LINE
  5
35D
330
1E
100
AcDbEntity
  8
BEM
 62
     1
100
AcDbLine
 10
549.3969799717502
 20
1410.681486779351
 30
0.0
 11
531.8969799717502
 21
1410.681486779351
 31
0.0
  0
LINE
  5
35E
330
1E
100
AcDbEntity
  8
BEM
 62
     1
100
AcDbLine
 10
549.3969799717502
 20
1428.181486779351
 30
0.0
 11
549.3969799717502
 21
1410.681486779351
 31
0.0
  0
LINE
  5
35F
330
1E
100
AcDbEntity
  8
BEM
 62
     1
100
AcDbLine
 10
531.8969799717502
 20
1410.681486779351
 30
0.0
 11
531.8969799717502
 21
1428.181486779351
 31
0.0
  0
TEXT
  5
79F
330
1E
100
AcDbEntity
  8
TEXT
 62
     1
100
AcDbText
 10
922.8891515269278
 20
156.0281960787337
 30
0.0
 40
17.5
  1

 41
0.8
  7
GREEKS
 72
     1
 11
922.8891515269278
 21
156.0281960787337
 31
0.0
100
AcDbText
  0
TEXT
  5
7E5
330
1E
100
AcDbEntity
  8
TEXT
100
AcDbText
 10
562.8240977813288
 20
155.8898485680456
 30
0.0
 40
12.5
  1
und Auslaufende %%C102
 41
0.8
  7
GREEKS
100
AcDbText
  0
LINE
  5
959
330
1E
100
AcDbEntity
  8
MITTEL
100
AcDbLine
 10
562.4999999999999
 20
1377.675248035313
 30
0.0
 11
562.4999999999996
 21
693.2207924164591
 31
0.0
  0
DIMENSION
  5
96B
330
1E
100
AcDbEntity
  8
BEM
100
AcDbDimension
  2
*D1
 10
613.4999999999998
 20
430.7844082740171
 30
0.0
 11
562.4999999999998
 21
447.0344082740171
 31
0.0
 70
    32
  1
%%c<>
 71
     5
 42
102.0
  3
Standard
100
AcDbAlignedDimension
 13
511.4999999999997
 23
472.675248035313
 33
0.0
 14
613.4999999999998
 24
472.675248035313
 34
0.0
100
AcDbRotatedDimension
1001
ACAD
1000
DSTYLE
1002
{
1070
    40
1040
5.0
1070
    41
1040
3.5
1070
    42
1040
1.0
1070
    43
1040
7.0
1070
    44
1040
1.0
1070
    73
1070
     0
1070
    74
1070
     0
1070
    77
1070
     1
1070
    78
1070
     8
1070
    79
1070
     2
1070
   140
1040
3.5
1070
   141
1040
1.5
1070
   146
1040
0.5142857142857144
1070
   147
1040
1.5
1070
   172
1070
     1
1070
   178
1070
     1
1070
   179
1070
     2
1070
   271
1070
     2
1070
   272
1070
     2
1070
   284
1070
     8
1070
   285
1070
     8
1070
   286
1070
     8
1002
}
  0
LINE
  5
96F
330
1E
100
AcDbEntity
  8
STEMPEL
100
AcDbLine
 10
613.4999999999998
 20
472.675248035313
 30
0.0
 11
511.4999999999997
 21
472.675248035313
 31
0.0
  0
LINE
  5
9D7
102
{ACAD_REACTORS
330
D77
330
DB1
102
}
330
1E
100
AcDbEntity
  8
STEMPEL
100
AcDbLine
 10
612.4999999999998
 20
1293.192574967604
 30
0.0
 11
612.4999999999998
 21
1081.698708741752
 31
0.0
  0
LINE
  5
9E7
102
{ACAD_REACTORS
330
D77
330
DB1
102
}
330
1E
100
AcDbEntity
  8
STEMPEL
100
AcDbLine
 10
512.5
 20
1293.192574967604
 30
0.0
 11
512.5
 21
1070.401910677222
 31
0.0
  0
DIMENSION
  5
9E8
330
1E
100
AcDbEntity
  8
BEM
100
AcDbDimension
  2
*D2
 10
474.5143758053435
 20
1302.675248035313
 30
0.0
 11
458.2643758053433
 21
1337.675248035313
 31
0.0
 70
    32
 71
     5
 42
69.99999999999977
  3
Standard
100
AcDbAlignedDimension
 13
508.3499999999999
 23
1372.675248035313
 33
0.0
 14
509.5655937628863
 24
1302.675248035313
 34
0.0
 50
90.0
100
AcDbRotatedDimension
1001
ACAD
1000
DSTYLE
1002
{
1070
    40
1040
5.0
1070
    41
1040
3.5
1070
    42
1040
1.0
1070
    43
1040
7.0
1070
    44
1040
1.0
1070
    73
1070
     0
1070
    74
1070
     0
1070
    77
1070
     1
1070
    78
1070
     8
1070
    79
1070
     2
1070
   140
1040
3.5
1070
   141
1040
1.5
1070
   146
1040
0.5142857142857144
1070
   147
1040
1.5
1070
   172
1070
     1
1070
   178
1070
     1
1070
   179
1070
     2
1070
   271
1070
     2
1070
   272
1070
     2
1070
   284
1070
     8
1070
   285
1070
     8
1070
   286
1070
     8
1002
}
  0
LWPOLYLINE
  5
A05
330
1E
100
AcDbEntity
  8
MITTEL
100
AcDbPolyline
 90
        2
 70
     0
 43
0.0
 10
507.5
 20
1069.837070773995
 10
617.4999999999998
 20
1082.263548644979
  0
LWPOLYLINE
  5
A06
330
1E
100
AcDbEntity
  8
MITTEL
100
AcDbPolyline
 90
        2
 70
     0
 43
0.0
 10
507.5
 20
1059.837070773995
 10
617.4999999999998
 20
1072.263548644979
  0
LINE
  5
A09
330
1E
100
AcDbEntity
  8
STEMPEL
100
AcDbLine
 10
612.4999999999998
 20
1071.698708741752
 30
0.0
 11
612.4999999999996
 21
612.6752480353129
 31
0.0
  0
LINE
  5
A0C
330
1E
100
AcDbEntity
  8
STEMPEL
100
AcDbLine
 10
512.5
 20
1060.401910677222
 30
0.0
 11
512.5
 21
612.6752480353128
 31
0.0
  0
POLYLINE
  5
A10
102
{ACAD_REACTORS
330
D77
330
DB1
102
}
330
1E
100
AcDbEntity
  8
HILF
100
AcDb2dPolyline
 66
     1
 10
0.0
 20
0.0
 30
0.0
 70
     4
 75
     6
  0
VERTEX
  5
A11
330
A10
100
AcDbEntity
  8
HILF
100
AcDbVertex
100
AcDb2dVertex
 10
512.5
 20
1280.930638059668
 30
0.0
 70
    16
  0
VERTEX
  5
A17
330
A10
100
AcDbEntity
  8
HILF
100
AcDbVertex
100
AcDb2dVertex
 10
512.5
 20
1280.930638059668
 30
0.0
 70
     8
  0
VERTEX
  5
A18
330
A10
100
AcDbEntity
  8
HILF
100
AcDbVertex
100
AcDb2dVertex
 10
521.3134765625
 20
1282.468723997168
 30
0.0
 70
     8
  0
VERTEX
  5
A19
330
A10
100
AcDbEntity
  8
HILF
100
AcDbVertex
100
AcDb2dVertex
 10
529.1015624999999
 20
1283.391575559668
 30
0.0
 70
     8
  0
VERTEX
  5
A1A
330
A10
100
AcDbEntity
  8
HILF
100
AcDbVertex
100
AcDb2dVertex
 10
536.0107421874999
 20
1283.787083372168
 30
0.0
 70
     8
  0
VERTEX
  5
A1B
330
A10
100
AcDbEntity
  8
HILF
100
AcDbVertex
100
AcDb2dVertex
 10
542.1874999999999
 20
1283.743138059668
 30
0.0
 70
     8
  0
VERTEX
  5
A1C
330
A10
100
AcDbEntity
  8
HILF
100
AcDbVertex
100
AcDb2dVertex
 10
547.7783203124999
 20
1283.347630247168
 30
0.0
 70
     8
  0
VERTEX
  5
A1D
330
A10
100
AcDbEntity
  8
HILF
100
AcDbVertex
100
AcDb2dVertex
 10
552.9296874999999
 20
1282.688450559668
 30
0.0
 70
     8
  0
VERTEX
  5
A1E
330
A10
100
AcDbEntity
  8
HILF
100
AcDbVertex
100
AcDb2dVertex
 10
557.7880859374999
 20
1281.853489622168
 30
0.0
 70
     8
  0
VERTEX
  5
A1F
330
A10
100
AcDbEntity
  8
HILF
100
AcDbVertex
100
AcDb2dVertex
 10
562.4999999999999
 20
1280.930638059668
 30
0.0
 70
     8
  0
VERTEX
  5
A20
330
A10
100
AcDbEntity
  8
HILF
100
AcDbVertex
100
AcDb2dVertex
 10
567.2119140624999
 20
1280.007786497168
 30
0.0
 70
     8
  0
VERTEX
  5
A21
330
A10
100
AcDbEntity
  8
HILF
100
AcDbVertex
100
AcDb2dVertex
 10
572.0703124999999
 20
1279.172825559668
 30
0.0
 70
     8
  0
VERTEX
  5
A22
330
A10
100
AcDbEntity
  8
HILF
100
AcDbVertex
100
AcDb2dVertex
 10
577.2216796874999
 20
1278.513645872168
 30
0.0
 70
     8
  0
VERTEX
  5
A23
330
A10
100
AcDbEntity
  8
HILF
100
AcDbVertex
100
AcDb2dVertex
 10
582.8124999999999
 20
1278.118138059668
 30
0.0
 70
     8
  0
VERTEX
  5
A24
330
A10
100
AcDbEntity
  8
HILF
100
AcDbVertex
100
AcDb2dVertex
 10
588.9892578124999
 20
1278.074192747168
 30
0.0
 70
     8
  0
VERTEX
  5
A25
330
A10
100
AcDbEntity
  8
HILF
100
AcDbVertex
100
AcDb2dVertex
 10
595.8984374999999
 20
1278.469700559668
 30
0.0
 70
     8
  0
VERTEX
  5
A26
330
A10
100
AcDbEntity
  8
HILF
100
AcDbVertex
100
AcDb2dVertex
 10
603.6865234374999
 20
1279.392552122168
 30
0.0
 70
     8
  0
VERTEX
  5
A27
330
A10
100
AcDbEntity
  8
HILF
100
AcDbVertex
100
AcDb2dVertex
 10
612.4999999999999
 20
1280.930638059668
 30
0.0
 70
     8
  0
VERTEX
  5
A12
330
A10
100
AcDbEntity
  8
HILF
100
AcDbVertex
100
AcDb2dVertex
 10
537.4999999999999
 20
1285.930638059668
 30
0.0
 70
    16
  0
VERTEX
  5
A13
330
A10
100
AcDbEntity
  8
HILF
100
AcDbVertex
100
AcDb2dVertex
 10
562.4999999999999
 20
1280.930638059668
 30
0.0
 70
    16
  0
VERTEX
  5
A14
330
A10
100
AcDbEntity
  8
HILF
100
AcDbVertex
100
AcDb2dVertex
 10
587.4999999999998
 20
1275.930638059668
 30
0.0
 70
    16
  0
VERTEX
  5
A15
330
A10
100
AcDbEntity
  8
HILF
100
AcDbVertex
100
AcDb2dVertex
 10
612.4999999999998
 20
1280.930638059668
 30
0.0
 70
    16
  0
SEQEND
  5
A16
330
A10
100
AcDbEntity
  8
HILF
  0
DIMENSION
  5
A5B
330
1E
100
AcDbEntity
  8
BEM
100
AcDbDimension
  2
*D3
 10
612.4999999999998
 20
660.2403640941343
 30
0.0
 11
570.9770212095262
 21
660.2403640941343
 31
0.0
 70
   160
 71
     5
 42
99.99999999999978
  3
Standard
100
AcDbAlignedDimension
 13
512.5
 23
659.665461851464
 33
0.0
 14
612.4999999999998
 24
659.665461851464
 34
0.0
100
AcDbRotatedDimension
1001
ACAD
1000
DSTYLE
1002
{
1070
    40
1040
5.0
1070
    41
1040
3.5
1070
    42
1040
1.0
1070
    43
1040
7.0
1070
    44
1040
1.0
1070
    73
1070
     0
1070
    74
1070
     0
1070
    77
1070
     1
1070
    78
1070
     8
1070
    79
1070
     2
1070
   140
1040
3.5
1070
   141
1040
1.5
1070
   146
1040
0.5142857142857144
1070
   147
1040
1.5
1070
   172
1070
     1
1070
   178
1070
     1
1070
   179
1070
     2
1070
   271
1070
     2
1070
   272
1070
     2
1070
   284
1070
     8
1070
   285
1070
     8
1070
   286
1070
     8
1002
}
  0
LINE
  5
AA1
330
1E
100
AcDbEntity
  8
MITTEL
100
AcDbLine
 10
562.4999999999996
 20
650.9527156821194
 30
0.0
 11
562.4999999999998
 21
467.6752480353129
 31
0.0
  0
TEXT
  5
AAB
330
1E
100
AcDbEntity
  8
TEXT
 62
     1
100
AcDbText
 10
550.1170233674579
 20
949.8097743183553
 30
0.0
 40
17.5
  1
DN100
 50
90.0
 41
0.8
  7
GREEKS
100
AcDbText
  0
DIMENSION
  5
AAC
330
1E
100
AcDbEntity
  8
BEM
100
AcDbDimension
  2
*D4
 10
613.6499999999998
 20
1402.992902166769
 30
0.0
 11
581.0497959513521
 21
1402.992902166769
 31
0.0
 70
   160
 71
     5
 42
102.2999999999999
  3
Standard
100
AcDbAlignedDimension
 13
511.3499999999999
 23
1372.675248035313
 33
0.0
 14
613.6499999999998
 24
1372.675248035313
 34
0.0
100
AcDbRotatedDimension
1001
ACAD
1000
DSTYLE
1002
{
1070
    40
1040
5.0
1070
    41
1040
3.5
1070
    42
1040
1.0
1070
    43
1040
7.0
1070
    44
1040
1.0
1070
    73
1070
     0
1070
    74
1070
     0
1070
    77
1070
     1
1070
    78
1070
     8
1070
    79
1070
     2
1070
   140
1040
3.5
1070
   141
1040
1.5
1070
   146
1040
0.5142857142857144
1070
   147
1040
1.5
1070
   172
1070
     1
1070
   178
1070
     1
1070
   179
1070
     2
1070
   271
1070
     2
1070
   272
1070
     2
1070
   284
1070
     8
1070
   285
1070
     8
1070
   286
1070
     8
1002
}
  0
DIMENSION
  5
B1F
330
1E
100
AcDbEntity
  8
BEM
100
AcDbDimension
  2
*D5
 10
431.1467960786512
 20
612.6752480353129
 30
0.0
 11
414.8967960786511
 21
542.6752480353131
 31
0.0
 70
    32
 71
     5
 42
140.0
  3
Standard
100
AcDbAlignedDimension
 13
511.4999999999997
 23
472.675248035313
 33
0.0
 14
512.5
 24
612.6752480353129
 34
0.0
 50
90.0
100
AcDbRotatedDimension
1001
ACAD
1000
DSTYLE
1002
{
1070
    40
1040
5.0
1070
    41
1040
3.5
1070
    42
1040
1.0
1070
    43
1040
7.0
1070
    44
1040
1.0
1070
    73
1070
     0
1070
    74
1070
     0
1070
    77
1070
     1
1070
    78
1070
     8
1070
    79
1070
     2
1070
   140
1040
3.5
1070
   141
1040
1.5
1070
   146
1040
0.5142857142857144
1070
   147
1040
1.5
1070
   172
1070
     1
1070
   178
1070
     1
1070
   179
1070
     2
1070
   271
1070
     2
1070
   272
1070
     2
1070
   284
1070
     8
1070
   285
1070
     8
1070
   286
1070
     8
1002
}
  0
DIMENSION
  5
B2C
330
1E
100
AcDbEntity
  8
BEM
100
AcDbDimension
  2
*D6
 10
431.1467960786513
 20
1372.675248035313
 30
0.0
 11
414.8967960786511
 21
992.675248035313
 31
0.0
 70
    32
  1
860
 71
     5
 42
759.9999999999998
  3
Standard
100
AcDbAlignedDimension
 13
512.5
 23
612.6752480353129
 33
0.0
 14
508.3499999999999
 24
1372.675248035313
 34
0.0
 50
90.0
100
AcDbRotatedDimension
1001
ACAD
1000
DSTYLE
1002
{
1070
   279
1070
     1
1070
    40
1040
5.0
1070
    41
1040
3.5
1070
    42
1040
1.0
1070
    43
1040
7.0
1070
    44
1040
1.0
1070
    73
1070
     0
1070
    74
1070
     0
1070
    77
1070
     1
1070
    78
1070
     8
1070
    79
1070
     2
1070
   140
1040
3.5
1070
   141
1040
1.5
1070
   146
1040
0.5142857142857144
1070
   147
1040
1.5
1070
   172
1070
     1
1070
   178
1070
     1
1070
   179
1070
     2
1070
   271
1070
     2
1070
   272
1070
     2
1070
   284
1070
     8
1070
   285
1070
     8
1070
   286
1070
     8
1002
}
  0
DIMENSION
  5
B4B
330
1E
100
AcDbEntity
  8
BEM
100
AcDbDimension
  2
*D7
 10
389.3420477913851
 20
472.675248035313
 30
0.0
 11
373.092047791385
 21
922.6752480353129
 31
0.0
 70
    32
  1
1000
 71
     5
 42
899.9999999999998
  3
Standard
100
AcDbAlignedDimension
 13
508.3499999999999
 23
1372.675248035313
 33
0.0
 14
511.4999999999997
 24
472.675248035313
 34
0.0
 50
90.0
100
AcDbRotatedDimension
1001
ACAD
1000
DSTYLE
1002
{
1070
    40
1040
5.0
1070
    41
1040
3.5
1070
    42
1040
1.0
1070
    43
1040
7.0
1070
    44
1040
1.0
1070
    73
1070
     0
1070
    74
1070
     0
1070
    77
1070
     1
1070
    78
1070
     8
1070
    79
1070
     2
1070
   140
1040
3.5
1070
   141
1040
1.5
1070
   146
1040
0.5142857142857144
1070
   147
1040
1.5
1070
   172
1070
     1
1070
   178
1070
     1
1070
   179
1070
     2
1070
   271
1070
     2
1070
   272
1070
     2
1070
   284
1070
     8
1070
   285
1070
     8
1070
   286
1070
     8
1002
}
  0
ARC
  5
C3D
330
1E
100
AcDbEntity
  8
STEMPEL
100
AcDbCircle
 10
601.4999999999997
 20
582.4753035600271
 30
0.0
 40
12.0
100
AcDbArc
 50
0.0
 51
1.909152432997244
  0
LINE
  5
C3E
330
1E
100
AcDbEntity
  8
HILF
100
AcDbLine
 10
562.4999999999998
 20
582.675248035313
 30
0.0
 11
612.4999999999998
 21
612.6752480353131
 31
0.0
  0
LINE
  5
C3F
330
1E
100
AcDbEntity
  8
HILF
100
AcDbLine
 10
512.5
 20
612.6752480353129
 30
0.0
 11
562.4999999999998
 21
582.675248035313
 31
0.0
  0
LINE
  5
C43
330
1E
100
AcDbEntity
  8
STEMPEL
100
AcDbLine
 10
512.5
 20
612.6752480353129
 30
0.0
 11
511.5066611162498
 21
582.875081522817
 31
0.0
  0
LINE
  5
C44
330
1E
100
AcDbEntity
  8
STEMPEL
100
AcDbLine
 10
612.4999999999998
 20
612.6752480353131
 30
0.0
 11
613.4933388837495
 21
582.8750815228187
 31
0.0
  0
LINE
  5
C45
330
1E
100
AcDbEntity
  8
HILF
100
AcDbLine
 10
612.4999999999998
 20
612.6752480353131
 30
0.0
 11
512.5
 21
612.6752480353129
 31
0.0
  0
TEXT
  5
C4B
330
1E
100
AcDbEntity
  8
TEXT
 62
     1
100
AcDbText
 10
546.2811195105019
 20
495.1569269926949
 30
0.0
 40
17.5
  1
DN100
 50
90.0
 41
0.8
  7
GREEKS
100
AcDbText
  0
HATCH
  5
C4C
330
1E
100
AcDbEntity
  8
SCHRAFF
100
AcDbHatch
 10
0.0
 20
0.0
 30
0.0
210
0.0
220
0.0
230
1.0
  2
_USER
 70
     0
 71
     0
 91
        1
 92
        7
 72
     0
 73
     1
 93
        4
 10
611.4999999999997
 20
495.6519801528748
 10
613.4999999999997
 20
495.0824078394019
 10
613.4999999999998
 20
556.1173892433032
 10
611.4999999999996
 20
555.5063201814932
 97
        0
 75
     0
 76
     0
 52
135.0
 41
2.0
 77
     0
 78
     1
 53
135.0
 43
0.0
 44
0.0
 45
-1.414213562373095
 46
-1.414213562373094
 79
     0
 47
0.1633444966796125
 98
        1
 10
612.283336625027
 20
538.2642763054368
  0
POLYLINE
  5
C4D
330
1E
100
AcDbEntity
  8
HILF
100
AcDb2dPolyline
 66
     1
 10
0.0
 20
0.0
 30
0.0
  0
VERTEX
  5
C4E
330
C4D
100
AcDbEntity
  8
HILF
100
AcDbVertex
100
AcDb2dVertex
 10
613.4999999999998
 20
495.0824078394019
 30
0.0
  0
VERTEX
  5
C4F
330
C4D
100
AcDbEntity
  8
HILF
100
AcDbVertex
100
AcDb2dVertex
 10
604.0186492843895
 20
497.7825652703711
 30
0.0
  0
VERTEX
  5
C50
330
C4D
100
AcDbEntity
  8
HILF
100
AcDbVertex
100
AcDb2dVertex
 10
593.9425667145395
 20
501.2814968769194
 30
0.0
  0
VERTEX
  5
C51
330
C4D
100
AcDbEntity
  8
HILF
100
AcDbVertex
100
AcDb2dVertex
 10
586.3877632687266
 20
504.6127035272636
 30
0.0
  0
VERTEX
  5
C52
330
C4D
100
AcDbEntity
  8
HILF
100
AcDbVertex
100
AcDb2dVertex
 10
580.9783200736005
 20
507.8041393716598
 30
0.0
  0
VERTEX
  5
C53
330
C4D
100
AcDbEntity
  8
HILF
100
AcDbVertex
100
AcDb2dVertex
 10
577.3383182558111
 20
510.8837585603635
 30
0.0
  0
VERTEX
  5
C54
330
C4D
100
AcDbEntity
  8
HILF
100
AcDbVertex
100
AcDb2dVertex
 10
575.0918389420079
 20
513.8795152436304
 30
0.0
  0
VERTEX
  5
C55
330
C4D
100
AcDbEntity
  8
HILF
100
AcDbVertex
100
AcDb2dVertex
 10
573.8629632588405
 20
516.8193635717162
 30
0.0
  0
VERTEX
  5
C56
330
C4D
100
AcDbEntity
  8
HILF
100
AcDbVertex
100
AcDb2dVertex
 10
573.275772332959
 20
519.731257694877
 30
0.0
  0
VERTEX
  5
C57
330
C4D
100
AcDbEntity
  8
HILF
100
AcDbVertex
100
AcDb2dVertex
 10
573.0196231258769
 20
522.6349984675501
 30
0.0
  0
VERTEX
  5
C58
330
C4D
100
AcDbEntity
  8
HILF
100
AcDbVertex
100
AcDb2dVertex
 10
573.0449759385646
 20
525.5177735609026
 30
0.0
  0
VERTEX
  5
C59
330
C4D
100
AcDbEntity
  8
HILF
100
AcDbVertex
100
AcDb2dVertex
 10
573.3675669068563
 20
528.358617350284
 30
0.0
  0
VERTEX
  5
C5A
330
C4D
100
AcDbEntity
  8
HILF
100
AcDbVertex
100
AcDb2dVertex
 10
574.0031321665866
 20
531.1365642110433
 30
0.0
  0
VERTEX
  5
C5B
330
C4D
100
AcDbEntity
  8
HILF
100
AcDbVertex
100
AcDb2dVertex
 10
574.9674078535897
 20
533.83064851853
 30
0.0
  0
VERTEX
  5
C5C
330
C4D
100
AcDbEntity
  8
HILF
100
AcDbVertex
100
AcDb2dVertex
 10
576.2761301037001
 20
536.419904648093
 30
0.0
  0
VERTEX
  5
C5D
330
C4D
100
AcDbEntity
  8
HILF
100
AcDbVertex
100
AcDb2dVertex
 10
577.9450350527521
 20
538.8833669750818
 30
0.0
  0
VERTEX
  5
C5E
330
C4D
100
AcDbEntity
  8
HILF
100
AcDbVertex
100
AcDb2dVertex
 10
579.9898588365801
 20
541.2000698748455
 30
0.0
  0
VERTEX
  5
C5F
330
C4D
100
AcDbEntity
  8
HILF
100
AcDbVertex
100
AcDb2dVertex
 10
582.4575184612343
 20
543.3653543212025
 30
0.0
  0
VERTEX
  5
C60
330
C4D
100
AcDbEntity
  8
HILF
100
AcDbVertex
100
AcDb2dVertex
 10
585.5196544136287
 20
545.4397876818481
 30
0.0
  0
VERTEX
  5
C61
330
C4D
100
AcDbEntity
  8
HILF
100
AcDbVertex
100
AcDb2dVertex
 10
589.3790880508928
 20
547.5002439229468
 30
0.0
  0
VERTEX
  5
C62
330
C4D
100
AcDbEntity
  8
HILF
100
AcDbVertex
100
AcDb2dVertex
 10
594.2386407301568
 20
549.6235970106631
 30
0.0
  0
VERTEX
  5
C63
330
C4D
100
AcDbEntity
  8
HILF
100
AcDbVertex
100
AcDb2dVertex
 10
600.30113380855
 20
551.8867209111611
 30
0.0
  0
VERTEX
  5
C64
330
C4D
100
AcDbEntity
  8
HILF
100
AcDbVertex
100
AcDb2dVertex
 10
607.7693886432025
 20
554.3664895906056
 30
0.0
  0
VERTEX
  5
C65
330
C4D
100
AcDbEntity
  8
HILF
100
AcDbVertex
100
AcDb2dVertex
 10
613.4999999999998
 20
556.1173892433032
 30
0.0
  0
SEQEND
  5
C66
330
C4D
100
AcDbEntity
  8
HILF
  0
DIMENSION
  5
C67
330
1E
100
AcDbEntity
  8
BEM
100
AcDbDimension
  2
*D8
 10
613.4999999999998
 20
525.1752480353129
 30
0.0
 11
660.6666666666663
 21
541.425248035313
 31
0.0
 70
    32
 71
     5
 42
2.0
  3
Standard
100
AcDbAlignedDimension
 13
611.4999999999997
 23
525.1752480353129
 33
0.0
 14
613.4999999999998
 24
525.1752480353129
 34
0.0
100
AcDbRotatedDimension
1001
ACAD
1000
DSTYLE
1002
{
1070
    40
1040
5.0
1070
    41
1040
3.5
1070
    42
1040
1.0
1070
    43
1040
7.0
1070
    44
1040
1.0
1070
    73
1070
     0
1070
    74
1070
     0
1070
    77
1070
     1
1070
    78
1070
     8
1070
    79
1070
     2
1070
   140
1040
3.5
1070
   141
1040
1.5
1070
   146
1040
0.5142857142857144
1070
   147
1040
1.5
1070
   172
1070
     1
1070
   178
1070
     1
1070
   179
1070
     2
1070
   271
1070
     2
1070
   272
1070
     2
1070
   284
1070
     8
1070
   285
1070
     8
1070
   286
1070
     8
1002
}
  0
LINE
  5
C68
330
1E
100
AcDbEntity
  8
STEMPEL
100
AcDbLine
 10
611.4999999999997
 20
555.5063201814932
 30
0.0
 11
611.4999999999997
 21
495.6519801528748
 31
0.0
  0
LINE
  5
C69
330
1E
100
AcDbEntity
  8
STEMPEL
100
AcDbLine
 10
511.4999999999997
 20
582.4753035600252
 30
0.0
 11
511.4999999999997
 21
472.675248035313
 31
0.0
  0
LINE
  5
C6A
330
1E
100
AcDbEntity
  8
STEMPEL
100
AcDbLine
 10
613.4999999999997
 20
582.4753035600271
 30
0.0
 11
613.4999999999998
 21
472.675248035313
 31
0.0
  0
LINE
  5
C6B
330
1E
100
AcDbEntity
  8
HILF
100
AcDbLine
 10
611.4980009105217
 20
582.675248035313
 30
0.0
 11
513.5019990894776
 21
582.675248035313
 31
0.0
  0
LINE
  5
D16
102
{ACAD_REACTORS
330
D77
330
DB1
102
}
330
1E
100
AcDbEntity
  8
STEMPEL
100
AcDbLine
 10
508.3499999999999
 20
1372.675248035313
 30
0.0
 11
616.6499999999999
 21
1372.675248035313
 31
0.0
  0
LINE
  5
D18
102
{ACAD_REACTORS
330
D77
330
DB1
102
}
330
1E
100
AcDbEntity
  8
STEMPEL
100
AcDbLine
 10
515.5
 20
1293.192574967604
 30
0.0
 11
515.5
 21
1281.454183766039
 31
0.0
  0
LINE
  5
D19
102
{ACAD_REACTORS
330
D77
330
DB1
102
}
330
1E
100
AcDbEntity
  8
STEMPEL
100
AcDbLine
 10
508.3499999999999
 20
1372.675248035313
 30
0.0
 11
508.3499999999999
 21
1309.083688836682
 31
0.0
  0
LINE
  5
D1A
102
{ACAD_REACTORS
330
D77
330
DB1
102
}
330
1E
100
AcDbEntity
  8
STEMPEL
100
AcDbLine
 10
511.3499999999999
 20
1372.675248035313
 30
0.0
 11
511.3499999999999
 21
1309.083688836682
 31
0.0
  0
ARC
  5
D1B
102
{ACAD_REACTORS
330
D77
330
DB1
102
}
330
1E
100
AcDbEntity
  8
STEMPEL
100
AcDbCircle
 10
525.8499999999998
 20
1309.083688836683
 30
0.0
 40
17.5
100
AcDbArc
 50
180.0
 51
209.2720742173046
  0
ARC
  5
D1C
102
{ACAD_REACTORS
330
D77
330
DB1
102
}
330
1E
100
AcDbEntity
  8
STEMPEL
100
AcDbCircle
 10
525.8499999999998
 20
1309.083688836683
 30
0.0
 40
14.5
100
AcDbArc
 50
180.0
 51
209.2720742173046
  0
ARC
  5
D1D
102
{ACAD_REACTORS
330
D77
330
DB1
102
}
330
1E
100
AcDbEntity
  8
STEMPEL
100
AcDbCircle
 10
497.5
 20
1293.192574967604
 30
0.0
 40
15.0
100
AcDbArc
 50
0.0
 51
29.27207421730461
  0
ARC
  5
D1E
102
{ACAD_REACTORS
330
D77
330
DB1
102
}
330
1E
100
AcDbEntity
  8
STEMPEL
100
AcDbCircle
 10
497.5
 20
1293.192574967604
 30
0.0
 40
18.0
100
AcDbArc
 50
0.0
 51
29.27207421730461
  0
LINE
  5
D1F
102
{ACAD_REACTORS
330
D77
330
DB1
102
}
330
1E
100
AcDbEntity
  8
STEMPEL
100
AcDbLine
 10
609.4999999999998
 20
1293.192574967604
 30
0.0
 11
609.4999999999999
 21
1280.407092353297
 31
0.0
  0
ARC
  5
D22
102
{ACAD_REACTORS
330
D77
330
DB1
102
}
330
1E
100
AcDbEntity
  8
STEMPEL
100
AcDbCircle
 10
599.15
 20
1309.083688836683
 30
0.0
 40
17.5
100
AcDbArc
 50
330.7279257826954
 51
0.0
  0
LINE
  5
D23
102
{ACAD_REACTORS
330
D77
330
DB1
102
}
330
1E
100
AcDbEntity
  8
STEMPEL
100
AcDbLine
 10
613.6499999999998
 20
1372.675248035313
 30
0.0
 11
613.6499999999999
 21
1309.083688836683
 31
0.0
  0
ARC
  5
D24
102
{ACAD_REACTORS
330
D77
330
DB1
102
}
330
1E
100
AcDbEntity
  8
STEMPEL
100
AcDbCircle
 10
599.15
 20
1309.083688836683
 30
0.0
 40
14.5
100
AcDbArc
 50
330.7279257826954
 51
0.0
  0
ARC
  5
D25
102
{ACAD_REACTORS
330
D77
330
DB1
102
}
330
1E
100
AcDbEntity
  8
STEMPEL
100
AcDbCircle
 10
627.5
 20
1293.192574967604
 30
0.0
 40
18.0
100
AcDbArc
 50
150.7279257826954
 51
180.0
  0
ARC
  5
D26
102
{ACAD_REACTORS
330
D77
330
DB1
102
}
330
1E
100
AcDbEntity
  8
STEMPEL
100
AcDbCircle
 10
627.5
 20
1293.192574967604
 30
0.0
 40
15.0
100
AcDbArc
 50
150.7279257826954
 51
180.0
  0
LINE
  5
D27
102
{ACAD_REACTORS
330
D77
330
DB1
102
}
330
1E
100
AcDbEntity
  8
STEMPEL
100
AcDbLine
 10
616.6499999999999
 20
1372.675248035313
 30
0.0
 11
616.65
 21
1309.083688836683
 31
0.0
  0
HATCH
  5
D77
330
1E
100
AcDbEntity
  8
SCHRAFF
100
AcDbHatch
 10
0.0
 20
0.0
 30
0.0
210
0.0
220
0.0
230
1.0
  2
_USER
 70
     0
 71
     1
 91
        2
 92
        7
 72
     1
 73
     1
 93
       10
 10
613.6499999999999
 20
1309.083688836683
 42
-0.1284226112238547
 10
611.7984615384612
 20
1301.993807264324
 42
0.128422611223836
 10
609.4999999999998
 20
1293.192574967604
 42
0.0
 10
609.5000000000001
 20
1280.407092353297
 42
0.0
 10
612.4999999999998
 20
1280.930638059668
 42
0.0
 10
612.4999999999998
 20
1293.192574967604
 42
-0.1284226112238594
 10
614.415384615385
 20
1300.526935214872
 42
0.1284226112238314
 10
616.65
 20
1309.083688836683
 42
0.0
 10
616.6499999999999
 20
1372.675248035313
 42
0.0
 10
613.6499999999998
 20
1372.675248035313
 42
0.0
 97
       10
330
D16
330
D23
330
D24
330
D25
330
D1F
330
A10
330
9D7
330
D26
330
D22
330
D27
 92
        7
 72
     1
 73
     1
 93
       10
 10
508.3499999999999
 20
1309.083688836682
 42
0.1284226112238397
 10
510.5846153846153
 20
1300.526935214871
 42
-0.1284226112238415
 10
512.5
 20
1293.192574967604
 42
0.0
 10
512.5
 20
1280.930638059668
 42
0.0
 10
515.5
 20
1281.45418376604
 42
0.0
 10
515.5
 20
1293.192574967604
 42
0.1284226112238401
 10
513.2015384615384
 20
1301.993807264325
 42
-0.1284226112238415
 10
511.3499999999999
 20
1309.083688836682
 42
0.0
 10
511.3499999999999
 20
1372.675248035313
 42
0.0
 10
508.3499999999999
 20
1372.675248035313
 42
0.0
 97
       10
330
D16
330
D19
330
D1B
330
D1D
330
9E7
330
A10
330
D18
330
D1E
330
D1C
330
D1A
 75
     0
 76
     0
 52
45.0
 41
2.0
 77
     0
 78
     1
 53
45.0
 43
0.0
 44
0.0
 45
-1.414213562373094
 46
1.414213562373095
 79
     0
 47
0.3354976127973458
 98
        2
 10
615.049202789768
 20
1362.495187307151
 10
509.6421302033059
 20
1361.824191783064
  0
DIMENSION
  5
D78
330
1E
100
AcDbEntity
  8
BEM
100
AcDbDimension
  2
*D9
 10
612.4999999999998
 20
1257.889704178331
 30
0.0
 11
659.6666666666664
 21
1274.139704178331
 31
0.0
 70
    32
  1
2
 71
     5
 42
2.999999999999772
  3
Standard
100
AcDbAlignedDimension
 13
609.4999999999999
 23
1280.407092353297
 33
0.0
 14
612.4999999999998
 24
1280.930638059668
 34
0.0
100
AcDbRotatedDimension
1001
ACAD
1000
DSTYLE
1002
{
1070
    40
1040
5.0
1070
    41
1040
3.5
1070
    42
1040
1.0
1070
    43
1040
7.0
1070
    44
1040
1.0
1070
    73
1070
     0
1070
    74
1070
     0
1070
    77
1070
     1
1070
    78
1070
     8
1070
    79
1070
     2
1070
   140
1040
3.5
1070
   141
1040
1.5
1070
   146
1040
0.5142857142857144
1070
   147
1040
1.5
1070
   172
1070
     1
1070
   178
1070
     1
1070
   179
1070
     2
1070
   271
1070
     2
1070
   272
1070
     2
1070
   284
1070
     8
1070
   285
1070
     8
1070
   286
1070
     8
1002
}
  0
LINE
  5
D92
330
1E
100
AcDbEntity
  8
HILF
100
AcDbLine
 10
606.998442835876
 20
1297.740778332248
 30
0.0
 11
518.0015571641239
 21
1297.740778332248
 31
0.0
  0
LINE
  5
D93
330
1E
100
AcDbEntity
  8
HILF
100
AcDbLine
 10
610.0507497977819
 20
1305.419858348497
 30
0.0
 11
514.9492502022179
 21
1305.419858348497
 31
0.0
  0
HATCH
  5
DB1
330
1E
100
AcDbEntity
  8
SCHRAFF
100
AcDbHatch
 10
0.0
 20
0.0
 30
0.0
210
0.0
220
0.0
230
1.0
  2
_USER
 70
     0
 71
     1
 91
        2
 92
        7
 72
     1
 73
     1
 93
       10
 10
613.6499999999999
 20
1309.083688836683
 42
-0.1284226112238547
 10
611.7984615384612
 20
1301.993807264324
 42
0.128422611223836
 10
609.4999999999998
 20
1293.192574967604
 42
0.0
 10
609.5000000000001
 20
1280.407092353297
 42
0.0
 10
612.4999999999998
 20
1280.930638059668
 42
0.0
 10
612.4999999999998
 20
1293.192574967604
 42
-0.1284226112238594
 10
614.415384615385
 20
1300.526935214872
 42
0.1284226112238314
 10
616.65
 20
1309.083688836683
 42
0.0
 10
616.6499999999999
 20
1372.675248035313
 42
0.0
 10
613.6499999999998
 20
1372.675248035313
 42
0.0
 97
       10
330
D16
330
D23
330
D24
330
D25
330
D1F
330
A10
330
9D7
330
D26
330
D22
330
D27
 92
        7
 72
     1
 73
     1
 93
       10
 10
511.3499999999998
 20
1372.675248035313
 42
0.0
 10
508.3499999999998
 20
1372.675248035313
 42
0.0
 10
508.3499999999999
 20
1309.083688836682
 42
0.1284226112238397
 10
510.5846153846153
 20
1300.526935214871
 42
-0.1284226112238415
 10
512.5
 20
1293.192574967604
 42
0.0
 10
512.5
 20
1280.930638059668
 42
0.0
 10
515.5
 20
1281.45418376604
 42
0.0
 10
515.5
 20
1293.192574967604
 42
0.1284226112238401
 10
513.2015384615384
 20
1301.993807264325
 42
-0.1284226112238415
 10
511.3499999999999
 20
1309.083688836682
 42
0.0
 97
       10
330
D16
330
D19
330
D1B
330
D1D
330
9E7
330
A10
330
D18
330
D1E
330
D1C
330
D1A
 75
     0
 76
     0
 52
45.0
 41
2.0
 77
     0
 78
     1
 53
45.0
 43
0.0
 44
0.0
 45
-1.414213562373094
 46
1.414213562373095
 79
     0
 47
0.3376295489617018
 98
        2
 10
614.9982432756496
 20
1330.688429652049
 10
509.934830551444
 20
1346.557016991882
  0
TEXT
  5
DC1
330
1E
100
AcDbEntity
  8
TEXT
 62
     1
100
AcDbText
 10
456.0198997056001
 20
344.5272546045359
 30
0.0
 40
17.5
  1
Werkstoff: SF-Cu DIN1754/1786
 41
0.8
  7
GREEKS
100
AcDbText
  0
ENDSEC
  0
SECTION
  2
OBJECTS
  0
DICTIONARY
  5
C
330
0
100
AcDbDictionary
281
     1
  3
ACAD_COLOR
350
DF
  3
ACAD_GROUP
350
D
  3
ACAD_LAYOUT
350
19
  3
ACAD_MATERIAL
350
DE
  3
ACAD_MLINESTYLE
350
16
  3
ACAD_PLOTSETTINGS
350
18
  3
ACAD_PLOTSTYLENAME
350
E
  3
AcDbVariableDictionary
350
EA
  0
DICTIONARY
  5
A0
330
1E
100
AcDbDictionary
280
     1
281
     1
  3
ACAD_LAYOUTSELFREF
360
D4
  0
DICTIONARY
  5
A2
330
1A
100
AcDbDictionary
280
     1
281
     1
  3
ACAD_LAYOUTSELFREF
360
D3
  0
DICTIONARY
  5
DF
102
{ACAD_REACTORS
330
C
102
}
330
C
100
AcDbDictionary
281
     1
  0
DICTIONARY
  5
D
102
{ACAD_REACTORS
330
C
102
}
330
C
100
AcDbDictionary
281
     1
  0
DICTIONARY
  5
19
102
{ACAD_REACTORS
330
C
102
}
330
C
100
AcDbDictionary
281
     1
  3
Layout1
350
1D
  3
Model
350
21
  0
DICTIONARY
  5
DE
102
{ACAD_REACTORS
330
C
102
}
330
C
100
AcDbDictionary
281
     1
  0
DICTIONARY
  5
16
102
{ACAD_REACTORS
330
C
102
}
330
C
100
AcDbDictionary
281
     1
  3
Standard
350
17
  0
DICTIONARY
  5
18
102
{ACAD_REACTORS
330
C
102
}
330
C
100
AcDbDictionary
281
     1
  0
ACDBDICTIONARYWDFLT
  5
E
102
{ACAD_REACTORS
330
C
102
}
330
C
100
AcDbDictionary
281
     1
  3
Normal
350
F
100
AcDbDictionaryWithDefault
340
F
  0
DICTIONARY
  5
EA
102
{ACAD_REACTORS
330
C
102
}
330
C
100
AcDbDictionary
281
     1
  3
DIMASSOC
350
EB
  3
PROJECTNAME
350
EC
  0
XRECORD
  5
D4
102
{ACAD_REACTORS
330
A0
102
}
330
A0
100
AcDbXrecord
280
     1
340
1E
  0
XRECORD
  5
D3
102
{ACAD_REACTORS
330
A2
102
}
330
A2
100
AcDbXrecord
280
     1
340
1A
  0
LAYOUT
  5
1D
102
{ACAD_REACTORS
330
19
102
}
330
19
100
AcDbPlotSettings
  1

  2
\\NT_WORK01\HP LaserJet 5000 PCL 6
  4

  6

 40
0.0
 41
0.0
 42
0.0
 43
0.0
 44
0.0
 45
0.0
 46
0.0
 47
0.0
 48
0.0
 49
0.0
140
0.0
141
0.0
142
1.0
143
1.0
 70
   688
 72
     0
 73
     0
 74
     5
  7

 75
    16
147
1.0
 76
     0
 77
     2
 78
   300
148
0.0
149
0.0
100
AcDbLayout
  1
Layout1
 70
     0
 71
     1
 10
0.0
 20
0.0
 11
12.0
 21
9.0
 12
0.0
 22
0.0
 32
0.0
 14
1.000000000000000E+20
 24
1.000000000000000E+20
 34
1.000000000000000E+20
 15
-1.000000000000000E+20
 25
-1.000000000000000E+20
 35
-1.000000000000000E+20
146
0.0
 13
0.0
 23
0.0
 33
0.0
 16
1.0
 26
0.0
 36
0.0
 17
0.0
 27
1.0
 37
0.0
 76
     0
330
1A
  0
LAYOUT
  5
21
102
{ACAD_REACTORS
330
19
102
}
330
19
100
AcDbPlotSettings
  1

  2
none_device
  4
Letter_(8.50_x_11.00_Inches)
  6

 40
6.349999904632568
 41
6.349999904632568
 42
6.350006103515625
 43
6.350006103515625
 44
215.8999938964844
 45
279.3999938964844
 46
0.0
 47
0.0
 48
0.0
 49
0.0
140
0.0
141
0.0
142
1.0
143
1.0
 70
 11952
 72
     0
 73
     1
 74
     0
  7

 75
     0
147
1.0
 76
     0
 77
     2
 78
   300
148
5752.241998716224
149
227.7419472637029
100
AcDbLayout
  1
Model
 70
     1
 71
     0
 10
0.0
 20
0.0
 11
12.0
 21
9.0
 12
0.0
 22
0.0
 32
0.0
 14
0.0
 24
0.0
 34
0.0
 15
0.0
 25
0.0
 35
0.0
146
0.0
 13
0.0
 23
0.0
 33
0.0
 16
1.0
 26
0.0
 36
0.0
 17
0.0
 27
1.0
 37
0.0
 76
     0
330
1E
  0
MLINESTYLE
  5
17
102
{ACAD_REACTORS
330
16
102
}
330
16
100
AcDbMlineStyle
  2
STANDARD
 70
     0
  3

 62
   256
 51
90.0
 52
90.0
 71
     2
 49
0.5
 62
   256
  6
BYLAYER
 49
-0.5
 62
   256
  6
BYLAYER
  0
ACDBPLACEHOLDER
  5
F
102
{ACAD_REACTORS
330
E
102
}
330
E
  0
DICTIONARYVAR
  5
EB
102
{ACAD_REACTORS
330
EA
102
}
330
EA
100
DictionaryVariables
280
     0
  1
1
  0
DICTIONARYVAR
  5
EC
102
{ACAD_REACTORS
330
EA
102
}
330
EA
100
DictionaryVariables
280
     0
  1

  0
ENDSEC
  0
EOF
