  0
SECTION
  2
HEADER
  9
$ACADVER
  1
AC1018
  9
$ACADMAINTVER
 70
     2
  9
$DWGCODEPAGE
  3
ANSI_1252
  9
$INSBASE
 10
0.0
 20
0.0
 30
0.0
  9
$EXTMIN
 10
-0.0159945904347296
 20
-0.0226209207553438
 30
-0.0000000000000053
  9
$EXTMAX
 10
1050.016032486267
 20
1485.022674516296
 30
0.0000000000000099
  9
$LIMMIN
 10
0.0
 20
0.0
  9
$LIMMAX
 10
1050.0
 20
1485.0
  9
$ORTHOMODE
 70
     0
  9
$REGENMODE
 70
     1
  9
$FILLMODE
 70
     1
  9
$QTEXTMODE
 70
     0
  9
$MIRRTEXT
 70
     1
  9
$LTSCALE
 40
50.0
  9
$ATTMODE
 70
     1
  9
$TEXTSIZE
 40
3.5
  9
$TRACEWID
 40
0.5
  9
$TEXTSTYLE
  7
STANDARD
  9
$CLAYER
  8
SCHRAFF
  9
$CELTYPE
  6
ByLayer
  9
$CECOLOR
 62
   256
  9
$CELTSCALE
 40
1.0
  9
$DISPSILH
 70
     0
  9
$DIMSCALE
 40
5.0
  9
$DIMASZ
 40
3.5
  9
$DIMEXO
 40
1.0
  9
$DIMDLI
 40
7.0
  9
$DIMRND
 40
0.0
  9
$DIMDLE
 40
0.0
  9
$DIMEXE
 40
1.0
  9
$DIMTP
 40
0.0
  9
$DIMTM
 40
0.0
  9
$DIMTXT
 40
3.5
  9
$DIMCEN
 40
1.5
  9
$DIMTSZ
 40
0.0
  9
$DIMTOL
 70
     0
  9
$DIMLIM
 70
     0
  9
$DIMTIH
 70
     0
  9
$DIMTOH
 70
     0
  9
$DIMSE1
 70
     0
  9
$DIMSE2
 70
     0
  9
$DIMTAD
 70
     1
  9
$DIMZIN
 70
     8
  9
$DIMBLK
  1

  9
$DIMASO
 70
     1
  9
$DIMSHO
 70
     0
  9
$DIMPOST
  1

  9
$DIMAPOST
  1

  9
$DIMALT
 70
     0
  9
$DIMALTD
 70
     2
  9
$DIMALTF
 40
25.4
  9
$DIMLFAC
 40
1.0
  9
$DIMTOFL
 70
     1
  9
$DIMTVP
 40
0.0
  9
$DIMTIX
 70
     0
  9
$DIMSOXD
 70
     0
  9
$DIMSAH
 70
     0
  9
$DIMBLK1
  1

  9
$DIMBLK2
  1

  9
$DIMSTYLE
  2
Standard
  9
$DIMCLRD
 70
     0
  9
$DIMCLRE
 70
     0
  9
$DIMCLRT
 70
     1
  9
$DIMTFAC
 40
0.5142857142857144
  9
$DIMGAP
 40
1.5
  9
$DIMJUST
 70
     0
  9
$DIMSD1
 70
     0
  9
$DIMSD2
 70
     0
  9
$DIMTOLJ
 70
     1
  9
$DIMTZIN
 70
     8
  9
$DIMALTZ
 70
     8
  9
$DIMALTTZ
 70
     8
  9
$DIMUPT
 70
     0
  9
$DIMDEC
 70
     2
  9
$DIMTDEC
 70
     2
  9
$DIMALTU
 70
     2
  9
$DIMALTTD
 70
     2
  9
$DIMTXSTY
  7
STANDARD
  9
$DIMAUNIT
 70
     0
  9
$DIMADEC
 70
     2
  9
$DIMALTRND
 40
0.0
  9
$DIMAZIN
 70
     2
  9
$DIMDSEP
 70
    46
  9
$DIMATFIT
 70
     3
  9
$DIMFRAC
 70
     0
  9
$DIMLDRBLK
  1

  9
$DIMLUNIT
 70
     2
  9
$DIMLWD
 70
    -2
  9
$DIMLWE
 70
    -2
  9
$DIMTMOVE
 70
     0
  9
$LUNITS
 70
     2
  9
$LUPREC
 70
     2
  9
$SKETCHINC
 40
1.0
  9
$FILLETRAD
 40
0.0
  9
$AUNITS
 70
     0
  9
$AUPREC
 70
     0
  9
$MENU
  1
ACAD
  9
$ELEVATION
 40
0.0
  9
$PELEVATION
 40
0.0
  9
$THICKNESS
 40
0.0
  9
$LIMCHECK
 70
     0
  9
$CHAMFERA
 40
0.0
  9
$CHAMFERB
 40
0.0
  9
$CHAMFERC
 40
0.0
  9
$CHAMFERD
 40
0.0
  9
$SKPOLY
 70
     0
  9
$TDCREATE
 40
2455397.864709028
  9
$TDUCREATE
 40
2455397.781375695
  9
$TDUPDATE
 40
2455455.337996748
  9
$TDUUPDATE
 40
2455455.254663414
  9
$TDINDWG
 40
0.0973420602
  9
$TDUSRTIMER
 40
0.0973420602
  9
$USRTIMER
 70
     1
  9
$ANGBASE
 50
0.0
  9
$ANGDIR
 70
     0
  9
$PDMODE
 70
     0
  9
$PDSIZE
 40
0.0
  9
$PLINEWID
 40
0.0
  9
$SPLFRAME
 70
     0
  9
$SPLINETYPE
 70
     6
  9
$SPLINESEGS
 70
     8
  9
$HANDSEED
  5
95B
  9
$SURFTAB1
 70
     6
  9
$SURFTAB2
 70
     6
  9
$SURFTYPE
 70
     6
  9
$SURFU
 70
     6
  9
$SURFV
 70
     6
  9
$UCSBASE
  2

  9
$UCSNAME
  2

  9
$UCSORG
 10
0.0
 20
0.0
 30
0.0
  9
$UCSXDIR
 10
1.0
 20
0.0
 30
0.0
  9
$UCSYDIR
 10
0.0
 20
1.0
 30
0.0
  9
$UCSORTHOREF
  2

  9
$UCSORTHOVIEW
 70
     0
  9
$UCSORGTOP
 10
0.0
 20
0.0
 30
0.0
  9
$UCSORGBOTTOM
 10
0.0
 20
0.0
 30
0.0
  9
$UCSORGLEFT
 10
0.0
 20
0.0
 30
0.0
  9
$UCSORGRIGHT
 10
0.0
 20
0.0
 30
0.0
  9
$UCSORGFRONT
 10
0.0
 20
0.0
 30
0.0
  9
$UCSORGBACK
 10
0.0
 20
0.0
 30
0.0
  9
$PUCSBASE
  2

  9
$PUCSNAME
  2

  9
$PUCSORG
 10
0.0
 20
0.0
 30
0.0
  9
$PUCSXDIR
 10
1.0
 20
0.0
 30
0.0
  9
$PUCSYDIR
 10
0.0
 20
1.0
 30
0.0
  9
$PUCSORTHOREF
  2

  9
$PUCSORTHOVIEW
 70
     0
  9
$PUCSORGTOP
 10
0.0
 20
0.0
 30
0.0
  9
$PUCSORGBOTTOM
 10
0.0
 20
0.0
 30
0.0
  9
$PUCSORGLEFT
 10
0.0
 20
0.0
 30
0.0
  9
$PUCSORGRIGHT
 10
0.0
 20
0.0
 30
0.0
  9
$PUCSORGFRONT
 10
0.0
 20
0.0
 30
0.0
  9
$PUCSORGBACK
 10
0.0
 20
0.0
 30
0.0
  9
$USERI1
 70
     0
  9
$USERI2
 70
     0
  9
$USERI3
 70
     0
  9
$USERI4
 70
     0
  9
$USERI5
 70
     0
  9
$USERR1
 40
0.0
  9
$USERR2
 40
0.0
  9
$USERR3
 40
0.0
  9
$USERR4
 40
0.0
  9
$USERR5
 40
0.0
  9
$WORLDVIEW
 70
     1
  9
$SHADEDGE
 70
     3
  9
$SHADEDIF
 70
    70
  9
$TILEMODE
 70
     1
  9
$MAXACTVP
 70
    16
  9
$PINSBASE
 10
0.0
 20
0.0
 30
0.0
  9
$PLIMCHECK
 70
     0
  9
$PEXTMIN
 10
1.000000000000000E+20
 20
1.000000000000000E+20
 30
1.000000000000000E+20
  9
$PEXTMAX
 10
-1.000000000000000E+20
 20
-1.000000000000000E+20
 30
-1.000000000000000E+20
  9
$PLIMMIN
 10
0.0
 20
0.0
  9
$PLIMMAX
 10
12.0
 20
9.0
  9
$UNITMODE
 70
     0
  9
$VISRETAIN
 70
     0
  9
$PLINEGEN
 70
     0
  9
$PSLTSCALE
 70
     0
  9
$TREEDEPTH
 70
  3020
  9
$CMLSTYLE
  2
Standard
  9
$CMLJUST
 70
     0
  9
$CMLSCALE
 40
1.0
  9
$PROXYGRAPHICS
 70
     1
  9
$MEASUREMENT
 70
     0
  9
$CELWEIGHT
370
    -1
  9
$ENDCAPS
280
     0
  9
$JOINSTYLE
280
     0
  9
$LWDISPLAY
290
     0
  9
$INSUNITS
 70
     0
  9
$HYPERLINKBASE
  1

  9
$STYLESHEET
  1
monochrome1.ctb
  9
$XEDIT
290
     1
  9
$CEPSNTYPE
380
     0
  9
$PSTYLEMODE
290
     1
  9
$FINGERPRINTGUID
  2
{D68B0D02-A558-11D7-B632-000102183313}
  9
$VERSIONGUID
  2
{877C9938-FB51-43E3-A9B1-5BA513E18A93}
  9
$EXTNAMES
290
     1
  9
$PSVPSCALE
 40
0.0
  9
$OLESTARTUP
290
     0
  9
$SORTENTS
280
   127
  9
$INDEXCTL
280
     0
  9
$HIDETEXT
280
     0
  9
$XCLIPFRAME
290
     0
  9
$HALOGAP
280
     0
  9
$OBSCOLOR
 70
   257
  9
$OBSLTYPE
280
     0
  9
$INTERSECTIONDISPLAY
280
     0
  9
$INTERSECTIONCOLOR
 70
   257
  9
$DIMASSOC
280
     1
  9
$PROJECTNAME
  1

  0
ENDSEC
  0
SECTION
  2
CLASSES
  0
CLASS
  1
ACDBDICTIONARYWDFLT
  2
AcDbDictionaryWithDefault
  3
ObjectDBX Classes
 90
        0
 91
        1
280
     0
281
     0
  0
CLASS
  1
DICTIONARYVAR
  2
AcDbDictionaryVar
  3
ObjectDBX Classes
 90
        0
 91
        2
280
     0
281
     0
  0
ENDSEC
  0
SECTION
  2
TABLES
  0
TABLE
  2
VPORT
  5
8
330
0
100
AcDbSymbolTable
 70
     2
  0
VPORT
  5
95A
330
8
100
AcDbSymbolTableRecord
100
AcDbViewportTableRecord
  2
*Active
 70
     0
 10
0.0
 20
0.0
 11
1.0
 21
1.0
 12
525.0000189479163
 22
742.5000267977702
 13
0.0
 23
0.0
 14
1.0
 24
1.0
 15
10.0
 25
10.0
 16
0.0
 26
0.0
 36
1.0
 17
0.0
 27
0.0
 37
0.0
 40
1497.037585844349
 41
1.336927223719676
 42
50.0
 43
0.0
 44
0.0
 50
0.0
 51
0.0
 71
     0
 72
  1500
 73
     1
 74
     0
 75
     0
 76
     0
 77
     0
 78
     0
281
     0
 65
     1
110
0.0
120
0.0
130
0.0
111
1.0
121
0.0
131
0.0
112
0.0
122
1.0
132
0.0
 79
     0
146
0.0
  0
ENDTAB
  0
TABLE
  2
LTYPE
  5
5
330
0
100
AcDbSymbolTable
 70
     2
  0
LTYPE
  5
13
330
5
100
AcDbSymbolTableRecord
100
AcDbLinetypeTableRecord
  2
ByBlock
 70
     0
  3

 72
    65
 73
     0
 40
0.0
  0
LTYPE
  5
14
330
5
100
AcDbSymbolTableRecord
100
AcDbLinetypeTableRecord
  2
ByLayer
 70
     0
  3

 72
    65
 73
     0
 40
0.0
  0
LTYPE
  5
15
330
5
100
AcDbSymbolTableRecord
100
AcDbLinetypeTableRecord
  2
Continuous
 70
     0
  3
Solid line
 72
    65
 73
     0
 40
0.0
  0
LTYPE
  5
25
330
5
100
AcDbSymbolTableRecord
100
AcDbLinetypeTableRecord
  2
STRICHPUNKT
 70
     0
  3
__ . __ . __ . __ . __ . __ . __ . __ . __ . __
 72
    65
 73
     4
 40
1.0
 49
0.5
 74
     0
 49
-0.25
 74
     0
 49
0.0
 74
     0
 49
-0.25
 74
     0
  0
ENDTAB
  0
TABLE
  2
LAYER
  5
2
330
0
100
AcDbSymbolTable
 70
     9
  0
LAYER
  5
10
330
2
100
AcDbSymbolTableRecord
100
AcDbLayerTableRecord
  2
0
 70
     0
 62
     7
  6
Continuous
370
    -3
390
F
  0
LAYER
  5
2A
330
2
100
AcDbSymbolTableRecord
100
AcDbLayerTableRecord
  2
VOLL
 70
     0
 62
     1
  6
Continuous
370
    -3
390
F
  0
LAYER
  5
2B
330
2
100
AcDbSymbolTableRecord
100
AcDbLayerTableRecord
  2
HILF
 70
     0
 62
     2
  6
Continuous
370
    -3
390
F
  0
LAYER
  5
2C
330
2
100
AcDbSymbolTableRecord
100
AcDbLayerTableRecord
  2
MITTEL
 70
     0
 62
     2
  6
STRICHPUNKT
370
    -3
390
F
  0
LAYER
  5
2F
330
2
100
AcDbSymbolTableRecord
100
AcDbLayerTableRecord
  2
BEM
 70
     0
 62
     7
  6
Continuous
370
    -3
390
F
  0
LAYER
  5
30
330
2
100
AcDbSymbolTableRecord
100
AcDbLayerTableRecord
  2
STEMPEL
 70
     0
 62
     3
  6
Continuous
370
    -3
390
F
  0
LAYER
  5
31
330
2
100
AcDbSymbolTableRecord
100
AcDbLayerTableRecord
  2
TEXT
 70
     0
 62
     7
  6
Continuous
370
    -3
390
F
  0
LAYER
  5
284
330
2
100
AcDbSymbolTableRecord
100
AcDbLayerTableRecord
  2
SCHRAFF
 70
     0
 62
     7
  6
Continuous
370
    -3
390
F
  0
LAYER
  5
285
330
2
100
AcDbSymbolTableRecord
100
AcDbLayerTableRecord
  2
DEFPOINTS
 70
     0
 62
     7
  6
Continuous
290
     0
370
    -3
390
F
  0
ENDTAB
  0
TABLE
  2
STYLE
  5
3
330
0
100
AcDbSymbolTable
 70
     2
  0
STYLE
  5
11
330
3
100
AcDbSymbolTableRecord
100
AcDbTextStyleTableRecord
  2
STANDARD
 70
     0
 40
0.0
 41
0.8
 50
0.0
 71
     0
 42
3.5
  3
simplex.shx
  4

  0
STYLE
  5
24
330
3
100
AcDbSymbolTableRecord
100
AcDbTextStyleTableRecord
  2
GREEKS
 70
     0
 40
0.0
 41
0.8
 50
0.0
 71
     0
 42
2.5
  3
SIMPLEX.shx
  4

  0
ENDTAB
  0
TABLE
  2
VIEW
  5
6
330
0
100
AcDbSymbolTable
 70
     0
  0
ENDTAB
  0
TABLE
  2
UCS
  5
7
330
0
100
AcDbSymbolTable
 70
     0
  0
ENDTAB
  0
TABLE
  2
APPID
  5
9
330
0
100
AcDbSymbolTable
 70
     1
  0
APPID
  5
12
330
9
100
AcDbSymbolTableRecord
100
AcDbRegAppTableRecord
  2
ACAD
 70
     0
  0
ENDTAB
  0
TABLE
  2
DIMSTYLE
  5
A
330
0
100
AcDbSymbolTable
 70
     1
100
AcDbDimStyleTable
 71
     1
340
9D
  0
DIMSTYLE
105
9D
102
{ACAD_REACTORS
330
354
330
353
330
352
330
345
330
752
330
8B1
330
8BB
102
}
330
A
100
AcDbSymbolTableRecord
100
AcDbDimStyleTableRecord
  2
Standard
 70
     0
340
11
  0
ENDTAB
  0
TABLE
  2
BLOCK_RECORD
  5
1
330
0
100
AcDbSymbolTable
 70
     8
  0
BLOCK_RECORD
  5
1E
102
{ACAD_XDICTIONARY
360
A0
102
}
330
1
100
AcDbSymbolTableRecord
100
AcDbBlockTableRecord
  2
*Model_Space
340
21
  0
BLOCK_RECORD
  5
1A
102
{ACAD_XDICTIONARY
360
A2
102
}
330
1
100
AcDbSymbolTableRecord
100
AcDbBlockTableRecord
  2
*Paper_Space
340
1D
  0
BLOCK_RECORD
  5
22
330
1
100
AcDbSymbolTableRecord
100
AcDbBlockTableRecord
  2
LOGO
340
0
102
{BLKREFS
331
9B
102
}
  0
BLOCK_RECORD
  5
397
330
1
100
AcDbSymbolTableRecord
100
AcDbBlockTableRecord
  2
*D1
340
0
  0
BLOCK_RECORD
  5
3A4
330
1
100
AcDbSymbolTableRecord
100
AcDbBlockTableRecord
  2
*D2
340
0
  0
BLOCK_RECORD
  5
3B1
330
1
100
AcDbSymbolTableRecord
100
AcDbBlockTableRecord
  2
*D3
340
0
  0
BLOCK_RECORD
  5
3BE
330
1
100
AcDbSymbolTableRecord
100
AcDbBlockTableRecord
  2
*D4
340
0
  0
BLOCK_RECORD
  5
753
330
1
100
AcDbSymbolTableRecord
100
AcDbBlockTableRecord
  2
*D5
340
0
  0
BLOCK_RECORD
  5
8E4
330
1
100
AcDbSymbolTableRecord
100
AcDbBlockTableRecord
  2
*D6
340
0
  0
BLOCK_RECORD
  5
8F0
330
1
100
AcDbSymbolTableRecord
100
AcDbBlockTableRecord
  2
*D7
340
0
  0
ENDTAB
  0
ENDSEC
  0
SECTION
  2
BLOCKS
  0
BLOCK
  5
35
330
1E
100
AcDbEntity
  8
0
100
AcDbBlockBegin
  2
*Model_Space
 70
     0
 10
0.0
 20
0.0
 30
0.0
  3
*Model_Space
  1

  0
ENDBLK
  5
36
330
1E
100
AcDbEntity
  8
0
100
AcDbBlockEnd
  0
BLOCK
  5
33
330
1A
100
AcDbEntity
 67
     1
  8
0
100
AcDbBlockBegin
  2
*Paper_Space
 70
     0
 10
0.0
 20
0.0
 30
0.0
  3
*Paper_Space
  1

  0
ENDBLK
  5
34
330
1A
100
AcDbEntity
 67
     1
  8
0
100
AcDbBlockEnd
  0
BLOCK
  5
37
330
22
100
AcDbEntity
  8
0
100
AcDbBlockBegin
  2
LOGO
 70
     0
 10
0.0
 20
0.0
 30
0.0
  3
LOGO
  1

  0
ARC
  5
38
330
22
100
AcDbEntity
  8
0
100
AcDbCircle
 10
11.59973089678112
 20
-9.271599258481501
 30
0.0
 40
4.5
100
AcDbArc
 50
270.0
 51
231.0575587310159
  0
LINE
  5
39
330
22
100
AcDbEntity
  8
0
100
AcDbLine
 10
3.599730896781125
 20
-4.771599258481529
 30
0.0
 11
3.599730896781153
 21
-11.77159925848133
 31
0.0
  0
LINE
  5
3A
330
22
100
AcDbEntity
  8
0
100
AcDbLine
 10
2.599730896781125
 20
-4.771599258481529
 30
0.0
 11
2.599730896781153
 21
-11.77159925848133
 31
0.0
  0
CIRCLE
  5
3B
330
22
100
AcDbEntity
  8
0
100
AcDbCircle
 10
11.59973089678112
 20
-9.271599258481501
 30
0.0
 40
3.5
  0
ARC
  5
3C
330
22
100
AcDbEntity
  8
0
100
AcDbCircle
 10
31.59973089678115
 20
-9.271599258481472
 30
0.0
 40
4.5
100
AcDbArc
 50
270.0
 51
231.0575587310182
  0
LINE
  5
3D
330
22
100
AcDbEntity
  8
0
100
AcDbLine
 10
17.59973089678112
 20
-4.771599258481472
 30
0.0
 11
17.59973089678115
 21
-13.77159925848147
 31
0.0
  0
ARC
  5
3E
330
22
100
AcDbEntity
  8
0
100
AcDbCircle
 10
22.59973089678116
 20
-7.271599258481472
 30
0.0
 40
2.5
100
AcDbArc
 50
293.1161887722295
 51
90.0
  0
CIRCLE
  5
3F
330
22
100
AcDbEntity
  8
0
100
AcDbCircle
 10
31.59973089678115
 20
-9.271599258481472
 30
0.0
 40
3.5
  0
ARC
  5
40
330
22
100
AcDbEntity
  8
0
100
AcDbCircle
 10
4.599730896781153
 20
-11.77159925848133
 30
0.0
 40
1.0
100
AcDbArc
 50
180.0
 51
270.0
  0
ARC
  5
41
330
22
100
AcDbEntity
  8
0
100
AcDbCircle
 10
4.599730896781153
 20
-11.77159925848133
 30
0.0
 40
2.0
100
AcDbArc
 50
179.9999999999992
 51
270.0
  0
LINE
  5
42
330
22
100
AcDbEntity
  8
0
100
AcDbLine
 10
11.59973089678115
 20
-13.77159925848144
 30
0.0
 11
4.599730896781153
 21
-13.77159925848147
 31
0.0
  0
LINE
  5
43
330
22
100
AcDbEntity
  8
0
100
AcDbLine
 10
8.771303772034769
 20
-12.77159925848136
 30
0.0
 11
4.599730896781153
 21
-12.77159925848133
 31
0.0
  0
LINE
  5
44
330
22
100
AcDbEntity
  8
0
100
AcDbLine
 10
31.59973089678115
 20
-13.77159925848147
 30
0.0
 11
23.6715276665056
 21
-13.77159925848144
 31
0.0
  0
LINE
  5
45
330
22
100
AcDbEntity
  8
0
100
AcDbLine
 10
23.56565672307022
 20
-9.51278021337896
 30
0.0
 11
24.4388546544846
 21
-12.77159925848144
 31
0.0
  0
LINE
  5
46
330
22
100
AcDbEntity
  8
0
100
AcDbLine
 10
22.59973089678116
 20
-9.771599258481472
 30
0.0
 11
18.59973089678112
 21
-9.771599258481472
 31
0.0
  0
LINE
  5
47
330
22
100
AcDbEntity
  8
0
100
AcDbLine
 10
18.59973089678115
 20
-13.77159925848144
 30
0.0
 11
17.59973089678115
 21
-13.77159925848144
 31
0.0
  0
LINE
  5
48
330
22
100
AcDbEntity
  8
0
100
AcDbLine
 10
18.59973089678115
 20
-9.771599258481472
 30
0.0
 11
18.59973089678115
 21
-13.77159925848144
 31
0.0
  0
LINE
  5
49
330
22
100
AcDbEntity
  8
0
100
AcDbLine
 10
22.59973089678116
 20
-9.771599258481472
 30
0.0
 11
23.67152766650562
 21
-13.77159925848147
 31
0.0
  0
ARC
  5
4A
330
22
100
AcDbEntity
  8
0
100
AcDbCircle
 10
22.59973089678116
 20
-7.271599258481472
 30
0.0
 40
2.5
100
AcDbArc
 50
270.0
 51
270.0000000000007
  0
LINE
  5
4B
330
22
100
AcDbEntity
  8
0
100
AcDbLine
 10
28.77130377203494
 20
-12.77159925848147
 30
0.0
 11
24.43885465448463
 21
-12.77159925848144
 31
0.0
  0
LINE
  5
4C
330
22
100
AcDbEntity
  8
0
100
AcDbLine
 10
3.599730896781125
 20
-4.771599258481472
 30
0.0
 11
2.599730896781125
 21
-4.771599258481472
 31
0.0
  0
LINE
  5
4D
330
22
100
AcDbEntity
  8
0
100
AcDbLine
 10
22.59973089678116
 20
-8.771599258481472
 30
0.0
 11
18.59973089678115
 21
-8.771599258481472
 31
0.0
  0
LINE
  5
4E
330
22
100
AcDbEntity
  8
0
100
AcDbLine
 10
22.59973089678116
 20
-5.771599258481472
 30
0.0
 11
18.59973089678115
 21
-5.771599258481472
 31
0.0
  0
LINE
  5
4F
330
22
100
AcDbEntity
  8
0
100
AcDbLine
 10
22.59973089678116
 20
-4.771599258481472
 30
0.0
 11
17.59973089678115
 21
-4.771599258481472
 31
0.0
  0
LINE
  5
50
330
22
100
AcDbEntity
  8
0
100
AcDbLine
 10
18.59973089678115
 20
-5.771599258481472
 30
0.0
 11
18.59973089678115
 21
-8.771599258481472
 31
0.0
  0
ARC
  5
51
330
22
100
AcDbEntity
  8
0
100
AcDbCircle
 10
22.59973089678116
 20
-7.271599258481472
 30
0.0
 40
1.5
100
AcDbArc
 50
270.0
 51
90.0
  0
ENDBLK
  5
52
330
22
100
AcDbEntity
  8
0
100
AcDbBlockEnd
  0
BLOCK
  5
3A2
330
397
100
AcDbEntity
  8
0
100
AcDbBlockBegin
  2
*D1
 70
     1
 10
0.0
 20
0.0
 30
0.0
  3
*D1
  1

  0
LINE
  5
94D
330
397
100
AcDbEntity
  8
BEM
 62
     0
370
    -2
100
AcDbLine
 10
506.4999999999997
 20
472.675248035313
 30
0.0
 11
435.6473818875691
 21
472.675248035313
 31
0.0
  0
LINE
  5
94E
330
397
100
AcDbEntity
  8
BEM
 62
     0
370
    -2
100
AcDbLine
 10
513.5000000000001
 20
1372.675248035313
 30
0.0
 11
435.6473818875693
 21
1372.675248035313
 31
0.0
  0
LINE
  5
94F
330
397
100
AcDbEntity
  8
BEM
 62
     0
370
    -2
100
AcDbLine
 10
440.6473818875691
 20
490.1752480353129
 30
0.0
 11
440.6473818875693
 21
1355.175248035313
 31
0.0
  0
SOLID
  5
950
330
397
100
AcDbEntity
  8
BEM
 62
     0
100
AcDbTrace
 10
437.7307152209024
 20
490.1752480353129
 30
0.0
 11
443.5640485542358
 21
490.1752480353129
 31
0.0
 12
440.6473818875691
 22
472.675248035313
 32
0.0
 13
440.6473818875691
 23
472.675248035313
 33
0.0
  0
SOLID
  5
951
330
397
100
AcDbEntity
  8
BEM
 62
     0
100
AcDbTrace
 10
437.7307152209026
 20
1355.175248035313
 30
0.0
 11
443.564048554236
 21
1355.175248035313
 31
0.0
 12
440.6473818875693
 22
1372.675248035313
 32
0.0
 13
440.6473818875693
 23
1372.675248035313
 33
0.0
  0
MTEXT
  5
952
330
397
100
AcDbEntity
  8
BEM
 62
     1
100
AcDbMText
 10
424.3973818875691
 20
922.6752480353132
 30
0.0
 40
17.5
 41
0.0
 71
     5
 72
     1
  1
\A1;1000
 11
0.0000000000000001
 21
1.0
 31
0.0
 73
     1
 44
1.0
  0
POINT
  5
953
330
397
100
AcDbEntity
  8
DEFPOINTS
 62
     0
100
AcDbPoint
 10
511.4999999999997
 20
472.675248035313
 30
0.0
  0
POINT
  5
954
330
397
100
AcDbEntity
  8
DEFPOINTS
 62
     0
100
AcDbPoint
 10
518.5000000000001
 20
1372.675248035313
 30
0.0
  0
POINT
  5
955
330
397
100
AcDbEntity
  8
DEFPOINTS
 62
     0
100
AcDbPoint
 10
440.6473818875693
 20
1372.675248035313
 30
0.0
  0
ENDBLK
  5
3A3
330
397
100
AcDbEntity
  8
0
100
AcDbBlockEnd
  0
BLOCK
  5
3AF
330
3A4
100
AcDbEntity
  8
0
100
AcDbBlockBegin
  2
*D2
 70
     1
 10
0.0
 20
0.0
 30
0.0
  3
*D2
  1

  0
LINE
  5
7BC
330
3A4
100
AcDbEntity
  8
BEM
 62
     0
370
    -2
100
AcDbLine
 10
522.4999999999998
 20
698.6947442806776
 30
0.0
 11
522.4999999999998
 21
655.2403640941342
 31
0.0
  0
LINE
  5
7BD
330
3A4
100
AcDbEntity
  8
BEM
 62
     0
370
    -2
100
AcDbLine
 10
602.4999999999997
 20
698.6947442806775
 30
0.0
 11
602.4999999999997
 21
655.2403640941342
 31
0.0
  0
LINE
  5
7BE
330
3A4
100
AcDbEntity
  8
BEM
 62
     0
370
    -2
100
AcDbLine
 10
539.9999999999998
 20
660.2403640941343
 30
0.0
 11
584.9999999999997
 21
660.2403640941343
 31
0.0
  0
SOLID
  5
7BF
330
3A4
100
AcDbEntity
  8
BEM
 62
     0
100
AcDbTrace
 10
539.9999999999998
 20
663.1570307608009
 30
0.0
 11
539.9999999999998
 21
657.3236974274676
 31
0.0
 12
522.4999999999998
 22
660.2403640941343
 32
0.0
 13
522.4999999999998
 23
660.2403640941343
 33
0.0
  0
SOLID
  5
7C0
330
3A4
100
AcDbEntity
  8
BEM
 62
     0
100
AcDbTrace
 10
584.9999999999997
 20
663.1570307608009
 30
0.0
 11
584.9999999999997
 21
657.3236974274676
 31
0.0
 12
602.4999999999997
 22
660.2403640941343
 32
0.0
 13
602.4999999999997
 23
660.2403640941343
 33
0.0
  0
MTEXT
  5
7C1
330
3A4
100
AcDbEntity
  8
BEM
 62
     1
100
AcDbMText
 10
573.1959626551264
 20
676.4903640941342
 30
0.0
 40
17.5
 41
0.0
 71
     5
 72
     1
  1
\A1;80
 73
     1
 44
1.0
  0
POINT
  5
7C2
330
3A4
100
AcDbEntity
  8
DEFPOINTS
 62
     0
100
AcDbPoint
 10
522.4999999999998
 20
703.6947442806777
 30
0.0
  0
POINT
  5
7C3
330
3A4
100
AcDbEntity
  8
DEFPOINTS
 62
     0
100
AcDbPoint
 10
602.4999999999997
 20
703.6947442806774
 30
0.0
  0
POINT
  5
7C4
330
3A4
100
AcDbEntity
  8
DEFPOINTS
 62
     0
100
AcDbPoint
 10
602.4999999999997
 20
660.2403640941343
 30
0.0
  0
ENDBLK
  5
3B0
330
3A4
100
AcDbEntity
  8
0
100
AcDbBlockEnd
  0
BLOCK
  5
3BC
330
3B1
100
AcDbEntity
  8
0
100
AcDbBlockBegin
  2
*D3
 70
     1
 10
0.0
 20
0.0
 30
0.0
  3
*D3
  1

  0
LINE
  5
573
330
3B1
100
AcDbEntity
  8
BEM
 62
     0
370
    -2
100
AcDbLine
 10
513.5000000000001
 20
1372.675248035313
 30
0.0
 11
476.0576034359496
 21
1372.675248035313
 31
0.0
  0
LINE
  5
574
330
3B1
100
AcDbEntity
  8
BEM
 62
     0
370
    -2
100
AcDbLine
 10
514.3244359626821
 20
1312.675248035313
 30
0.0
 11
476.0576034359496
 21
1312.675248035313
 31
0.0
  0
LINE
  5
575
330
3B1
100
AcDbEntity
  8
BEM
 62
     0
370
    -2
100
AcDbLine
 10
481.0576034359496
 20
1355.175248035313
 30
0.0
 11
481.0576034359496
 21
1330.175248035313
 31
0.0
  0
SOLID
  5
576
330
3B1
100
AcDbEntity
  8
BEM
 62
     0
100
AcDbTrace
 10
478.1409367692829
 20
1355.175248035313
 30
0.0
 11
483.9742701026163
 21
1355.175248035313
 31
0.0
 12
481.0576034359496
 22
1372.675248035313
 32
0.0
 13
481.0576034359496
 23
1372.675248035313
 33
0.0
  0
SOLID
  5
577
330
3B1
100
AcDbEntity
  8
BEM
 62
     0
100
AcDbTrace
 10
478.1409367692829
 20
1330.175248035313
 30
0.0
 11
483.9742701026163
 21
1330.175248035313
 31
0.0
 12
481.0576034359496
 22
1312.675248035313
 32
0.0
 13
481.0576034359496
 23
1312.675248035313
 33
0.0
  0
MTEXT
  5
578
330
3B1
100
AcDbEntity
  8
BEM
 62
     1
100
AcDbMText
 10
464.8076034359494
 20
1342.675248035313
 30
0.0
 40
17.5
 41
0.0
 71
     5
 72
     1
  1
\A1;60
 11
0.0000000000000001
 21
1.0
 31
0.0
 73
     1
 44
1.0
  0
POINT
  5
579
330
3B1
100
AcDbEntity
  8
DEFPOINTS
 62
     0
100
AcDbPoint
 10
518.5000000000001
 20
1372.675248035313
 30
0.0
  0
POINT
  5
57A
330
3B1
100
AcDbEntity
  8
DEFPOINTS
 62
     0
100
AcDbPoint
 10
519.3244359626821
 20
1312.675248035313
 30
0.0
  0
POINT
  5
57B
330
3B1
100
AcDbEntity
  8
DEFPOINTS
 62
     0
100
AcDbPoint
 10
481.0576034359496
 20
1312.675248035313
 30
0.0
  0
ENDBLK
  5
3BD
330
3B1
100
AcDbEntity
  8
0
100
AcDbBlockEnd
  0
BLOCK
  5
3C9
330
3BE
100
AcDbEntity
  8
0
100
AcDbBlockBegin
  2
*D4
 70
     1
 10
0.0
 20
0.0
 30
0.0
  3
*D4
  1

  0
LINE
  5
56A
330
3BE
100
AcDbEntity
  8
BEM
 62
     0
370
    -2
100
AcDbLine
 10
521.4999999999998
 20
1377.675248035313
 30
0.0
 11
521.4999999999998
 21
1407.992902166769
 31
0.0
  0
LINE
  5
56B
330
3BE
100
AcDbEntity
  8
BEM
 62
     0
370
    -2
100
AcDbLine
 10
603.4999999999999
 20
1377.675248035313
 30
0.0
 11
603.4999999999999
 21
1407.992902166769
 31
0.0
  0
LINE
  5
56C
330
3BE
100
AcDbEntity
  8
BEM
 62
     0
370
    -2
100
AcDbLine
 10
538.9999999999998
 20
1402.992902166769
 30
0.0
 11
585.9999999999998
 21
1402.992902166769
 31
0.0
  0
SOLID
  5
56D
330
3BE
100
AcDbEntity
  8
BEM
 62
     0
100
AcDbTrace
 10
538.9999999999998
 20
1405.909568833435
 30
0.0
 11
538.9999999999998
 21
1400.076235500102
 31
0.0
 12
521.4999999999998
 22
1402.992902166769
 32
0.0
 13
521.4999999999998
 23
1402.992902166769
 33
0.0
  0
SOLID
  5
56E
330
3BE
100
AcDbEntity
  8
BEM
 62
     0
100
AcDbTrace
 10
585.9999999999998
 20
1405.909568833435
 30
0.0
 11
585.9999999999998
 21
1400.076235500102
 31
0.0
 12
603.4999999999999
 22
1402.992902166769
 32
0.0
 13
603.4999999999999
 23
1402.992902166769
 33
0.0
  0
MTEXT
  5
56F
330
3BE
100
AcDbEntity
  8
BEM
 62
     1
100
AcDbMText
 10
571.5749049566254
 20
1419.242902166769
 30
0.0
 40
17.5
 41
0.0
 71
     5
 72
     1
  1
\A1;82
 73
     1
 44
1.0
  0
POINT
  5
570
330
3BE
100
AcDbEntity
  8
DEFPOINTS
 62
     0
100
AcDbPoint
 10
521.4999999999998
 20
1372.675248035313
 30
0.0
  0
POINT
  5
571
330
3BE
100
AcDbEntity
  8
DEFPOINTS
 62
     0
100
AcDbPoint
 10
603.4999999999999
 20
1372.675248035313
 30
0.0
  0
POINT
  5
572
330
3BE
100
AcDbEntity
  8
DEFPOINTS
 62
     0
100
AcDbPoint
 10
603.4999999999999
 20
1402.992902166769
 30
0.0
  0
ENDBLK
  5
3CA
330
3BE
100
AcDbEntity
  8
0
100
AcDbBlockEnd
  0
BLOCK
  5
75D
330
753
100
AcDbEntity
  8
0
100
AcDbBlockBegin
  2
*D5
 70
     1
 10
0.0
 20
0.0
 30
0.0
  3
*D5
  1

  0
LINE
  5
7B3
330
753
100
AcDbEntity
  8
BEM
 62
     0
370
    -2
100
AcDbLine
 10
581.9999999999999
 20
737.7386098682454
 30
0.0
 11
564.4999999999998
 21
737.7386098682454
 31
0.0
  0
LINE
  5
7B4
330
753
100
AcDbEntity
  8
BEM
 62
     0
370
    -2
100
AcDbLine
 10
619.9999999999999
 20
737.7386098682454
 30
0.0
 11
661.8333333333332
 21
737.7386098682454
 31
0.0
  0
LINE
  5
7B5
330
753
100
AcDbEntity
  8
BEM
 62
     0
370
    -2
100
AcDbLine
 10
599.4999999999999
 20
737.7386098682454
 30
0.0
 11
602.4999999999998
 21
737.7386098682454
 31
0.0
  0
SOLID
  5
7B6
330
753
100
AcDbEntity
  8
BEM
 62
     0
100
AcDbTrace
 10
581.9999999999999
 20
740.6552765349121
 30
0.0
 11
581.9999999999999
 21
734.8219432015788
 31
0.0
 12
599.4999999999999
 22
737.7386098682454
 32
0.0
 13
599.4999999999999
 23
737.7386098682454
 33
0.0
  0
SOLID
  5
7B7
330
753
100
AcDbEntity
  8
BEM
 62
     0
100
AcDbTrace
 10
619.9999999999999
 20
740.6552765349121
 30
0.0
 11
619.9999999999999
 21
734.8219432015788
 31
0.0
 12
602.4999999999998
 22
737.7386098682454
 32
0.0
 13
602.4999999999998
 23
737.7386098682454
 33
0.0
  0
MTEXT
  5
7B8
330
753
100
AcDbEntity
  8
BEM
 62
     1
100
AcDbMText
 10
649.6666666666665
 20
753.9886098682455
 30
0.0
 40
17.5
 41
0.0
 71
     5
 72
     1
  1
\A1;3
 73
     1
 44
1.0
  0
POINT
  5
7B9
330
753
100
AcDbEntity
  8
DEFPOINTS
 62
     0
100
AcDbPoint
 10
599.4999999999999
 20
737.7386098682454
 30
0.0
  0
POINT
  5
7BA
330
753
100
AcDbEntity
  8
DEFPOINTS
 62
     0
100
AcDbPoint
 10
602.4999999999998
 20
737.7386098682454
 30
0.0
  0
POINT
  5
7BB
330
753
100
AcDbEntity
  8
DEFPOINTS
 62
     0
100
AcDbPoint
 10
602.4999999999998
 20
737.7386098682454
 30
0.0
  0
ENDBLK
  5
75E
330
753
100
AcDbEntity
  8
0
100
AcDbBlockEnd
  0
BLOCK
  5
8EE
330
8E4
100
AcDbEntity
  8
0
100
AcDbBlockBegin
  2
*D6
 70
     1
 10
0.0
 20
0.0
 30
0.0
  3
*D6
  1

  0
LINE
  5
90E
330
8E4
100
AcDbEntity
  8
BEM
 62
     0
370
    -2
100
AcDbLine
 10
593.9999999999997
 20
525.1752480353129
 30
0.0
 11
576.4999999999997
 21
525.1752480353129
 31
0.0
  0
LINE
  5
90F
330
8E4
100
AcDbEntity
  8
BEM
 62
     0
370
    -2
100
AcDbLine
 10
630.9999999999997
 20
525.1752480353129
 30
0.0
 11
672.8333333333331
 21
525.1752480353129
 31
0.0
  0
LINE
  5
910
330
8E4
100
AcDbEntity
  8
BEM
 62
     0
370
    -2
100
AcDbLine
 10
611.4999999999997
 20
525.1752480353129
 30
0.0
 11
613.4999999999998
 21
525.1752480353129
 31
0.0
  0
SOLID
  5
911
330
8E4
100
AcDbEntity
  8
BEM
 62
     0
100
AcDbTrace
 10
593.9999999999997
 20
528.0919147019796
 30
0.0
 11
593.9999999999997
 21
522.2585813686463
 31
0.0
 12
611.4999999999997
 22
525.1752480353129
 32
0.0
 13
611.4999999999997
 23
525.1752480353129
 33
0.0
  0
SOLID
  5
912
330
8E4
100
AcDbEntity
  8
BEM
 62
     0
100
AcDbTrace
 10
630.9999999999997
 20
528.0919147019796
 30
0.0
 11
630.9999999999997
 21
522.2585813686463
 31
0.0
 12
613.4999999999998
 22
525.1752480353129
 32
0.0
 13
613.4999999999998
 23
525.1752480353129
 33
0.0
  0
MTEXT
  5
913
330
8E4
100
AcDbEntity
  8
BEM
 62
     1
100
AcDbMText
 10
660.6666666666663
 20
541.425248035313
 30
0.0
 40
17.5
 41
0.0
 71
     5
 72
     1
  1
\A1;2
 73
     1
 44
1.0
  0
POINT
  5
914
330
8E4
100
AcDbEntity
  8
DEFPOINTS
 62
     0
100
AcDbPoint
 10
611.4999999999997
 20
525.1752480353129
 30
0.0
  0
POINT
  5
915
330
8E4
100
AcDbEntity
  8
DEFPOINTS
 62
     0
100
AcDbPoint
 10
613.4999999999998
 20
525.1752480353129
 30
0.0
  0
POINT
  5
916
330
8E4
100
AcDbEntity
  8
DEFPOINTS
 62
     0
100
AcDbPoint
 10
613.4999999999998
 20
525.1752480353129
 30
0.0
  0
ENDBLK
  5
8EF
330
8E4
100
AcDbEntity
  8
0
100
AcDbBlockEnd
  0
BLOCK
  5
8FA
330
8F0
100
AcDbEntity
  8
0
100
AcDbBlockBegin
  2
*D7
 70
     1
 10
0.0
 20
0.0
 30
0.0
  3
*D7
  1

  0
LINE
  5
917
330
8F0
100
AcDbEntity
  8
BEM
 62
     0
370
    -2
100
AcDbLine
 10
511.4999999999997
 20
467.6752480353129
 30
0.0
 11
511.4999999999997
 21
425.784408274017
 31
0.0
  0
LINE
  5
918
330
8F0
100
AcDbEntity
  8
BEM
 62
     0
370
    -2
100
AcDbLine
 10
613.4999999999998
 20
467.6752480353129
 30
0.0
 11
613.4999999999998
 21
425.784408274017
 31
0.0
  0
LINE
  5
919
330
8F0
100
AcDbEntity
  8
BEM
 62
     0
370
    -2
100
AcDbLine
 10
528.9999999999998
 20
430.7844082740171
 30
0.0
 11
595.9999999999998
 21
430.7844082740171
 31
0.0
  0
SOLID
  5
91A
330
8F0
100
AcDbEntity
  8
BEM
 62
     0
100
AcDbTrace
 10
528.9999999999998
 20
433.7010749406838
 30
0.0
 11
528.9999999999998
 21
427.8677416073504
 31
0.0
 12
511.4999999999997
 22
430.7844082740171
 32
0.0
 13
511.4999999999997
 23
430.7844082740171
 33
0.0
  0
SOLID
  5
91B
330
8F0
100
AcDbEntity
  8
BEM
 62
     0
100
AcDbTrace
 10
595.9999999999998
 20
433.7010749406838
 30
0.0
 11
595.9999999999998
 21
427.8677416073504
 31
0.0
 12
613.4999999999998
 22
430.7844082740171
 32
0.0
 13
613.4999999999998
 23
430.7844082740171
 33
0.0
  0
MTEXT
  5
91C
330
8F0
100
AcDbEntity
  8
BEM
 62
     1
100
AcDbMText
 10
562.4999999999998
 20
447.0344082740171
 30
0.0
 40
17.5
 41
0.0
 71
     5
 72
     1
  1
\A1;%%c102
 73
     1
 44
1.0
  0
POINT
  5
91D
330
8F0
100
AcDbEntity
  8
DEFPOINTS
 62
     0
100
AcDbPoint
 10
511.4999999999997
 20
472.675248035313
 30
0.0
  0
POINT
  5
91E
330
8F0
100
AcDbEntity
  8
DEFPOINTS
 62
     0
100
AcDbPoint
 10
613.4999999999998
 20
472.675248035313
 30
0.0
  0
POINT
  5
91F
330
8F0
100
AcDbEntity
  8
DEFPOINTS
 62
     0
100
AcDbPoint
 10
613.4999999999998
 20
430.7844082740171
 30
0.0
  0
ENDBLK
  5
8FB
330
8F0
100
AcDbEntity
  8
0
100
AcDbBlockEnd
  0
ENDSEC
  0
SECTION
  2
ENTITIES
  0
LINE
  5
57
330
1E
100
AcDbEntity
  8
STEMPEL
100
AcDbLine
 10
1025.0
 20
275.0000000000001
 30
0.0
 11
99.99999999999992
 21
275.0
 31
0.0
  0
LINE
  5
58
330
1E
100
AcDbEntity
  8
STEMPEL
100
AcDbLine
 10
340.0000000000003
 20
274.9999999999999
 30
0.0
 11
340.0
 21
24.99999999999993
 31
0.0
  0
LINE
  5
59
330
1E
100
AcDbEntity
  8
STEMPEL
100
AcDbLine
 10
550.0
 20
275.0000000000001
 30
0.0
 11
550.0
 21
24.99999999999993
 31
0.0
  0
LINE
  5
5A
330
1E
100
AcDbEntity
  8
STEMPEL
100
AcDbLine
 10
830.0
 20
274.9999999999994
 30
0.0
 11
830.0
 21
100.0
 31
0.0
  0
LINE
  5
5B
330
1E
100
AcDbEntity
  8
STEMPEL
100
AcDbLine
 10
339.9999999999997
 20
74.99999999999992
 30
0.0
 11
99.99999999999992
 21
74.99999999999992
 31
0.0
  0
LINE
  5
5C
330
1E
100
AcDbEntity
  8
STEMPEL
100
AcDbLine
 10
1025.0
 20
100.0
 30
0.0
 11
340.0000000000003
 21
99.99999999999992
 31
0.0
  0
LINE
  5
5D
330
1E
100
AcDbEntity
  8
STEMPEL
100
AcDbLine
 10
1025.0
 20
200.0
 30
0.0
 11
340.0000000000003
 21
199.9999999999998
 31
0.0
  0
LINE
  5
5E
330
1E
100
AcDbEntity
  8
VOLL
100
AcDbLine
 10
135.0000000000002
 20
275.0000000000001
 30
0.0
 11
134.9999999999999
 21
24.99999999999993
 31
0.0
  0
LINE
  5
5F
330
1E
100
AcDbEntity
  8
VOLL
100
AcDbLine
 10
235.0000000000003
 20
274.9999999999999
 30
0.0
 11
235.0
 21
24.99999999999993
 31
0.0
  0
LINE
  5
60
330
1E
100
AcDbEntity
  8
VOLL
100
AcDbLine
 10
285.0000000000003
 20
274.9999999999999
 30
0.0
 11
285.0
 21
24.99999999999993
 31
0.0
  0
LINE
  5
61
330
1E
100
AcDbEntity
  8
VOLL
100
AcDbLine
 10
385.0000000000003
 20
199.9999999999998
 30
0.0
 11
385.0000000000003
 21
99.99999999999992
 31
0.0
  0
LINE
  5
62
330
1E
100
AcDbEntity
  8
VOLL
100
AcDbLine
 10
450.0000000000002
 20
274.9999999999996
 30
0.0
 11
450.0
 21
99.99999999999992
 31
0.0
  0
LINE
  5
63
330
1E
100
AcDbEntity
  8
HILF
100
AcDbLine
 10
100.0000000000002
 20
250.0000000000001
 30
0.0
 11
340.0000000000003
 21
250.0000000000001
 31
0.0
  0
LINE
  5
64
330
1E
100
AcDbEntity
  8
HILF
100
AcDbLine
 10
100.0000000000002
 20
225.0000000000001
 30
0.0
 11
340.0000000000003
 21
225.0000000000001
 31
0.0
  0
LINE
  5
65
330
1E
100
AcDbEntity
  8
HILF
100
AcDbLine
 10
100.0000000000002
 20
199.9999999999998
 30
0.0
 11
340.0000000000003
 21
199.9999999999998
 31
0.0
  0
LINE
  5
66
330
1E
100
AcDbEntity
  8
HILF
100
AcDbLine
 10
100.0000000000002
 20
174.9999999999998
 30
0.0
 11
340.0000000000003
 21
174.9999999999998
 31
0.0
  0
LINE
  5
67
330
1E
100
AcDbEntity
  8
HILF
100
AcDbLine
 10
100.0000000000002
 20
149.9999999999999
 30
0.0
 11
340.0000000000003
 21
149.9999999999999
 31
0.0
  0
LINE
  5
68
330
1E
100
AcDbEntity
  8
HILF
100
AcDbLine
 10
100.0000000000002
 20
124.9999999999999
 30
0.0
 11
340.0000000000003
 21
124.9999999999999
 31
0.0
  0
LINE
  5
69
330
1E
100
AcDbEntity
  8
HILF
100
AcDbLine
 10
100.0000000000002
 20
99.99999999999992
 30
0.0
 11
340.0000000000003
 21
99.99999999999992
 31
0.0
  0
LINE
  5
6A
330
1E
100
AcDbEntity
  8
HILF
100
AcDbLine
 10
340.0000000000003
 20
174.9999999999998
 30
0.0
 11
550.0
 21
174.9999999999998
 31
0.0
  0
LINE
  5
6B
330
1E
100
AcDbEntity
  8
HILF
100
AcDbLine
 10
340.0000000000003
 20
149.9999999999999
 30
0.0
 11
550.0
 21
149.9999999999999
 31
0.0
  0
LINE
  5
6C
330
1E
100
AcDbEntity
  8
HILF
100
AcDbLine
 10
340.0000000000003
 20
124.9999999999999
 30
0.0
 11
550.0
 21
124.9999999999999
 31
0.0
  0
LINE
  5
6D
330
1E
100
AcDbEntity
  8
HILF
100
AcDbLine
 10
561.9342002742369
 20
210.0939561891034
 30
0.0
 11
812.0884791390777
 21
210.0939561891034
 31
0.0
  0
LINE
  5
6E
330
1E
100
AcDbEntity
  8
HILF
100
AcDbLine
 10
561.9342002742369
 20
174.9999999999998
 30
0.0
 11
812.0884791390775
 21
174.9999999999998
 31
0.0
  0
LINE
  5
6F
330
1E
100
AcDbEntity
  8
HILF
100
AcDbLine
 10
561.9342002742369
 20
149.9999999999999
 30
0.0
 11
812.0884791390775
 21
149.9999999999999
 31
0.0
  0
LINE
  5
70
330
1E
100
AcDbEntity
  8
HILF
100
AcDbLine
 10
561.9342002742369
 20
124.9999999999999
 30
0.0
 11
812.0884791390775
 21
124.9999999999999
 31
0.0
  0
LINE
  5
71
330
1E
100
AcDbEntity
  8
VOLL
100
AcDbLine
 10
830.0
 20
150.0
 30
0.0
 11
1025.0
 21
150.0
 31
0.0
  0
LINE
  5
72
330
1E
100
AcDbEntity
  8
HILF
100
AcDbLine
 10
841.8096540742482
 20
209.4495909238957
 30
0.0
 11
1012.147209831682
 21
209.4495909238957
 31
0.0
  0
LINE
  5
73
330
1E
100
AcDbEntity
  8
HILF
100
AcDbLine
 10
558.7274248224712
 20
37.23495645070784
 30
0.0
 11
1012.147209831682
 21
37.23495645070784
 31
0.0
  0
TEXT
  5
74
330
1E
100
AcDbEntity
  8
TEXT
100
AcDbText
 10
159.6541494907955
 20
46.68454737460329
 30
0.0
 40
10.0
  1
Änderung
 41
0.8
  7
GREEKS
 72
     1
 11
186.5112923479383
 21
46.68454737460329
 31
0.0
100
AcDbText
  0
TEXT
  5
75
330
1E
100
AcDbEntity
  8
TEXT
100
AcDbText
 10
358.7908930375943
 20
256.1552237717722
 30
0.0
 40
12.5
  1
Maßstab
 41
0.8
  7
GREEKS
100
AcDbText
  0
TEXT
  5
76
330
1E
100
AcDbEntity
  8
TEXT
100
AcDbText
 10
460.7147386835128
 20
256.0460421087048
 30
0.0
 40
12.5
  1
Zul. Abw.
 41
0.8
  7
GREEKS
100
AcDbText
  0
TEXT
  5
77
330
1E
100
AcDbEntity
  8
TEXT
100
AcDbText
 10
562.1948509522525
 20
256.3723320029449
 30
0.0
 40
12.5
  1
Benennung
 41
0.8
  7
GREEKS
100
AcDbText
  0
TEXT
  5
78
330
1E
100
AcDbEntity
  8
TEXT
100
AcDbText
 10
840.4468873940851
 20
255.7830086342841
 30
0.0
 40
12.5
  1
Zeichnungs Nr.
 41
0.8
  7
GREEKS
100
AcDbText
  0
TEXT
  5
79
330
1E
100
AcDbEntity
  8
TEXT
100
AcDbText
 10
561.8555959778399
 20
77.11401425482641
 30
0.0
 40
12.5
  1
Bauvorhaben
 41
0.8
  7
GREEKS
100
AcDbText
  0
TEXT
  5
7A
330
1E
100
AcDbEntity
  8
TEXT
100
AcDbText
 10
841.8096540742482
 20
182.9529559274992
 30
0.0
 40
12.5
  1
Ersatz für:
 41
0.8
  7
GREEKS
100
AcDbText
  0
TEXT
  5
7B
330
1E
100
AcDbEntity
  8
TEXT
100
AcDbText
 10
120.6660276761439
 20
34.13664615067979
 30
0.0
 40
10.0
  1
Index
 50
90.0
 41
0.8
  7
GREEKS
100
AcDbText
  0
TEXT
  5
7C
330
1E
100
AcDbEntity
  8
TEXT
100
AcDbText
 10
250.2336690188702
 20
46.67890673349525
 30
0.0
 40
10.0
  1
Tag
 41
0.8
  7
GREEKS
 72
     1
 11
259.5670023522036
 21
46.67890673349525
 31
0.0
100
AcDbText
  0
TEXT
  5
7D
330
1E
100
AcDbEntity
  8
TEXT
100
AcDbText
 10
297.5306860966482
 20
46.4831054241602
 30
0.0
 40
10.0
  1
Name
 41
0.8
  7
GREEKS
 72
     1
 11
313.340209906172
 21
46.4831054241602
 31
0.0
100
AcDbText
  0
TEXT
  5
7E
330
1E
100
AcDbEntity
  8
TEXT
100
AcDbText
 10
405.8279182884126
 20
183.2970125307481
 30
0.0
 40
10.0
  1
Tag
 41
0.8
  7
GREEKS
100
AcDbText
  0
TEXT
  5
7F
330
1E
100
AcDbEntity
  8
TEXT
100
AcDbText
 10
481.1566460565737
 20
183.2740272978806
 30
0.0
 40
10.0
  1
Name
 41
0.8
  7
GREEKS
100
AcDbText
  0
TEXT
  5
80
330
1E
100
AcDbEntity
  8
TEXT
100
AcDbText
 10
343.9590317919039
 20
159.0747592404491
 30
0.0
 40
10.0
  1
Gez.
 41
0.8
  7
GREEKS
100
AcDbText
  0
TEXT
  5
81
330
1E
100
AcDbEntity
  8
TEXT
100
AcDbText
 10
343.8787716429181
 20
134.2231572857094
 30
0.0
 40
10.0
  1
Gepr.
 41
0.8
  7
GREEKS
100
AcDbText
  0
TEXT
  5
82
330
1E
100
AcDbEntity
  8
TEXT
100
AcDbText
 10
344.0016943468259
 20
108.8236597412452
 30
0.0
 40
10.0
  1
Norm.
 41
0.8
  7
GREEKS
100
AcDbText
  0
LINE
  5
83
330
1E
100
AcDbEntity
  8
STEMPEL
100
AcDbLine
 10
124.9999999999997
 20
25.0
 30
0.0
 11
1025.0
 21
25.0
 31
0.0
  0
TEXT
  5
84
330
1E
100
AcDbEntity
  8
TEXT
100
AcDbText
 10
843.1002153742515
 20
130.185404446965
 30
0.0
 40
12.5
  1
ersetzt durch:
 41
0.8
  7
GREEKS
100
AcDbText
  0
LINE
  5
85
330
1E
100
AcDbEntity
  8
STEMPEL
100
AcDbLine
 10
1025.0
 20
25.0
 30
0.0
 11
99.99999999999971
 21
25.0
 31
0.0
  0
LINE
  5
86
330
1E
100
AcDbEntity
  8
STEMPEL
100
AcDbLine
 10
1025.0
 20
25.0
 30
0.0
 11
1025.0
 21
1460.0
 31
0.0
  0
LINE
  5
87
330
1E
100
AcDbEntity
  8
STEMPEL
100
AcDbLine
 10
100.0
 20
25.0
 30
0.0
 11
99.99999999999971
 21
1460.0
 31
0.0
  0
LINE
  5
88
330
1E
100
AcDbEntity
  8
STEMPEL
100
AcDbLine
 10
1025.0
 20
1460.0
 30
0.0
 11
99.99999999999971
 21
1460.0
 31
0.0
  0
LINE
  5
89
330
1E
100
AcDbEntity
  8
HILF
100
AcDbLine
 10
0.0
 20
0.0
 30
0.0
 11
-0.0000000000002842
 21
1485.0
 31
0.0
  0
LINE
  5
8A
330
1E
100
AcDbEntity
  8
HILF
100
AcDbLine
 10
1050.0
 20
1485.0
 30
0.0
 11
0.0
 21
1485.0
 31
0.0
  0
LINE
  5
8B
330
1E
100
AcDbEntity
  8
HILF
100
AcDbLine
 10
1050.0
 20
0.0
 30
0.0
 11
0.0
 21
0.0
 31
0.0
  0
LINE
  5
8C
330
1E
100
AcDbEntity
  8
HILF
100
AcDbLine
 10
77.7191783928464
 20
742.5000000000001
 30
0.0
 11
0.0000000000002842
 21
742.5000000000001
 31
0.0
  0
TEXT
  5
8D
330
1E
100
AcDbEntity
  8
TEXT
100
AcDbText
 10
346.55527455526
 20
182.8506367787916
 30
0.0
 40
10.0
  1
2010
 41
0.8
  7
GREEKS
100
AcDbText
  0
LINE
  5
8E
330
1E
100
AcDbEntity
  8
HILF
100
AcDbLine
 10
1050.0
 20
-0.0000000000002842
 30
0.0
 11
1050.0
 21
1485.0
 31
0.0
  0
TEXT
  5
8F
330
1E
100
AcDbEntity
  8
VOLL
100
AcDbText
 10
78.07675471698113
 20
31.02594776470585
 30
0.0
 40
1.8
  1

  7
GREEKS
100
AcDbText
  0
TEXT
  5
90
330
1E
100
AcDbEntity
  8
TEXT
100
AcDbText
 10
104.6377487744418
 20
279.1799999999999
 30
0.0
 40
12.5
  1
Erstellt mit AUTOCAD 2004
 41
0.8
  7
GREEKS
100
AcDbText
  0
TEXT
  5
91
330
1E
100
AcDbEntity
  8
TEXT
100
AcDbText
 10
486.0540121453142
 20
157.7240979930877
 30
0.0
 40
10.0
  1
Koeh
 41
0.8
  7
GREEKS
 72
     1
 11
499.1968692881714
 21
157.7240979930877
 31
0.0
100
AcDbText
  0
TEXT
  5
92
330
1E
100
AcDbEntity
  8
TEXT
 62
     1
100
AcDbText
 10
862.8891515269279
 20
220.372535722849
 30
0.0
 40
17.5
  1
05506080W
 41
0.8
  7
GREEKS
 72
     1
 11
922.8891515269278
 21
220.372535722849
 31
0.0
100
AcDbText
  0
TEXT
  5
93
330
1E
100
AcDbEntity
  8
TEXT
 62
     1
100
AcDbText
 10
376.2515766204717
 20
220.372535722849
 30
0.0
 40
17.5
  1
1:5
 41
0.8
  7
GREEKS
100
AcDbText
  0
TEXT
  5
94
330
1E
100
AcDbEntity
  8
TEXT
100
AcDbText
 10
401.7593975324949
 20
157.7691260206433
 30
0.0
 40
10.0
  1
15.09.
 41
0.8
  7
GREEKS
 72
     1
 11
418.5213022943996
 21
157.7691260206433
 31
0.0
100
AcDbText
  0
TEXT
  5
95
330
1E
100
AcDbEntity
  8
TEXT
 62
     1
100
AcDbText
 10
567.2339327643505
 20
218.5437197313445
 30
0.0
 40
17.5
  1
Regenstandrohr DN80
 41
0.8
  7
GREEKS
100
AcDbText
  0
TEXT
  5
96
330
1E
100
AcDbEntity
  8
TEXT
100
AcDbText
 10
562.8240977813288
 20
181.8476716460108
 30
0.0
 40
12.5
  1
quadratisch
 41
0.8
  7
GREEKS
100
AcDbText
  0
TEXT
  5
98
330
1E
100
AcDbEntity
  8
TEXT
100
AcDbText
 10
562.8240977813288
 20
129.100298576054
 30
0.0
 40
12.5
  1
EDV-Art-Nr. 05506.080X
 41
0.8
  7
GREEKS
100
AcDbText
  0
TEXT
  5
99
330
1E
100
AcDbEntity
  8
TEXT
100
AcDbText
 10
562.4593753944567
 20
106.5743538255658
 30
0.0
 40
10.0
  1
05506080W.DWG
 41
0.8
  7
GREEKS
100
AcDbText
  0
TEXT
  5
9A
330
1E
100
AcDbEntity
  8
TEXT
100
AcDbText
 10
456.5653305202101
 20
226.9090960255756
 30
0.0
 40
10.0
  1
DIN EN1123-2
 41
0.8
  7
GREEKS
 72
     1
 11
499.0415209964005
 21
226.9090960255756
 31
0.0
100
AcDbText
  0
INSERT
  5
9B
330
1E
100
AcDbEntity
  8
STEMPEL
100
AcDbBlockReference
  2
LOGO
 10
352.4888713644485
 20
112.552631911208
 30
0.0
 41
5.0
 42
5.0
 43
5.0
  0
TEXT
  5
118
330
1E
100
AcDbEntity
  8
BEM
100
AcDbText
 10
1043.255730964291
 20
25.41975269997124
 30
0.0
 40
10.0
  1
Diese Zeichnung ist urheberrechtlich geschützt und bleibt unser Eigentum. Sie darf weder ganz noch teilweise verfielfältigt und nicht an Dritte weitergegeben werden.
 50
90.0
 41
0.8
  7
GREEKS
100
AcDbText
  0
LINE
  5
30F
330
1E
100
AcDbEntity
  8
STEMPEL
100
AcDbLine
 10
522.5
 20
1061.531590483675
 30
0.0
 11
522.5
 21
612.6752480353129
 31
0.0
  0
LINE
  5
310
330
1E
100
AcDbEntity
  8
STEMPEL
100
AcDbLine
 10
602.5
 20
1070.569028935299
 30
0.0
 11
602.4999999999998
 21
612.6752480353129
 31
0.0
  0
LWPOLYLINE
  5
311
330
1E
100
AcDbEntity
  8
MITTEL
100
AcDbPolyline
 90
        2
 70
     0
 43
0.0
 10
517.4999999999999
 20
1060.966750580448
 10
607.4999999999999
 20
1071.133868838526
  0
LWPOLYLINE
  5
312
330
1E
100
AcDbEntity
  8
MITTEL
100
AcDbPolyline
 90
        2
 70
     0
 43
0.0
 10
517.4999999999999
 20
1070.966750580448
 10
607.4999999999999
 20
1081.133868838526
  0
LINE
  5
343
330
1E
100
AcDbEntity
  8
MITTEL
100
AcDbLine
 10
562.4999999999998
 20
651.737897466251
 30
0.0
 11
562.4999999999998
 21
467.6752480353129
 31
0.0
  0
DIMENSION
  5
345
330
1E
100
AcDbEntity
  8
BEM
100
AcDbDimension
  2
*D1
 10
440.6473818875693
 20
1372.675248035313
 30
0.0
 11
424.3973818875691
 21
922.6752480353132
 31
0.0
 70
    32
  1
1000
 71
     5
 42
900.0000000000001
  3
Standard
100
AcDbAlignedDimension
 13
511.4999999999997
 23
472.675248035313
 33
0.0
 14
518.5000000000001
 24
1372.675248035313
 34
0.0
 50
90.0
100
AcDbRotatedDimension
1001
ACAD
1000
DSTYLE
1002
{
1070
    40
1040
5.0
1070
    41
1040
3.5
1070
    42
1040
1.0
1070
    43
1040
7.0
1070
    44
1040
1.0
1070
    73
1070
     0
1070
    74
1070
     0
1070
    77
1070
     1
1070
    78
1070
     8
1070
    79
1070
     2
1070
   140
1040
3.5
1070
   141
1040
1.5
1070
   146
1040
0.5142857142857144
1070
   147
1040
1.5
1070
   172
1070
     1
1070
   178
1070
     1
1070
   179
1070
     2
1070
   271
1070
     2
1070
   272
1070
     2
1070
   284
1070
     8
1070
   285
1070
     8
1070
   286
1070
     8
1002
}
  0
LINE
  5
34E
330
1E
100
AcDbEntity
  8
BEM
 62
     1
100
AcDbLine
 10
539.070535283017
 20
685.8033923763027
 30
0.0
 11
556.5705352830169
 21
685.8033923763027
 31
0.0
  0
LINE
  5
34F
330
1E
100
AcDbEntity
  8
BEM
 62
     1
100
AcDbLine
 10
556.5705352830169
 20
668.3033923763027
 30
0.0
 11
539.070535283017
 21
668.3033923763027
 31
0.0
  0
LINE
  5
350
330
1E
100
AcDbEntity
  8
BEM
 62
     1
100
AcDbLine
 10
539.070535283017
 20
668.3033923763027
 30
0.0
 11
539.070535283017
 21
685.8033923763027
 31
0.0
  0
LINE
  5
351
330
1E
100
AcDbEntity
  8
BEM
 62
     1
100
AcDbLine
 10
556.5705352830169
 20
685.8033923763027
 30
0.0
 11
556.5705352830169
 21
668.3033923763027
 31
0.0
  0
DIMENSION
  5
352
330
1E
100
AcDbEntity
  8
BEM
100
AcDbDimension
  2
*D2
 10
602.4999999999997
 20
660.2403640941343
 30
0.0
 11
573.1959626551264
 21
660.2403640941343
 31
0.0
 70
   160
 71
     5
 42
79.99999999999989
  3
Standard
100
AcDbAlignedDimension
 13
522.4999999999998
 23
703.6947442806777
 33
0.0
 14
602.4999999999997
 24
703.6947442806774
 34
0.0
100
AcDbRotatedDimension
1001
ACAD
1000
DSTYLE
1002
{
1070
    40
1040
5.0
1070
    41
1040
3.5
1070
    42
1040
1.0
1070
    43
1040
7.0
1070
    44
1040
1.0
1070
    73
1070
     0
1070
    74
1070
     0
1070
    77
1070
     1
1070
    78
1070
     8
1070
    79
1070
     2
1070
   140
1040
3.5
1070
   141
1040
1.5
1070
   146
1040
0.5142857142857144
1070
   147
1040
1.5
1070
   172
1070
     1
1070
   178
1070
     1
1070
   179
1070
     2
1070
   271
1070
     2
1070
   272
1070
     2
1070
   284
1070
     8
1070
   285
1070
     8
1070
   286
1070
     8
1002
}
  0
DIMENSION
  5
353
330
1E
100
AcDbEntity
  8
BEM
100
AcDbDimension
  2
*D3
 10
481.0576034359496
 20
1312.675248035313
 30
0.0
 11
464.8076034359494
 21
1342.675248035313
 31
0.0
 70
    32
 71
     5
 42
60.0
  3
Standard
100
AcDbAlignedDimension
 13
518.5000000000001
 23
1372.675248035313
 33
0.0
 14
519.3244359626821
 24
1312.675248035313
 34
0.0
 50
90.0
100
AcDbRotatedDimension
1001
ACAD
1000
DSTYLE
1002
{
1070
    40
1040
5.0
1070
    41
1040
3.5
1070
    42
1040
1.0
1070
    43
1040
7.0
1070
    44
1040
1.0
1070
    73
1070
     0
1070
    74
1070
     0
1070
    77
1070
     1
1070
    78
1070
     8
1070
    79
1070
     2
1070
   140
1040
3.5
1070
   141
1040
1.5
1070
   146
1040
0.5142857142857144
1070
   147
1040
1.5
1070
   172
1070
     1
1070
   178
1070
     1
1070
   179
1070
     2
1070
   271
1070
     2
1070
   272
1070
     2
1070
   284
1070
     8
1070
   285
1070
     8
1070
   286
1070
     8
1002
}
  0
DIMENSION
  5
354
330
1E
100
AcDbEntity
  8
BEM
100
AcDbDimension
  2
*D4
 10
603.4999999999999
 20
1402.992902166769
 30
0.0
 11
571.5749049566254
 21
1402.992902166769
 31
0.0
 70
   160
 71
     5
 42
82.0
  3
Standard
100
AcDbAlignedDimension
 13
521.4999999999998
 23
1372.675248035313
 33
0.0
 14
603.4999999999999
 24
1372.675248035313
 34
0.0
100
AcDbRotatedDimension
1001
ACAD
1000
DSTYLE
1002
{
1070
    40
1040
5.0
1070
    41
1040
3.5
1070
    42
1040
1.0
1070
    43
1040
7.0
1070
    44
1040
1.0
1070
    73
1070
     0
1070
    74
1070
     0
1070
    77
1070
     1
1070
    78
1070
     8
1070
    79
1070
     2
1070
   140
1040
3.5
1070
   141
1040
1.5
1070
   146
1040
0.5142857142857144
1070
   147
1040
1.5
1070
   172
1070
     1
1070
   178
1070
     1
1070
   179
1070
     2
1070
   271
1070
     2
1070
   272
1070
     2
1070
   284
1070
     8
1070
   285
1070
     8
1070
   286
1070
     8
1002
}
  0
LWPOLYLINE
  5
355
102
{ACAD_REACTORS
330
5D4
102
}
330
1E
100
AcDbEntity
  8
HILF
100
AcDbPolyline
 90
       24
 70
     0
 43
0.0
 10
522.4999999999998
 20
1295.181749187989
 10
523.7648721647405
 20
1295.456486993876
 10
529.6461112887408
 20
1296.518437312968
 10
534.6930973643822
 20
1297.209792991325
 10
539.0377180568436
 20
1297.585300959226
 10
542.8118610313036
 20
1297.699708146948
 10
546.1474139529406
 20
1297.607761484768
 10
549.1762644869335
 20
1297.364207902966
 10
552.0303002984608
 20
1297.02379433182
 10
554.8188158781526
 20
1296.634292733304
 10
557.5607330184434
 20
1296.215575196186
 10
560.2523803372196
 20
1295.780538840928
 10
562.890086452367
 20
1295.342080787994
 10
565.4701799817717
 20
1294.913098157847
 10
567.9889895433197
 20
1294.50648807095
 10
570.4428437548972
 20
1294.135147647768
 10
572.8280712343901
 20
1293.811974008763
 10
575.1854809036303
 20
1293.555128402476
 10
577.7338029002335
 20
1293.403828589755
 10
580.736247665761
 20
1293.402556459526
 10
584.4560256417742
 20
1293.595793900713
 10
589.1563472698344
 20
1294.028022802242
 10
595.1004229915031
 20
1294.743725053039
 10
602.4999999999998
 20
1295.780174151966
  0
ARC
  5
356
102
{ACAD_REACTORS
330
5D4
102
}
330
1E
100
AcDbEntity
  8
STEMPEL
100
AcDbCircle
 10
588.4999999999998
 20
1318.060412842447
 30
0.0
 40
15.0
100
AcDbArc
 50
331.4964898829166
 51
0.0
  0
ARC
  5
357
102
{ACAD_REACTORS
330
5D4
102
}
330
1E
100
AcDbEntity
  8
STEMPEL
100
AcDbCircle
 10
617.4999999999998
 20
1302.312397094424
 30
0.0
 40
15.0
100
AcDbArc
 50
151.4964898829166
 51
180.0
  0
ARC
  5
358
102
{ACAD_REACTORS
330
5D4
102
}
330
1E
100
AcDbEntity
  8
STEMPEL
100
AcDbCircle
 10
588.4999999999998
 20
1318.060412842447
 30
0.0
 40
18.0
100
AcDbArc
 50
331.4964898829166
 51
0.0
  0
ARC
  5
359
102
{ACAD_REACTORS
330
5D4
102
}
330
1E
100
AcDbEntity
  8
STEMPEL
100
AcDbCircle
 10
617.4999999999998
 20
1302.312397094424
 30
0.0
 40
18.0
100
AcDbArc
 50
151.4964898829166
 51
180.0
  0
LINE
  5
35A
102
{ACAD_REACTORS
330
5D4
102
}
330
1E
100
AcDbEntity
  8
STEMPEL
100
AcDbLine
 10
603.4999999999999
 20
1318.060412842447
 30
0.0
 11
603.4999999999999
 21
1372.675248035313
 31
0.0
  0
LINE
  5
35B
102
{ACAD_REACTORS
330
5D4
102
}
330
1E
100
AcDbEntity
  8
STEMPEL
100
AcDbLine
 10
606.4999999999998
 20
1318.060412842447
 30
0.0
 11
606.4999999999998
 21
1372.675248035313
 31
0.0
  0
LINE
  5
35C
330
1E
100
AcDbEntity
  8
BEM
 62
     1
100
AcDbLine
 10
539.2379502617948
 20
1428.181486779351
 30
0.0
 11
556.7379502617948
 21
1428.181486779351
 31
0.0
  0
LINE
  5
35D
330
1E
100
AcDbEntity
  8
BEM
 62
     1
100
AcDbLine
 10
556.7379502617948
 20
1410.681486779351
 30
0.0
 11
539.2379502617948
 21
1410.681486779351
 31
0.0
  0
LINE
  5
35E
330
1E
100
AcDbEntity
  8
BEM
 62
     1
100
AcDbLine
 10
556.7379502617948
 20
1428.181486779351
 30
0.0
 11
556.7379502617948
 21
1410.681486779351
 31
0.0
  0
LINE
  5
35F
330
1E
100
AcDbEntity
  8
BEM
 62
     1
100
AcDbLine
 10
539.2379502617948
 20
1410.681486779351
 30
0.0
 11
539.2379502617948
 21
1428.181486779351
 31
0.0
  0
ARC
  5
360
102
{ACAD_REACTORS
330
5D4
102
}
330
1E
100
AcDbEntity
  8
STEMPEL
100
AcDbCircle
 10
536.4999999999999
 20
1318.060412842447
 30
0.0
 40
15.0
100
AcDbArc
 50
180.0
 51
208.5035101170833
  0
ARC
  5
361
102
{ACAD_REACTORS
330
5D4
102
}
330
1E
100
AcDbEntity
  8
STEMPEL
100
AcDbCircle
 10
507.5
 20
1302.312397094424
 30
0.0
 40
15.0
100
AcDbArc
 50
0.0
 51
28.50351011708335
  0
ARC
  5
362
102
{ACAD_REACTORS
330
5D4
102
}
330
1E
100
AcDbEntity
  8
STEMPEL
100
AcDbCircle
 10
536.4999999999999
 20
1318.060412842447
 30
0.0
 40
18.0
100
AcDbArc
 50
180.0
 51
208.5035101170833
  0
ARC
  5
363
102
{ACAD_REACTORS
330
5D4
102
}
330
1E
100
AcDbEntity
  8
STEMPEL
100
AcDbCircle
 10
507.5
 20
1302.312397094424
 30
0.0
 40
18.0
100
AcDbArc
 50
0.0
 51
28.50351011708335
  0
LINE
  5
364
102
{ACAD_REACTORS
330
5D4
102
}
330
1E
100
AcDbEntity
  8
STEMPEL
100
AcDbLine
 10
518.4999999999998
 20
1318.060412842447
 30
0.0
 11
518.4999999999998
 21
1372.675248035313
 31
0.0
  0
LINE
  5
365
102
{ACAD_REACTORS
330
5D4
102
}
330
1E
100
AcDbEntity
  8
STEMPEL
100
AcDbLine
 10
521.4999999999998
 20
1318.060412842447
 30
0.0
 11
521.4999999999998
 21
1372.675248035313
 31
0.0
  0
LINE
  5
366
330
1E
100
AcDbEntity
  8
HILF
100
AcDbLine
 10
526.4898298139724
 20
1306.743690769679
 30
0.0
 11
598.5101701860275
 21
1306.74369076968
 31
0.0
  0
LINE
  5
367
330
1E
100
AcDbEntity
  8
HILF
100
AcDbLine
 10
601.4851313571959
 20
1314.367668113068
 30
0.0
 11
523.5148686428039
 21
1314.367668113068
 31
0.0
  0
LINE
  5
368
102
{ACAD_REACTORS
330
5D4
102
}
330
1E
100
AcDbEntity
  8
STEMPEL
100
AcDbLine
 10
525.4999999999999
 20
1295.769791642687
 30
0.0
 11
525.4999999999999
 21
1302.312397094424
 31
0.0
  0
LINE
  5
369
102
{ACAD_REACTORS
330
5D4
102
}
330
1E
100
AcDbEntity
  8
STEMPEL
100
AcDbLine
 10
599.4999999999999
 20
1295.359968065428
 30
0.0
 11
599.4999999999999
 21
1302.312397094424
 31
0.0
  0
TEXT
  5
36B
330
1E
100
AcDbEntity
  8
TEXT
 62
     1
100
AcDbText
 10
552.6985651109613
 20
1208.760942083534
 30
0.0
 40
17.5
  1
DN80
 50
90.0
 41
0.8
  7
GREEKS
100
AcDbText
  0
LINE
  5
36C
102
{ACAD_REACTORS
330
5D4
102
}
330
1E
100
AcDbEntity
  8
STEMPEL
100
AcDbLine
 10
522.4999999999998
 20
1302.312397094424
 30
0.0
 11
522.5
 21
1071.531590483675
 31
0.0
  0
LINE
  5
36D
330
1E
100
AcDbEntity
  8
MITTEL
100
AcDbLine
 10
562.4999999999999
 20
1377.675248035313
 30
0.0
 11
562.4999999999998
 21
692.215890840313
 31
0.0
  0
LINE
  5
36E
102
{ACAD_REACTORS
330
5D4
102
}
330
1E
100
AcDbEntity
  8
STEMPEL
100
AcDbLine
 10
602.4999999999998
 20
1302.312397094424
 30
0.0
 11
602.5
 21
1080.569028935299
 31
0.0
  0
LINE
  5
36F
102
{ACAD_REACTORS
330
5D4
102
}
330
1E
100
AcDbEntity
  8
STEMPEL
100
AcDbLine
 10
606.4999999999998
 20
1372.675248035313
 30
0.0
 11
518.5000000000001
 21
1372.675248035313
 31
0.0
  0
HATCH
  5
5D4
330
1E
100
AcDbEntity
  8
SCHRAFF
100
AcDbHatch
 10
0.0
 20
0.0
 30
0.0
210
0.0
220
0.0
230
1.0
  2
_USER
 70
     0
 71
     1
 91
        2
 92
        7
 72
     1
 73
     1
 93
       10
 10
603.4999999999999
 20
1318.060412842447
 42
-0.1250152653120889
 10
601.6818181818177
 20
1310.902223866072
 42
0.1250152653120599
 10
599.4999999999999
 20
1302.312397094424
 42
0.0
 10
599.5
 20
1295.359968065428
 42
0.0
 10
602.5
 20
1295.780174151967
 42
0.0
 10
602.4999999999998
 20
1302.312397094424
 42
-0.1250152653120889
 10
604.3181818181821
 20
1309.470586070799
 42
0.1250152653120599
 10
606.4999999999998
 20
1318.060412842447
 42
0.0
 10
606.4999999999998
 20
1372.675248035313
 42
0.0
 10
603.5
 20
1372.675248035313
 42
0.0
 97
       10
330
36F
330
35A
330
356
330
359
330
369
330
355
330
36E
330
357
330
358
330
35B
 92
        7
 72
     1
 73
     1
 93
       11
 10
521.4999999999998
 20
1372.675248035313
 42
0.0
 10
518.5
 20
1372.675248035313
 42
0.0
 10
518.4999999999998
 20
1318.060412842447
 42
0.1250152653120744
 10
520.6818181818181
 20
1309.470586070798
 42
-0.1250152653120754
 10
522.4999999999998
 20
1302.312397094423
 42
0.0
 10
522.4999999999997
 20
1295.181749187988
 42
0.0
 10
523.7648721647347
 20
1295.456486993875
 42
0.0
 10
525.4999999999999
 20
1295.769791642686
 42
0.0
 10
525.4999999999999
 20
1302.312397094424
 42
0.1250152653120744
 10
523.3181818181816
 20
1310.902223866073
 42
-0.1250152653120715
 10
521.4999999999998
 20
1318.060412842447
 42
0.0
 97
       10
330
36F
330
364
330
362
330
361
330
36C
330
355
330
368
330
363
330
360
330
365
 75
     0
 76
     0
 52
45.0
 41
2.0
 77
     0
 78
     1
 53
45.0
 43
0.0
 44
0.0
 45
-1.414213562373094
 46
1.414213562373095
 79
     0
 47
0.2229147449545498
 98
        2
 10
604.9456276179289
 20
1363.985426405048
 10
520.1738572788936
 20
1366.883315364249
  0
TEXT
  5
69A
330
1E
100
AcDbEntity
  8
TEXT
 62
     1
100
AcDbText
 10
586.5144147366168
 20
322.6958664363707
 30
0.0
 40
17.5
  1
und innen beschichtet
 41
0.8
  7
GREEKS
100
AcDbText
  0
TEXT
  5
69B
330
1E
100
AcDbEntity
  8
TEXT
 62
     1
100
AcDbText
 10
466.6401211431224
 20
349.5011459738794
 30
0.0
 40
17.5
  1
Werkstoff: E195 EN10305 feuerverzinkt
 41
0.8
  7
GREEKS
100
AcDbText
  0
POLYLINE
  5
736
330
1E
100
AcDbEntity
  8
HILF
100
AcDb2dPolyline
 66
     1
 10
0.0
 20
0.0
 30
0.0
  0
VERTEX
  5
737
330
736
100
AcDbEntity
  8
HILF
100
AcDbVertex
100
AcDb2dVertex
 10
602.4999999999998
 20
707.6457696723344
 30
0.0
  0
VERTEX
  5
738
330
736
100
AcDbEntity
  8
HILF
100
AcDbVertex
100
AcDb2dVertex
 10
593.0186492843896
 20
710.3459271033036
 30
0.0
  0
VERTEX
  5
739
330
736
100
AcDbEntity
  8
HILF
100
AcDbVertex
100
AcDb2dVertex
 10
582.9425667145397
 20
713.8448587098519
 30
0.0
  0
VERTEX
  5
73A
330
736
100
AcDbEntity
  8
HILF
100
AcDbVertex
100
AcDb2dVertex
 10
575.3877632687268
 20
717.1760653601961
 30
0.0
  0
VERTEX
  5
73B
330
736
100
AcDbEntity
  8
HILF
100
AcDbVertex
100
AcDb2dVertex
 10
569.9783200736006
 20
720.3675012045923
 30
0.0
  0
VERTEX
  5
73C
330
736
100
AcDbEntity
  8
HILF
100
AcDbVertex
100
AcDb2dVertex
 10
566.3383182558113
 20
723.447120393296
 30
0.0
  0
VERTEX
  5
73D
330
736
100
AcDbEntity
  8
HILF
100
AcDbVertex
100
AcDb2dVertex
 10
564.091838942008
 20
726.4428770765629
 30
0.0
  0
VERTEX
  5
73E
330
736
100
AcDbEntity
  8
HILF
100
AcDbVertex
100
AcDb2dVertex
 10
562.8629632588406
 20
729.3827254046488
 30
0.0
  0
VERTEX
  5
73F
330
736
100
AcDbEntity
  8
HILF
100
AcDbVertex
100
AcDb2dVertex
 10
562.2757723329591
 20
732.2946195278095
 30
0.0
  0
VERTEX
  5
740
330
736
100
AcDbEntity
  8
HILF
100
AcDbVertex
100
AcDb2dVertex
 10
562.019623125877
 20
735.1983603004826
 30
0.0
  0
VERTEX
  5
741
330
736
100
AcDbEntity
  8
HILF
100
AcDbVertex
100
AcDb2dVertex
 10
562.0449759385646
 20
738.0811353938351
 30
0.0
  0
VERTEX
  5
742
330
736
100
AcDbEntity
  8
HILF
100
AcDbVertex
100
AcDb2dVertex
 10
562.3675669068563
 20
740.9219791832165
 30
0.0
  0
VERTEX
  5
743
330
736
100
AcDbEntity
  8
HILF
100
AcDbVertex
100
AcDb2dVertex
 10
563.0031321665867
 20
743.6999260439758
 30
0.0
  0
VERTEX
  5
744
330
736
100
AcDbEntity
  8
HILF
100
AcDbVertex
100
AcDb2dVertex
 10
563.9674078535898
 20
746.3940103514625
 30
0.0
  0
VERTEX
  5
745
330
736
100
AcDbEntity
  8
HILF
100
AcDbVertex
100
AcDb2dVertex
 10
565.2761301037003
 20
748.9832664810255
 30
0.0
  0
VERTEX
  5
746
330
736
100
AcDbEntity
  8
HILF
100
AcDbVertex
100
AcDb2dVertex
 10
566.9450350527522
 20
751.4467288080143
 30
0.0
  0
VERTEX
  5
747
330
736
100
AcDbEntity
  8
HILF
100
AcDbVertex
100
AcDb2dVertex
 10
568.9898588365801
 20
753.763431707778
 30
0.0
  0
VERTEX
  5
748
330
736
100
AcDbEntity
  8
HILF
100
AcDbVertex
100
AcDb2dVertex
 10
571.4575184612344
 20
755.928716154135
 30
0.0
  0
VERTEX
  5
749
330
736
100
AcDbEntity
  8
HILF
100
AcDbVertex
100
AcDb2dVertex
 10
574.5196544136287
 20
758.0031495147807
 30
0.0
  0
VERTEX
  5
74A
330
736
100
AcDbEntity
  8
HILF
100
AcDbVertex
100
AcDb2dVertex
 10
578.3790880508929
 20
760.0636057558793
 30
0.0
  0
VERTEX
  5
74B
330
736
100
AcDbEntity
  8
HILF
100
AcDbVertex
100
AcDb2dVertex
 10
583.2386407301568
 20
762.1869588435956
 30
0.0
  0
VERTEX
  5
74C
330
736
100
AcDbEntity
  8
HILF
100
AcDbVertex
100
AcDb2dVertex
 10
589.3011338085501
 20
764.4500827440936
 30
0.0
  0
VERTEX
  5
74D
330
736
100
AcDbEntity
  8
HILF
100
AcDbVertex
100
AcDb2dVertex
 10
596.7693886432027
 20
766.9298514235381
 30
0.0
  0
VERTEX
  5
74E
330
736
100
AcDbEntity
  8
HILF
100
AcDbVertex
100
AcDb2dVertex
 10
602.4999999999998
 20
768.6807510762357
 30
0.0
  0
SEQEND
  5
74F
330
736
100
AcDbEntity
  8
HILF
  0
LINE
  5
750
330
1E
100
AcDbEntity
  8
STEMPEL
100
AcDbLine
 10
599.4999999999999
 20
767.7641474835207
 30
0.0
 11
599.4999999999999
 21
708.5001281425438
 31
0.0
  0
DIMENSION
  5
752
330
1E
100
AcDbEntity
  8
BEM
100
AcDbDimension
  2
*D5
 10
602.4999999999998
 20
737.7386098682454
 30
0.0
 11
649.6666666666665
 21
753.9886098682455
 31
0.0
 70
    32
 71
     5
 42
3.0
  3
Standard
100
AcDbAlignedDimension
 13
599.4999999999999
 23
737.7386098682454
 33
0.0
 14
602.4999999999998
 24
737.7386098682454
 34
0.0
100
AcDbRotatedDimension
1001
ACAD
1000
DSTYLE
1002
{
1070
    40
1040
5.0
1070
    41
1040
3.5
1070
    42
1040
1.0
1070
    43
1040
7.0
1070
    44
1040
1.0
1070
    73
1070
     0
1070
    74
1070
     0
1070
    77
1070
     1
1070
    78
1070
     8
1070
    79
1070
     2
1070
   140
1040
3.5
1070
   141
1040
1.5
1070
   146
1040
0.5142857142857144
1070
   147
1040
1.5
1070
   172
1070
     1
1070
   178
1070
     1
1070
   179
1070
     2
1070
   271
1070
     2
1070
   272
1070
     2
1070
   284
1070
     8
1070
   285
1070
     8
1070
   286
1070
     8
1002
}
  0
HATCH
  5
770
330
1E
100
AcDbEntity
  8
SCHRAFF
100
AcDbHatch
 10
0.0
 20
0.0
 30
0.0
210
0.0
220
0.0
230
1.0
  2
_USER
 70
     0
 71
     0
 91
        1
 92
        7
 72
     0
 73
     1
 93
        4
 10
599.4999999999999
 20
708.5001281425437
 10
602.4999999999997
 20
707.6457696723345
 10
602.4999999999997
 20
768.6807510762357
 10
599.4999999999997
 20
767.7641474835208
 97
        0
 75
     0
 76
     0
 52
45.0
 41
2.0
 77
     0
 78
     1
 53
45.0
 43
0.0
 44
29.93706695561241
 45
-1.414213562373094
 46
1.414213562373095
 79
     0
 47
0.3637770994713414
 98
        1
 10
600.9497404497087
 20
752.5635113830362
  0
TEXT
  5
7E5
330
1E
100
AcDbEntity
  8
TEXT
100
AcDbText
 10
562.8240977813288
 20
155.8898485680456
 30
0.0
 40
12.5
  1
und Auslaufende %%C102
 41
0.8
  7
GREEKS
100
AcDbText
  0
ARC
  5
888
330
1E
100
AcDbEntity
  8
SCHRAFF
100
AcDbCircle
 10
514.0641514903215
 20
582.3059869287541
 30
0.0
 40
3.673643966252258
100
AcDbArc
 50
113.4879150244392
 51
225.7343693446188
  0
HATCH
  5
889
330
1E
100
AcDbEntity
  8
SCHRAFF
100
AcDbHatch
 10
0.0
 20
0.0
 30
0.0
210
0.0
220
0.0
230
1.0
  2
_USER
 70
     0
 71
     0
 91
        1
 92
        7
 72
     1
 73
     1
 93
        3
 10
512.5999999999997
 20
585.6752480353129
 42
0.0
 10
511.4999999999999
 20
582.6752480353132
 42
0.0
 10
511.4999999999999
 20
579.6752480353133
 42
-0.5330896014508709
 97
        0
 75
     0
 76
     0
 52
0.0
 41
0.1
 77
     0
 78
     1
 53
180.0
 43
1125.0
 44
0.0
 45
0.0
 46
0.1
 79
     0
 47
0.0396222134187813
 98
        1
 10
511.1588083371048
 20
583.7194893699656
  0
HATCH
  5
88A
330
1E
100
AcDbEntity
  8
SCHRAFF
100
AcDbHatch
 10
0.0
 20
0.0
 30
0.0
210
0.0
220
0.0
230
1.0
  2
_USER
 70
     0
 71
     1
 91
        1
 92
        7
 72
     1
 73
     1
 93
        3
 10
612.3999999999997
 20
585.6752480353129
 42
0.0
 10
613.4999999999997
 20
582.6752480353132
 42
0.0
 10
613.4999999999997
 20
579.6752480353133
 42
0.5330896014508709
 97
        3
330
8B7
330
8B5
330
88B
 75
     0
 76
     0
 52
0.0
 41
0.1
 77
     0
 78
     1
 53
0.0
 43
0.0
 44
0.0
 45
0.0
 46
0.1
 79
     0
 47
0.0396222134187813
 98
        1
 10
613.8411916628947
 20
583.7194893699656
  0
ARC
  5
88B
102
{ACAD_REACTORS
330
88A
102
}
330
1E
100
AcDbEntity
  8
SCHRAFF
100
AcDbCircle
 10
610.9358485096779
 20
582.3059869287541
 30
0.0
 40
3.673643966252258
100
AcDbArc
 50
314.2656306553813
 51
66.51208497556075
  0
ARC
  5
88C
330
1E
100
AcDbEntity
  8
STEMPEL
100
AcDbCircle
 10
614.4999999999998
 20
614.8058923451396
 30
0.0
 40
12.0
100
AcDbArc
 50
180.0
 51
200.1363034282467
  0
ARC
  5
88D
330
1E
100
AcDbEntity
  8
STEMPEL
100
AcDbCircle
 10
510.5000000000001
 20
614.8058923451396
 30
0.0
 40
12.0
100
AcDbArc
 50
339.8636965717533
 51
0.0
  0
ARC
  5
88E
330
1E
100
AcDbEntity
  8
SCHRAFF
100
AcDbCircle
 10
598.6259470649931
 20
582.6752480353127
 30
0.0
 40
7.405117700106271
100
AcDbArc
 50
336.1010251628487
 51
23.89897483715128
  0
ARC
  5
88F
330
1E
100
AcDbEntity
  8
SCHRAFF
100
AcDbCircle
 10
603.625947064993
 20
582.6752480353127
 30
0.0
 40
7.405117700106271
100
AcDbArc
 50
336.1010251628487
 51
23.89897483715128
  0
ARC
  5
890
330
1E
100
AcDbEntity
  8
SCHRAFF
100
AcDbCircle
 10
518.625947064993
 20
582.6752480353129
 30
0.0
 40
7.405117700106271
100
AcDbArc
 50
336.1010251628487
 51
23.89897483715128
  0
ARC
  5
891
330
1E
100
AcDbEntity
  8
SCHRAFF
100
AcDbCircle
 10
513.625947064993
 20
582.6752480353129
 30
0.0
 40
7.405117700106271
100
AcDbArc
 50
336.1010251628487
 51
23.89897483715128
  0
ARC
  5
892
330
1E
100
AcDbEntity
  8
SCHRAFF
100
AcDbCircle
 10
508.625947064993
 20
582.6752480353129
 30
0.0
 40
7.405117700106271
100
AcDbArc
 50
336.1010251628487
 51
23.89897483715128
  0
TEXT
  5
893
330
1E
100
AcDbEntity
  8
TEXT
 62
     1
100
AcDbText
 10
546.2811195105019
 20
495.1569269926949
 30
0.0
 40
17.5
  1
DN100
 50
90.0
 41
0.8
  7
GREEKS
100
AcDbText
  0
SOLID
  5
894
330
1E
100
AcDbEntity
  8
BEM
100
AcDbTrace
 10
708.5418323661873
 20
490.1752480353128
 30
0.0
 11
714.3751656995206
 21
490.1752480353128
 31
0.0
 12
711.4584990328539
 22
472.6752480353129
 32
0.0
 13
711.4584990328539
 23
472.6752480353129
 33
0.0
  0
LINE
  5
895
330
1E
100
AcDbEntity
  8
BEM
100
AcDbLine
 10
618.4999999999997
 20
472.675248035313
 30
0.0
 11
716.4584990328539
 21
472.6752480353129
 31
0.0
  0
HATCH
  5
896
330
1E
100
AcDbEntity
  8
SCHRAFF
100
AcDbHatch
 10
0.0
 20
0.0
 30
0.0
210
0.0
220
0.0
230
1.0
  2
_USER
 70
     0
 71
     1
 91
        1
 92
        7
 72
     0
 73
     1
 93
        4
 10
611.4999999999997
 20
495.6519801528748
 10
613.4999999999997
 20
495.0824078394019
 10
613.4999999999998
 20
556.1173892433032
 10
611.4999999999996
 20
555.5063201814932
 97
        3
330
897
330
8B2
330
8B5
 75
     0
 76
     0
 52
135.0
 41
2.0
 77
     0
 78
     1
 53
135.0
 43
0.0
 44
0.0
 45
-1.414213562373095
 46
-1.414213562373094
 79
     0
 47
0.1633444966796125
 98
        1
 10
612.283336625027
 20
538.2642763054368
  0
POLYLINE
  5
897
102
{ACAD_REACTORS
330
896
102
}
330
1E
100
AcDbEntity
  8
HILF
100
AcDb2dPolyline
 66
     1
 10
0.0
 20
0.0
 30
0.0
  0
VERTEX
  5
898
330
897
100
AcDbEntity
  8
HILF
100
AcDbVertex
100
AcDb2dVertex
 10
613.4999999999998
 20
495.0824078394019
 30
0.0
  0
VERTEX
  5
899
330
897
100
AcDbEntity
  8
HILF
100
AcDbVertex
100
AcDb2dVertex
 10
604.0186492843895
 20
497.7825652703711
 30
0.0
  0
VERTEX
  5
89A
330
897
100
AcDbEntity
  8
HILF
100
AcDbVertex
100
AcDb2dVertex
 10
593.9425667145395
 20
501.2814968769194
 30
0.0
  0
VERTEX
  5
89B
330
897
100
AcDbEntity
  8
HILF
100
AcDbVertex
100
AcDb2dVertex
 10
586.3877632687266
 20
504.6127035272636
 30
0.0
  0
VERTEX
  5
89C
330
897
100
AcDbEntity
  8
HILF
100
AcDbVertex
100
AcDb2dVertex
 10
580.9783200736005
 20
507.8041393716598
 30
0.0
  0
VERTEX
  5
89D
330
897
100
AcDbEntity
  8
HILF
100
AcDbVertex
100
AcDb2dVertex
 10
577.3383182558111
 20
510.8837585603635
 30
0.0
  0
VERTEX
  5
89E
330
897
100
AcDbEntity
  8
HILF
100
AcDbVertex
100
AcDb2dVertex
 10
575.0918389420079
 20
513.8795152436304
 30
0.0
  0
VERTEX
  5
89F
330
897
100
AcDbEntity
  8
HILF
100
AcDbVertex
100
AcDb2dVertex
 10
573.8629632588405
 20
516.8193635717162
 30
0.0
  0
VERTEX
  5
8A0
330
897
100
AcDbEntity
  8
HILF
100
AcDbVertex
100
AcDb2dVertex
 10
573.275772332959
 20
519.731257694877
 30
0.0
  0
VERTEX
  5
8A1
330
897
100
AcDbEntity
  8
HILF
100
AcDbVertex
100
AcDb2dVertex
 10
573.0196231258769
 20
522.6349984675501
 30
0.0
  0
VERTEX
  5
8A2
330
897
100
AcDbEntity
  8
HILF
100
AcDbVertex
100
AcDb2dVertex
 10
573.0449759385646
 20
525.5177735609026
 30
0.0
  0
VERTEX
  5
8A3
330
897
100
AcDbEntity
  8
HILF
100
AcDbVertex
100
AcDb2dVertex
 10
573.3675669068563
 20
528.358617350284
 30
0.0
  0
VERTEX
  5
8A4
330
897
100
AcDbEntity
  8
HILF
100
AcDbVertex
100
AcDb2dVertex
 10
574.0031321665866
 20
531.1365642110433
 30
0.0
  0
VERTEX
  5
8A5
330
897
100
AcDbEntity
  8
HILF
100
AcDbVertex
100
AcDb2dVertex
 10
574.9674078535897
 20
533.83064851853
 30
0.0
  0
VERTEX
  5
8A6
330
897
100
AcDbEntity
  8
HILF
100
AcDbVertex
100
AcDb2dVertex
 10
576.2761301037001
 20
536.419904648093
 30
0.0
  0
VERTEX
  5
8A7
330
897
100
AcDbEntity
  8
HILF
100
AcDbVertex
100
AcDb2dVertex
 10
577.9450350527521
 20
538.8833669750818
 30
0.0
  0
VERTEX
  5
8A8
330
897
100
AcDbEntity
  8
HILF
100
AcDbVertex
100
AcDb2dVertex
 10
579.9898588365801
 20
541.2000698748455
 30
0.0
  0
VERTEX
  5
8A9
330
897
100
AcDbEntity
  8
HILF
100
AcDbVertex
100
AcDb2dVertex
 10
582.4575184612343
 20
543.3653543212025
 30
0.0
  0
VERTEX
  5
8AA
330
897
100
AcDbEntity
  8
HILF
100
AcDbVertex
100
AcDb2dVertex
 10
585.5196544136287
 20
545.4397876818481
 30
0.0
  0
VERTEX
  5
8AB
330
897
100
AcDbEntity
  8
HILF
100
AcDbVertex
100
AcDb2dVertex
 10
589.3790880508928
 20
547.5002439229468
 30
0.0
  0
VERTEX
  5
8AC
330
897
100
AcDbEntity
  8
HILF
100
AcDbVertex
100
AcDb2dVertex
 10
594.2386407301568
 20
549.6235970106631
 30
0.0
  0
VERTEX
  5
8AD
330
897
100
AcDbEntity
  8
HILF
100
AcDbVertex
100
AcDb2dVertex
 10
600.30113380855
 20
551.8867209111611
 30
0.0
  0
VERTEX
  5
8AE
330
897
100
AcDbEntity
  8
HILF
100
AcDbVertex
100
AcDb2dVertex
 10
607.7693886432025
 20
554.3664895906056
 30
0.0
  0
VERTEX
  5
8AF
330
897
100
AcDbEntity
  8
HILF
100
AcDbVertex
100
AcDb2dVertex
 10
613.4999999999998
 20
556.1173892433032
 30
0.0
  0
SEQEND
  5
8B0
330
897
100
AcDbEntity
  8
HILF
  0
DIMENSION
  5
8B1
330
1E
100
AcDbEntity
  8
BEM
100
AcDbDimension
  2
*D6
 10
613.4999999999998
 20
525.1752480353129
 30
0.0
 11
660.6666666666663
 21
541.425248035313
 31
0.0
 70
    32
 71
     5
 42
2.0
  3
Standard
100
AcDbAlignedDimension
 13
611.4999999999997
 23
525.1752480353129
 33
0.0
 14
613.4999999999998
 24
525.1752480353129
 34
0.0
100
AcDbRotatedDimension
1001
ACAD
1000
DSTYLE
1002
{
1070
    40
1040
5.0
1070
    41
1040
3.5
1070
    42
1040
1.0
1070
    43
1040
7.0
1070
    44
1040
1.0
1070
    73
1070
     0
1070
    74
1070
     0
1070
    77
1070
     1
1070
    78
1070
     8
1070
    79
1070
     2
1070
   140
1040
3.5
1070
   141
1040
1.5
1070
   146
1040
0.5142857142857144
1070
   147
1040
1.5
1070
   172
1070
     1
1070
   178
1070
     1
1070
   179
1070
     2
1070
   271
1070
     2
1070
   272
1070
     2
1070
   284
1070
     8
1070
   285
1070
     8
1070
   286
1070
     8
1002
}
  0
LINE
  5
8B2
102
{ACAD_REACTORS
330
896
102
}
330
1E
100
AcDbEntity
  8
STEMPEL
100
AcDbLine
 10
611.4999999999997
 20
555.5063201814932
 30
0.0
 11
611.4999999999997
 21
495.6519801528748
 31
0.0
  0
LINE
  5
8B3
330
1E
100
AcDbEntity
  8
STEMPEL
100
AcDbLine
 10
613.4999999999998
 20
472.675248035313
 30
0.0
 11
511.4999999999997
 21
472.675248035313
 31
0.0
  0
LINE
  5
8B4
330
1E
100
AcDbEntity
  8
STEMPEL
100
AcDbLine
 10
511.4999999999997
 20
582.675248035313
 30
0.0
 11
511.4999999999997
 21
472.675248035313
 31
0.0
  0
LINE
  5
8B5
102
{ACAD_REACTORS
330
896
330
88A
102
}
330
1E
100
AcDbEntity
  8
STEMPEL
100
AcDbLine
 10
613.4999999999998
 20
582.6752480353129
 30
0.0
 11
613.4999999999998
 21
472.675248035313
 31
0.0
  0
LINE
  5
8B6
330
1E
100
AcDbEntity
  8
STEMPEL
100
AcDbLine
 10
613.4999999999998
 20
582.6752480353129
 30
0.0
 11
511.4999999999997
 21
582.675248035313
 31
0.0
  0
LINE
  5
8B7
102
{ACAD_REACTORS
330
88A
102
}
330
1E
100
AcDbEntity
  8
STEMPEL
100
AcDbLine
 10
603.2334842093605
 20
610.6748365552384
 30
0.0
 11
613.4999999999998
 21
582.6752480353129
 31
0.0
  0
LINE
  5
8B8
330
1E
100
AcDbEntity
  8
STEMPEL
100
AcDbLine
 10
521.7665157906393
 20
610.6748365552383
 30
0.0
 11
511.4999999999997
 21
582.675248035313
 31
0.0
  0
LINE
  5
8B9
330
1E
100
AcDbEntity
  8
HILF
100
AcDbLine
 10
524.9629423335773
 20
610.82804128513
 30
0.0
 11
562.4999999999998
 21
582.675248035313
 31
0.0
  0
LINE
  5
8BA
330
1E
100
AcDbEntity
  8
HILF
100
AcDbLine
 10
562.4999999999998
 20
582.675248035313
 30
0.0
 11
600.0370576664225
 21
610.82804128513
 31
0.0
  0
DIMENSION
  5
8BB
330
1E
100
AcDbEntity
  8
BEM
100
AcDbDimension
  2
*D7
 10
613.4999999999998
 20
430.7844082740171
 30
0.0
 11
562.4999999999998
 21
447.0344082740171
 31
0.0
 70
    32
  1
%%c<>
 71
     5
 42
102.0
  3
Standard
100
AcDbAlignedDimension
 13
511.4999999999997
 23
472.675248035313
 33
0.0
 14
613.4999999999998
 24
472.675248035313
 34
0.0
100
AcDbRotatedDimension
1001
ACAD
1000
DSTYLE
1002
{
1070
    40
1040
5.0
1070
    41
1040
3.5
1070
    42
1040
1.0
1070
    43
1040
7.0
1070
    44
1040
1.0
1070
    73
1070
     0
1070
    74
1070
     0
1070
    77
1070
     1
1070
    78
1070
     8
1070
    79
1070
     2
1070
   140
1040
3.5
1070
   141
1040
1.5
1070
   146
1040
0.5142857142857144
1070
   147
1040
1.5
1070
   172
1070
     1
1070
   178
1070
     1
1070
   179
1070
     2
1070
   271
1070
     2
1070
   272
1070
     2
1070
   284
1070
     8
1070
   285
1070
     8
1070
   286
1070
     8
1002
}
  0
LINE
  5
8BC
330
1E
100
AcDbEntity
  8
HILF
100
AcDbLine
 10
599.6520925775715
 20
612.6752480353128
 30
0.0
 11
525.3479074224285
 21
612.6752480353131
 31
0.0
  0
ARC
  5
8BD
330
1E
100
AcDbEntity
  8
SCHRAFF
100
AcDbCircle
 10
523.6259470649931
 20
582.6752480353129
 30
0.0
 40
7.405117700106271
100
AcDbArc
 50
336.1010251628487
 51
23.89897483715128
  0
ARC
  5
8BE
330
1E
100
AcDbEntity
  8
SCHRAFF
100
AcDbCircle
 10
528.625947064993
 20
582.6752480353129
 30
0.0
 40
7.405117700106271
100
AcDbArc
 50
336.1010251628487
 51
23.89897483715128
  0
ARC
  5
8BF
330
1E
100
AcDbEntity
  8
SCHRAFF
100
AcDbCircle
 10
533.625947064993
 20
582.6752480353129
 30
0.0
 40
7.405117700106271
100
AcDbArc
 50
336.1010251628487
 51
23.89897483715128
  0
ARC
  5
8C0
330
1E
100
AcDbEntity
  8
SCHRAFF
100
AcDbCircle
 10
543.625947064993
 20
582.6752480353129
 30
0.0
 40
7.405117700106271
100
AcDbArc
 50
336.1010251628487
 51
23.89897483715128
  0
ARC
  5
8C1
330
1E
100
AcDbEntity
  8
SCHRAFF
100
AcDbCircle
 10
538.625947064993
 20
582.6752480353129
 30
0.0
 40
7.405117700106271
100
AcDbArc
 50
336.1010251628487
 51
23.89897483715128
  0
ARC
  5
8C2
330
1E
100
AcDbEntity
  8
SCHRAFF
100
AcDbCircle
 10
553.625947064993
 20
582.6752480353128
 30
0.0
 40
7.405117700106271
100
AcDbArc
 50
336.1010251628487
 51
23.89897483715128
  0
ARC
  5
8C3
330
1E
100
AcDbEntity
  8
SCHRAFF
100
AcDbCircle
 10
548.6259470649931
 20
582.6752480353128
 30
0.0
 40
7.405117700106271
100
AcDbArc
 50
336.1010251628487
 51
23.89897483715128
  0
ARC
  5
8C4
330
1E
100
AcDbEntity
  8
SCHRAFF
100
AcDbCircle
 10
563.625947064993
 20
582.6752480353128
 30
0.0
 40
7.405117700106271
100
AcDbArc
 50
336.1010251628487
 51
23.89897483715128
  0
ARC
  5
8C5
330
1E
100
AcDbEntity
  8
SCHRAFF
100
AcDbCircle
 10
558.625947064993
 20
582.6752480353128
 30
0.0
 40
7.405117700106271
100
AcDbArc
 50
336.1010251628487
 51
23.89897483715128
  0
ARC
  5
8C6
330
1E
100
AcDbEntity
  8
SCHRAFF
100
AcDbCircle
 10
573.6259470649931
 20
582.6752480353128
 30
0.0
 40
7.405117700106271
100
AcDbArc
 50
336.1010251628487
 51
23.89897483715128
  0
ARC
  5
8C7
330
1E
100
AcDbEntity
  8
SCHRAFF
100
AcDbCircle
 10
568.625947064993
 20
582.6752480353128
 30
0.0
 40
7.405117700106271
100
AcDbArc
 50
336.1010251628487
 51
23.89897483715128
  0
ARC
  5
8C8
330
1E
100
AcDbEntity
  8
SCHRAFF
100
AcDbCircle
 10
583.625947064993
 20
582.6752480353128
 30
0.0
 40
7.405117700106271
100
AcDbArc
 50
336.1010251628487
 51
23.89897483715128
  0
ARC
  5
8C9
330
1E
100
AcDbEntity
  8
SCHRAFF
100
AcDbCircle
 10
578.625947064993
 20
582.6752480353128
 30
0.0
 40
7.405117700106271
100
AcDbArc
 50
336.1010251628487
 51
23.89897483715128
  0
ARC
  5
8CA
330
1E
100
AcDbEntity
  8
SCHRAFF
100
AcDbCircle
 10
593.625947064993
 20
582.6752480353127
 30
0.0
 40
7.405117700106271
100
AcDbArc
 50
336.1010251628487
 51
23.89897483715128
  0
ARC
  5
8CB
330
1E
100
AcDbEntity
  8
SCHRAFF
100
AcDbCircle
 10
588.625947064993
 20
582.6752480353127
 30
0.0
 40
7.405117700106271
100
AcDbArc
 50
336.1010251628487
 51
23.89897483715128
  0
ENDSEC
  0
SECTION
  2
OBJECTS
  0
DICTIONARY
  5
C
330
0
100
AcDbDictionary
281
     1
  3
ACAD_COLOR
350
DF
  3
ACAD_GROUP
350
D
  3
ACAD_LAYOUT
350
19
  3
ACAD_MATERIAL
350
DE
  3
ACAD_MLINESTYLE
350
16
  3
ACAD_PLOTSETTINGS
350
18
  3
ACAD_PLOTSTYLENAME
350
E
  3
AcDbVariableDictionary
350
EA
  0
DICTIONARY
  5
A0
330
1E
100
AcDbDictionary
280
     1
281
     1
  3
ACAD_LAYOUTSELFREF
360
D4
  0
DICTIONARY
  5
A2
330
1A
100
AcDbDictionary
280
     1
281
     1
  3
ACAD_LAYOUTSELFREF
360
D3
  0
DICTIONARY
  5
DF
102
{ACAD_REACTORS
330
C
102
}
330
C
100
AcDbDictionary
281
     1
  0
DICTIONARY
  5
D
102
{ACAD_REACTORS
330
C
102
}
330
C
100
AcDbDictionary
281
     1
  0
DICTIONARY
  5
19
102
{ACAD_REACTORS
330
C
102
}
330
C
100
AcDbDictionary
281
     1
  3
Layout1
350
1D
  3
Model
350
21
  0
DICTIONARY
  5
DE
102
{ACAD_REACTORS
330
C
102
}
330
C
100
AcDbDictionary
281
     1
  0
DICTIONARY
  5
16
102
{ACAD_REACTORS
330
C
102
}
330
C
100
AcDbDictionary
281
     1
  3
Standard
350
17
  0
DICTIONARY
  5
18
102
{ACAD_REACTORS
330
C
102
}
330
C
100
AcDbDictionary
281
     1
  0
ACDBDICTIONARYWDFLT
  5
E
102
{ACAD_REACTORS
330
C
102
}
330
C
100
AcDbDictionary
281
     1
  3
Normal
350
F
100
AcDbDictionaryWithDefault
340
F
  0
DICTIONARY
  5
EA
102
{ACAD_REACTORS
330
C
102
}
330
C
100
AcDbDictionary
281
     1
  3
DIMASSOC
350
EB
  3
PROJECTNAME
350
EC
  0
XRECORD
  5
D4
102
{ACAD_REACTORS
330
A0
102
}
330
A0
100
AcDbXrecord
280
     1
340
1E
  0
XRECORD
  5
D3
102
{ACAD_REACTORS
330
A2
102
}
330
A2
100
AcDbXrecord
280
     1
340
1A
  0
LAYOUT
  5
1D
102
{ACAD_REACTORS
330
19
102
}
330
19
100
AcDbPlotSettings
  1

  2
\\NT_WORK01\HP LaserJet 5000 PCL 6
  4

  6

 40
0.0
 41
0.0
 42
0.0
 43
0.0
 44
0.0
 45
0.0
 46
0.0
 47
0.0
 48
0.0
 49
0.0
140
0.0
141
0.0
142
1.0
143
1.0
 70
   688
 72
     0
 73
     0
 74
     5
  7

 75
    16
147
1.0
 76
     0
 77
     2
 78
   300
148
0.0
149
0.0
100
AcDbLayout
  1
Layout1
 70
     0
 71
     1
 10
0.0
 20
0.0
 11
12.0
 21
9.0
 12
0.0
 22
0.0
 32
0.0
 14
1.000000000000000E+20
 24
1.000000000000000E+20
 34
1.000000000000000E+20
 15
-1.000000000000000E+20
 25
-1.000000000000000E+20
 35
-1.000000000000000E+20
146
0.0
 13
0.0
 23
0.0
 33
0.0
 16
1.0
 26
0.0
 36
0.0
 17
0.0
 27
1.0
 37
0.0
 76
     0
330
1A
  0
LAYOUT
  5
21
102
{ACAD_REACTORS
330
19
102
}
330
19
100
AcDbPlotSettings
  1

  2
none_device
  4
Letter_(8.50_x_11.00_Inches)
  6

 40
6.349999904632568
 41
6.349999904632568
 42
6.350006103515625
 43
6.350006103515625
 44
215.8999938964844
 45
279.3999938964844
 46
0.0
 47
0.0
 48
0.0
 49
0.0
140
0.0
141
0.0
142
1.0
143
1.0
 70
 11952
 72
     0
 73
     1
 74
     0
  7

 75
     0
147
1.0
 76
     0
 77
     2
 78
   300
148
5752.241998716224
149
227.7419472637029
100
AcDbLayout
  1
Model
 70
     1
 71
     0
 10
0.0
 20
0.0
 11
12.0
 21
9.0
 12
0.0
 22
0.0
 32
0.0
 14
0.0
 24
0.0
 34
0.0
 15
0.0
 25
0.0
 35
0.0
146
0.0
 13
0.0
 23
0.0
 33
0.0
 16
1.0
 26
0.0
 36
0.0
 17
0.0
 27
1.0
 37
0.0
 76
     0
330
1E
  0
MLINESTYLE
  5
17
102
{ACAD_REACTORS
330
16
102
}
330
16
100
AcDbMlineStyle
  2
STANDARD
 70
     0
  3

 62
   256
 51
90.0
 52
90.0
 71
     2
 49
0.5
 62
   256
  6
BYLAYER
 49
-0.5
 62
   256
  6
BYLAYER
  0
ACDBPLACEHOLDER
  5
F
102
{ACAD_REACTORS
330
E
102
}
330
E
  0
DICTIONARYVAR
  5
EB
102
{ACAD_REACTORS
330
EA
102
}
330
EA
100
DictionaryVariables
280
     0
  1
1
  0
DICTIONARYVAR
  5
EC
102
{ACAD_REACTORS
330
EA
102
}
330
EA
100
DictionaryVariables
280
     0
  1

  0
ENDSEC
  0
EOF
