  0
SECTION
  2
HEADER
  9
$ACADVER
  1
AC1018
  9
$ACADMAINTVER
 70
     2
  9
$DWGCODEPAGE
  3
ANSI_1252
  9
$INSBASE
 10
0.0
 20
0.0
 30
0.0
  9
$EXTMIN
 10
-0.0000000000002842
 20
-0.0000000000002842
 30
0.0
  9
$EXTMAX
 10
1050.0
 20
1485.0
 30
0.0
  9
$LIMMIN
 10
0.0
 20
0.0
  9
$LIMMAX
 10
1050.0
 20
1485.0
  9
$ORTHOMODE
 70
     1
  9
$REGENMODE
 70
     1
  9
$FILLMODE
 70
     1
  9
$QTEXTMODE
 70
     0
  9
$MIRRTEXT
 70
     1
  9
$LTSCALE
 40
50.0
  9
$ATTMODE
 70
     1
  9
$TEXTSIZE
 40
3.5
  9
$TRACEWID
 40
0.5
  9
$TEXTSTYLE
  7
STANDARD
  9
$CLAYER
  8
BEM
  9
$CELTYPE
  6
ByLayer
  9
$CECOLOR
 62
   256
  9
$CELTSCALE
 40
1.0
  9
$DISPSILH
 70
     0
  9
$DIMSCALE
 40
5.0
  9
$DIMASZ
 40
3.5
  9
$DIMEXO
 40
1.0
  9
$DIMDLI
 40
7.0
  9
$DIMRND
 40
0.0
  9
$DIMDLE
 40
0.0
  9
$DIMEXE
 40
1.0
  9
$DIMTP
 40
0.0
  9
$DIMTM
 40
0.0
  9
$DIMTXT
 40
3.5
  9
$DIMCEN
 40
1.5
  9
$DIMTSZ
 40
0.0
  9
$DIMTOL
 70
     0
  9
$DIMLIM
 70
     0
  9
$DIMTIH
 70
     0
  9
$DIMTOH
 70
     0
  9
$DIMSE1
 70
     0
  9
$DIMSE2
 70
     0
  9
$DIMTAD
 70
     1
  9
$DIMZIN
 70
     8
  9
$DIMBLK
  1

  9
$DIMASO
 70
     1
  9
$DIMSHO
 70
     0
  9
$DIMPOST
  1

  9
$DIMAPOST
  1

  9
$DIMALT
 70
     0
  9
$DIMALTD
 70
     2
  9
$DIMALTF
 40
25.4
  9
$DIMLFAC
 40
1.0
  9
$DIMTOFL
 70
     1
  9
$DIMTVP
 40
0.0
  9
$DIMTIX
 70
     0
  9
$DIMSOXD
 70
     0
  9
$DIMSAH
 70
     0
  9
$DIMBLK1
  1

  9
$DIMBLK2
  1

  9
$DIMSTYLE
  2
Standard
  9
$DIMCLRD
 70
     0
  9
$DIMCLRE
 70
     0
  9
$DIMCLRT
 70
     1
  9
$DIMTFAC
 40
0.5142857142857144
  9
$DIMGAP
 40
1.5
  9
$DIMJUST
 70
     0
  9
$DIMSD1
 70
     0
  9
$DIMSD2
 70
     0
  9
$DIMTOLJ
 70
     1
  9
$DIMTZIN
 70
     8
  9
$DIMALTZ
 70
     8
  9
$DIMALTTZ
 70
     8
  9
$DIMUPT
 70
     0
  9
$DIMDEC
 70
     2
  9
$DIMTDEC
 70
     2
  9
$DIMALTU
 70
     2
  9
$DIMALTTD
 70
     2
  9
$DIMTXSTY
  7
STANDARD
  9
$DIMAUNIT
 70
     0
  9
$DIMADEC
 70
     2
  9
$DIMALTRND
 40
0.0
  9
$DIMAZIN
 70
     2
  9
$DIMDSEP
 70
    46
  9
$DIMATFIT
 70
     3
  9
$DIMFRAC
 70
     0
  9
$DIMLDRBLK
  1

  9
$DIMLUNIT
 70
     2
  9
$DIMLWD
 70
    -2
  9
$DIMLWE
 70
    -2
  9
$DIMTMOVE
 70
     0
  9
$LUNITS
 70
     2
  9
$LUPREC
 70
     2
  9
$SKETCHINC
 40
1.0
  9
$FILLETRAD
 40
12.0
  9
$AUNITS
 70
     0
  9
$AUPREC
 70
     0
  9
$MENU
  1
ACAD
  9
$ELEVATION
 40
0.0
  9
$PELEVATION
 40
0.0
  9
$THICKNESS
 40
0.0
  9
$LIMCHECK
 70
     0
  9
$CHAMFERA
 40
0.0
  9
$CHAMFERB
 40
0.0
  9
$CHAMFERC
 40
0.0
  9
$CHAMFERD
 40
0.0
  9
$SKPOLY
 70
     0
  9
$TDCREATE
 40
2455397.823042361
  9
$TDUCREATE
 40
2455397.781375695
  9
$TDUPDATE
 40
2455889.465437454
  9
$TDUUPDATE
 40
2455889.423770787
  9
$TDINDWG
 40
0.2427986574
  9
$TDUSRTIMER
 40
0.2427986574
  9
$USRTIMER
 70
     1
  9
$ANGBASE
 50
0.0
  9
$ANGDIR
 70
     0
  9
$PDMODE
 70
     0
  9
$PDSIZE
 40
0.0
  9
$PLINEWID
 40
0.0
  9
$SPLFRAME
 70
     0
  9
$SPLINETYPE
 70
     6
  9
$SPLINESEGS
 70
     8
  9
$HANDSEED
  5
1A39
  9
$SURFTAB1
 70
     6
  9
$SURFTAB2
 70
     6
  9
$SURFTYPE
 70
     6
  9
$SURFU
 70
     6
  9
$SURFV
 70
     6
  9
$UCSBASE
  2

  9
$UCSNAME
  2

  9
$UCSORG
 10
0.0
 20
0.0
 30
0.0
  9
$UCSXDIR
 10
1.0
 20
0.0
 30
0.0
  9
$UCSYDIR
 10
0.0
 20
1.0
 30
0.0
  9
$UCSORTHOREF
  2

  9
$UCSORTHOVIEW
 70
     0
  9
$UCSORGTOP
 10
0.0
 20
0.0
 30
0.0
  9
$UCSORGBOTTOM
 10
0.0
 20
0.0
 30
0.0
  9
$UCSORGLEFT
 10
0.0
 20
0.0
 30
0.0
  9
$UCSORGRIGHT
 10
0.0
 20
0.0
 30
0.0
  9
$UCSORGFRONT
 10
0.0
 20
0.0
 30
0.0
  9
$UCSORGBACK
 10
0.0
 20
0.0
 30
0.0
  9
$PUCSBASE
  2

  9
$PUCSNAME
  2

  9
$PUCSORG
 10
0.0
 20
0.0
 30
0.0
  9
$PUCSXDIR
 10
1.0
 20
0.0
 30
0.0
  9
$PUCSYDIR
 10
0.0
 20
1.0
 30
0.0
  9
$PUCSORTHOREF
  2

  9
$PUCSORTHOVIEW
 70
     0
  9
$PUCSORGTOP
 10
0.0
 20
0.0
 30
0.0
  9
$PUCSORGBOTTOM
 10
0.0
 20
0.0
 30
0.0
  9
$PUCSORGLEFT
 10
0.0
 20
0.0
 30
0.0
  9
$PUCSORGRIGHT
 10
0.0
 20
0.0
 30
0.0
  9
$PUCSORGFRONT
 10
0.0
 20
0.0
 30
0.0
  9
$PUCSORGBACK
 10
0.0
 20
0.0
 30
0.0
  9
$USERI1
 70
     0
  9
$USERI2
 70
     0
  9
$USERI3
 70
     0
  9
$USERI4
 70
     0
  9
$USERI5
 70
     0
  9
$USERR1
 40
0.0
  9
$USERR2
 40
0.0
  9
$USERR3
 40
0.0
  9
$USERR4
 40
0.0
  9
$USERR5
 40
0.0
  9
$WORLDVIEW
 70
     1
  9
$SHADEDGE
 70
     3
  9
$SHADEDIF
 70
    70
  9
$TILEMODE
 70
     1
  9
$MAXACTVP
 70
    16
  9
$PINSBASE
 10
0.0
 20
0.0
 30
0.0
  9
$PLIMCHECK
 70
     0
  9
$PEXTMIN
 10
1.000000000000000E+20
 20
1.000000000000000E+20
 30
1.000000000000000E+20
  9
$PEXTMAX
 10
-1.000000000000000E+20
 20
-1.000000000000000E+20
 30
-1.000000000000000E+20
  9
$PLIMMIN
 10
0.0
 20
0.0
  9
$PLIMMAX
 10
12.0
 20
9.0
  9
$UNITMODE
 70
     0
  9
$VISRETAIN
 70
     0
  9
$PLINEGEN
 70
     0
  9
$PSLTSCALE
 70
     0
  9
$TREEDEPTH
 70
  3020
  9
$CMLSTYLE
  2
Standard
  9
$CMLJUST
 70
     0
  9
$CMLSCALE
 40
1.0
  9
$PROXYGRAPHICS
 70
     1
  9
$MEASUREMENT
 70
     0
  9
$CELWEIGHT
370
    -1
  9
$ENDCAPS
280
     0
  9
$JOINSTYLE
280
     0
  9
$LWDISPLAY
290
     0
  9
$INSUNITS
 70
     0
  9
$HYPERLINKBASE
  1

  9
$STYLESHEET
  1
monochrome1.ctb
  9
$XEDIT
290
     1
  9
$CEPSNTYPE
380
     0
  9
$PSTYLEMODE
290
     1
  9
$FINGERPRINTGUID
  2
{D68B0D02-A558-11D7-B632-000102183313}
  9
$VERSIONGUID
  2
{DB849DB9-0162-427F-85FE-2B5027BF09BC}
  9
$EXTNAMES
290
     1
  9
$PSVPSCALE
 40
0.0
  9
$OLESTARTUP
290
     0
  9
$SORTENTS
280
   127
  9
$INDEXCTL
280
     0
  9
$HIDETEXT
280
     0
  9
$XCLIPFRAME
290
     0
  9
$HALOGAP
280
     0
  9
$OBSCOLOR
 70
   257
  9
$OBSLTYPE
280
     0
  9
$INTERSECTIONDISPLAY
280
     0
  9
$INTERSECTIONCOLOR
 70
   257
  9
$DIMASSOC
280
     1
  9
$PROJECTNAME
  1

  0
ENDSEC
  0
SECTION
  2
CLASSES
  0
CLASS
  1
ACDBDICTIONARYWDFLT
  2
AcDbDictionaryWithDefault
  3
ObjectDBX Classes
 90
        0
 91
        1
280
     0
281
     0
  0
CLASS
  1
DICTIONARYVAR
  2
AcDbDictionaryVar
  3
ObjectDBX Classes
 90
        0
 91
        2
280
     0
281
     0
  0
CLASS
  1
DIMASSOC
  2
AcDbDimAssoc
  3
"AcDbDimAssoc|Product Desc:     AcDim ARX App For Dimension|Company:          Autodesk, Inc.|WEB Address:      www.autodesk.com"
 90
        0
 91
        0
280
     0
281
     0
  0
ENDSEC
  0
SECTION
  2
TABLES
  0
TABLE
  2
VPORT
  5
8
330
0
100
AcDbSymbolTable
 70
     2
  0
VPORT
  5
1A38
330
8
100
AcDbSymbolTableRecord
100
AcDbViewportTableRecord
  2
*Active
 70
     0
 10
0.0
 20
0.0
 11
1.0
 21
1.0
 12
548.7480574379032
 22
742.5000000000001
 13
0.0
 23
0.0
 14
1.0
 24
1.0
 15
10.0
 25
10.0
 16
0.0
 26
0.0
 36
1.0
 17
0.0
 27
0.0
 37
0.0
 40
1485.253078325513
 41
1.395862068965517
 42
50.0
 43
0.0
 44
0.0
 50
0.0
 51
0.0
 71
     0
 72
  1500
 73
     1
 74
     0
 75
     0
 76
     0
 77
     0
 78
     0
281
     0
 65
     1
110
0.0
120
0.0
130
0.0
111
1.0
121
0.0
131
0.0
112
0.0
122
1.0
132
0.0
 79
     0
146
0.0
  0
ENDTAB
  0
TABLE
  2
LTYPE
  5
5
330
0
100
AcDbSymbolTable
 70
     2
  0
LTYPE
  5
13
330
5
100
AcDbSymbolTableRecord
100
AcDbLinetypeTableRecord
  2
ByBlock
 70
     0
  3

 72
    65
 73
     0
 40
0.0
  0
LTYPE
  5
14
330
5
100
AcDbSymbolTableRecord
100
AcDbLinetypeTableRecord
  2
ByLayer
 70
     0
  3

 72
    65
 73
     0
 40
0.0
  0
LTYPE
  5
15
330
5
100
AcDbSymbolTableRecord
100
AcDbLinetypeTableRecord
  2
Continuous
 70
     0
  3
Solid line
 72
    65
 73
     0
 40
0.0
  0
LTYPE
  5
25
330
5
100
AcDbSymbolTableRecord
100
AcDbLinetypeTableRecord
  2
STRICHPUNKT
 70
     0
  3
__ . __ . __ . __ . __ . __ . __ . __ . __ . __
 72
    65
 73
     4
 40
1.0
 49
0.5
 74
     0
 49
-0.25
 74
     0
 49
0.0
 74
     0
 49
-0.25
 74
     0
  0
ENDTAB
  0
TABLE
  2
LAYER
  5
2
330
0
100
AcDbSymbolTable
 70
     9
  0
LAYER
  5
10
330
2
100
AcDbSymbolTableRecord
100
AcDbLayerTableRecord
  2
0
 70
     0
 62
     7
  6
Continuous
370
    -3
390
F
  0
LAYER
  5
2A
330
2
100
AcDbSymbolTableRecord
100
AcDbLayerTableRecord
  2
VOLL
 70
     0
 62
     1
  6
Continuous
370
    -3
390
F
  0
LAYER
  5
2B
330
2
100
AcDbSymbolTableRecord
100
AcDbLayerTableRecord
  2
HILF
 70
     0
 62
     2
  6
Continuous
370
    -3
390
F
  0
LAYER
  5
2C
330
2
100
AcDbSymbolTableRecord
100
AcDbLayerTableRecord
  2
MITTEL
 70
     0
 62
     2
  6
STRICHPUNKT
370
    -3
390
F
  0
LAYER
  5
2F
330
2
100
AcDbSymbolTableRecord
100
AcDbLayerTableRecord
  2
BEM
 70
     0
 62
     7
  6
Continuous
370
    -3
390
F
  0
LAYER
  5
30
330
2
100
AcDbSymbolTableRecord
100
AcDbLayerTableRecord
  2
STEMPEL
 70
     0
 62
     3
  6
Continuous
370
    -3
390
F
  0
LAYER
  5
31
330
2
100
AcDbSymbolTableRecord
100
AcDbLayerTableRecord
  2
TEXT
 70
     0
 62
     7
  6
Continuous
370
    -3
390
F
  0
LAYER
  5
284
330
2
100
AcDbSymbolTableRecord
100
AcDbLayerTableRecord
  2
SCHRAFF
 70
     0
 62
     7
  6
Continuous
370
    -3
390
F
  0
LAYER
  5
285
330
2
100
AcDbSymbolTableRecord
100
AcDbLayerTableRecord
  2
DEFPOINTS
 70
     0
 62
     7
  6
Continuous
290
     0
370
    -3
390
F
  0
ENDTAB
  0
TABLE
  2
STYLE
  5
3
330
0
100
AcDbSymbolTable
 70
     2
  0
STYLE
  5
11
330
3
100
AcDbSymbolTableRecord
100
AcDbTextStyleTableRecord
  2
STANDARD
 70
     0
 40
0.0
 41
0.8
 50
0.0
 71
     0
 42
3.5
  3
simplex.shx
  4

  0
STYLE
  5
24
330
3
100
AcDbSymbolTableRecord
100
AcDbTextStyleTableRecord
  2
GREEKS
 70
     0
 40
0.0
 41
0.8
 50
0.0
 71
     0
 42
2.5
  3
SIMPLEX.shx
  4

  0
ENDTAB
  0
TABLE
  2
VIEW
  5
6
330
0
100
AcDbSymbolTable
 70
     0
  0
ENDTAB
  0
TABLE
  2
UCS
  5
7
330
0
100
AcDbSymbolTable
 70
     0
  0
ENDTAB
  0
TABLE
  2
APPID
  5
9
330
0
100
AcDbSymbolTable
 70
     1
  0
APPID
  5
12
330
9
100
AcDbSymbolTableRecord
100
AcDbRegAppTableRecord
  2
ACAD
 70
     0
  0
ENDTAB
  0
TABLE
  2
DIMSTYLE
  5
A
330
0
100
AcDbSymbolTable
 70
     1
100
AcDbDimStyleTable
 71
     1
340
9D
  0
DIMSTYLE
105
9D
102
{ACAD_REACTORS
330
E82
330
E87
330
E88
330
E89
330
E25
330
17D6
330
199C
330
19B5
102
}
330
A
100
AcDbSymbolTableRecord
100
AcDbDimStyleTableRecord
  2
Standard
 70
     0
340
11
  0
ENDTAB
  0
TABLE
  2
BLOCK_RECORD
  5
1
330
0
100
AcDbSymbolTable
 70
     9
  0
BLOCK_RECORD
  5
1E
102
{ACAD_XDICTIONARY
360
A0
102
}
330
1
100
AcDbSymbolTableRecord
100
AcDbBlockTableRecord
  2
*Model_Space
340
21
  0
BLOCK_RECORD
  5
1A
102
{ACAD_XDICTIONARY
360
A2
102
}
330
1
100
AcDbSymbolTableRecord
100
AcDbBlockTableRecord
  2
*Paper_Space
340
1D
  0
BLOCK_RECORD
  5
22
330
1
100
AcDbSymbolTableRecord
100
AcDbBlockTableRecord
  2
LOGO
340
0
102
{BLKREFS
331
9B
102
}
  0
BLOCK_RECORD
  5
ED0
330
1
100
AcDbSymbolTableRecord
100
AcDbBlockTableRecord
  2
*D1
340
0
  0
BLOCK_RECORD
  5
EE8
330
1
100
AcDbSymbolTableRecord
100
AcDbBlockTableRecord
  2
*D2
340
0
  0
BLOCK_RECORD
  5
EF4
330
1
100
AcDbSymbolTableRecord
100
AcDbBlockTableRecord
  2
*D3
340
0
  0
BLOCK_RECORD
  5
F00
330
1
100
AcDbSymbolTableRecord
100
AcDbBlockTableRecord
  2
*D4
340
0
  0
BLOCK_RECORD
  5
F34
330
1
100
AcDbSymbolTableRecord
100
AcDbBlockTableRecord
  2
*D5
340
0
  0
BLOCK_RECORD
  5
17D7
330
1
100
AcDbSymbolTableRecord
100
AcDbBlockTableRecord
  2
*D6
340
0
  0
BLOCK_RECORD
  5
19BA
330
1
100
AcDbSymbolTableRecord
100
AcDbBlockTableRecord
  2
*D7
340
0
  0
BLOCK_RECORD
  5
19C6
330
1
100
AcDbSymbolTableRecord
100
AcDbBlockTableRecord
  2
*D8
340
0
  0
ENDTAB
  0
ENDSEC
  0
SECTION
  2
BLOCKS
  0
BLOCK
  5
35
330
1E
100
AcDbEntity
  8
0
100
AcDbBlockBegin
  2
*Model_Space
 70
     0
 10
0.0
 20
0.0
 30
0.0
  3
*Model_Space
  1

  0
ENDBLK
  5
36
330
1E
100
AcDbEntity
  8
0
100
AcDbBlockEnd
  0
BLOCK
  5
33
330
1A
100
AcDbEntity
 67
     1
  8
0
100
AcDbBlockBegin
  2
*Paper_Space
 70
     0
 10
0.0
 20
0.0
 30
0.0
  3
*Paper_Space
  1

  0
ENDBLK
  5
34
330
1A
100
AcDbEntity
 67
     1
  8
0
100
AcDbBlockEnd
  0
BLOCK
  5
37
330
22
100
AcDbEntity
  8
0
100
AcDbBlockBegin
  2
LOGO
 70
     0
 10
0.0
 20
0.0
 30
0.0
  3
LOGO
  1

  0
ARC
  5
38
330
22
100
AcDbEntity
  8
0
100
AcDbCircle
 10
11.59973089678112
 20
-9.271599258481501
 30
0.0
 40
4.5
100
AcDbArc
 50
270.0
 51
231.0575587310159
  0
LINE
  5
39
330
22
100
AcDbEntity
  8
0
100
AcDbLine
 10
3.599730896781125
 20
-4.771599258481529
 30
0.0
 11
3.599730896781153
 21
-11.77159925848133
 31
0.0
  0
LINE
  5
3A
330
22
100
AcDbEntity
  8
0
100
AcDbLine
 10
2.599730896781125
 20
-4.771599258481529
 30
0.0
 11
2.599730896781153
 21
-11.77159925848133
 31
0.0
  0
CIRCLE
  5
3B
330
22
100
AcDbEntity
  8
0
100
AcDbCircle
 10
11.59973089678112
 20
-9.271599258481501
 30
0.0
 40
3.5
  0
ARC
  5
3C
330
22
100
AcDbEntity
  8
0
100
AcDbCircle
 10
31.59973089678115
 20
-9.271599258481472
 30
0.0
 40
4.5
100
AcDbArc
 50
270.0
 51
231.0575587310182
  0
LINE
  5
3D
330
22
100
AcDbEntity
  8
0
100
AcDbLine
 10
17.59973089678112
 20
-4.771599258481472
 30
0.0
 11
17.59973089678115
 21
-13.77159925848147
 31
0.0
  0
ARC
  5
3E
330
22
100
AcDbEntity
  8
0
100
AcDbCircle
 10
22.59973089678116
 20
-7.271599258481472
 30
0.0
 40
2.5
100
AcDbArc
 50
293.1161887722295
 51
90.0
  0
CIRCLE
  5
3F
330
22
100
AcDbEntity
  8
0
100
AcDbCircle
 10
31.59973089678115
 20
-9.271599258481472
 30
0.0
 40
3.5
  0
ARC
  5
40
330
22
100
AcDbEntity
  8
0
100
AcDbCircle
 10
4.599730896781153
 20
-11.77159925848133
 30
0.0
 40
1.0
100
AcDbArc
 50
180.0
 51
270.0
  0
ARC
  5
41
330
22
100
AcDbEntity
  8
0
100
AcDbCircle
 10
4.599730896781153
 20
-11.77159925848133
 30
0.0
 40
2.0
100
AcDbArc
 50
179.9999999999992
 51
270.0
  0
LINE
  5
42
330
22
100
AcDbEntity
  8
0
100
AcDbLine
 10
11.59973089678115
 20
-13.77159925848144
 30
0.0
 11
4.599730896781153
 21
-13.77159925848147
 31
0.0
  0
LINE
  5
43
330
22
100
AcDbEntity
  8
0
100
AcDbLine
 10
8.771303772034769
 20
-12.77159925848136
 30
0.0
 11
4.599730896781153
 21
-12.77159925848133
 31
0.0
  0
LINE
  5
44
330
22
100
AcDbEntity
  8
0
100
AcDbLine
 10
31.59973089678115
 20
-13.77159925848147
 30
0.0
 11
23.6715276665056
 21
-13.77159925848144
 31
0.0
  0
LINE
  5
45
330
22
100
AcDbEntity
  8
0
100
AcDbLine
 10
23.56565672307022
 20
-9.51278021337896
 30
0.0
 11
24.4388546544846
 21
-12.77159925848144
 31
0.0
  0
LINE
  5
46
330
22
100
AcDbEntity
  8
0
100
AcDbLine
 10
22.59973089678116
 20
-9.771599258481472
 30
0.0
 11
18.59973089678112
 21
-9.771599258481472
 31
0.0
  0
LINE
  5
47
330
22
100
AcDbEntity
  8
0
100
AcDbLine
 10
18.59973089678115
 20
-13.77159925848144
 30
0.0
 11
17.59973089678115
 21
-13.77159925848144
 31
0.0
  0
LINE
  5
48
330
22
100
AcDbEntity
  8
0
100
AcDbLine
 10
18.59973089678115
 20
-9.771599258481472
 30
0.0
 11
18.59973089678115
 21
-13.77159925848144
 31
0.0
  0
LINE
  5
49
330
22
100
AcDbEntity
  8
0
100
AcDbLine
 10
22.59973089678116
 20
-9.771599258481472
 30
0.0
 11
23.67152766650562
 21
-13.77159925848147
 31
0.0
  0
ARC
  5
4A
330
22
100
AcDbEntity
  8
0
100
AcDbCircle
 10
22.59973089678116
 20
-7.271599258481472
 30
0.0
 40
2.5
100
AcDbArc
 50
270.0
 51
270.0000000000007
  0
LINE
  5
4B
330
22
100
AcDbEntity
  8
0
100
AcDbLine
 10
28.77130377203494
 20
-12.77159925848147
 30
0.0
 11
24.43885465448463
 21
-12.77159925848144
 31
0.0
  0
LINE
  5
4C
330
22
100
AcDbEntity
  8
0
100
AcDbLine
 10
3.599730896781125
 20
-4.771599258481472
 30
0.0
 11
2.599730896781125
 21
-4.771599258481472
 31
0.0
  0
LINE
  5
4D
330
22
100
AcDbEntity
  8
0
100
AcDbLine
 10
22.59973089678116
 20
-8.771599258481472
 30
0.0
 11
18.59973089678115
 21
-8.771599258481472
 31
0.0
  0
LINE
  5
4E
330
22
100
AcDbEntity
  8
0
100
AcDbLine
 10
22.59973089678116
 20
-5.771599258481472
 30
0.0
 11
18.59973089678115
 21
-5.771599258481472
 31
0.0
  0
LINE
  5
4F
330
22
100
AcDbEntity
  8
0
100
AcDbLine
 10
22.59973089678116
 20
-4.771599258481472
 30
0.0
 11
17.59973089678115
 21
-4.771599258481472
 31
0.0
  0
LINE
  5
50
330
22
100
AcDbEntity
  8
0
100
AcDbLine
 10
18.59973089678115
 20
-5.771599258481472
 30
0.0
 11
18.59973089678115
 21
-8.771599258481472
 31
0.0
  0
ARC
  5
51
330
22
100
AcDbEntity
  8
0
100
AcDbCircle
 10
22.59973089678116
 20
-7.271599258481472
 30
0.0
 40
1.5
100
AcDbArc
 50
270.0
 51
90.0
  0
ENDBLK
  5
52
330
22
100
AcDbEntity
  8
0
100
AcDbBlockEnd
  0
BLOCK
  5
EDA
330
ED0
100
AcDbEntity
  8
0
100
AcDbBlockBegin
  2
*D1
 70
     1
 10
0.0
 20
0.0
 30
0.0
  3
*D1
  1

  0
LINE
  5
17B2
330
ED0
100
AcDbEntity
  8
BEM
 62
     0
370
    -2
100
AcDbLine
 10
511.2124440385258
 20
664.665461851464
 30
0.0
 11
511.2124440385258
 21
665.2403640941343
 31
0.0
  0
LINE
  5
17B3
330
ED0
100
AcDbEntity
  8
BEM
 62
     0
370
    -2
100
AcDbLine
 10
611.2124440385256
 20
664.665461851464
 30
0.0
 11
611.2124440385256
 21
665.2403640941343
 31
0.0
  0
LINE
  5
17B4
330
ED0
100
AcDbEntity
  8
BEM
 62
     0
370
    -2
100
AcDbLine
 10
528.7124440385258
 20
660.2403640941343
 30
0.0
 11
593.7124440385256
 21
660.2403640941343
 31
0.0
  0
SOLID
  5
17B5
330
ED0
100
AcDbEntity
  8
BEM
 62
     0
100
AcDbTrace
 10
528.7124440385258
 20
663.1570307608009
 30
0.0
 11
528.7124440385258
 21
657.3236974274676
 31
0.0
 12
511.2124440385258
 22
660.2403640941343
 32
0.0
 13
511.2124440385258
 23
660.2403640941343
 33
0.0
  0
SOLID
  5
17B6
330
ED0
100
AcDbEntity
  8
BEM
 62
     0
100
AcDbTrace
 10
593.7124440385256
 20
663.1570307608009
 30
0.0
 11
593.7124440385256
 21
657.3236974274676
 31
0.0
 12
611.2124440385256
 22
660.2403640941343
 32
0.0
 13
611.2124440385256
 23
660.2403640941343
 33
0.0
  0
MTEXT
  5
17B7
330
ED0
100
AcDbEntity
  8
BEM
 62
     1
100
AcDbMText
 10
569.6894652480522
 20
676.4903640941342
 30
0.0
 40
17.5
 41
0.0
 71
     5
 72
     1
  1
\A1;100
 73
     1
 44
1.0
  0
POINT
  5
17B8
330
ED0
100
AcDbEntity
  8
DEFPOINTS
 62
     0
100
AcDbPoint
 10
511.2124440385258
 20
659.665461851464
 30
0.0
  0
POINT
  5
17B9
330
ED0
100
AcDbEntity
  8
DEFPOINTS
 62
     0
100
AcDbPoint
 10
611.2124440385256
 20
659.665461851464
 30
0.0
  0
POINT
  5
17BA
330
ED0
100
AcDbEntity
  8
DEFPOINTS
 62
     0
100
AcDbPoint
 10
611.2124440385256
 20
660.2403640941343
 30
0.0
  0
ENDBLK
  5
EDB
330
ED0
100
AcDbEntity
  8
0
100
AcDbBlockEnd
  0
BLOCK
  5
EF2
330
EE8
100
AcDbEntity
  8
0
100
AcDbBlockBegin
  2
*D2
 70
     1
 10
0.0
 20
0.0
 30
0.0
  3
*D2
  1

  0
LINE
  5
1861
330
EE8
100
AcDbEntity
  8
BEM
 62
     0
370
    -2
100
AcDbLine
 10
505.2124440385256
 20
472.675248035313
 30
0.0
 11
424.8592401171771
 21
472.675248035313
 31
0.0
  0
LINE
  5
1862
330
EE8
100
AcDbEntity
  8
BEM
 62
     0
370
    -2
100
AcDbLine
 10
506.2124440385259
 20
612.6752480353129
 30
0.0
 11
424.8592401171771
 21
612.6752480353129
 31
0.0
  0
LINE
  5
1863
330
EE8
100
AcDbEntity
  8
BEM
 62
     0
370
    -2
100
AcDbLine
 10
429.8592401171771
 20
490.1752480353129
 30
0.0
 11
429.8592401171771
 21
595.1752480353129
 31
0.0
  0
SOLID
  5
1864
330
EE8
100
AcDbEntity
  8
BEM
 62
     0
100
AcDbTrace
 10
426.9425734505104
 20
490.1752480353129
 30
0.0
 11
432.7759067838438
 21
490.1752480353129
 31
0.0
 12
429.8592401171771
 22
472.675248035313
 32
0.0
 13
429.8592401171771
 23
472.675248035313
 33
0.0
  0
SOLID
  5
1865
330
EE8
100
AcDbEntity
  8
BEM
 62
     0
100
AcDbTrace
 10
426.9425734505104
 20
595.1752480353129
 30
0.0
 11
432.7759067838438
 21
595.1752480353129
 31
0.0
 12
429.8592401171771
 22
612.6752480353129
 32
0.0
 13
429.8592401171771
 23
612.6752480353129
 33
0.0
  0
MTEXT
  5
1866
330
EE8
100
AcDbEntity
  8
BEM
 62
     1
100
AcDbMText
 10
413.6092401171771
 20
542.6752480353131
 30
0.0
 40
17.5
 41
0.0
 71
     5
 72
     1
  1
\A1;140
 11
0.0000000000000001
 21
1.0
 31
0.0
 73
     1
 44
1.0
  0
POINT
  5
1867
330
EE8
100
AcDbEntity
  8
DEFPOINTS
 62
     0
100
AcDbPoint
 10
510.2124440385256
 20
472.675248035313
 30
0.0
  0
POINT
  5
1868
330
EE8
100
AcDbEntity
  8
DEFPOINTS
 62
     0
100
AcDbPoint
 10
511.2124440385259
 20
612.6752480353129
 30
0.0
  0
POINT
  5
1869
330
EE8
100
AcDbEntity
  8
DEFPOINTS
 62
     0
100
AcDbPoint
 10
429.8592401171771
 20
612.6752480353129
 30
0.0
  0
ENDBLK
  5
EF3
330
EE8
100
AcDbEntity
  8
0
100
AcDbBlockEnd
  0
BLOCK
  5
EFE
330
EF4
100
AcDbEntity
  8
0
100
AcDbBlockBegin
  2
*D3
 70
     1
 10
0.0
 20
0.0
 30
0.0
  3
*D3
  1

  0
LINE
  5
19ED
330
EF4
100
AcDbEntity
  8
BEM
 62
     0
370
    -2
100
AcDbLine
 10
506.2124440385259
 20
612.6752480353129
 30
0.0
 11
424.8592401171769
 21
612.6752480353129
 31
0.0
  0
LINE
  5
19EE
330
EF4
100
AcDbEntity
  8
BEM
 62
     0
370
    -2
100
AcDbLine
 10
502.0624440385258
 20
1372.675248035313
 30
0.0
 11
424.8592401171771
 21
1372.675248035313
 31
0.0
  0
LINE
  5
19EF
330
EF4
100
AcDbEntity
  8
BEM
 62
     0
370
    -2
100
AcDbLine
 10
429.8592401171769
 20
630.175248035313
 30
0.0
 11
429.8592401171771
 21
1355.175248035313
 31
0.0
  0
SOLID
  5
19F0
330
EF4
100
AcDbEntity
  8
BEM
 62
     0
100
AcDbTrace
 10
426.9425734505102
 20
630.175248035313
 30
0.0
 11
432.7759067838436
 21
630.175248035313
 31
0.0
 12
429.8592401171769
 22
612.6752480353129
 32
0.0
 13
429.8592401171769
 23
612.6752480353129
 33
0.0
  0
SOLID
  5
19F1
330
EF4
100
AcDbEntity
  8
BEM
 62
     0
100
AcDbTrace
 10
426.9425734505104
 20
1355.175248035313
 30
0.0
 11
432.7759067838438
 21
1355.175248035313
 31
0.0
 12
429.8592401171771
 22
1372.675248035313
 32
0.0
 13
429.8592401171771
 23
1372.675248035313
 33
0.0
  0
MTEXT
  5
19F2
330
EF4
100
AcDbEntity
  8
BEM
 62
     1
100
AcDbMText
 10
413.6092401171769
 20
992.675248035313
 30
0.0
 40
17.5
 41
0.0
 71
     5
 72
     1
  1
\A1;860
 11
0.0000000000000001
 21
1.0
 31
0.0
 73
     1
 44
1.0
  0
POINT
  5
19F3
330
EF4
100
AcDbEntity
  8
DEFPOINTS
 62
     0
100
AcDbPoint
 10
511.2124440385259
 20
612.6752480353129
 30
0.0
  0
POINT
  5
19F4
330
EF4
100
AcDbEntity
  8
DEFPOINTS
 62
     0
100
AcDbPoint
 10
507.0624440385258
 20
1372.675248035313
 30
0.0
  0
POINT
  5
19F5
330
EF4
100
AcDbEntity
  8
DEFPOINTS
 62
     0
100
AcDbPoint
 10
429.8592401171771
 20
1372.675248035313
 30
0.0
  0
ENDBLK
  5
EFF
330
EF4
100
AcDbEntity
  8
0
100
AcDbBlockEnd
  0
BLOCK
  5
F0A
330
F00
100
AcDbEntity
  8
0
100
AcDbBlockBegin
  2
*D4
 70
     1
 10
0.0
 20
0.0
 30
0.0
  3
*D4
  1

  0
LINE
  5
19E4
330
F00
100
AcDbEntity
  8
BEM
 62
     0
370
    -2
100
AcDbLine
 10
502.0624440385258
 20
1372.675248035313
 30
0.0
 11
383.0544918299111
 21
1372.675248035313
 31
0.0
  0
LINE
  5
19E5
330
F00
100
AcDbEntity
  8
BEM
 62
     0
370
    -2
100
AcDbLine
 10
505.2124440385256
 20
472.675248035313
 30
0.0
 11
383.0544918299109
 21
472.675248035313
 31
0.0
  0
LINE
  5
19E6
330
F00
100
AcDbEntity
  8
BEM
 62
     0
370
    -2
100
AcDbLine
 10
388.0544918299111
 20
1355.175248035313
 30
0.0
 11
388.054491829911
 21
490.1752480353129
 31
0.0
  0
SOLID
  5
19E7
330
F00
100
AcDbEntity
  8
BEM
 62
     0
100
AcDbTrace
 10
385.1378251632444
 20
1355.175248035313
 30
0.0
 11
390.9711584965778
 21
1355.175248035313
 31
0.0
 12
388.0544918299111
 22
1372.675248035313
 32
0.0
 13
388.0544918299111
 23
1372.675248035313
 33
0.0
  0
SOLID
  5
19E8
330
F00
100
AcDbEntity
  8
BEM
 62
     0
100
AcDbTrace
 10
385.1378251632443
 20
490.1752480353129
 30
0.0
 11
390.9711584965776
 21
490.1752480353129
 31
0.0
 12
388.054491829911
 22
472.675248035313
 32
0.0
 13
388.054491829911
 23
472.675248035313
 33
0.0
  0
MTEXT
  5
19E9
330
F00
100
AcDbEntity
  8
BEM
 62
     1
100
AcDbMText
 10
371.8044918299109
 20
922.6752480353129
 30
0.0
 40
17.5
 41
0.0
 71
     5
 72
     1
  1
\A1;1000
 11
0.0000000000000001
 21
1.0
 31
0.0
 73
     1
 44
1.0
  0
POINT
  5
19EA
330
F00
100
AcDbEntity
  8
DEFPOINTS
 62
     0
100
AcDbPoint
 10
507.0624440385258
 20
1372.675248035313
 30
0.0
  0
POINT
  5
19EB
330
F00
100
AcDbEntity
  8
DEFPOINTS
 62
     0
100
AcDbPoint
 10
510.2124440385256
 20
472.675248035313
 30
0.0
  0
POINT
  5
19EC
330
F00
100
AcDbEntity
  8
DEFPOINTS
 62
     0
100
AcDbPoint
 10
388.054491829911
 20
472.675248035313
 30
0.0
  0
ENDBLK
  5
F0B
330
F00
100
AcDbEntity
  8
0
100
AcDbBlockEnd
  0
BLOCK
  5
F3E
330
F34
100
AcDbEntity
  8
0
100
AcDbBlockBegin
  2
*D5
 70
     1
 10
0.0
 20
0.0
 30
0.0
  3
*D5
  1

  0
LINE
  5
17CD
330
F34
100
AcDbEntity
  8
BEM
 62
     0
370
    -2
100
AcDbLine
 10
510.2124440385256
 20
467.6752480353129
 30
0.0
 11
510.2124440385256
 21
425.784408274017
 31
0.0
  0
LINE
  5
17CE
330
F34
100
AcDbEntity
  8
BEM
 62
     0
370
    -2
100
AcDbLine
 10
612.2124440385256
 20
467.6752480353129
 30
0.0
 11
612.2124440385256
 21
425.784408274017
 31
0.0
  0
LINE
  5
17CF
330
F34
100
AcDbEntity
  8
BEM
 62
     0
370
    -2
100
AcDbLine
 10
527.7124440385256
 20
430.7844082740171
 30
0.0
 11
594.7124440385256
 21
430.7844082740171
 31
0.0
  0
SOLID
  5
17D0
330
F34
100
AcDbEntity
  8
BEM
 62
     0
100
AcDbTrace
 10
527.7124440385256
 20
433.7010749406838
 30
0.0
 11
527.7124440385256
 21
427.8677416073504
 31
0.0
 12
510.2124440385256
 22
430.7844082740171
 32
0.0
 13
510.2124440385256
 23
430.7844082740171
 33
0.0
  0
SOLID
  5
17D1
330
F34
100
AcDbEntity
  8
BEM
 62
     0
100
AcDbTrace
 10
594.7124440385256
 20
433.7010749406838
 30
0.0
 11
594.7124440385256
 21
427.8677416073504
 31
0.0
 12
612.2124440385256
 22
430.7844082740171
 32
0.0
 13
612.2124440385256
 23
430.7844082740171
 33
0.0
  0
MTEXT
  5
17D2
330
F34
100
AcDbEntity
  8
BEM
 62
     1
100
AcDbMText
 10
561.2124440385256
 20
447.0344082740171
 30
0.0
 40
17.5
 41
0.0
 71
     5
 72
     1
  1
\A1;%%c102
 73
     1
 44
1.0
  0
POINT
  5
17D3
330
F34
100
AcDbEntity
  8
DEFPOINTS
 62
     0
100
AcDbPoint
 10
510.2124440385256
 20
472.675248035313
 30
0.0
  0
POINT
  5
17D4
330
F34
100
AcDbEntity
  8
DEFPOINTS
 62
     0
100
AcDbPoint
 10
612.2124440385256
 20
472.675248035313
 30
0.0
  0
POINT
  5
17D5
330
F34
100
AcDbEntity
  8
DEFPOINTS
 62
     0
100
AcDbPoint
 10
612.2124440385256
 20
430.7844082740171
 30
0.0
  0
ENDBLK
  5
F3F
330
F34
100
AcDbEntity
  8
0
100
AcDbBlockEnd
  0
BLOCK
  5
17E1
330
17D7
100
AcDbEntity
  8
0
100
AcDbBlockBegin
  2
*D6
 70
     1
 10
0.0
 20
0.0
 30
0.0
  3
*D6
  1

  0
LINE
  5
17D8
330
17D7
100
AcDbEntity
  8
BEM
 62
     0
370
    -2
100
AcDbLine
 10
650.7124440385256
 20
872.6752480353129
 30
0.0
 11
713.9889270199902
 21
872.6752480353129
 31
0.0
  0
LINE
  5
17D9
330
17D7
100
AcDbEntity
  8
BEM
 62
     0
370
    -2
100
AcDbLine
 10
617.2124440385256
 20
472.675248035313
 30
0.0
 11
713.9889270199901
 21
472.6752480353129
 31
0.0
  0
LINE
  5
17DA
330
17D7
100
AcDbEntity
  8
BEM
 62
     0
370
    -2
100
AcDbLine
 10
708.9889270199902
 20
855.175248035313
 30
0.0
 11
708.9889270199901
 21
490.1752480353128
 31
0.0
  0
SOLID
  5
17DB
330
17D7
100
AcDbEntity
  8
BEM
 62
     0
100
AcDbTrace
 10
706.0722603533235
 20
855.175248035313
 30
0.0
 11
711.9055936866568
 21
855.175248035313
 31
0.0
 12
708.9889270199902
 22
872.6752480353129
 32
0.0
 13
708.9889270199902
 23
872.6752480353129
 33
0.0
  0
SOLID
  5
17DC
330
17D7
100
AcDbEntity
  8
BEM
 62
     0
100
AcDbTrace
 10
706.0722603533235
 20
490.1752480353128
 30
0.0
 11
711.9055936866567
 21
490.1752480353128
 31
0.0
 12
708.9889270199901
 22
472.6752480353129
 32
0.0
 13
708.9889270199901
 23
472.6752480353129
 33
0.0
  0
MTEXT
  5
17DD
330
17D7
100
AcDbEntity
  8
BEM
 62
     1
100
AcDbMText
 10
692.73892701999
 20
672.675248035313
 30
0.0
 40
17.5
 41
0.0
 71
     5
 72
     1
  1
\A1;400
 11
0.0000000000000001
 21
1.0
 31
0.0
 73
     1
 44
1.0
  0
POINT
  5
17DE
330
17D7
100
AcDbEntity
  8
DEFPOINTS
 62
     0
100
AcDbPoint
 10
645.7124440385256
 20
872.6752480353129
 30
0.0
  0
POINT
  5
17DF
330
17D7
100
AcDbEntity
  8
DEFPOINTS
 62
     0
100
AcDbPoint
 10
612.2124440385256
 20
472.675248035313
 30
0.0
  0
POINT
  5
17E0
330
17D7
100
AcDbEntity
  8
DEFPOINTS
 62
     0
100
AcDbPoint
 10
708.9889270199901
 20
472.6752480353129
 30
0.0
  0
ENDBLK
  5
17E2
330
17D7
100
AcDbEntity
  8
0
100
AcDbBlockEnd
  0
BLOCK
  5
19C4
330
19BA
100
AcDbEntity
  8
0
100
AcDbBlockBegin
  2
*D7
 70
     1
 10
0.0
 20
0.0
 30
0.0
  3
*D7
  1

  0
LINE
  5
19D2
330
19BA
100
AcDbEntity
  8
BEM
 62
     0
370
    -2
100
AcDbLine
 10
510.0624440385258
 20
1377.675248035313
 30
0.0
 11
510.0624440385258
 21
1407.992902166769
 31
0.0
  0
LINE
  5
19D3
330
19BA
100
AcDbEntity
  8
BEM
 62
     0
370
    -2
100
AcDbLine
 10
612.3624440385258
 20
1377.675248035313
 30
0.0
 11
612.3624440385258
 21
1407.992902166769
 31
0.0
  0
LINE
  5
19D4
330
19BA
100
AcDbEntity
  8
BEM
 62
     0
370
    -2
100
AcDbLine
 10
527.5624440385258
 20
1402.992902166769
 30
0.0
 11
594.8624440385258
 21
1402.992902166769
 31
0.0
  0
SOLID
  5
19D5
330
19BA
100
AcDbEntity
  8
BEM
 62
     0
100
AcDbTrace
 10
527.5624440385258
 20
1405.909568833435
 30
0.0
 11
527.5624440385258
 21
1400.076235500102
 31
0.0
 12
510.0624440385258
 22
1402.992902166769
 32
0.0
 13
510.0624440385258
 23
1402.992902166769
 33
0.0
  0
SOLID
  5
19D6
330
19BA
100
AcDbEntity
  8
BEM
 62
     0
100
AcDbTrace
 10
594.8624440385258
 20
1405.909568833435
 30
0.0
 11
594.8624440385258
 21
1400.076235500102
 31
0.0
 12
612.3624440385258
 22
1402.992902166769
 32
0.0
 13
612.3624440385258
 23
1402.992902166769
 33
0.0
  0
MTEXT
  5
19D7
330
19BA
100
AcDbEntity
  8
BEM
 62
     1
100
AcDbMText
 10
579.7622399898781
 20
1419.242902166769
 30
0.0
 40
17.5
 41
0.0
 71
     5
 72
     1
  1
\A1;102.3
 73
     1
 44
1.0
  0
POINT
  5
19D8
330
19BA
100
AcDbEntity
  8
DEFPOINTS
 62
     0
100
AcDbPoint
 10
510.0624440385258
 20
1372.675248035313
 30
0.0
  0
POINT
  5
19D9
330
19BA
100
AcDbEntity
  8
DEFPOINTS
 62
     0
100
AcDbPoint
 10
612.3624440385258
 20
1372.675248035313
 30
0.0
  0
POINT
  5
19DA
330
19BA
100
AcDbEntity
  8
DEFPOINTS
 62
     0
100
AcDbPoint
 10
612.3624440385258
 20
1402.992902166769
 30
0.0
  0
ENDBLK
  5
19C5
330
19BA
100
AcDbEntity
  8
0
100
AcDbBlockEnd
  0
BLOCK
  5
19D0
330
19C6
100
AcDbEntity
  8
0
100
AcDbBlockBegin
  2
*D8
 70
     1
 10
0.0
 20
0.0
 30
0.0
  3
*D8
  1

  0
LINE
  5
19DB
330
19C6
100
AcDbEntity
  8
BEM
 62
     0
370
    -2
100
AcDbLine
 10
502.0624440385258
 20
1372.675248035313
 30
0.0
 11
468.2268198438695
 21
1372.675248035313
 31
0.0
  0
LINE
  5
19DC
330
19C6
100
AcDbEntity
  8
BEM
 62
     0
370
    -2
100
AcDbLine
 10
503.2780378014122
 20
1302.675248035313
 30
0.0
 11
468.2268198438695
 21
1302.675248035313
 31
0.0
  0
LINE
  5
19DD
330
19C6
100
AcDbEntity
  8
BEM
 62
     0
370
    -2
100
AcDbLine
 10
473.2268198438695
 20
1355.175248035313
 30
0.0
 11
473.2268198438695
 21
1320.175248035313
 31
0.0
  0
SOLID
  5
19DE
330
19C6
100
AcDbEntity
  8
BEM
 62
     0
100
AcDbTrace
 10
470.3101531772028
 20
1355.175248035313
 30
0.0
 11
476.1434865105361
 21
1355.175248035313
 31
0.0
 12
473.2268198438695
 22
1372.675248035313
 32
0.0
 13
473.2268198438695
 23
1372.675248035313
 33
0.0
  0
SOLID
  5
19DF
330
19C6
100
AcDbEntity
  8
BEM
 62
     0
100
AcDbTrace
 10
470.3101531772028
 20
1320.175248035313
 30
0.0
 11
476.1434865105361
 21
1320.175248035313
 31
0.0
 12
473.2268198438695
 22
1302.675248035313
 32
0.0
 13
473.2268198438695
 23
1302.675248035313
 33
0.0
  0
MTEXT
  5
19E0
330
19C6
100
AcDbEntity
  8
BEM
 62
     1
100
AcDbMText
 10
456.9768198438692
 20
1337.675248035313
 30
0.0
 40
17.5
 41
0.0
 71
     5
 72
     1
  1
\A1;70
 11
0.0000000000000001
 21
1.0
 31
0.0
 73
     1
 44
1.0
  0
POINT
  5
19E1
330
19C6
100
AcDbEntity
  8
DEFPOINTS
 62
     0
100
AcDbPoint
 10
507.0624440385258
 20
1372.675248035313
 30
0.0
  0
POINT
  5
19E2
330
19C6
100
AcDbEntity
  8
DEFPOINTS
 62
     0
100
AcDbPoint
 10
508.2780378014123
 20
1302.675248035313
 30
0.0
  0
POINT
  5
19E3
330
19C6
100
AcDbEntity
  8
DEFPOINTS
 62
     0
100
AcDbPoint
 10
473.2268198438695
 20
1302.675248035313
 30
0.0
  0
ENDBLK
  5
19D1
330
19C6
100
AcDbEntity
  8
0
100
AcDbBlockEnd
  0
ENDSEC
  0
SECTION
  2
ENTITIES
  0
LINE
  5
57
330
1E
100
AcDbEntity
  8
STEMPEL
100
AcDbLine
 10
1025.0
 20
275.0000000000001
 30
0.0
 11
99.99999999999992
 21
275.0
 31
0.0
  0
LINE
  5
58
330
1E
100
AcDbEntity
  8
STEMPEL
100
AcDbLine
 10
340.0000000000003
 20
274.9999999999999
 30
0.0
 11
340.0
 21
24.99999999999993
 31
0.0
  0
LINE
  5
59
330
1E
100
AcDbEntity
  8
STEMPEL
100
AcDbLine
 10
550.0
 20
275.0000000000001
 30
0.0
 11
550.0
 21
24.99999999999993
 31
0.0
  0
LINE
  5
5A
330
1E
100
AcDbEntity
  8
STEMPEL
100
AcDbLine
 10
830.0
 20
274.9999999999994
 30
0.0
 11
830.0
 21
100.0
 31
0.0
  0
LINE
  5
5B
330
1E
100
AcDbEntity
  8
STEMPEL
100
AcDbLine
 10
339.9999999999997
 20
74.99999999999992
 30
0.0
 11
99.99999999999992
 21
74.99999999999992
 31
0.0
  0
LINE
  5
5C
330
1E
100
AcDbEntity
  8
STEMPEL
100
AcDbLine
 10
1025.0
 20
100.0
 30
0.0
 11
340.0000000000003
 21
99.99999999999992
 31
0.0
  0
LINE
  5
5D
330
1E
100
AcDbEntity
  8
STEMPEL
100
AcDbLine
 10
1025.0
 20
200.0
 30
0.0
 11
340.0000000000003
 21
199.9999999999998
 31
0.0
  0
LINE
  5
5E
330
1E
100
AcDbEntity
  8
VOLL
100
AcDbLine
 10
135.0000000000002
 20
275.0000000000001
 30
0.0
 11
134.9999999999999
 21
24.99999999999993
 31
0.0
  0
LINE
  5
5F
330
1E
100
AcDbEntity
  8
VOLL
100
AcDbLine
 10
235.0000000000003
 20
274.9999999999999
 30
0.0
 11
235.0
 21
24.99999999999993
 31
0.0
  0
LINE
  5
60
330
1E
100
AcDbEntity
  8
VOLL
100
AcDbLine
 10
285.0000000000003
 20
274.9999999999999
 30
0.0
 11
285.0
 21
24.99999999999993
 31
0.0
  0
LINE
  5
61
330
1E
100
AcDbEntity
  8
VOLL
100
AcDbLine
 10
385.0000000000003
 20
199.9999999999998
 30
0.0
 11
385.0000000000003
 21
99.99999999999992
 31
0.0
  0
LINE
  5
62
330
1E
100
AcDbEntity
  8
VOLL
100
AcDbLine
 10
450.0000000000002
 20
274.9999999999996
 30
0.0
 11
450.0
 21
99.99999999999992
 31
0.0
  0
LINE
  5
63
330
1E
100
AcDbEntity
  8
HILF
100
AcDbLine
 10
100.0000000000002
 20
250.0000000000001
 30
0.0
 11
340.0000000000003
 21
250.0000000000001
 31
0.0
  0
LINE
  5
64
330
1E
100
AcDbEntity
  8
HILF
100
AcDbLine
 10
100.0000000000002
 20
225.0000000000001
 30
0.0
 11
340.0000000000003
 21
225.0000000000001
 31
0.0
  0
LINE
  5
65
330
1E
100
AcDbEntity
  8
HILF
100
AcDbLine
 10
100.0000000000002
 20
199.9999999999998
 30
0.0
 11
340.0000000000003
 21
199.9999999999998
 31
0.0
  0
LINE
  5
66
330
1E
100
AcDbEntity
  8
HILF
100
AcDbLine
 10
100.0000000000002
 20
174.9999999999998
 30
0.0
 11
340.0000000000003
 21
174.9999999999998
 31
0.0
  0
LINE
  5
67
330
1E
100
AcDbEntity
  8
HILF
100
AcDbLine
 10
100.0000000000002
 20
149.9999999999999
 30
0.0
 11
340.0000000000003
 21
149.9999999999999
 31
0.0
  0
LINE
  5
68
330
1E
100
AcDbEntity
  8
HILF
100
AcDbLine
 10
100.0000000000002
 20
124.9999999999999
 30
0.0
 11
340.0000000000003
 21
124.9999999999999
 31
0.0
  0
LINE
  5
69
330
1E
100
AcDbEntity
  8
HILF
100
AcDbLine
 10
100.0000000000002
 20
99.99999999999992
 30
0.0
 11
340.0000000000003
 21
99.99999999999992
 31
0.0
  0
LINE
  5
6A
330
1E
100
AcDbEntity
  8
HILF
100
AcDbLine
 10
340.0000000000003
 20
174.9999999999998
 30
0.0
 11
550.0
 21
174.9999999999998
 31
0.0
  0
LINE
  5
6B
330
1E
100
AcDbEntity
  8
HILF
100
AcDbLine
 10
340.0000000000003
 20
149.9999999999999
 30
0.0
 11
550.0
 21
149.9999999999999
 31
0.0
  0
LINE
  5
6C
330
1E
100
AcDbEntity
  8
HILF
100
AcDbLine
 10
340.0000000000003
 20
124.9999999999999
 30
0.0
 11
550.0
 21
124.9999999999999
 31
0.0
  0
LINE
  5
6D
330
1E
100
AcDbEntity
  8
HILF
100
AcDbLine
 10
561.9342002742369
 20
210.0939561891034
 30
0.0
 11
812.0884791390777
 21
210.0939561891034
 31
0.0
  0
LINE
  5
6E
330
1E
100
AcDbEntity
  8
HILF
100
AcDbLine
 10
561.9342002742369
 20
174.9999999999998
 30
0.0
 11
812.0884791390775
 21
174.9999999999998
 31
0.0
  0
LINE
  5
6F
330
1E
100
AcDbEntity
  8
HILF
100
AcDbLine
 10
561.9342002742369
 20
149.9999999999999
 30
0.0
 11
812.0884791390775
 21
149.9999999999999
 31
0.0
  0
LINE
  5
70
330
1E
100
AcDbEntity
  8
HILF
100
AcDbLine
 10
561.9342002742369
 20
124.9999999999999
 30
0.0
 11
812.0884791390775
 21
124.9999999999999
 31
0.0
  0
LINE
  5
71
330
1E
100
AcDbEntity
  8
VOLL
100
AcDbLine
 10
830.0
 20
150.0
 30
0.0
 11
1025.0
 21
150.0
 31
0.0
  0
LINE
  5
72
330
1E
100
AcDbEntity
  8
HILF
100
AcDbLine
 10
841.8096540742482
 20
209.4495909238957
 30
0.0
 11
1012.147209831682
 21
209.4495909238957
 31
0.0
  0
LINE
  5
73
330
1E
100
AcDbEntity
  8
HILF
100
AcDbLine
 10
558.7274248224712
 20
37.23495645070784
 30
0.0
 11
1012.147209831682
 21
37.23495645070784
 31
0.0
  0
TEXT
  5
74
330
1E
100
AcDbEntity
  8
TEXT
100
AcDbText
 10
159.6541494907955
 20
46.68454737460329
 30
0.0
 40
10.0
  1
Änderung
 41
0.8
  7
GREEKS
 72
     1
 11
186.5112923479383
 21
46.68454737460329
 31
0.0
100
AcDbText
  0
TEXT
  5
75
330
1E
100
AcDbEntity
  8
TEXT
100
AcDbText
 10
358.7908930375943
 20
256.1552237717722
 30
0.0
 40
12.5
  1
Maßstab
 41
0.8
  7
GREEKS
100
AcDbText
  0
TEXT
  5
76
330
1E
100
AcDbEntity
  8
TEXT
100
AcDbText
 10
460.7147386835128
 20
256.0460421087048
 30
0.0
 40
12.5
  1
Zul. Abw.
 41
0.8
  7
GREEKS
100
AcDbText
  0
TEXT
  5
77
330
1E
100
AcDbEntity
  8
TEXT
100
AcDbText
 10
562.1948509522525
 20
256.3723320029449
 30
0.0
 40
12.5
  1
Benennung
 41
0.8
  7
GREEKS
100
AcDbText
  0
TEXT
  5
78
330
1E
100
AcDbEntity
  8
TEXT
100
AcDbText
 10
840.4468873940851
 20
255.7830086342841
 30
0.0
 40
12.5
  1
Zeichnungs Nr.
 41
0.8
  7
GREEKS
100
AcDbText
  0
TEXT
  5
79
330
1E
100
AcDbEntity
  8
TEXT
100
AcDbText
 10
561.8555959778399
 20
77.11401425482641
 30
0.0
 40
12.5
  1
Bauvorhaben
 41
0.8
  7
GREEKS
100
AcDbText
  0
TEXT
  5
7A
330
1E
100
AcDbEntity
  8
TEXT
100
AcDbText
 10
841.8096540742482
 20
182.9529559274992
 30
0.0
 40
12.5
  1
Ersatz für:
 41
0.8
  7
GREEKS
100
AcDbText
  0
TEXT
  5
7B
330
1E
100
AcDbEntity
  8
TEXT
100
AcDbText
 10
120.6660276761439
 20
34.13664615067979
 30
0.0
 40
10.0
  1
Index
 50
90.0
 41
0.8
  7
GREEKS
100
AcDbText
  0
TEXT
  5
7C
330
1E
100
AcDbEntity
  8
TEXT
100
AcDbText
 10
250.2336690188702
 20
46.67890673349525
 30
0.0
 40
10.0
  1
Tag
 41
0.8
  7
GREEKS
 72
     1
 11
259.5670023522036
 21
46.67890673349525
 31
0.0
100
AcDbText
  0
TEXT
  5
7D
330
1E
100
AcDbEntity
  8
TEXT
100
AcDbText
 10
297.5306860966482
 20
46.4831054241602
 30
0.0
 40
10.0
  1
Name
 41
0.8
  7
GREEKS
 72
     1
 11
313.340209906172
 21
46.4831054241602
 31
0.0
100
AcDbText
  0
TEXT
  5
7E
330
1E
100
AcDbEntity
  8
TEXT
100
AcDbText
 10
405.8279182884126
 20
183.2970125307481
 30
0.0
 40
10.0
  1
Tag
 41
0.8
  7
GREEKS
100
AcDbText
  0
TEXT
  5
7F
330
1E
100
AcDbEntity
  8
TEXT
100
AcDbText
 10
481.1566460565737
 20
183.2740272978806
 30
0.0
 40
10.0
  1
Name
 41
0.8
  7
GREEKS
100
AcDbText
  0
TEXT
  5
80
330
1E
100
AcDbEntity
  8
TEXT
100
AcDbText
 10
343.9590317919039
 20
159.0747592404491
 30
0.0
 40
10.0
  1
Gez.
 41
0.8
  7
GREEKS
100
AcDbText
  0
TEXT
  5
81
330
1E
100
AcDbEntity
  8
TEXT
100
AcDbText
 10
343.8787716429181
 20
134.2231572857094
 30
0.0
 40
10.0
  1
Gepr.
 41
0.8
  7
GREEKS
100
AcDbText
  0
TEXT
  5
82
330
1E
100
AcDbEntity
  8
TEXT
100
AcDbText
 10
344.0016943468259
 20
108.8236597412452
 30
0.0
 40
10.0
  1
Norm.
 41
0.8
  7
GREEKS
100
AcDbText
  0
LINE
  5
83
330
1E
100
AcDbEntity
  8
STEMPEL
100
AcDbLine
 10
124.9999999999997
 20
25.0
 30
0.0
 11
1025.0
 21
25.0
 31
0.0
  0
TEXT
  5
84
330
1E
100
AcDbEntity
  8
TEXT
100
AcDbText
 10
843.1002153742515
 20
130.185404446965
 30
0.0
 40
12.5
  1
ersetzt durch:
 41
0.8
  7
GREEKS
100
AcDbText
  0
LINE
  5
85
330
1E
100
AcDbEntity
  8
STEMPEL
100
AcDbLine
 10
1025.0
 20
25.0
 30
0.0
 11
99.99999999999971
 21
25.0
 31
0.0
  0
LINE
  5
86
330
1E
100
AcDbEntity
  8
STEMPEL
100
AcDbLine
 10
1025.0
 20
25.0
 30
0.0
 11
1025.0
 21
1460.0
 31
0.0
  0
LINE
  5
87
330
1E
100
AcDbEntity
  8
STEMPEL
100
AcDbLine
 10
100.0
 20
25.0
 30
0.0
 11
99.99999999999971
 21
1460.0
 31
0.0
  0
LINE
  5
88
330
1E
100
AcDbEntity
  8
STEMPEL
100
AcDbLine
 10
1025.0
 20
1460.0
 30
0.0
 11
99.99999999999971
 21
1460.0
 31
0.0
  0
LINE
  5
89
330
1E
100
AcDbEntity
  8
HILF
100
AcDbLine
 10
0.0
 20
0.0
 30
0.0
 11
-0.0000000000002842
 21
1485.0
 31
0.0
  0
LINE
  5
8A
330
1E
100
AcDbEntity
  8
HILF
100
AcDbLine
 10
1050.0
 20
1485.0
 30
0.0
 11
0.0
 21
1485.0
 31
0.0
  0
LINE
  5
8B
330
1E
100
AcDbEntity
  8
HILF
100
AcDbLine
 10
1050.0
 20
0.0
 30
0.0
 11
0.0
 21
0.0
 31
0.0
  0
LINE
  5
8C
330
1E
100
AcDbEntity
  8
HILF
100
AcDbLine
 10
77.7191783928464
 20
742.5000000000001
 30
0.0
 11
0.0000000000002842
 21
742.5000000000001
 31
0.0
  0
TEXT
  5
8D
330
1E
100
AcDbEntity
  8
TEXT
100
AcDbText
 10
346.55527455526
 20
182.8506367787916
 30
0.0
 40
10.0
  1
2011
 41
0.8
  7
GREEKS
100
AcDbText
  0
LINE
  5
8E
330
1E
100
AcDbEntity
  8
HILF
100
AcDbLine
 10
1050.0
 20
-0.0000000000002842
 30
0.0
 11
1050.0
 21
1485.0
 31
0.0
  0
TEXT
  5
8F
330
1E
100
AcDbEntity
  8
VOLL
100
AcDbText
 10
78.07675471698113
 20
31.02594776470585
 30
0.0
 40
1.8
  1

  7
GREEKS
100
AcDbText
  0
TEXT
  5
90
330
1E
100
AcDbEntity
  8
TEXT
100
AcDbText
 10
104.6377487744418
 20
279.1799999999999
 30
0.0
 40
12.5
  1
Erstellt mit AUTOCAD 2004
 41
0.8
  7
GREEKS
100
AcDbText
  0
TEXT
  5
91
330
1E
100
AcDbEntity
  8
TEXT
100
AcDbText
 10
486.0540121453142
 20
157.7240979930877
 30
0.0
 40
10.0
  1
Koeh
 41
0.8
  7
GREEKS
 72
     1
 11
499.1968692881714
 21
157.7240979930877
 31
0.0
100
AcDbText
  0
TEXT
  5
92
330
1E
100
AcDbEntity
  8
TEXT
 62
     1
100
AcDbText
 10
866.2224848602612
 20
220.372535722849
 30
0.0
 40
17.5
  1
05505100N
 41
0.8
  7
GREEKS
 72
     1
 11
922.8891515269278
 21
220.372535722849
 31
0.0
100
AcDbText
  0
TEXT
  5
93
330
1E
100
AcDbEntity
  8
TEXT
 62
     1
100
AcDbText
 10
376.2515766204717
 20
220.372535722849
 30
0.0
 40
17.5
  1
1:5
 41
0.8
  7
GREEKS
100
AcDbText
  0
TEXT
  5
94
330
1E
100
AcDbEntity
  8
TEXT
100
AcDbText
 10
402.5213022943996
 20
157.7691260206433
 30
0.0
 40
10.0
  1
23.11.
 41
0.8
  7
GREEKS
 72
     1
 11
418.5213022943996
 21
157.7691260206433
 31
0.0
100
AcDbText
  0
TEXT
  5
95
330
1E
100
AcDbEntity
  8
TEXT
 62
     1
100
AcDbText
 10
567.2339327643505
 20
218.5437197313445
 30
0.0
 40
17.5
  1
Regenstandrohr DN100
 41
0.8
  7
GREEKS
100
AcDbText
  0
TEXT
  5
96
330
1E
100
AcDbEntity
  8
TEXT
100
AcDbText
 10
562.8240977813288
 20
181.8476716460108
 30
0.0
 40
12.5
  1
quadratisch mit Reinigungsöffnung
 41
0.75
  7
GREEKS
100
AcDbText
  0
TEXT
  5
98
330
1E
100
AcDbEntity
  8
TEXT
100
AcDbText
 10
562.8240977813288
 20
129.100298576054
 30
0.0
 40
12.5
  1
EDV-Art-Nr. 05505.100N
 41
0.8
  7
GREEKS
100
AcDbText
  0
TEXT
  5
99
330
1E
100
AcDbEntity
  8
TEXT
100
AcDbText
 10
562.4593753944567
 20
106.5743538255658
 30
0.0
 40
10.0
  1
05505100N.DWG
 41
0.8
  7
GREEKS
100
AcDbText
  0
TEXT
  5
9A
330
1E
100
AcDbEntity
  8
TEXT
100
AcDbText
 10
456.5653305202101
 20
226.9090960255756
 30
0.0
 40
10.0
  1
DIN EN1123-2
 41
0.8
  7
GREEKS
 72
     1
 11
499.0415209964005
 21
226.9090960255756
 31
0.0
100
AcDbText
  0
INSERT
  5
9B
330
1E
100
AcDbEntity
  8
STEMPEL
100
AcDbBlockReference
  2
LOGO
 10
352.4888713644485
 20
112.552631911208
 30
0.0
 41
5.0
 42
5.0
 43
5.0
  0
TEXT
  5
118
330
1E
100
AcDbEntity
  8
BEM
100
AcDbText
 10
1043.255730964291
 20
25.41975269997124
 30
0.0
 40
10.0
  1
Diese Zeichnung ist urheberrechtlich geschützt und bleibt unser Eigentum. Sie darf weder ganz noch teilweise verfielfältigt und nicht an Dritte weitergegeben werden.
 50
90.0
 41
0.8
  7
GREEKS
100
AcDbText
  0
TEXT
  5
79F
330
1E
100
AcDbEntity
  8
TEXT
 62
     1
100
AcDbText
 10
922.8891515269278
 20
156.0281960787337
 30
0.0
 40
17.5
  1

 41
0.8
  7
GREEKS
 72
     1
 11
922.8891515269278
 21
156.0281960787337
 31
0.0
100
AcDbText
  0
TEXT
  5
7E5
330
1E
100
AcDbEntity
  8
TEXT
100
AcDbText
 10
562.8240977813288
 20
155.8898485680456
 30
0.0
 40
12.5
  1
und Auslaufende %%C102
 41
0.8
  7
GREEKS
100
AcDbText
  0
LINE
  5
BC4
330
1E
100
AcDbEntity
  8
TEXT
 62
     2
100
AcDbLine
 10
729.25958444402
 20
971.971482948439
 30
0.0
 11
625.7124440385254
 21
872.6752480353129
 31
0.0
  0
LINE
  5
BC5
330
1E
100
AcDbEntity
  8
TEXT
 62
     2
100
AcDbLine
 10
994.1520158677347
 20
971.971482948439
 30
0.0
 11
729.25958444402
 21
971.971482948439
 31
0.0
  0
TEXT
  5
BC6
330
1E
100
AcDbEntity
  8
TEXT
 62
     1
100
AcDbText
 10
730.6127019643199
 20
947.6123389157717
 30
0.0
 40
17.5
  1
EDV-Art.Nr. 00805.070N
 41
0.8
  7
GREEKS
100
AcDbText
  0
TEXT
  5
BC7
330
1E
100
AcDbEntity
  8
TEXT
 62
     1
100
AcDbText
 10
730.6127019643199
 20
980.1123111022176
 30
0.0
 40
17.5
  1
Verschlußstopfen DN70
 41
0.8
  7
GREEKS
100
AcDbText
  0
TEXT
  5
DFC
330
1E
100
AcDbEntity
  8
VOLL
100
AcDbText
 10
1205.42307740675
 20
29.50456104592865
 30
0.0
 40
1.8
  1

  7
GREEKS
100
AcDbText
  0
LINE
  5
E09
330
1E
100
AcDbEntity
  8
BEM
 62
     1
100
AcDbLine
 10
530.4681196503764
 20
685.8033923763027
 30
0.0
 11
547.9681196503764
 21
685.8033923763027
 31
0.0
  0
LINE
  5
E0A
330
1E
100
AcDbEntity
  8
BEM
 62
     1
100
AcDbLine
 10
547.9681196503764
 20
668.3033923763027
 30
0.0
 11
530.4681196503764
 21
668.3033923763027
 31
0.0
  0
LINE
  5
E0B
330
1E
100
AcDbEntity
  8
BEM
 62
     1
100
AcDbLine
 10
530.4681196503764
 20
668.3033923763027
 30
0.0
 11
530.4681196503764
 21
685.8033923763027
 31
0.0
  0
LINE
  5
E0C
330
1E
100
AcDbEntity
  8
BEM
 62
     1
100
AcDbLine
 10
547.9681196503764
 20
685.8033923763027
 30
0.0
 11
547.9681196503764
 21
668.3033923763027
 31
0.0
  0
TEXT
  5
E13
330
1E
100
AcDbEntity
  8
TEXT
 62
     1
100
AcDbText
 10
2050.235474216696
 20
154.5068093599565
 30
0.0
 40
17.5
  1

 41
0.8
  7
GREEKS
 72
     1
 11
2050.235474216696
 21
154.5068093599565
 31
0.0
100
AcDbText
  0
LINE
  5
E15
330
1E
100
AcDbEntity
  8
MITTEL
100
AcDbLine
 10
561.2124440385258
 20
1377.675248035313
 30
0.0
 11
561.2124440385254
 21
693.2207924164591
 31
0.0
  0
DIMENSION
  5
E25
330
1E
100
AcDbEntity
  8
BEM
100
AcDbDimension
  2
*D5
 10
612.2124440385256
 20
430.7844082740171
 30
0.0
 11
561.2124440385256
 21
447.0344082740171
 31
0.0
 70
    32
  1
%%c<>
 71
     5
 42
102.0
  3
Standard
100
AcDbAlignedDimension
 13
510.2124440385256
 23
472.675248035313
 33
0.0
 14
612.2124440385256
 24
472.675248035313
 34
0.0
100
AcDbRotatedDimension
1001
ACAD
1000
DSTYLE
1002
{
1070
    40
1040
5.0
1070
    41
1040
3.5
1070
    42
1040
1.0
1070
    43
1040
7.0
1070
    44
1040
1.0
1070
    73
1070
     0
1070
    74
1070
     0
1070
    77
1070
     1
1070
    78
1070
     8
1070
    79
1070
     2
1070
   140
1040
3.5
1070
   141
1040
1.5
1070
   146
1040
0.5142857142857144
1070
   147
1040
1.5
1070
   172
1070
     1
1070
   178
1070
     1
1070
   179
1070
     2
1070
   271
1070
     2
1070
   272
1070
     2
1070
   284
1070
     8
1070
   285
1070
     8
1070
   286
1070
     8
1002
}
  0
LINE
  5
E29
330
1E
100
AcDbEntity
  8
STEMPEL
100
AcDbLine
 10
612.2124440385256
 20
472.675248035313
 30
0.0
 11
510.2124440385256
 21
472.675248035313
 31
0.0
  0
LINE
  5
E51
330
1E
100
AcDbEntity
  8
STEMPEL
100
AcDbLine
 10
611.2124440385256
 20
1293.192574967604
 30
0.0
 11
611.2124440385256
 21
1081.698708741752
 31
0.0
  0
LINE
  5
E5E
330
1E
100
AcDbEntity
  8
STEMPEL
100
AcDbLine
 10
511.2124440385258
 20
1293.192574967604
 30
0.0
 11
511.2124440385258
 21
1070.401910677222
 31
0.0
  0
LWPOLYLINE
  5
E62
330
1E
100
AcDbEntity
  8
MITTEL
100
AcDbPolyline
 90
        2
 70
     0
 43
0.0
 10
506.2124440385258
 20
1069.837070773995
 10
616.2124440385256
 20
1082.263548644979
  0
LWPOLYLINE
  5
E63
330
1E
100
AcDbEntity
  8
MITTEL
100
AcDbPolyline
 90
        2
 70
     0
 43
0.0
 10
506.2124440385258
 20
1059.837070773995
 10
616.2124440385256
 20
1072.263548644979
  0
LINE
  5
E65
330
1E
100
AcDbEntity
  8
STEMPEL
100
AcDbLine
 10
511.2124440385258
 20
1060.401910677222
 30
0.0
 11
511.2124440385259
 21
612.6752480353129
 31
0.0
  0
DIMENSION
  5
E82
330
1E
100
AcDbEntity
  8
BEM
100
AcDbDimension
  2
*D1
 10
611.2124440385256
 20
660.2403640941343
 30
0.0
 11
569.6894652480522
 21
660.2403640941343
 31
0.0
 70
   160
 71
     5
 42
99.99999999999978
  3
Standard
100
AcDbAlignedDimension
 13
511.2124440385258
 23
659.665461851464
 33
0.0
 14
611.2124440385256
 24
659.665461851464
 34
0.0
100
AcDbRotatedDimension
1001
ACAD
1000
DSTYLE
1002
{
1070
    40
1040
5.0
1070
    41
1040
3.5
1070
    42
1040
1.0
1070
    43
1040
7.0
1070
    44
1040
1.0
1070
    73
1070
     0
1070
    74
1070
     0
1070
    77
1070
     1
1070
    78
1070
     8
1070
    79
1070
     2
1070
   140
1040
3.5
1070
   141
1040
1.5
1070
   146
1040
0.5142857142857144
1070
   147
1040
1.5
1070
   172
1070
     1
1070
   178
1070
     1
1070
   179
1070
     2
1070
   271
1070
     2
1070
   272
1070
     2
1070
   284
1070
     8
1070
   285
1070
     8
1070
   286
1070
     8
1002
}
  0
LINE
  5
E83
330
1E
100
AcDbEntity
  8
MITTEL
100
AcDbLine
 10
561.2124440385254
 20
650.9527156821194
 30
0.0
 11
561.2124440385256
 21
467.6752480353129
 31
0.0
  0
TEXT
  5
E85
330
1E
100
AcDbEntity
  8
TEXT
 62
     1
100
AcDbText
 10
548.8294674059837
 20
1176.28832167972
 30
0.0
 40
17.5
  1
DN100
 50
90.0
 41
0.8
  7
GREEKS
100
AcDbText
  0
DIMENSION
  5
E87
330
1E
100
AcDbEntity
  8
BEM
100
AcDbDimension
  2
*D2
 10
429.8592401171771
 20
612.6752480353129
 30
0.0
 11
413.6092401171771
 21
542.6752480353131
 31
0.0
 70
    32
 71
     5
 42
140.0
  3
Standard
100
AcDbAlignedDimension
 13
510.2124440385256
 23
472.675248035313
 33
0.0
 14
511.2124440385259
 24
612.6752480353129
 34
0.0
 50
90.0
100
AcDbRotatedDimension
1001
ACAD
1000
DSTYLE
1002
{
1070
    40
1040
5.0
1070
    41
1040
3.5
1070
    42
1040
1.0
1070
    43
1040
7.0
1070
    44
1040
1.0
1070
    73
1070
     0
1070
    74
1070
     0
1070
    77
1070
     1
1070
    78
1070
     8
1070
    79
1070
     2
1070
   140
1040
3.5
1070
   141
1040
1.5
1070
   146
1040
0.5142857142857144
1070
   147
1040
1.5
1070
   172
1070
     1
1070
   178
1070
     1
1070
   179
1070
     2
1070
   271
1070
     2
1070
   272
1070
     2
1070
   284
1070
     8
1070
   285
1070
     8
1070
   286
1070
     8
1002
}
  0
DIMENSION
  5
E88
330
1E
100
AcDbEntity
  8
BEM
100
AcDbDimension
  2
*D3
 10
429.8592401171771
 20
1372.675248035313
 30
0.0
 11
413.6092401171769
 21
992.675248035313
 31
0.0
 70
    32
  1
860
 71
     5
 42
759.9999999999998
  3
Standard
100
AcDbAlignedDimension
 13
511.2124440385259
 23
612.6752480353129
 33
0.0
 14
507.0624440385258
 24
1372.675248035313
 34
0.0
 50
90.0
100
AcDbRotatedDimension
1001
ACAD
1000
DSTYLE
1002
{
1070
   279
1070
     1
1070
    40
1040
5.0
1070
    41
1040
3.5
1070
    42
1040
1.0
1070
    43
1040
7.0
1070
    44
1040
1.0
1070
    73
1070
     0
1070
    74
1070
     0
1070
    77
1070
     1
1070
    78
1070
     8
1070
    79
1070
     2
1070
   140
1040
3.5
1070
   141
1040
1.5
1070
   146
1040
0.5142857142857144
1070
   147
1040
1.5
1070
   172
1070
     1
1070
   178
1070
     1
1070
   179
1070
     2
1070
   271
1070
     2
1070
   272
1070
     2
1070
   284
1070
     8
1070
   285
1070
     8
1070
   286
1070
     8
1002
}
  0
DIMENSION
  5
E89
330
1E
100
AcDbEntity
  8
BEM
100
AcDbDimension
  2
*D4
 10
388.054491829911
 20
472.675248035313
 30
0.0
 11
371.8044918299109
 21
922.6752480353129
 31
0.0
 70
    32
  1
1000
 71
     5
 42
899.9999999999998
  3
Standard
100
AcDbAlignedDimension
 13
507.0624440385258
 23
1372.675248035313
 33
0.0
 14
510.2124440385256
 24
472.675248035313
 34
0.0
 50
90.0
100
AcDbRotatedDimension
1001
ACAD
1000
DSTYLE
1002
{
1070
    40
1040
5.0
1070
    41
1040
3.5
1070
    42
1040
1.0
1070
    43
1040
7.0
1070
    44
1040
1.0
1070
    73
1070
     0
1070
    74
1070
     0
1070
    77
1070
     1
1070
    78
1070
     8
1070
    79
1070
     2
1070
   140
1040
3.5
1070
   141
1040
1.5
1070
   146
1040
0.5142857142857144
1070
   147
1040
1.5
1070
   172
1070
     1
1070
   178
1070
     1
1070
   179
1070
     2
1070
   271
1070
     2
1070
   272
1070
     2
1070
   284
1070
     8
1070
   285
1070
     8
1070
   286
1070
     8
1002
}
  0
LINE
  5
E8A
330
1E
100
AcDbEntity
  8
MITTEL
100
AcDbLine
 10
645.7124440385256
 20
872.6752480353129
 30
0.0
 11
561.2124440385256
 21
872.6752480353129
 31
0.0
  0
LINE
  5
E91
330
1E
100
AcDbEntity
  8
STEMPEL
100
AcDbLine
 10
611.2124440385256
 20
1071.698708741752
 30
0.0
 11
611.2124440385255
 21
612.6752480353129
 31
0.0
  0
ARC
  5
E92
330
1E
100
AcDbEntity
  8
STEMPEL
100
AcDbCircle
 10
617.2124440385256
 20
918.1752480353129
 30
0.0
 40
6.0
100
AcDbArc
 50
180.0
 51
221.4096221092667
  0
ARC
  5
E93
330
1E
100
AcDbEntity
  8
STEMPEL
100
AcDbCircle
 10
617.2124440385256
 20
827.1752480353129
 30
0.0
 40
6.0
100
AcDbArc
 50
138.5903778907333
 51
180.0
  0
LINE
  5
1507
330
1E
100
AcDbEntity
  8
STEMPEL
100
AcDbLine
 10
634.7124440385254
 20
864.4252480353129
 30
0.0
 11
625.7124440385254
 21
864.4252480353129
 31
0.0
  0
LINE
  5
1509
330
1E
100
AcDbEntity
  8
STEMPEL
100
AcDbLine
 10
634.7124440385254
 20
880.925248035313
 30
0.0
 11
625.7124440385254
 21
880.925248035313
 31
0.0
  0
LINE
  5
1519
330
1E
100
AcDbEntity
  8
STEMPEL
100
AcDbLine
 10
620.1183106963841
 20
914.0213344513668
 30
0.0
 11
613.1006726061793
 21
915.9017049104113
 31
0.0
  0
LINE
  5
151E
330
1E
100
AcDbEntity
  8
STEMPEL
100
AcDbLine
 10
613.1006726061793
 20
915.9017049104113
 30
0.0
 11
612.7124440385253
 21
914.4528161709777
 31
0.0
  0
ARC
  5
1520
330
1E
100
AcDbEntity
  8
STEMPEL
100
AcDbCircle
 10
619.2124440385254
 20
910.6405940593552
 30
0.0
 40
3.5
100
AcDbArc
 50
0.0
 51
74.99999999999925
  0
LINE
  5
1528
330
1E
100
AcDbEntity
  8
STEMPEL
100
AcDbLine
 10
622.7124440385254
 20
910.6405940593552
 30
0.0
 11
622.7124440385254
 21
834.7099020112709
 31
0.0
  0
LINE
  5
152B
330
1E
100
AcDbEntity
  8
STEMPEL
100
AcDbLine
 10
625.7124440385254
 20
880.925248035313
 30
0.0
 11
625.7124440385254
 21
864.4252480353129
 31
0.0
  0
LINE
  5
152C
330
1E
100
AcDbEntity
  8
STEMPEL
100
AcDbLine
 10
625.7124440385254
 20
878.3044131599117
 30
0.0
 11
625.7124440385254
 21
867.0460829107142
 31
0.0
  0
LINE
  5
152D
330
1E
100
AcDbEntity
  8
STEMPEL
100
AcDbLine
 10
625.7124440385254
 20
886.0205474969339
 30
0.0
 11
625.7124440385254
 21
859.3299485736924
 31
0.0
  0
ARC
  5
1541
330
1E
100
AcDbEntity
  8
STEMPEL
100
AcDbCircle
 10
622.2124440385254
 20
886.0205474969339
 30
0.0
 40
3.5
100
AcDbArc
 50
0.0
 51
60.0000000000027
  0
LINE
  5
1543
330
1E
100
AcDbEntity
  8
STEMPEL
100
AcDbLine
 10
623.9624440385254
 20
889.0516364101795
 30
0.0
 11
623.7124440385254
 21
889.1959739774771
 31
0.0
  0
ARC
  5
1545
330
1E
100
AcDbEntity
  8
STEMPEL
100
AcDbCircle
 10
624.7124440385253
 20
890.9280247850457
 30
0.0
 40
2.0
100
AcDbArc
 50
180.0
 51
240.0000000000027
  0
LINE
  5
155C
330
1E
100
AcDbEntity
  8
STEMPEL
100
AcDbLine
 10
623.9624440385254
 20
856.2988596604467
 30
0.0
 11
623.7124440385254
 21
856.1545220931494
 31
0.0
  0
ARC
  5
155D
330
1E
100
AcDbEntity
  8
STEMPEL
100
AcDbCircle
 10
624.7124440385253
 20
854.4224712855806
 30
0.0
 40
2.0
100
AcDbArc
 50
119.9999999999972
 51
180.0
  0
ARC
  5
1560
330
1E
100
AcDbEntity
  8
STEMPEL
100
AcDbCircle
 10
622.2124440385254
 20
859.3299485736924
 30
0.0
 40
3.5
100
AcDbArc
 50
299.9999999999973
 51
0.0
  0
LINE
  5
1562
330
1E
100
AcDbEntity
  8
STEMPEL
100
AcDbLine
 10
620.1183106963841
 20
831.3291616192591
 30
0.0
 11
613.1006726061793
 21
829.448791160215
 31
0.0
  0
LINE
  5
1566
330
1E
100
AcDbEntity
  8
STEMPEL
100
AcDbLine
 10
612.7124440385253
 20
914.4528161709777
 30
0.0
 11
612.7124440385253
 21
830.8976798996486
 31
0.0
  0
LINE
  5
1567
330
1E
100
AcDbEntity
  8
STEMPEL
100
AcDbLine
 10
613.1006726061793
 20
829.448791160215
 30
0.0
 11
612.7124440385253
 21
830.8976798996486
 31
0.0
  0
ARC
  5
1569
330
1E
100
AcDbEntity
  8
STEMPEL
100
AcDbCircle
 10
619.2124440385254
 20
834.7099020112709
 30
0.0
 40
3.5
100
AcDbArc
 50
285.0000000000008
 51
0.0
  0
ARC
  5
1571
330
1E
100
AcDbEntity
  8
STEMPEL
100
AcDbCircle
 10
633.7124440385253
 20
872.6752480353129
 30
0.0
 40
7.0
100
AcDbArc
 50
278.2132107017357
 51
81.78678929826427
  0
LINE
  5
157F
330
1E
100
AcDbEntity
  8
STEMPEL
100
AcDbLine
 10
634.7124440385254
 20
880.925248035313
 30
0.0
 11
634.7124440385254
 21
864.4252480353129
 31
0.0
  0
LINE
  5
178C
330
1E
100
AcDbEntity
  8
STEMPEL
100
AcDbLine
 10
613.1006726061793
 20
915.9017049104113
 30
0.0
 11
613.1006726061793
 21
829.448791160215
 31
0.0
  0
DIMENSION
  5
17D6
330
1E
100
AcDbEntity
  8
BEM
100
AcDbDimension
  2
*D6
 10
708.9889270199901
 20
472.6752480353129
 30
0.0
 11
692.73892701999
 21
672.675248035313
 31
0.0
 70
    32
 71
     5
 42
400.0
  3
Standard
100
AcDbAlignedDimension
 13
645.7124440385256
 23
872.6752480353129
 33
0.0
 14
612.2124440385256
 24
472.675248035313
 34
0.0
 50
90.0
100
AcDbRotatedDimension
1001
ACAD
1000
DSTYLE
1002
{
1070
    40
1040
5.0
1070
    41
1040
3.5
1070
    42
1040
1.0
1070
    43
1040
7.0
1070
    44
1040
1.0
1070
    73
1070
     0
1070
    74
1070
     0
1070
    77
1070
     1
1070
    78
1070
     8
1070
    79
1070
     2
1070
   140
1040
3.5
1070
   141
1040
1.5
1070
   146
1040
0.5142857142857144
1070
   147
1040
1.5
1070
   172
1070
     1
1070
   178
1070
     1
1070
   179
1070
     2
1070
   271
1070
     2
1070
   272
1070
     2
1070
   284
1070
     8
1070
   285
1070
     8
1070
   286
1070
     8
1002
}
  0
LINE
  5
1857
330
1E
100
AcDbEntity
  8
STEMPEL
100
AcDbLine
 10
611.2124440385255
 20
612.6752480353129
 30
0.0
 11
511.2124440385259
 21
612.6752480353129
 31
0.0
  0
ARC
  5
18C3
330
1E
100
AcDbEntity
  8
STEMPEL
100
AcDbCircle
 10
522.2124440385256
 20
582.4753035600252
 30
0.0
 40
12.0
100
AcDbArc
 50
178.0908475670027
 51
180.0
  0
ARC
  5
18C4
330
1E
100
AcDbEntity
  8
STEMPEL
100
AcDbCircle
 10
600.2124440385255
 20
582.4753035600271
 30
0.0
 40
12.0
100
AcDbArc
 50
0.0
 51
1.909152432997244
  0
LINE
  5
18C5
330
1E
100
AcDbEntity
  8
HILF
100
AcDbLine
 10
561.2124440385256
 20
582.675248035313
 30
0.0
 11
611.2124440385256
 21
612.6752480353131
 31
0.0
  0
LINE
  5
18C6
330
1E
100
AcDbEntity
  8
HILF
100
AcDbLine
 10
511.2124440385258
 20
612.6752480353129
 30
0.0
 11
561.2124440385256
 21
582.675248035313
 31
0.0
  0
HATCH
  5
18C7
330
1E
100
AcDbEntity
  8
SCHRAFF
100
AcDbHatch
 10
0.0
 20
0.0
 30
0.0
210
0.0
220
0.0
230
1.0
  2
_USER
 70
     0
 71
     0
 91
        2
 92
        7
 72
     1
 73
     1
 93
        3
 10
611.3124440385256
 20
609.6752480353131
 42
0.5308420910531973
 10
611.2124440385256
 20
615.675248035313
 42
0.0
 10
611.2124440385256
 20
612.6752480353116
 42
0.0
 97
        0
 92
        7
 72
     1
 73
     1
 93
        3
 10
511.112444038526
 20
609.6752480353147
 42
0.0
 10
511.2124440385258
 20
612.6752480353101
 42
0.0
 10
511.2124440385258
 20
615.6752480353152
 42
0.5308420910532686
 97
        0
 75
     0
 76
     0
 52
0.0
 41
0.1
 77
     0
 78
     1
 53
0.0
 43
-1.28755596147414
 44
0.0
 45
0.0
 46
0.1
 79
     0
 47
0.2950645760897732
 98
        2
 10
612.0084978243711
 20
612.1505632925582
 10
510.4344913166695
 20
613.6258843197119
  0
ARC
  5
18C8
330
1E
100
AcDbEntity
  8
SCHRAFF
100
AcDbCircle
 10
513.1918799662833
 20
612.6414241031857
 30
0.0
 40
3.622465216293761
100
AcDbArc
 50
123.1226706252064
 51
234.9676468670494
  0
ARC
  5
18C9
330
1E
100
AcDbEntity
  8
SCHRAFF
100
AcDbCircle
 10
609.233008110768
 20
612.6414241031838
 30
0.0
 40
3.622465216293761
100
AcDbArc
 50
305.0323531329506
 51
56.87732937479353
  0
LINE
  5
18CA
330
1E
100
AcDbEntity
  8
STEMPEL
100
AcDbLine
 10
511.2124440385258
 20
612.6752480353129
 30
0.0
 11
510.2191051547757
 21
582.875081522817
 31
0.0
  0
LINE
  5
18CB
330
1E
100
AcDbEntity
  8
STEMPEL
100
AcDbLine
 10
611.2124440385256
 20
612.6752480353131
 30
0.0
 11
612.2057829222754
 21
582.8750815228187
 31
0.0
  0
LINE
  5
18CC
330
1E
100
AcDbEntity
  8
STEMPEL
100
AcDbLine
 10
611.2124440385256
 20
612.6752480353131
 30
0.0
 11
511.2124440385258
 21
612.6752480353129
 31
0.0
  0
ARC
  5
18CD
330
1E
100
AcDbEntity
  8
SCHRAFF
100
AcDbCircle
 10
597.3383911035189
 20
612.6752480353125
 30
0.0
 40
7.405117700106271
100
AcDbArc
 50
336.1010251628487
 51
23.89897483715128
  0
ARC
  5
18CE
330
1E
100
AcDbEntity
  8
SCHRAFF
100
AcDbCircle
 10
602.3383911035189
 20
612.6752480353125
 30
0.0
 40
7.405117700106271
100
AcDbArc
 50
336.1010251628487
 51
23.89897483715128
  0
ARC
  5
18CF
330
1E
100
AcDbEntity
  8
SCHRAFF
100
AcDbCircle
 10
517.3383911035188
 20
612.6752480353128
 30
0.0
 40
7.405117700106271
100
AcDbArc
 50
336.1010251628487
 51
23.89897483715128
  0
ARC
  5
18D0
330
1E
100
AcDbEntity
  8
SCHRAFF
100
AcDbCircle
 10
512.3383911035189
 20
612.6752480353128
 30
0.0
 40
7.405117700106271
100
AcDbArc
 50
336.1010251628487
 51
23.89897483715128
  0
ARC
  5
18D1
330
1E
100
AcDbEntity
  8
SCHRAFF
100
AcDbCircle
 10
507.3383911035189
 20
612.6752480353128
 30
0.0
 40
7.405117700106271
100
AcDbArc
 50
336.1010251628487
 51
23.89897483715128
  0
TEXT
  5
18D2
330
1E
100
AcDbEntity
  8
TEXT
 62
     1
100
AcDbText
 10
544.9935635490278
 20
495.1569269926949
 30
0.0
 40
17.5
  1
DN100
 50
90.0
 41
0.8
  7
GREEKS
100
AcDbText
  0
LINE
  5
18F0
330
1E
100
AcDbEntity
  8
STEMPEL
100
AcDbLine
 10
510.2124440385256
 20
582.4753035600252
 30
0.0
 11
510.2124440385256
 21
472.675248035313
 31
0.0
  0
LINE
  5
18F1
330
1E
100
AcDbEntity
  8
STEMPEL
100
AcDbLine
 10
612.2124440385255
 20
582.4753035600271
 30
0.0
 11
612.2124440385256
 21
472.675248035313
 31
0.0
  0
LINE
  5
18F2
330
1E
100
AcDbEntity
  8
HILF
100
AcDbLine
 10
610.2104449490476
 20
582.675248035313
 30
0.0
 11
512.2144431280035
 21
582.675248035313
 31
0.0
  0
ARC
  5
18F3
330
1E
100
AcDbEntity
  8
SCHRAFF
100
AcDbCircle
 10
522.3383911035189
 20
612.6752480353128
 30
0.0
 40
7.405117700106271
100
AcDbArc
 50
336.1010251628487
 51
23.89897483715128
  0
ARC
  5
18F4
330
1E
100
AcDbEntity
  8
SCHRAFF
100
AcDbCircle
 10
527.3383911035189
 20
612.6752480353128
 30
0.0
 40
7.405117700106271
100
AcDbArc
 50
336.1010251628487
 51
23.89897483715128
  0
ARC
  5
18F5
330
1E
100
AcDbEntity
  8
SCHRAFF
100
AcDbCircle
 10
532.3383911035189
 20
612.6752480353128
 30
0.0
 40
7.405117700106271
100
AcDbArc
 50
336.1010251628487
 51
23.89897483715128
  0
ARC
  5
18F6
330
1E
100
AcDbEntity
  8
SCHRAFF
100
AcDbCircle
 10
542.3383911035188
 20
612.6752480353128
 30
0.0
 40
7.405117700106271
100
AcDbArc
 50
336.1010251628487
 51
23.89897483715128
  0
ARC
  5
18F7
330
1E
100
AcDbEntity
  8
SCHRAFF
100
AcDbCircle
 10
537.3383911035189
 20
612.6752480353128
 30
0.0
 40
7.405117700106271
100
AcDbArc
 50
336.1010251628487
 51
23.89897483715128
  0
ARC
  5
18F8
330
1E
100
AcDbEntity
  8
SCHRAFF
100
AcDbCircle
 10
552.3383911035189
 20
612.6752480353127
 30
0.0
 40
7.405117700106271
100
AcDbArc
 50
336.1010251628487
 51
23.89897483715128
  0
ARC
  5
18F9
330
1E
100
AcDbEntity
  8
SCHRAFF
100
AcDbCircle
 10
547.3383911035189
 20
612.6752480353127
 30
0.0
 40
7.405117700106271
100
AcDbArc
 50
336.1010251628487
 51
23.89897483715128
  0
ARC
  5
18FA
330
1E
100
AcDbEntity
  8
SCHRAFF
100
AcDbCircle
 10
562.3383911035189
 20
612.6752480353127
 30
0.0
 40
7.405117700106271
100
AcDbArc
 50
336.1010251628487
 51
23.89897483715128
  0
ARC
  5
18FB
330
1E
100
AcDbEntity
  8
SCHRAFF
100
AcDbCircle
 10
557.3383911035189
 20
612.6752480353127
 30
0.0
 40
7.405117700106271
100
AcDbArc
 50
336.1010251628487
 51
23.89897483715128
  0
ARC
  5
18FC
330
1E
100
AcDbEntity
  8
SCHRAFF
100
AcDbCircle
 10
572.3383911035189
 20
612.6752480353127
 30
0.0
 40
7.405117700106271
100
AcDbArc
 50
336.1010251628487
 51
23.89897483715128
  0
ARC
  5
18FD
330
1E
100
AcDbEntity
  8
SCHRAFF
100
AcDbCircle
 10
567.3383911035188
 20
612.6752480353127
 30
0.0
 40
7.405117700106271
100
AcDbArc
 50
336.1010251628487
 51
23.89897483715128
  0
ARC
  5
18FE
330
1E
100
AcDbEntity
  8
SCHRAFF
100
AcDbCircle
 10
582.3383911035189
 20
612.6752480353127
 30
0.0
 40
7.405117700106271
100
AcDbArc
 50
336.1010251628487
 51
23.89897483715128
  0
ARC
  5
18FF
330
1E
100
AcDbEntity
  8
SCHRAFF
100
AcDbCircle
 10
577.3383911035189
 20
612.6752480353127
 30
0.0
 40
7.405117700106271
100
AcDbArc
 50
336.1010251628487
 51
23.89897483715128
  0
ARC
  5
1900
330
1E
100
AcDbEntity
  8
SCHRAFF
100
AcDbCircle
 10
592.3383911035188
 20
612.6752480353125
 30
0.0
 40
7.405117700106271
100
AcDbArc
 50
336.1010251628487
 51
23.89897483715128
  0
ARC
  5
1901
330
1E
100
AcDbEntity
  8
SCHRAFF
100
AcDbCircle
 10
587.3383911035189
 20
612.6752480353125
 30
0.0
 40
7.405117700106271
100
AcDbArc
 50
336.1010251628487
 51
23.89897483715128
  0
HATCH
  5
198A
330
1E
100
AcDbEntity
  8
SCHRAFF
100
AcDbHatch
 10
0.0
 20
0.0
 30
0.0
210
0.0
220
0.0
230
1.0
  2
_USER
 70
     0
 71
     0
 91
        2
 92
        7
 72
     1
 73
     1
 93
       10
 10
510.0624440385259
 20
1372.675248035313
 42
0.0
 10
507.0624440385258
 20
1372.675248035313
 42
0.0
 10
507.0624440385258
 20
1309.083688836682
 42
0.1284226112238397
 10
509.2970594231413
 20
1300.526935214871
 42
-0.1284226112238415
 10
511.2124440385259
 20
1293.192574967604
 42
0.0
 10
511.2124440385259
 20
1280.930638059668
 42
0.0
 10
514.2124440385259
 20
1281.45418376604
 42
0.0
 10
514.2124440385259
 20
1293.192574967604
 42
0.1284226112238401
 10
511.9139825000644
 20
1301.993807264325
 42
-0.1284226112238415
 10
510.0624440385258
 20
1309.083688836682
 42
0.0
 97
        0
 92
        7
 72
     1
 73
     1
 93
       10
 10
615.3624440385259
 20
1372.675248035313
 42
0.0
 10
612.3624440385257
 20
1372.675248035313
 42
0.0
 10
612.3624440385259
 20
1309.083688836683
 42
-0.1284226112238547
 10
610.5109055769871
 20
1301.993807264324
 42
0.128422611223836
 10
608.2124440385258
 20
1293.192574967604
 42
0.0
 10
608.2124440385261
 20
1280.407092353297
 42
0.0
 10
611.2124440385257
 20
1280.930638059668
 42
0.0
 10
611.2124440385257
 20
1293.192574967604
 42
-0.1284226112238594
 10
613.127828653911
 20
1300.526935214872
 42
0.1284226112238314
 10
615.3624440385259
 20
1309.083688836683
 42
0.0
 97
        0
 75
     0
 76
     0
 52
45.0
 41
2.0
 77
     0
 78
     1
 53
45.0
 43
-1.287555961474026
 44
0.0
 45
-1.414213562373094
 46
1.414213562373095
 79
     0
 47
0.4364374429340324
 98
        2
 10
508.5487704588804
 20
1325.623806135161
 10
613.7909162222568
 20
1340.026243665594
  0
LINE
  5
198B
330
1E
100
AcDbEntity
  8
HILF
100
AcDbLine
 10
605.710886874402
 20
1297.740778332248
 30
0.0
 11
516.7140012026499
 21
1297.740778332248
 31
0.0
  0
LINE
  5
198C
330
1E
100
AcDbEntity
  8
HILF
100
AcDbLine
 10
608.7631938363078
 20
1305.419858348497
 30
0.0
 11
513.6616942407439
 21
1305.419858348497
 31
0.0
  0
LINE
  5
198D
330
1E
100
AcDbEntity
  8
STEMPEL
100
AcDbLine
 10
615.3624440385258
 20
1372.675248035313
 30
0.0
 11
615.3624440385259
 21
1309.083688836683
 31
0.0
  0
ARC
  5
198E
330
1E
100
AcDbEntity
  8
STEMPEL
100
AcDbCircle
 10
626.2124440385259
 20
1293.192574967604
 30
0.0
 40
15.0
100
AcDbArc
 50
150.7279257826954
 51
180.0
  0
ARC
  5
198F
330
1E
100
AcDbEntity
  8
STEMPEL
100
AcDbCircle
 10
626.2124440385259
 20
1293.192574967604
 30
0.0
 40
18.0
100
AcDbArc
 50
150.7279257826954
 51
180.0
  0
ARC
  5
1990
330
1E
100
AcDbEntity
  8
STEMPEL
100
AcDbCircle
 10
597.8624440385259
 20
1309.083688836683
 30
0.0
 40
14.5
100
AcDbArc
 50
330.7279257826954
 51
0.0
  0
LINE
  5
1991
330
1E
100
AcDbEntity
  8
STEMPEL
100
AcDbLine
 10
612.3624440385258
 20
1372.675248035313
 30
0.0
 11
612.3624440385259
 21
1309.083688836683
 31
0.0
  0
ARC
  5
1992
330
1E
100
AcDbEntity
  8
STEMPEL
100
AcDbCircle
 10
597.8624440385259
 20
1309.083688836683
 30
0.0
 40
17.5
100
AcDbArc
 50
330.7279257826954
 51
0.0
  0
LINE
  5
1993
330
1E
100
AcDbEntity
  8
STEMPEL
100
AcDbLine
 10
608.2124440385258
 20
1293.192574967604
 30
0.0
 11
608.212444038526
 21
1280.407092353297
 31
0.0
  0
ARC
  5
1994
330
1E
100
AcDbEntity
  8
STEMPEL
100
AcDbCircle
 10
496.212444038526
 20
1293.192574967604
 30
0.0
 40
18.0
100
AcDbArc
 50
0.0
 51
29.27207421730461
  0
ARC
  5
1995
330
1E
100
AcDbEntity
  8
STEMPEL
100
AcDbCircle
 10
496.212444038526
 20
1293.192574967604
 30
0.0
 40
15.0
100
AcDbArc
 50
0.0
 51
29.27207421730461
  0
ARC
  5
1996
330
1E
100
AcDbEntity
  8
STEMPEL
100
AcDbCircle
 10
524.5624440385259
 20
1309.083688836683
 30
0.0
 40
14.5
100
AcDbArc
 50
180.0
 51
209.2720742173046
  0
ARC
  5
1997
330
1E
100
AcDbEntity
  8
STEMPEL
100
AcDbCircle
 10
524.5624440385259
 20
1309.083688836683
 30
0.0
 40
17.5
100
AcDbArc
 50
180.0
 51
209.2720742173046
  0
LINE
  5
1998
330
1E
100
AcDbEntity
  8
STEMPEL
100
AcDbLine
 10
510.0624440385258
 20
1372.675248035313
 30
0.0
 11
510.0624440385258
 21
1309.083688836682
 31
0.0
  0
LINE
  5
1999
330
1E
100
AcDbEntity
  8
STEMPEL
100
AcDbLine
 10
507.0624440385258
 20
1372.675248035313
 30
0.0
 11
507.0624440385258
 21
1309.083688836682
 31
0.0
  0
LINE
  5
199A
330
1E
100
AcDbEntity
  8
STEMPEL
100
AcDbLine
 10
514.2124440385259
 20
1293.192574967604
 30
0.0
 11
514.2124440385259
 21
1281.454183766039
 31
0.0
  0
LINE
  5
199B
330
1E
100
AcDbEntity
  8
STEMPEL
100
AcDbLine
 10
507.0624440385258
 20
1372.675248035313
 30
0.0
 11
615.3624440385258
 21
1372.675248035313
 31
0.0
  0
DIMENSION
  5
199C
330
1E
100
AcDbEntity
  8
BEM
100
AcDbDimension
  2
*D7
 10
612.3624440385258
 20
1402.992902166769
 30
0.0
 11
579.7622399898781
 21
1402.992902166769
 31
0.0
 70
   160
 71
     5
 42
102.2999999999999
  3
Standard
100
AcDbAlignedDimension
 13
510.0624440385258
 23
1372.675248035313
 33
0.0
 14
612.3624440385258
 24
1372.675248035313
 34
0.0
100
AcDbRotatedDimension
1001
ACAD
1000
DSTYLE
1002
{
1070
    40
1040
5.0
1070
    41
1040
3.5
1070
    42
1040
1.0
1070
    43
1040
7.0
1070
    44
1040
1.0
1070
    73
1070
     0
1070
    74
1070
     0
1070
    77
1070
     1
1070
    78
1070
     8
1070
    79
1070
     2
1070
   140
1040
3.5
1070
   141
1040
1.5
1070
   146
1040
0.5142857142857144
1070
   147
1040
1.5
1070
   172
1070
     1
1070
   178
1070
     1
1070
   179
1070
     2
1070
   271
1070
     2
1070
   272
1070
     2
1070
   284
1070
     8
1070
   285
1070
     8
1070
   286
1070
     8
1002
}
  0
POLYLINE
  5
199D
330
1E
100
AcDbEntity
  8
HILF
100
AcDb2dPolyline
 66
     1
 10
0.0
 20
0.0
 30
0.0
 70
     4
 75
     6
  0
VERTEX
  5
199E
330
199D
100
AcDbEntity
  8
HILF
100
AcDbVertex
100
AcDb2dVertex
 10
511.2124440385261
 20
1280.930638059668
 30
0.0
 70
    16
  0
VERTEX
  5
199F
330
199D
100
AcDbEntity
  8
HILF
100
AcDbVertex
100
AcDb2dVertex
 10
511.2124440385261
 20
1280.930638059668
 30
0.0
 70
     8
  0
VERTEX
  5
19A0
330
199D
100
AcDbEntity
  8
HILF
100
AcDbVertex
100
AcDb2dVertex
 10
520.0259206010259
 20
1282.468723997168
 30
0.0
 70
     8
  0
VERTEX
  5
19A1
330
199D
100
AcDbEntity
  8
HILF
100
AcDbVertex
100
AcDb2dVertex
 10
527.8140065385258
 20
1283.391575559668
 30
0.0
 70
     8
  0
VERTEX
  5
19A2
330
199D
100
AcDbEntity
  8
HILF
100
AcDbVertex
100
AcDb2dVertex
 10
534.7231862260258
 20
1283.787083372168
 30
0.0
 70
     8
  0
VERTEX
  5
19A3
330
199D
100
AcDbEntity
  8
HILF
100
AcDbVertex
100
AcDb2dVertex
 10
540.8999440385258
 20
1283.743138059668
 30
0.0
 70
     8
  0
VERTEX
  5
19A4
330
199D
100
AcDbEntity
  8
HILF
100
AcDbVertex
100
AcDb2dVertex
 10
546.4907643510258
 20
1283.347630247168
 30
0.0
 70
     8
  0
VERTEX
  5
19A5
330
199D
100
AcDbEntity
  8
HILF
100
AcDbVertex
100
AcDb2dVertex
 10
551.6421315385258
 20
1282.688450559668
 30
0.0
 70
     8
  0
VERTEX
  5
19A6
330
199D
100
AcDbEntity
  8
HILF
100
AcDbVertex
100
AcDb2dVertex
 10
556.5005299760258
 20
1281.853489622168
 30
0.0
 70
     8
  0
VERTEX
  5
19A7
330
199D
100
AcDbEntity
  8
HILF
100
AcDbVertex
100
AcDb2dVertex
 10
561.2124440385258
 20
1280.930638059668
 30
0.0
 70
     8
  0
VERTEX
  5
19A8
330
199D
100
AcDbEntity
  8
HILF
100
AcDbVertex
100
AcDb2dVertex
 10
565.9243581010258
 20
1280.007786497168
 30
0.0
 70
     8
  0
VERTEX
  5
19A9
330
199D
100
AcDbEntity
  8
HILF
100
AcDbVertex
100
AcDb2dVertex
 10
570.7827565385258
 20
1279.172825559668
 30
0.0
 70
     8
  0
VERTEX
  5
19AA
330
199D
100
AcDbEntity
  8
HILF
100
AcDbVertex
100
AcDb2dVertex
 10
575.9341237260258
 20
1278.513645872168
 30
0.0
 70
     8
  0
VERTEX
  5
19AB
330
199D
100
AcDbEntity
  8
HILF
100
AcDbVertex
100
AcDb2dVertex
 10
581.5249440385258
 20
1278.118138059668
 30
0.0
 70
     8
  0
VERTEX
  5
19AC
330
199D
100
AcDbEntity
  8
HILF
100
AcDbVertex
100
AcDb2dVertex
 10
587.7017018510258
 20
1278.074192747168
 30
0.0
 70
     8
  0
VERTEX
  5
19AD
330
199D
100
AcDbEntity
  8
HILF
100
AcDbVertex
100
AcDb2dVertex
 10
594.6108815385258
 20
1278.469700559668
 30
0.0
 70
     8
  0
VERTEX
  5
19AE
330
199D
100
AcDbEntity
  8
HILF
100
AcDbVertex
100
AcDb2dVertex
 10
602.3989674760258
 20
1279.392552122168
 30
0.0
 70
     8
  0
VERTEX
  5
19AF
330
199D
100
AcDbEntity
  8
HILF
100
AcDbVertex
100
AcDb2dVertex
 10
611.2124440385258
 20
1280.930638059668
 30
0.0
 70
     8
  0
VERTEX
  5
19B0
330
199D
100
AcDbEntity
  8
HILF
100
AcDbVertex
100
AcDb2dVertex
 10
536.2124440385258
 20
1285.930638059668
 30
0.0
 70
    16
  0
VERTEX
  5
19B1
330
199D
100
AcDbEntity
  8
HILF
100
AcDbVertex
100
AcDb2dVertex
 10
561.2124440385258
 20
1280.930638059668
 30
0.0
 70
    16
  0
VERTEX
  5
19B2
330
199D
100
AcDbEntity
  8
HILF
100
AcDbVertex
100
AcDb2dVertex
 10
586.2124440385257
 20
1275.930638059668
 30
0.0
 70
    16
  0
VERTEX
  5
19B3
330
199D
100
AcDbEntity
  8
HILF
100
AcDbVertex
100
AcDb2dVertex
 10
611.2124440385257
 20
1280.930638059668
 30
0.0
 70
    16
  0
SEQEND
  5
19B4
330
199D
100
AcDbEntity
  8
HILF
  0
DIMENSION
  5
19B5
330
1E
100
AcDbEntity
  8
BEM
100
AcDbDimension
  2
*D8
 10
473.2268198438695
 20
1302.675248035313
 30
0.0
 11
456.9768198438692
 21
1337.675248035313
 31
0.0
 70
    32
 71
     5
 42
69.99999999999977
  3
Standard
100
AcDbAlignedDimension
 13
507.0624440385258
 23
1372.675248035313
 33
0.0
 14
508.2780378014123
 24
1302.675248035313
 34
0.0
 50
90.0
100
AcDbRotatedDimension
1001
ACAD
1000
DSTYLE
1002
{
1070
    40
1040
5.0
1070
    41
1040
3.5
1070
    42
1040
1.0
1070
    43
1040
7.0
1070
    44
1040
1.0
1070
    73
1070
     0
1070
    74
1070
     0
1070
    77
1070
     1
1070
    78
1070
     8
1070
    79
1070
     2
1070
   140
1040
3.5
1070
   141
1040
1.5
1070
   146
1040
0.5142857142857144
1070
   147
1040
1.5
1070
   172
1070
     1
1070
   178
1070
     1
1070
   179
1070
     2
1070
   271
1070
     2
1070
   272
1070
     2
1070
   284
1070
     8
1070
   285
1070
     8
1070
   286
1070
     8
1002
}
  0
LINE
  5
19B6
330
1E
100
AcDbEntity
  8
BEM
 62
     1
100
AcDbLine
 10
530.6094240102762
 20
1410.681486779351
 30
0.0
 11
530.6094240102762
 21
1428.181486779351
 31
0.0
  0
LINE
  5
19B7
330
1E
100
AcDbEntity
  8
BEM
 62
     1
100
AcDbLine
 10
548.1094240102762
 20
1428.181486779351
 30
0.0
 11
548.1094240102762
 21
1410.681486779351
 31
0.0
  0
LINE
  5
19B8
330
1E
100
AcDbEntity
  8
BEM
 62
     1
100
AcDbLine
 10
548.1094240102762
 20
1410.681486779351
 30
0.0
 11
530.6094240102762
 21
1410.681486779351
 31
0.0
  0
LINE
  5
19B9
330
1E
100
AcDbEntity
  8
BEM
 62
     1
100
AcDbLine
 10
530.6094240102762
 20
1428.181486779351
 30
0.0
 11
548.1094240102762
 21
1428.181486779351
 31
0.0
  0
TEXT
  5
1A05
330
1E
100
AcDbEntity
  8
TEXT
 62
     1
100
AcDbText
 10
448.9068575452802
 20
323.1467204829491
 30
0.0
 40
17.5
  1
Werkstoff: SF-Cu DIN1754/1786
 41
0.8
  7
GREEKS
100
AcDbText
  0
ENDSEC
  0
SECTION
  2
OBJECTS
  0
DICTIONARY
  5
C
330
0
100
AcDbDictionary
281
     1
  3
ACAD_COLOR
350
DF
  3
ACAD_GROUP
350
D
  3
ACAD_LAYOUT
350
19
  3
ACAD_MATERIAL
350
DE
  3
ACAD_MLINESTYLE
350
16
  3
ACAD_PLOTSETTINGS
350
18
  3
ACAD_PLOTSTYLENAME
350
E
  3
AcDbVariableDictionary
350
EA
  0
DICTIONARY
  5
A0
330
1E
100
AcDbDictionary
280
     1
281
     1
  3
ACAD_LAYOUTSELFREF
360
D4
  0
DICTIONARY
  5
A2
330
1A
100
AcDbDictionary
280
     1
281
     1
  3
ACAD_LAYOUTSELFREF
360
D3
  0
DICTIONARY
  5
DF
102
{ACAD_REACTORS
330
C
102
}
330
C
100
AcDbDictionary
281
     1
  0
DICTIONARY
  5
D
102
{ACAD_REACTORS
330
C
102
}
330
C
100
AcDbDictionary
281
     1
  0
DICTIONARY
  5
19
102
{ACAD_REACTORS
330
C
102
}
330
C
100
AcDbDictionary
281
     1
  3
Layout1
350
1D
  3
Model
350
21
  0
DICTIONARY
  5
DE
102
{ACAD_REACTORS
330
C
102
}
330
C
100
AcDbDictionary
281
     1
  0
DICTIONARY
  5
16
102
{ACAD_REACTORS
330
C
102
}
330
C
100
AcDbDictionary
281
     1
  3
Standard
350
17
  0
DICTIONARY
  5
18
102
{ACAD_REACTORS
330
C
102
}
330
C
100
AcDbDictionary
281
     1
  0
ACDBDICTIONARYWDFLT
  5
E
102
{ACAD_REACTORS
330
C
102
}
330
C
100
AcDbDictionary
281
     1
  3
Normal
350
F
100
AcDbDictionaryWithDefault
340
F
  0
DICTIONARY
  5
EA
102
{ACAD_REACTORS
330
C
102
}
330
C
100
AcDbDictionary
281
     1
  3
DIMASSOC
350
EB
  3
PROJECTNAME
350
EC
  0
XRECORD
  5
D4
102
{ACAD_REACTORS
330
A0
102
}
330
A0
100
AcDbXrecord
280
     1
340
1E
  0
XRECORD
  5
D3
102
{ACAD_REACTORS
330
A2
102
}
330
A2
100
AcDbXrecord
280
     1
340
1A
  0
LAYOUT
  5
1D
102
{ACAD_REACTORS
330
19
102
}
330
19
100
AcDbPlotSettings
  1

  2
\\NT_WORK01\HP LaserJet 5000 PCL 6
  4

  6

 40
0.0
 41
0.0
 42
0.0
 43
0.0
 44
0.0
 45
0.0
 46
0.0
 47
0.0
 48
0.0
 49
0.0
140
0.0
141
0.0
142
1.0
143
1.0
 70
   688
 72
     0
 73
     0
 74
     5
  7

 75
    16
147
1.0
 76
     0
 77
     2
 78
   300
148
0.0
149
0.0
100
AcDbLayout
  1
Layout1
 70
     0
 71
     1
 10
0.0
 20
0.0
 11
12.0
 21
9.0
 12
0.0
 22
0.0
 32
0.0
 14
1.000000000000000E+20
 24
1.000000000000000E+20
 34
1.000000000000000E+20
 15
-1.000000000000000E+20
 25
-1.000000000000000E+20
 35
-1.000000000000000E+20
146
0.0
 13
0.0
 23
0.0
 33
0.0
 16
1.0
 26
0.0
 36
0.0
 17
0.0
 27
1.0
 37
0.0
 76
     0
330
1A
  0
LAYOUT
  5
21
102
{ACAD_REACTORS
330
19
102
}
330
19
100
AcDbPlotSettings
  1

  2
none_device
  4
Letter_(8.50_x_11.00_Inches)
  6

 40
6.349999904632568
 41
6.349999904632568
 42
6.350006103515625
 43
6.350006103515625
 44
215.8999938964844
 45
279.3999938964844
 46
0.0
 47
0.0
 48
0.0
 49
0.0
140
0.0
141
0.0
142
1.0
143
1.0
 70
 11952
 72
     0
 73
     1
 74
     0
  7

 75
     0
147
1.0
 76
     0
 77
     2
 78
   300
148
5752.241998716224
149
227.7419472637029
100
AcDbLayout
  1
Model
 70
     1
 71
     0
 10
0.0
 20
0.0
 11
12.0
 21
9.0
 12
0.0
 22
0.0
 32
0.0
 14
0.0
 24
0.0
 34
0.0
 15
0.0
 25
0.0
 35
0.0
146
0.0
 13
0.0
 23
0.0
 33
0.0
 16
1.0
 26
0.0
 36
0.0
 17
0.0
 27
1.0
 37
0.0
 76
     0
330
1E
  0
MLINESTYLE
  5
17
102
{ACAD_REACTORS
330
16
102
}
330
16
100
AcDbMlineStyle
  2
STANDARD
 70
     0
  3

 62
   256
 51
90.0
 52
90.0
 71
     2
 49
0.5
 62
   256
  6
BYLAYER
 49
-0.5
 62
   256
  6
BYLAYER
  0
ACDBPLACEHOLDER
  5
F
102
{ACAD_REACTORS
330
E
102
}
330
E
  0
DICTIONARYVAR
  5
EB
102
{ACAD_REACTORS
330
EA
102
}
330
EA
100
DictionaryVariables
280
     0
  1
1
  0
DICTIONARYVAR
  5
EC
102
{ACAD_REACTORS
330
EA
102
}
330
EA
100
DictionaryVariables
280
     0
  1

  0
ENDSEC
  0
EOF
