  0
SECTION
  2
HEADER
  9
$ACADVER
  1
AC1018
  9
$ACADMAINTVER
 70
     2
  9
$DWGCODEPAGE
  3
ANSI_1252
  9
$INSBASE
 10
0.0
 20
0.0
 30
0.0
  9
$EXTMIN
 10
0.0
 20
-0.0000000000001137
 30
0.0
  9
$EXTMAX
 10
840.0000000000002
 20
594.0
 30
0.0
  9
$LIMMIN
 10
0.0
 20
0.0
  9
$LIMMAX
 10
840.0000000000002
 20
593.9999999999998
  9
$ORTHOMODE
 70
     1
  9
$REGENMODE
 70
     1
  9
$FILLMODE
 70
     1
  9
$QTEXTMODE
 70
     0
  9
$MIRRTEXT
 70
     1
  9
$LTSCALE
 40
20.0
  9
$ATTMODE
 70
     1
  9
$TEXTSIZE
 40
3.5
  9
$TRACEWID
 40
1.0
  9
$TEXTSTYLE
  7
STANDARD
  9
$CLAYER
  8
VOLL
  9
$CELTYPE
  6
ByLayer
  9
$CECOLOR
 62
   256
  9
$CELTSCALE
 40
1.0
  9
$DISPSILH
 70
     0
  9
$DIMSCALE
 40
2.0
  9
$DIMASZ
 40
3.5
  9
$DIMEXO
 40
1.0
  9
$DIMDLI
 40
7.0
  9
$DIMRND
 40
0.0
  9
$DIMDLE
 40
0.0
  9
$DIMEXE
 40
1.0
  9
$DIMTP
 40
0.0
  9
$DIMTM
 40
0.0
  9
$DIMTXT
 40
3.5
  9
$DIMCEN
 40
1.5
  9
$DIMTSZ
 40
0.0
  9
$DIMTOL
 70
     0
  9
$DIMLIM
 70
     0
  9
$DIMTIH
 70
     0
  9
$DIMTOH
 70
     0
  9
$DIMSE1
 70
     0
  9
$DIMSE2
 70
     0
  9
$DIMTAD
 70
     1
  9
$DIMZIN
 70
     8
  9
$DIMBLK
  1

  9
$DIMASO
 70
     1
  9
$DIMSHO
 70
     0
  9
$DIMPOST
  1

  9
$DIMAPOST
  1

  9
$DIMALT
 70
     0
  9
$DIMALTD
 70
     2
  9
$DIMALTF
 40
25.4
  9
$DIMLFAC
 40
1.0
  9
$DIMTOFL
 70
     1
  9
$DIMTVP
 40
0.0
  9
$DIMTIX
 70
     0
  9
$DIMSOXD
 70
     0
  9
$DIMSAH
 70
     0
  9
$DIMBLK1
  1

  9
$DIMBLK2
  1

  9
$DIMSTYLE
  2
Standard
  9
$DIMCLRD
 70
     0
  9
$DIMCLRE
 70
     0
  9
$DIMCLRT
 70
     1
  9
$DIMTFAC
 40
0.5142857142857144
  9
$DIMGAP
 40
1.5
  9
$DIMJUST
 70
     0
  9
$DIMSD1
 70
     0
  9
$DIMSD2
 70
     0
  9
$DIMTOLJ
 70
     1
  9
$DIMTZIN
 70
     8
  9
$DIMALTZ
 70
     8
  9
$DIMALTTZ
 70
     8
  9
$DIMUPT
 70
     0
  9
$DIMDEC
 70
     2
  9
$DIMTDEC
 70
     2
  9
$DIMALTU
 70
     2
  9
$DIMALTTD
 70
     2
  9
$DIMTXSTY
  7
STANDARD
  9
$DIMAUNIT
 70
     0
  9
$DIMADEC
 70
     2
  9
$DIMALTRND
 40
0.0
  9
$DIMAZIN
 70
     2
  9
$DIMDSEP
 70
    46
  9
$DIMATFIT
 70
     3
  9
$DIMFRAC
 70
     0
  9
$DIMLDRBLK
  1

  9
$DIMLUNIT
 70
     2
  9
$DIMLWD
 70
    -2
  9
$DIMLWE
 70
    -2
  9
$DIMTMOVE
 70
     0
  9
$LUNITS
 70
     2
  9
$LUPREC
 70
     2
  9
$SKETCHINC
 40
1.0
  9
$FILLETRAD
 40
0.0
  9
$AUNITS
 70
     0
  9
$AUPREC
 70
     0
  9
$MENU
  1
ACAD
  9
$ELEVATION
 40
0.0
  9
$PELEVATION
 40
0.0
  9
$THICKNESS
 40
0.0
  9
$LIMCHECK
 70
     0
  9
$CHAMFERA
 40
0.0
  9
$CHAMFERB
 40
0.0
  9
$CHAMFERC
 40
0.0
  9
$CHAMFERD
 40
0.0
  9
$SKPOLY
 70
     0
  9
$TDCREATE
 40
2455397.825393172
  9
$TDUCREATE
 40
2455397.783726505
  9
$TDUPDATE
 40
2455889.465554340
  9
$TDUUPDATE
 40
2455889.423887674
  9
$TDINDWG
 40
0.1019615972
  9
$TDUSRTIMER
 40
0.1019615972
  9
$USRTIMER
 70
     1
  9
$ANGBASE
 50
0.0
  9
$ANGDIR
 70
     0
  9
$PDMODE
 70
     0
  9
$PDSIZE
 40
0.0
  9
$PLINEWID
 40
0.0
  9
$SPLFRAME
 70
     0
  9
$SPLINETYPE
 70
     6
  9
$SPLINESEGS
 70
     8
  9
$HANDSEED
  5
13B8
  9
$SURFTAB1
 70
     6
  9
$SURFTAB2
 70
     6
  9
$SURFTYPE
 70
     6
  9
$SURFU
 70
     6
  9
$SURFV
 70
     6
  9
$UCSBASE
  2

  9
$UCSNAME
  2

  9
$UCSORG
 10
0.0
 20
0.0
 30
0.0
  9
$UCSXDIR
 10
1.0
 20
0.0
 30
0.0
  9
$UCSYDIR
 10
0.0
 20
1.0
 30
0.0
  9
$UCSORTHOREF
  2

  9
$UCSORTHOVIEW
 70
     0
  9
$UCSORGTOP
 10
0.0
 20
0.0
 30
0.0
  9
$UCSORGBOTTOM
 10
0.0
 20
0.0
 30
0.0
  9
$UCSORGLEFT
 10
0.0
 20
0.0
 30
0.0
  9
$UCSORGRIGHT
 10
0.0
 20
0.0
 30
0.0
  9
$UCSORGFRONT
 10
0.0
 20
0.0
 30
0.0
  9
$UCSORGBACK
 10
0.0
 20
0.0
 30
0.0
  9
$PUCSBASE
  2

  9
$PUCSNAME
  2

  9
$PUCSORG
 10
0.0
 20
0.0
 30
0.0
  9
$PUCSXDIR
 10
1.0
 20
0.0
 30
0.0
  9
$PUCSYDIR
 10
0.0
 20
1.0
 30
0.0
  9
$PUCSORTHOREF
  2

  9
$PUCSORTHOVIEW
 70
     0
  9
$PUCSORGTOP
 10
0.0
 20
0.0
 30
0.0
  9
$PUCSORGBOTTOM
 10
0.0
 20
0.0
 30
0.0
  9
$PUCSORGLEFT
 10
0.0
 20
0.0
 30
0.0
  9
$PUCSORGRIGHT
 10
0.0
 20
0.0
 30
0.0
  9
$PUCSORGFRONT
 10
0.0
 20
0.0
 30
0.0
  9
$PUCSORGBACK
 10
0.0
 20
0.0
 30
0.0
  9
$USERI1
 70
     0
  9
$USERI2
 70
     0
  9
$USERI3
 70
     0
  9
$USERI4
 70
     0
  9
$USERI5
 70
     0
  9
$USERR1
 40
0.0
  9
$USERR2
 40
0.0
  9
$USERR3
 40
0.0
  9
$USERR4
 40
0.0
  9
$USERR5
 40
0.0
  9
$WORLDVIEW
 70
     1
  9
$SHADEDGE
 70
     3
  9
$SHADEDIF
 70
    70
  9
$TILEMODE
 70
     1
  9
$MAXACTVP
 70
    16
  9
$PINSBASE
 10
0.0
 20
0.0
 30
0.0
  9
$PLIMCHECK
 70
     0
  9
$PEXTMIN
 10
1.000000000000000E+20
 20
1.000000000000000E+20
 30
1.000000000000000E+20
  9
$PEXTMAX
 10
-1.000000000000000E+20
 20
-1.000000000000000E+20
 30
-1.000000000000000E+20
  9
$PLIMMIN
 10
0.0
 20
0.0
  9
$PLIMMAX
 10
12.0
 20
9.0
  9
$UNITMODE
 70
     0
  9
$VISRETAIN
 70
     0
  9
$PLINEGEN
 70
     0
  9
$PSLTSCALE
 70
     0
  9
$TREEDEPTH
 70
  3020
  9
$CMLSTYLE
  2
Standard
  9
$CMLJUST
 70
     0
  9
$CMLSCALE
 40
1.0
  9
$PROXYGRAPHICS
 70
     1
  9
$MEASUREMENT
 70
     0
  9
$CELWEIGHT
370
    -1
  9
$ENDCAPS
280
     0
  9
$JOINSTYLE
280
     0
  9
$LWDISPLAY
290
     0
  9
$INSUNITS
 70
     0
  9
$HYPERLINKBASE
  1

  9
$STYLESHEET
  1
monochrome 1.ctb
  9
$XEDIT
290
     1
  9
$CEPSNTYPE
380
     0
  9
$PSTYLEMODE
290
     1
  9
$FINGERPRINTGUID
  2
{D68B0D0D-A558-11D7-B632-000102183313}
  9
$VERSIONGUID
  2
{25E24D37-FEBE-4161-869C-E741F275D500}
  9
$EXTNAMES
290
     1
  9
$PSVPSCALE
 40
0.0
  9
$OLESTARTUP
290
     0
  9
$SORTENTS
280
   127
  9
$INDEXCTL
280
     0
  9
$HIDETEXT
280
     0
  9
$XCLIPFRAME
290
     0
  9
$HALOGAP
280
     0
  9
$OBSCOLOR
 70
   257
  9
$OBSLTYPE
280
     0
  9
$INTERSECTIONDISPLAY
280
     0
  9
$INTERSECTIONCOLOR
 70
   257
  9
$DIMASSOC
280
     1
  9
$PROJECTNAME
  1

  0
ENDSEC
  0
SECTION
  2
CLASSES
  0
CLASS
  1
ACDBDICTIONARYWDFLT
  2
AcDbDictionaryWithDefault
  3
ObjectDBX Classes
 90
        0
 91
        1
280
     0
281
     0
  0
CLASS
  1
DICTIONARYVAR
  2
AcDbDictionaryVar
  3
ObjectDBX Classes
 90
        0
 91
        2
280
     0
281
     0
  0
ENDSEC
  0
SECTION
  2
TABLES
  0
TABLE
  2
VPORT
  5
8
330
0
100
AcDbSymbolTable
 70
     2
  0
VPORT
  5
13B7
330
8
100
AcDbSymbolTableRecord
100
AcDbViewportTableRecord
  2
*Active
 70
     0
 10
0.0
 20
0.0
 11
1.0
 21
1.0
 12
420.0
 22
296.9999999999999
 13
0.0
 23
0.0
 14
1.0
 24
1.0
 15
10.0
 25
10.0
 16
0.0
 26
0.0
 36
1.0
 17
0.0
 27
0.0
 37
0.0
 40
602.0782366736685
 41
1.395862068965517
 42
50.0
 43
0.0
 44
0.0
 50
0.0
 51
0.0
 71
     0
 72
  1500
 73
     1
 74
     0
 75
     0
 76
     0
 77
     0
 78
     0
281
     0
 65
     1
110
0.0
120
0.0
130
0.0
111
1.0
121
0.0
131
0.0
112
0.0
122
1.0
132
0.0
 79
     0
146
0.0
  0
ENDTAB
  0
TABLE
  2
LTYPE
  5
5
330
0
100
AcDbSymbolTable
 70
     2
  0
LTYPE
  5
13
330
5
100
AcDbSymbolTableRecord
100
AcDbLinetypeTableRecord
  2
ByBlock
 70
     0
  3

 72
    65
 73
     0
 40
0.0
  0
LTYPE
  5
14
330
5
100
AcDbSymbolTableRecord
100
AcDbLinetypeTableRecord
  2
ByLayer
 70
     0
  3

 72
    65
 73
     0
 40
0.0
  0
LTYPE
  5
15
330
5
100
AcDbSymbolTableRecord
100
AcDbLinetypeTableRecord
  2
Continuous
 70
     0
  3
Solid line
 72
    65
 73
     0
 40
0.0
  0
LTYPE
  5
25
330
5
100
AcDbSymbolTableRecord
100
AcDbLinetypeTableRecord
  2
STRICHPUNKT
 70
     0
  3
__ . __ . __ . __ . __ . __ . __ . __ . __ . __
 72
    65
 73
     4
 40
1.0
 49
0.5
 74
     0
 49
-0.25
 74
     0
 49
0.0
 74
     0
 49
-0.25
 74
     0
  0
ENDTAB
  0
TABLE
  2
LAYER
  5
2
330
0
100
AcDbSymbolTable
 70
     9
  0
LAYER
  5
10
330
2
100
AcDbSymbolTableRecord
100
AcDbLayerTableRecord
  2
0
 70
     0
 62
     7
  6
Continuous
370
    -3
390
F
  0
LAYER
  5
2B
330
2
100
AcDbSymbolTableRecord
100
AcDbLayerTableRecord
  2
VOLL
 70
     0
 62
     1
  6
Continuous
370
    -3
390
F
  0
LAYER
  5
2C
330
2
100
AcDbSymbolTableRecord
100
AcDbLayerTableRecord
  2
HILF
 70
     0
 62
     2
  6
Continuous
370
    -3
390
F
  0
LAYER
  5
2D
330
2
100
AcDbSymbolTableRecord
100
AcDbLayerTableRecord
  2
MITTEL
 70
     0
 62
     2
  6
STRICHPUNKT
370
    -3
390
F
  0
LAYER
  5
2F
330
2
100
AcDbSymbolTableRecord
100
AcDbLayerTableRecord
  2
BEM
 70
     0
 62
     7
  6
Continuous
370
    -3
390
F
  0
LAYER
  5
30
330
2
100
AcDbSymbolTableRecord
100
AcDbLayerTableRecord
  2
STEMPEL
 70
     0
 62
     3
  6
Continuous
370
    -3
390
F
  0
LAYER
  5
33
330
2
100
AcDbSymbolTableRecord
100
AcDbLayerTableRecord
  2
TEXT
 70
     0
 62
     7
  6
Continuous
370
    -3
390
F
  0
LAYER
  5
239
330
2
100
AcDbSymbolTableRecord
100
AcDbLayerTableRecord
  2
SCHRAFF
 70
     0
 62
     7
  6
Continuous
370
    -3
390
F
  0
LAYER
  5
23A
330
2
100
AcDbSymbolTableRecord
100
AcDbLayerTableRecord
  2
DEFPOINTS
 70
     0
 62
     7
  6
Continuous
290
     0
370
    -3
390
F
  0
ENDTAB
  0
TABLE
  2
STYLE
  5
3
330
0
100
AcDbSymbolTable
 70
     2
  0
STYLE
  5
11
330
3
100
AcDbSymbolTableRecord
100
AcDbTextStyleTableRecord
  2
STANDARD
 70
     0
 40
0.0
 41
0.8
 50
0.0
 71
     0
 42
3.5
  3
simplex.shx
  4

  0
STYLE
  5
24
330
3
100
AcDbSymbolTableRecord
100
AcDbTextStyleTableRecord
  2
GREEKS
 70
     0
 40
0.0
 41
0.8
 50
0.0
 71
     0
 42
2.5
  3
SIMPLEX.shx
  4

  0
ENDTAB
  0
TABLE
  2
VIEW
  5
6
330
0
100
AcDbSymbolTable
 70
     0
  0
ENDTAB
  0
TABLE
  2
UCS
  5
7
330
0
100
AcDbSymbolTable
 70
     0
  0
ENDTAB
  0
TABLE
  2
APPID
  5
9
330
0
100
AcDbSymbolTable
 70
     1
  0
APPID
  5
12
330
9
100
AcDbSymbolTableRecord
100
AcDbRegAppTableRecord
  2
ACAD
 70
     0
  0
ENDTAB
  0
TABLE
  2
DIMSTYLE
  5
A
330
0
100
AcDbSymbolTable
 70
     1
100
AcDbDimStyleTable
 71
     1
340
A2
  0
DIMSTYLE
105
A2
102
{ACAD_REACTORS
330
E2B
330
E29
330
104E
102
}
330
A
100
AcDbSymbolTableRecord
100
AcDbDimStyleTableRecord
  2
Standard
 70
     0
340
11
  0
ENDTAB
  0
TABLE
  2
BLOCK_RECORD
  5
1
330
0
100
AcDbSymbolTable
 70
     8
  0
BLOCK_RECORD
  5
1E
102
{ACAD_XDICTIONARY
360
DB
102
}
330
1
100
AcDbSymbolTableRecord
100
AcDbBlockTableRecord
  2
*Model_Space
340
21
  0
BLOCK_RECORD
  5
1A
102
{ACAD_XDICTIONARY
360
DD
102
}
330
1
100
AcDbSymbolTableRecord
100
AcDbBlockTableRecord
  2
*Paper_Space
340
1D
  0
BLOCK_RECORD
  5
22
330
1
100
AcDbSymbolTableRecord
100
AcDbBlockTableRecord
  2
LOGO
340
0
102
{BLKREFS
331
56
102
}
  0
BLOCK_RECORD
  5
23
330
1
100
AcDbSymbolTableRecord
100
AcDbBlockTableRecord
  2
LORO
340
0
102
{BLKREFS
331
9B
102
}
  0
BLOCK_RECORD
  5
FAD
330
1
100
AcDbSymbolTableRecord
100
AcDbBlockTableRecord
  2
*D2
340
0
  0
BLOCK_RECORD
  5
FC7
330
1
100
AcDbSymbolTableRecord
100
AcDbBlockTableRecord
  2
*D3
340
0
  0
BLOCK_RECORD
  5
104F
330
1
100
AcDbSymbolTableRecord
100
AcDbBlockTableRecord
  2
*D4
340
0
  0
BLOCK_RECORD
  5
1144
330
1
100
AcDbSymbolTableRecord
100
AcDbBlockTableRecord
  2
8DI931D
340
0
102
{BLKREFS
331
1196
331
11BD
102
}
  0
BLOCK_RECORD
  5
11CB
330
1
100
AcDbSymbolTableRecord
100
AcDbBlockTableRecord
  2
*X6
340
0
102
{BLKREFS
331
12BC
102
}
  0
BLOCK_RECORD
  5
11F1
330
1
100
AcDbSymbolTableRecord
100
AcDbBlockTableRecord
  2
*X7
340
0
102
{BLKREFS
331
12B4
102
}
  0
ENDTAB
  0
ENDSEC
  0
SECTION
  2
BLOCKS
  0
BLOCK
  5
37
330
1E
100
AcDbEntity
  8
0
100
AcDbBlockBegin
  2
*Model_Space
 70
     0
 10
0.0
 20
0.0
 30
0.0
  3
*Model_Space
  1

  0
ENDBLK
  5
38
330
1E
100
AcDbEntity
  8
0
100
AcDbBlockEnd
  0
BLOCK
  5
35
330
1A
100
AcDbEntity
 67
     1
  8
0
100
AcDbBlockBegin
  2
*Paper_Space
 70
     0
 10
0.0
 20
0.0
 30
0.0
  3
*Paper_Space
  1

  0
ENDBLK
  5
36
330
1A
100
AcDbEntity
 67
     1
  8
0
100
AcDbBlockEnd
  0
BLOCK
  5
39
330
22
100
AcDbEntity
  8
0
100
AcDbBlockBegin
  2
LOGO
 70
     0
 10
0.0
 20
0.0
 30
0.0
  3
LOGO
  1

  0
ARC
  5
3A
330
22
100
AcDbEntity
  8
0
100
AcDbCircle
 10
11.59973089678112
 20
-9.271599258481501
 30
0.0
 40
4.5
100
AcDbArc
 50
270.0
 51
231.0575587310159
  0
LINE
  5
3B
330
22
100
AcDbEntity
  8
0
100
AcDbLine
 10
3.599730896781125
 20
-4.771599258481529
 30
0.0
 11
3.599730896781153
 21
-11.77159925848133
 31
0.0
  0
LINE
  5
3C
330
22
100
AcDbEntity
  8
0
100
AcDbLine
 10
2.599730896781125
 20
-4.771599258481529
 30
0.0
 11
2.599730896781153
 21
-11.77159925848133
 31
0.0
  0
CIRCLE
  5
3D
330
22
100
AcDbEntity
  8
0
100
AcDbCircle
 10
11.59973089678112
 20
-9.271599258481501
 30
0.0
 40
3.5
  0
ARC
  5
3E
330
22
100
AcDbEntity
  8
0
100
AcDbCircle
 10
31.59973089678115
 20
-9.271599258481472
 30
0.0
 40
4.5
100
AcDbArc
 50
270.0
 51
231.0575587310182
  0
LINE
  5
3F
330
22
100
AcDbEntity
  8
0
100
AcDbLine
 10
17.59973089678112
 20
-4.771599258481472
 30
0.0
 11
17.59973089678115
 21
-13.77159925848147
 31
0.0
  0
ARC
  5
40
330
22
100
AcDbEntity
  8
0
100
AcDbCircle
 10
22.59973089678116
 20
-7.271599258481472
 30
0.0
 40
2.5
100
AcDbArc
 50
293.1161887722295
 51
90.0
  0
CIRCLE
  5
41
330
22
100
AcDbEntity
  8
0
100
AcDbCircle
 10
31.59973089678115
 20
-9.271599258481472
 30
0.0
 40
3.5
  0
ARC
  5
42
330
22
100
AcDbEntity
  8
0
100
AcDbCircle
 10
4.599730896781153
 20
-11.77159925848133
 30
0.0
 40
1.0
100
AcDbArc
 50
180.0
 51
270.0
  0
ARC
  5
43
330
22
100
AcDbEntity
  8
0
100
AcDbCircle
 10
4.599730896781153
 20
-11.77159925848133
 30
0.0
 40
2.0
100
AcDbArc
 50
179.9999999999992
 51
270.0
  0
LINE
  5
44
330
22
100
AcDbEntity
  8
0
100
AcDbLine
 10
11.59973089678115
 20
-13.77159925848144
 30
0.0
 11
4.599730896781153
 21
-13.77159925848147
 31
0.0
  0
LINE
  5
45
330
22
100
AcDbEntity
  8
0
100
AcDbLine
 10
8.771303772034769
 20
-12.77159925848136
 30
0.0
 11
4.599730896781153
 21
-12.77159925848133
 31
0.0
  0
LINE
  5
46
330
22
100
AcDbEntity
  8
0
100
AcDbLine
 10
31.59973089678115
 20
-13.77159925848147
 30
0.0
 11
23.6715276665056
 21
-13.77159925848144
 31
0.0
  0
LINE
  5
47
330
22
100
AcDbEntity
  8
0
100
AcDbLine
 10
23.56565672307022
 20
-9.51278021337896
 30
0.0
 11
24.4388546544846
 21
-12.77159925848144
 31
0.0
  0
LINE
  5
48
330
22
100
AcDbEntity
  8
0
100
AcDbLine
 10
22.59973089678116
 20
-9.771599258481472
 30
0.0
 11
18.59973089678112
 21
-9.771599258481472
 31
0.0
  0
LINE
  5
49
330
22
100
AcDbEntity
  8
0
100
AcDbLine
 10
18.59973089678115
 20
-13.77159925848144
 30
0.0
 11
17.59973089678115
 21
-13.77159925848144
 31
0.0
  0
LINE
  5
4A
330
22
100
AcDbEntity
  8
0
100
AcDbLine
 10
18.59973089678115
 20
-9.771599258481472
 30
0.0
 11
18.59973089678115
 21
-13.77159925848144
 31
0.0
  0
LINE
  5
4B
330
22
100
AcDbEntity
  8
0
100
AcDbLine
 10
22.59973089678116
 20
-9.771599258481472
 30
0.0
 11
23.67152766650562
 21
-13.77159925848147
 31
0.0
  0
ARC
  5
4C
330
22
100
AcDbEntity
  8
0
100
AcDbCircle
 10
22.59973089678116
 20
-7.271599258481472
 30
0.0
 40
2.5
100
AcDbArc
 50
270.0
 51
270.0000000000007
  0
LINE
  5
4D
330
22
100
AcDbEntity
  8
0
100
AcDbLine
 10
28.77130377203494
 20
-12.77159925848147
 30
0.0
 11
24.43885465448463
 21
-12.77159925848144
 31
0.0
  0
LINE
  5
4E
330
22
100
AcDbEntity
  8
0
100
AcDbLine
 10
3.599730896781125
 20
-4.771599258481472
 30
0.0
 11
2.599730896781125
 21
-4.771599258481472
 31
0.0
  0
LINE
  5
4F
330
22
100
AcDbEntity
  8
0
100
AcDbLine
 10
22.59973089678116
 20
-8.771599258481472
 30
0.0
 11
18.59973089678115
 21
-8.771599258481472
 31
0.0
  0
LINE
  5
50
330
22
100
AcDbEntity
  8
0
100
AcDbLine
 10
22.59973089678116
 20
-5.771599258481472
 30
0.0
 11
18.59973089678115
 21
-5.771599258481472
 31
0.0
  0
LINE
  5
51
330
22
100
AcDbEntity
  8
0
100
AcDbLine
 10
22.59973089678116
 20
-4.771599258481472
 30
0.0
 11
17.59973089678115
 21
-4.771599258481472
 31
0.0
  0
LINE
  5
52
330
22
100
AcDbEntity
  8
0
100
AcDbLine
 10
18.59973089678115
 20
-5.771599258481472
 30
0.0
 11
18.59973089678115
 21
-8.771599258481472
 31
0.0
  0
ARC
  5
53
330
22
100
AcDbEntity
  8
0
100
AcDbCircle
 10
22.59973089678116
 20
-7.271599258481472
 30
0.0
 40
1.5
100
AcDbArc
 50
270.0
 51
90.0
  0
ENDBLK
  5
54
330
22
100
AcDbEntity
  8
0
100
AcDbBlockEnd
  0
BLOCK
  5
55
330
23
100
AcDbEntity
  8
0
100
AcDbBlockBegin
  2
LORO
 70
     0
 10
0.0
 20
0.0
 30
0.0
  3
LORO
  1

  0
INSERT
  5
56
330
23
100
AcDbEntity
  8
STEMPEL
100
AcDbBlockReference
  2
LOGO
 10
-1.748032802467321
 20
3.771489518552062
 30
0.0
  0
ENDBLK
  5
57
330
23
100
AcDbEntity
  8
0
100
AcDbBlockEnd
  0
BLOCK
  5
FB8
330
FAD
100
AcDbEntity
  8
0
100
AcDbBlockBegin
  2
*D2
 70
     1
 10
0.0
 20
0.0
 30
0.0
  3
*D2
  1

  0
LINE
  5
13A2
330
FAD
100
AcDbEntity
  8
BEM
 62
     0
370
    -2
100
AcDbLine
 10
177.0947727928462
 20
278.3599008676409
 30
0.0
 11
177.0947727928462
 21
322.7909043325439
 31
0.0
  0
LINE
  5
13A3
330
FAD
100
AcDbEntity
  8
BEM
 62
     0
370
    -2
100
AcDbLine
 10
677.0947727928465
 20
284.1165206678768
 30
0.0
 11
677.0947727928465
 21
322.7909043325439
 31
0.0
  0
LINE
  5
13A4
330
FAD
100
AcDbEntity
  8
BEM
 62
     0
370
    -2
100
AcDbLine
 10
184.0947727928462
 20
320.7909043325439
 30
0.0
 11
670.0947727928466
 21
320.7909043325439
 31
0.0
  0
SOLID
  5
13A5
330
FAD
100
AcDbEntity
  8
BEM
 62
     0
100
AcDbTrace
 10
184.0947727928462
 20
321.9575709992105
 30
0.0
 11
184.0947727928462
 21
319.6242376658771
 31
0.0
 12
177.0947727928462
 22
320.7909043325439
 32
0.0
 13
177.0947727928462
 23
320.7909043325439
 33
0.0
  0
SOLID
  5
13A6
330
FAD
100
AcDbEntity
  8
BEM
 62
     0
100
AcDbTrace
 10
670.0947727928466
 20
321.9575709992105
 30
0.0
 11
670.0947727928466
 21
319.6242376658771
 31
0.0
 12
677.0947727928465
 22
320.7909043325439
 32
0.0
 13
677.0947727928465
 23
320.7909043325439
 33
0.0
  0
MTEXT
  5
13A7
330
FAD
100
AcDbEntity
  8
BEM
 62
     1
100
AcDbMText
 10
427.0947727928464
 20
327.2909043325439
 30
0.0
 40
7.0
 41
0.0
 71
     5
 72
     1
  1
\A1;500
 73
     1
 44
1.0
  0
POINT
  5
13A8
330
FAD
100
AcDbEntity
  8
DEFPOINTS
 62
     0
100
AcDbPoint
 10
177.0947727928462
 20
276.3599008676409
 30
0.0
  0
POINT
  5
13A9
330
FAD
100
AcDbEntity
  8
DEFPOINTS
 62
     0
100
AcDbPoint
 10
677.0947727928465
 20
282.1165206678768
 30
0.0
  0
POINT
  5
13AA
330
FAD
100
AcDbEntity
  8
DEFPOINTS
 62
     0
100
AcDbPoint
 10
677.0947727928465
 20
320.7909043325439
 30
0.0
  0
ENDBLK
  5
FB9
330
FAD
100
AcDbEntity
  8
0
100
AcDbBlockEnd
  0
BLOCK
  5
FD2
330
FC7
100
AcDbEntity
  8
0
100
AcDbBlockBegin
  2
*D3
 70
     1
 10
0.0
 20
0.0
 30
0.0
  3
*D3
  1

  0
LINE
  5
1399
330
FC7
100
AcDbEntity
  8
BEM
 62
     0
370
    -2
100
AcDbLine
 10
175.0947727928462
 20
349.7435947086847
 30
0.0
 11
165.0233526087023
 21
349.7435947086847
 31
0.0
  0
LINE
  5
139A
330
FC7
100
AcDbEntity
  8
BEM
 62
     0
370
    -2
100
AcDbLine
 10
175.0947727928462
 20
451.7435947086851
 30
0.0
 11
165.0233526087023
 21
451.7435947086851
 31
0.0
  0
LINE
  5
139B
330
FC7
100
AcDbEntity
  8
BEM
 62
     0
370
    -2
100
AcDbLine
 10
167.0233526087023
 20
356.7435947086847
 30
0.0
 11
167.0233526087023
 21
444.7435947086852
 31
0.0
  0
SOLID
  5
139C
330
FC7
100
AcDbEntity
  8
BEM
 62
     0
100
AcDbTrace
 10
165.8566859420356
 20
356.7435947086847
 30
0.0
 11
168.1900192753689
 21
356.7435947086847
 31
0.0
 12
167.0233526087023
 22
349.7435947086847
 32
0.0
 13
167.0233526087023
 23
349.7435947086847
 33
0.0
  0
SOLID
  5
139D
330
FC7
100
AcDbEntity
  8
BEM
 62
     0
100
AcDbTrace
 10
165.8566859420356
 20
444.7435947086852
 30
0.0
 11
168.1900192753689
 21
444.7435947086852
 31
0.0
 12
167.0233526087023
 22
451.7435947086851
 32
0.0
 13
167.0233526087023
 23
451.7435947086851
 33
0.0
  0
MTEXT
  5
139E
330
FC7
100
AcDbEntity
  8
BEM
 62
     1
100
AcDbMText
 10
160.5233526087022
 20
400.7435947086849
 30
0.0
 40
7.0
 41
0.0
 71
     5
 72
     1
  1
\A1;%%c102
 11
0.0000000000000001
 21
1.0
 31
0.0
 73
     1
 44
1.0
  0
POINT
  5
139F
330
FC7
100
AcDbEntity
  8
DEFPOINTS
 62
     0
100
AcDbPoint
 10
177.0947727928462
 20
349.7435947086847
 30
0.0
  0
POINT
  5
13A0
330
FC7
100
AcDbEntity
  8
DEFPOINTS
 62
     0
100
AcDbPoint
 10
177.0947727928462
 20
451.7435947086851
 30
0.0
  0
POINT
  5
13A1
330
FC7
100
AcDbEntity
  8
DEFPOINTS
 62
     0
100
AcDbPoint
 10
167.0233526087023
 20
451.7435947086851
 30
0.0
  0
ENDBLK
  5
FD3
330
FC7
100
AcDbEntity
  8
0
100
AcDbBlockEnd
  0
BLOCK
  5
1059
330
104F
100
AcDbEntity
  8
0
100
AcDbBlockBegin
  2
*D4
 70
     1
 10
0.0
 20
0.0
 30
0.0
  3
*D4
  1

  0
LINE
  5
1390
330
104F
100
AcDbEntity
  8
BEM
 62
     0
370
    -2
100
AcDbLine
 10
177.0947727928462
 20
278.3599008676409
 30
0.0
 11
177.0947727928462
 21
305.5558720231815
 31
0.0
  0
LINE
  5
1391
330
104F
100
AcDbEntity
  8
BEM
 62
     0
370
    -2
100
AcDbLine
 10
427.0947727928465
 20
282.4097648299517
 30
0.0
 11
427.0947727928465
 21
305.5558720231815
 31
0.0
  0
LINE
  5
1392
330
104F
100
AcDbEntity
  8
BEM
 62
     0
370
    -2
100
AcDbLine
 10
184.0947727928462
 20
303.5558720231815
 30
0.0
 11
420.0947727928466
 21
303.5558720231815
 31
0.0
  0
SOLID
  5
1393
330
104F
100
AcDbEntity
  8
BEM
 62
     0
100
AcDbTrace
 10
184.0947727928462
 20
304.7225386898482
 30
0.0
 11
184.0947727928462
 21
302.3892053565148
 31
0.0
 12
177.0947727928462
 22
303.5558720231815
 32
0.0
 13
177.0947727928462
 23
303.5558720231815
 33
0.0
  0
SOLID
  5
1394
330
104F
100
AcDbEntity
  8
BEM
 62
     0
100
AcDbTrace
 10
420.0947727928466
 20
304.7225386898482
 30
0.0
 11
420.0947727928466
 21
302.3892053565148
 31
0.0
 12
427.0947727928465
 22
303.5558720231815
 32
0.0
 13
427.0947727928465
 23
303.5558720231815
 33
0.0
  0
MTEXT
  5
1395
330
104F
100
AcDbEntity
  8
BEM
 62
     1
100
AcDbMText
 10
302.0947727928464
 20
310.0558720231815
 30
0.0
 40
7.0
 41
0.0
 71
     5
 72
     1
  1
\A1;250
 73
     1
 44
1.0
  0
POINT
  5
1396
330
104F
100
AcDbEntity
  8
DEFPOINTS
 62
     0
100
AcDbPoint
 10
177.0947727928462
 20
276.3599008676409
 30
0.0
  0
POINT
  5
1397
330
104F
100
AcDbEntity
  8
DEFPOINTS
 62
     0
100
AcDbPoint
 10
427.0947727928465
 20
280.4097648299517
 30
0.0
  0
POINT
  5
1398
330
104F
100
AcDbEntity
  8
DEFPOINTS
 62
     0
100
AcDbPoint
 10
427.0947727928465
 20
303.5558720231815
 30
0.0
  0
ENDBLK
  5
105A
330
104F
100
AcDbEntity
  8
0
100
AcDbBlockEnd
  0
BLOCK
  5
1145
330
1144
100
AcDbEntity
  8
0
100
AcDbBlockBegin
  2
8DI931D
 70
     0
 10
0.0
 20
0.0
 30
0.0
  3
8DI931D
  1

  0
LWPOLYLINE
  5
1146
330
1144
100
AcDbEntity
  8
STEMPEL
100
AcDbPolyline
 90
        6
 70
     1
 43
0.0
 10
-3.752776749732561
 20
6.5
 10
-7.505553499465122
 20
0.0
 10
-3.752776749732561
 20
-6.5
 10
3.752776749732561
 20
-6.5
 10
7.505553499465122
 20
0.0
 10
3.752776749732561
 20
6.5
  0
CIRCLE
  5
1147
330
1144
100
AcDbEntity
  8
STEMPEL
100
AcDbCircle
 10
0.0
 20
0.0
 30
0.0
 40
6.5
  0
ENDBLK
  5
1148
330
1144
100
AcDbEntity
  8
0
100
AcDbBlockEnd
  0
BLOCK
  5
11CC
330
11CB
100
AcDbEntity
  8
0
100
AcDbBlockBegin
  2
*X6
 70
     1
 10
0.0
 20
0.0
 30
0.0
  3
*X6
  1

  0
LINE
  5
11CD
330
11CB
100
AcDbEntity
  8
0
 62
     0
100
AcDbLine
 10
332.4100201311313
 20
512.7222493337009
 30
0.0
 11
333.1593029571798
 21
513.4715321597493
 31
0.0
  0
LINE
  5
11CE
330
11CB
100
AcDbEntity
  8
0
 62
     0
100
AcDbLine
 10
330.642253178165
 20
512.7222493337009
 30
0.0
 11
333.1593029571798
 21
515.2392991127157
 31
0.0
  0
LINE
  5
11CF
330
11CB
100
AcDbEntity
  8
0
 62
     0
100
AcDbLine
 10
328.8744862251986
 20
512.7222493337009
 30
0.0
 11
332.7629502492472
 21
516.6107133577495
 31
0.0
  0
LINE
  5
11D0
330
11CB
100
AcDbEntity
  8
0
 62
     0
100
AcDbLine
 10
327.1067192722322
 20
512.7222493337009
 30
0.0
 11
332.004621907878
 21
517.6201519693466
 31
0.0
  0
LINE
  5
11D1
330
11CB
100
AcDbEntity
  8
0
 62
     0
100
AcDbLine
 10
325.3389523192658
 20
512.7222493337009
 30
0.0
 11
330.3389523192659
 21
517.7222493337009
 31
0.0
  0
LINE
  5
11D2
330
11CB
100
AcDbEntity
  8
0
 62
     0
100
AcDbLine
 10
323.5711853662995
 20
512.7222493337009
 30
0.0
 11
328.5711853662995
 21
517.7222493337009
 31
0.0
  0
LINE
  5
11D3
330
11CB
100
AcDbEntity
  8
0
 62
     0
100
AcDbLine
 10
322.1593029571798
 20
513.0781338775475
 30
0.0
 11
326.8034184133331
 21
517.7222493337009
 31
0.0
  0
LINE
  5
11D4
330
11CB
100
AcDbEntity
  8
0
 62
     0
100
AcDbLine
 10
322.1593029571798
 20
514.8459008305139
 30
0.0
 11
325.0356514603667
 21
517.7222493337009
 31
0.0
  0
LINE
  5
11D5
330
11CB
100
AcDbEntity
  8
0
 62
     0
100
AcDbLine
 10
322.1593029571798
 20
516.6136677834803
 30
0.0
 11
323.2678845074004
 21
517.7222493337009
 31
0.0
  0
LINE
  5
11D6
330
11CB
100
AcDbEntity
  8
0
 62
     0
100
AcDbLine
 10
403.6531485949766
 20
516.7902335848242
 30
0.0
 11
404.5676055203802
 21
517.7046905102278
 31
0.0
  0
LINE
  5
11D7
330
11CB
100
AcDbEntity
  8
0
 62
     0
100
AcDbLine
 10
403.1593029571797
 20
514.5286209940609
 30
0.0
 11
406.3529312968197
 21
517.7222493337009
 31
0.0
  0
LINE
  5
11D8
330
11CB
100
AcDbEntity
  8
0
 62
     0
100
AcDbLine
 10
403.1593029571797
 20
512.7608540410945
 30
0.0
 11
408.120698249786
 21
517.7222493337009
 31
0.0
  0
LINE
  5
11D9
330
11CB
100
AcDbEntity
  8
0
 62
     0
100
AcDbLine
 10
404.8884652027523
 20
512.7222493337009
 30
0.0
 11
409.8884652027524
 21
517.7222493337009
 31
0.0
  0
LINE
  5
11DA
330
11CB
100
AcDbEntity
  8
0
 62
     0
100
AcDbLine
 10
406.6562321557188
 20
512.7222493337009
 30
0.0
 11
411.6562321557188
 21
517.7222493337009
 31
0.0
  0
LINE
  5
11DB
330
11CB
100
AcDbEntity
  8
0
 62
     0
100
AcDbLine
 10
408.4239991086851
 20
512.7222493337009
 30
0.0
 11
413.4239991086852
 21
517.7222493337009
 31
0.0
  0
LINE
  5
11DC
330
11CB
100
AcDbEntity
  8
0
 62
     0
100
AcDbLine
 10
410.1917660616515
 20
512.7222493337009
 30
0.0
 11
414.1593029571796
 21
516.689786229229
 31
0.0
  0
LINE
  5
11DD
330
11CB
100
AcDbEntity
  8
0
 62
     0
100
AcDbLine
 10
411.9595330146179
 20
512.7222493337009
 30
0.0
 11
414.1593029571797
 21
514.9220192762627
 31
0.0
  0
LINE
  5
11DE
330
11CB
100
AcDbEntity
  8
0
 62
     0
100
AcDbLine
 10
413.7272999675842
 20
512.7222493337009
 30
0.0
 11
414.1593029571797
 21
513.1542523232964
 31
0.0
  0
LINE
  5
11DF
330
11CB
100
AcDbEntity
  8
0
 62
     0
100
AcDbLine
 10
333.1593029571798
 20
515.3688344666772
 30
0.0
 11
330.8058880901561
 21
517.7222493337009
 31
0.0
  0
LINE
  5
11E0
330
11CB
100
AcDbEntity
  8
0
 62
     0
100
AcDbLine
 10
333.1593029571798
 20
513.6010675137108
 30
0.0
 11
329.0381211371897
 21
517.7222493337009
 31
0.0
  0
LINE
  5
11E1
330
11CB
100
AcDbEntity
  8
0
 62
     0
100
AcDbLine
 10
332.2703541842233
 20
512.7222493337009
 30
0.0
 11
327.2703541842234
 21
517.7222493337009
 31
0.0
  0
LINE
  5
11E2
330
11CB
100
AcDbEntity
  8
0
 62
     0
100
AcDbLine
 10
330.5025872312569
 20
512.7222493337009
 30
0.0
 11
325.502587231257
 21
517.7222493337009
 31
0.0
  0
LINE
  5
11E3
330
11CB
100
AcDbEntity
  8
0
 62
     0
100
AcDbLine
 10
328.7348202782906
 20
512.7222493337009
 30
0.0
 11
323.7348202782906
 21
517.7222493337009
 31
0.0
  0
LINE
  5
11E4
330
11CB
100
AcDbEntity
  8
0
 62
     0
100
AcDbLine
 10
326.9670533253242
 20
512.7222493337009
 30
0.0
 11
322.1593029571798
 21
517.5299997018453
 31
0.0
  0
LINE
  5
11E5
330
11CB
100
AcDbEntity
  8
0
 62
     0
100
AcDbLine
 10
325.1992863723578
 20
512.7222493337009
 30
0.0
 11
322.1593029571798
 21
515.7622327488789
 31
0.0
  0
LINE
  5
11E6
330
11CB
100
AcDbEntity
  8
0
 62
     0
100
AcDbLine
 10
323.4315194193915
 20
512.7222493337009
 30
0.0
 11
322.1593029571798
 21
513.9944657959126
 31
0.0
  0
LINE
  5
11E7
330
11CB
100
AcDbEntity
  8
0
 62
     0
100
AcDbLine
 10
404.7487992558443
 20
512.7222493337009
 30
0.0
 11
403.1593029571797
 21
514.3117456323655
 31
0.0
  0
LINE
  5
11E8
330
11CB
100
AcDbEntity
  8
0
 62
     0
100
AcDbLine
 10
406.5165662088108
 20
512.7222493337009
 30
0.0
 11
403.229209414673
 21
516.0096061278387
 31
0.0
  0
LINE
  5
11E9
330
11CB
100
AcDbEntity
  8
0
 62
     0
100
AcDbLine
 10
408.2843331617771
 20
512.7222493337009
 30
0.0
 11
403.851363183347
 21
517.1552193121311
 31
0.0
  0
LINE
  5
11EA
330
11CB
100
AcDbEntity
  8
0
 62
     0
100
AcDbLine
 10
410.0521001147434
 20
512.7222493337009
 30
0.0
 11
405.0521001147434
 21
517.7222493337009
 31
0.0
  0
LINE
  5
11EB
330
11CB
100
AcDbEntity
  8
0
 62
     0
100
AcDbLine
 10
411.8198670677099
 20
512.7222493337009
 30
0.0
 11
406.8198670677098
 21
517.7222493337009
 31
0.0
  0
LINE
  5
11EC
330
11CB
100
AcDbEntity
  8
0
 62
     0
100
AcDbLine
 10
413.5876340206762
 20
512.7222493337009
 30
0.0
 11
408.5876340206763
 21
517.7222493337009
 31
0.0
  0
LINE
  5
11ED
330
11CB
100
AcDbEntity
  8
0
 62
     0
100
AcDbLine
 10
414.1593029571797
 20
513.9183473501637
 30
0.0
 11
410.3554009736425
 21
517.7222493337009
 31
0.0
  0
LINE
  5
11EE
330
11CB
100
AcDbEntity
  8
0
 62
     0
100
AcDbLine
 10
414.1593029571796
 20
515.6861143031302
 30
0.0
 11
412.1231679266089
 21
517.7222493337009
 31
0.0
  0
LINE
  5
11EF
330
11CB
100
AcDbEntity
  8
0
 62
     0
100
AcDbLine
 10
414.1593029571796
 20
517.4538812560966
 30
0.0
 11
413.8909348795754
 21
517.7222493337009
 31
0.0
  0
ENDBLK
  5
11F0
330
11CB
100
AcDbEntity
  8
0
100
AcDbBlockEnd
  0
BLOCK
  5
11F2
330
11F1
100
AcDbEntity
  8
0
100
AcDbBlockBegin
  2
*X7
 70
     1
 10
0.0
 20
0.0
 30
0.0
  3
*X7
  1

  0
LINE
  5
11F3
330
11F1
100
AcDbEntity
  8
0
 62
     0
100
AcDbLine
 10
369.7470135871103
 20
512.7222493337009
 30
0.0
 11
368.1593029571798
 21
514.3099599636315
 31
0.0
  0
LINE
  5
11F4
330
11F1
100
AcDbEntity
  8
0
 62
     0
100
AcDbLine
 10
368.1593029571798
 20
514.3099599636315
 30
0.0
 11
367.3231918460686
 21
515.1460710747426
 31
0.0
  0
LINE
  5
11F5
330
11F1
100
AcDbEntity
  8
0
 62
     0
100
AcDbLine
 10
366.9185864623641
 20
512.7222493337009
 30
0.0
 11
364.9185864623639
 21
514.7222493337011
 31
0.0
  0
LINE
  5
11F6
330
11F1
100
AcDbEntity
  8
0
 62
     0
100
AcDbLine
 10
364.0901593376179
 20
512.7222493337009
 30
0.0
 11
362.0901593376178
 21
514.722249333701
 31
0.0
  0
LINE
  5
11F7
330
11F1
100
AcDbEntity
  8
0
 62
     0
100
AcDbLine
 10
361.2617322128717
 20
512.7222493337009
 30
0.0
 11
359.2617322128715
 21
514.722249333701
 31
0.0
  0
LINE
  5
11F8
330
11F1
100
AcDbEntity
  8
0
 62
     0
100
AcDbLine
 10
358.4333050881255
 20
512.7222493337009
 30
0.0
 11
356.4333050881254
 21
514.722249333701
 31
0.0
  0
LINE
  5
11F9
330
11F1
100
AcDbEntity
  8
0
 62
     0
100
AcDbLine
 10
355.6048779633794
 20
512.7222493337009
 30
0.0
 11
353.6048779633792
 21
514.722249333701
 31
0.0
  0
LINE
  5
11FA
330
11F1
100
AcDbEntity
  8
0
 62
     0
100
AcDbLine
 10
352.7764508386332
 20
512.7222493337009
 30
0.0
 11
350.776450838633
 21
514.722249333701
 31
0.0
  0
LINE
  5
11FB
330
11F1
100
AcDbEntity
  8
0
 62
     0
100
AcDbLine
 10
349.948023713887
 20
512.7222493337009
 30
0.0
 11
347.9480237138868
 21
514.722249333701
 31
0.0
  0
LINE
  5
11FC
330
11F1
100
AcDbEntity
  8
0
 62
     0
100
AcDbLine
 10
347.1195965891407
 20
512.7222493337009
 30
0.0
 11
345.1195965891407
 21
514.722249333701
 31
0.0
  0
LINE
  5
11FD
330
11F1
100
AcDbEntity
  8
0
 62
     0
100
AcDbLine
 10
344.2911694643945
 20
512.7222493337009
 30
0.0
 11
342.2911694643945
 21
514.722249333701
 31
0.0
  0
LINE
  5
11FE
330
11F1
100
AcDbEntity
  8
0
 62
     0
100
AcDbLine
 10
341.4627423396484
 20
512.7222493337009
 30
0.0
 11
339.4627423396483
 21
514.722249333701
 31
0.0
  0
LINE
  5
11FF
330
11F1
100
AcDbEntity
  8
0
 62
     0
100
AcDbLine
 10
338.6343152149022
 20
512.7222493337009
 30
0.0
 11
336.6339949151057
 21
514.7225696334974
 31
0.0
  0
LINE
  5
1200
330
11F1
100
AcDbEntity
  8
0
 62
     0
100
AcDbLine
 10
335.3870923697872
 20
515.9694721788159
 30
0.0
 11
331.635148910091
 21
519.7214156385121
 31
0.0
  0
LINE
  5
1201
330
11F1
100
AcDbEntity
  8
0
 62
     0
100
AcDbLine
 10
335.6201756415475
 20
512.9079617823094
 30
0.0
 11
333.767894062764
 21
514.760243361093
 31
0.0
  0
LINE
  5
1202
330
11F1
100
AcDbEntity
  8
0
 62
     0
100
AcDbLine
 10
330.805888090156
 20
517.7222493337009
 30
0.0
 11
328.8058880901561
 21
519.7222493337009
 31
0.0
  0
LINE
  5
1203
330
11F1
100
AcDbEntity
  8
0
 62
     0
100
AcDbLine
 10
327.9774609654098
 20
517.7222493337009
 30
0.0
 11
325.9774609654099
 21
519.7222493337009
 31
0.0
  0
LINE
  5
1204
330
11F1
100
AcDbEntity
  8
0
 62
     0
100
AcDbLine
 10
325.1490338406636
 20
517.7222493337009
 30
0.0
 11
323.1490338406637
 21
519.7222493337009
 31
0.0
  0
LINE
  5
1205
330
11F1
100
AcDbEntity
  8
0
 62
     0
100
AcDbLine
 10
322.3206067159174
 20
517.7222493337009
 30
0.0
 11
321.1593029571798
 21
518.8835530924385
 31
0.0
  0
LINE
  5
1206
330
11F1
100
AcDbEntity
  8
0
 62
     0
100
AcDbLine
 10
311.0068982169327
 20
517.7222493337009
 30
0.0
 11
309.312069893922
 21
519.4170776567117
 31
0.0
  0
LINE
  5
1207
330
11F1
100
AcDbEntity
  8
0
 62
     0
100
AcDbLine
 10
309.5153645844137
 20
516.3853558414738
 30
0.0
 11
307.9111787855274
 21
517.9895416403598
 31
0.0
  0
LINE
  5
1208
330
11F1
100
AcDbEntity
  8
0
 62
     0
100
AcDbLine
 10
308.9496791594644
 20
514.1226141416767
 30
0.0
 11
307.3004369092174
 21
515.7718563919239
 31
0.0
  0
LINE
  5
1209
330
11F1
100
AcDbEntity
  8
0
 62
     0
100
AcDbLine
 10
308.3839937345152
 20
511.8598724418798
 30
0.0
 11
306.7347514842682
 21
513.5091146921269
 31
0.0
  0
LINE
  5
120A
330
11F1
100
AcDbEntity
  8
0
 62
     0
100
AcDbLine
 10
306.2243903047737
 20
511.191048746875
 30
0.0
 11
306.1690660593189
 21
511.2463729923299
 31
0.0
  0
LINE
  5
120B
330
11F1
100
AcDbEntity
  8
0
 62
     0
100
AcDbLine
 10
372.5754407118565
 20
512.7222493337009
 30
0.0
 11
370.5754407118563
 21
514.7222493337011
 31
0.0
  0
LINE
  5
120C
330
11F1
100
AcDbEntity
  8
0
 62
     0
100
AcDbLine
 10
369.7193807177051
 20
515.5783093278524
 30
0.0
 11
369.6681407291089
 21
515.6295493164484
 31
0.0
  0
LINE
  5
120D
330
11F1
100
AcDbEntity
  8
0
 62
     0
100
AcDbLine
 10
375.4038678366027
 20
512.7222493337009
 30
0.0
 11
372.4038678366027
 21
515.7222493337009
 31
0.0
  0
LINE
  5
120E
330
11F1
100
AcDbEntity
  8
0
 62
     0
100
AcDbLine
 10
378.2322949613489
 20
512.7222493337009
 30
0.0
 11
376.2322949613487
 21
514.7222493337011
 31
0.0
  0
LINE
  5
120F
330
11F1
100
AcDbEntity
  8
0
 62
     0
100
AcDbLine
 10
381.060722086095
 20
512.7222493337009
 30
0.0
 11
379.0607220860949
 21
514.7222493337011
 31
0.0
  0
LINE
  5
1210
330
11F1
100
AcDbEntity
  8
0
 62
     0
100
AcDbLine
 10
383.8891492108412
 20
512.7222493337009
 30
0.0
 11
381.8891492108411
 21
514.7222493337011
 31
0.0
  0
LINE
  5
1211
330
11F1
100
AcDbEntity
  8
0
 62
     0
100
AcDbLine
 10
386.7175763355874
 20
512.7222493337009
 30
0.0
 11
384.7175763355872
 21
514.7222493337011
 31
0.0
  0
LINE
  5
1212
330
11F1
100
AcDbEntity
  8
0
 62
     0
100
AcDbLine
 10
389.5460034603336
 20
512.7222493337009
 30
0.0
 11
387.5460034603335
 21
514.7222493337011
 31
0.0
  0
LINE
  5
1213
330
11F1
100
AcDbEntity
  8
0
 62
     0
100
AcDbLine
 10
392.3744305850799
 20
512.7222493337009
 30
0.0
 11
390.3744305850797
 21
514.7222493337011
 31
0.0
  0
LINE
  5
1214
330
11F1
100
AcDbEntity
  8
0
 62
     0
100
AcDbLine
 10
395.202857709826
 20
512.7222493337009
 30
0.0
 11
393.2028577098258
 21
514.7222493337011
 31
0.0
  0
LINE
  5
1215
330
11F1
100
AcDbEntity
  8
0
 62
     0
100
AcDbLine
 10
398.0312848345722
 20
512.7222493337009
 30
0.0
 11
396.031284834572
 21
514.7222493337011
 31
0.0
  0
LINE
  5
1216
330
11F1
100
AcDbEntity
  8
0
 62
     0
100
AcDbLine
 10
400.6805405293116
 20
512.9014207637076
 30
0.0
 11
398.8597119593182
 21
514.7222493337011
 31
0.0
  0
LINE
  5
1217
330
11F1
100
AcDbEntity
  8
0
 62
     0
100
AcDbLine
 10
402.2317234637734
 20
514.1786649539921
 30
0.0
 11
400.7588511005311
 21
515.6515373172344
 31
0.0
  0
LINE
  5
1218
330
11F1
100
AcDbEntity
  8
0
 62
     0
100
AcDbLine
 10
403.229209414673
 20
516.0096061278387
 30
0.0
 11
401.7542971304093
 21
517.4845184121023
 31
0.0
  0
LINE
  5
1219
330
11F1
100
AcDbEntity
  8
0
 62
     0
100
AcDbLine
 10
404.4071416855423
 20
517.6601009817155
 30
0.0
 11
402.948934792604
 21
519.1183078746538
 31
0.0
  0
LINE
  5
121A
330
11F1
100
AcDbEntity
  8
0
 62
     0
100
AcDbLine
 10
407.1734204583032
 20
517.7222493337009
 30
0.0
 11
405.1734204583032
 21
519.7222493337009
 31
0.0
  0
LINE
  5
121B
330
11F1
100
AcDbEntity
  8
0
 62
     0
100
AcDbLine
 10
410.0018475830494
 20
517.7222493337009
 30
0.0
 11
408.0018475830494
 21
519.7222493337009
 31
0.0
  0
LINE
  5
121C
330
11F1
100
AcDbEntity
  8
0
 62
     0
100
AcDbLine
 10
412.8302747077955
 20
517.7222493337009
 30
0.0
 11
410.8302747077956
 21
519.7222493337009
 31
0.0
  0
LINE
  5
121D
330
11F1
100
AcDbEntity
  8
0
 62
     0
100
AcDbLine
 10
415.1593029571798
 20
518.2216482090629
 30
0.0
 11
413.6587018325418
 21
519.7222493337009
 31
0.0
  0
LINE
  5
121E
330
11F1
100
AcDbEntity
  8
0
 62
     0
100
AcDbLine
 10
428.2962484570051
 20
510.7415569587299
 30
0.0
 11
428.186838581841
 21
510.8509668338939
 31
0.0
  0
LINE
  5
121F
330
11F1
100
AcDbEntity
  8
0
 62
     0
100
AcDbLine
 10
429.992766624004
 20
511.8734659164772
 30
0.0
 11
427.2440295402588
 21
514.6222030002223
 31
0.0
  0
LINE
  5
1220
330
11F1
100
AcDbEntity
  8
0
 62
     0
100
AcDbLine
 10
429.0499575824219
 20
515.6447020828054
 30
0.0
 11
425.1593029571798
 21
519.5353567080476
 31
0.0
  0
ENDBLK
  5
1221
330
11F1
100
AcDbEntity
  8
0
100
AcDbBlockEnd
  0
ENDSEC
  0
SECTION
  2
ENTITIES
  0
LINE
  5
58
330
1E
100
AcDbEntity
  8
STEMPEL
100
AcDbLine
 10
830.0000000000004
 20
109.9999999999998
 30
0.0
 11
470.0000000000001
 21
109.9999999999999
 31
0.0
  0
LINE
  5
59
330
1E
100
AcDbEntity
  8
STEMPEL
100
AcDbLine
 10
470.0000000000001
 20
109.9999999999999
 30
0.0
 11
470.0000000000001
 21
9.999999999999886
 31
0.0
  0
LINE
  5
5A
330
1E
100
AcDbEntity
  8
STEMPEL
100
AcDbLine
 10
566.0000000000003
 20
109.9999999999997
 30
0.0
 11
566.0000000000001
 21
9.999999999999772
 31
0.0
  0
LINE
  5
5B
330
1E
100
AcDbEntity
  8
STEMPEL
100
AcDbLine
 10
650.0
 20
109.9999999999999
 30
0.0
 11
650.0
 21
9.999999999999886
 31
0.0
  0
LINE
  5
5C
330
1E
100
AcDbEntity
  8
STEMPEL
100
AcDbLine
 10
752.0000000000003
 20
109.9999999999995
 30
0.0
 11
752.0000000000003
 21
39.99999999999989
 31
0.0
  0
LINE
  5
5D
330
1E
100
AcDbEntity
  8
STEMPEL
100
AcDbLine
 10
566.0000000000001
 20
29.99999999999989
 30
0.0
 11
470.0000000000001
 21
29.99999999999989
 31
0.0
  0
LINE
  5
5E
330
1E
100
AcDbEntity
  8
STEMPEL
100
AcDbLine
 10
830.0000000000004
 20
39.99999999999989
 30
0.0
 11
566.0000000000001
 21
39.99999999999989
 31
0.0
  0
LINE
  5
5F
330
1E
100
AcDbEntity
  8
STEMPEL
100
AcDbLine
 10
830.0000000000004
 20
79.99999999999989
 30
0.0
 11
566.0000000000003
 21
79.99999999999989
 31
0.0
  0
LINE
  5
60
330
1E
100
AcDbEntity
  8
VOLL
100
AcDbLine
 10
484.0000000000002
 20
109.9999999999999
 30
0.0
 11
484.0000000000001
 21
9.999999999999886
 31
0.0
  0
LINE
  5
61
330
1E
100
AcDbEntity
  8
VOLL
100
AcDbLine
 10
524.0000000000001
 20
109.9999999999997
 30
0.0
 11
524.0
 21
9.999999999999772
 31
0.0
  0
LINE
  5
62
330
1E
100
AcDbEntity
  8
VOLL
100
AcDbLine
 10
544.0000000000002
 20
109.9999999999997
 30
0.0
 11
544.0
 21
9.999999999999772
 31
0.0
  0
LINE
  5
63
330
1E
100
AcDbEntity
  8
VOLL
100
AcDbLine
 10
584.0000000000003
 20
79.99999999999989
 30
0.0
 11
584.0000000000003
 21
39.99999999999989
 31
0.0
  0
LINE
  5
64
330
1E
100
AcDbEntity
  8
VOLL
100
AcDbLine
 10
610.0000000000003
 20
109.9999999999996
 30
0.0
 11
610.0000000000001
 21
39.99999999999989
 31
0.0
  0
LINE
  5
65
330
1E
100
AcDbEntity
  8
HILF
100
AcDbLine
 10
470.0000000000001
 20
99.99999999999989
 30
0.0
 11
566.0000000000003
 21
99.99999999999989
 31
0.0
  0
LINE
  5
66
330
1E
100
AcDbEntity
  8
HILF
100
AcDbLine
 10
470.0000000000001
 20
89.99999999999989
 30
0.0
 11
566.0000000000003
 21
89.99999999999989
 31
0.0
  0
LINE
  5
67
330
1E
100
AcDbEntity
  8
HILF
100
AcDbLine
 10
470.0000000000001
 20
79.99999999999989
 30
0.0
 11
566.0000000000003
 21
79.99999999999989
 31
0.0
  0
LINE
  5
68
330
1E
100
AcDbEntity
  8
HILF
100
AcDbLine
 10
470.0000000000001
 20
69.99999999999989
 30
0.0
 11
566.0000000000003
 21
69.99999999999989
 31
0.0
  0
LINE
  5
69
330
1E
100
AcDbEntity
  8
HILF
100
AcDbLine
 10
470.0000000000001
 20
59.99999999999989
 30
0.0
 11
566.0000000000003
 21
59.99999999999989
 31
0.0
  0
LINE
  5
6A
330
1E
100
AcDbEntity
  8
HILF
100
AcDbLine
 10
470.0000000000001
 20
49.99999999999989
 30
0.0
 11
566.0000000000003
 21
49.99999999999989
 31
0.0
  0
LINE
  5
6B
330
1E
100
AcDbEntity
  8
HILF
100
AcDbLine
 10
470.0000000000001
 20
39.99999999999989
 30
0.0
 11
566.0000000000003
 21
39.99999999999989
 31
0.0
  0
LINE
  5
6C
330
1E
100
AcDbEntity
  8
HILF
100
AcDbLine
 10
566.0000000000003
 20
69.99999999999989
 30
0.0
 11
650.0
 21
69.99999999999989
 31
0.0
  0
LINE
  5
6D
330
1E
100
AcDbEntity
  8
HILF
100
AcDbLine
 10
566.0000000000003
 20
59.99999999999989
 30
0.0
 11
650.0
 21
59.99999999999989
 31
0.0
  0
LINE
  5
6E
330
1E
100
AcDbEntity
  8
HILF
100
AcDbLine
 10
566.0000000000003
 20
49.99999999999989
 30
0.0
 11
650.0
 21
49.99999999999989
 31
0.0
  0
LINE
  5
6F
330
1E
100
AcDbEntity
  8
HILF
100
AcDbLine
 10
654.773680109695
 20
84.03758247564121
 30
0.0
 11
746.6297842514812
 21
84.03758247564121
 31
0.0
  0
LINE
  5
70
330
1E
100
AcDbEntity
  8
HILF
100
AcDbLine
 10
654.773680109695
 20
69.99999999999989
 30
0.0
 11
746.6297842514812
 21
69.99999999999989
 31
0.0
  0
LINE
  5
71
330
1E
100
AcDbEntity
  8
HILF
100
AcDbLine
 10
654.773680109695
 20
59.99999999999989
 30
0.0
 11
746.6297842514812
 21
59.99999999999989
 31
0.0
  0
LINE
  5
72
330
1E
100
AcDbEntity
  8
HILF
100
AcDbLine
 10
654.773680109695
 20
49.99999999999989
 30
0.0
 11
746.6297842514812
 21
49.99999999999989
 31
0.0
  0
LINE
  5
73
330
1E
100
AcDbEntity
  8
VOLL
100
AcDbLine
 10
752.0000000000003
 20
59.99999999999989
 30
0.0
 11
830.0000000000004
 21
59.99999999999989
 31
0.0
  0
LINE
  5
74
330
1E
100
AcDbEntity
  8
HILF
100
AcDbLine
 10
756.7238616296996
 20
83.77983636955809
 30
0.0
 11
824.8588839326732
 21
83.77983636955804
 31
0.0
  0
LINE
  5
75
330
1E
100
AcDbEntity
  8
HILF
100
AcDbLine
 10
654.773680109695
 20
14.89398258028291
 30
0.0
 11
824.8588839326732
 21
14.89398258028291
 31
0.0
  0
TEXT
  5
76
330
1E
100
AcDbEntity
  8
TEXT
100
AcDbText
 10
492.3998239263299
 20
18.67381894984115
 30
0.0
 40
4.0
  1
Änderung
 41
0.8
  7
GREEKS
 72
     1
 11
503.1426810691869
 21
18.67381894984115
 31
0.0
100
AcDbText
  0
TEXT
  5
78
330
1E
100
AcDbEntity
  8
TEXT
100
AcDbText
 10
573.5163572150376
 20
102.4620895087087
 30
0.0
 40
5.0
  1
Maßstab
 41
0.8
  7
GREEKS
100
AcDbText
  0
TEXT
  5
79
330
1E
100
AcDbEntity
  8
TEXT
100
AcDbText
 10
654.8779403809009
 20
102.5489328011778
 30
0.0
 40
5.0
  1
Benennung
 41
0.8
  7
GREEKS
100
AcDbText
  0
TEXT
  5
7A
330
1E
100
AcDbEntity
  8
TEXT
100
AcDbText
 10
756.1787549576343
 20
102.3132034537135
 30
0.0
 40
5.0
  1
Zeichnungs Nr.
 41
0.8
  7
GREEKS
100
AcDbText
  0
TEXT
  5
7B
330
1E
100
AcDbEntity
  8
TEXT
100
AcDbText
 10
654.7422383911359
 20
30.84560570193048
 30
0.0
 40
5.0
  1
Bauvorhaben
 41
0.8
  7
GREEKS
100
AcDbText
  0
TEXT
  5
7C
330
1E
100
AcDbEntity
  8
TEXT
100
AcDbText
 10
756.7238616296995
 20
73.18118237099949
 30
0.0
 40
5.0
  1
Ersatz für:
 41
0.8
  7
GREEKS
100
AcDbText
  0
TEXT
  5
7D
330
1E
100
AcDbEntity
  8
TEXT
100
AcDbText
 10
478.2664110704578
 20
13.6546584602718
 30
0.0
 40
4.0
  1
Index
 50
89.99999999999998
 41
0.8
  7
GREEKS
100
AcDbText
  0
TEXT
  5
7E
330
1E
100
AcDbEntity
  8
TEXT
100
AcDbText
 10
529.8990113186979
 20
18.67156269339799
 30
0.0
 40
4.0
  1
Tag
 41
0.8
  7
GREEKS
 72
     1
 11
533.6323446520313
 21
18.67156269339799
 31
0.0
100
AcDbText
  0
TEXT
  5
7F
330
1E
100
AcDbEntity
  8
TEXT
100
AcDbText
 10
548.9795678138292
 20
18.59324216966391
 30
0.0
 40
4.0
  1
Name
 41
0.8
  7
GREEKS
 72
     1
 11
555.3033773376387
 21
18.59324216966391
 31
0.0
100
AcDbText
  0
TEXT
  5
80
330
1E
100
AcDbEntity
  8
TEXT
100
AcDbText
 10
592.3311673153651
 20
73.31880501229909
 30
0.0
 40
4.0
  1
Tag
 41
0.8
  7
GREEKS
100
AcDbText
  0
TEXT
  5
81
330
1E
100
AcDbEntity
  8
TEXT
100
AcDbText
 10
622.4626584226296
 20
73.30961091915208
 30
0.0
 40
4.0
  1
Name
 41
0.8
  7
GREEKS
100
AcDbText
  0
TEXT
  5
82
330
1E
100
AcDbEntity
  8
TEXT
100
AcDbText
 10
567.5836127167615
 20
63.62990369617946
 30
0.0
 40
4.0
  1
Gez.
 41
0.8
  7
GREEKS
100
AcDbText
  0
TEXT
  5
83
330
1E
100
AcDbEntity
  8
TEXT
100
AcDbText
 10
567.5515086571672
 20
53.68926291428365
 30
0.0
 40
4.0
  1
Gepr.
 41
0.8
  7
GREEKS
100
AcDbText
  0
TEXT
  5
84
330
1E
100
AcDbEntity
  8
TEXT
100
AcDbText
 10
567.6006777387303
 20
43.52946389649789
 30
0.0
 40
4.0
  1
Norm.
 41
0.8
  7
GREEKS
100
AcDbText
  0
TEXT
  5
85
330
1E
100
AcDbEntity
  8
TEXT
100
AcDbText
 10
757.2400861497007
 20
52.07416177878585
 30
0.0
 40
5.0
  1
ersetzt durch:
 41
0.8
  7
GREEKS
100
AcDbText
  0
TEXT
  5
86
330
1E
100
AcDbEntity
  8
TEXT
100
AcDbText
 10
568.8693027807324
 20
72.96682596523718
 30
0.0
 40
4.0
  1
2011
 41
0.8
  7
GREEKS
100
AcDbText
  0
LINE
  5
87
330
1E
100
AcDbEntity
  8
HILF
100
AcDbLine
 10
0.0
 20
0.0
 30
0.0
 11
840.0000000000002
 21
-0.0000000000001137
 31
0.0
  0
LINE
  5
88
330
1E
100
AcDbEntity
  8
HILF
100
AcDbLine
 10
840.0000000000002
 20
-0.0000000000001137
 30
0.0
 11
840.0000000000002
 21
593.9999999999998
 31
0.0
  0
LINE
  5
89
330
1E
100
AcDbEntity
  8
HILF
100
AcDbLine
 10
840.0000000000002
 20
593.9999999999998
 30
0.0
 11
0.0000000000001705
 21
594.0
 31
0.0
  0
LINE
  5
8B
330
1E
100
AcDbEntity
  8
STEMPEL
100
AcDbLine
 10
830.0
 20
583.9999999999998
 30
0.0
 11
40.00000000000011
 21
584.0
 31
0.0
  0
LINE
  5
8D
330
1E
100
AcDbEntity
  8
STEMPEL
100
AcDbLine
 10
40.0
 20
10.0
 30
0.0
 11
830.0
 21
9.999999999999886
 31
0.0
  0
LINE
  5
8E
330
1E
100
AcDbEntity
  8
STEMPEL
100
AcDbLine
 10
830.0
 20
9.999999999999886
 30
0.0
 11
830.0
 21
583.9999999999998
 31
0.0
  0
TEXT
  5
8F
330
1E
100
AcDbEntity
  8
TEXT
 62
     1
100
AcDbText
 10
655.0390572473189
 20
87.3734307565253
 30
0.0
 40
7.0
  1
Regenstandrohr DN100
 41
0.75
  7
GREEKS
100
AcDbText
  0
TEXT
  5
90
330
1E
100
AcDbEntity
  8
TEXT
 62
     1
100
AcDbText
 10
767.4628088850803
 20
87.37343075652526
 30
0.0
 40
7.0
  1
05503100N
 41
0.8
  7
GREEKS
 72
     1
 11
790.1294755517469
 21
87.37343075652526
 31
0.0
100
AcDbText
  0
TEXT
  5
91
330
1E
100
AcDbEntity
  8
TEXT
100
AcDbText
 10
618.5090226415829
 20
102.8398961137899
 30
0.0
 40
5.0
  1
Zul.Abw.
 41
0.8
  7
GREEKS
100
AcDbText
  0
TEXT
  5
93
330
1E
100
AcDbEntity
  8
TEXT
100
AcDbText
 10
590.7660475607107
 20
63.15085876120213
 30
0.0
 40
4.0
  1
23.11.
 41
0.8
  7
GREEKS
 72
     1
 11
597.1660475607107
 21
63.15085876120213
 31
0.0
100
AcDbText
  0
TEXT
  5
94
330
1E
100
AcDbEntity
  8
TEXT
100
AcDbText
 10
624.0231753226609
 20
62.94297655165462
 30
0.0
 40
4.0
  1
Koeh
 41
0.8
  7
GREEKS
 72
     1
 11
629.2803181798038
 21
62.94297655165462
 31
0.0
100
AcDbText
  0
TEXT
  5
95
330
1E
100
AcDbEntity
  8
TEXT
100
AcDbText
 10
654.3410940884991
 20
72.10021383107516
 30
0.0
 40
5.0
  1
mit runder Reinigungsöffnung
 41
0.8
  7
GREEKS
100
AcDbText
  0
TEXT
  5
97
330
1E
100
AcDbEntity
  8
TEXT
100
AcDbText
 10
654.3410940884991
 20
52.59097337846049
 30
0.0
 40
5.0
  1
EDV-Art.Nr. 05503.100N
 41
0.8
  7
GREEKS
100
AcDbText
  0
TEXT
  5
98
330
1E
100
AcDbEntity
  8
TEXT
100
AcDbText
 10
654.1676050109347
 20
43.31127624791498
 30
0.0
 40
4.0
  1
05503100N.DWG
 41
0.8
  7
GREEKS
100
AcDbText
  0
TEXT
  5
99
330
1E
100
AcDbEntity
  8
TEXT
 62
     1
100
AcDbText
 10
582.703491203422
 20
87.47077088414959
 30
0.0
 40
7.0
  1
1:2
 41
0.8
  7
GREEKS
100
AcDbText
  0
TEXT
  5
9A
330
1E
100
AcDbEntity
  8
TEXT
100
AcDbText
 10
470.0441139350129
 20
114.1143585051042
 30
0.0
 40
5.0
  1
Erstellt mit AUTOCAD 2004
 41
0.8
  7
GREEKS
100
AcDbText
  0
INSERT
  5
9B
330
1E
100
AcDbEntity
  8
HILF
100
AcDbBlockReference
  2
LORO
 10
573.0624985962354
 20
36.98059300298954
 30
0.0
 41
2.0
 42
2.0
 43
2.0
  0
LINE
  5
9C
330
1E
100
AcDbEntity
  8
BEM
100
AcDbLine
 10
456.0
 20
-0.0000000000001137
 30
0.0
 11
456.0
 21
9.999999999999886
 31
0.0
  0
LINE
  5
13E
330
1E
100
AcDbEntity
  8
HILF
100
AcDbLine
 10
0.0
 20
0.0
 30
0.0
 11
0.0000000000001705
 21
594.0
 31
0.0
  0
LINE
  5
13F
330
1E
100
AcDbEntity
  8
STEMPEL
100
AcDbLine
 10
40.0
 20
10.0
 30
0.0
 11
40.00000000000011
 21
584.0
 31
0.0
  0
LINE
  5
14A
330
1E
100
AcDbEntity
  8
HILF
100
AcDbLine
 10
0.0000000000000568
 20
297.0
 30
0.0
 11
40.00000000000006
 21
297.0
 31
0.0
  0
TEXT
  5
15B
330
1E
100
AcDbEntity
  8
BEM
100
AcDbText
 10
837.3022923857165
 20
10.16790107998847
 30
0.0
 40
4.0
  1
Diese Zeichnung ist urheberrechtlich geschützt und bleibt unser Eigentum. Sie darf weder ganz noch teilweise verfielfältigt und nicht an Dritte weitergegeben werden.
 50
89.99999999999998
 41
0.8
  7
GREEKS
100
AcDbText
  0
TEXT
  5
ACA
330
1E
100
AcDbEntity
  8
TEXT
100
AcDbText
 10
612.2898419893275
 20
89.26643524492067
 30
0.0
 40
4.0
  1
DIN EN1123-2
 41
0.8
  7
GREEKS
 72
     1
 11
629.2803181798038
 21
89.26643524492067
 31
0.0
100
AcDbText
  0
TEXT
  5
AE3
330
1E
100
AcDbEntity
  8
TEXT
 62
     1
100
AcDbText
 10
664.6057658946469
 20
129.0783465745481
 30
0.0
 40
7.0
  1

 41
0.8
  7
GREEKS
100
AcDbText
  0
DIMENSION
  5
E29
330
1E
100
AcDbEntity
  8
BEM
100
AcDbDimension
  2
*D2
 10
677.0947727928465
 20
320.7909043325439
 30
0.0
 11
427.0947727928464
 21
327.2909043325439
 31
0.0
 70
    32
 71
     5
 42
500.0000000000003
  3
Standard
100
AcDbAlignedDimension
 13
177.0947727928462
 23
276.3599008676409
 33
0.0
 14
677.0947727928465
 24
282.1165206678768
 34
0.0
100
AcDbRotatedDimension
1001
ACAD
1000
DSTYLE
1002
{
1070
    40
1040
2.0
1070
    41
1040
3.5
1070
    42
1040
1.0
1070
    43
1040
7.0
1070
    44
1040
1.0
1070
    73
1070
     0
1070
    74
1070
     0
1070
    77
1070
     1
1070
    78
1070
     8
1070
    79
1070
     2
1070
   140
1040
3.5
1070
   141
1040
1.5
1070
   146
1040
0.5142857142857144
1070
   147
1040
1.5
1070
   172
1070
     1
1070
   178
1070
     1
1070
   179
1070
     2
1070
   271
1070
     2
1070
   272
1070
     2
1070
   284
1070
     8
1070
   285
1070
     8
1070
   286
1070
     8
1002
}
  0
DIMENSION
  5
E2B
330
1E
100
AcDbEntity
  8
BEM
100
AcDbDimension
  2
*D3
 10
167.0233526087023
 20
451.7435947086851
 30
0.0
 11
160.5233526087022
 21
400.7435947086849
 31
0.0
 70
    32
  1
%%c<>
 71
     5
 42
102.0000000000004
  3
Standard
100
AcDbAlignedDimension
 13
177.0947727928462
 23
349.7435947086847
 33
0.0
 14
177.0947727928462
 24
451.7435947086851
 34
0.0
 50
90.0
100
AcDbRotatedDimension
1001
ACAD
1000
DSTYLE
1002
{
1070
    40
1040
2.0
1070
    41
1040
3.5
1070
    42
1040
1.0
1070
    43
1040
7.0
1070
    44
1040
1.0
1070
    73
1070
     0
1070
    74
1070
     0
1070
    77
1070
     1
1070
    78
1070
     8
1070
    79
1070
     2
1070
   140
1040
3.5
1070
   141
1040
1.5
1070
   146
1040
0.5142857142857144
1070
   147
1040
1.5
1070
   172
1070
     1
1070
   178
1070
     1
1070
   179
1070
     2
1070
   271
1070
     2
1070
   272
1070
     2
1070
   284
1070
     8
1070
   285
1070
     8
1070
   286
1070
     8
1002
}
  0
LINE
  5
E2D
330
1E
100
AcDbEntity
  8
STEMPEL
  6
Continuous
100
AcDbLine
 10
521.0607802729783
 20
451.7435947086851
 30
0.0
 11
474.6947727928466
 21
451.7435947086851
 31
0.0
  0
LINE
  5
E66
330
1E
100
AcDbEntity
  8
STEMPEL
100
AcDbLine
 10
677.0947727928465
 20
456.4503505466096
 30
0.0
 11
675.0554778737929
 21
457.401289384601
 31
0.0
  0
ARC
  5
E67
330
1E
100
AcDbEntity
  8
STEMPEL
100
AcDbCircle
 10
664.4900213302754
 20
434.7435947086849
 30
0.0
 40
25.0
100
AcDbArc
 50
65.00000000000065
 51
90.0
  0
ARC
  5
E68
330
1E
100
AcDbEntity
  8
STEMPEL
  6
Continuous
100
AcDbCircle
 10
629.5947727928465
 20
467.7435947086848
 30
0.0
 40
12.0
100
AcDbArc
 50
270.0
 51
296.8877706590191
  0
ARC
  5
E69
330
1E
100
AcDbEntity
  8
STEMPEL
  6
Continuous
100
AcDbCircle
 10
646.3277727928463
 20
434.7435947086849
 30
0.0
 40
24.99990931069965
100
AcDbArc
 50
90.0
 51
116.8877706590191
  0
ARC
  5
E6A
330
1E
100
AcDbEntity
  8
STEMPEL
  6
Continuous
100
AcDbCircle
 10
534.0222616697944
 20
440.743594708685
 30
0.0
 40
15.0
100
AcDbArc
 50
90.0
 51
124.3011527567897
  0
LINE
  5
E6B
330
1E
100
AcDbEntity
  8
STEMPEL
  6
Continuous
100
AcDbLine
 10
629.5947727928465
 20
455.7435947086847
 30
0.0
 11
534.0222616697944
 21
455.7435947086847
 31
0.0
  0
LINE
  5
E6C
330
1E
100
AcDbEntity
  8
STEMPEL
  6
Continuous
100
AcDbLine
 10
664.4900213302754
 20
459.7435947086847
 30
0.0
 11
646.3277727928463
 21
459.7435947086847
 31
0.0
  0
ARC
  5
E6E
330
1E
100
AcDbEntity
  8
STEMPEL
  6
Continuous
100
AcDbCircle
 10
521.0607802729783
 20
459.7435947086847
 30
0.0
 40
8.0
100
AcDbArc
 50
270.0
 51
304.3011527567897
  0
POINT
  5
E6F
330
1E
100
AcDbEntity
  8
DEFPOINTS
  6
ByBlock
 62
     0
100
AcDbPoint
 10
677.0947727928465
 20
345.0368388707596
 30
0.0
  0
LINE
  5
E70
330
1E
100
AcDbEntity
  8
STEMPEL
100
AcDbLine
 10
677.0947727928465
 20
345.0368388707596
 30
0.0
 11
675.0554778737929
 21
344.0859000327683
 31
0.0
  0
ARC
  5
E71
330
1E
100
AcDbEntity
  8
STEMPEL
100
AcDbCircle
 10
664.4900213302754
 20
366.743594708685
 30
0.0
 40
25.0
100
AcDbArc
 50
270.0
 51
294.9999999999921
  0
LINE
  5
E72
330
1E
100
AcDbEntity
  8
STEMPEL
100
AcDbLine
 10
677.0947727928465
 20
282.1165206678765
 30
0.0
 11
675.0554778737929
 21
283.067459505868
 31
0.0
  0
ARC
  5
E73
330
1E
100
AcDbEntity
  8
STEMPEL
100
AcDbCircle
 10
664.4900213302754
 20
260.4097648299518
 30
0.0
 40
25.0
100
AcDbArc
 50
65.00000000000065
 51
90.0
  0
ARC
  5
E74
330
1E
100
AcDbEntity
  8
STEMPEL
  6
Continuous
100
AcDbCircle
 10
629.5947727928465
 20
333.7435947086848
 30
0.0
 40
12.0
100
AcDbArc
 50
63.11222934098088
 51
90.0
  0
ARC
  5
E75
330
1E
100
AcDbEntity
  8
STEMPEL
  6
Continuous
100
AcDbCircle
 10
646.3277727928463
 20
366.743594708685
 30
0.0
 40
24.99990931069965
100
AcDbArc
 50
243.1122293409809
 51
270.0
  0
POINT
  5
E76
330
1E
100
AcDbEntity
  8
DEFPOINTS
  6
ByBlock
 62
     0
100
AcDbPoint
 10
527.0947727928465
 20
347.4390880338859
 30
0.0
  0
ARC
  5
E77
330
1E
100
AcDbEntity
  8
STEMPEL
  6
Continuous
100
AcDbCircle
 10
534.0222616697944
 20
360.743594708685
 30
0.0
 40
15.0
100
AcDbArc
 50
235.6988472432103
 51
270.0
  0
LINE
  5
E78
330
1E
100
AcDbEntity
  8
STEMPEL
  6
Continuous
100
AcDbLine
 10
629.5947727928465
 20
345.7435947086848
 30
0.0
 11
534.0222616697944
 21
345.7435947086848
 31
0.0
  0
ARC
  5
E79
330
1E
100
AcDbEntity
  8
STEMPEL
  6
Continuous
100
AcDbCircle
 10
629.5947727928465
 20
293.4097648299515
 30
0.0
 40
12.0
100
AcDbArc
 50
270.0
 51
296.8877706590191
  0
ARC
  5
E7A
330
1E
100
AcDbEntity
  8
STEMPEL
  6
Continuous
100
AcDbCircle
 10
646.3277727928463
 20
260.4097648299518
 30
0.0
 40
24.99990931069965
100
AcDbArc
 50
90.0
 51
116.8877706590191
  0
ARC
  5
E7B
330
1E
100
AcDbEntity
  8
STEMPEL
  6
Continuous
100
AcDbCircle
 10
534.0222616697944
 20
266.4097648299518
 30
0.0
 40
15.0
100
AcDbArc
 50
90.0
 51
124.3011527567897
  0
LINE
  5
E7C
330
1E
100
AcDbEntity
  8
STEMPEL
  6
Continuous
100
AcDbLine
 10
629.5947727928465
 20
281.4097648299515
 30
0.0
 11
534.0222616697944
 21
281.4097648299515
 31
0.0
  0
LINE
  5
E7D
330
1E
100
AcDbEntity
  8
STEMPEL
  6
Continuous
100
AcDbLine
 10
664.4900213302754
 20
341.7435947086848
 30
0.0
 11
646.3277727928463
 21
341.7435947086848
 31
0.0
  0
LINE
  5
E7E
330
1E
100
AcDbEntity
  8
STEMPEL
  6
Continuous
100
AcDbLine
 10
664.4900213302754
 20
285.4097648299515
 30
0.0
 11
646.3277727928463
 21
285.4097648299515
 31
0.0
  0
LINE
  5
E7F
330
1E
100
AcDbEntity
  8
STEMPEL
100
AcDbLine
 10
677.0947727928465
 20
170.7030089920266
 30
0.0
 11
675.0554778737929
 21
169.752070154035
 31
0.0
  0
POINT
  5
E80
330
1E
100
AcDbEntity
  8
DEFPOINTS
  6
ByBlock
 62
     0
100
AcDbPoint
 10
677.0947727928465
 20
170.7030089920266
 30
0.0
  0
ARC
  5
E81
330
1E
100
AcDbEntity
  8
STEMPEL
100
AcDbCircle
 10
664.4900213302754
 20
192.4097648299517
 30
0.0
 40
25.0
100
AcDbArc
 50
270.0
 51
294.9999999999921
  0
ARC
  5
E82
330
1E
100
AcDbEntity
  8
STEMPEL
  6
Continuous
100
AcDbCircle
 10
629.5947727928465
 20
159.4097648299515
 30
0.0
 40
12.0
100
AcDbArc
 50
63.11222934098088
 51
90.0
  0
ARC
  5
E83
330
1E
100
AcDbEntity
  8
STEMPEL
  6
Continuous
100
AcDbCircle
 10
646.3277727928463
 20
192.4097648299517
 30
0.0
 40
24.99990931069965
100
AcDbArc
 50
243.1122293409809
 51
270.0
  0
POINT
  5
E84
330
1E
100
AcDbEntity
  8
DEFPOINTS
  6
ByBlock
 62
     0
100
AcDbPoint
 10
527.0947727928465
 20
173.1052581551528
 30
0.0
  0
ARC
  5
E85
330
1E
100
AcDbEntity
  8
STEMPEL
  6
Continuous
100
AcDbCircle
 10
534.0222616697944
 20
186.4097648299517
 30
0.0
 40
15.0
100
AcDbArc
 50
235.6988472432103
 51
270.0
  0
LINE
  5
E86
330
1E
100
AcDbEntity
  8
STEMPEL
  6
Continuous
100
AcDbLine
 10
629.5947727928465
 20
171.4097648299515
 30
0.0
 11
534.0222616697944
 21
171.4097648299515
 31
0.0
  0
LINE
  5
E87
330
1E
100
AcDbEntity
  8
STEMPEL
  6
Continuous
100
AcDbLine
 10
664.4900213302754
 20
167.4097648299515
 30
0.0
 11
646.3277727928463
 21
167.4097648299515
 31
0.0
  0
LINE
  5
E88
330
1E
100
AcDbEntity
  8
HILF
100
AcDbLine
 10
532.289688771105
 20
279.6384709332332
 30
0.0
 11
532.289688771105
 21
173.1810587266698
 31
0.0
  0
LINE
  5
E89
330
1E
100
AcDbEntity
  8
HILF
100
AcDbLine
 10
632.9704521716409
 20
279.6384709332332
 30
0.0
 11
632.9704521716409
 21
173.1810587266698
 31
0.0
  0
LINE
  5
E8A
330
1E
100
AcDbEntity
  8
STEMPEL
  6
Continuous
100
AcDbLine
 10
677.0947727928465
 20
170.7030089920266
 30
0.0
 11
677.0947727928465
 21
282.1165206678765
 31
0.0
  0
LINE
  5
E8C
330
1E
100
AcDbEntity
  8
STEMPEL
100
AcDbLine
 10
521.0607802729783
 20
277.4097648299516
 30
0.0
 11
177.0947727928462
 21
277.4097648299515
 31
0.0
  0
LINE
  5
E8D
330
1E
100
AcDbEntity
  8
STEMPEL
  6
Continuous
100
AcDbLine
 10
521.0607802729783
 20
175.4097648299515
 30
0.0
 11
177.0947727928462
 21
175.4097648299515
 31
0.0
  0
LINE
  5
E8E
330
1E
100
AcDbEntity
  8
HILF
100
AcDbLine
 10
522.777524591672
 20
275.6759944618631
 30
0.0
 11
522.777524591672
 21
177.1435351980402
 31
0.0
  0
ARC
  5
E8F
330
1E
100
AcDbEntity
  8
STEMPEL
  6
Continuous
100
AcDbCircle
 10
521.0607802729783
 20
167.4097648299515
 30
0.0
 40
8.0
100
AcDbArc
 50
55.69884724321028
 51
90.0
  0
ARC
  5
E90
330
1E
100
AcDbEntity
  8
STEMPEL
  6
Continuous
100
AcDbCircle
 10
521.0607802729783
 20
341.7435947086848
 30
0.0
 40
8.0
100
AcDbArc
 50
55.69884724321028
 51
90.0
  0
ARC
  5
E91
330
1E
100
AcDbEntity
  8
STEMPEL
  6
Continuous
100
AcDbCircle
 10
521.0607802729783
 20
285.4097648299515
 30
0.0
 40
8.0
100
AcDbArc
 50
270.0
 51
304.3011527567897
  0
LINE
  5
E92
330
1E
100
AcDbEntity
  8
HILF
100
AcDbLine
 10
522.777524591672
 20
450.0098243405963
 30
0.0
 11
522.777524591672
 21
351.4773650767735
 31
0.0
  0
LINE
  5
E93
330
1E
100
AcDbEntity
  8
STEMPEL
  6
Continuous
100
AcDbLine
 10
677.0947727928465
 20
345.0368388707596
 30
0.0
 11
677.0947727928465
 21
456.4503505466096
 31
0.0
  0
LINE
  5
E94
330
1E
100
AcDbEntity
  8
HILF
100
AcDbLine
 10
532.289688771105
 20
453.9723008119661
 30
0.0
 11
532.289688771105
 21
347.5148886054031
 31
0.0
  0
LINE
  5
E95
330
1E
100
AcDbEntity
  8
HILF
100
AcDbLine
 10
632.9704521716409
 20
453.9723008119661
 30
0.0
 11
632.9704521716409
 21
347.5148886054031
 31
0.0
  0
LINE
  5
E96
330
1E
100
AcDbEntity
  8
MITTEL
100
AcDbLine
 10
427.0947727928465
 20
172.4097648299517
 30
0.0
 11
427.0947727928465
 21
280.4097648299517
 31
0.0
  0
LINE
  5
E97
330
1E
100
AcDbEntity
  8
MITTEL
100
AcDbLine
 10
427.0947727928465
 20
400.7435947086848
 30
0.0
 11
427.0947727928465
 21
470.0653990666134
 31
0.0
  0
LINE
  5
ECE
330
1E
100
AcDbEntity
  8
STEMPEL
  6
Continuous
100
AcDbLine
 10
177.0947727928462
 20
175.4097648299515
 30
0.0
 11
177.0947727928462
 21
277.4097648299515
 31
0.0
  0
LINE
  5
ECF
330
1E
100
AcDbEntity
  8
STEMPEL
  6
Continuous
100
AcDbLine
 10
177.0947727928462
 20
349.7435947086848
 30
0.0
 11
177.0947727928462
 21
451.7435947087022
 31
0.0
  0
LINE
  5
ED1
330
1E
100
AcDbEntity
  8
MITTEL
100
AcDbLine
 10
682.0947727928466
 20
400.7435947086849
 30
0.0
 11
170.0557308958375
 21
400.7435947086849
 31
0.0
  0
LINE
  5
ED2
330
1E
100
AcDbEntity
  8
MITTEL
100
AcDbLine
 10
682.0947727928466
 20
226.4097648299518
 30
0.0
 11
170.0557308958375
 21
226.4097648299518
 31
0.0
  0
LINE
  5
F0A
330
1E
100
AcDbEntity
  8
STEMPEL
  6
Continuous
100
AcDbLine
 10
521.0607802729783
 20
349.7435947086848
 30
0.0
 11
177.0947727928462
 21
349.7435947086848
 31
0.0
  0
POLYLINE
  5
F67
330
1E
100
AcDbEntity
  8
HILF
100
AcDb2dPolyline
 66
     1
 10
0.0
 20
0.0
 30
0.0
 70
     4
 75
     6
  0
VERTEX
  5
F68
330
F67
100
AcDbEntity
  8
HILF
100
AcDbVertex
100
AcDb2dVertex
 10
353.075750034102
 20
451.7435947086845
 30
0.0
 70
    16
  0
VERTEX
  5
F69
330
F67
100
AcDbEntity
  8
HILF
100
AcDbVertex
100
AcDb2dVertex
 10
353.075750034102
 20
451.7435947086845
 30
0.0
 70
     8
  0
VERTEX
  5
F6A
330
F67
100
AcDbEntity
  8
HILF
100
AcDbVertex
100
AcDb2dVertex
 10
356.6855478036835
 20
446.1219796346951
 30
0.0
 70
     8
  0
VERTEX
  5
F6B
330
F67
100
AcDbEntity
  8
HILF
100
AcDbVertex
100
AcDb2dVertex
 10
359.2122909923726
 20
441.0941769230587
 30
0.0
 70
     8
  0
VERTEX
  5
F6C
330
F67
100
AcDbEntity
  8
HILF
100
AcDbVertex
100
AcDb2dVertex
 10
360.8882639395118
 20
436.6150232415078
 30
0.0
 70
     8
  0
VERTEX
  5
F6D
330
F67
100
AcDbEntity
  8
HILF
100
AcDbVertex
100
AcDb2dVertex
 10
361.9457509844433
 20
432.6393552577753
 30
0.0
 70
     8
  0
VERTEX
  5
F6E
330
F67
100
AcDbEntity
  8
HILF
100
AcDbVertex
100
AcDb2dVertex
 10
362.6170364665095
 20
429.1220096395942
 30
0.0
 70
     8
  0
VERTEX
  5
F6F
330
F67
100
AcDbEntity
  8
HILF
100
AcDbVertex
100
AcDb2dVertex
 10
363.1344047250527
 20
426.0178230546973
 30
0.0
 70
     8
  0
VERTEX
  5
F70
330
F67
100
AcDbEntity
  8
HILF
100
AcDbVertex
100
AcDb2dVertex
 10
363.7301400994153
 20
423.2816321708173
 30
0.0
 70
     8
  0
VERTEX
  5
F71
330
F67
100
AcDbEntity
  8
HILF
100
AcDbVertex
100
AcDb2dVertex
 10
364.6365269289399
 20
420.8682736556874
 30
0.0
 70
     8
  0
VERTEX
  5
F72
330
F67
100
AcDbEntity
  8
HILF
100
AcDbVertex
100
AcDb2dVertex
 10
366.0318974402466
 20
418.7331379756925
 30
0.0
 70
     8
  0
VERTEX
  5
F73
330
F67
100
AcDbEntity
  8
HILF
100
AcDbVertex
100
AcDb2dVertex
 10
367.8787754090696
 20
416.833830791829
 30
0.0
 70
     8
  0
VERTEX
  5
F74
330
F67
100
AcDbEntity
  8
HILF
100
AcDbVertex
100
AcDb2dVertex
 10
370.085732498421
 20
415.1285115637453
 30
0.0
 70
     8
  0
VERTEX
  5
F75
330
F67
100
AcDbEntity
  8
HILF
100
AcDbVertex
100
AcDb2dVertex
 10
372.5613403713132
 20
413.57533975109
 30
0.0
 70
     8
  0
VERTEX
  5
F76
330
F67
100
AcDbEntity
  8
HILF
100
AcDbVertex
100
AcDb2dVertex
 10
375.2141706907582
 20
412.1324748135118
 30
0.0
 70
     8
  0
VERTEX
  5
F77
330
F67
100
AcDbEntity
  8
HILF
100
AcDbVertex
100
AcDb2dVertex
 10
377.9527951197683
 20
410.7580762106593
 30
0.0
 70
     8
  0
VERTEX
  5
F78
330
F67
100
AcDbEntity
  8
HILF
100
AcDbVertex
100
AcDb2dVertex
 10
380.6857853213556
 20
409.4103034021811
 30
0.0
 70
     8
  0
VERTEX
  5
F79
330
F67
100
AcDbEntity
  8
HILF
100
AcDbVertex
100
AcDb2dVertex
 10
383.3217129585325
 20
408.0473158477259
 30
0.0
 70
     8
  0
VERTEX
  5
F7A
330
F67
100
AcDbEntity
  8
HILF
100
AcDbVertex
100
AcDb2dVertex
 10
385.7961684318131
 20
406.6363860041936
 30
0.0
 70
     8
  0
VERTEX
  5
F7B
330
F67
100
AcDbEntity
  8
HILF
100
AcDbVertex
100
AcDb2dVertex
 10
388.1528170917198
 20
405.1812383174908
 30
0.0
 70
     8
  0
VERTEX
  5
F7C
330
F67
100
AcDbEntity
  8
HILF
100
AcDbVertex
100
AcDb2dVertex
 10
390.4623430262769
 20
403.6947102307756
 30
0.0
 70
     8
  0
VERTEX
  5
F7D
330
F67
100
AcDbEntity
  8
HILF
100
AcDbVertex
100
AcDb2dVertex
 10
392.7954303235087
 20
402.1896391872061
 30
0.0
 70
     8
  0
VERTEX
  5
F7E
330
F67
100
AcDbEntity
  8
HILF
100
AcDbVertex
100
AcDb2dVertex
 10
395.2227630714397
 20
400.6788626299401
 30
0.0
 70
     8
  0
VERTEX
  5
F7F
330
F67
100
AcDbEntity
  8
HILF
100
AcDbVertex
100
AcDb2dVertex
 10
397.8150253580943
 20
399.175218002136
 30
0.0
 70
     8
  0
VERTEX
  5
F80
330
F67
100
AcDbEntity
  8
HILF
100
AcDbVertex
100
AcDb2dVertex
 10
400.6429012714966
 20
397.6915427469514
 30
0.0
 70
     8
  0
VERTEX
  5
F81
330
F67
100
AcDbEntity
  8
HILF
100
AcDbVertex
100
AcDb2dVertex
 10
403.7770748996713
 20
396.2406743075446
 30
0.0
 70
     8
  0
VERTEX
  5
F82
330
F67
100
AcDbEntity
  8
HILF
100
AcDbVertex
100
AcDb2dVertex
 10
407.2621079494841
 20
394.8419480890458
 30
0.0
 70
     8
  0
VERTEX
  5
F83
330
F67
100
AcDbEntity
  8
HILF
100
AcDbVertex
100
AcDb2dVertex
 10
411.0380726031672
 20
393.5406913444751
 30
0.0
 70
     8
  0
VERTEX
  5
F84
330
F67
100
AcDbEntity
  8
HILF
100
AcDbVertex
100
AcDb2dVertex
 10
415.0189186617941
 20
392.3887292888243
 30
0.0
 70
     8
  0
VERTEX
  5
F85
330
F67
100
AcDbEntity
  8
HILF
100
AcDbVertex
100
AcDb2dVertex
 10
419.1185959264386
 20
391.4378871370857
 30
0.0
 70
     8
  0
VERTEX
  5
F86
330
F67
100
AcDbEntity
  8
HILF
100
AcDbVertex
100
AcDb2dVertex
 10
423.2510541981744
 20
390.7399901042513
 30
0.0
 70
     8
  0
VERTEX
  5
F87
330
F67
100
AcDbEntity
  8
HILF
100
AcDbVertex
100
AcDb2dVertex
 10
427.3302432780749
 20
390.3468634053132
 30
0.0
 70
     8
  0
VERTEX
  5
F88
330
F67
100
AcDbEntity
  8
HILF
100
AcDbVertex
100
AcDb2dVertex
 10
431.2701129672139
 20
390.3103322552636
 30
0.0
 70
     8
  0
VERTEX
  5
F89
330
F67
100
AcDbEntity
  8
HILF
100
AcDbVertex
100
AcDb2dVertex
 10
434.9846130666651
 20
390.6822218690948
 30
0.0
 70
     8
  0
VERTEX
  5
F8A
330
F67
100
AcDbEntity
  8
HILF
100
AcDbVertex
100
AcDb2dVertex
 10
438.4158645749559
 20
391.4970823893566
 30
0.0
 70
     8
  0
VERTEX
  5
F8B
330
F67
100
AcDbEntity
  8
HILF
100
AcDbVertex
100
AcDb2dVertex
 10
441.6186732804296
 20
392.7203636688314
 30
0.0
 70
     8
  0
VERTEX
  5
F8C
330
F67
100
AcDbEntity
  8
HILF
100
AcDbVertex
100
AcDb2dVertex
 10
444.676016168883
 20
394.3002404878593
 30
0.0
 70
     8
  0
VERTEX
  5
F8D
330
F67
100
AcDbEntity
  8
HILF
100
AcDbVertex
100
AcDb2dVertex
 10
447.6708702261133
 20
396.1848876267806
 30
0.0
 70
     8
  0
VERTEX
  5
F8E
330
F67
100
AcDbEntity
  8
HILF
100
AcDbVertex
100
AcDb2dVertex
 10
450.6862124379172
 20
398.3224798659357
 30
0.0
 70
     8
  0
VERTEX
  5
F8F
330
F67
100
AcDbEntity
  8
HILF
100
AcDbVertex
100
AcDb2dVertex
 10
453.8050197900921
 20
400.6611919856645
 30
0.0
 70
     8
  0
VERTEX
  5
F90
330
F67
100
AcDbEntity
  8
HILF
100
AcDbVertex
100
AcDb2dVertex
 10
457.1102692684346
 20
403.1491987663075
 30
0.0
 70
     8
  0
VERTEX
  5
F91
330
F67
100
AcDbEntity
  8
HILF
100
AcDbVertex
100
AcDb2dVertex
 10
460.6849378587421
 20
405.7346749882048
 30
0.0
 70
     8
  0
VERTEX
  5
F92
330
F67
100
AcDbEntity
  8
HILF
100
AcDbVertex
100
AcDb2dVertex
 10
464.5744836326045
 20
408.3752254041357
 30
0.0
 70
     8
  0
VERTEX
  5
F93
330
F67
100
AcDbEntity
  8
HILF
100
AcDbVertex
100
AcDb2dVertex
 10
468.6742890047841
 20
411.0661746566345
 30
0.0
 70
     8
  0
VERTEX
  5
F94
330
F67
100
AcDbEntity
  8
HILF
100
AcDbVertex
100
AcDb2dVertex
 10
472.8422174758366
 20
413.8122773606748
 30
0.0
 70
     8
  0
VERTEX
  5
F95
330
F67
100
AcDbEntity
  8
HILF
100
AcDbVertex
100
AcDb2dVertex
 10
476.9361325463173
 20
416.61828813123
 30
0.0
 70
     8
  0
VERTEX
  5
F96
330
F67
100
AcDbEntity
  8
HILF
100
AcDbVertex
100
AcDb2dVertex
 10
480.8138977167819
 20
419.4889615832737
 30
0.0
 70
     8
  0
VERTEX
  5
F97
330
F67
100
AcDbEntity
  8
HILF
100
AcDbVertex
100
AcDb2dVertex
 10
484.3333764877857
 20
422.4290523317793
 30
0.0
 70
     8
  0
VERTEX
  5
F98
330
F67
100
AcDbEntity
  8
HILF
100
AcDbVertex
100
AcDb2dVertex
 10
487.3524323598842
 20
425.4433149917201
 30
0.0
 70
     8
  0
VERTEX
  5
F99
330
F67
100
AcDbEntity
  8
HILF
100
AcDbVertex
100
AcDb2dVertex
 10
489.7289288336331
 20
428.5365041780698
 30
0.0
 70
     8
  0
VERTEX
  5
F9A
330
F67
100
AcDbEntity
  8
HILF
100
AcDbVertex
100
AcDb2dVertex
 10
491.3758766638215
 20
431.7037058891851
 30
0.0
 70
     8
  0
VERTEX
  5
F9B
330
F67
100
AcDbEntity
  8
HILF
100
AcDbVertex
100
AcDb2dVertex
 10
492.4268756221738
 20
434.9013316569564
 30
0.0
 70
     8
  0
VERTEX
  5
F9C
330
F67
100
AcDbEntity
  8
HILF
100
AcDbVertex
100
AcDb2dVertex
 10
493.070672734648
 20
438.0761243966573
 30
0.0
 70
     8
  0
VERTEX
  5
F9D
330
F67
100
AcDbEntity
  8
HILF
100
AcDbVertex
100
AcDb2dVertex
 10
493.4960150272023
 20
441.1748270235614
 30
0.0
 70
     8
  0
VERTEX
  5
F9E
330
F67
100
AcDbEntity
  8
HILF
100
AcDbVertex
100
AcDb2dVertex
 10
493.8916495257947
 20
444.1441824529427
 30
0.0
 70
     8
  0
VERTEX
  5
F9F
330
F67
100
AcDbEntity
  8
HILF
100
AcDbVertex
100
AcDb2dVertex
 10
494.4463232563834
 20
446.9309336000745
 30
0.0
 70
     8
  0
VERTEX
  5
FA0
330
F67
100
AcDbEntity
  8
HILF
100
AcDbVertex
100
AcDb2dVertex
 10
495.3487832449264
 20
449.4818233802306
 30
0.0
 70
     8
  0
VERTEX
  5
FA1
330
F67
100
AcDbEntity
  8
HILF
100
AcDbVertex
100
AcDb2dVertex
 10
496.7877765173818
 20
451.7435947086848
 30
0.0
 70
     8
  0
VERTEX
  5
FA2
330
F67
100
AcDbEntity
  8
HILF
100
AcDbVertex
100
AcDb2dVertex
 10
364.35242516248
 20
435.9207261773384
 30
0.0
 70
    16
  0
VERTEX
  5
FA3
330
F67
100
AcDbEntity
  8
HILF
100
AcDbVertex
100
AcDb2dVertex
 10
358.8452117875633
 20
417.9064705998724
 30
0.0
 70
    16
  0
VERTEX
  5
FA4
330
F67
100
AcDbEntity
  8
HILF
100
AcDbVertex
100
AcDb2dVertex
 10
385.3322825734478
 20
408.6559055685633
 30
0.0
 70
    16
  0
VERTEX
  5
FA5
330
F67
100
AcDbEntity
  8
HILF
100
AcDbVertex
100
AcDb2dVertex
 10
399.7559356698408
 20
395.7538022122295
 30
0.0
 70
    16
  0
VERTEX
  5
FA6
330
F67
100
AcDbEntity
  8
HILF
100
AcDbVertex
100
AcDb2dVertex
 10
438.3064241452167
 20
385.7729314277857
 30
0.0
 70
    16
  0
VERTEX
  5
FA7
330
F67
100
AcDbEntity
  8
HILF
100
AcDbVertex
100
AcDb2dVertex
 10
456.9260461492827
 20
405.2478032911961
 30
0.0
 70
    16
  0
VERTEX
  5
FA8
330
F67
100
AcDbEntity
  8
HILF
100
AcDbVertex
100
AcDb2dVertex
 10
498.099018410105
 20
427.643905336659
 30
0.0
 70
    16
  0
VERTEX
  5
FA9
330
F67
100
AcDbEntity
  8
HILF
100
AcDbVertex
100
AcDb2dVertex
 10
492.0673082780991
 20
446.1450353992776
 30
0.0
 70
    16
  0
VERTEX
  5
FAA
330
F67
100
AcDbEntity
  8
HILF
100
AcDbVertex
100
AcDb2dVertex
 10
496.7877765173819
 20
451.7435947086847
 30
0.0
 70
    16
  0
SEQEND
  5
FAB
330
F67
100
AcDbEntity
  8
HILF
  0
DIMENSION
  5
104E
330
1E
100
AcDbEntity
  8
BEM
100
AcDbDimension
  2
*D4
 10
427.0947727928465
 20
303.5558720231815
 30
0.0
 11
302.0947727928464
 21
310.0558720231815
 31
0.0
 70
    32
 71
     5
 42
250.0000000000003
  3
Standard
100
AcDbAlignedDimension
 13
177.0947727928462
 23
276.3599008676409
 33
0.0
 14
427.0947727928465
 24
280.4097648299517
 34
0.0
100
AcDbRotatedDimension
1001
ACAD
1000
DSTYLE
1002
{
1070
    40
1040
2.0
1070
    41
1040
3.5
1070
    42
1040
1.0
1070
    43
1040
7.0
1070
    44
1040
1.0
1070
    73
1070
     0
1070
    74
1070
     0
1070
    77
1070
     1
1070
    78
1070
     8
1070
    79
1070
     2
1070
   140
1040
3.5
1070
   141
1040
1.5
1070
   146
1040
0.5142857142857144
1070
   147
1040
1.5
1070
   172
1070
     1
1070
   178
1070
     1
1070
   179
1070
     2
1070
   271
1070
     2
1070
   272
1070
     2
1070
   284
1070
     8
1070
   285
1070
     8
1070
   286
1070
     8
1002
}
  0
TEXT
  5
1081
330
1E
100
AcDbEntity
  8
TEXT
100
AcDbText
 10
654.3410940884991
 20
62.10021383107516
 30
0.0
 40
5.0
  1
500mm lang
 41
0.8
  7
GREEKS
100
AcDbText
  0
TEXT
  5
10C3
330
1E
100
AcDbEntity
  8
TEXT
 62
     1
100
AcDbText
 10
576.4262446161207
 20
412.2087685679311
 30
0.0
 40
7.0
  1
DN100
 41
0.8
  7
GREEKS
100
AcDbText
  0
LINE
  5
1187
330
1E
100
AcDbEntity
  8
STEMPEL
100
AcDbLine
 10
484.5730336624118
 20
237.5564920361862
 30
0.0
 11
462.24694670589
 21
260.5466168990449
 31
0.0
  0
LINE
  5
1188
330
1E
100
AcDbEntity
  8
HILF
100
AcDbLine
 10
482.6920650637998
 20
235.7326603600918
 30
0.0
 11
460.3590561050679
 21
258.7229870857142
 31
0.0
  0
ARC
  5
1189
330
1E
100
AcDbEntity
  8
STEMPEL
100
AcDbCircle
 10
423.5364394595133
 20
241.8583759410629
 30
0.0
 40
2.294444444444444
100
AcDbArc
 50
90.0
 51
180.0
  0
LINE
  5
118A
330
1E
100
AcDbEntity
  8
HILF
100
AcDbLine
 10
393.8304894806253
 20
258.7229870857142
 30
0.0
 11
371.4974805218933
 21
235.7326603600918
 31
0.0
  0
LINE
  5
118B
330
1E
100
AcDbEntity
  8
STEMPEL
100
AcDbLine
 10
391.9425988798032
 20
260.5466168990449
 30
0.0
 11
369.6165119232813
 21
237.5564920361862
 31
0.0
  0
CIRCLE
  5
118C
330
1E
100
AcDbEntity
  8
STEMPEL
100
AcDbCircle
 10
427.0947727928465
 20
226.4097648299518
 30
0.0
 40
31.5
  0
CIRCLE
  5
118D
330
1E
100
AcDbEntity
  8
HILF
100
AcDbCircle
 10
427.0947727928465
 20
226.4097648299518
 30
0.0
 40
35.06111457868633
  0
ARC
  5
118E
330
1E
100
AcDbEntity
  8
HILF
100
AcDbCircle
 10
427.0947727928465
 20
226.4097648299518
 30
0.0
 40
46.37517522151287
100
AcDbArc
 50
224.1691058674075
 51
315.8308941325925
  0
ARC
  5
118F
330
1E
100
AcDbEntity
  8
STEMPEL
100
AcDbCircle
 10
427.0947727928465
 20
226.4097648299518
 30
0.0
 40
48.99999999999997
100
AcDbArc
 50
224.1604804299481
 51
315.8395195700519
  0
LINE
  5
1190
330
1E
100
AcDbEntity
  8
STEMPEL
100
AcDbLine
 10
369.6165119232813
 20
215.2630376237173
 30
0.0
 11
391.9425988798032
 21
192.2729127608587
 31
0.0
  0
LINE
  5
1191
330
1E
100
AcDbEntity
  8
HILF
100
AcDbLine
 10
371.4974805218933
 20
217.0868692998118
 30
0.0
 11
393.8304894806253
 21
194.0965425741893
 31
0.0
  0
LINE
  5
1192
330
1E
100
AcDbEntity
  8
MITTEL
100
AcDbLine
 10
375.0947727928465
 20
216.4097648299518
 30
0.0
 11
375.0947727928465
 21
236.4097648299518
 31
0.0
  0
ARC
  5
1193
330
1E
100
AcDbEntity
  8
HILF
100
AcDbCircle
 10
381.0947727928466
 20
226.4097648299518
 30
0.0
 40
13.38
100
AcDbArc
 50
135.8308941325925
 51
224.1691058674075
  0
ARC
  5
1194
330
1E
100
AcDbEntity
  8
STEMPEL
100
AcDbCircle
 10
381.0947727928466
 20
226.4097648299518
 30
0.0
 40
16.0
100
AcDbArc
 50
135.8395195700518
 51
224.1604804299481
  0
CIRCLE
  5
1195
330
1E
100
AcDbEntity
  8
STEMPEL
100
AcDbCircle
 10
375.0947727928465
 20
226.4097648299518
 30
0.0
 40
5.65
  0
INSERT
  5
1196
330
1E
100
AcDbEntity
  8
HILF
100
AcDbBlockReference
  2
8DI931D
 10
375.0947727928465
 20
226.4097648299518
 30
0.0
  0
LINE
  5
1197
330
1E
100
AcDbEntity
  8
STEMPEL
100
AcDbLine
 10
462.24694670589
 20
192.2729127608587
 30
0.0
 11
484.5730336624118
 21
215.2630376237173
 31
0.0
  0
LINE
  5
1198
330
1E
100
AcDbEntity
  8
HILF
100
AcDbLine
 10
460.3590561050679
 20
194.0965425741893
 30
0.0
 11
482.6920650637998
 21
217.0868692998118
 31
0.0
  0
LINE
  5
1199
330
1E
100
AcDbEntity
  8
STEMPEL
100
AcDbLine
 10
423.7308839039576
 20
220.1321159066111
 30
0.0
 11
423.7308839039577
 21
219.3089817289911
 31
0.0
  0
ARC
  5
119A
330
1E
100
AcDbEntity
  8
STEMPEL
100
AcDbCircle
 10
427.0947727928465
 20
214.519487052174
 30
0.0
 40
5.852777777777742
100
AcDbArc
 50
180.0
 51
125.0821845754593
  0
LINE
  5
119B
330
1E
100
AcDbEntity
  8
STEMPEL
100
AcDbLine
 10
421.2419950150688
 20
220.6374775221965
 30
0.0
 11
421.2419950150688
 21
214.519487052174
 31
0.0
  0
CIRCLE
  5
119C
330
1E
100
AcDbEntity
  8
STEMPEL
100
AcDbCircle
 10
427.0947727928465
 20
214.519487052174
 30
0.0
 40
3.363888888888853
  0
ARC
  5
119D
330
1E
100
AcDbEntity
  8
STEMPEL
100
AcDbCircle
 10
427.0947727928465
 20
234.7417092743962
 30
0.0
 40
5.852777777777742
100
AcDbArc
 50
180.0
 51
241.2916789772502
  0
LINE
  5
119E
330
1E
100
AcDbEntity
  8
STEMPEL
100
AcDbLine
 10
423.1495899596743
 20
222.8870691022168
 30
0.0
 11
425.7218760850521
 21
223.3200610671403
 31
0.0
  0
LINE
  5
119F
330
1E
100
AcDbEntity
  8
STEMPEL
100
AcDbLine
 10
426.2586616817353
 20
227.1194870521739
 30
0.0
 11
422.4864394595132
 21
227.1194870521739
 31
0.0
  0
LINE
  5
11A0
330
1E
100
AcDbEntity
  8
STEMPEL
100
AcDbLine
 10
424.2833858388792
 20
229.6083759410629
 30
0.0
 11
422.4864394595132
 21
229.6083759410628
 31
0.0
  0
ARC
  5
11A1
330
1E
100
AcDbEntity
  8
STEMPEL
100
AcDbCircle
 10
427.0947727928465
 20
234.7417092743962
 30
0.0
 40
5.852777777777742
100
AcDbArc
 50
298.7083210227498
 51
125.0821845754675
  0
ARC
  5
11A2
330
1E
100
AcDbEntity
  8
STEMPEL
100
AcDbCircle
 10
423.5364394595133
 20
220.6374775221965
 30
0.0
 40
2.294444444444444
100
AcDbArc
 50
99.99999999999861
 51
180.0
  0
ARC
  5
11A3
330
1E
100
AcDbEntity
  8
STEMPEL
100
AcDbCircle
 10
422.4864394595132
 20
228.3639314966185
 30
0.0
 40
1.244444444444462
100
AcDbArc
 50
90.0
 51
270.0
  0
LINE
  5
11A4
330
1E
100
AcDbEntity
  8
STEMPEL
100
AcDbLine
 10
421.2419950150688
 20
241.8583759410629
 30
0.0
 11
421.2419950150688
 21
234.7417092743962
 31
0.0
  0
ARC
  5
11A5
330
1E
100
AcDbEntity
  8
STEMPEL
100
AcDbCircle
 10
431.7031061261799
 20
242.9083759410629
 30
0.0
 40
1.244444444444462
100
AcDbArc
 50
270.0
 51
90.0
  0
POINT
  5
11A6
330
1E
100
AcDbEntity
  8
DEFPOINTS
  6
ByBlock
 62
     0
100
AcDbPoint
 10
427.0947727928465
 20
244.1528203855073
 30
0.0
  0
LINE
  5
11A7
330
1E
100
AcDbEntity
  8
STEMPEL
100
AcDbLine
 10
423.7308839039577
 20
241.2750426077295
 30
0.0
 11
423.7308839039577
 21
239.5312039512126
 31
0.0
  0
ARC
  5
11A8
330
1E
100
AcDbEntity
  8
STEMPEL
100
AcDbCircle
 10
424.1197727928466
 20
241.2750426077295
 30
0.0
 40
0.3888888888888889
100
AcDbArc
 50
90.0
 51
180.0
  0
LINE
  5
11A9
330
1E
100
AcDbEntity
  8
STEMPEL
100
AcDbLine
 10
431.7031061261799
 20
241.6639314966184
 30
0.0
 11
424.1197727928466
 21
241.6639314966184
 31
0.0
  0
LINE
  5
11AA
330
1E
100
AcDbEntity
  8
STEMPEL
100
AcDbLine
 10
431.7031061261799
 20
244.1528203855073
 30
0.0
 11
423.5364394595133
 21
244.1528203855073
 31
0.0
  0
ARC
  5
11AB
330
1E
100
AcDbEntity
  8
STEMPEL
100
AcDbCircle
 10
432.1697727928466
 20
228.8305981632852
 30
0.0
 40
0.7777777777777778
100
AcDbArc
 50
0.0
 51
90.0
  0
LINE
  5
11AC
330
1E
100
AcDbEntity
  8
STEMPEL
100
AcDbLine
 10
432.9475505706243
 20
228.8305981632852
 30
0.0
 11
432.9475505706243
 21
224.1639314966184
 31
0.0
  0
ARC
  5
11AD
330
1E
100
AcDbEntity
  8
STEMPEL
100
AcDbCircle
 10
429.6031061261798
 20
224.1639314966184
 30
0.0
 40
0.8555555555555024
100
AcDbArc
 50
180.0
 51
0.0
  0
LINE
  5
11AE
330
1E
100
AcDbEntity
  8
STEMPEL
100
AcDbLine
 10
430.4586616817354
 20
227.119487052174
 30
0.0
 11
428.7475505706242
 21
227.119487052174
 31
0.0
  0
ARC
  5
11AF
330
1E
100
AcDbEntity
  8
STEMPEL
100
AcDbCircle
 10
425.5975505706243
 20
223.969487052174
 30
0.0
 40
0.6611111111111199
100
AcDbArc
 50
279.9999999999986
 51
0.0
  0
LINE
  5
11B0
330
1E
100
AcDbEntity
  8
STEMPEL
100
AcDbLine
 10
426.2586616817353
 20
227.1194870521739
 30
0.0
 11
426.2586616817353
 21
223.969487052174
 31
0.0
  0
LINE
  5
11B1
330
1E
100
AcDbEntity
  8
STEMPEL
100
AcDbLine
 10
428.7475505706242
 20
227.119487052174
 30
0.0
 11
428.7475505706242
 21
224.1639314966184
 31
0.0
  0
ARC
  5
11B2
330
1E
100
AcDbEntity
  8
STEMPEL
100
AcDbCircle
 10
425.5975505706243
 20
223.969487052174
 30
0.0
 40
3.150000000000008
100
AcDbArc
 50
279.9999999999986
 51
308.6930109383293
  0
LINE
  5
11B3
330
1E
100
AcDbEntity
  8
STEMPEL
100
AcDbLine
 10
430.4586616817354
 20
227.119487052174
 30
0.0
 11
430.4586616817354
 21
224.1639314966184
 31
0.0
  0
CIRCLE
  5
11B4
330
1E
100
AcDbEntity
  8
STEMPEL
100
AcDbCircle
 10
427.0947727928465
 20
234.7417092743962
 30
0.0
 40
3.363888888888853
  0
LINE
  5
11B5
330
1E
100
AcDbEntity
  8
STEMPEL
100
AcDbLine
 10
432.1697727928466
 20
229.6083759410629
 30
0.0
 11
429.9061597468139
 21
229.6083759410629
 31
0.0
  0
ARC
  5
11B6
330
1E
100
AcDbEntity
  8
STEMPEL
100
AcDbCircle
 10
424.1197727928465
 20
220.1321159066111
 30
0.0
 40
0.3888888888888889
100
AcDbArc
 50
99.55500261066188
 51
180.0
  0
ARC
  5
11B7
330
1E
100
AcDbEntity
  8
STEMPEL
100
AcDbCircle
 10
429.6031061261798
 20
224.1639314966184
 30
0.0
 40
3.344444444444391
100
AcDbArc
 50
232.49196016292
 51
0.0
  0
LINE
  5
11B8
330
1E
100
AcDbEntity
  8
STEMPEL
100
AcDbLine
 10
424.0552194380849
 20
220.5156096253213
 30
0.0
 11
426.1350175555272
 21
220.8657012673945
 31
0.0
  0
LINE
  5
11B9
330
1E
100
AcDbEntity
  8
MITTEL
100
AcDbLine
 10
479.0947727928466
 20
216.4097648299518
 30
0.0
 11
479.0947727928466
 21
236.4097648299518
 31
0.0
  0
ARC
  5
11BA
330
1E
100
AcDbEntity
  8
HILF
100
AcDbCircle
 10
473.0947727928465
 20
226.4097648299518
 30
0.0
 40
13.38
100
AcDbArc
 50
315.8308941325925
 51
44.16910586740746
  0
ARC
  5
11BB
330
1E
100
AcDbEntity
  8
STEMPEL
100
AcDbCircle
 10
473.0947727928465
 20
226.4097648299518
 30
0.0
 40
16.0
100
AcDbArc
 50
315.8395195700519
 51
44.16048042994813
  0
CIRCLE
  5
11BC
330
1E
100
AcDbEntity
  8
STEMPEL
100
AcDbCircle
 10
479.0947727928466
 20
226.4097648299518
 30
0.0
 40
5.65
  0
INSERT
  5
11BD
330
1E
100
AcDbEntity
  8
HILF
100
AcDbBlockReference
  2
8DI931D
 10
479.0947727928466
 20
226.4097648299518
 30
0.0
  0
ARC
  5
11BE
330
1E
100
AcDbEntity
  8
STEMPEL
100
AcDbCircle
 10
427.0947727928465
 20
226.4097648299518
 30
0.0
 40
48.99999999999997
100
AcDbArc
 50
44.16048042994813
 51
135.8395195700518
  0
ARC
  5
11BF
330
1E
100
AcDbEntity
  8
HILF
100
AcDbCircle
 10
427.0947727928465
 20
226.4097648299518
 30
0.0
 40
46.37517522151287
100
AcDbArc
 50
44.16910586740746
 51
135.8308941325925
  0
LINE
  5
12A2
330
1E
100
AcDbEntity
  8
MITTEL
100
AcDbLine
 10
375.0947727928466
 20
485.3435947086845
 30
0.0
 11
375.0947727928466
 21
451.7435947086851
 31
0.0
  0
LINE
  5
12A3
330
1E
100
AcDbEntity
  8
MITTEL
100
AcDbLine
 10
479.0947727928465
 20
485.3435947086854
 30
0.0
 11
479.0947727928466
 21
451.7435947086851
 31
0.0
  0
LINE
  5
12A4
330
1E
100
AcDbEntity
  8
STEMPEL
100
AcDbLine
 10
483.0947727928465
 20
465.7435947086852
 30
0.0
 11
483.0947727928465
 21
451.7435947086851
 31
0.0
  0
LINE
  5
12A5
330
1E
100
AcDbEntity
  8
HILF
100
AcDbLine
 10
482.0947727928464
 20
465.7435947086852
 30
0.0
 11
482.0947727928465
 21
451.7435947086851
 31
0.0
  0
LINE
  5
12A6
330
1E
100
AcDbEntity
  8
STEMPEL
100
AcDbLine
 10
475.0947727928464
 20
465.7435947086852
 30
0.0
 11
475.0947727928465
 21
451.7435947086851
 31
0.0
  0
LINE
  5
12A7
330
1E
100
AcDbEntity
  8
HILF
100
AcDbLine
 10
476.0947727928465
 20
465.7435947086852
 30
0.0
 11
476.0947727928465
 21
451.7435947086851
 31
0.0
  0
LINE
  5
12A8
330
1E
100
AcDbEntity
  8
STEMPEL
100
AcDbLine
 10
487.1544877925561
 20
456.7435947086853
 30
0.0
 11
489.0947727928466
 21
457.228665958758
 31
0.0
  0
LINE
  5
12A9
330
1E
100
AcDbEntity
  8
STEMPEL
100
AcDbLine
 10
485.5938538862969
 20
462.9861303337216
 30
0.0
 11
487.1544877925561
 21
456.7435947086853
 31
0.0
  0
ARC
  5
12AB
330
1E
100
AcDbEntity
  8
STEMPEL
100
AcDbCircle
 10
474.6947727928466
 20
457.7435947086851
 30
0.0
 40
6.0
100
AcDbArc
 50
180.0
 51
270.0
  0
ARC
  5
12AD
330
1E
100
AcDbEntity
  8
STEMPEL
100
AcDbCircle
 10
379.4947727928466
 20
457.7435947086851
 30
0.0
 40
6.0
100
AcDbArc
 50
270.0
 51
0.0
  0
LINE
  5
12AE
330
1E
100
AcDbEntity
  8
STEMPEL
100
AcDbLine
 10
368.5956916993963
 20
462.9861303337214
 30
0.0
 11
367.0350577931373
 21
456.7435947086852
 31
0.0
  0
LINE
  5
12AF
330
1E
100
AcDbEntity
  8
STEMPEL
100
AcDbLine
 10
367.0350577931373
 20
456.7435947086852
 30
0.0
 11
365.0947727928466
 21
457.2286659587578
 31
0.0
  0
LINE
  5
12B0
330
1E
100
AcDbEntity
  8
HILF
100
AcDbLine
 10
372.0947727928466
 20
465.7435947086852
 30
0.0
 11
372.0947727928466
 21
451.7435947086851
 31
0.0
  0
LINE
  5
12B1
330
1E
100
AcDbEntity
  8
STEMPEL
100
AcDbLine
 10
371.0947727928466
 20
465.7435947086852
 30
0.0
 11
371.0947727928466
 21
451.7435947086851
 31
0.0
  0
LINE
  5
12B2
330
1E
100
AcDbEntity
  8
HILF
100
AcDbLine
 10
378.0947727928466
 20
465.7435947086852
 30
0.0
 11
378.0947727928466
 21
451.7435947086851
 31
0.0
  0
LINE
  5
12B3
330
1E
100
AcDbEntity
  8
STEMPEL
100
AcDbLine
 10
379.0947727928466
 20
465.7435947086852
 30
0.0
 11
379.0947727928466
 21
451.7435947086851
 31
0.0
  0
INSERT
  5
12B4
330
1E
100
AcDbEntity
  8
SCHRAFF
100
AcDbBlockReference
  2
*X7
 10
58.93546983566682
 20
-53.97865462501568
 30
0.0
1001
ACAD
1000
HATCH
1002
{
1070
    16
1000
_U,I
1040
2.0
1040
2.356194490192344
1070
     0
1002
}
  0
LINE
  5
12B6
330
1E
100
AcDbEntity
  8
STEMPEL
100
AcDbLine
 10
371.0947727928466
 20
456.7435947086852
 30
0.0
 11
367.0350577931373
 21
456.7435947086852
 31
0.0
  0
LINE
  5
12B7
330
1E
100
AcDbEntity
  8
STEMPEL
100
AcDbLine
 10
385.4108525759463
 20
456.7435947086852
 30
0.0
 11
379.0947727928466
 21
456.7435947086852
 31
0.0
  0
LINE
  5
12B8
330
1E
100
AcDbEntity
  8
STEMPEL
100
AcDbLine
 10
475.0947727928465
 20
456.7435947086851
 30
0.0
 11
468.778693009747
 21
456.7435947086852
 31
0.0
  0
LINE
  5
12B9
330
1E
100
AcDbEntity
  8
STEMPEL
100
AcDbLine
 10
487.1544877925561
 20
456.7435947086852
 30
0.0
 11
483.0947727928465
 21
456.7435947086851
 31
0.0
  0
LINE
  5
12BA
330
1E
100
AcDbEntity
  8
STEMPEL
100
AcDbLine
 10
425.8586616817354
 20
460.7435947086854
 30
0.0
 11
395.5947727928466
 21
460.7435947086853
 31
0.0
  0
LINE
  5
12BB
330
1E
100
AcDbEntity
  8
STEMPEL
100
AcDbLine
 10
458.5947727928466
 20
458.7435947086851
 30
0.0
 11
395.5947727928466
 21
458.7435947086851
 31
0.0
  0
INSERT
  5
12BC
330
1E
100
AcDbEntity
  8
SCHRAFF
100
AcDbBlockReference
  2
*X6
 10
58.93546983566682
 20
-53.97865462501568
 30
0.0
1001
ACAD
1000
HATCH
1002
{
1070
    16
1000
NET,I
1040
10.0
1040
0.7853981633974483
1002
}
  0
LINE
  5
12BD
330
1E
100
AcDbEntity
  8
STEMPEL
100
AcDbLine
 10
473.0947727928466
 20
458.7435947086851
 30
0.0
 11
381.0947727928466
 21
458.7435947086851
 31
0.0
  0
LINE
  5
12BE
330
1E
100
AcDbEntity
  8
STEMPEL
100
AcDbLine
 10
484.6237113861516
 20
465.7435947086852
 30
0.0
 11
369.5658341995417
 21
465.7435947086852
 31
0.0
  0
LINE
  5
12BF
330
1E
100
AcDbEntity
  8
STEMPEL
100
AcDbLine
 10
369.7036925980212
 20
472.2435947086851
 30
0.0
 11
380.4858529876626
 21
472.2435947086853
 31
0.0
  0
LINE
  5
12C0
330
1E
100
AcDbEntity
  8
STEMPEL
100
AcDbLine
 10
369.7036925980212
 20
465.7435947086852
 30
0.0
 11
380.4858529876626
 21
465.7435947086852
 31
0.0
  0
ARC
  5
12C1
330
1E
100
AcDbEntity
  8
STEMPEL
100
AcDbCircle
 10
375.0947727928466
 20
461.4608895086853
 30
0.0
 40
10.7827052
100
AcDbArc
 50
70.52782738138624
 51
109.4721726186137
  0
ARC
  5
12C2
330
1E
100
AcDbEntity
  8
STEMPEL
100
AcDbCircle
 10
375.0947727928466
 20
476.5262999086852
 30
0.0
 40
10.7827052
100
AcDbArc
 50
250.5278273813862
 51
289.4721726186137
  0
ARC
  5
12C3
330
1E
100
AcDbEntity
  8
STEMPEL
100
AcDbCircle
 10
375.0947727928466
 20
474.6935947086852
 30
0.0
 40
5.65
100
AcDbArc
 50
0.0
 51
180.0
  0
ARC
  5
12C4
330
1E
100
AcDbEntity
  8
STEMPEL
100
AcDbCircle
 10
369.7031668267347
 20
469.3166437708216
 30
0.0
 40
2.926950985085932
100
AcDbArc
 50
52.11936428281847
 51
121.4691945238291
  0
ARC
  5
12C5
330
1E
100
AcDbEntity
  8
STEMPEL
100
AcDbCircle
 10
369.7031668267347
 20
468.6705456465486
 30
0.0
 40
2.926950985085932
100
AcDbArc
 50
238.5308054768418
 51
307.8806357171815
  0
LINE
  5
12C6
330
1E
100
AcDbEntity
  8
STEMPEL
100
AcDbLine
 10
367.9059648380306
 20
471.6576695196186
 30
0.0
 11
367.9059648380306
 21
466.3295198977516
 31
0.0
  0
LINE
  5
12C7
330
1E
100
AcDbEntity
  8
STEMPEL
100
AcDbLine
 10
367.9059648380306
 20
466.3295198977516
 30
0.0
 11
368.1751811551591
 21
466.1740877845873
 31
0.0
  0
LINE
  5
12C8
330
1E
100
AcDbEntity
  8
STEMPEL
100
AcDbLine
 10
367.9059648380306
 20
471.6576695196186
 30
0.0
 11
368.1751811551293
 21
471.8131016327658
 31
0.0
  0
LINE
  5
12C9
330
1E
100
AcDbEntity
  8
STEMPEL
100
AcDbLine
 10
371.5003688154386
 20
471.6268617434153
 30
0.0
 11
371.5003688154386
 21
466.3603276739554
 31
0.0
  0
LINE
  5
12CA
330
1E
100
AcDbEntity
  8
STEMPEL
100
AcDbLine
 10
369.4447727928465
 20
474.6935947086852
 30
0.0
 11
369.4447727928465
 21
472.2321668100629
 31
0.0
  0
ARC
  5
12CB
330
1E
100
AcDbEntity
  8
STEMPEL
100
AcDbCircle
 10
369.5658341995417
 20
462.7435947086851
 30
0.0
 40
1.0
100
AcDbArc
 50
90.0
 51
165.9637565320735
  0
ARC
  5
12CC
330
1E
100
AcDbEntity
  8
STEMPEL
100
AcDbCircle
 10
369.5658341995417
 20
462.7435947086851
 30
0.0
 40
3.0
100
AcDbArc
 50
90.0
 51
165.9637565320735
  0
LINE
  5
12CD
330
1E
100
AcDbEntity
  8
STEMPEL
100
AcDbLine
 10
370.0947727928466
 20
465.7435947086852
 30
0.0
 11
370.0947727928466
 21
463.7435947086851
 31
0.0
  0
LINE
  5
12CE
330
1E
100
AcDbEntity
  8
STEMPEL
100
AcDbLine
 10
371.0947727928466
 20
463.7435947086851
 30
0.0
 11
369.5658341995417
 21
463.7435947086851
 31
0.0
  0
LINE
  5
12CF
330
1E
100
AcDbEntity
  8
STEMPEL
100
AcDbLine
 10
366.6554066991056
 20
463.4712015837942
 30
0.0
 11
365.0947727928466
 21
457.2286659587578
 31
0.0
  0
ARC
  5
12D0
330
1E
100
AcDbEntity
  8
STEMPEL
100
AcDbCircle
 10
380.4863787589586
 20
469.3166437708216
 30
0.0
 40
2.926950985085932
100
AcDbArc
 50
58.53080547515485
 51
127.8806357171815
  0
ARC
  5
12D1
330
1E
100
AcDbEntity
  8
STEMPEL
100
AcDbCircle
 10
380.4863787589586
 20
468.6705456465486
 30
0.0
 40
2.926950985085932
100
AcDbArc
 50
232.1193642828185
 51
301.4691945241509
  0
LINE
  5
12D2
330
1E
100
AcDbEntity
  8
STEMPEL
100
AcDbLine
 10
378.6891767702546
 20
471.6268617434153
 30
0.0
 11
378.6891767702546
 21
466.3603276739554
 31
0.0
  0
LINE
  5
12D3
330
1E
100
AcDbEntity
  8
STEMPEL
100
AcDbLine
 10
382.2835807476626
 20
471.6576695196186
 30
0.0
 11
382.2835807476626
 21
466.3295198977516
 31
0.0
  0
LINE
  5
12D4
330
1E
100
AcDbEntity
  8
STEMPEL
100
AcDbLine
 10
380.4812235176055
 20
465.7435947086852
 30
0.0
 11
380.4858529876522
 21
465.7435947086852
 31
0.0
  0
LINE
  5
12D5
330
1E
100
AcDbEntity
  8
STEMPEL
100
AcDbLine
 10
382.2835807476626
 20
466.3295198977516
 30
0.0
 11
382.0143644305781
 21
466.1740877846127
 31
0.0
  0
LINE
  5
12D6
330
1E
100
AcDbEntity
  8
STEMPEL
100
AcDbLine
 10
380.4812235176055
 20
472.2435947086853
 30
0.0
 11
380.4858529876522
 21
472.2435947086853
 31
0.0
  0
LINE
  5
12D7
330
1E
100
AcDbEntity
  8
STEMPEL
100
AcDbLine
 10
382.2835807476626
 20
471.6576695196186
 30
0.0
 11
382.0143644306089
 21
471.8131016327399
 31
0.0
  0
LINE
  5
12D8
330
1E
100
AcDbEntity
  8
STEMPEL
100
AcDbLine
 10
380.7447727928466
 20
474.6935947086852
 30
0.0
 11
380.7447727928466
 21
472.2321668100629
 31
0.0
  0
LINE
  5
12D9
330
1E
100
AcDbEntity
  8
STEMPEL
100
AcDbLine
 10
392.0947727928466
 20
461.9022280852312
 30
0.0
 11
392.0947727928465
 21
458.7435947086851
 31
0.0
  0
ARC
  5
12DA
330
1E
100
AcDbEntity
  8
STEMPEL
100
AcDbCircle
 10
390.4998976308
 20
462.7435947086851
 30
0.0
 40
3.0
100
AcDbArc
 50
28.50527455232638
 51
90.0
  0
LINE
  5
12DB
330
1E
100
AcDbEntity
  8
STEMPEL
100
AcDbLine
 10
393.1362171783348
 20
464.1753136906386
 30
0.0
 11
394.715999610335
 21
461.2663550480339
 31
0.0
  0
ARC
  5
12DC
330
1E
100
AcDbEntity
  8
STEMPEL
100
AcDbCircle
 10
395.5947727928466
 20
461.7435947086852
 30
0.0
 40
1.0
100
AcDbArc
 50
208.5052745523264
 51
270.0
  0
ARC
  5
12DD
330
1E
100
AcDbEntity
  8
STEMPEL
100
AcDbCircle
 10
395.5947727928466
 20
461.7435947086852
 30
0.0
 40
3.0
100
AcDbArc
 50
208.5052745523264
 51
270.0
  0
LINE
  5
12DE
330
1E
100
AcDbEntity
  8
STEMPEL
100
AcDbLine
 10
391.3786708133116
 20
463.2208343693362
 30
0.0
 11
392.9584532453119
 21
460.3118757267316
 31
0.0
  0
ARC
  5
12DF
330
1E
100
AcDbEntity
  8
STEMPEL
100
AcDbCircle
 10
390.4998976308
 20
462.7435947086851
 30
0.0
 40
1.0
100
AcDbArc
 50
28.50527455232638
 51
90.0
  0
LINE
  5
12E0
330
1E
100
AcDbEntity
  8
STEMPEL
100
AcDbLine
 10
385.4947727928466
 20
458.7435947086851
 30
0.0
 11
385.4947727928466
 21
457.7435947086851
 31
0.0
  0
LINE
  5
12E2
330
1E
100
AcDbEntity
  8
STEMPEL
100
AcDbLine
 10
381.0947727928466
 20
463.7435947086851
 30
0.0
 11
381.0947727928466
 21
458.7435947086851
 31
0.0
  0
LINE
  5
12E3
330
1E
100
AcDbEntity
  8
STEMPEL
100
AcDbLine
 10
380.0947727928467
 20
465.7435947086852
 30
0.0
 11
380.0947727928467
 21
463.7435947086851
 31
0.0
  0
LINE
  5
12E4
330
1E
100
AcDbEntity
  8
STEMPEL
100
AcDbLine
 10
390.4998976308
 20
463.7435947086851
 30
0.0
 11
379.0947727928466
 21
463.7435947086851
 31
0.0
  0
LINE
  5
12E5
330
1E
100
AcDbEntity
  8
STEMPEL
100
AcDbLine
 10
458.5947727928466
 20
460.7435947086854
 30
0.0
 11
433.3475505706243
 21
460.7435947086854
 31
0.0
  0
LINE
  5
12E6
330
1E
100
AcDbEntity
  8
STEMPEL
100
AcDbLine
 10
432.5475505706243
 20
461.7435947086852
 30
0.0
 11
421.6419950150688
 21
461.7435947086852
 31
0.0
  0
ARC
  5
12E7
330
1E
100
AcDbEntity
  8
STEMPEL
100
AcDbCircle
 10
420.8419950150688
 20
461.1435947086852
 30
0.0
 40
0.4
100
AcDbArc
 50
270.0
 51
0.0
  0
ARC
  5
12E8
330
1E
100
AcDbEntity
  8
STEMPEL
100
AcDbCircle
 10
421.6419950150688
 20
461.3435947086852
 30
0.0
 40
0.4
100
AcDbArc
 50
90.0
 51
180.0
  0
LINE
  5
12E9
330
1E
100
AcDbEntity
  8
STEMPEL
100
AcDbLine
 10
421.2419950150688
 20
461.1435947086852
 30
0.0
 11
421.2419950150688
 21
461.3435947086852
 31
0.0
  0
ARC
  5
12EA
330
1E
100
AcDbEntity
  8
STEMPEL
100
AcDbCircle
 10
432.5475505706243
 20
461.343594708685
 30
0.0
 40
0.4
100
AcDbArc
 50
0.0
 51
90.0
  0
LINE
  5
12EB
330
1E
100
AcDbEntity
  8
STEMPEL
100
AcDbLine
 10
432.9475505706244
 20
461.1435947086852
 30
0.0
 11
432.9475505706244
 21
461.343594708685
 31
0.0
  0
ARC
  5
12EC
330
1E
100
AcDbEntity
  8
STEMPEL
100
AcDbCircle
 10
433.3475505706243
 20
461.1435947086852
 30
0.0
 40
0.4
100
AcDbArc
 50
180.0
 51
270.0
  0
ARC
  5
12ED
330
1E
100
AcDbEntity
  8
STEMPEL
100
AcDbCircle
 10
430.0586616817353
 20
461.1435947086853
 30
0.0
 40
0.4
100
AcDbArc
 50
270.0
 51
0.0
  0
LINE
  5
12EE
330
1E
100
AcDbEntity
  8
STEMPEL
100
AcDbLine
 10
430.4586616817354
 20
461.1435947086853
 30
0.0
 11
430.4586616817354
 21
461.343594708685
 31
0.0
  0
ARC
  5
12EF
330
1E
100
AcDbEntity
  8
STEMPEL
100
AcDbCircle
 10
428.3475505706244
 20
461.3435947086852
 30
0.0
 40
0.4
100
AcDbArc
 50
0.0
 51
90.0
  0
LINE
  5
12F0
330
1E
100
AcDbEntity
  8
STEMPEL
100
AcDbLine
 10
428.7475505706243
 20
461.1435947086852
 30
0.0
 11
428.7475505706243
 21
461.3435947086852
 31
0.0
  0
ARC
  5
12F1
330
1E
100
AcDbEntity
  8
STEMPEL
100
AcDbCircle
 10
429.1475505706243
 20
461.1435947086852
 30
0.0
 40
0.4
100
AcDbArc
 50
180.0
 51
270.0
  0
LINE
  5
12F2
330
1E
100
AcDbEntity
  8
STEMPEL
100
AcDbLine
 10
430.0586616817353
 20
460.7435947086854
 30
0.0
 11
429.1475505706243
 21
460.7435947086854
 31
0.0
  0
ARC
  5
12F3
330
1E
100
AcDbEntity
  8
STEMPEL
100
AcDbCircle
 10
425.8586616817354
 20
461.1435947086852
 30
0.0
 40
0.4
100
AcDbArc
 50
270.0
 51
0.0
  0
LINE
  5
12F4
330
1E
100
AcDbEntity
  8
STEMPEL
100
AcDbLine
 10
426.2586616817354
 20
461.1435947086852
 30
0.0
 11
426.2586616817354
 21
461.3435947086852
 31
0.0
  0
ARC
  5
12F5
330
1E
100
AcDbEntity
  8
STEMPEL
100
AcDbCircle
 10
426.6586616817353
 20
461.3435947086852
 30
0.0
 40
0.4
100
AcDbArc
 50
90.0
 51
180.0
  0
ARC
  5
12F6
330
1E
100
AcDbEntity
  8
STEMPEL
100
AcDbCircle
 10
430.8586616817354
 20
461.343594708685
 30
0.0
 40
0.4
100
AcDbArc
 50
90.0
 51
180.0
  0
LINE
  5
12F7
330
1E
100
AcDbEntity
  8
STEMPEL
100
AcDbLine
 10
475.0947727928465
 20
463.7435947086851
 30
0.0
 11
463.6896479548934
 21
463.7435947086851
 31
0.0
  0
LINE
  5
12F8
330
1E
100
AcDbEntity
  8
STEMPEL
100
AcDbLine
 10
468.6947727928465
 20
458.7435947086851
 30
0.0
 11
468.6947727928465
 21
457.7435947086851
 31
0.0
  0
LINE
  5
12FA
330
1E
100
AcDbEntity
  8
STEMPEL
100
AcDbLine
 10
462.0947727928466
 20
461.9022280852308
 30
0.0
 11
462.0947727928466
 21
458.7435947086851
 31
0.0
  0
ARC
  5
12FB
330
1E
100
AcDbEntity
  8
STEMPEL
100
AcDbCircle
 10
458.5947727928466
 20
461.7435947086852
 30
0.0
 40
1.0
100
AcDbArc
 50
270.0
 51
331.4947254476736
  0
LINE
  5
12FC
330
1E
100
AcDbEntity
  8
STEMPEL
100
AcDbLine
 10
461.0533284073585
 20
464.1753136906387
 30
0.0
 11
459.4735459753582
 21
461.266355048034
 31
0.0
  0
LINE
  5
12FD
330
1E
100
AcDbEntity
  8
STEMPEL
100
AcDbLine
 10
462.8108747723817
 20
463.2208343693363
 30
0.0
 11
461.2310923403815
 21
460.3118757267319
 31
0.0
  0
ARC
  5
12FE
330
1E
100
AcDbEntity
  8
STEMPEL
100
AcDbCircle
 10
458.5947727928466
 20
461.7435947086852
 30
0.0
 40
3.0
100
AcDbArc
 50
270.0
 51
331.4947254476736
  0
ARC
  5
12FF
330
1E
100
AcDbEntity
  8
STEMPEL
100
AcDbCircle
 10
463.6896479548934
 20
462.7435947086852
 30
0.0
 40
3.0
100
AcDbArc
 50
90.0
 51
151.4947254476736
  0
ARC
  5
1300
330
1E
100
AcDbEntity
  8
STEMPEL
100
AcDbCircle
 10
463.6896479548934
 20
462.7435947086852
 30
0.0
 40
1.0
100
AcDbArc
 50
90.0
 51
151.4947254476736
  0
LINE
  5
1301
330
1E
100
AcDbEntity
  8
STEMPEL
100
AcDbLine
 10
484.7447727928465
 20
474.6935947086852
 30
0.0
 11
484.7447727928465
 21
472.2321668100629
 31
0.0
  0
LINE
  5
1302
330
1E
100
AcDbEntity
  8
STEMPEL
100
AcDbLine
 10
473.4447727928465
 20
474.6935947086852
 30
0.0
 11
473.4447727928465
 21
472.2321668100629
 31
0.0
  0
ARC
  5
1303
330
1E
100
AcDbEntity
  8
STEMPEL
100
AcDbCircle
 10
479.0947727928466
 20
474.6935947086852
 30
0.0
 40
5.65
100
AcDbArc
 50
0.0
 51
180.0
  0
LINE
  5
1304
330
1E
100
AcDbEntity
  8
STEMPEL
100
AcDbLine
 10
486.2835807476626
 20
471.6576695196186
 30
0.0
 11
486.0143644306088
 21
471.8131016327399
 31
0.0
  0
LINE
  5
1305
330
1E
100
AcDbEntity
  8
STEMPEL
100
AcDbLine
 10
484.4812235176054
 20
472.2435947086853
 30
0.0
 11
484.4858529876522
 21
472.2435947086853
 31
0.0
  0
LINE
  5
1306
330
1E
100
AcDbEntity
  8
STEMPEL
100
AcDbLine
 10
486.2835807476626
 20
466.3295198977516
 30
0.0
 11
486.014364430578
 21
466.1740877846127
 31
0.0
  0
LINE
  5
1307
330
1E
100
AcDbEntity
  8
STEMPEL
100
AcDbLine
 10
484.4812235176054
 20
465.7435947086852
 30
0.0
 11
484.4858529876522
 21
465.7435947086852
 31
0.0
  0
LINE
  5
1308
330
1E
100
AcDbEntity
  8
STEMPEL
100
AcDbLine
 10
486.2835807476626
 20
471.6576695196186
 30
0.0
 11
486.2835807476626
 21
466.3295198977516
 31
0.0
  0
LINE
  5
1309
330
1E
100
AcDbEntity
  8
STEMPEL
100
AcDbLine
 10
482.6891767702546
 20
471.6268617434153
 30
0.0
 11
482.6891767702545
 21
466.3603276739554
 31
0.0
  0
LINE
  5
130A
330
1E
100
AcDbEntity
  8
STEMPEL
100
AcDbLine
 10
475.5003688154386
 20
471.6268617434153
 30
0.0
 11
475.5003688154386
 21
466.3603276739554
 31
0.0
  0
ARC
  5
130B
330
1E
100
AcDbEntity
  8
STEMPEL
100
AcDbCircle
 10
479.0947727928466
 20
476.5262999086852
 30
0.0
 40
10.7827052
100
AcDbArc
 50
250.5278273813862
 51
289.4721726186137
  0
ARC
  5
130C
330
1E
100
AcDbEntity
  8
STEMPEL
100
AcDbCircle
 10
479.0947727928466
 20
461.4608895086853
 30
0.0
 40
10.7827052
100
AcDbArc
 50
70.52782738138624
 51
109.4721726186137
  0
ARC
  5
130D
330
1E
100
AcDbEntity
  8
STEMPEL
100
AcDbCircle
 10
484.4863787589586
 20
468.6705456465486
 30
0.0
 40
2.926950985085932
100
AcDbArc
 50
232.1193642828185
 51
301.4691945241509
  0
ARC
  5
130E
330
1E
100
AcDbEntity
  8
STEMPEL
100
AcDbCircle
 10
484.4863787589586
 20
469.3166437708216
 30
0.0
 40
2.926950985085932
100
AcDbArc
 50
58.53080547515485
 51
127.8806357171815
  0
LINE
  5
130F
330
1E
100
AcDbEntity
  8
STEMPEL
100
AcDbLine
 10
471.9059648380305
 20
471.6576695196186
 30
0.0
 11
472.1751811551292
 21
471.8131016327658
 31
0.0
  0
LINE
  5
1310
330
1E
100
AcDbEntity
  8
STEMPEL
100
AcDbLine
 10
471.9059648380305
 20
466.3295198977516
 30
0.0
 11
472.175181155159
 21
466.1740877845873
 31
0.0
  0
LINE
  5
1311
330
1E
100
AcDbEntity
  8
STEMPEL
100
AcDbLine
 10
471.9059648380305
 20
471.6576695196186
 30
0.0
 11
471.9059648380305
 21
466.3295198977516
 31
0.0
  0
LINE
  5
1312
330
1E
100
AcDbEntity
  8
STEMPEL
100
AcDbLine
 10
473.7036925980212
 20
465.7435947086852
 30
0.0
 11
484.4858529876626
 21
465.7435947086852
 31
0.0
  0
ARC
  5
1313
330
1E
100
AcDbEntity
  8
STEMPEL
100
AcDbCircle
 10
473.7031668267346
 20
468.6705456465486
 30
0.0
 40
2.926950985085932
100
AcDbArc
 50
238.5308054768418
 51
307.8806357171815
  0
LINE
  5
1314
330
1E
100
AcDbEntity
  8
STEMPEL
100
AcDbLine
 10
473.7036925980212
 20
472.2435947086851
 30
0.0
 11
484.4858529876626
 21
472.2435947086853
 31
0.0
  0
ARC
  5
1315
330
1E
100
AcDbEntity
  8
STEMPEL
100
AcDbCircle
 10
473.7031668267346
 20
469.3166437708216
 30
0.0
 40
2.926950985085932
100
AcDbArc
 50
52.11936428281847
 51
121.4691945238291
  0
LINE
  5
1316
330
1E
100
AcDbEntity
  8
STEMPEL
100
AcDbLine
 10
487.5341388865876
 20
463.4712015837942
 30
0.0
 11
489.0947727928466
 21
457.228665958758
 31
0.0
  0
LINE
  5
1317
330
1E
100
AcDbEntity
  8
STEMPEL
100
AcDbLine
 10
484.6237113861516
 20
463.7435947086851
 30
0.0
 11
483.0947727928465
 21
463.7435947086851
 31
0.0
  0
LINE
  5
1318
330
1E
100
AcDbEntity
  8
STEMPEL
100
AcDbLine
 10
484.0947727928466
 20
465.7435947086852
 30
0.0
 11
484.0947727928466
 21
463.7435947086851
 31
0.0
  0
LINE
  5
1319
330
1E
100
AcDbEntity
  8
STEMPEL
100
AcDbLine
 10
473.0947727928465
 20
463.7435947086851
 30
0.0
 11
473.0947727928466
 21
458.7435947086851
 31
0.0
  0
LINE
  5
131A
330
1E
100
AcDbEntity
  8
STEMPEL
100
AcDbLine
 10
474.0947727928466
 20
465.7435947086852
 30
0.0
 11
474.0947727928466
 21
463.7435947086851
 31
0.0
  0
ARC
  5
131B
330
1E
100
AcDbEntity
  8
STEMPEL
100
AcDbCircle
 10
484.6237113861516
 20
462.7435947086851
 30
0.0
 40
3.0
100
AcDbArc
 50
14.03624346792648
 51
90.0
  0
ARC
  5
131C
330
1E
100
AcDbEntity
  8
STEMPEL
100
AcDbCircle
 10
484.6237113861516
 20
462.7435947086851
 30
0.0
 40
1.0
100
AcDbArc
 50
14.03624346792648
 51
90.0
  0
LINE
  5
1322
330
1E
100
AcDbEntity
  8
STEMPEL
  6
Continuous
100
AcDbLine
 10
495.5153284547931
 20
449.7435947086852
 30
0.0
 11
474.6947727928466
 21
449.7435947086851
 31
0.0
  0
ARC
  5
1323
330
1E
100
AcDbEntity
  8
STEMPEL
100
AcDbCircle
 10
379.4947727928466
 20
457.7435947086851
 30
0.0
 40
8.0
100
AcDbArc
 50
270.0
 51
0.0
  0
ARC
  5
1324
330
1E
100
AcDbEntity
  8
STEMPEL
100
AcDbCircle
 10
474.6947727928466
 20
457.7435947086851
 30
0.0
 40
8.0
100
AcDbArc
 50
180.0
 51
270.0
  0
LINE
  5
1325
330
1E
100
AcDbEntity
  8
STEMPEL
100
AcDbLine
 10
466.6947727928466
 20
458.7435947086851
 30
0.0
 11
466.6947727928466
 21
457.7435947086851
 31
0.0
  0
LINE
  5
1326
330
1E
100
AcDbEntity
  8
STEMPEL
100
AcDbLine
 10
387.4947727928466
 20
458.7435947086852
 30
0.0
 11
387.4947727928466
 21
457.7435947086852
 31
0.0
  0
LINE
  5
1327
330
1E
100
AcDbEntity
  8
STEMPEL
  6
Continuous
100
AcDbLine
 10
379.4947727928466
 20
451.7435947086851
 30
0.0
 11
177.0947727928462
 21
451.7435947087022
 31
0.0
  0
LINE
  5
1328
330
1E
100
AcDbEntity
  8
STEMPEL
  6
Continuous
100
AcDbLine
 10
379.4947727928466
 20
449.7435947086852
 30
0.0
 11
354.3600065056212
 21
449.7435947086851
 31
0.0
  0
TEXT
  5
1330
330
1E
100
AcDbEntity
  8
TEXT
 62
     1
100
AcDbText
 10
611.0339679107676
 20
130.0496326603988
 30
0.0
 40
7.0
  1
Werkstoff: SF-Cu DIN1754/1786
 41
0.8
  7
GREEKS
100
AcDbText
  0
TEXT
  5
133C
330
1E
100
AcDbEntity
  8
TEXT
 62
     1
100
AcDbText
 10
512.026467649684
 20
477.1541430040502
 30
0.0
 40
7.0
  1
EDV-Art.Nr. 55880.080N
 41
0.75
  7
GREEKS
100
AcDbText
  0
LINE
  5
133D
330
1E
100
AcDbEntity
  8
TEXT
 62
     2
100
AcDbLine
 10
511.7108442611338
 20
486.787231600775
 30
0.0
 11
612.3660216501707
 21
486.787231600775
 31
0.0
  0
LINE
  5
133E
330
1E
100
AcDbEntity
  8
TEXT
 62
     2
100
AcDbLine
 10
511.7108442611338
 20
486.787231600775
 30
0.0
 11
487.494806753929
 21
460.4568614605071
 31
0.0
  0
TEXT
  5
133F
330
1E
100
AcDbEntity
  8
TEXT
 62
     1
100
AcDbText
 10
512.026467649684
 20
490.1671370176715
 30
0.0
 40
7.0
  1
Deckel DN80
 41
0.75
  7
GREEKS
100
AcDbText
  0
ARC
  5
1346
330
1E
100
AcDbEntity
  8
HILF
100
AcDbCircle
 10
427.0947727928466
 20
486.87456632637
 30
0.0
 40
54.49238757857255
100
AcDbArc
 50
221.7801556182497
 51
318.2198443817504
  0
HATCH
  5
135D
330
1E
100
AcDbEntity
  8
SCHRAFF
100
AcDbHatch
 10
0.0
 20
0.0
 30
0.0
210
0.0
220
0.0
230
1.0
  2
_USER
 70
     0
 71
     0
 91
        2
 92
        7
 72
     1
 73
     1
 93
        8
 10
474.6947727928466
 20
451.7435947086851
 42
-0.4142135623730978
 10
468.6947727928465
 20
457.7435947086851
 42
0.0
 10
468.6947727928465
 20
458.7435947086851
 42
0.0
 10
466.6947727928466
 20
458.7435947086851
 42
0.0
 10
466.6947727928466
 20
457.7435947086851
 42
0.4142135623730951
 10
474.6947727928466
 20
449.7435947086851
 42
0.0
 10
495.5153284547932
 20
449.7435947086853
 42
0.0
 10
496.7877765173822
 20
451.7435947086851
 42
0.0
 97
        0
 92
        7
 72
     1
 73
     1
 93
        8
 10
379.4947727928466
 20
449.7435947086852
 42
0.414213562373097
 10
387.4947727928466
 20
457.7435947086852
 42
0.0
 10
387.4947727928465
 20
458.7435947086851
 42
0.0
 10
385.4947727928466
 20
458.7435947086851
 42
0.0
 10
385.4947727928466
 20
457.7435947086851
 42
-0.4142135623730951
 10
379.4947727928466
 20
451.7435947086851
 42
0.0
 10
353.0757500341016
 20
451.7435947086851
 42
0.0
 10
354.3600065056211
 20
449.7435947086851
 42
0.0
 97
        0
 75
     0
 76
     0
 52
45.0
 41
2.0
 77
     0
 78
     1
 53
45.0
 43
-20.0
 44
0.0
 45
-1.414213562373094
 46
1.414213562373095
 79
     0
 47
0.2864021791813927
 98
        2
 10
477.7312662075632
 20
451.2042734303556
 10
362.269726216804
 20
450.0586648271969
  0
ENDSEC
  0
SECTION
  2
OBJECTS
  0
DICTIONARY
  5
C
330
0
100
AcDbDictionary
281
     1
  3
ACAD_COLOR
350
11A
  3
ACAD_GROUP
350
D
  3
ACAD_LAYOUT
350
19
  3
ACAD_MATERIAL
350
119
  3
ACAD_MLINESTYLE
350
16
  3
ACAD_PLOTSETTINGS
350
18
  3
ACAD_PLOTSTYLENAME
350
E
  3
AcDbVariableDictionary
350
125
  0
DICTIONARY
  5
DB
330
1E
100
AcDbDictionary
280
     1
281
     1
  3
ACAD_LAYOUTSELFREF
360
10F
  0
DICTIONARY
  5
DD
330
1A
100
AcDbDictionary
280
     1
281
     1
  3
ACAD_LAYOUTSELFREF
360
10E
  0
DICTIONARY
  5
11A
102
{ACAD_REACTORS
330
C
102
}
330
C
100
AcDbDictionary
281
     1
  0
DICTIONARY
  5
D
102
{ACAD_REACTORS
330
C
102
}
330
C
100
AcDbDictionary
281
     1
  0
DICTIONARY
  5
19
102
{ACAD_REACTORS
330
C
102
}
330
C
100
AcDbDictionary
281
     1
  3
Layout1
350
1D
  3
Model
350
21
  0
DICTIONARY
  5
119
102
{ACAD_REACTORS
330
C
102
}
330
C
100
AcDbDictionary
281
     1
  0
DICTIONARY
  5
16
102
{ACAD_REACTORS
330
C
102
}
330
C
100
AcDbDictionary
281
     1
  3
Standard
350
17
  0
DICTIONARY
  5
18
102
{ACAD_REACTORS
330
C
102
}
330
C
100
AcDbDictionary
281
     1
  0
ACDBDICTIONARYWDFLT
  5
E
102
{ACAD_REACTORS
330
C
102
}
330
C
100
AcDbDictionary
281
     1
  3
Normal
350
F
100
AcDbDictionaryWithDefault
340
F
  0
DICTIONARY
  5
125
102
{ACAD_REACTORS
330
C
102
}
330
C
100
AcDbDictionary
281
     1
  3
DIMASSOC
350
126
  3
PROJECTNAME
350
127
  0
XRECORD
  5
10F
102
{ACAD_REACTORS
330
DB
102
}
330
DB
100
AcDbXrecord
280
     1
340
1E
  0
XRECORD
  5
10E
102
{ACAD_REACTORS
330
DD
102
}
330
DD
100
AcDbXrecord
280
     1
340
1A
  0
LAYOUT
  5
1D
102
{ACAD_REACTORS
330
19
102
}
330
19
100
AcDbPlotSettings
  1

  2
\\NT_WORK01\HP LaserJet 5000 PCL 6
  4

  6

 40
0.0
 41
0.0
 42
0.0
 43
0.0
 44
0.0
 45
0.0
 46
0.0
 47
0.0
 48
0.0
 49
0.0
140
0.0
141
0.0
142
1.0
143
1.0
 70
   688
 72
     0
 73
     0
 74
     5
  7

 75
    16
147
1.0
 76
     0
 77
     2
 78
   300
148
0.0
149
0.0
100
AcDbLayout
  1
Layout1
 70
     0
 71
     1
 10
0.0
 20
0.0
 11
12.0
 21
9.0
 12
0.0
 22
0.0
 32
0.0
 14
1.000000000000000E+20
 24
1.000000000000000E+20
 34
1.000000000000000E+20
 15
-1.000000000000000E+20
 25
-1.000000000000000E+20
 35
-1.000000000000000E+20
146
0.0
 13
0.0
 23
0.0
 33
0.0
 16
1.0
 26
0.0
 36
0.0
 17
0.0
 27
1.0
 37
0.0
 76
     0
330
1A
  0
LAYOUT
  5
21
102
{ACAD_REACTORS
330
19
102
}
330
19
100
AcDbPlotSettings
  1

  2
none_device
  4
Letter_(8.50_x_11.00_Inches)
  6

 40
6.349999904632568
 41
6.349999904632568
 42
6.350006103515625
 43
6.350006103515625
 44
215.8999938964844
 45
279.3999938964844
 46
0.0
 47
0.0
 48
0.0
 49
0.0
140
0.0
141
0.0
142
1.0
143
1.0
 70
 11952
 72
     0
 73
     1
 74
     0
  7

 75
     0
147
1.0
 76
     0
 77
     2
 78
   300
148
-2842.081174755392
149
282.1188252446124
100
AcDbLayout
  1
Model
 70
     1
 71
     0
 10
0.0
 20
0.0
 11
12.0
 21
9.0
 12
0.0
 22
0.0
 32
0.0
 14
0.0
 24
0.0
 34
0.0
 15
0.0
 25
0.0
 35
0.0
146
0.0
 13
0.0
 23
0.0
 33
0.0
 16
1.0
 26
0.0
 36
0.0
 17
0.0
 27
1.0
 37
0.0
 76
     0
330
1E
  0
MLINESTYLE
  5
17
102
{ACAD_REACTORS
330
16
102
}
330
16
100
AcDbMlineStyle
  2
STANDARD
 70
     0
  3

 62
   256
 51
90.0
 52
90.0
 71
     2
 49
0.5
 62
   256
  6
BYLAYER
 49
-0.5
 62
   256
  6
BYLAYER
  0
ACDBPLACEHOLDER
  5
F
102
{ACAD_REACTORS
330
E
102
}
330
E
  0
DICTIONARYVAR
  5
126
102
{ACAD_REACTORS
330
125
102
}
330
125
100
DictionaryVariables
280
     0
  1
1
  0
DICTIONARYVAR
  5
127
102
{ACAD_REACTORS
330
125
102
}
330
125
100
DictionaryVariables
280
     0
  1

  0
ENDSEC
  0
EOF
