  0
SECTION
  2
HEADER
  9
$ACADVER
  1
AC1018
  9
$ACADMAINTVER
 70
     2
  9
$DWGCODEPAGE
  3
ANSI_1252
  9
$INSBASE
 10
214.18963059078
 20
83.98788932831553
 30
0.0
  9
$EXTMIN
 10
-0.0064041928748111
 20
-0.0090573584943741
 30
-0.0000000000112498
  9
$EXTMAX
 10
420.0064100605656
 20
594.0090656570853
 30
0.0000000000002956
  9
$LIMMIN
 10
0.0
 20
0.0
  9
$LIMMAX
 10
420.0
 20
594.0
  9
$ORTHOMODE
 70
     1
  9
$REGENMODE
 70
     1
  9
$FILLMODE
 70
     1
  9
$QTEXTMODE
 70
     0
  9
$MIRRTEXT
 70
     1
  9
$LTSCALE
 40
20.0
  9
$ATTMODE
 70
     1
  9
$TEXTSIZE
 40
3.5
  9
$TRACEWID
 40
1.0
  9
$TEXTSTYLE
  7
STANDARD
  9
$CLAYER
  8
SCHRAFF
  9
$CELTYPE
  6
ByLayer
  9
$CECOLOR
 62
   256
  9
$CELTSCALE
 40
1.0
  9
$DISPSILH
 70
     0
  9
$DIMSCALE
 40
2.0
  9
$DIMASZ
 40
3.5
  9
$DIMEXO
 40
1.0
  9
$DIMDLI
 40
7.0
  9
$DIMRND
 40
0.0
  9
$DIMDLE
 40
0.0
  9
$DIMEXE
 40
1.0
  9
$DIMTP
 40
0.4
  9
$DIMTM
 40
0.0
  9
$DIMTXT
 40
3.5
  9
$DIMCEN
 40
1.5
  9
$DIMTSZ
 40
0.0
  9
$DIMTOL
 70
     0
  9
$DIMLIM
 70
     0
  9
$DIMTIH
 70
     0
  9
$DIMTOH
 70
     0
  9
$DIMSE1
 70
     0
  9
$DIMSE2
 70
     0
  9
$DIMTAD
 70
     1
  9
$DIMZIN
 70
     8
  9
$DIMBLK
  1

  9
$DIMASO
 70
     1
  9
$DIMSHO
 70
     0
  9
$DIMPOST
  1

  9
$DIMAPOST
  1

  9
$DIMALT
 70
     0
  9
$DIMALTD
 70
     2
  9
$DIMALTF
 40
25.4
  9
$DIMLFAC
 40
1.0
  9
$DIMTOFL
 70
     1
  9
$DIMTVP
 40
0.5714285714285714
  9
$DIMTIX
 70
     0
  9
$DIMSOXD
 70
     0
  9
$DIMSAH
 70
     0
  9
$DIMBLK1
  1

  9
$DIMBLK2
  1

  9
$DIMSTYLE
  2
Standard
  9
$DIMCLRD
 70
     0
  9
$DIMCLRE
 70
     0
  9
$DIMCLRT
 70
     1
  9
$DIMTFAC
 40
0.5
  9
$DIMGAP
 40
1.5
  9
$DIMJUST
 70
     0
  9
$DIMSD1
 70
     0
  9
$DIMSD2
 70
     0
  9
$DIMTOLJ
 70
     1
  9
$DIMTZIN
 70
     8
  9
$DIMALTZ
 70
     8
  9
$DIMALTTZ
 70
     8
  9
$DIMUPT
 70
     0
  9
$DIMDEC
 70
     2
  9
$DIMTDEC
 70
     2
  9
$DIMALTU
 70
     2
  9
$DIMALTTD
 70
     2
  9
$DIMTXSTY
  7
STANDARD
  9
$DIMAUNIT
 70
     0
  9
$DIMADEC
 70
     2
  9
$DIMALTRND
 40
0.0
  9
$DIMAZIN
 70
     2
  9
$DIMDSEP
 70
    46
  9
$DIMATFIT
 70
     3
  9
$DIMFRAC
 70
     0
  9
$DIMLDRBLK
  1

  9
$DIMLUNIT
 70
     2
  9
$DIMLWD
 70
    -2
  9
$DIMLWE
 70
    -2
  9
$DIMTMOVE
 70
     0
  9
$LUNITS
 70
     2
  9
$LUPREC
 70
     2
  9
$SKETCHINC
 40
1.0
  9
$FILLETRAD
 40
8.0
  9
$AUNITS
 70
     0
  9
$AUPREC
 70
     0
  9
$MENU
  1
ACAD
  9
$ELEVATION
 40
0.0
  9
$PELEVATION
 40
0.0
  9
$THICKNESS
 40
0.0
  9
$LIMCHECK
 70
     0
  9
$CHAMFERA
 40
0.0
  9
$CHAMFERB
 40
0.0
  9
$CHAMFERC
 40
0.0
  9
$CHAMFERD
 40
0.0
  9
$SKPOLY
 70
     0
  9
$TDCREATE
 40
2451302.343576042
  9
$TDUCREATE
 40
2451302.260242709
  9
$TDUPDATE
 40
2455454.593751898
  9
$TDUUPDATE
 40
2455454.510418565
  9
$TDINDWG
 40
0.0673420255
  9
$TDUSRTIMER
 40
0.0673420255
  9
$USRTIMER
 70
     1
  9
$ANGBASE
 50
0.0
  9
$ANGDIR
 70
     0
  9
$PDMODE
 70
     0
  9
$PDSIZE
 40
0.0
  9
$PLINEWID
 40
0.0
  9
$SPLFRAME
 70
     0
  9
$SPLINETYPE
 70
     6
  9
$SPLINESEGS
 70
     8
  9
$HANDSEED
  5
83C
  9
$SURFTAB1
 70
     6
  9
$SURFTAB2
 70
     6
  9
$SURFTYPE
 70
     6
  9
$SURFU
 70
     6
  9
$SURFV
 70
     6
  9
$UCSBASE
  2

  9
$UCSNAME
  2

  9
$UCSORG
 10
0.0
 20
0.0
 30
0.0
  9
$UCSXDIR
 10
1.0
 20
0.0
 30
0.0
  9
$UCSYDIR
 10
0.0
 20
1.0
 30
0.0
  9
$UCSORTHOREF
  2

  9
$UCSORTHOVIEW
 70
     0
  9
$UCSORGTOP
 10
0.0
 20
0.0
 30
0.0
  9
$UCSORGBOTTOM
 10
0.0
 20
0.0
 30
0.0
  9
$UCSORGLEFT
 10
0.0
 20
0.0
 30
0.0
  9
$UCSORGRIGHT
 10
0.0
 20
0.0
 30
0.0
  9
$UCSORGFRONT
 10
0.0
 20
0.0
 30
0.0
  9
$UCSORGBACK
 10
0.0
 20
0.0
 30
0.0
  9
$PUCSBASE
  2

  9
$PUCSNAME
  2

  9
$PUCSORG
 10
0.0
 20
0.0
 30
0.0
  9
$PUCSXDIR
 10
1.0
 20
0.0
 30
0.0
  9
$PUCSYDIR
 10
0.0
 20
1.0
 30
0.0
  9
$PUCSORTHOREF
  2

  9
$PUCSORTHOVIEW
 70
     0
  9
$PUCSORGTOP
 10
0.0
 20
0.0
 30
0.0
  9
$PUCSORGBOTTOM
 10
0.0
 20
0.0
 30
0.0
  9
$PUCSORGLEFT
 10
0.0
 20
0.0
 30
0.0
  9
$PUCSORGRIGHT
 10
0.0
 20
0.0
 30
0.0
  9
$PUCSORGFRONT
 10
0.0
 20
0.0
 30
0.0
  9
$PUCSORGBACK
 10
0.0
 20
0.0
 30
0.0
  9
$USERI1
 70
     0
  9
$USERI2
 70
     0
  9
$USERI3
 70
     0
  9
$USERI4
 70
     0
  9
$USERI5
 70
     0
  9
$USERR1
 40
0.0
  9
$USERR2
 40
0.0
  9
$USERR3
 40
0.0
  9
$USERR4
 40
0.0
  9
$USERR5
 40
0.0
  9
$WORLDVIEW
 70
     1
  9
$SHADEDGE
 70
     3
  9
$SHADEDIF
 70
    70
  9
$TILEMODE
 70
     1
  9
$MAXACTVP
 70
    16
  9
$PINSBASE
 10
0.0
 20
0.0
 30
0.0
  9
$PLIMCHECK
 70
     0
  9
$PEXTMIN
 10
1.000000000000000E+20
 20
1.000000000000000E+20
 30
1.000000000000000E+20
  9
$PEXTMAX
 10
-1.000000000000000E+20
 20
-1.000000000000000E+20
 30
-1.000000000000000E+20
  9
$PLIMMIN
 10
0.0
 20
0.0
  9
$PLIMMAX
 10
12.0
 20
9.0
  9
$UNITMODE
 70
     0
  9
$VISRETAIN
 70
     0
  9
$PLINEGEN
 70
     0
  9
$PSLTSCALE
 70
     0
  9
$TREEDEPTH
 70
  3020
  9
$CMLSTYLE
  2
Standard
  9
$CMLJUST
 70
     0
  9
$CMLSCALE
 40
1.0
  9
$PROXYGRAPHICS
 70
     1
  9
$MEASUREMENT
 70
     0
  9
$CELWEIGHT
370
    -1
  9
$ENDCAPS
280
     0
  9
$JOINSTYLE
280
     0
  9
$LWDISPLAY
290
     0
  9
$INSUNITS
 70
     0
  9
$HYPERLINKBASE
  1

  9
$STYLESHEET
  1
monochrome 1.ctb
  9
$XEDIT
290
     1
  9
$CEPSNTYPE
380
     0
  9
$PSTYLEMODE
290
     1
  9
$FINGERPRINTGUID
  2
{20CE268D-DD25-468F-A7A1-9FAEDB806B08}
  9
$VERSIONGUID
  2
{F02A32F5-A79B-43F0-9671-F137795EE192}
  9
$EXTNAMES
290
     1
  9
$PSVPSCALE
 40
0.0
  9
$OLESTARTUP
290
     0
  9
$SORTENTS
280
   127
  9
$INDEXCTL
280
     0
  9
$HIDETEXT
280
     1
  9
$XCLIPFRAME
290
     0
  9
$HALOGAP
280
     0
  9
$OBSCOLOR
 70
   257
  9
$OBSLTYPE
280
     0
  9
$INTERSECTIONDISPLAY
280
     0
  9
$INTERSECTIONCOLOR
 70
   257
  9
$DIMASSOC
280
     2
  9
$PROJECTNAME
  1

  0
ENDSEC
  0
SECTION
  2
CLASSES
  0
CLASS
  1
ACDBDICTIONARYWDFLT
  2
AcDbDictionaryWithDefault
  3
ObjectDBX Classes
 90
        0
 91
        1
280
     0
281
     0
  0
CLASS
  1
DIMASSOC
  2
AcDbDimAssoc
  3
"AcDbDimAssoc|Product Desc:     AcDim ARX App For Dimension|Company:          Autodesk, Inc.|WEB Address:      www.autodesk.com"
 90
        0
 91
        1
280
     0
281
     0
  0
CLASS
  1
DICTIONARYVAR
  2
AcDbDictionaryVar
  3
ObjectDBX Classes
 90
        0
 91
        3
280
     0
281
     0
  0
ENDSEC
  0
SECTION
  2
TABLES
  0
TABLE
  2
VPORT
  5
8
330
0
100
AcDbSymbolTable
 70
     2
  0
VPORT
  5
83B
330
8
100
AcDbSymbolTableRecord
100
AcDbViewportTableRecord
  2
*Active
 70
     0
 10
0.0
 20
0.0
 11
1.0
 21
1.0
 12
210.0000029338454
 22
297.0000041492955
 13
0.0
 23
0.0
 14
2.5
 24
2.5
 15
10.0
 25
10.0
 16
0.0
 26
0.0
 36
1.0
 17
0.0
 27
0.0
 37
0.0
 40
598.8150392175898
 41
1.336927223719676
 42
50.0
 43
0.0
 44
0.0
 50
0.0
 51
0.0
 71
     0
 72
   500
 73
     1
 74
     0
 75
     0
 76
     0
 77
     0
 78
     0
281
     0
 65
     1
110
0.0
120
0.0
130
0.0
111
1.0
121
0.0
131
0.0
112
0.0
122
1.0
132
0.0
 79
     0
146
0.0
  0
ENDTAB
  0
TABLE
  2
LTYPE
  5
5
330
0
100
AcDbSymbolTable
 70
     2
  0
LTYPE
  5
13
330
5
100
AcDbSymbolTableRecord
100
AcDbLinetypeTableRecord
  2
ByBlock
 70
     0
  3

 72
    65
 73
     0
 40
0.0
  0
LTYPE
  5
14
330
5
100
AcDbSymbolTableRecord
100
AcDbLinetypeTableRecord
  2
ByLayer
 70
     0
  3

 72
    65
 73
     0
 40
0.0
  0
LTYPE
  5
15
330
5
100
AcDbSymbolTableRecord
100
AcDbLinetypeTableRecord
  2
Continuous
 70
     0
  3
Solid line
 72
    65
 73
     0
 40
0.0
  0
LTYPE
  5
51
330
5
100
AcDbSymbolTableRecord
100
AcDbLinetypeTableRecord
  2
STRICHPUNKT
 70
     0
  3
__ . __ . __ . __ . __ . __ . __ . __ . __ . __
 72
    65
 73
     4
 40
1.0
 49
0.5
 74
     0
 49
-0.25
 74
     0
 49
0.0
 74
     0
 49
-0.25
 74
     0
  0
ENDTAB
  0
TABLE
  2
LAYER
  5
2
330
0
100
AcDbSymbolTable
 70
     9
  0
LAYER
  5
10
330
2
100
AcDbSymbolTableRecord
100
AcDbLayerTableRecord
  2
0
 70
     0
 62
     7
  6
Continuous
370
    -3
390
F
  0
LAYER
  5
54
330
2
100
AcDbSymbolTableRecord
100
AcDbLayerTableRecord
  2
VOLL
 70
     0
 62
     1
  6
Continuous
370
    -3
390
F
  0
LAYER
  5
55
330
2
100
AcDbSymbolTableRecord
100
AcDbLayerTableRecord
  2
MITTEL
 70
     0
 62
     2
  6
STRICHPUNKT
370
    -3
390
F
  0
LAYER
  5
56
330
2
100
AcDbSymbolTableRecord
100
AcDbLayerTableRecord
  2
BEM
 70
     0
 62
     7
  6
Continuous
370
    -3
390
F
  0
LAYER
  5
57
330
2
100
AcDbSymbolTableRecord
100
AcDbLayerTableRecord
  2
HILF
 70
     0
 62
     2
  6
Continuous
370
    -3
390
F
  0
LAYER
  5
58
330
2
100
AcDbSymbolTableRecord
100
AcDbLayerTableRecord
  2
SCHRAFF
 70
     0
 62
     7
  6
Continuous
370
    -3
390
F
  0
LAYER
  5
59
330
2
100
AcDbSymbolTableRecord
100
AcDbLayerTableRecord
  2
STEMPEL
 70
     0
 62
     3
  6
Continuous
370
    -3
390
F
  0
LAYER
  5
5A
330
2
100
AcDbSymbolTableRecord
100
AcDbLayerTableRecord
  2
TEXT
 70
     0
 62
     7
  6
Continuous
370
    -3
390
F
  0
LAYER
  5
5B
330
2
100
AcDbSymbolTableRecord
100
AcDbLayerTableRecord
  2
DEFPOINTS
 70
     0
 62
     7
  6
Continuous
290
     0
370
    -3
390
F
  0
ENDTAB
  0
TABLE
  2
STYLE
  5
3
330
0
100
AcDbSymbolTable
 70
     2
  0
STYLE
  5
11
330
3
100
AcDbSymbolTableRecord
100
AcDbTextStyleTableRecord
  2
STANDARD
 70
     0
 40
0.0
 41
0.8
 50
0.0
 71
     0
 42
3.5
  3
simplex.shx
  4

  0
STYLE
  5
50
330
3
100
AcDbSymbolTableRecord
100
AcDbTextStyleTableRecord
  2
GREEKS
 70
     0
 40
0.0
 41
0.8
 50
0.0
 71
     0
 42
1.8
  3
SIMPLEX.shx
  4

  0
ENDTAB
  0
TABLE
  2
VIEW
  5
6
330
0
100
AcDbSymbolTable
 70
     0
  0
ENDTAB
  0
TABLE
  2
UCS
  5
7
330
0
100
AcDbSymbolTable
 70
     0
  0
ENDTAB
  0
TABLE
  2
APPID
  5
9
330
0
100
AcDbSymbolTable
 70
     1
  0
APPID
  5
12
330
9
100
AcDbSymbolTableRecord
100
AcDbRegAppTableRecord
  2
ACAD
 70
     0
  0
ENDTAB
  0
TABLE
  2
DIMSTYLE
  5
A
330
0
100
AcDbSymbolTable
 70
     1
100
AcDbDimStyleTable
 71
     1
340
5AE
  0
DIMSTYLE
105
5AE
102
{ACAD_REACTORS
330
5AC
330
5AA
330
6FA
102
}
330
A
100
AcDbSymbolTableRecord
100
AcDbDimStyleTableRecord
  2
Standard
 70
     0
340
11
  0
ENDTAB
  0
TABLE
  2
BLOCK_RECORD
  5
1
330
0
100
AcDbSymbolTable
 70
     4
  0
BLOCK_RECORD
  5
20
330
1
100
AcDbSymbolTableRecord
100
AcDbBlockTableRecord
  2
*Model_Space
340
23
  0
BLOCK_RECORD
  5
1C
330
1
100
AcDbSymbolTableRecord
100
AcDbBlockTableRecord
  2
*Paper_Space
340
1F
  0
BLOCK_RECORD
  5
24
330
1
100
AcDbSymbolTableRecord
100
AcDbBlockTableRecord
  2
LOGO
340
0
102
{BLKREFS
331
4A3
102
}
  0
BLOCK_RECORD
  5
5AF
330
1
100
AcDbSymbolTableRecord
100
AcDbBlockTableRecord
  2
*D1
340
0
  0
BLOCK_RECORD
  5
5C7
330
1
100
AcDbSymbolTableRecord
100
AcDbBlockTableRecord
  2
*D2
340
0
  0
BLOCK_RECORD
  5
6FB
330
1
100
AcDbSymbolTableRecord
100
AcDbBlockTableRecord
  2
*D3
340
0
  0
ENDTAB
  0
ENDSEC
  0
SECTION
  2
BLOCKS
  0
BLOCK
  5
5F
330
20
100
AcDbEntity
  8
0
100
AcDbBlockBegin
  2
*Model_Space
 70
     0
 10
0.0
 20
0.0
 30
0.0
  3
*Model_Space
  1

  0
ENDBLK
  5
60
330
20
100
AcDbEntity
  8
0
100
AcDbBlockEnd
  0
BLOCK
  5
5D
330
1C
100
AcDbEntity
 67
     1
  8
0
100
AcDbBlockBegin
  2
*Paper_Space
 70
     0
 10
0.0
 20
0.0
 30
0.0
  3
*Paper_Space
  1

  0
ENDBLK
  5
5E
330
1C
100
AcDbEntity
 67
     1
  8
0
100
AcDbBlockEnd
  0
BLOCK
  5
61
330
24
100
AcDbEntity
  8
0
100
AcDbBlockBegin
  2
LOGO
 70
     0
 10
0.0
 20
0.0
 30
0.0
  3
LOGO
  1

  0
ARC
  5
62
330
24
100
AcDbEntity
  8
0
100
AcDbCircle
 10
11.59973089678112
 20
-9.271599258481501
 30
0.0
 40
4.5
100
AcDbArc
 50
270.0
 51
231.0575587310159
  0
LINE
  5
63
330
24
100
AcDbEntity
  8
0
100
AcDbLine
 10
3.599730896781125
 20
-4.771599258481529
 30
0.0
 11
3.599730896781153
 21
-11.77159925848133
 31
0.0
  0
LINE
  5
64
330
24
100
AcDbEntity
  8
0
100
AcDbLine
 10
2.599730896781125
 20
-4.771599258481529
 30
0.0
 11
2.599730896781153
 21
-11.77159925848133
 31
0.0
  0
CIRCLE
  5
65
330
24
100
AcDbEntity
  8
0
100
AcDbCircle
 10
11.59973089678112
 20
-9.271599258481501
 30
0.0
 40
3.5
  0
ARC
  5
66
330
24
100
AcDbEntity
  8
0
100
AcDbCircle
 10
31.59973089678115
 20
-9.271599258481472
 30
0.0
 40
4.5
100
AcDbArc
 50
270.0
 51
231.0575587310182
  0
LINE
  5
67
330
24
100
AcDbEntity
  8
0
100
AcDbLine
 10
17.59973089678112
 20
-4.771599258481472
 30
0.0
 11
17.59973089678115
 21
-13.77159925848147
 31
0.0
  0
ARC
  5
68
330
24
100
AcDbEntity
  8
0
100
AcDbCircle
 10
22.59973089678116
 20
-7.271599258481472
 30
0.0
 40
2.5
100
AcDbArc
 50
293.1161887722295
 51
90.0
  0
CIRCLE
  5
69
330
24
100
AcDbEntity
  8
0
100
AcDbCircle
 10
31.59973089678115
 20
-9.271599258481472
 30
0.0
 40
3.5
  0
ARC
  5
6A
330
24
100
AcDbEntity
  8
0
100
AcDbCircle
 10
4.599730896781153
 20
-11.77159925848133
 30
0.0
 40
1.0
100
AcDbArc
 50
180.0
 51
270.0
  0
ARC
  5
6B
330
24
100
AcDbEntity
  8
0
100
AcDbCircle
 10
4.599730896781153
 20
-11.77159925848133
 30
0.0
 40
2.0
100
AcDbArc
 50
179.9999999999992
 51
270.0
  0
LINE
  5
6C
330
24
100
AcDbEntity
  8
0
100
AcDbLine
 10
11.59973089678115
 20
-13.77159925848144
 30
0.0
 11
4.599730896781153
 21
-13.77159925848147
 31
0.0
  0
LINE
  5
6D
330
24
100
AcDbEntity
  8
0
100
AcDbLine
 10
8.771303772034769
 20
-12.77159925848136
 30
0.0
 11
4.599730896781153
 21
-12.77159925848133
 31
0.0
  0
LINE
  5
6E
330
24
100
AcDbEntity
  8
0
100
AcDbLine
 10
31.59973089678115
 20
-13.77159925848147
 30
0.0
 11
23.6715276665056
 21
-13.77159925848144
 31
0.0
  0
LINE
  5
6F
330
24
100
AcDbEntity
  8
0
100
AcDbLine
 10
23.56565672307022
 20
-9.51278021337896
 30
0.0
 11
24.4388546544846
 21
-12.77159925848144
 31
0.0
  0
LINE
  5
70
330
24
100
AcDbEntity
  8
0
100
AcDbLine
 10
22.59973089678116
 20
-9.771599258481472
 30
0.0
 11
18.59973089678112
 21
-9.771599258481472
 31
0.0
  0
LINE
  5
71
330
24
100
AcDbEntity
  8
0
100
AcDbLine
 10
18.59973089678115
 20
-13.77159925848144
 30
0.0
 11
17.59973089678115
 21
-13.77159925848144
 31
0.0
  0
LINE
  5
72
330
24
100
AcDbEntity
  8
0
100
AcDbLine
 10
18.59973089678115
 20
-9.771599258481472
 30
0.0
 11
18.59973089678115
 21
-13.77159925848144
 31
0.0
  0
LINE
  5
73
330
24
100
AcDbEntity
  8
0
100
AcDbLine
 10
22.59973089678116
 20
-9.771599258481472
 30
0.0
 11
23.67152766650562
 21
-13.77159925848147
 31
0.0
  0
ARC
  5
74
330
24
100
AcDbEntity
  8
0
100
AcDbCircle
 10
22.59973089678116
 20
-7.271599258481472
 30
0.0
 40
2.5
100
AcDbArc
 50
270.0
 51
270.0000000000007
  0
LINE
  5
75
330
24
100
AcDbEntity
  8
0
100
AcDbLine
 10
28.77130377203494
 20
-12.77159925848147
 30
0.0
 11
24.43885465448463
 21
-12.77159925848144
 31
0.0
  0
LINE
  5
76
330
24
100
AcDbEntity
  8
0
100
AcDbLine
 10
3.599730896781125
 20
-4.771599258481472
 30
0.0
 11
2.599730896781125
 21
-4.771599258481472
 31
0.0
  0
LINE
  5
77
330
24
100
AcDbEntity
  8
0
100
AcDbLine
 10
22.59973089678116
 20
-8.771599258481472
 30
0.0
 11
18.59973089678115
 21
-8.771599258481472
 31
0.0
  0
LINE
  5
78
330
24
100
AcDbEntity
  8
0
100
AcDbLine
 10
22.59973089678116
 20
-5.771599258481472
 30
0.0
 11
18.59973089678115
 21
-5.771599258481472
 31
0.0
  0
LINE
  5
79
330
24
100
AcDbEntity
  8
0
100
AcDbLine
 10
22.59973089678116
 20
-4.771599258481472
 30
0.0
 11
17.59973089678115
 21
-4.771599258481472
 31
0.0
  0
LINE
  5
7A
330
24
100
AcDbEntity
  8
0
100
AcDbLine
 10
18.59973089678115
 20
-5.771599258481472
 30
0.0
 11
18.59973089678115
 21
-8.771599258481472
 31
0.0
  0
ARC
  5
7B
330
24
100
AcDbEntity
  8
0
100
AcDbCircle
 10
22.59973089678116
 20
-7.271599258481472
 30
0.0
 40
1.5
100
AcDbArc
 50
270.0
 51
90.0
  0
ENDBLK
  5
7C
330
24
100
AcDbEntity
  8
0
100
AcDbBlockEnd
  0
BLOCK
  5
5B9
330
5AF
100
AcDbEntity
  8
0
100
AcDbBlockBegin
  2
*D1
 70
     1
 10
0.0
 20
0.0
 30
0.0
  3
*D1
  1

  0
LINE
  5
5B0
330
5AF
100
AcDbEntity
  8
BEM
 62
     0
370
    -2
100
AcDbLine
 10
206.9906948654097
 20
213.0745140112899
 30
0.0
 11
206.9906948654097
 21
184.4455593565702
 31
0.0
  0
LINE
  5
5B1
330
5AF
100
AcDbEntity
  8
BEM
 62
     0
370
    -2
100
AcDbLine
 10
248.9906948654097
 20
213.0745140112896
 30
0.0
 11
248.9906948654097
 21
184.4455593565702
 31
0.0
  0
LINE
  5
5B2
330
5AF
100
AcDbEntity
  8
BEM
 62
     0
370
    -2
100
AcDbLine
 10
213.9906948654097
 20
186.4455593565702
 30
0.0
 11
241.9906948654097
 21
186.4455593565702
 31
0.0
  0
SOLID
  5
5B3
330
5AF
100
AcDbEntity
  8
BEM
 62
     0
100
AcDbTrace
 10
213.9906948654097
 20
187.6122260232369
 30
0.0
 11
213.9906948654097
 21
185.2788926899035
 31
0.0
 12
206.9906948654097
 22
186.4455593565702
 32
0.0
 13
206.9906948654097
 23
186.4455593565702
 33
0.0
  0
SOLID
  5
5B4
330
5AF
100
AcDbEntity
  8
BEM
 62
     0
100
AcDbTrace
 10
241.9906948654097
 20
187.6122260232369
 30
0.0
 11
241.9906948654097
 21
185.2788926899035
 31
0.0
 12
248.9906948654097
 22
186.4455593565702
 32
0.0
 13
248.9906948654097
 23
186.4455593565702
 33
0.0
  0
MTEXT
  5
5B5
330
5AF
100
AcDbEntity
  8
BEM
 62
     1
100
AcDbMText
 10
227.9906948654097
 20
192.9455593565702
 30
0.0
 40
7.0
 41
0.0
 71
     5
 72
     1
  1
\A1;%%c42
 73
     1
 44
1.0
  0
POINT
  5
5B6
330
5AF
100
AcDbEntity
  8
DEFPOINTS
 62
     0
100
AcDbPoint
 10
206.9906948654097
 20
215.0745140112899
 30
0.0
  0
POINT
  5
5B7
330
5AF
100
AcDbEntity
  8
DEFPOINTS
 62
     0
100
AcDbPoint
 10
248.9906948654097
 20
215.0745140112896
 30
0.0
  0
POINT
  5
5B8
330
5AF
100
AcDbEntity
  8
DEFPOINTS
 62
     0
100
AcDbPoint
 10
248.9906948654097
 20
186.4455593565702
 30
0.0
  0
ENDBLK
  5
5BA
330
5AF
100
AcDbEntity
  8
0
100
AcDbBlockEnd
  0
BLOCK
  5
5D1
330
5C7
100
AcDbEntity
  8
0
100
AcDbBlockBegin
  2
*D2
 70
     1
 10
0.0
 20
0.0
 30
0.0
  3
*D2
  1

  0
LINE
  5
81F
330
5C7
100
AcDbEntity
  8
BEM
 62
     0
370
    -2
100
AcDbLine
 10
205.5973857537761
 20
208.1400054256529
 30
0.0
 11
169.0044542872738
 21
208.1400054256529
 31
0.0
  0
LINE
  5
820
330
5C7
100
AcDbEntity
  8
BEM
 62
     0
370
    -2
100
AcDbLine
 10
186.2252975371341
 20
513.1400054256528
 30
0.0
 11
169.0044542872738
 21
513.1400054256528
 31
0.0
  0
LINE
  5
821
330
5C7
100
AcDbEntity
  8
BEM
 62
     0
370
    -2
100
AcDbLine
 10
171.0044542872738
 20
215.140005425653
 30
0.0
 11
171.0044542872738
 21
506.1400054256528
 31
0.0
  0
SOLID
  5
822
330
5C7
100
AcDbEntity
  8
BEM
 62
     0
100
AcDbTrace
 10
169.8377876206071
 20
215.140005425653
 30
0.0
 11
172.1711209539404
 21
215.140005425653
 31
0.0
 12
171.0044542872738
 22
208.1400054256529
 32
0.0
 13
171.0044542872738
 23
208.1400054256529
 33
0.0
  0
SOLID
  5
823
330
5C7
100
AcDbEntity
  8
BEM
 62
     0
100
AcDbTrace
 10
169.8377876206072
 20
506.1400054256528
 30
0.0
 11
172.1711209539405
 21
506.1400054256528
 31
0.0
 12
171.0044542872738
 22
513.1400054256528
 32
0.0
 13
171.0044542872738
 23
513.1400054256528
 33
0.0
  0
MTEXT
  5
824
330
5C7
100
AcDbEntity
  8
BEM
 62
     1
100
AcDbMText
 10
164.5044542872738
 20
360.6400054256529
 30
0.0
 40
7.0
 41
0.0
 71
     5
 72
     1
  1
\A1;305
 11
0.0000000000000001
 21
1.0
 31
0.0
 73
     1
 44
1.0
  0
POINT
  5
825
330
5C7
100
AcDbEntity
  8
DEFPOINTS
 62
     0
100
AcDbPoint
 10
207.5973857537761
 20
208.1400054256529
 30
0.0
  0
POINT
  5
826
330
5C7
100
AcDbEntity
  8
DEFPOINTS
 62
     0
100
AcDbPoint
 10
188.2252975371341
 20
513.1400054256528
 30
0.0
  0
POINT
  5
827
330
5C7
100
AcDbEntity
  8
DEFPOINTS
 62
     0
100
AcDbPoint
 10
171.0044542872738
 20
513.1400054256528
 30
0.0
  0
ENDBLK
  5
5D2
330
5C7
100
AcDbEntity
  8
0
100
AcDbBlockEnd
  0
BLOCK
  5
705
330
6FB
100
AcDbEntity
  8
0
100
AcDbBlockBegin
  2
*D3
 70
     1
 10
0.0
 20
0.0
 30
0.0
  3
*D3
  1

  0
LINE
  5
828
330
6FB
100
AcDbEntity
  8
BEM
 62
     0
370
    -2
100
AcDbLine
 10
191.4906948654096
 20
423.6156848033933
 30
0.0
 11
191.4906948654096
 21
365.5717495036961
 31
0.0
  0
LINE
  5
829
330
6FB
100
AcDbEntity
  8
BEM
 62
     0
370
    -2
100
AcDbLine
 10
264.4906948654095
 20
423.6156848033933
 30
0.0
 11
264.4906948654095
 21
365.5717495036961
 31
0.0
  0
LINE
  5
82A
330
6FB
100
AcDbEntity
  8
BEM
 62
     0
370
    -2
100
AcDbLine
 10
198.4906948654096
 20
367.5717495036961
 30
0.0
 11
257.4906948654095
 21
367.5717495036961
 31
0.0
  0
SOLID
  5
82B
330
6FB
100
AcDbEntity
  8
BEM
 62
     0
100
AcDbTrace
 10
198.4906948654096
 20
368.7384161703628
 30
0.0
 11
198.4906948654096
 21
366.4050828370294
 31
0.0
 12
191.4906948654096
 22
367.5717495036961
 32
0.0
 13
191.4906948654096
 23
367.5717495036961
 33
0.0
  0
SOLID
  5
82C
330
6FB
100
AcDbEntity
  8
BEM
 62
     0
100
AcDbTrace
 10
257.4906948654095
 20
368.7384161703628
 30
0.0
 11
257.4906948654095
 21
366.4050828370294
 31
0.0
 12
264.4906948654095
 22
367.5717495036961
 32
0.0
 13
264.4906948654095
 23
367.5717495036961
 33
0.0
  0
MTEXT
  5
82D
330
6FB
100
AcDbEntity
  8
BEM
 62
     1
100
AcDbMText
 10
227.9906948654095
 20
374.0717495036961
 30
0.0
 40
7.0
 41
0.0
 71
     5
 72
     1
  1
\A1;%%c73
 73
     1
 44
1.0
  0
POINT
  5
82E
330
6FB
100
AcDbEntity
  8
DEFPOINTS
 62
     0
100
AcDbPoint
 10
191.4906948654096
 20
425.6156848033933
 30
0.0
  0
POINT
  5
82F
330
6FB
100
AcDbEntity
  8
DEFPOINTS
 62
     0
100
AcDbPoint
 10
264.4906948654095
 20
425.6156848033934
 30
0.0
  0
POINT
  5
830
330
6FB
100
AcDbEntity
  8
DEFPOINTS
 62
     0
100
AcDbPoint
 10
264.4906948654095
 20
367.5717495036961
 30
0.0
  0
ENDBLK
  5
706
330
6FB
100
AcDbEntity
  8
0
100
AcDbBlockEnd
  0
ENDSEC
  0
SECTION
  2
ENTITIES
  0
TEXT
  5
467
330
20
100
AcDbEntity
  8
TEXT
 62
     1
100
AcDbText
 10
234.9791173409949
 20
86.99412083985322
 30
0.0
 40
7.0
  1
LORO-Anschlußstück
 41
0.8
  7
GREEKS
100
AcDbText
  0
LINE
  5
468
330
20
100
AcDbEntity
  8
STEMPEL
100
AcDbLine
 10
410.0
 20
110.0
 30
0.0
 11
49.99999999999989
 21
110.0
 31
0.0
  0
LINE
  5
469
330
20
100
AcDbEntity
  8
STEMPEL
100
AcDbLine
 10
50.00000000000063
 20
584.0
 30
0.0
 11
49.99999999999971
 21
10.0
 31
0.0
  0
LINE
  5
46A
330
20
100
AcDbEntity
  8
STEMPEL
100
AcDbLine
 10
146.0
 20
109.9999999999999
 30
0.0
 11
145.9999999999998
 21
9.999999999999886
 31
0.0
  0
LINE
  5
46B
330
20
100
AcDbEntity
  8
STEMPEL
100
AcDbLine
 10
229.9999999999998
 20
110.0
 30
0.0
 11
229.9999999999998
 21
10.0
 31
0.0
  0
LINE
  5
46C
330
20
100
AcDbEntity
  8
STEMPEL
100
AcDbLine
 10
332.0
 20
109.9999999999996
 30
0.0
 11
332.0
 21
40.0
 31
0.0
  0
LINE
  5
46D
330
20
100
AcDbEntity
  8
STEMPEL
100
AcDbLine
 10
145.9999999999998
 20
30.0
 30
0.0
 11
49.99999999999977
 21
30.0
 31
0.0
  0
LINE
  5
46E
330
20
100
AcDbEntity
  8
STEMPEL
100
AcDbLine
 10
410.0
 20
40.0
 30
0.0
 11
145.9999999999998
 21
40.0
 31
0.0
  0
LINE
  5
46F
330
20
100
AcDbEntity
  8
STEMPEL
100
AcDbLine
 10
410.0
 20
80.0
 30
0.0
 11
146.0
 21
80.0
 31
0.0
  0
LINE
  5
470
330
20
100
AcDbEntity
  8
VOLL
100
AcDbLine
 10
63.99999999999988
 20
110.0
 30
0.0
 11
63.99999999999977
 21
10.0
 31
0.0
  0
LINE
  5
471
330
20
100
AcDbEntity
  8
VOLL
100
AcDbLine
 10
104.0
 20
109.9999999999999
 30
0.0
 11
103.9999999999998
 21
9.999999999999943
 31
0.0
  0
LINE
  5
472
330
20
100
AcDbEntity
  8
VOLL
100
AcDbLine
 10
124.0
 20
109.9999999999999
 30
0.0
 11
123.9999999999997
 21
9.999999999999886
 31
0.0
  0
LINE
  5
473
330
20
100
AcDbEntity
  8
VOLL
100
AcDbLine
 10
164.0
 20
80.0
 30
0.0
 11
164.0
 21
40.0
 31
0.0
  0
LINE
  5
474
330
20
100
AcDbEntity
  8
VOLL
100
AcDbLine
 10
190.0
 20
109.9999999999998
 30
0.0
 11
189.9999999999997
 21
40.0
 31
0.0
  0
LINE
  5
475
330
20
100
AcDbEntity
  8
HILF
100
AcDbLine
 10
49.99999999999989
 20
100.0
 30
0.0
 11
146.0
 21
100.0
 31
0.0
  0
LINE
  5
476
330
20
100
AcDbEntity
  8
HILF
100
AcDbLine
 10
49.99999999999989
 20
90.0
 30
0.0
 11
146.0
 21
90.0
 31
0.0
  0
LINE
  5
477
330
20
100
AcDbEntity
  8
HILF
100
AcDbLine
 10
49.99999999999989
 20
80.0
 30
0.0
 11
146.0
 21
80.0
 31
0.0
  0
LINE
  5
478
330
20
100
AcDbEntity
  8
HILF
100
AcDbLine
 10
49.99999999999989
 20
70.0
 30
0.0
 11
146.0
 21
70.0
 31
0.0
  0
LINE
  5
479
330
20
100
AcDbEntity
  8
HILF
100
AcDbLine
 10
49.99999999999989
 20
60.0
 30
0.0
 11
146.0
 21
60.0
 31
0.0
  0
LINE
  5
47A
330
20
100
AcDbEntity
  8
HILF
100
AcDbLine
 10
49.99999999999989
 20
50.0
 30
0.0
 11
146.0
 21
50.0
 31
0.0
  0
LINE
  5
47B
330
20
100
AcDbEntity
  8
HILF
100
AcDbLine
 10
49.99999999999989
 20
40.0
 30
0.0
 11
146.0
 21
40.0
 31
0.0
  0
LINE
  5
47C
330
20
100
AcDbEntity
  8
HILF
100
AcDbLine
 10
146.0
 20
70.0
 30
0.0
 11
229.9999999999998
 21
70.0
 31
0.0
  0
LINE
  5
47D
330
20
100
AcDbEntity
  8
HILF
100
AcDbLine
 10
146.0
 20
60.0
 30
0.0
 11
229.9999999999998
 21
60.0
 31
0.0
  0
LINE
  5
47E
330
20
100
AcDbEntity
  8
HILF
100
AcDbLine
 10
146.0
 20
50.0
 30
0.0
 11
229.9999999999998
 21
50.0
 31
0.0
  0
LINE
  5
47F
330
20
100
AcDbEntity
  8
HILF
100
AcDbLine
 10
234.7736801096946
 20
84.03758247564132
 30
0.0
 11
326.629784251481
 21
84.03758247564132
 31
0.0
  0
LINE
  5
480
330
20
100
AcDbEntity
  8
HILF
100
AcDbLine
 10
234.7736801096946
 20
70.0
 30
0.0
 11
326.629784251481
 21
70.0
 31
0.0
  0
LINE
  5
481
330
20
100
AcDbEntity
  8
HILF
100
AcDbLine
 10
234.7736801096946
 20
60.0
 30
0.0
 11
326.629784251481
 21
60.0
 31
0.0
  0
LINE
  5
482
330
20
100
AcDbEntity
  8
HILF
100
AcDbLine
 10
234.7736801096946
 20
50.0
 30
0.0
 11
326.629784251481
 21
50.0
 31
0.0
  0
LINE
  5
483
330
20
100
AcDbEntity
  8
VOLL
100
AcDbLine
 10
332.0
 20
60.0
 30
0.0
 11
410.0
 21
60.0
 31
0.0
  0
LINE
  5
484
330
20
100
AcDbEntity
  8
HILF
100
AcDbLine
 10
336.7238616296993
 20
83.77983636955821
 30
0.0
 11
404.8588839326728
 21
83.77983636955821
 31
0.0
  0
LINE
  5
485
330
20
100
AcDbEntity
  8
HILF
100
AcDbLine
 10
234.7736801096946
 20
14.89398258028302
 30
0.0
 11
404.8588839326728
 21
14.89398258028302
 31
0.0
  0
TEXT
  5
486
330
20
100
AcDbEntity
  8
TEXT
100
AcDbText
 10
72.20704928957393
 20
18.67381894984129
 30
0.0
 40
4.0
  1
Änderung
 41
0.8
  7
GREEKS
 72
     1
 11
82.94990643243108
 21
18.67381894984129
 31
0.0
100
AcDbText
  0
TEXT
  5
487
330
20
100
AcDbEntity
  8
TEXT
100
AcDbText
 10
153.5163572150375
 20
102.4620895087088
 30
0.0
 40
5.0
  1
Maßstab
 41
0.8
  7
GREEKS
100
AcDbText
  0
TEXT
  5
488
330
20
100
AcDbEntity
  8
TEXT
100
AcDbText
 10
197.9646614905596
 20
102.4184168434818
 30
0.0
 40
5.0
  1
zul.Abw.
 41
0.8
  7
GREEKS
100
AcDbText
  0
TEXT
  5
489
330
20
100
AcDbEntity
  8
TEXT
100
AcDbText
 10
234.8779403809008
 20
102.5489328011779
 30
0.0
 40
5.0
  1
Benennung
 41
0.8
  7
GREEKS
100
AcDbText
  0
TEXT
  5
48A
330
20
100
AcDbEntity
  8
TEXT
100
AcDbText
 10
336.178754957634
 20
102.3132034537135
 30
0.0
 40
5.0
  1
Zeichnungs Nr.
 41
0.8
  7
GREEKS
100
AcDbText
  0
TEXT
  5
48B
330
20
100
AcDbEntity
  8
TEXT
100
AcDbText
 10
234.7422383911357
 20
30.84560570193054
 30
0.0
 40
5.0
  1
Bauvorhaben
 41
0.8
  7
GREEKS
100
AcDbText
  0
TEXT
  5
48C
330
20
100
AcDbEntity
  8
TEXT
100
AcDbText
 10
336.7238616296993
 20
73.18118237099963
 30
0.0
 40
5.0
  1
Ersatz für:
 41
0.8
  7
GREEKS
100
AcDbText
  0
TEXT
  5
48D
330
20
100
AcDbEntity
  8
TEXT
100
AcDbText
 10
58.26641107045737
 20
13.65465846027189
 30
0.0
 40
4.0
  1
Index
 50
90.0
 41
0.8
  7
GREEKS
100
AcDbText
  0
TEXT
  5
48E
330
20
100
AcDbEntity
  8
TEXT
100
AcDbText
 10
110.3048905663554
 20
18.67156269339807
 30
0.0
 40
4.0
  1
Tag
 41
0.8
  7
GREEKS
 72
     1
 11
114.0382238996888
 21
18.67156269339807
 31
0.0
100
AcDbText
  0
TEXT
  5
48F
330
20
100
AcDbEntity
  8
TEXT
100
AcDbText
 10
128.8103701168421
 20
18.59324216966405
 30
0.0
 40
4.0
  1
Name
 41
0.8
  7
GREEKS
 72
     1
 11
135.1341796406516
 21
18.59324216966405
 31
0.0
100
AcDbText
  0
TEXT
  5
490
330
20
100
AcDbEntity
  8
TEXT
100
AcDbText
 10
172.3311673153648
 20
73.31880501229921
 30
0.0
 40
4.0
  1
Tag
 41
0.8
  7
GREEKS
100
AcDbText
  0
TEXT
  5
491
330
20
100
AcDbEntity
  8
TEXT
100
AcDbText
 10
202.4626584226294
 20
73.30961091915219
 30
0.0
 40
4.0
  1
Name
 41
0.8
  7
GREEKS
100
AcDbText
  0
TEXT
  5
492
330
20
100
AcDbEntity
  8
TEXT
100
AcDbText
 10
147.5836127167613
 20
63.62990369617961
 30
0.0
 40
4.0
  1
Gez.
 41
0.8
  7
GREEKS
100
AcDbText
  0
TEXT
  5
493
330
20
100
AcDbEntity
  8
TEXT
100
AcDbText
 10
147.551508657167
 20
53.68926291428374
 30
0.0
 40
4.0
  1
Gepr.
 41
0.8
  7
GREEKS
100
AcDbText
  0
TEXT
  5
494
330
20
100
AcDbEntity
  8
TEXT
100
AcDbText
 10
147.6006777387301
 20
43.52946389649804
 30
0.0
 40
4.0
  1
Norm.
 41
0.8
  7
GREEKS
100
AcDbText
  0
TEXT
  5
495
330
20
100
AcDbEntity
  8
TEXT
100
AcDbText
 10
337.2400861497006
 20
52.07416177878599
 30
0.0
 40
5.0
  1
ersetzt durch:
 41
0.8
  7
GREEKS
100
AcDbText
  0
LINE
  5
496
330
20
100
AcDbEntity
  8
HILF
100
AcDbLine
 10
0.0
 20
0.0
 30
0.0
 11
420.0
 21
0.0
 31
0.0
  0
LINE
  5
497
330
20
100
AcDbEntity
  8
HILF
100
AcDbLine
 10
420.0
 20
0.0
 30
0.0
 11
420.0
 21
594.0
 31
0.0
  0
LINE
  5
498
330
20
100
AcDbEntity
  8
HILF
100
AcDbLine
 10
420.0
 20
594.0
 30
0.0
 11
0.0
 21
594.0
 31
0.0
  0
LINE
  5
499
330
20
100
AcDbEntity
  8
STEMPEL
100
AcDbLine
 10
410.0
 20
584.0
 30
0.0
 11
50.00000000000063
 21
584.0
 31
0.0
  0
LINE
  5
49A
330
20
100
AcDbEntity
  8
STEMPEL
100
AcDbLine
 10
49.99999999999971
 20
10.0
 30
0.0
 11
410.0
 21
10.0
 31
0.0
  0
LINE
  5
49B
330
20
100
AcDbEntity
  8
STEMPEL
100
AcDbLine
 10
410.0
 20
10.0
 30
0.0
 11
410.0
 21
584.0
 31
0.0
  0
TEXT
  5
49C
330
20
100
AcDbEntity
  8
TEXT
100
AcDbText
 10
150.7299860699793
 20
73.14583683904146
 30
0.0
 40
4.0
  1
2008
 41
0.8
  7
GREEKS
100
AcDbText
  0
TEXT
  5
49D
330
20
100
AcDbEntity
  8
TEXT
 62
     1
100
AcDbText
 10
158.8064310364448
 20
86.22410504373215
 30
0.0
 40
7.0
  1
1:2
 41
0.8
  7
GREEKS
100
AcDbText
  0
TEXT
  5
49E
330
20
100
AcDbEntity
  8
TEXT
100
AcDbText
 10
234.862987254257
 20
72.29651127304094
 30
0.0
 40
5.0
  1
DN 70/40
 41
0.8
  7
GREEKS
100
AcDbText
  0
TEXT
  5
49F
330
20
100
AcDbEntity
  8
TEXT
100
AcDbText
 10
235.162303158329
 20
52.75131145345461
 30
0.0
 40
5.0
  1
EDV-Art.Nr. 05043.CA0X
 41
0.8
  7
GREEKS
100
AcDbText
  0
TEXT
  5
4A1
330
20
100
AcDbEntity
  8
TEXT
 62
     1
100
AcDbText
 10
345.971106150903
 20
87.01863741763572
 30
0.0
 40
7.0
  1
05043CA0W
 41
0.8
  7
GREEKS
 72
     1
 11
370.371106150903
 21
87.01863741763572
 31
0.0
100
AcDbText
  0
TEXT
  5
4A2
330
20
100
AcDbEntity
  8
TEXT
100
AcDbText
 10
234.9713400534563
 20
42.1950457301354
 30
0.0
 40
4.0
  1
05043CA0W.DWG
 41
0.8
  7
GREEKS
100
AcDbText
  0
INSERT
  5
4A3
330
20
100
AcDbEntity
  8
STEMPEL
100
AcDbBlockReference
  2
LOGO
 10
148.9705276546528
 20
44.32391971867144
 30
0.0
 41
2.0
 42
2.0
 43
2.0
  0
TEXT
  5
4A4
330
20
100
AcDbEntity
  8
TEXT
100
AcDbText
 10
169.3685946607658
 20
63.66472427925334
 30
0.0
 40
4.0
  1
16.05.
 41
0.8
  7
GREEKS
 72
     1
 11
176.0733565655278
 21
63.66472427925334
 31
0.0
100
AcDbText
  0
TEXT
  5
4A5
330
20
100
AcDbEntity
  8
TEXT
100
AcDbText
 10
204.2889439602947
 20
63.65553018610632
 30
0.0
 40
4.0
  1
Koeh
 41
0.8
  7
GREEKS
 72
     1
 11
209.5460868174375
 21
63.65553018610632
 31
0.0
100
AcDbText
  0
TEXT
  5
4A6
330
20
100
AcDbEntity
  8
VOLL
100
AcDbText
 10
624.2181993280528
 20
153.5301393177705
 30
0.0
 40
1.8
  1

  7
GREEKS
100
AcDbText
  0
TEXT
  5
4A7
330
20
100
AcDbEntity
  8
VOLL
100
AcDbText
 10
713.8843732537259
 20
158.8222560334898
 30
0.0
 40
1.8
  1

  7
GREEKS
100
AcDbText
  0
TEXT
  5
4A8
330
20
100
AcDbEntity
  8
TEXT
100
AcDbText
 10
1045.716641457319
 20
164.3804915667154
 30
0.0
 40
2.5
  1
  
  7
GREEKS
 72
     1
 11
1047.978546219224
 21
164.3804915667154
 31
0.0
100
AcDbText
  0
TEXT
  5
4A9
330
20
100
AcDbEntity
  8
BEM
100
AcDbText
 10
1289.836358769801
 20
299.9393735971176
 30
0.0
 40
2.5
  1
 
 72
     4
 11
1290.967311150753
 21
299.9393735971176
 31
0.0
100
AcDbText
  0
TEXT
  5
4AB
330
20
100
AcDbEntity
  8
BEM
100
AcDbText
 10
855.5257028996505
 20
182.4589702246512
 30
0.0
 40
2.5
  1

  7
GREEKS
100
AcDbText
  0
TEXT
  5
4AC
330
20
100
AcDbEntity
  8
VOLL
100
AcDbText
 10
841.459509879929
 20
162.2757095676161
 30
0.0
 40
1.8
  1

  7
GREEKS
100
AcDbText
  0
TEXT
  5
4AD
330
20
100
AcDbEntity
  8
BEM
100
AcDbText
 10
875.9475747192137
 20
167.0014338908367
 30
0.0
 40
2.5
  1

 41
0.8
  7
GREEKS
100
AcDbText
  0
TEXT
  5
4AE
330
20
100
AcDbEntity
  8
BEM
100
AcDbText
 10
875.9475747192137
 20
162.3076653367846
 30
0.0
 40
2.5
  1

 41
0.8
  7
GREEKS
100
AcDbText
  0
TEXT
  5
4AF
330
20
100
AcDbEntity
  8
BEM
100
AcDbText
 10
875.9475747192137
 20
157.0698215181211
 30
0.0
 40
2.5
  1

 41
0.8
  7
GREEKS
100
AcDbText
  0
TEXT
  5
4B0
330
20
100
AcDbEntity
  8
BEM
100
AcDbText
 10
875.8746302418392
 20
152.5646325680234
 30
0.0
 40
1.8
  1

 41
0.8
  7
GREEKS
100
AcDbText
  0
TEXT
  5
4B1
330
20
100
AcDbEntity
  8
BEM
100
AcDbText
 10
863.1910593622281
 20
178.1562216642487
 30
0.0
 40
2.0
  1

 41
0.8
  7
GREEKS
 72
     1
 11
863.1910593622281
 21
178.1562216642487
 31
0.0
100
AcDbText
  0
TEXT
  5
4B2
330
20
100
AcDbEntity
  8
TEXT
100
AcDbText
 10
1173.291778083522
 20
167.8339451008417
 30
0.0
 40
2.5
  1
  
  7
GREEKS
 72
     1
 11
1175.553682845426
 21
167.8339451008417
 31
0.0
100
AcDbText
  0
TEXT
  5
4B3
330
20
100
AcDbEntity
  8
BEM
100
AcDbText
 10
1417.411495396004
 20
303.3928271312439
 30
0.0
 40
2.5
  1
 
 72
     4
 11
1418.542447776956
 21
303.3928271312439
 31
0.0
100
AcDbText
  0
TEXT
  5
4B4
330
20
100
AcDbEntity
  8
VOLL
100
AcDbText
 10
766.1762742752141
 20
169.7272236296053
 30
0.0
 40
1.8
  1

  7
GREEKS
100
AcDbText
  0
TEXT
  5
4B5
330
20
100
AcDbEntity
  8
TEXT
100
AcDbText
 10
1098.008542478807
 20
175.2854591628308
 30
0.0
 40
2.5
  1
  
  7
GREEKS
 72
     1
 11
1100.270447240712
 21
175.2854591628308
 31
0.0
100
AcDbText
  0
TEXT
  5
4B6
330
20
100
AcDbEntity
  8
BEM
100
AcDbText
 10
1342.128259791289
 20
310.8443411932331
 30
0.0
 40
2.5
  1
 
 72
     4
 11
1343.259212172241
 21
310.8443411932331
 31
0.0
100
AcDbText
  0
TEXT
  5
4B7
330
20
100
AcDbEntity
  8
BEM
100
AcDbText
 10
921.31587643201
 20
190.0606345192818
 30
0.0
 40
2.5
  1

  7
GREEKS
100
AcDbText
  0
TEXT
  5
4B8
330
20
100
AcDbEntity
  8
VOLL
100
AcDbText
 10
907.2496834122887
 20
169.8773738622467
 30
0.0
 40
1.8
  1

  7
GREEKS
100
AcDbText
  0
TEXT
  5
4B9
330
20
100
AcDbEntity
  8
BEM
100
AcDbText
 10
941.7377482515732
 20
174.6030981854673
 30
0.0
 40
2.5
  1

 41
0.8
  7
GREEKS
100
AcDbText
  0
TEXT
  5
4BA
330
20
100
AcDbEntity
  8
BEM
100
AcDbText
 10
941.7377482515732
 20
169.9093296314152
 30
0.0
 40
2.5
  1

 41
0.8
  7
GREEKS
100
AcDbText
  0
TEXT
  5
4BB
330
20
100
AcDbEntity
  8
BEM
100
AcDbText
 10
941.7377482515732
 20
164.6714858127516
 30
0.0
 40
2.5
  1

 41
0.8
  7
GREEKS
100
AcDbText
  0
TEXT
  5
4BC
330
20
100
AcDbEntity
  8
BEM
100
AcDbText
 10
941.6648037741989
 20
160.166296862654
 30
0.0
 40
1.8
  1

 41
0.8
  7
GREEKS
100
AcDbText
  0
TEXT
  5
4BD
330
20
100
AcDbEntity
  8
BEM
100
AcDbText
 10
928.9812328945878
 20
185.7578859588793
 30
0.0
 40
2.0
  1

 41
0.8
  7
GREEKS
 72
     1
 11
928.9812328945878
 21
185.7578859588793
 31
0.0
100
AcDbText
  0
TEXT
  5
4BE
330
20
100
AcDbEntity
  8
TEXT
100
AcDbText
 10
1239.081951615881
 20
175.4356093954723
 30
0.0
 40
2.5
  1
  
  7
GREEKS
 72
     1
 11
1241.343856377786
 21
175.4356093954723
 31
0.0
100
AcDbText
  0
TEXT
  5
4BF
330
20
100
AcDbEntity
  8
BEM
100
AcDbText
 10
1483.201668928364
 20
310.9944914258745
 30
0.0
 40
2.5
  1
 
 72
     4
 11
1484.332621309316
 21
310.9944914258745
 31
0.0
100
AcDbText
  0
TEXT
  5
4C0
330
20
100
AcDbEntity
  8
VOLL
100
AcDbText
 10
702.1540628484578
 20
157.9115141038568
 30
0.0
 40
1.8
  1

  7
GREEKS
100
AcDbText
  0
TEXT
  5
4C1
330
20
100
AcDbEntity
  8
TEXT
100
AcDbText
 10
1033.98633105205
 20
163.4697496370823
 30
0.0
 40
2.5
  1
  
  7
GREEKS
 72
     1
 11
1036.248235813955
 21
163.4697496370823
 31
0.0
100
AcDbText
  0
TEXT
  5
4C2
330
20
100
AcDbEntity
  8
BEM
100
AcDbText
 10
1278.106048364533
 20
299.0286316674846
 30
0.0
 40
2.5
  1
 
 72
     4
 11
1279.237000745485
 21
299.0286316674846
 31
0.0
100
AcDbText
  0
TEXT
  5
4C3
330
20
100
AcDbEntity
  8
BEM
100
AcDbText
 10
867.4996759281077
 20
198.0647448024424
 30
0.0
 40
2.5
  1

  7
GREEKS
100
AcDbText
  0
TEXT
  5
4C4
330
20
100
AcDbEntity
  8
VOLL
100
AcDbText
 10
853.4334829083862
 20
177.8814841454073
 30
0.0
 40
1.8
  1

  7
GREEKS
100
AcDbText
  0
TEXT
  5
4C5
330
20
100
AcDbEntity
  8
BEM
100
AcDbText
 10
887.9215477476709
 20
182.6072084686279
 30
0.0
 40
2.5
  1

 41
0.8
  7
GREEKS
100
AcDbText
  0
TEXT
  5
4C6
330
20
100
AcDbEntity
  8
BEM
100
AcDbText
 10
887.9215477476709
 20
177.9134399145758
 30
0.0
 40
2.5
  1

 41
0.8
  7
GREEKS
100
AcDbText
  0
TEXT
  5
4C7
330
20
100
AcDbEntity
  8
BEM
100
AcDbText
 10
887.9215477476709
 20
172.6755960959122
 30
0.0
 40
2.5
  1

 41
0.8
  7
GREEKS
100
AcDbText
  0
TEXT
  5
4C8
330
20
100
AcDbEntity
  8
BEM
100
AcDbText
 10
887.8486032702964
 20
168.1704071458146
 30
0.0
 40
1.8
  1

 41
0.8
  7
GREEKS
100
AcDbText
  0
TEXT
  5
4C9
330
20
100
AcDbEntity
  8
BEM
100
AcDbText
 10
875.1650323906853
 20
193.7619962420399
 30
0.0
 40
2.0
  1

 41
0.8
  7
GREEKS
 72
     1
 11
875.1650323906853
 21
193.7619962420399
 31
0.0
100
AcDbText
  0
TEXT
  5
4CA
330
20
100
AcDbEntity
  8
TEXT
100
AcDbText
 10
1185.265751111979
 20
183.4397196786328
 30
0.0
 40
2.5
  1
  
  7
GREEKS
 72
     1
 11
1187.527655873884
 21
183.4397196786328
 31
0.0
100
AcDbText
  0
TEXT
  5
4CB
330
20
100
AcDbEntity
  8
BEM
100
AcDbText
 10
1429.385468424461
 20
318.9986017090352
 30
0.0
 40
2.5
  1
 
 72
     4
 11
1430.516420805413
 21
318.9986017090352
 31
0.0
100
AcDbText
  0
TEXT
  5
4CC
330
20
100
AcDbEntity
  8
VOLL
100
AcDbText
 10
1029.735639101569
 20
163.0299574813593
 30
0.0
 40
1.8
  1

  7
GREEKS
100
AcDbText
  0
TEXT
  5
4CD
330
20
100
AcDbEntity
  8
VOLL
100
AcDbText
 10
1119.401813027242
 20
168.3220741970786
 30
0.0
 40
1.8
  1

  7
GREEKS
100
AcDbText
  0
TEXT
  5
4CE
330
20
100
AcDbEntity
  8
TEXT
100
AcDbText
 10
1451.234081230835
 20
173.8803097303042
 30
0.0
 40
2.5
  1
  
  7
GREEKS
 72
     1
 11
1453.49598599274
 21
173.8803097303042
 31
0.0
100
AcDbText
  0
TEXT
  5
4CF
330
20
100
AcDbEntity
  8
BEM
100
AcDbText
 10
1695.353798543317
 20
309.4391917607064
 30
0.0
 40
2.5
  1
 
 72
     4
 11
1696.484750924269
 21
309.4391917607064
 31
0.0
100
AcDbText
  0
TEXT
  5
4D0
330
20
100
AcDbEntity
  8
BEM
100
AcDbText
 10
1261.043142673166
 20
191.95878838824
 30
0.0
 40
2.5
  1

  7
GREEKS
100
AcDbText
  0
TEXT
  5
4D1
330
20
100
AcDbEntity
  8
VOLL
100
AcDbText
 10
1246.976949653445
 20
171.7755277312049
 30
0.0
 40
1.8
  1

  7
GREEKS
100
AcDbText
  0
TEXT
  5
4D2
330
20
100
AcDbEntity
  8
BEM
100
AcDbText
 10
1281.46501449273
 20
176.5012520544255
 30
0.0
 40
2.5
  1

 41
0.8
  7
GREEKS
100
AcDbText
  0
TEXT
  5
4D3
330
20
100
AcDbEntity
  8
BEM
100
AcDbText
 10
1281.46501449273
 20
171.8074835003733
 30
0.0
 40
2.5
  1

 41
0.8
  7
GREEKS
100
AcDbText
  0
TEXT
  5
4D4
330
20
100
AcDbEntity
  8
BEM
100
AcDbText
 10
1281.46501449273
 20
166.5696396817098
 30
0.0
 40
2.5
  1

 41
0.8
  7
GREEKS
100
AcDbText
  0
TEXT
  5
4D5
330
20
100
AcDbEntity
  8
BEM
100
AcDbText
 10
1281.392070015355
 20
162.0644507316122
 30
0.0
 40
1.8
  1

 41
0.8
  7
GREEKS
100
AcDbText
  0
TEXT
  5
4D6
330
20
100
AcDbEntity
  8
BEM
100
AcDbText
 10
1268.708499135744
 20
187.6560398278375
 30
0.0
 40
2.0
  1

 41
0.8
  7
GREEKS
 72
     1
 11
1268.708499135744
 21
187.6560398278375
 31
0.0
100
AcDbText
  0
TEXT
  5
4D7
330
20
100
AcDbEntity
  8
TEXT
100
AcDbText
 10
1578.809217857038
 20
177.3337632644304
 30
0.0
 40
2.5
  1
  
  7
GREEKS
 72
     1
 11
1581.071122618943
 21
177.3337632644304
 31
0.0
100
AcDbText
  0
TEXT
  5
4D8
330
20
100
AcDbEntity
  8
BEM
100
AcDbText
 10
1822.928935169521
 20
312.8926452948327
 30
0.0
 40
2.5
  1
 
 72
     4
 11
1824.059887550473
 21
312.8926452948327
 31
0.0
100
AcDbText
  0
TEXT
  5
4D9
330
20
100
AcDbEntity
  8
VOLL
100
AcDbText
 10
1037.648953793352
 20
140.0808845888587
 30
0.0
 40
1.8
  1

  7
GREEKS
100
AcDbText
  0
TEXT
  5
4DA
330
20
100
AcDbEntity
  8
VOLL
100
AcDbText
 10
1127.315127719025
 20
145.3730013045781
 30
0.0
 40
1.8
  1

  7
GREEKS
100
AcDbText
  0
TEXT
  5
4DB
330
20
100
AcDbEntity
  8
TEXT
100
AcDbText
 10
1459.147395922618
 20
150.9312368378036
 30
0.0
 40
2.5
  1
  
  7
GREEKS
 72
     1
 11
1461.409300684523
 21
150.9312368378036
 31
0.0
100
AcDbText
  0
TEXT
  5
4DC
330
20
100
AcDbEntity
  8
BEM
100
AcDbText
 10
1703.2671132351
 20
286.4901188682059
 30
0.0
 40
2.5
  1
 
 72
     4
 11
1704.398065616053
 21
286.4901188682059
 31
0.0
100
AcDbText
  0
TEXT
  5
4DD
330
20
100
AcDbEntity
  8
BEM
100
AcDbText
 10
1268.95645736495
 20
169.0097154957395
 30
0.0
 40
2.5
  1

  7
GREEKS
100
AcDbText
  0
TEXT
  5
4DE
330
20
100
AcDbEntity
  8
VOLL
100
AcDbText
 10
1254.890264345229
 20
148.8264548387044
 30
0.0
 40
1.8
  1

  7
GREEKS
100
AcDbText
  0
TEXT
  5
4DF
330
20
100
AcDbEntity
  8
BEM
100
AcDbText
 10
1289.378329184513
 20
153.552179161925
 30
0.0
 40
2.5
  1

 41
0.8
  7
GREEKS
100
AcDbText
  0
TEXT
  5
4E0
330
20
100
AcDbEntity
  8
BEM
100
AcDbText
 10
1289.378329184513
 20
148.8584106078728
 30
0.0
 40
2.5
  1

 41
0.8
  7
GREEKS
100
AcDbText
  0
TEXT
  5
4E1
330
20
100
AcDbEntity
  8
BEM
100
AcDbText
 10
1289.378329184513
 20
143.6205667892093
 30
0.0
 40
2.5
  1

 41
0.8
  7
GREEKS
100
AcDbText
  0
TEXT
  5
4E2
330
20
100
AcDbEntity
  8
BEM
100
AcDbText
 10
1289.305384707138
 20
139.1153778391117
 30
0.0
 40
1.8
  1

 41
0.8
  7
GREEKS
100
AcDbText
  0
TEXT
  5
4E3
330
20
100
AcDbEntity
  8
BEM
100
AcDbText
 10
1276.621813827527
 20
164.706966935337
 30
0.0
 40
2.0
  1

 41
0.8
  7
GREEKS
 72
     1
 11
1276.621813827527
 21
164.706966935337
 31
0.0
100
AcDbText
  0
TEXT
  5
4E4
330
20
100
AcDbEntity
  8
TEXT
100
AcDbText
 10
1586.722532548821
 20
154.3846903719299
 30
0.0
 40
2.5
  1
  
  7
GREEKS
 72
     1
 11
1588.984437310726
 21
154.3846903719299
 31
0.0
100
AcDbText
  0
TEXT
  5
4E5
330
20
100
AcDbEntity
  8
BEM
100
AcDbText
 10
1830.842249861303
 20
289.9435724023322
 30
0.0
 40
2.5
  1
 
 72
     4
 11
1831.973202242256
 21
289.9435724023322
 31
0.0
100
AcDbText
  0
TEXT
  5
4E6
330
20
100
AcDbEntity
  8
VOLL
100
AcDbText
 10
1179.607028740513
 20
156.2779689006935
 30
0.0
 40
1.8
  1

  7
GREEKS
100
AcDbText
  0
TEXT
  5
4E7
330
20
100
AcDbEntity
  8
TEXT
100
AcDbText
 10
1511.439296944107
 20
161.8362044339191
 30
0.0
 40
2.5
  1
  
  7
GREEKS
 72
     1
 11
1513.701201706011
 21
161.8362044339191
 31
0.0
100
AcDbText
  0
TEXT
  5
4E8
330
20
100
AcDbEntity
  8
BEM
100
AcDbText
 10
1755.559014256589
 20
297.3950864643213
 30
0.0
 40
2.5
  1
 
 72
     4
 11
1756.689966637541
 21
297.3950864643213
 31
0.0
100
AcDbText
  0
TEXT
  5
4E9
330
20
100
AcDbEntity
  8
BEM
100
AcDbText
 10
1334.74663089731
 20
176.6113797903701
 30
0.0
 40
2.5
  1

  7
GREEKS
100
AcDbText
  0
TEXT
  5
4EA
330
20
100
AcDbEntity
  8
VOLL
100
AcDbText
 10
1320.680437877588
 20
156.428119133335
 30
0.0
 40
1.8
  1

  7
GREEKS
100
AcDbText
  0
TEXT
  5
4EB
330
20
100
AcDbEntity
  8
BEM
100
AcDbText
 10
1355.168502716873
 20
161.1538434565556
 30
0.0
 40
2.5
  1

 41
0.8
  7
GREEKS
100
AcDbText
  0
TEXT
  5
4EC
330
20
100
AcDbEntity
  8
BEM
100
AcDbText
 10
1355.168502716873
 20
156.4600749025034
 30
0.0
 40
2.5
  1

 41
0.8
  7
GREEKS
100
AcDbText
  0
TEXT
  5
4ED
330
20
100
AcDbEntity
  8
BEM
100
AcDbText
 10
1355.168502716873
 20
151.2222310838399
 30
0.0
 40
2.5
  1

 41
0.8
  7
GREEKS
100
AcDbText
  0
TEXT
  5
4EE
330
20
100
AcDbEntity
  8
BEM
100
AcDbText
 10
1355.095558239498
 20
146.7170421337423
 30
0.0
 40
1.8
  1

 41
0.8
  7
GREEKS
100
AcDbText
  0
TEXT
  5
4EF
330
20
100
AcDbEntity
  8
BEM
100
AcDbText
 10
1342.411987359887
 20
172.3086312299676
 30
0.0
 40
2.0
  1

 41
0.8
  7
GREEKS
 72
     1
 11
1342.411987359887
 21
172.3086312299676
 31
0.0
100
AcDbText
  0
TEXT
  5
4F0
330
20
100
AcDbEntity
  8
TEXT
100
AcDbText
 10
1652.512706081181
 20
161.9863546665605
 30
0.0
 40
2.5
  1
  
  7
GREEKS
 72
     1
 11
1654.774610843086
 21
161.9863546665605
 31
0.0
100
AcDbText
  0
TEXT
  5
4F1
330
20
100
AcDbEntity
  8
BEM
100
AcDbText
 10
1896.632423393663
 20
297.5452366969627
 30
0.0
 40
2.5
  1
 
 72
     4
 11
1897.763375774616
 21
297.5452366969627
 31
0.0
100
AcDbText
  0
TEXT
  5
4F2
330
20
100
AcDbEntity
  8
VOLL
100
AcDbText
 10
810.2241690536295
 20
350.9401983804995
 30
0.0
 40
1.8
  1

  7
GREEKS
100
AcDbText
  0
TEXT
  5
4F3
330
20
100
AcDbEntity
  8
VOLL
100
AcDbText
 10
899.8903429793026
 20
356.2323150962188
 30
0.0
 40
1.8
  1

  7
GREEKS
100
AcDbText
  0
TEXT
  5
4F4
330
20
100
AcDbEntity
  8
TEXT
100
AcDbText
 10
1231.722611182896
 20
361.7905506294444
 30
0.0
 40
2.5
  1
  
  7
GREEKS
 72
     1
 11
1233.9845159448
 21
361.7905506294444
 31
0.0
100
AcDbText
  0
TEXT
  5
4F5
330
20
100
AcDbEntity
  8
BEM
100
AcDbText
 10
1475.842328495378
 20
497.3494326598465
 30
0.0
 40
2.5
  1
 
 72
     4
 11
1476.97328087633
 21
497.3494326598465
 31
0.0
100
AcDbText
  0
TEXT
  5
4F6
330
20
100
AcDbEntity
  8
BEM
100
AcDbText
 10
1041.531672625227
 20
379.8690292873802
 30
0.0
 40
2.5
  1

  7
GREEKS
100
AcDbText
  0
TEXT
  5
4F7
330
20
100
AcDbEntity
  8
VOLL
100
AcDbText
 10
1027.465479605506
 20
359.6857686303451
 30
0.0
 40
1.8
  1

  7
GREEKS
100
AcDbText
  0
TEXT
  5
4F8
330
20
100
AcDbEntity
  8
BEM
100
AcDbText
 10
1061.95354444479
 20
364.4114929535656
 30
0.0
 40
2.5
  1

 41
0.8
  7
GREEKS
100
AcDbText
  0
TEXT
  5
4F9
330
20
100
AcDbEntity
  8
BEM
100
AcDbText
 10
1061.95354444479
 20
359.7177243995135
 30
0.0
 40
2.5
  1

 41
0.8
  7
GREEKS
100
AcDbText
  0
TEXT
  5
4FA
330
20
100
AcDbEntity
  8
BEM
100
AcDbText
 10
1061.95354444479
 20
354.47988058085
 30
0.0
 40
2.5
  1

 41
0.8
  7
GREEKS
100
AcDbText
  0
TEXT
  5
4FB
330
20
100
AcDbEntity
  8
BEM
100
AcDbText
 10
1061.880599967416
 20
349.9746916307524
 30
0.0
 40
1.8
  1

 41
0.8
  7
GREEKS
100
AcDbText
  0
TEXT
  5
4FC
330
20
100
AcDbEntity
  8
BEM
100
AcDbText
 10
1049.197029087805
 20
375.5662807269776
 30
0.0
 40
2.0
  1

 41
0.8
  7
GREEKS
 72
     1
 11
1049.197029087805
 21
375.5662807269776
 31
0.0
100
AcDbText
  0
TEXT
  5
4FD
330
20
100
AcDbEntity
  8
TEXT
100
AcDbText
 10
1359.297747809099
 20
365.2440041635706
 30
0.0
 40
2.5
  1
  
  7
GREEKS
 72
     1
 11
1361.559652571003
 21
365.2440041635706
 31
0.0
100
AcDbText
  0
TEXT
  5
4FE
330
20
100
AcDbEntity
  8
BEM
100
AcDbText
 10
1603.41746512158
 20
500.8028861939727
 30
0.0
 40
2.5
  1
 
 72
     4
 11
1604.548417502533
 21
500.8028861939727
 31
0.0
100
AcDbText
  0
TEXT
  5
4FF
330
20
100
AcDbEntity
  8
VOLL
100
AcDbText
 10
952.1822440007909
 20
367.1372826923342
 30
0.0
 40
1.8
  1

  7
GREEKS
100
AcDbText
  0
TEXT
  5
500
330
20
100
AcDbEntity
  8
TEXT
100
AcDbText
 10
1284.014512204384
 20
372.6955182255597
 30
0.0
 40
2.5
  1
  
  7
GREEKS
 72
     1
 11
1286.276416966289
 21
372.6955182255597
 31
0.0
100
AcDbText
  0
TEXT
  5
501
330
20
100
AcDbEntity
  8
BEM
100
AcDbText
 10
1528.134229516866
 20
508.2544002559619
 30
0.0
 40
2.5
  1
 
 72
     4
 11
1529.265181897818
 21
508.2544002559619
 31
0.0
100
AcDbText
  0
TEXT
  5
502
330
20
100
AcDbEntity
  8
BEM
100
AcDbText
 10
1107.321846157587
 20
387.4706935820108
 30
0.0
 40
2.5
  1

  7
GREEKS
100
AcDbText
  0
TEXT
  5
503
330
20
100
AcDbEntity
  8
VOLL
100
AcDbText
 10
1093.255653137865
 20
367.2874329249756
 30
0.0
 40
1.8
  1

  7
GREEKS
100
AcDbText
  0
TEXT
  5
504
330
20
100
AcDbEntity
  8
BEM
100
AcDbText
 10
1127.74371797715
 20
372.0131572481963
 30
0.0
 40
2.5
  1

 41
0.8
  7
GREEKS
100
AcDbText
  0
TEXT
  5
505
330
20
100
AcDbEntity
  8
BEM
100
AcDbText
 10
1127.74371797715
 20
367.3193886941441
 30
0.0
 40
2.5
  1

 41
0.8
  7
GREEKS
100
AcDbText
  0
TEXT
  5
506
330
20
100
AcDbEntity
  8
BEM
100
AcDbText
 10
1127.74371797715
 20
362.0815448754806
 30
0.0
 40
2.5
  1

 41
0.8
  7
GREEKS
100
AcDbText
  0
TEXT
  5
507
330
20
100
AcDbEntity
  8
BEM
100
AcDbText
 10
1127.670773499775
 20
357.576355925383
 30
0.0
 40
1.8
  1

 41
0.8
  7
GREEKS
100
AcDbText
  0
TEXT
  5
508
330
20
100
AcDbEntity
  8
BEM
100
AcDbText
 10
1114.987202620164
 20
383.1679450216082
 30
0.0
 40
2.0
  1

 41
0.8
  7
GREEKS
 72
     1
 11
1114.987202620164
 21
383.1679450216082
 31
0.0
100
AcDbText
  0
TEXT
  5
509
330
20
100
AcDbEntity
  8
TEXT
100
AcDbText
 10
1425.087921341458
 20
372.8456684582012
 30
0.0
 40
2.5
  1
  
  7
GREEKS
 72
     1
 11
1427.349826103363
 21
372.8456684582012
 31
0.0
100
AcDbText
  0
TEXT
  5
50A
330
20
100
AcDbEntity
  8
BEM
100
AcDbText
 10
1669.20763865394
 20
508.4045504886034
 30
0.0
 40
2.5
  1
 
 72
     4
 11
1670.338591034893
 21
508.4045504886034
 31
0.0
100
AcDbText
  0
TEXT
  5
50B
330
20
100
AcDbEntity
  8
VOLL
100
AcDbText
 10
888.1600325740345
 20
355.3215731665857
 30
0.0
 40
1.8
  1

  7
GREEKS
100
AcDbText
  0
TEXT
  5
50C
330
20
100
AcDbEntity
  8
TEXT
100
AcDbText
 10
1219.992300777627
 20
360.8798086998112
 30
0.0
 40
2.5
  1
  
  7
GREEKS
 72
     1
 11
1222.254205539532
 21
360.8798086998112
 31
0.0
100
AcDbText
  0
TEXT
  5
50D
330
20
100
AcDbEntity
  8
BEM
100
AcDbText
 10
1464.112018090109
 20
496.4386907302134
 30
0.0
 40
2.5
  1
 
 72
     4
 11
1465.242970471062
 21
496.4386907302134
 31
0.0
100
AcDbText
  0
TEXT
  5
50E
330
20
100
AcDbEntity
  8
BEM
100
AcDbText
 10
1053.505645653684
 20
395.4748038651714
 30
0.0
 40
2.5
  1

  7
GREEKS
100
AcDbText
  0
TEXT
  5
50F
330
20
100
AcDbEntity
  8
VOLL
100
AcDbText
 10
1039.439452633963
 20
375.2915432081362
 30
0.0
 40
1.8
  1

  7
GREEKS
100
AcDbText
  0
TEXT
  5
510
330
20
100
AcDbEntity
  8
BEM
100
AcDbText
 10
1073.927517473247
 20
380.0172675313568
 30
0.0
 40
2.5
  1

 41
0.8
  7
GREEKS
100
AcDbText
  0
TEXT
  5
511
330
20
100
AcDbEntity
  8
BEM
100
AcDbText
 10
1073.927517473247
 20
375.3234989773047
 30
0.0
 40
2.5
  1

 41
0.8
  7
GREEKS
100
AcDbText
  0
TEXT
  5
512
330
20
100
AcDbEntity
  8
BEM
100
AcDbText
 10
1073.927517473247
 20
370.0856551586412
 30
0.0
 40
2.5
  1

 41
0.8
  7
GREEKS
100
AcDbText
  0
TEXT
  5
513
330
20
100
AcDbEntity
  8
BEM
100
AcDbText
 10
1073.854572995873
 20
365.5804662085436
 30
0.0
 40
1.8
  1

 41
0.8
  7
GREEKS
100
AcDbText
  0
TEXT
  5
514
330
20
100
AcDbEntity
  8
BEM
100
AcDbText
 10
1061.171002116262
 20
391.1720553047689
 30
0.0
 40
2.0
  1

 41
0.8
  7
GREEKS
 72
     1
 11
1061.171002116262
 21
391.1720553047689
 31
0.0
100
AcDbText
  0
TEXT
  5
515
330
20
100
AcDbEntity
  8
TEXT
100
AcDbText
 10
1371.271720837556
 20
380.8497787413618
 30
0.0
 40
2.5
  1
  
  7
GREEKS
 72
     1
 11
1373.533625599461
 21
380.8497787413618
 31
0.0
100
AcDbText
  0
TEXT
  5
516
330
20
100
AcDbEntity
  8
BEM
100
AcDbText
 10
1615.391438150038
 20
516.408660771764
 30
0.0
 40
2.5
  1
 
 72
     4
 11
1616.52239053099
 21
516.408660771764
 31
0.0
100
AcDbText
  0
TEXT
  5
517
330
20
100
AcDbEntity
  8
VOLL
100
AcDbText
 10
816.6255219861703
 20
329.2841013719355
 30
0.0
 40
1.8
  1

  7
GREEKS
100
AcDbText
  0
TEXT
  5
518
330
20
100
AcDbEntity
  8
VOLL
100
AcDbText
 10
906.2916959118433
 20
334.5762180876548
 30
0.0
 40
1.8
  1

  7
GREEKS
100
AcDbText
  0
TEXT
  5
519
330
20
100
AcDbEntity
  8
TEXT
100
AcDbText
 10
1238.123964115436
 20
340.1344536208804
 30
0.0
 40
2.5
  1
  
  7
GREEKS
 72
     1
 11
1240.385868877341
 21
340.1344536208804
 31
0.0
100
AcDbText
  0
TEXT
  5
51A
330
20
100
AcDbEntity
  8
BEM
100
AcDbText
 10
1482.243681427918
 20
475.6933356512825
 30
0.0
 40
2.5
  1
 
 72
     4
 11
1483.37463380887
 21
475.6933356512825
 31
0.0
100
AcDbText
  0
TEXT
  5
51B
330
20
100
AcDbEntity
  8
BEM
100
AcDbText
 10
1047.933025557768
 20
358.2129322788162
 30
0.0
 40
2.5
  1

  7
GREEKS
100
AcDbText
  0
TEXT
  5
51C
330
20
100
AcDbEntity
  8
VOLL
100
AcDbText
 10
1033.866832538046
 20
338.0296716217811
 30
0.0
 40
1.8
  1

  7
GREEKS
100
AcDbText
  0
TEXT
  5
51D
330
20
100
AcDbEntity
  8
BEM
100
AcDbText
 10
1068.354897377331
 20
342.7553959450017
 30
0.0
 40
2.5
  1

 41
0.8
  7
GREEKS
100
AcDbText
  0
TEXT
  5
51E
330
20
100
AcDbEntity
  8
BEM
100
AcDbText
 10
1068.354897377331
 20
338.0616273909496
 30
0.0
 40
2.5
  1

 41
0.8
  7
GREEKS
100
AcDbText
  0
TEXT
  5
51F
330
20
100
AcDbEntity
  8
BEM
100
AcDbText
 10
1068.354897377331
 20
332.8237835722861
 30
0.0
 40
2.5
  1

 41
0.8
  7
GREEKS
100
AcDbText
  0
TEXT
  5
520
330
20
100
AcDbEntity
  8
BEM
100
AcDbText
 10
1068.281952899956
 20
328.3185946221884
 30
0.0
 40
1.8
  1

 41
0.8
  7
GREEKS
100
AcDbText
  0
TEXT
  5
521
330
20
100
AcDbEntity
  8
BEM
100
AcDbText
 10
1055.598382020345
 20
353.9101837184137
 30
0.0
 40
2.0
  1

 41
0.8
  7
GREEKS
 72
     1
 11
1055.598382020345
 21
353.9101837184137
 31
0.0
100
AcDbText
  0
TEXT
  5
522
330
20
100
AcDbEntity
  8
TEXT
100
AcDbText
 10
1365.699100741639
 20
343.5879071550066
 30
0.0
 40
2.5
  1
  
  7
GREEKS
 72
     1
 11
1367.961005503544
 21
343.5879071550066
 31
0.0
100
AcDbText
  0
TEXT
  5
523
330
20
100
AcDbEntity
  8
BEM
100
AcDbText
 10
1609.818818054121
 20
479.1467891854089
 30
0.0
 40
2.5
  1
 
 72
     4
 11
1610.949770435073
 21
479.1467891854089
 31
0.0
100
AcDbText
  0
TEXT
  5
524
330
20
100
AcDbEntity
  8
VOLL
100
AcDbText
 10
958.5835969333315
 20
345.4811856837702
 30
0.0
 40
1.8
  1

  7
GREEKS
100
AcDbText
  0
TEXT
  5
525
330
20
100
AcDbEntity
  8
TEXT
100
AcDbText
 10
1290.415865136924
 20
351.0394212169958
 30
0.0
 40
2.5
  1
  
  7
GREEKS
 72
     1
 11
1292.677769898829
 21
351.0394212169958
 31
0.0
100
AcDbText
  0
TEXT
  5
526
330
20
100
AcDbEntity
  8
BEM
100
AcDbText
 10
1534.535582449406
 20
486.5983032473979
 30
0.0
 40
2.5
  1
 
 72
     4
 11
1535.666534830359
 21
486.5983032473979
 31
0.0
100
AcDbText
  0
TEXT
  5
527
330
20
100
AcDbEntity
  8
BEM
100
AcDbText
 10
1113.723199090127
 20
365.8145965734468
 30
0.0
 40
2.5
  1

  7
GREEKS
100
AcDbText
  0
TEXT
  5
528
330
20
100
AcDbEntity
  8
VOLL
100
AcDbText
 10
1099.657006070406
 20
345.6313359164117
 30
0.0
 40
1.8
  1

  7
GREEKS
100
AcDbText
  0
TEXT
  5
529
330
20
100
AcDbEntity
  8
BEM
100
AcDbText
 10
1134.14507090969
 20
350.3570602396323
 30
0.0
 40
2.5
  1

 41
0.8
  7
GREEKS
100
AcDbText
  0
TEXT
  5
52A
330
20
100
AcDbEntity
  8
BEM
100
AcDbText
 10
1134.14507090969
 20
345.6632916855801
 30
0.0
 40
2.5
  1

 41
0.8
  7
GREEKS
100
AcDbText
  0
TEXT
  5
52B
330
20
100
AcDbEntity
  8
BEM
100
AcDbText
 10
1134.14507090969
 20
340.4254478669166
 30
0.0
 40
2.5
  1

 41
0.8
  7
GREEKS
100
AcDbText
  0
TEXT
  5
52C
330
20
100
AcDbEntity
  8
BEM
100
AcDbText
 10
1134.072126432316
 20
335.920258916819
 30
0.0
 40
1.8
  1

 41
0.8
  7
GREEKS
100
AcDbText
  0
TEXT
  5
52D
330
20
100
AcDbEntity
  8
BEM
100
AcDbText
 10
1121.388555552705
 20
361.5118480130443
 30
0.0
 40
2.0
  1

 41
0.8
  7
GREEKS
 72
     1
 11
1121.388555552705
 21
361.5118480130443
 31
0.0
100
AcDbText
  0
TEXT
  5
52E
330
20
100
AcDbEntity
  8
TEXT
100
AcDbText
 10
1431.489274273999
 20
351.1895714496372
 30
0.0
 40
2.5
  1
  
  7
GREEKS
 72
     1
 11
1433.751179035904
 21
351.1895714496372
 31
0.0
100
AcDbText
  0
TEXT
  5
52F
330
20
100
AcDbEntity
  8
BEM
100
AcDbText
 10
1675.608991586481
 20
486.7484534800395
 30
0.0
 40
2.5
  1
 
 72
     4
 11
1676.739943967433
 21
486.7484534800395
 31
0.0
100
AcDbText
  0
TEXT
  5
530
330
20
100
AcDbEntity
  8
VOLL
100
AcDbText
 10
894.5613855065753
 20
333.6654761580217
 30
0.0
 40
1.8
  1

  7
GREEKS
100
AcDbText
  0
TEXT
  5
531
330
20
100
AcDbEntity
  8
TEXT
100
AcDbText
 10
1226.393653710168
 20
339.2237116912473
 30
0.0
 40
2.5
  1
  
  7
GREEKS
 72
     1
 11
1228.655558472073
 21
339.2237116912473
 31
0.0
100
AcDbText
  0
TEXT
  5
532
330
20
100
AcDbEntity
  8
BEM
100
AcDbText
 10
1470.51337102265
 20
474.7825937216495
 30
0.0
 40
2.5
  1
 
 72
     4
 11
1471.644323403602
 21
474.7825937216495
 31
0.0
100
AcDbText
  0
TEXT
  5
533
330
20
100
AcDbEntity
  8
BEM
100
AcDbText
 10
1059.906998586225
 20
373.8187068566074
 30
0.0
 40
2.5
  1

  7
GREEKS
100
AcDbText
  0
TEXT
  5
534
330
20
100
AcDbEntity
  8
VOLL
100
AcDbText
 10
1045.840805566503
 20
353.6354461995723
 30
0.0
 40
1.8
  1

  7
GREEKS
100
AcDbText
  0
TEXT
  5
535
330
20
100
AcDbEntity
  8
BEM
100
AcDbText
 10
1080.328870405788
 20
358.3611705227929
 30
0.0
 40
2.5
  1

 41
0.8
  7
GREEKS
100
AcDbText
  0
TEXT
  5
536
330
20
100
AcDbEntity
  8
BEM
100
AcDbText
 10
1080.328870405788
 20
353.6674019687408
 30
0.0
 40
2.5
  1

 41
0.8
  7
GREEKS
100
AcDbText
  0
TEXT
  5
537
330
20
100
AcDbEntity
  8
BEM
100
AcDbText
 10
1080.328870405788
 20
348.4295581500772
 30
0.0
 40
2.5
  1

 41
0.8
  7
GREEKS
100
AcDbText
  0
TEXT
  5
538
330
20
100
AcDbEntity
  8
BEM
100
AcDbText
 10
1080.255925928414
 20
343.9243691999796
 30
0.0
 40
1.8
  1

 41
0.8
  7
GREEKS
100
AcDbText
  0
TEXT
  5
539
330
20
100
AcDbEntity
  8
BEM
100
AcDbText
 10
1067.572355048802
 20
369.5159582962049
 30
0.0
 40
2.0
  1

 41
0.8
  7
GREEKS
 72
     1
 11
1067.572355048802
 21
369.5159582962049
 31
0.0
100
AcDbText
  0
TEXT
  5
53A
330
20
100
AcDbEntity
  8
TEXT
100
AcDbText
 10
1377.673073770096
 20
359.1936817327979
 30
0.0
 40
2.5
  1
  
  7
GREEKS
 72
     1
 11
1379.934978532001
 21
359.1936817327979
 31
0.0
100
AcDbText
  0
TEXT
  5
53B
330
20
100
AcDbEntity
  8
BEM
100
AcDbText
 10
1621.792791082579
 20
494.7525637632001
 30
0.0
 40
2.5
  1
 
 72
     4
 11
1622.923743463531
 21
494.7525637632001
 31
0.0
100
AcDbText
  0
TEXT
  5
53C
330
20
100
AcDbEntity
  8
VOLL
100
AcDbText
 10
1172.962524362321
 20
314.0748864249834
 30
0.0
 40
1.8
  1

  7
GREEKS
100
AcDbText
  0
TEXT
  5
53D
330
20
100
AcDbEntity
  8
TEXT
100
AcDbText
 10
1504.794792565914
 20
319.633121958209
 30
0.0
 40
2.5
  1
  
  7
GREEKS
 72
     1
 11
1507.056697327819
 21
319.633121958209
 31
0.0
100
AcDbText
  0
TEXT
  5
53E
330
20
100
AcDbEntity
  8
BEM
100
AcDbText
 10
1748.914509878397
 20
455.1920039886112
 30
0.0
 40
2.5
  1
 
 72
     4
 11
1750.045462259349
 21
455.1920039886112
 31
0.0
100
AcDbText
  0
TEXT
  5
53F
330
20
100
AcDbEntity
  8
VOLL
100
AcDbText
 10
1330.497241439483
 20
319.6304420600546
 30
0.0
 40
1.8
  1

  7
GREEKS
100
AcDbText
  0
TEXT
  5
540
330
20
100
AcDbEntity
  8
BEM
100
AcDbText
 10
1364.985306278768
 20
324.3561663832752
 30
0.0
 40
2.5
  1

 41
0.8
  7
GREEKS
100
AcDbText
  0
TEXT
  5
541
330
20
100
AcDbEntity
  8
BEM
100
AcDbText
 10
1364.985306278768
 20
319.6623978292231
 30
0.0
 40
2.5
  1

 41
0.8
  7
GREEKS
100
AcDbText
  0
TEXT
  5
542
330
20
100
AcDbEntity
  8
BEM
100
AcDbText
 10
1364.985306278768
 20
314.4245540105596
 30
0.0
 40
2.5
  1

 41
0.8
  7
GREEKS
100
AcDbText
  0
TEXT
  5
543
330
20
100
AcDbEntity
  8
BEM
100
AcDbText
 10
1364.912361801393
 20
309.919365060462
 30
0.0
 40
1.8
  1

 41
0.8
  7
GREEKS
100
AcDbText
  0
TEXT
  5
544
330
20
100
AcDbEntity
  8
TEXT
100
AcDbText
 10
1662.329509643076
 20
325.1886775932801
 30
0.0
 40
2.5
  1
  
  7
GREEKS
 72
     1
 11
1664.591414404981
 21
325.1886775932801
 31
0.0
100
AcDbText
  0
TEXT
  5
545
330
20
100
AcDbEntity
  8
BEM
100
AcDbText
 10
1906.449226955558
 20
460.7475596236824
 30
0.0
 40
2.5
  1
 
 72
     4
 11
1907.580179336511
 21
460.7475596236824
 31
0.0
100
AcDbText
  0
LINE
  5
546
102
{ACAD_REACTORS
330
7AC
102
}
330
20
100
AcDbEntity
  8
STEMPEL
  6
Continuous
100
AcDbLine
 10
185.8906948654095
 20
502.5910830185341
 30
0.0
 11
185.8906948654095
 21
493.5782854738464
 31
0.0
  0
LINE
  5
547
102
{ACAD_REACTORS
330
7AC
102
}
330
20
100
AcDbEntity
  8
STEMPEL
  6
Continuous
100
AcDbLine
 10
267.7560921936849
 20
513.1400054256528
 30
0.0
 11
188.2252975371341
 21
513.1400054256528
 31
0.0
  0
ARC
  5
548
102
{ACAD_REACTORS
330
7AC
102
}
330
20
100
AcDbEntity
  8
STEMPEL
  6
Continuous
100
AcDbCircle
 10
210.8906948654095
 20
502.5910830185341
 30
0.0
 40
25.0
100
AcDbArc
 50
155.0418036876845
 51
180.0
  0
LINE
  5
54A
330
20
100
AcDbEntity
  8
HILF
100
AcDbLine
 10
261.4849716334702
 20
454.9104363679732
 30
0.0
 11
194.4964180973487
 21
454.9104363679732
 31
0.0
  0
LINE
  5
54B
330
20
100
AcDbEntity
  8
HILF
100
AcDbLine
 10
264.3203948433176
 20
462.4186245078476
 30
0.0
 11
191.6609948875013
 21
462.4186245078476
 31
0.0
  0
LINE
  5
54C
330
20
100
AcDbEntity
  8
HILF
100
AcDbLine
 10
264.4804884394123
 20
481.7897513951145
 30
0.0
 11
191.5009012914066
 21
481.7897513951145
 31
0.0
  0
LINE
  5
54D
102
{ACAD_REACTORS
330
7AC
102
}
330
20
100
AcDbEntity
  8
STEMPEL
  6
Continuous
100
AcDbLine
 10
188.3906948654095
 20
480.1400054256528
 30
0.0
 11
188.3906948654095
 21
463.5287318430698
 31
0.0
  0
ARC
  5
54E
102
{ACAD_REACTORS
330
7AC
102
}
330
20
100
AcDbEntity
  8
STEMPEL
  6
Continuous
100
AcDbCircle
 10
176.3906948654095
 20
480.1400054256528
 30
0.0
 40
12.0
100
AcDbArc
 50
0.0
 51
21.18315439303543
  0
ARC
  5
54F
102
{ACAD_REACTORS
330
7AC
102
}
330
20
100
AcDbEntity
  8
STEMPEL
  6
Continuous
100
AcDbCircle
 10
210.8906948654095
 20
493.5100054256527
 30
0.0
 40
25.00009324312574
100
AcDbArc
 50
179.8435140456417
 51
201.1831543930354
  0
ARC
  5
550
102
{ACAD_REACTORS
330
7AC
102
}
330
20
100
AcDbEntity
  8
STEMPEL
  6
Continuous
100
AcDbCircle
 10
200.3906948654095
 20
463.5287318430698
 30
0.0
 40
12.0
100
AcDbArc
 50
180.0
 51
212.3280641221628
  0
ARC
  5
551
102
{ACAD_REACTORS
330
7AC
102
}
330
20
100
AcDbEntity
  8
STEMPEL
  6
Continuous
100
AcDbCircle
 10
183.4906948654094
 20
452.8334057610841
 30
0.0
 40
8.0
100
AcDbArc
 50
0.0
 51
32.32806412216284
  0
ARC
  5
552
102
{ACAD_REACTORS
330
7AC
102
}
330
20
100
AcDbEntity
  8
STEMPEL
  6
Continuous
100
AcDbCircle
 10
210.8906948654095
 20
502.5910830185341
 30
0.0
 40
23.4
100
AcDbArc
 50
153.2044220687676
 51
180.0
  0
LINE
  5
553
102
{ACAD_REACTORS
330
7AC
102
}
330
20
100
AcDbEntity
  8
STEMPEL
  6
Continuous
100
AcDbLine
 10
187.4906948654094
 20
502.5910830185341
 30
0.0
 11
187.4906948654094
 21
493.5760643915732
 31
0.0
  0
ARC
  5
554
102
{ACAD_REACTORS
330
7AC
102
}
330
20
100
AcDbEntity
  8
STEMPEL
  6
Continuous
100
AcDbCircle
 10
210.8906948654095
 20
493.5100054256527
 30
0.0
 40
23.40009324312573
100
AcDbArc
 50
179.8382525687313
 51
201.1831543930354
  0
ARC
  5
555
102
{ACAD_REACTORS
330
7AC
102
}
330
20
100
AcDbEntity
  8
STEMPEL
  6
Continuous
100
AcDbCircle
 10
176.3906948654095
 20
480.1400054256528
 30
0.0
 40
13.6
100
AcDbArc
 50
0.0
 51
21.18315439303557
  0
LINE
  5
556
102
{ACAD_REACTORS
330
7AC
102
}
330
20
100
AcDbEntity
  8
STEMPEL
  6
Continuous
100
AcDbLine
 10
189.9906948654095
 20
480.1400054256528
 30
0.0
 11
189.9906948654095
 21
463.5287318430698
 31
0.0
  0
ARC
  5
557
102
{ACAD_REACTORS
330
7AC
102
}
330
20
100
AcDbEntity
  8
STEMPEL
  6
Continuous
100
AcDbCircle
 10
200.3906948654095
 20
463.5287318430698
 30
0.0
 40
10.4
100
AcDbArc
 50
180.0
 51
212.3280641221628
  0
ARC
  5
558
102
{ACAD_REACTORS
330
7AC
102
}
330
20
100
AcDbEntity
  8
STEMPEL
  6
Continuous
100
AcDbCircle
 10
183.4906948654094
 20
452.8334057610841
 30
0.0
 40
9.599999999999999
100
AcDbArc
 50
0.0
 51
32.32806412216266
  0
ARC
  5
55A
102
{ACAD_REACTORS
330
7AC
102
}
330
20
100
AcDbEntity
  8
STEMPEL
  6
Continuous
100
AcDbCircle
 10
245.0906948654097
 20
493.5100054256527
 30
0.0
 40
25.00009324312574
100
AcDbArc
 50
338.8168456069645
 51
0.1564859543701224
  0
ARC
  5
55B
102
{ACAD_REACTORS
330
7AC
102
}
330
20
100
AcDbEntity
  8
STEMPEL
  6
Continuous
100
AcDbCircle
 10
245.0906948654097
 20
502.5910830185341
 30
0.0
 40
25.0
100
AcDbArc
 50
0.0
 51
24.95819631231538
  0
LINE
  5
55C
102
{ACAD_REACTORS
330
7AC
102
}
330
20
100
AcDbEntity
  8
STEMPEL
  6
Continuous
100
AcDbLine
 10
270.0906948654097
 20
502.5910830185341
 30
0.0
 11
270.0906948654097
 21
493.5782854738516
 31
0.0
  0
LINE
  5
55D
102
{ACAD_REACTORS
330
7AC
102
}
330
20
100
AcDbEntity
  8
STEMPEL
  6
Continuous
100
AcDbLine
 10
265.9906948654095
 20
480.1400054256528
 30
0.0
 11
265.9906948654095
 21
463.5287318430698
 31
0.0
  0
LINE
  5
55E
102
{ACAD_REACTORS
330
7AC
102
}
330
20
100
AcDbEntity
  8
STEMPEL
  6
Continuous
100
AcDbLine
 10
267.5906948654096
 20
480.1400054256528
 30
0.0
 11
267.5906948654096
 21
463.5287318430698
 31
0.0
  0
ARC
  5
55F
102
{ACAD_REACTORS
330
7AC
102
}
330
20
100
AcDbEntity
  8
STEMPEL
  6
Continuous
100
AcDbCircle
 10
245.0906948654097
 20
502.5910830185341
 30
0.0
 40
23.4
100
AcDbArc
 50
0.0
 51
26.79557793123232
  0
ARC
  5
560
102
{ACAD_REACTORS
330
7AC
102
}
330
20
100
AcDbEntity
  8
STEMPEL
  6
Continuous
100
AcDbCircle
 10
245.0906948654097
 20
493.5100054256527
 30
0.0
 40
23.40009324312573
100
AcDbArc
 50
338.8168456069645
 51
0.1617474313041451
  0
LINE
  5
561
102
{ACAD_REACTORS
330
7AC
102
}
330
20
100
AcDbEntity
  8
STEMPEL
  6
Continuous
100
AcDbLine
 10
268.4906948654096
 20
502.5910830185341
 30
0.0
 11
268.4906948654096
 21
493.5760643915877
 31
0.0
  0
ARC
  5
562
102
{ACAD_REACTORS
330
7AC
102
}
330
20
100
AcDbEntity
  8
STEMPEL
  6
Continuous
100
AcDbCircle
 10
279.5906948654096
 20
480.1400054256528
 30
0.0
 40
13.6
100
AcDbArc
 50
158.8168456069645
 51
179.9999999999999
  0
ARC
  5
563
102
{ACAD_REACTORS
330
7AC
102
}
330
20
100
AcDbEntity
  8
STEMPEL
  6
Continuous
100
AcDbCircle
 10
279.5906948654096
 20
480.1400054256528
 30
0.0
 40
12.0
100
AcDbArc
 50
158.8168456069644
 51
179.9999999999999
  0
ARC
  5
564
102
{ACAD_REACTORS
330
7AC
102
}
330
20
100
AcDbEntity
  8
STEMPEL
  6
Continuous
100
AcDbCircle
 10
272.4906948654096
 20
452.8334057610841
 30
0.0
 40
9.599999999999999
100
AcDbArc
 50
147.6719358778371
 51
180.0
  0
ARC
  5
565
102
{ACAD_REACTORS
330
7AC
102
}
330
20
100
AcDbEntity
  8
STEMPEL
  6
Continuous
100
AcDbCircle
 10
272.4906948654096
 20
452.8334057610841
 30
0.0
 40
8.0
100
AcDbArc
 50
147.6719358778371
 51
180.0
  0
ARC
  5
566
102
{ACAD_REACTORS
330
7AC
102
}
330
20
100
AcDbEntity
  8
STEMPEL
  6
Continuous
100
AcDbCircle
 10
255.5906948654095
 20
463.5287318430698
 30
0.0
 40
10.4
100
AcDbArc
 50
327.6719358778372
 51
359.9999999999998
  0
ARC
  5
567
102
{ACAD_REACTORS
330
7AC
102
}
330
20
100
AcDbEntity
  8
STEMPEL
  6
Continuous
100
AcDbCircle
 10
255.5906948654095
 20
463.5287318430698
 30
0.0
 40
12.0
100
AcDbArc
 50
327.6719358778371
 51
359.9999999999998
  0
LINE
  5
568
102
{ACAD_REACTORS
330
7AC
102
}
330
20
100
AcDbEntity
  8
STEMPEL
  6
Continuous
100
AcDbLine
 10
262.8906948654095
 20
425.6156848033934
 30
0.0
 11
262.8906948654096
 21
452.8334057610841
 31
0.0
  0
LINE
  5
569
102
{ACAD_REACTORS
330
7AC
102
}
330
20
100
AcDbEntity
  8
STEMPEL
  6
Continuous
100
AcDbLine
 10
264.4906948654095
 20
425.6156848033934
 30
0.0
 11
264.4906948654096
 21
452.8334057610841
 31
0.0
  0
LINE
  5
56A
102
{ACAD_REACTORS
330
7C8
102
}
330
20
100
AcDbEntity
  8
STEMPEL
100
AcDbLine
 10
207.5973857537761
 20
208.1400054256529
 30
0.0
 11
248.3840039770432
 21
208.1400054256529
 31
0.0
  0
TEXT
  5
570
330
20
100
AcDbEntity
  8
TEXT
100
AcDbText
 10
50.61890059558578
 20
113.2854817854125
 30
0.0
 40
5.0
  1
Erstellt mit AUTOCAD 2004
 41
0.8
  7
GREEKS
100
AcDbText
  0
LINE
  5
576
330
20
100
AcDbEntity
  8
HILF
100
AcDbLine
 10
0.0
 20
0.0
 30
0.0
 11
0.0
 21
594.0
 31
0.0
  0
LINE
  5
577
330
20
100
AcDbEntity
  8
MITTEL
100
AcDbLine
 10
227.9906948654097
 20
203.1400054256529
 30
0.0
 11
227.9906948654096
 21
365.1008679842716
 31
0.0
  0
LINE
  5
57D
330
20
100
AcDbEntity
  8
HILF
100
AcDbLine
 10
195.7167156262286
 20
422.1400054256528
 30
0.0
 11
260.2646741045903
 21
422.1400054256526
 31
0.0
  0
LINE
  5
593
330
20
100
AcDbEntity
  8
MITTEL
100
AcDbLine
 10
227.9906948654096
 20
381.6600799492836
 30
0.0
 11
227.9906948654095
 21
518.1400054256527
 31
0.0
  0
LINE
  5
596
102
{ACAD_REACTORS
330
7C8
102
}
330
20
100
AcDbEntity
  8
STEMPEL
100
AcDbLine
 10
248.9906948654097
 20
215.0745140112896
 30
0.0
 11
248.9906948654097
 21
400.3731008330968
 31
0.0
  0
LINE
  5
59C
102
{ACAD_REACTORS
330
7C8
102
}
330
20
100
AcDbEntity
  8
STEMPEL
100
AcDbLine
 10
247.4906948654096
 20
215.1400054256517
 30
0.0
 11
247.4906948654097
 21
400.3731008330968
 31
0.0
  0
LINE
  5
5A4
330
20
100
AcDbEntity
  8
HILF
100
AcDbLine
 10
209.9964246217246
 20
215.1400054256529
 30
0.0
 11
245.9849651090947
 21
215.140005425653
 31
0.0
  0
LINE
  5
5A5
102
{ACAD_REACTORS
330
7C8
102
}
330
20
100
AcDbEntity
  8
STEMPEL
100
AcDbLine
 10
208.4906948654096
 20
215.1400054256528
 30
0.0
 11
209.1031155100911
 21
208.1400054256529
 31
0.0
  0
LINE
  5
5A6
102
{ACAD_REACTORS
330
7C8
102
}
330
20
100
AcDbEntity
  8
STEMPEL
100
AcDbLine
 10
206.9906948654097
 20
215.0745140112899
 30
0.0
 11
207.5973857537761
 21
208.1400054256529
 31
0.0
  0
LINE
  5
5A7
102
{ACAD_REACTORS
330
7C8
102
}
330
20
100
AcDbEntity
  8
STEMPEL
100
AcDbLine
 10
248.9906948654097
 20
215.0745140112896
 30
0.0
 11
248.3840039770432
 21
208.1400054256529
 31
0.0
  0
LINE
  5
5A8
102
{ACAD_REACTORS
330
7C8
102
}
330
20
100
AcDbEntity
  8
STEMPEL
100
AcDbLine
 10
247.4906948654096
 20
215.1400054256517
 30
0.0
 11
246.8782742207283
 21
208.1400054256529
 31
0.0
  0
DIMENSION
  5
5AA
330
20
100
AcDbEntity
  8
BEM
100
AcDbDimension
  2
*D2
 10
171.0044542872738
 20
513.1400054256528
 30
0.0
 11
164.5044542872738
 21
360.6400054256529
 31
0.0
 70
    32
 71
     5
 42
304.9999999999998
  3
Standard
100
AcDbAlignedDimension
 13
207.5973857537761
 23
208.1400054256529
 33
0.0
 14
188.2252975371341
 24
513.1400054256528
 34
0.0
 50
90.0
100
AcDbRotatedDimension
1001
ACAD
1000
DSTYLE
1002
{
1070
    40
1040
2.0
1070
    41
1040
3.5
1070
    42
1040
1.0
1070
    43
1040
7.0
1070
    44
1040
1.0
1070
    47
1040
0.4
1070
    73
1070
     0
1070
    74
1070
     0
1070
    77
1070
     1
1070
    78
1070
     8
1070
    79
1070
     2
1070
   140
1040
3.5
1070
   141
1040
1.5
1070
   145
1040
0.5714285714285714
1070
   146
1040
0.5
1070
   147
1040
1.5
1070
   172
1070
     1
1070
   178
1070
     1
1070
   179
1070
     2
1070
   271
1070
     2
1070
   272
1070
     2
1070
   284
1070
     8
1070
   285
1070
     8
1070
   286
1070
     8
1002
}
  0
DIMENSION
  5
5AC
330
20
100
AcDbEntity
  8
BEM
100
AcDbDimension
  2
*D1
 10
248.9906948654097
 20
186.4455593565702
 30
0.0
 11
227.9906948654097
 21
192.9455593565702
 31
0.0
 70
    32
  1
%%c<>
 71
     5
 42
42.0
  3
Standard
100
AcDbAlignedDimension
 13
206.9906948654097
 23
215.0745140112899
 33
0.0
 14
248.9906948654097
 24
215.0745140112896
 34
0.0
100
AcDbRotatedDimension
1001
ACAD
1000
DSTYLE
1002
{
1070
    40
1040
2.0
1070
    41
1040
3.5
1070
    42
1040
1.0
1070
    43
1040
7.0
1070
    44
1040
1.0
1070
    47
1040
0.4
1070
    73
1070
     0
1070
    74
1070
     0
1070
    77
1070
     1
1070
    78
1070
     8
1070
    79
1070
     2
1070
   140
1040
3.5
1070
   141
1040
1.5
1070
   145
1040
0.5714285714285714
1070
   146
1040
0.5
1070
   147
1040
1.5
1070
   172
1070
     1
1070
   178
1070
     1
1070
   179
1070
     2
1070
   271
1070
     2
1070
   272
1070
     2
1070
   284
1070
     8
1070
   285
1070
     8
1070
   286
1070
     8
1002
}
  0
TEXT
  5
666
330
20
100
AcDbEntity
  8
TEXT
 62
     1
100
AcDbText
 10
222.3815932041432
 20
260.4049318133728
 30
0.0
 40
7.0
  1
DN40
 50
90.0
 41
0.8
  7
GREEKS
100
AcDbText
  0
TEXT
  5
667
330
20
100
AcDbEntity
  8
TEXT
 62
     1
100
AcDbText
 10
222.3815932041432
 20
485.7248907249489
 30
0.0
 40
7.0
  1
DN70
 50
90.0
 41
0.8
  7
GREEKS
100
AcDbText
  0
LINE
  5
67C
102
{ACAD_REACTORS
330
7AC
330
7C8
102
}
330
20
100
AcDbEntity
  8
STEMPEL
  6
Continuous
100
AcDbLine
 10
254.4906948654095
 20
410.1400054256528
 30
0.0
 11
201.4906948654096
 21
410.1400054256528
 31
0.0
  0
LINE
  5
6A6
102
{ACAD_REACTORS
330
7C8
330
7D7
102
}
330
20
100
AcDbEntity
  8
STEMPEL
100
AcDbLine
 10
250.7001481548302
 20
405.3156732485519
 30
0.0
 11
254.4906948654095
 21
410.1400054256528
 31
0.0
  0
ARC
  5
6A7
102
{ACAD_REACTORS
330
7C8
102
}
330
20
100
AcDbEntity
  8
STEMPEL
100
AcDbCircle
 10
256.9906948654097
 20
400.3731008330968
 30
0.0
 40
8.0
100
AcDbArc
 50
141.8427734126312
 51
180.0
  0
LINE
  5
6A8
102
{ACAD_REACTORS
330
7C8
102
}
330
20
100
AcDbEntity
  8
STEMPEL
100
AcDbLine
 10
249.5206706465966
 20
406.2424055764497
 30
0.0
 11
252.5830705281133
 21
410.1400054256528
 31
0.0
  0
ARC
  5
6A9
102
{ACAD_REACTORS
330
7C8
102
}
330
20
100
AcDbEntity
  8
STEMPEL
100
AcDbCircle
 10
256.9906948654097
 20
400.3731008330968
 30
0.0
 40
9.5
100
AcDbArc
 50
141.8427734126312
 51
180.0
  0
LINE
  5
6AC
330
20
100
AcDbEntity
  8
HILF
100
AcDbLine
 10
246.3060242180608
 20
402.98802208577
 30
0.0
 11
209.6753655127583
 21
402.98802208577
 31
0.0
  0
LINE
  5
6B2
102
{ACAD_REACTORS
330
711
330
7AC
102
}
330
20
100
AcDbEntity
  8
STEMPEL
  6
Continuous
100
AcDbLine
 10
191.4906948654096
 20
425.6156848033933
 30
0.0
 11
191.4906948654094
 21
452.833405761084
 31
0.0
  0
LINE
  5
6B3
102
{ACAD_REACTORS
330
7AC
102
}
330
20
100
AcDbEntity
  8
STEMPEL
  6
Continuous
100
AcDbLine
 10
193.0906948654096
 20
425.6156848033933
 30
0.0
 11
193.0906948654094
 21
452.833405761084
 31
0.0
  0
ARC
  5
6B8
102
{ACAD_REACTORS
330
7C8
102
}
330
20
100
AcDbEntity
  8
STEMPEL
100
AcDbCircle
 10
198.9906948654095
 20
400.3731008330967
 30
0.0
 40
9.5
100
AcDbArc
 50
0.0000000000000798
 51
38.15722658736888
  0
LINE
  5
6B9
102
{ACAD_REACTORS
330
7C8
102
}
330
20
100
AcDbEntity
  8
STEMPEL
100
AcDbLine
 10
206.4607190842225
 20
406.2424055764497
 30
0.0
 11
203.3983192027058
 21
410.1400054256528
 31
0.0
  0
ARC
  5
6BA
102
{ACAD_REACTORS
330
7C8
102
}
330
20
100
AcDbEntity
  8
STEMPEL
100
AcDbCircle
 10
198.9906948654095
 20
400.3731008330967
 30
0.0
 40
8.0
100
AcDbArc
 50
0.0000000000000798
 51
38.15722658736888
  0
LINE
  5
6BB
102
{ACAD_REACTORS
330
7C8
330
7D7
102
}
330
20
100
AcDbEntity
  8
STEMPEL
100
AcDbLine
 10
205.2812415759889
 20
405.3156732485518
 30
0.0
 11
201.4906948654096
 21
410.1400054256528
 31
0.0
  0
LINE
  5
6BC
102
{ACAD_REACTORS
330
7C8
102
}
330
20
100
AcDbEntity
  8
STEMPEL
100
AcDbLine
 10
208.4906948654097
 20
215.1400054256516
 30
0.0
 11
208.4906948654094
 21
400.3731008330967
 31
0.0
  0
LINE
  5
6BD
102
{ACAD_REACTORS
330
7C8
102
}
330
20
100
AcDbEntity
  8
STEMPEL
100
AcDbLine
 10
206.9906948654097
 20
215.0745140112896
 30
0.0
 11
206.9906948654095
 21
400.3731008330967
 31
0.0
  0
LINE
  5
6E4
102
{ACAD_REACTORS
330
7AC
330
7D7
102
}
330
20
100
AcDbEntity
  8
STEMPEL
100
AcDbLine
 10
262.2656191495443
 20
419.4699145666143
 30
0.0
 11
254.4906948654095
 21
410.1400054256528
 31
0.0
  0
LINE
  5
6E5
102
{ACAD_REACTORS
330
7AC
102
}
330
20
100
AcDbEntity
  8
STEMPEL
100
AcDbLine
 10
261.0364651021884
 20
420.4942096060775
 30
0.0
 11
252.407961618501
 21
410.1400054256528
 31
0.0
  0
ARC
  5
6E6
102
{ACAD_REACTORS
330
7AC
102
}
330
20
100
AcDbEntity
  8
STEMPEL
100
AcDbCircle
 10
254.8906948654094
 20
425.6156848033935
 30
0.0
 40
8.0
100
AcDbArc
 50
320.1944289077343
 51
359.9999999999998
  0
ARC
  5
6E7
102
{ACAD_REACTORS
330
711
330
7AC
102
}
330
20
100
AcDbEntity
  8
STEMPEL
100
AcDbCircle
 10
254.8906948654094
 20
425.6156848033935
 30
0.0
 40
9.599999999999999
100
AcDbArc
 50
320.1944289077343
 51
359.9999999999998
  0
ARC
  5
6F5
102
{ACAD_REACTORS
330
7AC
102
}
330
20
100
AcDbEntity
  8
STEMPEL
100
AcDbCircle
 10
201.0906948654096
 20
425.6156848033934
 30
0.0
 40
9.599999999999999
100
AcDbArc
 50
180.0000000000003
 51
219.8055710922658
  0
ARC
  5
6F6
102
{ACAD_REACTORS
330
7AC
102
}
330
20
100
AcDbEntity
  8
STEMPEL
100
AcDbCircle
 10
201.0906948654096
 20
425.6156848033934
 30
0.0
 40
8.0
100
AcDbArc
 50
180.0000000000003
 51
219.8055710922658
  0
LINE
  5
6F7
102
{ACAD_REACTORS
330
7AC
102
}
330
20
100
AcDbEntity
  8
STEMPEL
100
AcDbLine
 10
194.9449246286307
 20
420.4942096060775
 30
0.0
 11
203.573428112318
 21
410.1400054256528
 31
0.0
  0
LINE
  5
6F8
102
{ACAD_REACTORS
330
7AC
330
7D7
102
}
330
20
100
AcDbEntity
  8
STEMPEL
100
AcDbLine
 10
193.7157705812748
 20
419.4699145666143
 30
0.0
 11
201.4906948654096
 21
410.1400054256528
 31
0.0
  0
DIMENSION
  5
6FA
102
{ACAD_XDICTIONARY
360
707
102
}
102
{ACAD_REACTORS
330
711
102
}
330
20
100
AcDbEntity
  8
BEM
100
AcDbDimension
  2
*D3
 10
264.4906948654095
 20
367.5717495036961
 30
0.0
 11
227.9906948654095
 21
374.0717495036961
 31
0.0
 70
    32
  1
%%c<>
 71
     5
 42
72.99999999999989
  3
Standard
100
AcDbAlignedDimension
 13
191.4906948654096
 23
425.6156848033933
 33
0.0
 14
264.4906948654095
 24
425.6156848033934
 34
0.0
100
AcDbRotatedDimension
1001
ACAD
1000
DSTYLE
1002
{
1070
    40
1040
2.0
1070
    41
1040
3.5
1070
    42
1040
1.0
1070
    43
1040
7.0
1070
    44
1040
1.0
1070
    47
1040
0.4
1070
    73
1070
     0
1070
    74
1070
     0
1070
    77
1070
     1
1070
    78
1070
     8
1070
    79
1070
     2
1070
   140
1040
3.5
1070
   141
1040
1.5
1070
   145
1040
0.5714285714285714
1070
   146
1040
0.5
1070
   147
1040
1.5
1070
   172
1070
     1
1070
   178
1070
     1
1070
   179
1070
     2
1070
   271
1070
     2
1070
   272
1070
     2
1070
   284
1070
     8
1070
   285
1070
     8
1070
   286
1070
     8
1002
}
  0
HATCH
  5
7AC
330
20
100
AcDbEntity
  8
SCHRAFF
100
AcDbHatch
 10
0.0
 20
0.0
 30
0.0
210
0.0
220
0.0
230
1.0
  2
_USER
 70
     0
 71
     1
 91
        2
 92
        7
 72
     1
 73
     1
 93
       22
 10
267.5906948654096
 20
480.1400054256528
 42
-0.0926930603363572
 10
268.4015338738513
 20
484.4762107142654
 42
0.0933817694259916
 10
270.0906948654097
 20
493.5782854738516
 42
0.0
 10
270.0906948654097
 20
502.5910830185341
 42
0.1093332246020751
 10
267.7560921936849
 20
513.1400054256528
 42
0.0
 10
265.9780172416405
 20
513.1400054256528
 42
-0.1174534402570128
 10
268.4906948654096
 20
502.5910830185344
 42
0.0
 10
268.4906948654096
 20
493.5760643915877
 42
-0.0934049271928111
 10
266.9096457416436
 20
485.0543714194136
 42
0.0926930603363643
 10
265.9906948654095
 20
480.1400054256523
 42
0.0
 10
265.9906948654095
 20
463.5287318430698
 42
-0.1420008527982326
 10
264.3786948654095
 20
457.9671622804373
 42
0.1420008527982323
 10
262.8906948654096
 20
452.8334057610841
 42
0.0
 10
262.8906948654095
 20
425.6156848033934
 42
-0.1754523787641746
 10
261.0364651021884
 20
420.4942096060776
 42
0.0
 10
252.4079616185011
 20
410.1400054256528
 42
0.0
 10
254.4906948654096
 20
410.1400054256528
 42
0.0
 10
262.2656191495443
 20
419.4699145666143
 42
0.1754523787641738
 10
264.4906948654095
 20
425.6156848033933
 42
0.0
 10
264.4906948654096
 20
452.8334057610841
 42
-0.1420008527982322
 10
265.7306948654097
 20
457.1115361938784
 42
0.1420008527982313
 10
267.5906948654096
 20
463.5287318430698
 42
0.0
 97
       22
330
563
330
55A
330
55C
330
55B
330
547
330
55F
330
561
330
560
330
562
330
55D
330
566
330
564
330
568
330
6E6
330
6E5
330
67C
330
6E4
330
6E7
330
569
330
565
330
567
330
55E
 92
        7
 72
     1
 73
     1
 93
       22
 10
189.9906948654095
 20
480.1400054256528
 42
0.0926930603363564
 10
189.0717439891755
 20
485.0543714194136
 42
-0.0934049271926556
 10
187.4906948654094
 20
493.5760643915732
 42
0.0
 10
187.4906948654094
 20
502.5910830185341
 42
-0.1174534402570159
 10
190.0033724891788
 20
513.1400054256528
 42
0.0
 10
188.2252975371341
 20
513.1400054256528
 42
0.1093332246020735
 10
185.8906948654095
 20
502.5910830185343
 42
0.0
 10
185.8906948654095
 20
493.5782854738464
 42
0.0933817694259403
 10
187.5798558569677
 20
484.4762107142653
 42
-0.0926930603363582
 10
188.3906948654095
 20
480.1400054256527
 42
0.0
 10
188.3906948654095
 20
463.5287318430698
 42
0.1420008527982315
 10
190.2506948654094
 20
457.1115361938784
 42
-0.1420008527982346
 10
191.4906948654094
 20
452.833405761084
 42
0.0
 10
191.4906948654096
 20
425.6156848033933
 42
0.1754523787641732
 10
193.7157705812747
 20
419.4699145666143
 42
0.0
 10
201.4906948654096
 20
410.1400054256528
 42
0.0
 10
203.573428112318
 20
410.1400054256529
 42
0.0
 10
194.9449246286307
 20
420.4942096060775
 42
-0.175452378764176
 10
193.0906948654096
 20
425.6156848033933
 42
0.0
 10
193.0906948654094
 20
452.833405761084
 42
0.1420008527982338
 10
191.6026948654094
 20
457.9671622804372
 42
-0.1420008527982326
 10
189.9906948654095
 20
463.5287318430698
 42
0.0
 97
       22
330
555
330
554
330
553
330
552
330
547
330
548
330
546
330
54F
330
54E
330
54D
330
550
330
551
330
6B2
330
6F5
330
6F8
330
67C
330
6F7
330
6F6
330
6B3
330
558
330
557
330
556
 75
     0
 76
     0
 52
45.0
 41
2.0
 77
     0
 78
     1
 53
45.0
 43
0.0
 44
0.0
 45
-1.414213562373094
 46
1.414213562373095
 79
     0
 47
0.2638269015503299
 98
        2
 10
267.0064744131441
 20
475.2528556704087
 10
189.3845498580763
 20
467.8657020082384
  0
HATCH
  5
7C8
330
20
100
AcDbEntity
  8
SCHRAFF
100
AcDbHatch
 10
0.0
 20
0.0
 30
0.0
210
0.0
220
0.0
230
1.0
  2
_USER
 70
     0
 71
     1
 91
        2
 92
        7
 72
     1
 73
     1
 93
       10
 10
248.9906948654097
 20
400.3731008330968
 42
-0.1680479318558766
 10
250.7001481548302
 20
405.3156732485519
 42
0.0
 10
254.4906948654095
 20
410.1400054256528
 42
0.0
 10
252.5830705281133
 20
410.1400054256528
 42
0.0
 10
249.5206706465966
 20
406.2424055764497
 42
0.1680479318558764
 10
247.4906948654097
 20
400.3731008330968
 42
0.0
 10
247.4906948654096
 20
215.1400054256513
 42
0.0
 10
246.8782742207282
 20
208.1400054256529
 42
0.0
 10
248.3840039770433
 20
208.1400054256529
 42
0.0
 10
248.9906948654097
 20
215.0745140112894
 42
0.0
 97
       10
330
6A7
330
6A6
330
67C
330
6A8
330
6A9
330
59C
330
5A8
330
56A
330
5A7
330
596
 92
        7
 72
     1
 73
     1
 93
       10
 10
208.4906948654094
 20
400.3731008330967
 42
0.1680479318558779
 10
206.4607190842225
 20
406.2424055764497
 42
0.0
 10
203.3983192027059
 20
410.1400054256528
 42
0.0
 10
201.4906948654096
 20
410.1400054256528
 42
0.0
 10
205.2812415759889
 20
405.3156732485518
 42
-0.1680479318558748
 10
206.9906948654095
 20
400.3731008330967
 42
0.0
 10
206.9906948654097
 20
215.0745140112899
 42
0.0
 10
207.5973857537761
 20
208.1400054256529
 42
0.0
 10
209.1031155100911
 20
208.1400054256529
 42
0.0
 10
208.4906948654097
 20
215.1400054256521
 42
0.0
 97
       10
330
6B8
330
6B9
330
67C
330
6BB
330
6BA
330
6BD
330
5A6
330
56A
330
5A5
330
6BC
 75
     0
 76
     0
 52
135.0
 41
2.0
 77
     0
 78
     1
 53
135.0
 43
0.0
 44
0.0
 45
-1.414213562373095
 46
-1.414213562373094
 79
     0
 47
0.5057098033382835
 98
        2
 10
248.5551959663253
 20
295.9337176237568
 10
208.0687789691424
 20
294.4165871971441
  0
ARC
  5
7CB
102
{ACAD_REACTORS
330
7D7
102
}
330
20
100
AcDbEntity
  8
SCHRAFF
100
AcDbCircle
 10
252.6219821020371
 20
411.7105960300158
 30
0.0
 40
4.596614235411802
100
AcDbArc
 50
263.9003115040249
 51
18.11770041096345
  0
ARC
  5
7CC
102
{ACAD_REACTORS
330
7D7
102
}
330
20
100
AcDbEntity
  8
SCHRAFF
100
AcDbCircle
 10
203.3594076287821
 20
411.7105960300157
 30
0.0
 40
4.596614235411802
100
AcDbArc
 50
161.8822995890367
 51
276.0996884959752
  0
HATCH
  5
7D7
330
20
100
AcDbEntity
  8
SCHRAFF
100
AcDbHatch
 10
0.0
 20
0.0
 30
0.0
210
0.0
220
0.0
230
1.0
  2
_USER
 70
     0
 71
     1
 91
        2
 92
        7
 72
     1
 73
     1
 93
        3
 10
256.9906948654097
 20
413.140005425653
 42
0.0
 10
254.49069486541
 20
410.1400054256535
 42
0.0
 10
252.1335520082667
 20
407.1400054256529
 42
0.5441845007645641
 97
        3
330
6E4
330
6A6
330
7CB
 92
        7
 72
     1
 73
     1
 93
        3
 10
201.4906948654086
 20
410.1400054256524
 42
0.0
 10
198.9906948654093
 20
413.1400054256521
 42
0.5441845007644942
 10
203.8478377225524
 20
407.1400054256528
 42
0.0
 97
        3
330
6F8
330
7CC
330
6BB
 75
     0
 76
     0
 52
0.0
 41
0.1
 77
     0
 78
     1
 53
0.0
 43
0.0
 44
0.0
 45
0.0
 46
0.1
 79
     0
 47
0.1238254435860611
 98
        2
 10
255.5618509232563
 20
409.5611057086489
 10
200.5430838949892
 20
408.8181519576521
  0
TEXT
  5
7DD
330
20
100
AcDbEntity
  8
TEXT
100
AcDbText
 10
417.3022923857165
 20
10.16790107998861
 30
0.0
 40
4.0
  1
Diese Zeichnung ist urheberrechtlich geschützt und bleibt unser Eigentum. Sie darf weder ganz noch teilweise verfielfältigt und nicht an Dritte weitergegeben werden.
 50
90.0
 41
0.8
  7
GREEKS
100
AcDbText
  0
TEXT
  5
7E5
330
20
100
AcDbEntity
  8
TEXT
 62
     1
100
AcDbText
 10
244.6057658946466
 20
129.0783465745482
 30
0.0
 40
7.0
  1
und innen beschichtet
 41
0.8
  7
GREEKS
100
AcDbText
  0
TEXT
  5
7E6
330
20
100
AcDbEntity
  8
TEXT
 62
     1
100
AcDbText
 10
196.6560484572488
 20
139.8004583895517
 30
0.0
 40
7.0
  1
Werkstoff: E195 EN10305 feuerverzinkt
 41
0.8
  7
GREEKS
100
AcDbText
  0
TEXT
  5
7E7
330
20
100
AcDbEntity
  8
TEXT
100
AcDbText
 10
192.5556106269613
 20
89.7253168893854
 30
0.0
 40
4.0
  1
DIN EN1123-2
 41
0.8
  7
GREEKS
 72
     1
 11
209.5460868174375
 21
89.7253168893854
 31
0.0
100
AcDbText
  0
ENDSEC
  0
SECTION
  2
OBJECTS
  0
DICTIONARY
  5
C
330
0
100
AcDbDictionary
281
     1
  3
ACAD_COLOR
350
1B
  3
ACAD_GROUP
350
D
  3
ACAD_LAYOUT
350
19
  3
ACAD_MATERIAL
350
1A
  3
ACAD_MLINESTYLE
350
16
  3
ACAD_PLOTSETTINGS
350
18
  3
ACAD_PLOTSTYLENAME
350
E
  3
AcDbVariableDictionary
350
810
  0
DICTIONARY
  5
707
330
6FA
100
AcDbDictionary
280
     1
281
     1
  3
ACAD_DIMASSOC
360
711
  0
DICTIONARY
  5
1B
102
{ACAD_REACTORS
330
C
102
}
330
C
100
AcDbDictionary
281
     1
  0
DICTIONARY
  5
D
102
{ACAD_REACTORS
330
C
102
}
330
C
100
AcDbDictionary
281
     1
  0
DICTIONARY
  5
19
102
{ACAD_REACTORS
330
C
102
}
330
C
100
AcDbDictionary
281
     1
  3
Layout1
350
1F
  3
Model
350
23
  0
DICTIONARY
  5
1A
102
{ACAD_REACTORS
330
C
102
}
330
C
100
AcDbDictionary
281
     1
  0
DICTIONARY
  5
16
102
{ACAD_REACTORS
330
C
102
}
330
C
100
AcDbDictionary
281
     1
  3
Standard
350
17
  0
DICTIONARY
  5
18
102
{ACAD_REACTORS
330
C
102
}
330
C
100
AcDbDictionary
281
     1
  0
ACDBDICTIONARYWDFLT
  5
E
102
{ACAD_REACTORS
330
C
102
}
330
C
100
AcDbDictionary
281
     1
  3
Normal
350
F
100
AcDbDictionaryWithDefault
340
F
  0
DICTIONARY
  5
810
102
{ACAD_REACTORS
330
C
102
}
330
C
100
AcDbDictionary
281
     1
  3
DIMASSOC
350
812
  3
HIDETEXT
350
811
  3
PROJECTNAME
350
813
  0
DIMASSOC
  5
711
102
{ACAD_REACTORS
330
707
102
}
330
707
100
AcDbDimAssoc
330
6FA
 90
        3
 70
     0
 71
     0
  1
AcDbOsnapPointRef
 72
    13
331
6B2
 73
     2
 91
        0
 40
0.0
 10
0.0
 20
0.0
 30
2.000000000000000E+50
 75
     0
  1
AcDbOsnapPointRef
 72
     1
331
6E7
 73
     2
 91
        0
 40
6.28318530717958
 10
0.0
 20
0.0
 30
2.000000000000000E+50
 75
     0
  0
LAYOUT
  5
1F
102
{ACAD_REACTORS
330
19
102
}
330
19
100
AcDbPlotSettings
  1

  2
RICOH Aficio 2027 PCL 6
  4

  6

 40
0.0
 41
0.0
 42
0.0
 43
0.0
 44
0.0
 45
0.0
 46
0.0
 47
0.0
 48
0.0
 49
0.0
140
0.0
141
0.0
142
1.0
143
1.0
 70
   688
 72
     0
 73
     0
 74
     5
  7
monochrome1.ctb
 75
    16
147
1.0
 76
     0
 77
     2
 78
   300
148
0.0
149
0.0
100
AcDbLayout
  1
Layout1
 70
     0
 71
     1
 10
0.0
 20
0.0
 11
12.0
 21
9.0
 12
0.0
 22
0.0
 32
0.0
 14
1.000000000000000E+20
 24
1.000000000000000E+20
 34
1.000000000000000E+20
 15
-1.000000000000000E+20
 25
-1.000000000000000E+20
 35
-1.000000000000000E+20
146
0.0
 13
0.0
 23
0.0
 33
0.0
 16
1.0
 26
0.0
 36
0.0
 17
0.0
 27
1.0
 37
0.0
 76
     0
330
1C
  0
LAYOUT
  5
23
102
{ACAD_REACTORS
330
19
102
}
330
19
100
AcDbPlotSettings
  1

  2
RICOH Aficio 2027 PCL 6
  4
A4
  6

 40
5.027083396911621
 41
5.027085304260253
 42
5.027084350585937
 43
5.027069091796875
 44
209.9733276367187
 45
296.9259948730469
 46
0.0
 47
0.0
 48
0.0
 49
0.0
140
0.0
141
0.0
142
1.0
143
1.0
 70
 11952
 72
     0
 73
     1
 74
     0
  7
monochrome1.ctb
 75
     0
147
1.0
 76
     0
 77
     2
 78
   300
148
2303.507892622773
149
93.70788233259395
100
AcDbLayout
  1
Model
 70
     1
 71
     0
 10
0.0
 20
0.0
 11
12.0
 21
9.0
 12
0.0
 22
0.0
 32
0.0
 14
0.0
 24
0.0
 34
0.0
 15
0.0
 25
0.0
 35
0.0
146
0.0
 13
0.0
 23
0.0
 33
0.0
 16
1.0
 26
0.0
 36
0.0
 17
0.0
 27
1.0
 37
0.0
 76
     0
330
20
  0
MLINESTYLE
  5
17
102
{ACAD_REACTORS
330
16
102
}
330
16
100
AcDbMlineStyle
  2
STANDARD
 70
     0
  3

 62
   256
 51
90.0
 52
90.0
 71
     2
 49
0.5
 62
   256
  6
BYLAYER
 49
-0.5
 62
   256
  6
BYLAYER
  0
ACDBPLACEHOLDER
  5
F
102
{ACAD_REACTORS
330
E
102
}
330
E
  0
DICTIONARYVAR
  5
812
102
{ACAD_REACTORS
330
810
102
}
330
810
100
DictionaryVariables
280
     0
  1
2
  0
DICTIONARYVAR
  5
811
102
{ACAD_REACTORS
330
810
102
}
330
810
100
DictionaryVariables
280
     0
  1
1
  0
DICTIONARYVAR
  5
813
102
{ACAD_REACTORS
330
810
102
}
330
810
100
DictionaryVariables
280
     0
  1

  0
ENDSEC
  0
EOF
