  0
SECTION
  2
HEADER
  9
$ACADVER
  1
AC1018
  9
$ACADMAINTVER
 70
     2
  9
$DWGCODEPAGE
  3
ANSI_1252
  9
$INSBASE
 10
0.0
 20
0.0
 30
0.0
  9
$EXTMIN
 10
-0.0512671842573127
 20
-0.0362532231533805
 30
-0.0000000349181948
  9
$EXTMAX
 10
840.051275007606
 20
594.0362587553784
 30
0.0000000814935746
  9
$LIMMIN
 10
0.0
 20
0.0
  9
$LIMMAX
 10
840.0
 20
594.0
  9
$ORTHOMODE
 70
     1
  9
$REGENMODE
 70
     1
  9
$FILLMODE
 70
     1
  9
$QTEXTMODE
 70
     0
  9
$MIRRTEXT
 70
     1
  9
$LTSCALE
 40
20.0
  9
$ATTMODE
 70
     1
  9
$TEXTSIZE
 40
3.5
  9
$TRACEWID
 40
1.0
  9
$TEXTSTYLE
  7
STANDARD
  9
$CLAYER
  8
BEM
  9
$CELTYPE
  6
ByLayer
  9
$CECOLOR
 62
   256
  9
$CELTSCALE
 40
1.0
  9
$DISPSILH
 70
     0
  9
$DIMSCALE
 40
2.0
  9
$DIMASZ
 40
3.5
  9
$DIMEXO
 40
1.0
  9
$DIMDLI
 40
7.0
  9
$DIMRND
 40
0.0
  9
$DIMDLE
 40
0.0
  9
$DIMEXE
 40
1.0
  9
$DIMTP
 40
0.0
  9
$DIMTM
 40
0.0
  9
$DIMTXT
 40
3.5
  9
$DIMCEN
 40
1.5
  9
$DIMTSZ
 40
0.0
  9
$DIMTOL
 70
     0
  9
$DIMLIM
 70
     0
  9
$DIMTIH
 70
     0
  9
$DIMTOH
 70
     0
  9
$DIMSE1
 70
     0
  9
$DIMSE2
 70
     0
  9
$DIMTAD
 70
     1
  9
$DIMZIN
 70
     8
  9
$DIMBLK
  1

  9
$DIMASO
 70
     1
  9
$DIMSHO
 70
     0
  9
$DIMPOST
  1

  9
$DIMAPOST
  1

  9
$DIMALT
 70
     0
  9
$DIMALTD
 70
     2
  9
$DIMALTF
 40
25.4
  9
$DIMLFAC
 40
1.0
  9
$DIMTOFL
 70
     1
  9
$DIMTVP
 40
0.0
  9
$DIMTIX
 70
     0
  9
$DIMSOXD
 70
     0
  9
$DIMSAH
 70
     0
  9
$DIMBLK1
  1

  9
$DIMBLK2
  1

  9
$DIMSTYLE
  2
Standard
  9
$DIMCLRD
 70
     0
  9
$DIMCLRE
 70
     0
  9
$DIMCLRT
 70
     1
  9
$DIMTFAC
 40
0.5142857142857144
  9
$DIMGAP
 40
1.5
  9
$DIMJUST
 70
     0
  9
$DIMSD1
 70
     0
  9
$DIMSD2
 70
     0
  9
$DIMTOLJ
 70
     1
  9
$DIMTZIN
 70
     8
  9
$DIMALTZ
 70
     8
  9
$DIMALTTZ
 70
     8
  9
$DIMUPT
 70
     0
  9
$DIMDEC
 70
     2
  9
$DIMTDEC
 70
     2
  9
$DIMALTU
 70
     2
  9
$DIMALTTD
 70
     2
  9
$DIMTXSTY
  7
STANDARD
  9
$DIMAUNIT
 70
     0
  9
$DIMADEC
 70
     2
  9
$DIMALTRND
 40
0.0
  9
$DIMAZIN
 70
     2
  9
$DIMDSEP
 70
    46
  9
$DIMATFIT
 70
     3
  9
$DIMFRAC
 70
     0
  9
$DIMLDRBLK
  1

  9
$DIMLUNIT
 70
     2
  9
$DIMLWD
 70
    -2
  9
$DIMLWE
 70
    -2
  9
$DIMTMOVE
 70
     0
  9
$LUNITS
 70
     2
  9
$LUPREC
 70
     2
  9
$SKETCHINC
 40
1.0
  9
$FILLETRAD
 40
0.0
  9
$AUNITS
 70
     0
  9
$AUPREC
 70
     0
  9
$MENU
  1
ACAD
  9
$ELEVATION
 40
0.0
  9
$PELEVATION
 40
0.0
  9
$THICKNESS
 40
0.0
  9
$LIMCHECK
 70
     0
  9
$CHAMFERA
 40
0.0
  9
$CHAMFERB
 40
0.0
  9
$CHAMFERC
 40
0.0
  9
$CHAMFERD
 40
0.0
  9
$SKPOLY
 70
     0
  9
$TDCREATE
 40
2455397.867059838
  9
$TDUCREATE
 40
2455397.783726505
  9
$TDUPDATE
 40
2456198.413888623
  9
$TDUUPDATE
 40
2456198.330555290
  9
$TDINDWG
 40
0.1545278588
  9
$TDUSRTIMER
 40
0.1545278588
  9
$USRTIMER
 70
     1
  9
$ANGBASE
 50
0.0
  9
$ANGDIR
 70
     0
  9
$PDMODE
 70
     0
  9
$PDSIZE
 40
0.0
  9
$PLINEWID
 40
0.0
  9
$SPLFRAME
 70
     0
  9
$SPLINETYPE
 70
     6
  9
$SPLINESEGS
 70
     8
  9
$HANDSEED
  5
3804
  9
$SURFTAB1
 70
     6
  9
$SURFTAB2
 70
     6
  9
$SURFTYPE
 70
     6
  9
$SURFU
 70
     6
  9
$SURFV
 70
     6
  9
$UCSBASE
  2

  9
$UCSNAME
  2

  9
$UCSORG
 10
0.0
 20
0.0
 30
0.0
  9
$UCSXDIR
 10
1.0
 20
0.0
 30
0.0
  9
$UCSYDIR
 10
0.0
 20
1.0
 30
0.0
  9
$UCSORTHOREF
  2

  9
$UCSORTHOVIEW
 70
     0
  9
$UCSORGTOP
 10
0.0
 20
0.0
 30
0.0
  9
$UCSORGBOTTOM
 10
0.0
 20
0.0
 30
0.0
  9
$UCSORGLEFT
 10
0.0
 20
0.0
 30
0.0
  9
$UCSORGRIGHT
 10
0.0
 20
0.0
 30
0.0
  9
$UCSORGFRONT
 10
0.0
 20
0.0
 30
0.0
  9
$UCSORGBACK
 10
0.0
 20
0.0
 30
0.0
  9
$PUCSBASE
  2

  9
$PUCSNAME
  2

  9
$PUCSORG
 10
0.0
 20
0.0
 30
0.0
  9
$PUCSXDIR
 10
1.0
 20
0.0
 30
0.0
  9
$PUCSYDIR
 10
0.0
 20
1.0
 30
0.0
  9
$PUCSORTHOREF
  2

  9
$PUCSORTHOVIEW
 70
     0
  9
$PUCSORGTOP
 10
0.0
 20
0.0
 30
0.0
  9
$PUCSORGBOTTOM
 10
0.0
 20
0.0
 30
0.0
  9
$PUCSORGLEFT
 10
0.0
 20
0.0
 30
0.0
  9
$PUCSORGRIGHT
 10
0.0
 20
0.0
 30
0.0
  9
$PUCSORGFRONT
 10
0.0
 20
0.0
 30
0.0
  9
$PUCSORGBACK
 10
0.0
 20
0.0
 30
0.0
  9
$USERI1
 70
     0
  9
$USERI2
 70
     0
  9
$USERI3
 70
     0
  9
$USERI4
 70
     0
  9
$USERI5
 70
     0
  9
$USERR1
 40
0.0
  9
$USERR2
 40
0.0
  9
$USERR3
 40
0.0
  9
$USERR4
 40
0.0
  9
$USERR5
 40
0.0
  9
$WORLDVIEW
 70
     1
  9
$SHADEDGE
 70
     3
  9
$SHADEDIF
 70
    70
  9
$TILEMODE
 70
     1
  9
$MAXACTVP
 70
    16
  9
$PINSBASE
 10
0.0
 20
0.0
 30
0.0
  9
$PLIMCHECK
 70
     0
  9
$PEXTMIN
 10
1.000000000000000E+20
 20
1.000000000000000E+20
 30
1.000000000000000E+20
  9
$PEXTMAX
 10
-1.000000000000000E+20
 20
-1.000000000000000E+20
 30
-1.000000000000000E+20
  9
$PLIMMIN
 10
0.0
 20
0.0
  9
$PLIMMAX
 10
12.0
 20
9.0
  9
$UNITMODE
 70
     0
  9
$VISRETAIN
 70
     0
  9
$PLINEGEN
 70
     0
  9
$PSLTSCALE
 70
     0
  9
$TREEDEPTH
 70
  3020
  9
$CMLSTYLE
  2
Standard
  9
$CMLJUST
 70
     0
  9
$CMLSCALE
 40
1.0
  9
$PROXYGRAPHICS
 70
     1
  9
$MEASUREMENT
 70
     0
  9
$CELWEIGHT
370
    -1
  9
$ENDCAPS
280
     0
  9
$JOINSTYLE
280
     0
  9
$LWDISPLAY
290
     0
  9
$INSUNITS
 70
     0
  9
$HYPERLINKBASE
  1

  9
$STYLESHEET
  1
monochrome.ctb
  9
$XEDIT
290
     1
  9
$CEPSNTYPE
380
     0
  9
$PSTYLEMODE
290
     1
  9
$FINGERPRINTGUID
  2
{D68B0D0D-A558-11D7-B632-000102183313}
  9
$VERSIONGUID
  2
{FF4362A3-112F-49EF-8A27-228FBDCC71F0}
  9
$EXTNAMES
290
     1
  9
$PSVPSCALE
 40
0.0
  9
$OLESTARTUP
290
     0
  9
$SORTENTS
280
   127
  9
$INDEXCTL
280
     0
  9
$HIDETEXT
280
     0
  9
$XCLIPFRAME
290
     0
  9
$HALOGAP
280
     0
  9
$OBSCOLOR
 70
   257
  9
$OBSLTYPE
280
     0
  9
$INTERSECTIONDISPLAY
280
     0
  9
$INTERSECTIONCOLOR
 70
   257
  9
$DIMASSOC
280
     1
  9
$PROJECTNAME
  1

  0
ENDSEC
  0
SECTION
  2
CLASSES
  0
CLASS
  1
ACDBDICTIONARYWDFLT
  2
AcDbDictionaryWithDefault
  3
ObjectDBX Classes
 90
        0
 91
        1
280
     0
281
     0
  0
CLASS
  1
DICTIONARYVAR
  2
AcDbDictionaryVar
  3
ObjectDBX Classes
 90
        0
 91
        2
280
     0
281
     0
  0
ENDSEC
  0
SECTION
  2
TABLES
  0
TABLE
  2
VPORT
  5
8
330
0
100
AcDbSymbolTable
 70
     2
  0
VPORT
  5
3803
330
8
100
AcDbSymbolTableRecord
100
AcDbViewportTableRecord
  2
*Active
 70
     0
 10
0.0
 20
0.0
 11
1.0
 21
1.0
 12
419.9999999999999
 22
297.0
 13
0.0
 23
0.0
 14
1.0
 24
1.0
 15
10.0
 25
10.0
 16
0.0
 26
0.0
 36
1.0
 17
0.0
 27
0.0
 37
0.0
 40
597.9250720461094
 41
1.404858299595141
 42
50.0
 43
0.0
 44
0.0
 50
0.0
 51
0.0
 71
     0
 72
  1500
 73
     1
 74
     0
 75
     0
 76
     0
 77
     0
 78
     0
281
     0
 65
     1
110
0.0
120
0.0
130
0.0
111
1.0
121
0.0
131
0.0
112
0.0
122
1.0
132
0.0
 79
     0
146
0.0
  0
ENDTAB
  0
TABLE
  2
LTYPE
  5
5
330
0
100
AcDbSymbolTable
 70
     3
  0
LTYPE
  5
13
330
5
100
AcDbSymbolTableRecord
100
AcDbLinetypeTableRecord
  2
ByBlock
 70
     0
  3

 72
    65
 73
     0
 40
0.0
  0
LTYPE
  5
14
330
5
100
AcDbSymbolTableRecord
100
AcDbLinetypeTableRecord
  2
ByLayer
 70
     0
  3

 72
    65
 73
     0
 40
0.0
  0
LTYPE
  5
15
330
5
100
AcDbSymbolTableRecord
100
AcDbLinetypeTableRecord
  2
Continuous
 70
     0
  3
Solid line
 72
    65
 73
     0
 40
0.0
  0
LTYPE
  5
25
330
5
100
AcDbSymbolTableRecord
100
AcDbLinetypeTableRecord
  2
STRICHPUNKT
 70
     0
  3
__ . __ . __ . __ . __ . __ . __ . __ . __ . __
 72
    65
 73
     4
 40
1.0
 49
0.5
 74
     0
 49
-0.25
 74
     0
 49
0.0
 74
     0
 49
-0.25
 74
     0
  0
LTYPE
  5
53F
330
5
100
AcDbSymbolTableRecord
100
AcDbLinetypeTableRecord
  2
VERDECKT
 70
     0
  3
_ _ _ _ _ _ _ _ _ _ _ _ _ _ _ _ _ _ _ _ _ _ _
 72
    65
 73
     2
 40
0.375
 49
0.25
 74
     0
 49
-0.125
 74
     0
  0
ENDTAB
  0
TABLE
  2
LAYER
  5
2
330
0
100
AcDbSymbolTable
 70
    10
  0
LAYER
  5
10
330
2
100
AcDbSymbolTableRecord
100
AcDbLayerTableRecord
  2
0
 70
     0
 62
     7
  6
Continuous
370
    -3
390
F
  0
LAYER
  5
2B
330
2
100
AcDbSymbolTableRecord
100
AcDbLayerTableRecord
  2
VOLL
 70
     0
 62
     1
  6
Continuous
370
    -3
390
F
  0
LAYER
  5
2C
330
2
100
AcDbSymbolTableRecord
100
AcDbLayerTableRecord
  2
HILF
 70
     0
 62
     2
  6
Continuous
370
    -3
390
F
  0
LAYER
  5
2D
330
2
100
AcDbSymbolTableRecord
100
AcDbLayerTableRecord
  2
MITTEL
 70
     0
 62
     2
  6
STRICHPUNKT
370
    -3
390
F
  0
LAYER
  5
2F
330
2
100
AcDbSymbolTableRecord
100
AcDbLayerTableRecord
  2
BEM
 70
     0
 62
     7
  6
Continuous
370
    -3
390
F
  0
LAYER
  5
30
330
2
100
AcDbSymbolTableRecord
100
AcDbLayerTableRecord
  2
STEMPEL
 70
     0
 62
     3
  6
Continuous
370
    -3
390
F
  0
LAYER
  5
33
330
2
100
AcDbSymbolTableRecord
100
AcDbLayerTableRecord
  2
TEXT
 70
     0
 62
     7
  6
Continuous
370
    -3
390
F
  0
LAYER
  5
540
330
2
100
AcDbSymbolTableRecord
100
AcDbLayerTableRecord
  2
SCHRAFF
 70
     0
 62
     7
  6
Continuous
370
    -3
390
F
  0
LAYER
  5
541
330
2
100
AcDbSymbolTableRecord
100
AcDbLayerTableRecord
  2
VERDECKT
 70
     0
 62
     6
  6
VERDECKT
370
    -3
390
F
  0
LAYER
  5
542
330
2
100
AcDbSymbolTableRecord
100
AcDbLayerTableRecord
  2
DEFPOINTS
 70
     0
 62
     7
  6
Continuous
290
     0
370
    -3
390
F
  0
ENDTAB
  0
TABLE
  2
STYLE
  5
3
330
0
100
AcDbSymbolTable
 70
     2
  0
STYLE
  5
11
330
3
100
AcDbSymbolTableRecord
100
AcDbTextStyleTableRecord
  2
STANDARD
 70
     0
 40
0.0
 41
0.8
 50
0.0
 71
     0
 42
3.5
  3
simplex.shx
  4

  0
STYLE
  5
24
330
3
100
AcDbSymbolTableRecord
100
AcDbTextStyleTableRecord
  2
GREEKS
 70
     0
 40
0.0
 41
0.8
 50
0.0
 71
     0
 42
2.5
  3
SIMPLEX.shx
  4

  0
ENDTAB
  0
TABLE
  2
VIEW
  5
6
330
0
100
AcDbSymbolTable
 70
     0
  0
ENDTAB
  0
TABLE
  2
UCS
  5
7
330
0
100
AcDbSymbolTable
 70
     0
  0
ENDTAB
  0
TABLE
  2
APPID
  5
9
330
0
100
AcDbSymbolTable
 70
     1
  0
APPID
  5
12
330
9
100
AcDbSymbolTableRecord
100
AcDbRegAppTableRecord
  2
ACAD
 70
     0
  0
ENDTAB
  0
TABLE
  2
DIMSTYLE
  5
A
330
0
100
AcDbSymbolTable
 70
     1
100
AcDbDimStyleTable
 71
     1
340
A2
  0
DIMSTYLE
105
A2
102
{ACAD_REACTORS
330
2BB7
330
2BB6
330
2BA4
330
2BA3
330
2B0E
330
2B08
330
2903
330
2902
330
2896
330
3055
330
306B
330
31A2
330
326F
330
327C
330
3442
330
3444
330
36D7
102
}
330
A
100
AcDbSymbolTableRecord
100
AcDbDimStyleTableRecord
  2
Standard
 70
     0
340
11
  0
ENDTAB
  0
TABLE
  2
BLOCK_RECORD
  5
1
330
0
100
AcDbSymbolTable
 70
    21
  0
BLOCK_RECORD
  5
1E
102
{ACAD_XDICTIONARY
360
DB
102
}
330
1
100
AcDbSymbolTableRecord
100
AcDbBlockTableRecord
  2
*Model_Space
340
21
  0
BLOCK_RECORD
  5
1A
102
{ACAD_XDICTIONARY
360
DD
102
}
330
1
100
AcDbSymbolTableRecord
100
AcDbBlockTableRecord
  2
*Paper_Space
340
1D
  0
BLOCK_RECORD
  5
22
330
1
100
AcDbSymbolTableRecord
100
AcDbBlockTableRecord
  2
LOGO
340
0
102
{BLKREFS
331
56
102
}
  0
BLOCK_RECORD
  5
23
330
1
100
AcDbSymbolTableRecord
100
AcDbBlockTableRecord
  2
LORO
340
0
102
{BLKREFS
331
9B
102
}
  0
BLOCK_RECORD
  5
221A
330
1
100
AcDbSymbolTableRecord
100
AcDbBlockTableRecord
  2
*X2
340
0
102
{BLKREFS
331
2BD5
331
2BFD
102
}
  0
BLOCK_RECORD
  5
2C1A
330
1
100
AcDbSymbolTableRecord
100
AcDbBlockTableRecord
  2
*D3
340
0
  0
BLOCK_RECORD
  5
2C41
330
1
100
AcDbSymbolTableRecord
100
AcDbBlockTableRecord
  2
*D4
340
0
  0
BLOCK_RECORD
  5
2C4E
330
1
100
AcDbSymbolTableRecord
100
AcDbBlockTableRecord
  2
*D5
340
0
  0
BLOCK_RECORD
  5
2C5B
330
1
100
AcDbSymbolTableRecord
100
AcDbBlockTableRecord
  2
*D6
340
0
  0
BLOCK_RECORD
  5
2C75
330
1
100
AcDbSymbolTableRecord
100
AcDbBlockTableRecord
  2
*D7
340
0
  0
BLOCK_RECORD
  5
2CD0
330
1
100
AcDbSymbolTableRecord
100
AcDbBlockTableRecord
  2
*D8
340
0
  0
BLOCK_RECORD
  5
2CDD
330
1
100
AcDbSymbolTableRecord
100
AcDbBlockTableRecord
  2
*D9
340
0
  0
BLOCK_RECORD
  5
2CEA
330
1
100
AcDbSymbolTableRecord
100
AcDbBlockTableRecord
  2
*D10
340
0
  0
BLOCK_RECORD
  5
2CF7
330
1
100
AcDbSymbolTableRecord
100
AcDbBlockTableRecord
  2
*D11
340
0
  0
BLOCK_RECORD
  5
3056
330
1
100
AcDbSymbolTableRecord
100
AcDbBlockTableRecord
  2
*D12
340
0
  0
BLOCK_RECORD
  5
306C
330
1
100
AcDbSymbolTableRecord
100
AcDbBlockTableRecord
  2
*D13
340
0
  0
BLOCK_RECORD
  5
31BB
330
1
100
AcDbSymbolTableRecord
100
AcDbBlockTableRecord
  2
*D14
340
0
  0
BLOCK_RECORD
  5
3270
330
1
100
AcDbSymbolTableRecord
100
AcDbBlockTableRecord
  2
*D15
340
0
  0
BLOCK_RECORD
  5
327D
330
1
100
AcDbSymbolTableRecord
100
AcDbBlockTableRecord
  2
*D16
340
0
  0
BLOCK_RECORD
  5
3463
330
1
100
AcDbSymbolTableRecord
100
AcDbBlockTableRecord
  2
*D17
340
0
  0
BLOCK_RECORD
  5
347D
330
1
100
AcDbSymbolTableRecord
100
AcDbBlockTableRecord
  2
*D18
340
0
  0
BLOCK_RECORD
  5
35AE
330
1
100
AcDbSymbolTableRecord
100
AcDbBlockTableRecord
  2
*X19
340
0
102
{BLKREFS
331
360B
102
}
  0
BLOCK_RECORD
  5
36D8
330
1
100
AcDbSymbolTableRecord
100
AcDbBlockTableRecord
  2
*D20
340
0
  0
ENDTAB
  0
ENDSEC
  0
SECTION
  2
BLOCKS
  0
BLOCK
  5
37
330
1E
100
AcDbEntity
  8
0
100
AcDbBlockBegin
  2
*Model_Space
 70
     0
 10
0.0
 20
0.0
 30
0.0
  3
*Model_Space
  1

  0
ENDBLK
  5
38
330
1E
100
AcDbEntity
  8
0
100
AcDbBlockEnd
  0
BLOCK
  5
35
330
1A
100
AcDbEntity
 67
     1
  8
0
100
AcDbBlockBegin
  2
*Paper_Space
 70
     0
 10
0.0
 20
0.0
 30
0.0
  3
*Paper_Space
  1

  0
ENDBLK
  5
36
330
1A
100
AcDbEntity
 67
     1
  8
0
100
AcDbBlockEnd
  0
BLOCK
  5
39
330
22
100
AcDbEntity
  8
0
100
AcDbBlockBegin
  2
LOGO
 70
     0
 10
0.0
 20
0.0
 30
0.0
  3
LOGO
  1

  0
ARC
  5
3A
330
22
100
AcDbEntity
  8
0
100
AcDbCircle
 10
11.59973089678112
 20
-9.271599258481501
 30
0.0
 40
4.5
100
AcDbArc
 50
270.0
 51
231.0575587310159
  0
LINE
  5
3B
330
22
100
AcDbEntity
  8
0
100
AcDbLine
 10
3.599730896781125
 20
-4.771599258481529
 30
0.0
 11
3.599730896781153
 21
-11.77159925848133
 31
0.0
  0
LINE
  5
3C
330
22
100
AcDbEntity
  8
0
100
AcDbLine
 10
2.599730896781125
 20
-4.771599258481529
 30
0.0
 11
2.599730896781153
 21
-11.77159925848133
 31
0.0
  0
CIRCLE
  5
3D
330
22
100
AcDbEntity
  8
0
100
AcDbCircle
 10
11.59973089678112
 20
-9.271599258481501
 30
0.0
 40
3.5
  0
ARC
  5
3E
330
22
100
AcDbEntity
  8
0
100
AcDbCircle
 10
31.59973089678115
 20
-9.271599258481472
 30
0.0
 40
4.5
100
AcDbArc
 50
270.0
 51
231.0575587310182
  0
LINE
  5
3F
330
22
100
AcDbEntity
  8
0
100
AcDbLine
 10
17.59973089678112
 20
-4.771599258481472
 30
0.0
 11
17.59973089678115
 21
-13.77159925848147
 31
0.0
  0
ARC
  5
40
330
22
100
AcDbEntity
  8
0
100
AcDbCircle
 10
22.59973089678116
 20
-7.271599258481472
 30
0.0
 40
2.5
100
AcDbArc
 50
293.1161887722295
 51
90.0
  0
CIRCLE
  5
41
330
22
100
AcDbEntity
  8
0
100
AcDbCircle
 10
31.59973089678115
 20
-9.271599258481472
 30
0.0
 40
3.5
  0
ARC
  5
42
330
22
100
AcDbEntity
  8
0
100
AcDbCircle
 10
4.599730896781153
 20
-11.77159925848133
 30
0.0
 40
1.0
100
AcDbArc
 50
180.0
 51
270.0
  0
ARC
  5
43
330
22
100
AcDbEntity
  8
0
100
AcDbCircle
 10
4.599730896781153
 20
-11.77159925848133
 30
0.0
 40
2.0
100
AcDbArc
 50
179.9999999999992
 51
270.0
  0
LINE
  5
44
330
22
100
AcDbEntity
  8
0
100
AcDbLine
 10
11.59973089678115
 20
-13.77159925848144
 30
0.0
 11
4.599730896781153
 21
-13.77159925848147
 31
0.0
  0
LINE
  5
45
330
22
100
AcDbEntity
  8
0
100
AcDbLine
 10
8.771303772034769
 20
-12.77159925848136
 30
0.0
 11
4.599730896781153
 21
-12.77159925848133
 31
0.0
  0
LINE
  5
46
330
22
100
AcDbEntity
  8
0
100
AcDbLine
 10
31.59973089678115
 20
-13.77159925848147
 30
0.0
 11
23.6715276665056
 21
-13.77159925848144
 31
0.0
  0
LINE
  5
47
330
22
100
AcDbEntity
  8
0
100
AcDbLine
 10
23.56565672307022
 20
-9.51278021337896
 30
0.0
 11
24.4388546544846
 21
-12.77159925848144
 31
0.0
  0
LINE
  5
48
330
22
100
AcDbEntity
  8
0
100
AcDbLine
 10
22.59973089678116
 20
-9.771599258481472
 30
0.0
 11
18.59973089678112
 21
-9.771599258481472
 31
0.0
  0
LINE
  5
49
330
22
100
AcDbEntity
  8
0
100
AcDbLine
 10
18.59973089678115
 20
-13.77159925848144
 30
0.0
 11
17.59973089678115
 21
-13.77159925848144
 31
0.0
  0
LINE
  5
4A
330
22
100
AcDbEntity
  8
0
100
AcDbLine
 10
18.59973089678115
 20
-9.771599258481472
 30
0.0
 11
18.59973089678115
 21
-13.77159925848144
 31
0.0
  0
LINE
  5
4B
330
22
100
AcDbEntity
  8
0
100
AcDbLine
 10
22.59973089678116
 20
-9.771599258481472
 30
0.0
 11
23.67152766650562
 21
-13.77159925848147
 31
0.0
  0
ARC
  5
4C
330
22
100
AcDbEntity
  8
0
100
AcDbCircle
 10
22.59973089678116
 20
-7.271599258481472
 30
0.0
 40
2.5
100
AcDbArc
 50
270.0
 51
270.0000000000007
  0
LINE
  5
4D
330
22
100
AcDbEntity
  8
0
100
AcDbLine
 10
28.77130377203494
 20
-12.77159925848147
 30
0.0
 11
24.43885465448463
 21
-12.77159925848144
 31
0.0
  0
LINE
  5
4E
330
22
100
AcDbEntity
  8
0
100
AcDbLine
 10
3.599730896781125
 20
-4.771599258481472
 30
0.0
 11
2.599730896781125
 21
-4.771599258481472
 31
0.0
  0
LINE
  5
4F
330
22
100
AcDbEntity
  8
0
100
AcDbLine
 10
22.59973089678116
 20
-8.771599258481472
 30
0.0
 11
18.59973089678115
 21
-8.771599258481472
 31
0.0
  0
LINE
  5
50
330
22
100
AcDbEntity
  8
0
100
AcDbLine
 10
22.59973089678116
 20
-5.771599258481472
 30
0.0
 11
18.59973089678115
 21
-5.771599258481472
 31
0.0
  0
LINE
  5
51
330
22
100
AcDbEntity
  8
0
100
AcDbLine
 10
22.59973089678116
 20
-4.771599258481472
 30
0.0
 11
17.59973089678115
 21
-4.771599258481472
 31
0.0
  0
LINE
  5
52
330
22
100
AcDbEntity
  8
0
100
AcDbLine
 10
18.59973089678115
 20
-5.771599258481472
 30
0.0
 11
18.59973089678115
 21
-8.771599258481472
 31
0.0
  0
ARC
  5
53
330
22
100
AcDbEntity
  8
0
100
AcDbCircle
 10
22.59973089678116
 20
-7.271599258481472
 30
0.0
 40
1.5
100
AcDbArc
 50
270.0
 51
90.0
  0
ENDBLK
  5
54
330
22
100
AcDbEntity
  8
0
100
AcDbBlockEnd
  0
BLOCK
  5
55
330
23
100
AcDbEntity
  8
0
100
AcDbBlockBegin
  2
LORO
 70
     0
 10
0.0
 20
0.0
 30
0.0
  3
LORO
  1

  0
INSERT
  5
56
330
23
100
AcDbEntity
  8
STEMPEL
100
AcDbBlockReference
  2
LOGO
 10
-1.748032802467321
 20
3.771489518552062
 30
0.0
  0
ENDBLK
  5
57
330
23
100
AcDbEntity
  8
0
100
AcDbBlockEnd
  0
BLOCK
  5
221B
330
221A
100
AcDbEntity
  8
0
100
AcDbBlockBegin
  2
*X2
 70
     1
 10
0.0
 20
0.0
 30
0.0
  3
*X2
  1

  0
LINE
  5
221C
330
221A
100
AcDbEntity
  8
0
 62
     0
100
AcDbLine
 10
158.3117336682301
 20
185.3
 30
0.0
 11
160.6465569670959
 21
185.3
 31
0.0
  0
LINE
  5
221D
330
221A
100
AcDbEntity
  8
0
 62
     0
100
AcDbLine
 10
158.317212080558
 20
185.4
 30
0.0
 11
160.5571142479959
 21
185.4
 31
0.0
  0
LINE
  5
221E
330
221A
100
AcDbEntity
  8
0
 62
     0
100
AcDbLine
 10
158.3265079680293
 20
185.5
 30
0.0
 11
160.467671528896
 21
185.5
 31
0.0
  0
LINE
  5
221F
330
221A
100
AcDbEntity
  8
0
 62
     0
100
AcDbLine
 10
158.3396620833678
 20
185.6
 30
0.0
 11
160.378228809796
 21
185.6
 31
0.0
  0
LINE
  5
2220
330
221A
100
AcDbEntity
  8
0
 62
     0
100
AcDbLine
 10
158.3567330923596
 20
185.7
 30
0.0
 11
160.288786090696
 21
185.7
 31
0.0
  0
LINE
  5
2221
330
221A
100
AcDbEntity
  8
0
 62
     0
100
AcDbLine
 10
158.3777989195452
 20
185.8
 30
0.0
 11
160.199343371596
 21
185.8
 31
0.0
  0
LINE
  5
2222
330
221A
100
AcDbEntity
  8
0
 62
     0
100
AcDbLine
 10
158.4029586053603
 20
185.9
 30
0.0
 11
160.109900652496
 21
185.9
 31
0.0
  0
LINE
  5
2223
330
221A
100
AcDbEntity
  8
0
 62
     0
100
AcDbLine
 10
158.4323347827027
 20
186.0
 30
0.0
 11
160.020457933396
 21
186.0
 31
0.0
  0
LINE
  5
2224
330
221A
100
AcDbEntity
  8
0
 62
     0
100
AcDbLine
 10
158.4660769264236
 20
186.1
 30
0.0
 11
159.931015214296
 21
186.1
 31
0.0
  0
LINE
  5
2225
330
221A
100
AcDbEntity
  8
0
 62
     0
100
AcDbLine
 10
158.5043655929144
 20
186.2
 30
0.0
 11
159.841572495196
 21
186.2
 31
0.0
  0
LINE
  5
2226
330
221A
100
AcDbEntity
  8
0
 62
     0
100
AcDbLine
 10
158.5474179586587
 20
186.3
 30
0.0
 11
159.752129776096
 21
186.3
 31
0.0
  0
LINE
  5
2227
330
221A
100
AcDbEntity
  8
0
 62
     0
100
AcDbLine
 10
158.6489116811127
 20
186.5
 30
0.0
 11
159.7533739097916
 21
186.5
 31
0.0
  0
LINE
  5
2228
330
221A
100
AcDbEntity
  8
0
 62
     0
100
AcDbLine
 10
158.7080489746744
 20
186.6
 30
0.0
 11
159.8657399606132
 21
186.6
 31
0.0
  0
LINE
  5
2229
330
221A
100
AcDbEntity
  8
0
 62
     0
100
AcDbLine
 10
158.7733727888137
 20
186.7
 30
0.0
 11
159.9785124085862
 21
186.7
 31
0.0
  0
LINE
  5
222A
330
221A
100
AcDbEntity
  8
0
 62
     0
100
AcDbLine
 10
158.8454585783552
 20
186.8
 30
0.0
 11
160.0916937282859
 21
186.8
 31
0.0
  0
LINE
  5
222B
330
221A
100
AcDbEntity
  8
0
 62
     0
100
AcDbLine
 10
158.9250276513247
 20
186.9
 30
0.0
 11
160.2052864235008
 21
186.9
 31
0.0
  0
LINE
  5
222C
330
221A
100
AcDbEntity
  8
0
 62
     0
100
AcDbLine
 10
159.0130010476421
 20
187.0
 30
0.0
 11
160.3192930277168
 21
187.0
 31
0.0
  0
LINE
  5
222D
330
221A
100
AcDbEntity
  8
0
 62
     0
100
AcDbLine
 10
159.1105829231986
 20
187.1
 30
0.0
 11
160.4337161046125
 21
187.1
 31
0.0
  0
LINE
  5
222E
330
221A
100
AcDbEntity
  8
0
 62
     0
100
AcDbLine
 10
159.2193959995848
 20
187.2
 30
0.0
 11
160.5485582485638
 21
187.2
 31
0.0
  0
LINE
  5
222F
330
221A
100
AcDbEntity
  8
0
 62
     0
100
AcDbLine
 10
159.3417154838227
 20
187.3
 30
0.0
 11
160.6638220851617
 21
187.3
 31
0.0
  0
LINE
  5
2230
330
221A
100
AcDbEntity
  8
0
 62
     0
100
AcDbLine
 10
159.4809066615088
 20
187.4
 30
0.0
 11
160.7795102717386
 21
187.4
 31
0.0
  0
LINE
  5
2231
330
221A
100
AcDbEntity
  8
0
 62
     0
100
AcDbLine
 10
159.6423379378895
 20
187.5
 30
0.0
 11
160.8956254979091
 21
187.5
 31
0.0
  0
LINE
  5
2232
330
221A
100
AcDbEntity
  8
0
 62
     0
100
AcDbLine
 10
159.8356159170164
 20
187.6
 30
0.0
 11
161.01217048612
 21
187.6
 31
0.0
  0
LINE
  5
2233
330
221A
100
AcDbEntity
  8
0
 62
     0
100
AcDbLine
 10
160.0817061088609
 20
187.7
 30
0.0
 11
161.1291479922148
 21
187.7
 31
0.0
  0
LINE
  5
2234
330
221A
100
AcDbEntity
  8
0
 62
     0
100
AcDbLine
 10
160.4534943287838
 20
187.8
 30
0.0
 11
161.2465608060093
 21
187.8
 31
0.0
  0
LINE
  5
2235
330
221A
100
AcDbEntity
  8
0
 62
     0
100
AcDbLine
 10
158.3100489828611
 20
185.2
 30
0.0
 11
160.7359996861959
 21
185.2
 31
0.0
  0
LINE
  5
2236
330
221A
100
AcDbEntity
  8
0
 62
     0
100
AcDbLine
 10
158.3121507612402
 20
185.1
 30
0.0
 11
160.8254424052959
 21
185.1
 31
0.0
  0
LINE
  5
2237
330
221A
100
AcDbEntity
  8
0
 62
     0
100
AcDbLine
 10
158.3180480676707
 20
185.0
 30
0.0
 11
160.9148851243959
 21
185.0
 31
0.0
  0
LINE
  5
2238
330
221A
100
AcDbEntity
  8
0
 62
     0
100
AcDbLine
 10
158.3277664905806
 20
184.9
 30
0.0
 11
159.6532303939162
 21
184.9
 31
0.0
  0
LINE
  5
2239
330
221A
100
AcDbEntity
  8
0
 62
     0
100
AcDbLine
 10
158.3413487032435
 20
184.8
 30
0.0
 11
159.6532303939162
 21
184.8
 31
0.0
  0
LINE
  5
223A
330
221A
100
AcDbEntity
  8
0
 62
     0
100
AcDbLine
 10
158.3588554176553
 20
184.7
 30
0.0
 11
159.6532303939162
 21
184.7
 31
0.0
  0
LINE
  5
223B
330
221A
100
AcDbEntity
  8
0
 62
     0
100
AcDbLine
 10
158.3803667823717
 20
184.6
 30
0.0
 11
159.6532303939162
 21
184.6
 31
0.0
  0
LINE
  5
223C
330
221A
100
AcDbEntity
  8
0
 62
     0
100
AcDbLine
 10
158.4059843018613
 20
184.5
 30
0.0
 11
159.6532303939162
 21
184.5
 31
0.0
  0
LINE
  5
223D
330
221A
100
AcDbEntity
  8
0
 62
     0
100
AcDbLine
 10
158.4358333896902
 20
184.4
 30
0.0
 11
159.6532303939162
 21
184.4
 31
0.0
  0
LINE
  5
223E
330
221A
100
AcDbEntity
  8
0
 62
     0
100
AcDbLine
 10
158.4700667150211
 20
184.3
 30
0.0
 11
159.6532303939162
 21
184.3
 31
0.0
  0
LINE
  5
223F
330
221A
100
AcDbEntity
  8
0
 62
     0
100
AcDbLine
 10
158.5088685680905
 20
184.2
 30
0.0
 11
159.6532303939162
 21
184.2
 31
0.0
  0
LINE
  5
2240
330
221A
100
AcDbEntity
  8
0
 62
     0
100
AcDbLine
 10
158.5524605659563
 20
184.1
 30
0.0
 11
159.6532303939162
 21
184.1
 31
0.0
  0
LINE
  5
2241
330
221A
100
AcDbEntity
  8
0
 62
     0
100
AcDbLine
 10
158.6011091617097
 20
184.0
 30
0.0
 11
159.6532303939162
 21
184.0
 31
0.0
  0
LINE
  5
2242
330
221A
100
AcDbEntity
  8
0
 62
     0
100
AcDbLine
 10
158.6551356366553
 20
183.9
 30
0.0
 11
159.6532303939162
 21
183.9
 31
0.0
  0
LINE
  5
2243
330
221A
100
AcDbEntity
  8
0
 62
     0
100
AcDbLine
 10
158.7149295941472
 20
183.8
 30
0.0
 11
159.6532303939162
 21
183.8
 31
0.0
  0
LINE
  5
2244
330
221A
100
AcDbEntity
  8
0
 62
     0
100
AcDbLine
 10
158.7809675223635
 20
183.7
 30
0.0
 11
159.6532303939162
 21
183.7
 31
0.0
  0
LINE
  5
2245
330
221A
100
AcDbEntity
  8
0
 62
     0
100
AcDbLine
 10
158.8538389120991
 20
183.6
 30
0.0
 11
159.6532303939162
 21
183.6
 31
0.0
  0
LINE
  5
2246
330
221A
100
AcDbEntity
  8
0
 62
     0
100
AcDbLine
 10
158.9342840172928
 20
183.5
 30
0.0
 11
159.6532303939162
 21
183.5
 31
0.0
  0
LINE
  5
2247
330
221A
100
AcDbEntity
  8
0
 62
     0
100
AcDbLine
 10
159.0232502714847
 20
183.4
 30
0.0
 11
159.6532303939162
 21
183.4
 31
0.0
  0
LINE
  5
2248
330
221A
100
AcDbEntity
  8
0
 62
     0
100
AcDbLine
 10
159.1219800219111
 20
183.3
 30
0.0
 11
159.6532303939162
 21
183.3
 31
0.0
  0
LINE
  5
2249
330
221A
100
AcDbEntity
  8
0
 62
     0
100
AcDbLine
 10
159.2321539079042
 20
183.2
 30
0.0
 11
159.6532303939162
 21
183.2
 31
0.0
  0
LINE
  5
224A
330
221A
100
AcDbEntity
  8
0
 62
     0
100
AcDbLine
 10
159.3561403989742
 20
183.1
 30
0.0
 11
159.6532303939162
 21
183.1
 31
0.0
  0
LINE
  5
224B
330
221A
100
AcDbEntity
  8
0
 62
     0
100
AcDbLine
 10
159.4974674521774
 20
183.0
 30
0.0
 11
159.6532303939162
 21
183.0
 31
0.0
  0
ENDBLK
  5
224C
330
221A
100
AcDbEntity
  8
0
100
AcDbBlockEnd
  0
BLOCK
  5
2C25
330
2C1A
100
AcDbEntity
  8
0
100
AcDbBlockBegin
  2
*D3
 70
     1
 10
0.0
 20
0.0
 30
0.0
  3
*D3
  1

  0
LINE
  5
36F7
330
2C1A
100
AcDbEntity
  8
BEM
 62
     0
370
    -2
100
AcDbLine
 10
625.9531753823182
 20
521.1481311724578
 30
0.0
 11
678.6191103774151
 21
521.1481311724578
 31
0.0
  0
LINE
  5
36F8
330
2C1A
100
AcDbEntity
  8
BEM
 62
     0
370
    -2
100
AcDbLine
 10
658.9531753823185
 20
531.1481311724578
 30
0.0
 11
678.6191103774151
 21
531.1481311724578
 31
0.0
  0
LINE
  5
36F9
330
2C1A
100
AcDbEntity
  8
BEM
 62
     0
370
    -2
100
AcDbLine
 10
676.6191103774152
 20
514.1481311724578
 30
0.0
 11
676.6191103774152
 21
507.1481311724578
 31
0.0
  0
LINE
  5
36FA
330
2C1A
100
AcDbEntity
  8
BEM
 62
     0
370
    -2
100
AcDbLine
 10
676.6191103774152
 20
538.1481311724578
 30
0.0
 11
676.6191103774152
 21
559.1481311724578
 31
0.0
  0
LINE
  5
36FB
330
2C1A
100
AcDbEntity
  8
BEM
 62
     0
370
    -2
100
AcDbLine
 10
676.6191103774152
 20
521.1481311724578
 30
0.0
 11
676.6191103774152
 21
531.1481311724578
 31
0.0
  0
SOLID
  5
36FC
330
2C1A
100
AcDbEntity
  8
BEM
 62
     0
100
AcDbTrace
 10
675.4524437107485
 20
514.1481311724578
 30
0.0
 11
677.7857770440817
 21
514.1481311724578
 31
0.0
 12
676.6191103774152
 22
521.1481311724578
 32
0.0
 13
676.6191103774152
 23
521.1481311724578
 33
0.0
  0
SOLID
  5
36FD
330
2C1A
100
AcDbEntity
  8
BEM
 62
     0
100
AcDbTrace
 10
675.4524437107485
 20
538.1481311724578
 30
0.0
 11
677.7857770440817
 21
538.1481311724578
 31
0.0
 12
676.6191103774152
 22
531.1481311724578
 32
0.0
 13
676.6191103774152
 23
531.1481311724578
 33
0.0
  0
MTEXT
  5
36FE
330
2C1A
100
AcDbEntity
  8
BEM
 62
     1
100
AcDbMText
 10
670.119110377415
 20
552.148131172458
 30
0.0
 40
7.0
 41
0.0
 71
     5
 72
     1
  1
\A1;10
 11
0.0000000000000001
 21
1.0
 31
0.0
 73
     1
 44
1.0
  0
POINT
  5
36FF
330
2C1A
100
AcDbEntity
  8
DEFPOINTS
 62
     0
100
AcDbPoint
 10
623.9531753823182
 20
521.1481311724578
 30
0.0
  0
POINT
  5
3700
330
2C1A
100
AcDbEntity
  8
DEFPOINTS
 62
     0
100
AcDbPoint
 10
656.9531753823184
 20
531.1481311724578
 30
0.0
  0
POINT
  5
3701
330
2C1A
100
AcDbEntity
  8
DEFPOINTS
 62
     0
100
AcDbPoint
 10
676.6191103774152
 20
531.1481311724578
 30
0.0
  0
ENDBLK
  5
2C26
330
2C1A
100
AcDbEntity
  8
0
100
AcDbBlockEnd
  0
BLOCK
  5
2C4C
330
2C41
100
AcDbEntity
  8
0
100
AcDbBlockBegin
  2
*D4
 70
     1
 10
0.0
 20
0.0
 30
0.0
  3
*D4
  1

  0
LINE
  5
3714
330
2C41
100
AcDbEntity
  8
BEM
 62
     0
370
    -2
100
AcDbLine
 10
478.9531753823184
 20
531.148131172458
 30
0.0
 11
473.200358953165
 21
531.148131172458
 31
0.0
  0
LINE
  5
3715
330
2C41
100
AcDbEntity
  8
BEM
 62
     0
370
    -2
100
AcDbLine
 10
478.9531753823184
 20
533.1481311724579
 30
0.0
 11
473.200358953165
 21
533.1481311724579
 31
0.0
  0
LINE
  5
3716
330
2C41
100
AcDbEntity
  8
BEM
 62
     0
370
    -2
100
AcDbLine
 10
475.2003589531651
 20
524.1481311724579
 30
0.0
 11
475.2003589531651
 21
517.1481311724579
 31
0.0
  0
LINE
  5
3717
330
2C41
100
AcDbEntity
  8
BEM
 62
     0
370
    -2
100
AcDbLine
 10
475.2003589531651
 20
540.1481311724579
 30
0.0
 11
475.2003589531651
 21
556.8814645057913
 31
0.0
  0
LINE
  5
3718
330
2C41
100
AcDbEntity
  8
BEM
 62
     0
370
    -2
100
AcDbLine
 10
475.2003589531651
 20
531.148131172458
 30
0.0
 11
475.2003589531651
 21
533.1481311724579
 31
0.0
  0
SOLID
  5
3719
330
2C41
100
AcDbEntity
  8
BEM
 62
     0
100
AcDbTrace
 10
474.0336922864984
 20
524.1481311724579
 30
0.0
 11
476.3670256198317
 21
524.1481311724579
 31
0.0
 12
475.2003589531651
 22
531.148131172458
 32
0.0
 13
475.2003589531651
 23
531.148131172458
 33
0.0
  0
SOLID
  5
371A
330
2C41
100
AcDbEntity
  8
BEM
 62
     0
100
AcDbTrace
 10
474.0336922864984
 20
540.1481311724579
 30
0.0
 11
476.3670256198317
 21
540.1481311724579
 31
0.0
 12
475.2003589531651
 22
533.1481311724579
 32
0.0
 13
475.2003589531651
 23
533.1481311724579
 33
0.0
  0
MTEXT
  5
371B
330
2C41
100
AcDbEntity
  8
BEM
 62
     1
100
AcDbMText
 10
468.700358953165
 20
552.0147978391247
 30
0.0
 40
7.0
 41
0.0
 71
     5
 72
     1
  1
\A1;2
 11
0.0000000000000001
 21
1.0
 31
0.0
 73
     1
 44
1.0
  0
POINT
  5
371C
330
2C41
100
AcDbEntity
  8
DEFPOINTS
 62
     0
100
AcDbPoint
 10
480.9531753823184
 20
531.148131172458
 30
0.0
  0
POINT
  5
371D
330
2C41
100
AcDbEntity
  8
DEFPOINTS
 62
     0
100
AcDbPoint
 10
480.9531753823184
 20
533.1481311724579
 30
0.0
  0
POINT
  5
371E
330
2C41
100
AcDbEntity
  8
DEFPOINTS
 62
     0
100
AcDbPoint
 10
475.2003589531651
 20
533.1481311724579
 30
0.0
  0
ENDBLK
  5
2C4D
330
2C41
100
AcDbEntity
  8
0
100
AcDbBlockEnd
  0
BLOCK
  5
2C59
330
2C4E
100
AcDbEntity
  8
0
100
AcDbBlockBegin
  2
*D5
 70
     1
 10
0.0
 20
0.0
 30
0.0
  3
*D5
  1

  0
LINE
  5
370B
330
2C4E
100
AcDbEntity
  8
BEM
 62
     0
370
    -2
100
AcDbLine
 10
480.9531753823184
 20
535.148131172458
 30
0.0
 11
480.9531753823184
 21
571.3709906425722
 31
0.0
  0
LINE
  5
370C
330
2C4E
100
AcDbEntity
  8
BEM
 62
     0
370
    -2
100
AcDbLine
 10
656.9531753823187
 20
535.1481311724578
 30
0.0
 11
656.9531753823187
 21
571.3709906425722
 31
0.0
  0
LINE
  5
370D
330
2C4E
100
AcDbEntity
  8
BEM
 62
     0
370
    -2
100
AcDbLine
 10
487.9531753823185
 20
569.3709906425722
 30
0.0
 11
649.9531753823187
 21
569.3709906425722
 31
0.0
  0
SOLID
  5
370E
330
2C4E
100
AcDbEntity
  8
BEM
 62
     0
100
AcDbTrace
 10
487.9531753823185
 20
570.5376573092388
 30
0.0
 11
487.9531753823185
 21
568.2043239759056
 31
0.0
 12
480.9531753823184
 22
569.3709906425722
 32
0.0
 13
480.9531753823184
 23
569.3709906425722
 33
0.0
  0
SOLID
  5
370F
330
2C4E
100
AcDbEntity
  8
BEM
 62
     0
100
AcDbTrace
 10
649.9531753823187
 20
570.5376573092388
 30
0.0
 11
649.9531753823187
 21
568.2043239759056
 31
0.0
 12
656.9531753823187
 22
569.3709906425722
 32
0.0
 13
656.9531753823187
 23
569.3709906425722
 33
0.0
  0
MTEXT
  5
3710
330
2C4E
100
AcDbEntity
  8
BEM
 62
     1
100
AcDbMText
 10
568.9531753823185
 20
575.8709906425722
 30
0.0
 40
7.0
 41
0.0
 71
     5
 72
     1
  1
\A1;%%c176
 73
     1
 44
1.0
  0
POINT
  5
3711
330
2C4E
100
AcDbEntity
  8
DEFPOINTS
 62
     0
100
AcDbPoint
 10
480.9531753823184
 20
533.1481311724579
 30
0.0
  0
POINT
  5
3712
330
2C4E
100
AcDbEntity
  8
DEFPOINTS
 62
     0
100
AcDbPoint
 10
656.9531753823187
 20
533.1481311724578
 30
0.0
  0
POINT
  5
3713
330
2C4E
100
AcDbEntity
  8
DEFPOINTS
 62
     0
100
AcDbPoint
 10
656.9531753823187
 20
569.3709906425722
 30
0.0
  0
ENDBLK
  5
2C5A
330
2C4E
100
AcDbEntity
  8
0
100
AcDbBlockEnd
  0
BLOCK
  5
2C66
330
2C5B
100
AcDbEntity
  8
0
100
AcDbBlockBegin
  2
*D6
 70
     1
 10
0.0
 20
0.0
 30
0.0
  3
*D6
  1

  0
LINE
  5
2E7D
330
2C5B
100
AcDbEntity
  8
BEM
 62
     0
370
    -2
100
AcDbLine
 10
517.9531753823185
 20
249.1481311724577
 30
0.0
 11
517.9531753823185
 21
219.5944010979208
 31
0.0
  0
LINE
  5
2E7E
330
2C5B
100
AcDbEntity
  8
BEM
 62
     0
370
    -2
100
AcDbLine
 10
619.9531753823184
 20
249.1481311724577
 30
0.0
 11
619.9531753823184
 21
219.5944010979208
 31
0.0
  0
LINE
  5
2E7F
330
2C5B
100
AcDbEntity
  8
BEM
 62
     0
370
    -2
100
AcDbLine
 10
524.9531753823186
 20
221.5944010979209
 30
0.0
 11
612.9531753823185
 21
221.5944010979209
 31
0.0
  0
SOLID
  5
2E80
330
2C5B
100
AcDbEntity
  8
BEM
 62
     0
100
AcDbTrace
 10
524.9531753823186
 20
222.7610677645875
 30
0.0
 11
524.9531753823186
 21
220.4277344312542
 31
0.0
 12
517.9531753823185
 22
221.5944010979209
 32
0.0
 13
517.9531753823185
 23
221.5944010979209
 33
0.0
  0
SOLID
  5
2E81
330
2C5B
100
AcDbEntity
  8
BEM
 62
     0
100
AcDbTrace
 10
612.9531753823185
 20
222.7610677645875
 30
0.0
 11
612.9531753823185
 21
220.4277344312542
 31
0.0
 12
619.9531753823184
 22
221.5944010979209
 32
0.0
 13
619.9531753823184
 23
221.5944010979209
 33
0.0
  0
MTEXT
  5
2E82
330
2C5B
100
AcDbEntity
  8
BEM
 62
     1
100
AcDbMText
 10
568.9531753823184
 20
228.0944010979208
 30
0.0
 40
7.0
 41
0.0
 71
     5
 72
     1
  1
\A1;%%c102
 73
     1
 44
1.0
  0
POINT
  5
2E83
330
2C5B
100
AcDbEntity
  8
DEFPOINTS
 62
     0
100
AcDbPoint
 10
517.9531753823185
 20
251.1481311724578
 30
0.0
  0
POINT
  5
2E84
330
2C5B
100
AcDbEntity
  8
DEFPOINTS
 62
     0
100
AcDbPoint
 10
619.9531753823184
 20
251.1481311724578
 30
0.0
  0
POINT
  5
2E85
330
2C5B
100
AcDbEntity
  8
DEFPOINTS
 62
     0
100
AcDbPoint
 10
619.9531753823184
 20
221.5944010979209
 30
0.0
  0
ENDBLK
  5
2C67
330
2C5B
100
AcDbEntity
  8
0
100
AcDbBlockEnd
  0
BLOCK
  5
2C80
330
2C75
100
AcDbEntity
  8
0
100
AcDbBlockBegin
  2
*D7
 70
     1
 10
0.0
 20
0.0
 30
0.0
  3
*D7
  1

  0
LINE
  5
3702
330
2C75
100
AcDbEntity
  8
BEM
 62
     0
370
    -2
100
AcDbLine
 10
478.9531753823184
 20
533.1481311724579
 30
0.0
 11
457.1193942568054
 21
533.1481311724579
 31
0.0
  0
LINE
  5
3703
330
2C75
100
AcDbEntity
  8
BEM
 62
     0
370
    -2
100
AcDbLine
 10
516.6530846905259
 20
243.1481311724577
 30
0.0
 11
457.1193942568054
 21
243.1481311724577
 31
0.0
  0
LINE
  5
3704
330
2C75
100
AcDbEntity
  8
BEM
 62
     0
370
    -2
100
AcDbLine
 10
459.1193942568055
 20
526.1481311724579
 30
0.0
 11
459.1193942568054
 21
250.1481311724577
 31
0.0
  0
SOLID
  5
3705
330
2C75
100
AcDbEntity
  8
BEM
 62
     0
100
AcDbTrace
 10
457.9527275901388
 20
526.1481311724579
 30
0.0
 11
460.2860609234721
 21
526.1481311724579
 31
0.0
 12
459.1193942568055
 22
533.1481311724579
 32
0.0
 13
459.1193942568055
 23
533.1481311724579
 33
0.0
  0
SOLID
  5
3706
330
2C75
100
AcDbEntity
  8
BEM
 62
     0
100
AcDbTrace
 10
457.9527275901387
 20
250.1481311724577
 30
0.0
 11
460.2860609234721
 21
250.1481311724577
 31
0.0
 12
459.1193942568054
 22
243.1481311724577
 32
0.0
 13
459.1193942568054
 23
243.1481311724577
 33
0.0
  0
MTEXT
  5
3707
330
2C75
100
AcDbEntity
  8
BEM
 62
     1
100
AcDbMText
 10
452.6193942568053
 20
388.148131172458
 30
0.0
 40
7.0
 41
0.0
 71
     5
 72
     1
  1
\A1;290
 11
0.0000000000000001
 21
1.0
 31
0.0
 73
     1
 44
1.0
  0
POINT
  5
3708
330
2C75
100
AcDbEntity
  8
DEFPOINTS
 62
     0
100
AcDbPoint
 10
480.9531753823184
 20
533.1481311724579
 30
0.0
  0
POINT
  5
3709
330
2C75
100
AcDbEntity
  8
DEFPOINTS
 62
     0
100
AcDbPoint
 10
518.6530846905259
 20
243.1481311724577
 30
0.0
  0
POINT
  5
370A
330
2C75
100
AcDbEntity
  8
DEFPOINTS
 62
     0
100
AcDbPoint
 10
459.1193942568054
 20
243.1481311724577
 30
0.0
  0
ENDBLK
  5
2C81
330
2C75
100
AcDbEntity
  8
0
100
AcDbBlockEnd
  0
BLOCK
  5
2CDB
330
2CD0
100
AcDbEntity
  8
0
100
AcDbBlockBegin
  2
*D8
 70
     1
 10
0.0
 20
0.0
 30
0.0
  3
*D8
  1

  0
LINE
  5
36A1
330
2CD0
100
AcDbEntity
  8
BEM
 62
     0
370
    -2
100
AcDbLine
 10
157.6532303939162
 20
531.1481311724577
 30
0.0
 11
112.7503493100739
 21
531.1481311724577
 31
0.0
  0
LINE
  5
36A2
330
2CD0
100
AcDbEntity
  8
BEM
 62
     0
370
    -2
100
AcDbLine
 10
159.1532303939164
 20
330.1481311724578
 30
0.0
 11
112.7503493100738
 21
330.1481311724578
 31
0.0
  0
LINE
  5
36A3
330
2CD0
100
AcDbEntity
  8
BEM
 62
     0
370
    -2
100
AcDbLine
 10
114.7503493100739
 20
524.1481311724577
 30
0.0
 11
114.7503493100738
 21
337.1481311724578
 31
0.0
  0
SOLID
  5
36A4
330
2CD0
100
AcDbEntity
  8
BEM
 62
     0
100
AcDbTrace
 10
113.5836826434072
 20
524.1481311724577
 30
0.0
 11
115.9170159767405
 21
524.1481311724577
 31
0.0
 12
114.7503493100739
 22
531.1481311724577
 32
0.0
 13
114.7503493100739
 23
531.1481311724577
 33
0.0
  0
SOLID
  5
36A5
330
2CD0
100
AcDbEntity
  8
BEM
 62
     0
100
AcDbTrace
 10
113.5836826434071
 20
337.1481311724578
 30
0.0
 11
115.9170159767405
 21
337.1481311724578
 31
0.0
 12
114.7503493100738
 22
330.1481311724578
 32
0.0
 13
114.7503493100738
 23
330.1481311724578
 33
0.0
  0
MTEXT
  5
36A6
330
2CD0
100
AcDbEntity
  8
BEM
 62
     1
100
AcDbMText
 10
108.2503493100738
 20
430.6481311724577
 30
0.0
 40
7.0
 41
0.0
 71
     5
 72
     1
  1
\A1;201
 11
0.0000000000000001
 21
1.0
 31
0.0
 73
     1
 44
1.0
  0
POINT
  5
36A7
330
2CD0
100
AcDbEntity
  8
DEFPOINTS
 62
     0
100
AcDbPoint
 10
159.6532303939162
 20
531.1481311724577
 30
0.0
  0
POINT
  5
36A8
330
2CD0
100
AcDbEntity
  8
DEFPOINTS
 62
     0
100
AcDbPoint
 10
161.1532303939164
 20
330.1481311724578
 30
0.0
  0
POINT
  5
36A9
330
2CD0
100
AcDbEntity
  8
DEFPOINTS
 62
     0
100
AcDbPoint
 10
114.7503493100738
 20
330.1481311724578
 30
0.0
  0
ENDBLK
  5
2CDC
330
2CD0
100
AcDbEntity
  8
0
100
AcDbBlockEnd
  0
BLOCK
  5
2CE8
330
2CDD
100
AcDbEntity
  8
0
100
AcDbBlockBegin
  2
*D9
 70
     1
 10
0.0
 20
0.0
 30
0.0
  3
*D9
  1

  0
LINE
  5
2E21
330
2CDD
100
AcDbEntity
  8
BEM
 62
     0
370
    -2
100
AcDbLine
 10
159.1532303939164
 20
330.1481311724578
 30
0.0
 11
112.7503493100738
 21
330.1481311724578
 31
0.0
  0
LINE
  5
2E22
330
2CDD
100
AcDbEntity
  8
BEM
 62
     0
370
    -2
100
AcDbLine
 10
157.6532303939162
 20
328.1481311724578
 30
0.0
 11
112.7503493100738
 21
328.1481311724578
 31
0.0
  0
LINE
  5
2E23
330
2CDD
100
AcDbEntity
  8
BEM
 62
     0
370
    -2
100
AcDbLine
 10
114.7503493100738
 20
337.1481311724578
 30
0.0
 11
114.7503493100738
 21
344.1481311724578
 31
0.0
  0
LINE
  5
2E24
330
2CDD
100
AcDbEntity
  8
BEM
 62
     0
370
    -2
100
AcDbLine
 10
114.7503493100738
 20
321.1481311724578
 30
0.0
 11
114.7503493100738
 21
304.4147978391245
 31
0.0
  0
LINE
  5
2E25
330
2CDD
100
AcDbEntity
  8
BEM
 62
     0
370
    -2
100
AcDbLine
 10
114.7503493100738
 20
330.1481311724578
 30
0.0
 11
114.7503493100738
 21
328.1481311724578
 31
0.0
  0
SOLID
  5
2E26
330
2CDD
100
AcDbEntity
  8
BEM
 62
     0
100
AcDbTrace
 10
113.5836826434071
 20
337.1481311724578
 30
0.0
 11
115.9170159767405
 21
337.1481311724578
 31
0.0
 12
114.7503493100738
 22
330.1481311724578
 32
0.0
 13
114.7503493100738
 23
330.1481311724578
 33
0.0
  0
SOLID
  5
2E27
330
2CDD
100
AcDbEntity
  8
BEM
 62
     0
100
AcDbTrace
 10
113.5836826434071
 20
321.1481311724578
 30
0.0
 11
115.9170159767405
 21
321.1481311724578
 31
0.0
 12
114.7503493100738
 22
328.1481311724578
 32
0.0
 13
114.7503493100738
 23
328.1481311724578
 33
0.0
  0
MTEXT
  5
2E28
330
2CDD
100
AcDbEntity
  8
BEM
 62
     1
100
AcDbMText
 10
108.2503493100738
 20
309.2814645057911
 30
0.0
 40
7.0
 41
0.0
 71
     5
 72
     1
  1
\A1;2
 11
0.0000000000000001
 21
1.0
 31
0.0
 73
     1
 44
1.0
  0
POINT
  5
2E29
330
2CDD
100
AcDbEntity
  8
DEFPOINTS
 62
     0
100
AcDbPoint
 10
161.1532303939164
 20
330.1481311724578
 30
0.0
  0
POINT
  5
2E2A
330
2CDD
100
AcDbEntity
  8
DEFPOINTS
 62
     0
100
AcDbPoint
 10
159.6532303939162
 20
328.1481311724578
 30
0.0
  0
POINT
  5
2E2B
330
2CDD
100
AcDbEntity
  8
DEFPOINTS
 62
     0
100
AcDbPoint
 10
114.7503493100738
 20
328.1481311724578
 30
0.0
  0
ENDBLK
  5
2CE9
330
2CDD
100
AcDbEntity
  8
0
100
AcDbBlockEnd
  0
BLOCK
  5
2CF5
330
2CEA
100
AcDbEntity
  8
0
100
AcDbBlockBegin
  2
*D10
 70
     1
 10
0.0
 20
0.0
 30
0.0
  3
*D10
  1

  0
LINE
  5
2E18
330
2CEA
100
AcDbEntity
  8
BEM
 62
     0
370
    -2
100
AcDbLine
 10
167.3531397021237
 20
243.1481311724577
 30
0.0
 11
128.6654488747249
 21
243.1481311724577
 31
0.0
  0
LINE
  5
2E19
330
2CEA
100
AcDbEntity
  8
BEM
 62
     0
370
    -2
100
AcDbLine
 10
157.6532303939162
 20
328.1481311724578
 30
0.0
 11
128.6654488747249
 21
328.1481311724578
 31
0.0
  0
LINE
  5
2E1A
330
2CEA
100
AcDbEntity
  8
BEM
 62
     0
370
    -2
100
AcDbLine
 10
130.6654488747249
 20
250.1481311724577
 30
0.0
 11
130.6654488747249
 21
321.1481311724577
 31
0.0
  0
SOLID
  5
2E1B
330
2CEA
100
AcDbEntity
  8
BEM
 62
     0
100
AcDbTrace
 10
129.4987822080582
 20
250.1481311724577
 30
0.0
 11
131.8321155413915
 21
250.1481311724577
 31
0.0
 12
130.6654488747249
 22
243.1481311724577
 32
0.0
 13
130.6654488747249
 23
243.1481311724577
 33
0.0
  0
SOLID
  5
2E1C
330
2CEA
100
AcDbEntity
  8
BEM
 62
     0
100
AcDbTrace
 10
129.4987822080582
 20
321.1481311724577
 30
0.0
 11
131.8321155413916
 21
321.1481311724577
 31
0.0
 12
130.6654488747249
 22
328.1481311724578
 32
0.0
 13
130.6654488747249
 23
328.1481311724578
 33
0.0
  0
MTEXT
  5
2E1D
330
2CEA
100
AcDbEntity
  8
BEM
 62
     1
100
AcDbMText
 10
124.1654488747248
 20
285.6481311724578
 30
0.0
 40
7.0
 41
0.0
 71
     5
 72
     1
  1
\A1;85
 11
0.0000000000000001
 21
1.0
 31
0.0
 73
     1
 44
1.0
  0
POINT
  5
2E1E
330
2CEA
100
AcDbEntity
  8
DEFPOINTS
 62
     0
100
AcDbPoint
 10
169.3531397021237
 20
243.1481311724577
 30
0.0
  0
POINT
  5
2E1F
330
2CEA
100
AcDbEntity
  8
DEFPOINTS
 62
     0
100
AcDbPoint
 10
159.6532303939162
 20
328.1481311724578
 30
0.0
  0
POINT
  5
2E20
330
2CEA
100
AcDbEntity
  8
DEFPOINTS
 62
     0
100
AcDbPoint
 10
130.6654488747249
 20
328.1481311724578
 30
0.0
  0
ENDBLK
  5
2CF6
330
2CEA
100
AcDbEntity
  8
0
100
AcDbBlockEnd
  0
BLOCK
  5
2D02
330
2CF7
100
AcDbEntity
  8
0
100
AcDbBlockBegin
  2
*D11
 70
     1
 10
0.0
 20
0.0
 30
0.0
  3
*D11
  1

  0
LINE
  5
2E0F
330
2CF7
100
AcDbEntity
  8
BEM
 62
     0
370
    -2
100
AcDbLine
 10
159.6532303939162
 20
326.1481311724578
 30
0.0
 11
159.6532303939162
 21
221.7239506205309
 31
0.0
  0
LINE
  5
2E10
330
2CF7
100
AcDbEntity
  8
BEM
 62
     0
370
    -2
100
AcDbLine
 10
219.6532303939163
 20
236.1481311724578
 30
0.0
 11
219.6532303939163
 21
221.7239506205309
 31
0.0
  0
LINE
  5
2E11
330
2CF7
100
AcDbEntity
  8
BEM
 62
     0
370
    -2
100
AcDbLine
 10
166.6532303939162
 20
223.7239506205309
 30
0.0
 11
212.6532303939163
 21
223.7239506205309
 31
0.0
  0
SOLID
  5
2E12
330
2CF7
100
AcDbEntity
  8
BEM
 62
     0
100
AcDbTrace
 10
166.6532303939162
 20
224.8906172871976
 30
0.0
 11
166.6532303939162
 21
222.5572839538642
 31
0.0
 12
159.6532303939162
 22
223.7239506205309
 32
0.0
 13
159.6532303939162
 23
223.7239506205309
 33
0.0
  0
SOLID
  5
2E13
330
2CF7
100
AcDbEntity
  8
BEM
 62
     0
100
AcDbTrace
 10
212.6532303939163
 20
224.8906172871976
 30
0.0
 11
212.6532303939163
 21
222.5572839538642
 31
0.0
 12
219.6532303939163
 22
223.7239506205309
 32
0.0
 13
219.6532303939163
 23
223.7239506205309
 33
0.0
  0
MTEXT
  5
2E14
330
2CF7
100
AcDbEntity
  8
BEM
 62
     1
100
AcDbMText
 10
189.6532303939162
 20
230.2239506205309
 30
0.0
 40
7.0
 41
0.0
 71
     5
 72
     1
  1
\A1;60
 73
     1
 44
1.0
  0
POINT
  5
2E15
330
2CF7
100
AcDbEntity
  8
DEFPOINTS
 62
     0
100
AcDbPoint
 10
159.6532303939162
 20
328.1481311724578
 30
0.0
  0
POINT
  5
2E16
330
2CF7
100
AcDbEntity
  8
DEFPOINTS
 62
     0
100
AcDbPoint
 10
219.6532303939163
 20
238.1481311724577
 30
0.0
  0
POINT
  5
2E17
330
2CF7
100
AcDbEntity
  8
DEFPOINTS
 62
     0
100
AcDbPoint
 10
219.6532303939163
 20
223.7239506205309
 30
0.0
  0
ENDBLK
  5
2D03
330
2CF7
100
AcDbEntity
  8
0
100
AcDbBlockEnd
  0
BLOCK
  5
3060
330
3056
100
AcDbEntity
  8
0
100
AcDbBlockBegin
  2
*D12
 70
     1
 10
0.0
 20
0.0
 30
0.0
  3
*D12
  1

  0
LINE
  5
3637
330
3056
100
AcDbEntity
  8
BEM
 62
     0
370
    -2
100
AcDbLine
 10
608.9531753823182
 20
533.148131172458
 30
0.0
 11
608.9531753823182
 21
558.0484756447528
 31
0.0
  0
LINE
  5
3638
330
3056
100
AcDbEntity
  8
BEM
 62
     0
370
    -2
100
AcDbLine
 10
528.9531753823186
 20
533.148131172458
 30
0.0
 11
528.9531753823186
 21
558.0484756447528
 31
0.0
  0
LINE
  5
3639
330
3056
100
AcDbEntity
  8
BEM
 62
     0
370
    -2
100
AcDbLine
 10
601.9531753823182
 20
556.0484756447529
 30
0.0
 11
535.9531753823185
 21
556.0484756447529
 31
0.0
  0
SOLID
  5
363A
330
3056
100
AcDbEntity
  8
BEM
 62
     0
100
AcDbTrace
 10
601.9531753823182
 20
557.2151423114195
 30
0.0
 11
601.9531753823182
 21
554.8818089780862
 31
0.0
 12
608.9531753823182
 22
556.0484756447529
 32
0.0
 13
608.9531753823182
 23
556.0484756447529
 33
0.0
  0
SOLID
  5
363B
330
3056
100
AcDbEntity
  8
BEM
 62
     0
100
AcDbTrace
 10
535.9531753823185
 20
557.2151423114195
 30
0.0
 11
535.9531753823185
 21
554.8818089780862
 31
0.0
 12
528.9531753823186
 22
556.0484756447529
 32
0.0
 13
528.9531753823186
 23
556.0484756447529
 33
0.0
  0
MTEXT
  5
363C
330
3056
100
AcDbEntity
  8
BEM
 62
     1
100
AcDbMText
 10
568.9531753823184
 20
562.5484756447528
 30
0.0
 40
7.0
 41
0.0
 71
     5
 72
     1
  1
\A1;80
 73
     1
 44
1.0
  0
POINT
  5
363D
330
3056
100
AcDbEntity
  8
DEFPOINTS
 62
     0
100
AcDbPoint
 10
608.9531753823182
 20
531.148131172458
 30
0.0
  0
POINT
  5
363E
330
3056
100
AcDbEntity
  8
DEFPOINTS
 62
     0
100
AcDbPoint
 10
528.9531753823186
 20
531.148131172458
 30
0.0
  0
POINT
  5
363F
330
3056
100
AcDbEntity
  8
DEFPOINTS
 62
     0
100
AcDbPoint
 10
528.9531753823186
 20
556.0484756447529
 30
0.0
  0
ENDBLK
  5
3061
330
3056
100
AcDbEntity
  8
0
100
AcDbBlockEnd
  0
BLOCK
  5
3076
330
306C
100
AcDbEntity
  8
0
100
AcDbBlockBegin
  2
*D13
 70
     1
 10
0.0
 20
0.0
 30
0.0
  3
*D13
  1

  0
LINE
  5
3698
330
306C
100
AcDbEntity
  8
BEM
 62
     0
370
    -2
100
AcDbLine
 10
150.4793961511036
 20
451.1481311724576
 30
0.0
 11
136.5536771236459
 21
451.1481311724576
 31
0.0
  0
LINE
  5
3699
330
306C
100
AcDbEntity
  8
BEM
 62
     0
370
    -2
100
AcDbLine
 10
157.6532303939162
 20
531.1481311724577
 30
0.0
 11
136.5536771236459
 21
531.1481311724577
 31
0.0
  0
LINE
  5
369A
330
306C
100
AcDbEntity
  8
BEM
 62
     0
370
    -2
100
AcDbLine
 10
138.5536771236459
 20
458.1481311724576
 30
0.0
 11
138.5536771236459
 21
524.1481311724577
 31
0.0
  0
SOLID
  5
369B
330
306C
100
AcDbEntity
  8
BEM
 62
     0
100
AcDbTrace
 10
137.3870104569792
 20
458.1481311724576
 30
0.0
 11
139.7203437903125
 21
458.1481311724576
 31
0.0
 12
138.5536771236459
 22
451.1481311724576
 32
0.0
 13
138.5536771236459
 23
451.1481311724576
 33
0.0
  0
SOLID
  5
369C
330
306C
100
AcDbEntity
  8
BEM
 62
     0
100
AcDbTrace
 10
137.3870104569792
 20
524.1481311724577
 30
0.0
 11
139.7203437903125
 21
524.1481311724577
 31
0.0
 12
138.5536771236459
 22
531.1481311724577
 32
0.0
 13
138.5536771236459
 23
531.1481311724577
 33
0.0
  0
MTEXT
  5
369D
330
306C
100
AcDbEntity
  8
BEM
 62
     1
100
AcDbMText
 10
132.0536771236458
 20
491.1481311724577
 30
0.0
 40
7.0
 41
0.0
 71
     5
 72
     1
  1
\A1;80
 11
0.0000000000000001
 21
1.0
 31
0.0
 73
     1
 44
1.0
  0
POINT
  5
369E
330
306C
100
AcDbEntity
  8
DEFPOINTS
 62
     0
100
AcDbPoint
 10
152.4793961511036
 20
451.1481311724576
 30
0.0
  0
POINT
  5
369F
330
306C
100
AcDbEntity
  8
DEFPOINTS
 62
     0
100
AcDbPoint
 10
159.6532303939162
 20
531.1481311724577
 30
0.0
  0
POINT
  5
36A0
330
306C
100
AcDbEntity
  8
DEFPOINTS
 62
     0
100
AcDbPoint
 10
138.5536771236459
 20
531.1481311724577
 30
0.0
  0
ENDBLK
  5
3077
330
306C
100
AcDbEntity
  8
0
100
AcDbBlockEnd
  0
BLOCK
  5
31C5
330
31BB
100
AcDbEntity
  8
0
100
AcDbBlockBegin
  2
*D14
 70
     1
 10
0.0
 20
0.0
 30
0.0
  3
*D14
  1

  0
LINE
  5
367D
330
31BB
100
AcDbEntity
  8
BEM
 62
     0
370
    -2
100
AcDbLine
 10
159.6532303939161
 20
419.5417780225209
 30
0.0
 11
159.6532303939161
 21
404.8512891504319
 31
0.0
  0
LINE
  5
367E
330
31BB
100
AcDbEntity
  8
BEM
 62
     0
370
    -2
100
AcDbLine
 10
249.6532303939163
 20
420.9359885296434
 30
0.0
 11
249.6532303939163
 21
404.8512891504319
 31
0.0
  0
LINE
  5
367F
330
31BB
100
AcDbEntity
  8
BEM
 62
     0
370
    -2
100
AcDbLine
 10
166.6532303939161
 20
406.8512891504319
 30
0.0
 11
242.6532303939163
 21
406.8512891504319
 31
0.0
  0
SOLID
  5
3680
330
31BB
100
AcDbEntity
  8
BEM
 62
     0
100
AcDbTrace
 10
166.6532303939161
 20
408.0179558170986
 30
0.0
 11
166.6532303939161
 21
405.6846224837652
 31
0.0
 12
159.6532303939161
 22
406.8512891504319
 32
0.0
 13
159.6532303939161
 23
406.8512891504319
 33
0.0
  0
SOLID
  5
3681
330
31BB
100
AcDbEntity
  8
BEM
 62
     0
100
AcDbTrace
 10
242.6532303939163
 20
408.0179558170986
 30
0.0
 11
242.6532303939163
 21
405.6846224837652
 31
0.0
 12
249.6532303939163
 22
406.8512891504319
 32
0.0
 13
249.6532303939163
 23
406.8512891504319
 33
0.0
  0
MTEXT
  5
3682
330
31BB
100
AcDbEntity
  8
BEM
 62
     1
100
AcDbMText
 10
224.7523929006841
 20
413.3512891504319
 30
0.0
 40
7.0
 41
0.0
 71
     5
 72
     1
  1
\A1;90
 73
     1
 44
1.0
  0
POINT
  5
3683
330
31BB
100
AcDbEntity
  8
DEFPOINTS
 62
     0
100
AcDbPoint
 10
159.6532303939161
 20
421.5417780225209
 30
0.0
  0
POINT
  5
3684
330
31BB
100
AcDbEntity
  8
DEFPOINTS
 62
     0
100
AcDbPoint
 10
249.6532303939163
 20
422.9359885296434
 30
0.0
  0
POINT
  5
3685
330
31BB
100
AcDbEntity
  8
DEFPOINTS
 62
     0
100
AcDbPoint
 10
249.6532303939163
 20
406.8512891504319
 30
0.0
  0
ENDBLK
  5
31C6
330
31BB
100
AcDbEntity
  8
0
100
AcDbBlockEnd
  0
BLOCK
  5
327A
330
3270
100
AcDbEntity
  8
0
100
AcDbBlockBegin
  2
*D15
 70
     1
 10
0.0
 20
0.0
 30
0.0
  3
*D15
  1

  0
LINE
  5
3674
330
3270
100
AcDbEntity
  8
BEM
 62
     0
370
    -2
100
AcDbLine
 10
159.6532303939161
 20
421.2191113896747
 30
0.0
 11
159.6532303939161
 21
378.5701334660152
 31
0.0
  0
LINE
  5
3675
330
3270
100
AcDbEntity
  8
BEM
 62
     0
370
    -2
100
AcDbLine
 10
369.6532303939161
 20
422.6481311724576
 30
0.0
 11
369.6532303939161
 21
378.5701334660152
 31
0.0
  0
LINE
  5
3676
330
3270
100
AcDbEntity
  8
BEM
 62
     0
370
    -2
100
AcDbLine
 10
166.6532303939161
 20
380.5701334660152
 30
0.0
 11
362.6532303939161
 21
380.5701334660152
 31
0.0
  0
SOLID
  5
3677
330
3270
100
AcDbEntity
  8
BEM
 62
     0
100
AcDbTrace
 10
166.6532303939161
 20
381.7368001326819
 30
0.0
 11
166.6532303939161
 21
379.4034667993486
 31
0.0
 12
159.6532303939161
 22
380.5701334660152
 32
0.0
 13
159.6532303939161
 23
380.5701334660152
 33
0.0
  0
SOLID
  5
3678
330
3270
100
AcDbEntity
  8
BEM
 62
     0
100
AcDbTrace
 10
362.6532303939161
 20
381.7368001326819
 30
0.0
 11
362.6532303939161
 21
379.4034667993486
 31
0.0
 12
369.6532303939161
 22
380.5701334660152
 32
0.0
 13
369.6532303939161
 23
380.5701334660152
 33
0.0
  0
MTEXT
  5
3679
330
3270
100
AcDbEntity
  8
BEM
 62
     1
100
AcDbMText
 10
264.6532303939161
 20
387.0701334660152
 30
0.0
 40
7.0
 41
0.0
 71
     5
 72
     1
  1
\A1;210
 73
     1
 44
1.0
  0
POINT
  5
367A
330
3270
100
AcDbEntity
  8
DEFPOINTS
 62
     0
100
AcDbPoint
 10
159.6532303939161
 20
423.2191113896747
 30
0.0
  0
POINT
  5
367B
330
3270
100
AcDbEntity
  8
DEFPOINTS
 62
     0
100
AcDbPoint
 10
369.6532303939161
 20
424.6481311724576
 30
0.0
  0
POINT
  5
367C
330
3270
100
AcDbEntity
  8
DEFPOINTS
 62
     0
100
AcDbPoint
 10
369.6532303939161
 20
380.5701334660152
 30
0.0
  0
ENDBLK
  5
327B
330
3270
100
AcDbEntity
  8
0
100
AcDbBlockEnd
  0
BLOCK
  5
3287
330
327D
100
AcDbEntity
  8
0
100
AcDbBlockBegin
  2
*D16
 70
     1
 10
0.0
 20
0.0
 30
0.0
  3
*D16
  1

  0
LINE
  5
366B
330
327D
100
AcDbEntity
  8
BEM
 62
     0
370
    -2
100
AcDbLine
 10
318.6532303939164
 20
477.6481311724576
 30
0.0
 11
389.7413556624408
 21
477.6481311724575
 31
0.0
  0
LINE
  5
366C
330
327D
100
AcDbEntity
  8
BEM
 62
     0
370
    -2
100
AcDbLine
 10
371.6532303939161
 20
424.6481311724576
 30
0.0
 11
389.7413556624408
 21
424.6481311724576
 31
0.0
  0
LINE
  5
366D
330
327D
100
AcDbEntity
  8
BEM
 62
     0
370
    -2
100
AcDbLine
 10
387.7413556624408
 20
470.6481311724576
 30
0.0
 11
387.7413556624408
 21
431.6481311724575
 31
0.0
  0
SOLID
  5
366E
330
327D
100
AcDbEntity
  8
BEM
 62
     0
100
AcDbTrace
 10
386.5746889957741
 20
470.6481311724576
 30
0.0
 11
388.9080223291075
 21
470.6481311724576
 31
0.0
 12
387.7413556624408
 22
477.6481311724575
 32
0.0
 13
387.7413556624408
 23
477.6481311724575
 33
0.0
  0
SOLID
  5
366F
330
327D
100
AcDbEntity
  8
BEM
 62
     0
100
AcDbTrace
 10
386.5746889957741
 20
431.6481311724575
 30
0.0
 11
388.9080223291075
 21
431.6481311724575
 31
0.0
 12
387.7413556624408
 22
424.6481311724576
 32
0.0
 13
387.7413556624408
 23
424.6481311724576
 33
0.0
  0
MTEXT
  5
3670
330
327D
100
AcDbEntity
  8
BEM
 62
     1
100
AcDbMText
 10
381.2413556624407
 20
451.1481311724576
 30
0.0
 40
7.0
 41
0.0
 71
     5
 72
     1
  1
\A1;%%c53
 11
0.0000000000000001
 21
1.0
 31
0.0
 73
     1
 44
1.0
  0
POINT
  5
3671
330
327D
100
AcDbEntity
  8
DEFPOINTS
 62
     0
100
AcDbPoint
 10
316.6532303939164
 20
477.6481311724576
 30
0.0
  0
POINT
  5
3672
330
327D
100
AcDbEntity
  8
DEFPOINTS
 62
     0
100
AcDbPoint
 10
369.6532303939161
 20
424.6481311724576
 30
0.0
  0
POINT
  5
3673
330
327D
100
AcDbEntity
  8
DEFPOINTS
 62
     0
100
AcDbPoint
 10
387.7413556624408
 20
424.6481311724576
 30
0.0
  0
ENDBLK
  5
3288
330
327D
100
AcDbEntity
  8
0
100
AcDbBlockEnd
  0
BLOCK
  5
346D
330
3463
100
AcDbEntity
  8
0
100
AcDbBlockBegin
  2
*D17
 70
     1
 10
0.0
 20
0.0
 30
0.0
  3
*D17
  1

  0
LINE
  5
36C6
330
3463
100
AcDbEntity
  8
BEM
 62
     0
370
    -2
100
AcDbLine
 10
314.4874977578356
 20
541.6520507360216
 30
0.0
 11
314.8403785514169
 21
551.757234519692
 31
0.0
  0
LINE
  5
36C7
330
3463
100
AcDbEntity
  8
BEM
 62
     0
370
    -2
100
AcDbLine
 10
346.4680042224463
 20
540.5352668415414
 30
0.0
 11
346.8208850160277
 21
550.640450625212
 31
0.0
  0
LINE
  5
36C8
330
3463
100
AcDbEntity
  8
BEM
 62
     0
370
    -2
100
AcDbLine
 10
321.7663153471456
 20
549.5141563887362
 30
0.0
 11
339.755350233489
 21
548.8859654480912
 31
0.0
  0
SOLID
  5
36C9
330
3463
100
AcDbEntity
  8
BEM
 62
     0
100
AcDbTrace
 10
321.8070314266318
 20
550.6801123535918
 30
0.0
 11
321.7255992676594
 21
548.3482004238807
 31
0.0
 12
314.7705795580119
 22
549.7584528656537
 32
0.0
 13
314.7705795580119
 23
549.7584528656537
 33
0.0
  0
SOLID
  5
36CA
330
3463
100
AcDbEntity
  8
BEM
 62
     0
100
AcDbTrace
 10
339.7960663129752
 20
550.0519214129468
 30
0.0
 11
339.7146341540028
 21
547.7200094832356
 31
0.0
 12
346.7510860226227
 22
548.6416689711737
 32
0.0
 13
346.7510860226227
 23
548.6416689711737
 33
0.0
  0
MTEXT
  5
36CB
330
3463
100
AcDbEntity
  8
BEM
 62
     1
100
AcDbMText
 10
330.9876795188836
 20
555.6961012940379
 30
0.0
 40
7.0
 41
0.0
 71
     5
 72
     1
  1
\A1;%%c32
 11
0.9993908270190956
 21
-0.0348994967025015
 31
0.0
 73
     1
 44
1.0
  0
POINT
  5
36CC
330
3463
100
AcDbEntity
  8
DEFPOINTS
 62
     0
100
AcDbPoint
 10
314.4176987644306
 20
539.6532690819833
 30
0.0
  0
POINT
  5
36CD
330
3463
100
AcDbEntity
  8
DEFPOINTS
 62
     0
100
AcDbPoint
 10
346.3982052290413
 20
538.5364851875031
 30
0.0
  0
POINT
  5
36CE
330
3463
100
AcDbEntity
  8
DEFPOINTS
 62
     0
100
AcDbPoint
 10
346.7510860226227
 20
548.6416689711737
 30
0.0
  0
ENDBLK
  5
346E
330
3463
100
AcDbEntity
  8
0
100
AcDbBlockEnd
  0
BLOCK
  5
3487
330
347D
100
AcDbEntity
  8
0
100
AcDbBlockBegin
  2
*D18
 70
     1
 10
0.0
 20
0.0
 30
0.0
  3
*D18
  1

  0
LINE
  5
36BD
330
347D
100
AcDbEntity
  8
BEM
 62
     0
370
    -2
100
AcDbLine
 10
346.6520120479544
 20
488.4971448431433
 30
0.0
 11
363.4547636433473
 21
487.9103798278534
 31
0.0
  0
LINE
  5
36BE
330
347D
100
AcDbEntity
  8
BEM
 62
     0
370
    -2
100
AcDbLine
 10
348.3969868830797
 20
538.466686194098
 30
0.0
 11
365.1997384784725
 21
537.8799211788081
 31
0.0
  0
LINE
  5
36BF
330
347D
100
AcDbEntity
  8
BEM
 62
     0
370
    -2
100
AcDbLine
 10
361.7002784662266
 20
494.9759146103922
 30
0.0
 11
362.9566603475167
 21
530.9539843830795
 31
0.0
  0
SOLID
  5
36C0
330
347D
100
AcDbEntity
  8
BEM
 62
     0
100
AcDbTrace
 10
360.5343225013709
 20
495.0166306898784
 30
0.0
 11
362.8662344310822
 21
494.9351985309059
 31
0.0
 12
361.455981989309
 22
487.9801788212585
 32
0.0
 13
361.455981989309
 23
487.9801788212585
 33
0.0
  0
SOLID
  5
36C1
330
347D
100
AcDbEntity
  8
BEM
 62
     0
100
AcDbTrace
 10
361.790704382661
 20
530.9947004625658
 30
0.0
 11
364.1226163123723
 21
530.9132683035932
 31
0.0
 12
363.2009568244342
 22
537.9497201722131
 32
0.0
 13
363.2009568244342
 23
537.9497201722131
 33
0.0
  0
MTEXT
  5
36C2
330
347D
100
AcDbEntity
  8
BEM
 62
     1
100
AcDbMText
 10
355.8324290312475
 20
513.1917962253022
 30
0.0
 40
7.0
 41
0.0
 71
     5
 72
     1
  1
\A1;50
 11
0.0348994967025044
 21
0.9993908270190956
 31
0.0
 73
     1
 44
1.0
  0
POINT
  5
36C3
330
347D
100
AcDbEntity
  8
DEFPOINTS
 62
     0
100
AcDbPoint
 10
344.6532303939163
 20
488.5669438365483
 30
0.0
  0
POINT
  5
36C4
330
347D
100
AcDbEntity
  8
DEFPOINTS
 62
     0
100
AcDbPoint
 10
346.3982052290415
 20
538.536485187503
 30
0.0
  0
POINT
  5
36C5
330
347D
100
AcDbEntity
  8
DEFPOINTS
 62
     0
100
AcDbPoint
 10
363.2009568244342
 20
537.9497201722131
 30
0.0
  0
ENDBLK
  5
3488
330
347D
100
AcDbEntity
  8
0
100
AcDbBlockEnd
  0
BLOCK
  5
35AF
330
35AE
100
AcDbEntity
  8
0
100
AcDbBlockBegin
  2
*X19
 70
     1
 10
0.0
 20
0.0
 30
0.0
  3
*X19
  1

  0
LINE
  5
35B0
330
35AE
100
AcDbEntity
  8
0
 62
     0
100
AcDbLine
 10
298.0960078669969
 20
139.9
 30
0.0
 11
301.146111383185
 21
139.9
 31
0.0
  0
LINE
  5
35B1
330
35AE
100
AcDbEntity
  8
0
 62
     0
100
AcDbLine
 10
298.0764170065196
 20
140.0
 30
0.0
 11
301.1199013409694
 21
140.0
 31
0.0
  0
LINE
  5
35B2
330
35AE
100
AcDbEntity
  8
0
 62
     0
100
AcDbLine
 10
298.0567001344326
 20
140.1
 30
0.0
 11
301.0907658659435
 21
140.1
 31
0.0
  0
LINE
  5
35B3
330
35AE
100
AcDbEntity
  8
0
 62
     0
100
AcDbLine
 10
298.0368571602607
 20
140.2
 30
0.0
 11
301.0586343137953
 21
140.2
 31
0.0
  0
LINE
  5
35B4
330
35AE
100
AcDbEntity
  8
0
 62
     0
100
AcDbLine
 10
298.0168879928627
 20
140.3
 30
0.0
 11
301.0234261106571
 21
140.3
 31
0.0
  0
LINE
  5
35B5
330
35AE
100
AcDbEntity
  8
0
 62
     0
100
AcDbLine
 10
297.9967925404292
 20
140.4
 30
0.0
 11
300.9850496121478
 21
140.4
 31
0.0
  0
LINE
  5
35B6
330
35AE
100
AcDbEntity
  8
0
 62
     0
100
AcDbLine
 10
297.9765707104801
 20
140.5
 30
0.0
 11
300.9434007291996
 21
140.5
 31
0.0
  0
LINE
  5
35B7
330
35AE
100
AcDbEntity
  8
0
 62
     0
100
AcDbLine
 10
297.9562224098627
 20
140.6
 30
0.0
 11
300.8983612668874
 21
140.6
 31
0.0
  0
LINE
  5
35B8
330
35AE
100
AcDbEntity
  8
0
 62
     0
100
AcDbLine
 10
297.9357475447491
 20
140.7
 30
0.0
 11
300.8497969062327
 21
140.7
 31
0.0
  0
LINE
  5
35B9
330
35AE
100
AcDbEntity
  8
0
 62
     0
100
AcDbLine
 10
297.9151460206341
 20
140.8
 30
0.0
 11
300.7975547368991
 21
140.8
 31
0.0
  0
LINE
  5
35BA
330
35AE
100
AcDbEntity
  8
0
 62
     0
100
AcDbLine
 10
297.8944177423331
 20
140.9
 30
0.0
 11
300.7414602183188
 21
140.9
 31
0.0
  0
LINE
  5
35BB
330
35AE
100
AcDbEntity
  8
0
 62
     0
100
AcDbLine
 10
297.8735626139794
 20
141.0
 30
0.0
 11
300.6813134043297
 21
141.0
 31
0.0
  0
LINE
  5
35BC
330
35AE
100
AcDbEntity
  8
0
 62
     0
100
AcDbLine
 10
297.852580539022
 20
141.1
 30
0.0
 11
300.616884206069
 21
141.1
 31
0.0
  0
LINE
  5
35BD
330
35AE
100
AcDbEntity
  8
0
 62
     0
100
AcDbLine
 10
297.8314714202235
 20
141.2
 30
0.0
 11
300.5479063805932
 21
141.2
 31
0.0
  0
LINE
  5
35BE
330
35AE
100
AcDbEntity
  8
0
 62
     0
100
AcDbLine
 10
297.8102351596573
 20
141.3
 30
0.0
 11
300.4740698039473
 21
141.3
 31
0.0
  0
LINE
  5
35BF
330
35AE
100
AcDbEntity
  8
0
 62
     0
100
AcDbLine
 10
297.7888716587055
 20
141.4
 30
0.0
 11
300.3950103932542
 21
141.4
 31
0.0
  0
LINE
  5
35C0
330
35AE
100
AcDbEntity
  8
0
 62
     0
100
AcDbLine
 10
297.7673808180563
 20
141.5
 30
0.0
 11
300.3102967423976
 21
141.5
 31
0.0
  0
LINE
  5
35C1
330
35AE
100
AcDbEntity
  8
0
 62
     0
100
AcDbLine
 10
297.7457625377017
 20
141.6
 30
0.0
 11
300.2194120592973
 21
141.6
 31
0.0
  0
LINE
  5
35C2
330
35AE
100
AcDbEntity
  8
0
 62
     0
100
AcDbLine
 10
297.724016716935
 20
141.7
 30
0.0
 11
300.1217292115549
 21
141.7
 31
0.0
  0
LINE
  5
35C3
330
35AE
100
AcDbEntity
  8
0
 62
     0
100
AcDbLine
 10
297.7021432543481
 20
141.8
 30
0.0
 11
300.0164753595461
 21
141.8
 31
0.0
  0
LINE
  5
35C4
330
35AE
100
AcDbEntity
  8
0
 62
     0
100
AcDbLine
 10
297.6801420478295
 20
141.9
 30
0.0
 11
299.9026803028212
 21
141.9
 31
0.0
  0
LINE
  5
35C5
330
35AE
100
AcDbEntity
  8
0
 62
     0
100
AcDbLine
 10
297.6580129945612
 20
142.0
 30
0.0
 11
299.7790982834405
 21
142.0
 31
0.0
  0
LINE
  5
35C6
330
35AE
100
AcDbEntity
  8
0
 62
     0
100
AcDbLine
 10
297.6357559910165
 20
142.1
 30
0.0
 11
299.6440843310736
 21
142.1
 31
0.0
  0
LINE
  5
35C7
330
35AE
100
AcDbEntity
  8
0
 62
     0
100
AcDbLine
 10
297.6133709329572
 20
142.2
 30
0.0
 11
299.495387841064
 21
142.2
 31
0.0
  0
LINE
  5
35C8
330
35AE
100
AcDbEntity
  8
0
 62
     0
100
AcDbLine
 10
297.5908577154313
 20
142.3
 30
0.0
 11
299.32978328562
 21
142.3
 31
0.0
  0
LINE
  5
35C9
330
35AE
100
AcDbEntity
  8
0
 62
     0
100
AcDbLine
 10
297.5682162327702
 20
142.4
 30
0.0
 11
299.1423459160044
 21
142.4
 31
0.0
  0
LINE
  5
35CA
330
35AE
100
AcDbEntity
  8
0
 62
     0
100
AcDbLine
 10
297.545446378586
 20
142.5
 30
0.0
 11
298.9248354028607
 21
142.5
 31
0.0
  0
LINE
  5
35CB
330
35AE
100
AcDbEntity
  8
0
 62
     0
100
AcDbLine
 10
297.5225480457689
 20
142.6
 30
0.0
 11
298.6612997479492
 21
142.6
 31
0.0
  0
LINE
  5
35CC
330
35AE
100
AcDbEntity
  8
0
 62
     0
100
AcDbLine
 10
297.4995211264845
 20
142.7
 30
0.0
 11
298.3109565344978
 21
142.7
 31
0.0
  0
LINE
  5
35CD
330
35AE
100
AcDbEntity
  8
0
 62
     0
100
AcDbLine
 10
298.0957463770402
 20
107.7
 30
0.0
 11
301.1407278857005
 21
107.7
 31
0.0
  0
LINE
  5
35CE
330
35AE
100
AcDbEntity
  8
0
 62
     0
100
AcDbLine
 10
298.0761538298603
 20
107.6
 30
0.0
 11
301.1095320855778
 21
107.6
 31
0.0
  0
LINE
  5
35CF
330
35AE
100
AcDbEntity
  8
0
 62
     0
100
AcDbLine
 10
298.0564352698635
 20
107.5
 30
0.0
 11
301.0754742557221
 21
107.5
 31
0.0
  0
LINE
  5
35D0
330
35AE
100
AcDbEntity
  8
0
 62
     0
100
AcDbLine
 10
298.0365906065659
 20
107.4
 30
0.0
 11
301.0384773546777
 21
107.4
 31
0.0
  0
LINE
  5
35D1
330
35AE
100
AcDbEntity
  8
0
 62
     0
100
AcDbLine
 10
298.0166197488174
 20
107.3
 30
0.0
 11
300.9984545240248
 21
107.3
 31
0.0
  0
LINE
  5
35D2
330
35AE
100
AcDbEntity
  8
0
 62
     0
100
AcDbLine
 10
297.9965226047994
 20
107.2
 30
0.0
 11
300.9553079002719
 21
107.2
 31
0.0
  0
LINE
  5
35D3
330
35AE
100
AcDbEntity
  8
0
 62
     0
100
AcDbLine
 10
297.976299082023
 20
107.1
 30
0.0
 11
300.9089271918567
 21
107.1
 31
0.0
  0
LINE
  5
35D4
330
35AE
100
AcDbEntity
  8
0
 62
     0
100
AcDbLine
 10
297.9559490873263
 20
107.0
 30
0.0
 11
300.859187966336
 21
107.0
 31
0.0
  0
LINE
  5
35D5
330
35AE
100
AcDbEntity
  8
0
 62
     0
100
AcDbLine
 10
297.9354725268726
 20
106.9
 30
0.0
 11
300.805949576409
 21
106.9
 31
0.0
  0
LINE
  5
35D6
330
35AE
100
AcDbEntity
  8
0
 62
     0
100
AcDbLine
 10
297.9148693061473
 20
106.8
 30
0.0
 11
300.7490526310996
 21
106.8
 31
0.0
  0
LINE
  5
35D7
330
35AE
100
AcDbEntity
  8
0
 62
     0
100
AcDbLine
 10
297.894139329957
 20
106.7
 30
0.0
 11
300.6883158876924
 21
106.7
 31
0.0
  0
LINE
  5
35D8
330
35AE
100
AcDbEntity
  8
0
 62
     0
100
AcDbLine
 10
297.8732825024256
 20
106.6
 30
0.0
 11
300.6235323970686
 21
106.6
 31
0.0
  0
LINE
  5
35D9
330
35AE
100
AcDbEntity
  8
0
 62
     0
100
AcDbLine
 10
297.8522987269931
 20
106.5
 30
0.0
 11
300.5544646741054
 21
106.5
 31
0.0
  0
LINE
  5
35DA
330
35AE
100
AcDbEntity
  8
0
 62
     0
100
AcDbLine
 10
297.8311879064128
 20
106.4
 30
0.0
 11
300.4808385766517
 21
106.4
 31
0.0
  0
LINE
  5
35DB
330
35AE
100
AcDbEntity
  8
0
 62
     0
100
AcDbLine
 10
297.809949942749
 20
106.3
 30
0.0
 11
300.4023354466637
 21
106.3
 31
0.0
  0
LINE
  5
35DC
330
35AE
100
AcDbEntity
  8
0
 62
     0
100
AcDbLine
 10
297.7885847373742
 20
106.2
 30
0.0
 11
300.3185818713807
 21
106.2
 31
0.0
  0
LINE
  5
35DD
330
35AE
100
AcDbEntity
  8
0
 62
     0
100
AcDbLine
 10
297.7670921909675
 20
106.1
 30
0.0
 11
300.2291361203638
 21
106.1
 31
0.0
  0
LINE
  5
35DE
330
35AE
100
AcDbEntity
  8
0
 62
     0
100
AcDbLine
 10
297.7454722035117
 20
106.0
 30
0.0
 11
300.1334698350881
 21
106.0
 31
0.0
  0
LINE
  5
35DF
330
35AE
100
AcDbEntity
  8
0
 62
     0
100
AcDbLine
 10
297.7237246742905
 20
105.9
 30
0.0
 11
300.0309427636306
 21
105.9
 31
0.0
  0
LINE
  5
35E0
330
35AE
100
AcDbEntity
  8
0
 62
     0
100
AcDbLine
 10
297.7018495018866
 20
105.8
 30
0.0
 11
299.9207670028696
 21
105.8
 31
0.0
  0
LINE
  5
35E1
330
35AE
100
AcDbEntity
  8
0
 62
     0
100
AcDbLine
 10
297.6798465841788
 20
105.7
 30
0.0
 11
299.8019548584239
 21
105.7
 31
0.0
  0
LINE
  5
35E2
330
35AE
100
AcDbEntity
  8
0
 62
     0
100
AcDbLine
 10
297.6577158183399
 20
105.6
 30
0.0
 11
299.6732400639777
 21
105.6
 31
0.0
  0
LINE
  5
35E3
330
35AE
100
AcDbEntity
  8
0
 62
     0
100
AcDbLine
 10
297.6354571008333
 20
105.5
 30
0.0
 11
299.5329534980252
 21
105.5
 31
0.0
  0
LINE
  5
35E4
330
35AE
100
AcDbEntity
  8
0
 62
     0
100
AcDbLine
 10
297.6130703274117
 20
105.4
 30
0.0
 11
299.3788163336778
 21
105.4
 31
0.0
  0
LINE
  5
35E5
330
35AE
100
AcDbEntity
  8
0
 62
     0
100
AcDbLine
 10
297.5905553931133
 20
105.3
 30
0.0
 11
299.2075714303314
 21
105.3
 31
0.0
  0
LINE
  5
35E6
330
35AE
100
AcDbEntity
  8
0
 62
     0
100
AcDbLine
 10
297.5679121922599
 20
105.2
 30
0.0
 11
299.0142642328993
 21
105.2
 31
0.0
  0
LINE
  5
35E7
330
35AE
100
AcDbEntity
  8
0
 62
     0
100
AcDbLine
 10
297.5451406184539
 20
105.1
 30
0.0
 11
298.7906505113269
 21
105.1
 31
0.0
  0
LINE
  5
35E8
330
35AE
100
AcDbEntity
  8
0
 62
     0
100
AcDbLine
 10
297.5222405645761
 20
105.0
 30
0.0
 11
298.5209205728285
 21
105.0
 31
0.0
  0
LINE
  5
35E9
330
35AE
100
AcDbEntity
  8
0
 62
     0
100
AcDbLine
 10
297.4992119227821
 20
104.9
 30
0.0
 11
298.1654778889277
 21
104.9
 31
0.0
  0
ENDBLK
  5
35EA
330
35AE
100
AcDbEntity
  8
0
100
AcDbBlockEnd
  0
BLOCK
  5
36E2
330
36D8
100
AcDbEntity
  8
0
100
AcDbBlockBegin
  2
*D20
 70
     1
 10
0.0
 20
0.0
 30
0.0
  3
*D20
  1

  0
LINE
  5
36E4
330
36D8
100
AcDbEntity
  8
BEM
 62
     0
370
    -2
100
AcDbLine
 10
652.9531753823184
 20
326.1481311724578
 30
0.0
 11
652.9531753823184
 21
204.9147282901131
 31
0.0
  0
LINE
  5
36E5
330
36D8
100
AcDbEntity
  8
BEM
 62
     0
370
    -2
100
AcDbLine
 10
484.9531753823185
 20
326.1481311724578
 30
0.0
 11
484.9531753823185
 21
204.9147282901131
 31
0.0
  0
LINE
  5
36E6
330
36D8
100
AcDbEntity
  8
BEM
 62
     0
370
    -2
100
AcDbLine
 10
645.9531753823185
 20
206.9147282901131
 30
0.0
 11
491.9531753823185
 21
206.9147282901131
 31
0.0
  0
SOLID
  5
36E7
330
36D8
100
AcDbEntity
  8
BEM
 62
     0
100
AcDbTrace
 10
645.9531753823185
 20
208.0813949567797
 30
0.0
 11
645.9531753823185
 21
205.7480616234464
 31
0.0
 12
652.9531753823184
 22
206.9147282901131
 32
0.0
 13
652.9531753823184
 23
206.9147282901131
 33
0.0
  0
SOLID
  5
36E8
330
36D8
100
AcDbEntity
  8
BEM
 62
     0
100
AcDbTrace
 10
491.9531753823185
 20
208.0813949567797
 30
0.0
 11
491.9531753823185
 21
205.7480616234464
 31
0.0
 12
484.9531753823185
 22
206.9147282901131
 32
0.0
 13
484.9531753823185
 23
206.9147282901131
 33
0.0
  0
MTEXT
  5
36E9
330
36D8
100
AcDbEntity
  8
BEM
 62
     1
100
AcDbMText
 10
568.9531753823184
 20
213.4147282901131
 30
0.0
 40
7.0
 41
0.0
 71
     5
 72
     1
  1
\A1;%%c168
 73
     1
 44
1.0
  0
POINT
  5
36EA
330
36D8
100
AcDbEntity
  8
DEFPOINTS
 62
     0
100
AcDbPoint
 10
652.9531753823184
 20
328.1481311724578
 30
0.0
  0
POINT
  5
36EB
330
36D8
100
AcDbEntity
  8
DEFPOINTS
 62
     0
100
AcDbPoint
 10
484.9531753823185
 20
328.1481311724578
 30
0.0
  0
POINT
  5
36EC
330
36D8
100
AcDbEntity
  8
DEFPOINTS
 62
     0
100
AcDbPoint
 10
484.9531753823185
 20
206.9147282901131
 30
0.0
  0
ENDBLK
  5
36E3
330
36D8
100
AcDbEntity
  8
0
100
AcDbBlockEnd
  0
ENDSEC
  0
SECTION
  2
ENTITIES
  0
LINE
  5
58
330
1E
100
AcDbEntity
  8
STEMPEL
100
AcDbLine
 10
830.0000000000002
 20
110.0
 30
0.0
 11
470.0000000000001
 21
110.0
 31
0.0
  0
LINE
  5
59
330
1E
100
AcDbEntity
  8
STEMPEL
100
AcDbLine
 10
470.0000000000001
 20
110.0
 30
0.0
 11
470.0000000000001
 21
10.0
 31
0.0
  0
LINE
  5
5A
330
1E
100
AcDbEntity
  8
STEMPEL
100
AcDbLine
 10
566.0000000000002
 20
109.9999999999999
 30
0.0
 11
566.0000000000001
 21
9.999999999999886
 31
0.0
  0
LINE
  5
5B
330
1E
100
AcDbEntity
  8
STEMPEL
100
AcDbLine
 10
650.0
 20
110.0
 30
0.0
 11
650.0
 21
10.0
 31
0.0
  0
LINE
  5
5C
330
1E
100
AcDbEntity
  8
STEMPEL
100
AcDbLine
 10
752.0000000000002
 20
109.9999999999997
 30
0.0
 11
752.0000000000002
 21
40.0
 31
0.0
  0
LINE
  5
5D
330
1E
100
AcDbEntity
  8
STEMPEL
100
AcDbLine
 10
566.0
 20
30.0
 30
0.0
 11
470.0000000000001
 21
30.0
 31
0.0
  0
LINE
  5
5E
330
1E
100
AcDbEntity
  8
STEMPEL
100
AcDbLine
 10
830.0000000000002
 20
40.0
 30
0.0
 11
566.0000000000001
 21
40.0
 31
0.0
  0
LINE
  5
5F
330
1E
100
AcDbEntity
  8
STEMPEL
100
AcDbLine
 10
830.0000000000002
 20
80.0
 30
0.0
 11
566.0000000000002
 21
80.0
 31
0.0
  0
LINE
  5
60
330
1E
100
AcDbEntity
  8
VOLL
100
AcDbLine
 10
484.0000000000002
 20
110.0
 30
0.0
 11
484.0000000000001
 21
9.999999999999985
 31
0.0
  0
LINE
  5
61
330
1E
100
AcDbEntity
  8
VOLL
100
AcDbLine
 10
524.0000000000001
 20
109.9999999999999
 30
0.0
 11
524.0000000000001
 21
9.999999999999943
 31
0.0
  0
LINE
  5
62
330
1E
100
AcDbEntity
  8
VOLL
100
AcDbLine
 10
544.0000000000002
 20
109.9999999999999
 30
0.0
 11
544.0000000000001
 21
9.999999999999914
 31
0.0
  0
LINE
  5
63
330
1E
100
AcDbEntity
  8
VOLL
100
AcDbLine
 10
584.0000000000002
 20
80.0
 30
0.0
 11
584.0000000000002
 21
40.0
 31
0.0
  0
LINE
  5
64
330
1E
100
AcDbEntity
  8
VOLL
100
AcDbLine
 10
610.0000000000002
 20
109.9999999999998
 30
0.0
 11
610.0000000000001
 21
40.0
 31
0.0
  0
LINE
  5
65
330
1E
100
AcDbEntity
  8
HILF
100
AcDbLine
 10
470.0000000000001
 20
100.0
 30
0.0
 11
566.0000000000002
 21
100.0
 31
0.0
  0
LINE
  5
66
330
1E
100
AcDbEntity
  8
HILF
100
AcDbLine
 10
470.0000000000001
 20
90.0
 30
0.0
 11
566.0000000000002
 21
90.0
 31
0.0
  0
LINE
  5
67
330
1E
100
AcDbEntity
  8
HILF
100
AcDbLine
 10
470.0000000000001
 20
80.0
 30
0.0
 11
566.0000000000002
 21
80.0
 31
0.0
  0
LINE
  5
68
330
1E
100
AcDbEntity
  8
HILF
100
AcDbLine
 10
470.0000000000001
 20
70.0
 30
0.0
 11
566.0000000000002
 21
70.0
 31
0.0
  0
LINE
  5
69
330
1E
100
AcDbEntity
  8
HILF
100
AcDbLine
 10
470.0000000000001
 20
60.0
 30
0.0
 11
566.0000000000002
 21
60.0
 31
0.0
  0
LINE
  5
6A
330
1E
100
AcDbEntity
  8
HILF
100
AcDbLine
 10
470.0000000000001
 20
50.0
 30
0.0
 11
566.0000000000002
 21
50.0
 31
0.0
  0
LINE
  5
6B
330
1E
100
AcDbEntity
  8
HILF
100
AcDbLine
 10
470.0000000000001
 20
40.0
 30
0.0
 11
566.0000000000002
 21
40.0
 31
0.0
  0
LINE
  5
6C
330
1E
100
AcDbEntity
  8
HILF
100
AcDbLine
 10
566.0000000000002
 20
70.0
 30
0.0
 11
650.0
 21
70.0
 31
0.0
  0
LINE
  5
6D
330
1E
100
AcDbEntity
  8
HILF
100
AcDbLine
 10
566.0000000000002
 20
60.0
 30
0.0
 11
650.0
 21
60.0
 31
0.0
  0
LINE
  5
6E
330
1E
100
AcDbEntity
  8
HILF
100
AcDbLine
 10
566.0000000000002
 20
50.0
 30
0.0
 11
650.0
 21
50.0
 31
0.0
  0
LINE
  5
6F
330
1E
100
AcDbEntity
  8
HILF
100
AcDbLine
 10
654.7736801096948
 20
84.03758247564136
 30
0.0
 11
746.6297842514811
 21
84.03758247564136
 31
0.0
  0
LINE
  5
70
330
1E
100
AcDbEntity
  8
HILF
100
AcDbLine
 10
654.7736801096948
 20
70.0
 30
0.0
 11
746.6297842514811
 21
70.0
 31
0.0
  0
LINE
  5
71
330
1E
100
AcDbEntity
  8
HILF
100
AcDbLine
 10
654.7736801096948
 20
60.0
 30
0.0
 11
746.6297842514811
 21
60.0
 31
0.0
  0
LINE
  5
72
330
1E
100
AcDbEntity
  8
HILF
100
AcDbLine
 10
654.7736801096948
 20
50.0
 30
0.0
 11
746.6297842514811
 21
50.0
 31
0.0
  0
LINE
  5
73
330
1E
100
AcDbEntity
  8
VOLL
100
AcDbLine
 10
752.0000000000002
 20
60.0
 30
0.0
 11
830.0000000000002
 21
60.0
 31
0.0
  0
LINE
  5
74
330
1E
100
AcDbEntity
  8
HILF
100
AcDbLine
 10
756.7238616296995
 20
83.77983636955823
 30
0.0
 11
824.858883932673
 21
83.77983636955823
 31
0.0
  0
LINE
  5
75
330
1E
100
AcDbEntity
  8
HILF
100
AcDbLine
 10
654.7736801096948
 20
14.89398258028305
 30
0.0
 11
824.858883932673
 21
14.89398258028305
 31
0.0
  0
TEXT
  5
76
330
1E
100
AcDbEntity
  8
TEXT
100
AcDbText
 10
492.3998239263297
 20
18.67381894984129
 30
0.0
 40
4.0
  1
Änderung
 41
0.8
  7
GREEKS
 72
     1
 11
503.1426810691868
 21
18.67381894984129
 31
0.0
100
AcDbText
  0
TEXT
  5
78
330
1E
100
AcDbEntity
  8
TEXT
100
AcDbText
 10
573.5163572150378
 20
102.4620895087088
 30
0.0
 40
5.0
  1
Maßstab
 41
0.8
  7
GREEKS
100
AcDbText
  0
TEXT
  5
79
330
1E
100
AcDbEntity
  8
TEXT
100
AcDbText
 10
654.8779403809011
 20
102.5489328011779
 30
0.0
 40
5.0
  1
Benennung
 41
0.8
  7
GREEKS
100
AcDbText
  0
TEXT
  5
7A
330
1E
100
AcDbEntity
  8
TEXT
100
AcDbText
 10
756.1787549576343
 20
102.3132034537135
 30
0.0
 40
5.0
  1
Zeichnungs Nr.
 41
0.8
  7
GREEKS
100
AcDbText
  0
TEXT
  5
7B
330
1E
100
AcDbEntity
  8
TEXT
100
AcDbText
 10
654.742238391136
 20
30.84560570193055
 30
0.0
 40
5.0
  1
Bauvorhaben
 41
0.8
  7
GREEKS
100
AcDbText
  0
TEXT
  5
7C
330
1E
100
AcDbEntity
  8
TEXT
100
AcDbText
 10
756.7238616296995
 20
73.18118237099965
 30
0.0
 40
5.0
  1
Ersatz für:
 41
0.8
  7
GREEKS
100
AcDbText
  0
TEXT
  5
7D
330
1E
100
AcDbEntity
  8
TEXT
100
AcDbText
 10
478.2664110704577
 20
13.65465846027187
 30
0.0
 40
4.0
  1
Index
 50
90.0
 41
0.8
  7
GREEKS
100
AcDbText
  0
TEXT
  5
7E
330
1E
100
AcDbEntity
  8
TEXT
100
AcDbText
 10
529.8990113186979
 20
18.67156269339808
 30
0.0
 40
4.0
  1
Tag
 41
0.8
  7
GREEKS
 72
     1
 11
533.6323446520313
 21
18.67156269339808
 31
0.0
100
AcDbText
  0
TEXT
  5
7F
330
1E
100
AcDbEntity
  8
TEXT
100
AcDbText
 10
548.9795678138293
 20
18.59324216966404
 30
0.0
 40
4.0
  1
Name
 41
0.8
  7
GREEKS
 72
     1
 11
555.3033773376388
 21
18.59324216966404
 31
0.0
100
AcDbText
  0
TEXT
  5
80
330
1E
100
AcDbEntity
  8
TEXT
100
AcDbText
 10
592.3311673153651
 20
73.31880501229919
 30
0.0
 40
4.0
  1
Tag
 41
0.8
  7
GREEKS
100
AcDbText
  0
TEXT
  5
81
330
1E
100
AcDbEntity
  8
TEXT
100
AcDbText
 10
622.4626584226296
 20
73.3096109191522
 30
0.0
 40
4.0
  1
Name
 41
0.8
  7
GREEKS
100
AcDbText
  0
TEXT
  5
82
330
1E
100
AcDbEntity
  8
TEXT
100
AcDbText
 10
567.5836127167616
 20
63.62990369617961
 30
0.0
 40
4.0
  1
Gez.
 41
0.8
  7
GREEKS
100
AcDbText
  0
TEXT
  5
83
330
1E
100
AcDbEntity
  8
TEXT
100
AcDbText
 10
567.5515086571673
 20
53.68926291428373
 30
0.0
 40
4.0
  1
Gepr.
 41
0.8
  7
GREEKS
100
AcDbText
  0
TEXT
  5
84
330
1E
100
AcDbEntity
  8
TEXT
100
AcDbText
 10
567.6006777387304
 20
43.52946389649804
 30
0.0
 40
4.0
  1
Norm.
 41
0.8
  7
GREEKS
100
AcDbText
  0
TEXT
  5
85
330
1E
100
AcDbEntity
  8
TEXT
100
AcDbText
 10
757.2400861497007
 20
52.07416177878596
 30
0.0
 40
5.0
  1
ersetzt durch:
 41
0.8
  7
GREEKS
100
AcDbText
  0
TEXT
  5
86
330
1E
100
AcDbEntity
  8
TEXT
100
AcDbText
 10
568.8693027807324
 20
72.96682596523723
 30
0.0
 40
4.0
  1
2012
 41
0.8
  7
GREEKS
100
AcDbText
  0
LINE
  5
87
330
1E
100
AcDbEntity
  8
HILF
100
AcDbLine
 10
0.0
 20
0.0
 30
0.0
 11
840.0
 21
0.0
 31
0.0
  0
LINE
  5
88
330
1E
100
AcDbEntity
  8
HILF
100
AcDbLine
 10
840.0
 20
0.0
 30
0.0
 11
840.0
 21
594.0
 31
0.0
  0
LINE
  5
89
330
1E
100
AcDbEntity
  8
HILF
100
AcDbLine
 10
840.0
 20
594.0
 30
0.0
 11
0.0
 21
594.0
 31
0.0
  0
LINE
  5
8B
330
1E
100
AcDbEntity
  8
STEMPEL
100
AcDbLine
 10
830.0
 20
584.0
 30
0.0
 11
40.0
 21
584.0
 31
0.0
  0
LINE
  5
8D
330
1E
100
AcDbEntity
  8
STEMPEL
100
AcDbLine
 10
40.0
 20
10.0
 30
0.0
 11
830.0
 21
10.0
 31
0.0
  0
LINE
  5
8E
330
1E
100
AcDbEntity
  8
STEMPEL
100
AcDbLine
 10
830.0
 20
10.0
 30
0.0
 11
830.0
 21
584.0
 31
0.0
  0
TEXT
  5
8F
330
1E
100
AcDbEntity
  8
TEXT
 62
     1
100
AcDbText
 10
655.0390572473189
 20
87.37343075652544
 30
0.0
 40
7.0
  1
Sammeltopf DN100
 41
0.8
  7
GREEKS
100
AcDbText
  0
TEXT
  5
90
330
1E
100
AcDbEntity
  8
TEXT
 62
     1
100
AcDbText
 10
766.6628088850802
 20
87.37343075652544
 30
0.0
 40
7.0
  1
04360100W
 41
0.8
  7
GREEKS
 72
     1
 11
790.1294755517469
 21
87.37343075652544
 31
0.0
100
AcDbText
  0
TEXT
  5
91
330
1E
100
AcDbEntity
  8
TEXT
100
AcDbText
 10
618.509022641583
 20
102.83989611379
 30
0.0
 40
5.0
  1
Zul.Abw.
 41
0.8
  7
GREEKS
100
AcDbText
  0
TEXT
  5
93
330
1E
100
AcDbEntity
  8
TEXT
100
AcDbText
 10
590.1565237511869
 20
63.1508587612022
 30
0.0
 40
4.0
  1
27.09.
 41
0.8
  7
GREEKS
 72
     1
 11
597.1660475607107
 21
63.1508587612022
 31
0.0
100
AcDbText
  0
TEXT
  5
94
330
1E
100
AcDbEntity
  8
TEXT
100
AcDbText
 10
624.023175322661
 20
62.94297655165468
 30
0.0
 40
4.0
  1
Koeh
 41
0.8
  7
GREEKS
 72
     1
 11
629.2803181798038
 21
62.94297655165468
 31
0.0
100
AcDbText
  0
TEXT
  5
95
330
1E
100
AcDbEntity
  8
TEXT
100
AcDbText
 10
654.3410940884992
 20
72.10021383107525
 30
0.0
 40
5.0
  1
für Duoflux Rohr in Rohr
 41
0.8
  7
GREEKS
100
AcDbText
  0
TEXT
  5
97
330
1E
100
AcDbEntity
  8
TEXT
100
AcDbText
 10
654.3410940884992
 20
52.59097337846058
 30
0.0
 40
5.0
  1
EDV-Art.Nr. 04360.100X
 41
0.8
  7
GREEKS
100
AcDbText
  0
TEXT
  5
98
330
1E
100
AcDbEntity
  8
TEXT
100
AcDbText
 10
654.1676050109348
 20
43.31127624791508
 30
0.0
 40
4.0
  1
04360100X.DWG
 41
0.8
  7
GREEKS
100
AcDbText
  0
TEXT
  5
99
330
1E
100
AcDbEntity
  8
TEXT
 62
     1
100
AcDbText
 10
582.7034912034222
 20
87.47077088414977
 30
0.0
 40
7.0
  1
1:2
 41
0.8
  7
GREEKS
100
AcDbText
  0
TEXT
  5
9A
330
1E
100
AcDbEntity
  8
TEXT
100
AcDbText
 10
470.0441139350127
 20
114.1143585051043
 30
0.0
 40
5.0
  1
Erstellt mit AUTOCAD 2004
 41
0.8
  7
GREEKS
100
AcDbText
  0
INSERT
  5
9B
330
1E
100
AcDbEntity
  8
HILF
100
AcDbBlockReference
  2
LORO
 10
573.0624985962354
 20
36.9805930029896
 30
0.0
 41
2.0
 42
2.0
 43
2.0
  0
LINE
  5
9C
330
1E
100
AcDbEntity
  8
BEM
100
AcDbLine
 10
456.0
 20
0.0
 30
0.0
 11
456.0
 21
10.0
 31
0.0
  0
LINE
  5
13E
330
1E
100
AcDbEntity
  8
HILF
100
AcDbLine
 10
0.0
 20
0.0
 30
0.0
 11
0.0
 21
594.0
 31
0.0
  0
LINE
  5
13F
330
1E
100
AcDbEntity
  8
STEMPEL
100
AcDbLine
 10
40.0
 20
10.0
 30
0.0
 11
40.0
 21
584.0
 31
0.0
  0
LINE
  5
14A
330
1E
100
AcDbEntity
  8
HILF
100
AcDbLine
 10
0.0
 20
297.0
 30
0.0
 11
40.0
 21
297.0
 31
0.0
  0
TEXT
  5
15B
330
1E
100
AcDbEntity
  8
BEM
100
AcDbText
 10
837.3022923857165
 20
10.16790107998861
 30
0.0
 40
4.0
  1
Diese Zeichnung ist urheberrechtlich geschützt und bleibt unser Eigentum. Sie darf weder ganz noch teilweise verfielfältigt und nicht an Dritte weitergegeben werden.
 50
90.0
 41
0.8
  7
GREEKS
100
AcDbText
  0
TEXT
  5
F8B
330
1E
100
AcDbEntity
  8
TEXT
100
AcDbText
 10
612.2898419893276
 20
89.87820542202047
 30
0.0
 40
4.0
  1
DIN EN1123-2
 41
0.8
  7
GREEKS
 72
     1
 11
629.2803181798038
 21
89.87820542202047
 31
0.0
100
AcDbText
  0
TEXT
  5
F94
330
1E
100
AcDbEntity
  8
TEXT
 62
     1
100
AcDbText
 10
616.6560484572491
 20
139.8004583895517
 30
0.0
 40
7.0
  1
Werkstoff: E195 EN10305 feuerverzinkt
 41
0.8
  7
GREEKS
100
AcDbText
  0
TEXT
  5
1F8C
330
1E
100
AcDbEntity
  8
TEXT
 62
     1
100
AcDbText
 10
208.6081814420118
 20
277.5169472728168
 30
0.0
 40
7.0
  1
DN100
 50
90.0
 41
0.8
  7
GREEKS
100
AcDbText
  0
POLYLINE
  5
284F
330
1E
100
AcDbEntity
  8
SCHRAFF
100
AcDb2dPolyline
 66
     1
 10
0.0
 20
0.0
 30
0.0
 70
     2
  0
VERTEX
  5
2850
330
284F
100
AcDbEntity
  8
SCHRAFF
100
AcDbVertex
100
AcDb2dVertex
 10
631.4522640162429
 20
522.7670940173454
 30
0.0
 42
-0.1481711738912995
  0
VERTEX
  5
2851
330
284F
100
AcDbEntity
  8
SCHRAFF
100
AcDbVertex
100
AcDb2dVertex
 10
630.9423689335385
 20
522.14635674189
 30
0.0
 42
-0.1481711738912668
 70
     1
  0
VERTEX
  5
2852
330
284F
100
AcDbEntity
  8
SCHRAFF
100
AcDbVertex
100
AcDb2dVertex
 10
630.1736938746397
 20
521.9130191874056
 30
0.0
 42
-0.1483030456011378
  0
VERTEX
  5
2853
330
284F
100
AcDbEntity
  8
SCHRAFF
100
AcDbVertex
100
AcDb2dVertex
 10
629.4041835529383
 20
522.1459597785765
 30
0.0
 42
-0.1483030456011519
 70
     1
  0
VERTEX
  5
2854
330
284F
100
AcDbEntity
  8
SCHRAFF
100
AcDbVertex
100
AcDb2dVertex
 10
628.8936938746397
 20
522.7670940173454
 30
0.0
  0
SEQEND
  5
2855
330
284F
100
AcDbEntity
  8
SCHRAFF
  0
POLYLINE
  5
2856
330
1E
100
AcDbEntity
  8
SCHRAFF
100
AcDb2dPolyline
 66
     1
 10
0.0
 20
0.0
 30
0.0
 70
     2
  0
VERTEX
  5
2857
330
2856
100
AcDbEntity
  8
SCHRAFF
100
AcDbVertex
100
AcDb2dVertex
 10
631.4522640162429
 20
527.7670940173455
 30
0.0
 42
-0.1481711738912995
  0
VERTEX
  5
2858
330
2856
100
AcDbEntity
  8
SCHRAFF
100
AcDbVertex
100
AcDb2dVertex
 10
630.9423689335385
 20
527.14635674189
 30
0.0
 42
-0.1481711738912668
 70
     1
  0
VERTEX
  5
2859
330
2856
100
AcDbEntity
  8
SCHRAFF
100
AcDbVertex
100
AcDb2dVertex
 10
630.1736938746397
 20
526.9130191874055
 30
0.0
 42
-0.1483030456011378
  0
VERTEX
  5
285A
330
2856
100
AcDbEntity
  8
SCHRAFF
100
AcDbVertex
100
AcDb2dVertex
 10
629.4041835529383
 20
527.1459597785765
 30
0.0
 42
-0.1483030456011519
 70
     1
  0
VERTEX
  5
285B
330
2856
100
AcDbEntity
  8
SCHRAFF
100
AcDbVertex
100
AcDb2dVertex
 10
628.8936938746397
 20
527.7670940173455
 30
0.0
  0
SEQEND
  5
285C
330
2856
100
AcDbEntity
  8
SCHRAFF
  0
POLYLINE
  5
2861
330
1E
100
AcDbEntity
  8
SCHRAFF
100
AcDb2dPolyline
 66
     1
 10
0.0
 20
0.0
 30
0.0
 70
     2
  0
VERTEX
  5
2862
330
2861
100
AcDbEntity
  8
SCHRAFF
100
AcDbVertex
100
AcDb2dVertex
 10
631.4522640162429
 20
512.7670940173454
 30
0.0
 42
-0.1481711738912995
  0
VERTEX
  5
2863
330
2861
100
AcDbEntity
  8
SCHRAFF
100
AcDbVertex
100
AcDb2dVertex
 10
630.9423689335385
 20
512.14635674189
 30
0.0
 42
-0.1481711738912668
 70
     1
  0
VERTEX
  5
2864
330
2861
100
AcDbEntity
  8
SCHRAFF
100
AcDbVertex
100
AcDb2dVertex
 10
630.1736938746397
 20
511.9130191874055
 30
0.0
 42
-0.1483030456011378
  0
VERTEX
  5
2865
330
2861
100
AcDbEntity
  8
SCHRAFF
100
AcDbVertex
100
AcDb2dVertex
 10
629.4041835529383
 20
512.1459597785765
 30
0.0
 42
-0.1483030456011519
 70
     1
  0
VERTEX
  5
2866
330
2861
100
AcDbEntity
  8
SCHRAFF
100
AcDbVertex
100
AcDb2dVertex
 10
628.8936938746397
 20
512.7670940173454
 30
0.0
  0
SEQEND
  5
2867
330
2861
100
AcDbEntity
  8
SCHRAFF
  0
POLYLINE
  5
2868
330
1E
100
AcDbEntity
  8
SCHRAFF
100
AcDb2dPolyline
 66
     1
 10
0.0
 20
0.0
 30
0.0
 70
     2
  0
VERTEX
  5
2869
330
2868
100
AcDbEntity
  8
SCHRAFF
100
AcDbVertex
100
AcDb2dVertex
 10
631.4522640162429
 20
507.7670940173454
 30
0.0
 42
-0.1481711738912995
  0
VERTEX
  5
286A
330
2868
100
AcDbEntity
  8
SCHRAFF
100
AcDbVertex
100
AcDb2dVertex
 10
630.9423689335385
 20
507.1463567418901
 30
0.0
 42
-0.1481711738912668
 70
     1
  0
VERTEX
  5
286B
330
2868
100
AcDbEntity
  8
SCHRAFF
100
AcDbVertex
100
AcDb2dVertex
 10
630.1736938746397
 20
506.9130191874054
 30
0.0
 42
-0.1483030456011378
  0
VERTEX
  5
286C
330
2868
100
AcDbEntity
  8
SCHRAFF
100
AcDbVertex
100
AcDb2dVertex
 10
629.4041835529383
 20
507.1459597785765
 30
0.0
 42
-0.1483030456011519
 70
     1
  0
VERTEX
  5
286D
330
2868
100
AcDbEntity
  8
SCHRAFF
100
AcDbVertex
100
AcDb2dVertex
 10
628.8936938746397
 20
507.7670940173454
 30
0.0
  0
SEQEND
  5
286E
330
2868
100
AcDbEntity
  8
SCHRAFF
  0
POLYLINE
  5
2870
330
1E
100
AcDbEntity
  8
SCHRAFF
100
AcDb2dPolyline
 66
     1
 10
0.0
 20
0.0
 30
0.0
 70
     2
  0
VERTEX
  5
2871
330
2870
100
AcDbEntity
  8
SCHRAFF
100
AcDbVertex
100
AcDb2dVertex
 10
631.4522640162429
 20
517.7670940173454
 30
0.0
 42
-0.1481711738912995
  0
VERTEX
  5
2872
330
2870
100
AcDbEntity
  8
SCHRAFF
100
AcDbVertex
100
AcDb2dVertex
 10
630.9423689335385
 20
517.14635674189
 30
0.0
 42
-0.1481711738912668
 70
     1
  0
VERTEX
  5
2873
330
2870
100
AcDbEntity
  8
SCHRAFF
100
AcDbVertex
100
AcDb2dVertex
 10
630.1736938746397
 20
516.9130191874055
 30
0.0
 42
-0.1483030456011378
  0
VERTEX
  5
2874
330
2870
100
AcDbEntity
  8
SCHRAFF
100
AcDbVertex
100
AcDb2dVertex
 10
629.4041835529383
 20
517.1459597785765
 30
0.0
 42
-0.1483030456011519
 70
     1
  0
VERTEX
  5
2875
330
2870
100
AcDbEntity
  8
SCHRAFF
100
AcDbVertex
100
AcDb2dVertex
 10
628.8936938746397
 20
517.7670940173454
 30
0.0
  0
SEQEND
  5
2876
330
2870
100
AcDbEntity
  8
SCHRAFF
  0
POLYLINE
  5
287A
330
1E
100
AcDbEntity
  8
SCHRAFF
100
AcDb2dPolyline
 66
     1
 10
0.0
 20
0.0
 30
0.0
 70
     2
  0
VERTEX
  5
287B
330
287A
100
AcDbEntity
  8
SCHRAFF
100
AcDbVertex
100
AcDb2dVertex
 10
631.4522640162429
 20
497.7670940173456
 30
0.0
 42
-0.1481711738912995
  0
VERTEX
  5
287C
330
287A
100
AcDbEntity
  8
SCHRAFF
100
AcDbVertex
100
AcDb2dVertex
 10
630.9423689335385
 20
497.1463567418901
 30
0.0
 42
-0.1481711738912668
 70
     1
  0
VERTEX
  5
287D
330
287A
100
AcDbEntity
  8
SCHRAFF
100
AcDbVertex
100
AcDb2dVertex
 10
630.1736938746397
 20
496.9130191874056
 30
0.0
 42
-0.1483030456011378
  0
VERTEX
  5
287E
330
287A
100
AcDbEntity
  8
SCHRAFF
100
AcDbVertex
100
AcDb2dVertex
 10
629.4041835529383
 20
497.1459597785765
 30
0.0
 42
-0.1483030456011519
 70
     1
  0
VERTEX
  5
287F
330
287A
100
AcDbEntity
  8
SCHRAFF
100
AcDbVertex
100
AcDb2dVertex
 10
628.8936938746397
 20
497.7670940173456
 30
0.0
  0
SEQEND
  5
2880
330
287A
100
AcDbEntity
  8
SCHRAFF
  0
POLYLINE
  5
2881
330
1E
100
AcDbEntity
  8
SCHRAFF
100
AcDb2dPolyline
 66
     1
 10
0.0
 20
0.0
 30
0.0
 70
     2
  0
VERTEX
  5
2882
330
2881
100
AcDbEntity
  8
SCHRAFF
100
AcDbVertex
100
AcDb2dVertex
 10
631.4522640162429
 20
502.7670940173456
 30
0.0
 42
-0.1481711738912995
  0
VERTEX
  5
2883
330
2881
100
AcDbEntity
  8
SCHRAFF
100
AcDbVertex
100
AcDb2dVertex
 10
630.9423689335385
 20
502.1463567418901
 30
0.0
 42
-0.1481711738912668
 70
     1
  0
VERTEX
  5
2884
330
2881
100
AcDbEntity
  8
SCHRAFF
100
AcDbVertex
100
AcDb2dVertex
 10
630.1736938746397
 20
501.9130191874055
 30
0.0
 42
-0.1483030456011378
  0
VERTEX
  5
2885
330
2881
100
AcDbEntity
  8
SCHRAFF
100
AcDbVertex
100
AcDb2dVertex
 10
629.4041835529383
 20
502.1459597785765
 30
0.0
 42
-0.1483030456011519
 70
     1
  0
VERTEX
  5
2886
330
2881
100
AcDbEntity
  8
SCHRAFF
100
AcDbVertex
100
AcDb2dVertex
 10
628.8936938746397
 20
502.7670940173456
 30
0.0
  0
SEQEND
  5
2887
330
2881
100
AcDbEntity
  8
SCHRAFF
  0
POLYLINE
  5
2888
330
1E
100
AcDbEntity
  8
SCHRAFF
100
AcDb2dPolyline
 66
     1
 10
0.0
 20
0.0
 30
0.0
 70
     2
  0
VERTEX
  5
2889
330
2888
100
AcDbEntity
  8
SCHRAFF
100
AcDbVertex
100
AcDb2dVertex
 10
631.9621590989473
 20
493.387831292801
 30
0.0
 42
-0.1481711738912995
  0
VERTEX
  5
288A
330
2888
100
AcDbEntity
  8
SCHRAFF
100
AcDbVertex
100
AcDb2dVertex
 10
631.4522640162429
 20
492.7670940173455
 30
0.0
 42
-0.1481711738912668
 70
     1
  0
VERTEX
  5
288B
330
2888
100
AcDbEntity
  8
SCHRAFF
100
AcDbVertex
100
AcDb2dVertex
 10
630.6835889573441
 20
492.533756462861
 30
0.0
 42
-0.1483030456011378
  0
VERTEX
  5
288C
330
2888
100
AcDbEntity
  8
SCHRAFF
100
AcDbVertex
100
AcDb2dVertex
 10
629.9140786356426
 20
492.7666970540319
 30
0.0
 42
-0.1483030456011519
 70
     1
  0
VERTEX
  5
288D
330
2888
100
AcDbEntity
  8
SCHRAFF
100
AcDbVertex
100
AcDb2dVertex
 10
629.4035889573441
 20
493.387831292801
 30
0.0
  0
SEQEND
  5
288E
330
2888
100
AcDbEntity
  8
SCHRAFF
  0
POLYLINE
  5
288F
330
1E
100
AcDbEntity
  8
SCHRAFF
100
AcDb2dPolyline
 66
     1
 10
0.0
 20
0.0
 30
0.0
 70
     2
  0
VERTEX
  5
2890
330
288F
100
AcDbEntity
  8
SCHRAFF
100
AcDbVertex
100
AcDb2dVertex
 10
631.9621590989473
 20
488.387831292801
 30
0.0
 42
-0.1481711738912995
  0
VERTEX
  5
2891
330
288F
100
AcDbEntity
  8
SCHRAFF
100
AcDbVertex
100
AcDb2dVertex
 10
631.4522640162429
 20
487.7670940173455
 30
0.0
 42
-0.1481711738912668
 70
     1
  0
VERTEX
  5
2892
330
288F
100
AcDbEntity
  8
SCHRAFF
100
AcDbVertex
100
AcDb2dVertex
 10
630.6835889573441
 20
487.5337564628609
 30
0.0
 42
-0.1483030456011378
  0
VERTEX
  5
2893
330
288F
100
AcDbEntity
  8
SCHRAFF
100
AcDbVertex
100
AcDb2dVertex
 10
629.9140786356426
 20
487.7666970540319
 30
0.0
 42
-0.1483030456011519
 70
     1
  0
VERTEX
  5
2894
330
288F
100
AcDbEntity
  8
SCHRAFF
100
AcDbVertex
100
AcDb2dVertex
 10
629.4035889573441
 20
488.387831292801
 30
0.0
  0
SEQEND
  5
2895
330
288F
100
AcDbEntity
  8
SCHRAFF
  0
DIMENSION
  5
2896
330
1E
100
AcDbEntity
  8
BEM
100
AcDbDimension
  2
*D3
 10
676.6191103774152
 20
531.1481311724578
 30
0.0
 11
670.119110377415
 21
552.148131172458
 31
0.0
 70
    32
 71
     5
 42
10.0
  3
Standard
100
AcDbAlignedDimension
 13
623.9531753823182
 23
521.1481311724578
 33
0.0
 14
656.9531753823184
 24
531.1481311724578
 34
0.0
 50
90.0
100
AcDbRotatedDimension
1001
ACAD
1000
DSTYLE
1002
{
1070
    40
1040
2.0
1070
    41
1040
3.5
1070
    42
1040
1.0
1070
    43
1040
7.0
1070
    44
1040
1.0
1070
    73
1070
     0
1070
    74
1070
     0
1070
    77
1070
     1
1070
    78
1070
     8
1070
    79
1070
     2
1070
   140
1040
3.5
1070
   141
1040
1.5
1070
   146
1040
0.5142857142857144
1070
   147
1040
1.5
1070
   172
1070
     1
1070
   178
1070
     1
1070
   179
1070
     2
1070
   271
1070
     2
1070
   272
1070
     2
1070
   284
1070
     8
1070
   285
1070
     8
1070
   286
1070
     8
1002
}
  0
POINT
  5
289D
330
1E
100
AcDbEntity
  8
DEFPOINTS
  6
ByBlock
 62
     0
100
AcDbPoint
 10
608.9531753823182
 20
531.148131172458
 30
0.0
  0
LINE
  5
289F
330
1E
100
AcDbEntity
  8
STEMPEL
100
AcDbLine
 10
613.9531753823182
 20
526.1481311724579
 30
0.0
 11
603.9531753823182
 21
526.1481311724579
 31
0.0
  0
LINE
  5
28A0
330
1E
100
AcDbEntity
  8
STEMPEL
100
AcDbLine
 10
613.9531753823182
 20
516.1481311724578
 30
0.0
 11
603.9531753823182
 21
516.1481311724578
 31
0.0
  0
ARC
  5
28A1
330
1E
100
AcDbEntity
  8
STEMPEL
100
AcDbCircle
 10
603.9531753823182
 20
521.1481311724579
 30
0.0
 40
5.0
100
AcDbArc
 50
90.0
 51
270.0
  0
LINE
  5
28A3
330
1E
100
AcDbEntity
  8
MITTEL
100
AcDbLine
 10
608.9531753823182
 20
531.148131172458
 30
0.0
 11
608.9531753823182
 21
511.1481311724578
 31
0.0
  0
LINE
  5
28A6
330
1E
100
AcDbEntity
  8
MITTEL
100
AcDbLine
 10
623.9531753823182
 20
521.1481311724578
 30
0.0
 11
593.9531753823182
 21
521.1481311724578
 31
0.0
  0
ARC
  5
28A7
330
1E
100
AcDbEntity
  8
STEMPEL
100
AcDbCircle
 10
613.9531753823182
 20
521.1481311724579
 30
0.0
 40
5.0
100
AcDbArc
 50
270.0
 51
90.0
  0
POINT
  5
28AA
330
1E
100
AcDbEntity
  8
DEFPOINTS
  6
ByBlock
 62
     0
100
AcDbPoint
 10
528.9531753823186
 20
531.148131172458
 30
0.0
  0
LINE
  5
28B0
330
1E
100
AcDbEntity
  8
STEMPEL
100
AcDbLine
 10
523.9531753823184
 20
526.1481311724579
 30
0.0
 11
533.9531753823185
 21
526.1481311724579
 31
0.0
  0
LINE
  5
28B1
330
1E
100
AcDbEntity
  8
STEMPEL
100
AcDbLine
 10
523.9531753823184
 20
516.1481311724578
 30
0.0
 11
533.9531753823185
 21
516.1481311724578
 31
0.0
  0
ARC
  5
28B2
330
1E
100
AcDbEntity
  8
STEMPEL
100
AcDbCircle
 10
523.9531753823184
 20
521.1481311724579
 30
0.0
 40
5.0
100
AcDbArc
 50
90.0
 51
270.0
  0
ARC
  5
28B3
330
1E
100
AcDbEntity
  8
STEMPEL
100
AcDbCircle
 10
533.9531753823185
 20
521.1481311724579
 30
0.0
 40
5.0
100
AcDbArc
 50
270.0
 51
90.0
  0
POLYLINE
  5
28B5
330
1E
100
AcDbEntity
  8
SCHRAFF
100
AcDb2dPolyline
 66
     1
 10
0.0
 20
0.0
 30
0.0
 70
     2
  0
VERTEX
  5
28B6
330
28B5
100
AcDbEntity
  8
SCHRAFF
100
AcDbVertex
100
AcDb2dVertex
 10
506.454086748394
 20
527.7670940173455
 30
0.0
 42
0.1481711738912995
  0
VERTEX
  5
28B7
330
28B5
100
AcDbEntity
  8
SCHRAFF
100
AcDbVertex
100
AcDb2dVertex
 10
506.9639818310983
 20
527.14635674189
 30
0.0
 42
0.1481711738912668
 70
     1
  0
VERTEX
  5
28B8
330
28B5
100
AcDbEntity
  8
SCHRAFF
100
AcDbVertex
100
AcDb2dVertex
 10
507.7326568899971
 20
526.9130191874055
 30
0.0
 42
0.1483030456011378
  0
VERTEX
  5
28B9
330
28B5
100
AcDbEntity
  8
SCHRAFF
100
AcDbVertex
100
AcDb2dVertex
 10
508.5021672116986
 20
527.1459597785765
 30
0.0
 42
0.1483030456011519
 70
     1
  0
VERTEX
  5
28BA
330
28B5
100
AcDbEntity
  8
SCHRAFF
100
AcDbVertex
100
AcDb2dVertex
 10
509.0126568899972
 20
527.7670940173455
 30
0.0
  0
SEQEND
  5
28BB
330
28B5
100
AcDbEntity
  8
SCHRAFF
  0
POLYLINE
  5
28BC
330
1E
100
AcDbEntity
  8
SCHRAFF
100
AcDb2dPolyline
 66
     1
 10
0.0
 20
0.0
 30
0.0
 70
     2
  0
VERTEX
  5
28BD
330
28BC
100
AcDbEntity
  8
SCHRAFF
100
AcDbVertex
100
AcDb2dVertex
 10
506.454086748394
 20
522.7670940173454
 30
0.0
 42
0.1481711738912995
  0
VERTEX
  5
28BE
330
28BC
100
AcDbEntity
  8
SCHRAFF
100
AcDbVertex
100
AcDb2dVertex
 10
506.9639818310983
 20
522.14635674189
 30
0.0
 42
0.1481711738912668
 70
     1
  0
VERTEX
  5
28BF
330
28BC
100
AcDbEntity
  8
SCHRAFF
100
AcDbVertex
100
AcDb2dVertex
 10
507.7326568899971
 20
521.9130191874056
 30
0.0
 42
0.1483030456011378
  0
VERTEX
  5
28C0
330
28BC
100
AcDbEntity
  8
SCHRAFF
100
AcDbVertex
100
AcDb2dVertex
 10
508.5021672116986
 20
522.1459597785765
 30
0.0
 42
0.1483030456011519
 70
     1
  0
VERTEX
  5
28C1
330
28BC
100
AcDbEntity
  8
SCHRAFF
100
AcDbVertex
100
AcDb2dVertex
 10
509.0126568899972
 20
522.7670940173454
 30
0.0
  0
SEQEND
  5
28C2
330
28BC
100
AcDbEntity
  8
SCHRAFF
  0
POLYLINE
  5
28C5
330
1E
100
AcDbEntity
  8
SCHRAFF
100
AcDb2dPolyline
 66
     1
 10
0.0
 20
0.0
 30
0.0
 70
     2
  0
VERTEX
  5
28C6
330
28C5
100
AcDbEntity
  8
SCHRAFF
100
AcDbVertex
100
AcDb2dVertex
 10
506.454086748394
 20
507.7670940173454
 30
0.0
 42
0.1481711738912995
  0
VERTEX
  5
28C7
330
28C5
100
AcDbEntity
  8
SCHRAFF
100
AcDbVertex
100
AcDb2dVertex
 10
506.9639818310983
 20
507.1463567418901
 30
0.0
 42
0.1481711738912668
 70
     1
  0
VERTEX
  5
28C8
330
28C5
100
AcDbEntity
  8
SCHRAFF
100
AcDbVertex
100
AcDb2dVertex
 10
507.7326568899971
 20
506.9130191874054
 30
0.0
 42
0.1483030456011378
  0
VERTEX
  5
28C9
330
28C5
100
AcDbEntity
  8
SCHRAFF
100
AcDbVertex
100
AcDb2dVertex
 10
508.5021672116986
 20
507.1459597785765
 30
0.0
 42
0.1483030456011519
 70
     1
  0
VERTEX
  5
28CA
330
28C5
100
AcDbEntity
  8
SCHRAFF
100
AcDbVertex
100
AcDb2dVertex
 10
509.0126568899972
 20
507.7670940173454
 30
0.0
  0
SEQEND
  5
28CB
330
28C5
100
AcDbEntity
  8
SCHRAFF
  0
POLYLINE
  5
28CC
330
1E
100
AcDbEntity
  8
SCHRAFF
100
AcDb2dPolyline
 66
     1
 10
0.0
 20
0.0
 30
0.0
 70
     2
  0
VERTEX
  5
28CD
330
28CC
100
AcDbEntity
  8
SCHRAFF
100
AcDbVertex
100
AcDb2dVertex
 10
506.454086748394
 20
512.7670940173454
 30
0.0
 42
0.1481711738912995
  0
VERTEX
  5
28CE
330
28CC
100
AcDbEntity
  8
SCHRAFF
100
AcDbVertex
100
AcDb2dVertex
 10
506.9639818310983
 20
512.14635674189
 30
0.0
 42
0.1481711738912668
 70
     1
  0
VERTEX
  5
28CF
330
28CC
100
AcDbEntity
  8
SCHRAFF
100
AcDbVertex
100
AcDb2dVertex
 10
507.7326568899971
 20
511.9130191874055
 30
0.0
 42
0.1483030456011378
  0
VERTEX
  5
28D0
330
28CC
100
AcDbEntity
  8
SCHRAFF
100
AcDbVertex
100
AcDb2dVertex
 10
508.5021672116986
 20
512.1459597785765
 30
0.0
 42
0.1483030456011519
 70
     1
  0
VERTEX
  5
28D1
330
28CC
100
AcDbEntity
  8
SCHRAFF
100
AcDbVertex
100
AcDb2dVertex
 10
509.0126568899972
 20
512.7670940173454
 30
0.0
  0
SEQEND
  5
28D2
330
28CC
100
AcDbEntity
  8
SCHRAFF
  0
POLYLINE
  5
28D9
330
1E
100
AcDbEntity
  8
SCHRAFF
100
AcDb2dPolyline
 66
     1
 10
0.0
 20
0.0
 30
0.0
 70
     2
  0
VERTEX
  5
28DA
330
28D9
100
AcDbEntity
  8
SCHRAFF
100
AcDbVertex
100
AcDb2dVertex
 10
506.454086748394
 20
517.7670940173454
 30
0.0
 42
0.1481711738912995
  0
VERTEX
  5
28DB
330
28D9
100
AcDbEntity
  8
SCHRAFF
100
AcDbVertex
100
AcDb2dVertex
 10
506.9639818310983
 20
517.14635674189
 30
0.0
 42
0.1481711738912668
 70
     1
  0
VERTEX
  5
28DC
330
28D9
100
AcDbEntity
  8
SCHRAFF
100
AcDbVertex
100
AcDb2dVertex
 10
507.7326568899971
 20
516.9130191874055
 30
0.0
 42
0.1483030456011378
  0
VERTEX
  5
28DD
330
28D9
100
AcDbEntity
  8
SCHRAFF
100
AcDbVertex
100
AcDb2dVertex
 10
508.5021672116986
 20
517.1459597785765
 30
0.0
 42
0.1483030456011519
 70
     1
  0
VERTEX
  5
28DE
330
28D9
100
AcDbEntity
  8
SCHRAFF
100
AcDbVertex
100
AcDb2dVertex
 10
509.0126568899972
 20
517.7670940173454
 30
0.0
  0
SEQEND
  5
28DF
330
28D9
100
AcDbEntity
  8
SCHRAFF
  0
POLYLINE
  5
28E1
330
1E
100
AcDbEntity
  8
SCHRAFF
100
AcDb2dPolyline
 66
     1
 10
0.0
 20
0.0
 30
0.0
 70
     2
  0
VERTEX
  5
28E2
330
28E1
100
AcDbEntity
  8
SCHRAFF
100
AcDbVertex
100
AcDb2dVertex
 10
506.454086748394
 20
502.7670940173456
 30
0.0
 42
0.1481711738912995
  0
VERTEX
  5
28E3
330
28E1
100
AcDbEntity
  8
SCHRAFF
100
AcDbVertex
100
AcDb2dVertex
 10
506.9639818310983
 20
502.1463567418901
 30
0.0
 42
0.1481711738912668
 70
     1
  0
VERTEX
  5
28E4
330
28E1
100
AcDbEntity
  8
SCHRAFF
100
AcDbVertex
100
AcDb2dVertex
 10
507.7326568899971
 20
501.9130191874055
 30
0.0
 42
0.1483030456011378
  0
VERTEX
  5
28E5
330
28E1
100
AcDbEntity
  8
SCHRAFF
100
AcDbVertex
100
AcDb2dVertex
 10
508.5021672116986
 20
502.1459597785765
 30
0.0
 42
0.1483030456011519
 70
     1
  0
VERTEX
  5
28E6
330
28E1
100
AcDbEntity
  8
SCHRAFF
100
AcDbVertex
100
AcDb2dVertex
 10
509.0126568899972
 20
502.7670940173456
 30
0.0
  0
SEQEND
  5
28E7
330
28E1
100
AcDbEntity
  8
SCHRAFF
  0
POLYLINE
  5
28E8
330
1E
100
AcDbEntity
  8
SCHRAFF
100
AcDb2dPolyline
 66
     1
 10
0.0
 20
0.0
 30
0.0
 70
     2
  0
VERTEX
  5
28E9
330
28E8
100
AcDbEntity
  8
SCHRAFF
100
AcDbVertex
100
AcDb2dVertex
 10
506.454086748394
 20
497.7670940173456
 30
0.0
 42
0.1481711738912995
  0
VERTEX
  5
28EA
330
28E8
100
AcDbEntity
  8
SCHRAFF
100
AcDbVertex
100
AcDb2dVertex
 10
506.9639818310983
 20
497.1463567418901
 30
0.0
 42
0.1481711738912668
 70
     1
  0
VERTEX
  5
28EB
330
28E8
100
AcDbEntity
  8
SCHRAFF
100
AcDbVertex
100
AcDb2dVertex
 10
507.7326568899971
 20
496.9130191874056
 30
0.0
 42
0.1483030456011378
  0
VERTEX
  5
28EC
330
28E8
100
AcDbEntity
  8
SCHRAFF
100
AcDbVertex
100
AcDb2dVertex
 10
508.5021672116986
 20
497.1459597785765
 30
0.0
 42
0.1483030456011519
 70
     1
  0
VERTEX
  5
28ED
330
28E8
100
AcDbEntity
  8
SCHRAFF
100
AcDbVertex
100
AcDb2dVertex
 10
509.0126568899972
 20
497.7670940173456
 30
0.0
  0
SEQEND
  5
28EE
330
28E8
100
AcDbEntity
  8
SCHRAFF
  0
POLYLINE
  5
28EF
330
1E
100
AcDbEntity
  8
SCHRAFF
100
AcDb2dPolyline
 66
     1
 10
0.0
 20
0.0
 30
0.0
 70
     2
  0
VERTEX
  5
28F0
330
28EF
100
AcDbEntity
  8
SCHRAFF
100
AcDbVertex
100
AcDb2dVertex
 10
505.9441916656896
 20
488.387831292801
 30
0.0
 42
0.1481711738912995
  0
VERTEX
  5
28F1
330
28EF
100
AcDbEntity
  8
SCHRAFF
100
AcDbVertex
100
AcDb2dVertex
 10
506.454086748394
 20
487.7670940173455
 30
0.0
 42
0.1481711738912668
 70
     1
  0
VERTEX
  5
28F2
330
28EF
100
AcDbEntity
  8
SCHRAFF
100
AcDbVertex
100
AcDb2dVertex
 10
507.2227618072928
 20
487.5337564628609
 30
0.0
 42
0.1483030456011378
  0
VERTEX
  5
28F3
330
28EF
100
AcDbEntity
  8
SCHRAFF
100
AcDbVertex
100
AcDb2dVertex
 10
507.9922721289943
 20
487.7666970540319
 30
0.0
 42
0.1483030456011519
 70
     1
  0
VERTEX
  5
28F4
330
28EF
100
AcDbEntity
  8
SCHRAFF
100
AcDbVertex
100
AcDb2dVertex
 10
508.5027618072928
 20
488.387831292801
 30
0.0
  0
SEQEND
  5
28F5
330
28EF
100
AcDbEntity
  8
SCHRAFF
  0
POLYLINE
  5
28F6
330
1E
100
AcDbEntity
  8
SCHRAFF
100
AcDb2dPolyline
 66
     1
 10
0.0
 20
0.0
 30
0.0
 70
     2
  0
VERTEX
  5
28F7
330
28F6
100
AcDbEntity
  8
SCHRAFF
100
AcDbVertex
100
AcDb2dVertex
 10
505.9441916656896
 20
493.387831292801
 30
0.0
 42
0.1481711738912995
  0
VERTEX
  5
28F8
330
28F6
100
AcDbEntity
  8
SCHRAFF
100
AcDbVertex
100
AcDb2dVertex
 10
506.454086748394
 20
492.7670940173455
 30
0.0
 42
0.1481711738912668
 70
     1
  0
VERTEX
  5
28F9
330
28F6
100
AcDbEntity
  8
SCHRAFF
100
AcDbVertex
100
AcDb2dVertex
 10
507.2227618072928
 20
492.533756462861
 30
0.0
 42
0.1483030456011378
  0
VERTEX
  5
28FA
330
28F6
100
AcDbEntity
  8
SCHRAFF
100
AcDbVertex
100
AcDb2dVertex
 10
507.9922721289943
 20
492.7666970540319
 30
0.0
 42
0.1483030456011519
 70
     1
  0
VERTEX
  5
28FB
330
28F6
100
AcDbEntity
  8
SCHRAFF
100
AcDbVertex
100
AcDb2dVertex
 10
508.5027618072928
 20
493.387831292801
 30
0.0
  0
SEQEND
  5
28FC
330
28F6
100
AcDbEntity
  8
SCHRAFF
  0
LINE
  5
28FD
330
1E
100
AcDbEntity
  8
MITTEL
100
AcDbLine
 10
513.9531753823185
 20
521.1481311724578
 30
0.0
 11
543.9531753823184
 21
521.1481311724578
 31
0.0
  0
LINE
  5
2901
330
1E
100
AcDbEntity
  8
MITTEL
100
AcDbLine
 10
528.9531753823186
 20
531.148131172458
 30
0.0
 11
528.9531753823184
 21
511.1481311724578
 31
0.0
  0
DIMENSION
  5
2902
330
1E
100
AcDbEntity
  8
BEM
100
AcDbDimension
  2
*D4
 10
475.2003589531651
 20
533.1481311724579
 30
0.0
 11
468.700358953165
 21
552.0147978391247
 31
0.0
 70
    32
 71
     5
 42
2.0
  3
Standard
100
AcDbAlignedDimension
 13
480.9531753823184
 23
531.148131172458
 33
0.0
 14
480.9531753823184
 24
533.1481311724579
 34
0.0
 50
90.0
100
AcDbRotatedDimension
1001
ACAD
1000
DSTYLE
1002
{
1070
    40
1040
2.0
1070
    41
1040
3.5
1070
    42
1040
1.0
1070
    43
1040
7.0
1070
    44
1040
1.0
1070
    73
1070
     0
1070
    74
1070
     0
1070
    77
1070
     1
1070
    78
1070
     8
1070
    79
1070
     2
1070
   140
1040
3.5
1070
   141
1040
1.5
1070
   146
1040
0.5142857142857144
1070
   147
1040
1.5
1070
   172
1070
     1
1070
   178
1070
     1
1070
   179
1070
     2
1070
   271
1070
     2
1070
   272
1070
     2
1070
   284
1070
     8
1070
   285
1070
     8
1070
   286
1070
     8
1002
}
  0
DIMENSION
  5
2903
330
1E
100
AcDbEntity
  8
BEM
100
AcDbDimension
  2
*D5
 10
656.9531753823187
 20
569.3709906425722
 30
0.0
 11
568.9531753823185
 21
575.8709906425722
 31
0.0
 70
    32
  1
%%c<>
 71
     5
 42
176.0000000000002
  3
Standard
100
AcDbAlignedDimension
 13
480.9531753823184
 23
533.1481311724579
 33
0.0
 14
656.9531753823187
 24
533.1481311724578
 34
0.0
100
AcDbRotatedDimension
1001
ACAD
1000
DSTYLE
1002
{
1070
    40
1040
2.0
1070
    41
1040
3.5
1070
    42
1040
1.0
1070
    43
1040
7.0
1070
    44
1040
1.0
1070
    73
1070
     0
1070
    74
1070
     0
1070
    77
1070
     1
1070
    78
1070
     8
1070
    79
1070
     2
1070
   140
1040
3.5
1070
   141
1040
1.5
1070
   146
1040
0.5142857142857144
1070
   147
1040
1.5
1070
   172
1070
     1
1070
   178
1070
     1
1070
   179
1070
     2
1070
   271
1070
     2
1070
   272
1070
     2
1070
   284
1070
     8
1070
   285
1070
     8
1070
   286
1070
     8
1002
}
  0
LINE
  5
2904
330
1E
100
AcDbEntity
  8
STEMPEL
100
AcDbLine
 10
480.9531753823184
 20
531.148131172458
 30
0.0
 11
656.9531753823184
 21
531.1481311724578
 31
0.0
  0
LINE
  5
2905
330
1E
100
AcDbEntity
  8
STEMPEL
100
AcDbLine
 10
480.9531753823184
 20
533.1481311724579
 30
0.0
 11
656.9531753823187
 21
533.1481311724578
 31
0.0
  0
POLYLINE
  5
2907
330
1E
100
AcDbEntity
  8
SCHRAFF
100
AcDb2dPolyline
 66
     1
 10
0.0
 20
0.0
 30
0.0
 70
     2
  0
VERTEX
  5
2908
330
2907
100
AcDbEntity
  8
SCHRAFF
100
AcDbVertex
100
AcDb2dVertex
 10
631.9621590989473
 20
473.387831292801
 30
0.0
 42
-0.1481711738912995
  0
VERTEX
  5
2909
330
2907
100
AcDbEntity
  8
SCHRAFF
100
AcDbVertex
100
AcDb2dVertex
 10
631.4522640162429
 20
472.7670940173456
 30
0.0
 42
-0.1481711738912668
 70
     1
  0
VERTEX
  5
290A
330
2907
100
AcDbEntity
  8
SCHRAFF
100
AcDbVertex
100
AcDb2dVertex
 10
630.6835889573441
 20
472.533756462861
 30
0.0
 42
-0.1483030456011378
  0
VERTEX
  5
290B
330
2907
100
AcDbEntity
  8
SCHRAFF
100
AcDbVertex
100
AcDb2dVertex
 10
629.9140786356426
 20
472.7666970540319
 30
0.0
 42
-0.1483030456011519
 70
     1
  0
VERTEX
  5
290C
330
2907
100
AcDbEntity
  8
SCHRAFF
100
AcDbVertex
100
AcDb2dVertex
 10
629.4035889573441
 20
473.387831292801
 30
0.0
  0
SEQEND
  5
290D
330
2907
100
AcDbEntity
  8
SCHRAFF
  0
POLYLINE
  5
290E
330
1E
100
AcDbEntity
  8
SCHRAFF
100
AcDb2dPolyline
 66
     1
 10
0.0
 20
0.0
 30
0.0
 70
     2
  0
VERTEX
  5
290F
330
290E
100
AcDbEntity
  8
SCHRAFF
100
AcDbVertex
100
AcDb2dVertex
 10
631.9621590989473
 20
478.387831292801
 30
0.0
 42
-0.1481711738912995
  0
VERTEX
  5
2910
330
290E
100
AcDbEntity
  8
SCHRAFF
100
AcDbVertex
100
AcDb2dVertex
 10
631.4522640162429
 20
477.7670940173456
 30
0.0
 42
-0.1481711738912668
 70
     1
  0
VERTEX
  5
2911
330
290E
100
AcDbEntity
  8
SCHRAFF
100
AcDbVertex
100
AcDb2dVertex
 10
630.6835889573441
 20
477.533756462861
 30
0.0
 42
-0.1483030456011378
  0
VERTEX
  5
2912
330
290E
100
AcDbEntity
  8
SCHRAFF
100
AcDbVertex
100
AcDb2dVertex
 10
629.9140786356426
 20
477.766697054032
 30
0.0
 42
-0.1483030456011519
 70
     1
  0
VERTEX
  5
2913
330
290E
100
AcDbEntity
  8
SCHRAFF
100
AcDbVertex
100
AcDb2dVertex
 10
629.4035889573441
 20
478.387831292801
 30
0.0
  0
SEQEND
  5
2914
330
290E
100
AcDbEntity
  8
SCHRAFF
  0
POLYLINE
  5
2915
330
1E
100
AcDbEntity
  8
SCHRAFF
100
AcDb2dPolyline
 66
     1
 10
0.0
 20
0.0
 30
0.0
 70
     2
  0
VERTEX
  5
2916
330
2915
100
AcDbEntity
  8
SCHRAFF
100
AcDbVertex
100
AcDb2dVertex
 10
631.9621590989473
 20
463.387831292801
 30
0.0
 42
-0.1481711738912995
  0
VERTEX
  5
2917
330
2915
100
AcDbEntity
  8
SCHRAFF
100
AcDbVertex
100
AcDb2dVertex
 10
631.4522640162429
 20
462.7670940173455
 30
0.0
 42
-0.1481711738912668
 70
     1
  0
VERTEX
  5
2918
330
2915
100
AcDbEntity
  8
SCHRAFF
100
AcDbVertex
100
AcDb2dVertex
 10
630.6835889573441
 20
462.5337564628609
 30
0.0
 42
-0.1483030456011378
  0
VERTEX
  5
2919
330
2915
100
AcDbEntity
  8
SCHRAFF
100
AcDbVertex
100
AcDb2dVertex
 10
629.9140786356426
 20
462.7666970540319
 30
0.0
 42
-0.1483030456011519
 70
     1
  0
VERTEX
  5
291A
330
2915
100
AcDbEntity
  8
SCHRAFF
100
AcDbVertex
100
AcDb2dVertex
 10
629.4035889573441
 20
463.387831292801
 30
0.0
  0
SEQEND
  5
291B
330
2915
100
AcDbEntity
  8
SCHRAFF
  0
POLYLINE
  5
291C
330
1E
100
AcDbEntity
  8
SCHRAFF
100
AcDb2dPolyline
 66
     1
 10
0.0
 20
0.0
 30
0.0
 70
     2
  0
VERTEX
  5
291D
330
291C
100
AcDbEntity
  8
SCHRAFF
100
AcDbVertex
100
AcDb2dVertex
 10
631.9621590989473
 20
468.387831292801
 30
0.0
 42
-0.1481711738912995
  0
VERTEX
  5
291E
330
291C
100
AcDbEntity
  8
SCHRAFF
100
AcDbVertex
100
AcDb2dVertex
 10
631.4522640162429
 20
467.7670940173455
 30
0.0
 42
-0.1481711738912668
 70
     1
  0
VERTEX
  5
291F
330
291C
100
AcDbEntity
  8
SCHRAFF
100
AcDbVertex
100
AcDb2dVertex
 10
630.6835889573441
 20
467.533756462861
 30
0.0
 42
-0.1483030456011378
  0
VERTEX
  5
2920
330
291C
100
AcDbEntity
  8
SCHRAFF
100
AcDbVertex
100
AcDb2dVertex
 10
629.9140786356426
 20
467.7666970540319
 30
0.0
 42
-0.1483030456011519
 70
     1
  0
VERTEX
  5
2921
330
291C
100
AcDbEntity
  8
SCHRAFF
100
AcDbVertex
100
AcDb2dVertex
 10
629.4035889573441
 20
468.387831292801
 30
0.0
  0
SEQEND
  5
2922
330
291C
100
AcDbEntity
  8
SCHRAFF
  0
POLYLINE
  5
2923
330
1E
100
AcDbEntity
  8
SCHRAFF
100
AcDb2dPolyline
 66
     1
 10
0.0
 20
0.0
 30
0.0
 70
     2
  0
VERTEX
  5
2924
330
2923
100
AcDbEntity
  8
SCHRAFF
100
AcDbVertex
100
AcDb2dVertex
 10
631.9621590989473
 20
458.387831292801
 30
0.0
 42
-0.1481711738912995
  0
VERTEX
  5
2925
330
2923
100
AcDbEntity
  8
SCHRAFF
100
AcDbVertex
100
AcDb2dVertex
 10
631.4522640162429
 20
457.7670940173455
 30
0.0
 42
-0.1481711738912668
 70
     1
  0
VERTEX
  5
2926
330
2923
100
AcDbEntity
  8
SCHRAFF
100
AcDbVertex
100
AcDb2dVertex
 10
630.6835889573441
 20
457.5337564628609
 30
0.0
 42
-0.1483030456011378
  0
VERTEX
  5
2927
330
2923
100
AcDbEntity
  8
SCHRAFF
100
AcDbVertex
100
AcDb2dVertex
 10
629.9140786356426
 20
457.7666970540319
 30
0.0
 42
-0.1483030456011519
 70
     1
  0
VERTEX
  5
2928
330
2923
100
AcDbEntity
  8
SCHRAFF
100
AcDbVertex
100
AcDb2dVertex
 10
629.4035889573441
 20
458.387831292801
 30
0.0
  0
SEQEND
  5
2929
330
2923
100
AcDbEntity
  8
SCHRAFF
  0
POLYLINE
  5
292A
330
1E
100
AcDbEntity
  8
SCHRAFF
100
AcDb2dPolyline
 66
     1
 10
0.0
 20
0.0
 30
0.0
 70
     2
  0
VERTEX
  5
292B
330
292A
100
AcDbEntity
  8
SCHRAFF
100
AcDbVertex
100
AcDb2dVertex
 10
631.9621590989473
 20
453.387831292801
 30
0.0
 42
-0.1481711738912995
  0
VERTEX
  5
292C
330
292A
100
AcDbEntity
  8
SCHRAFF
100
AcDbVertex
100
AcDb2dVertex
 10
631.4522640162429
 20
452.7670940173456
 30
0.0
 42
-0.1481711738912668
 70
     1
  0
VERTEX
  5
292D
330
292A
100
AcDbEntity
  8
SCHRAFF
100
AcDbVertex
100
AcDb2dVertex
 10
630.6835889573441
 20
452.533756462861
 30
0.0
 42
-0.1483030456011378
  0
VERTEX
  5
292E
330
292A
100
AcDbEntity
  8
SCHRAFF
100
AcDbVertex
100
AcDb2dVertex
 10
629.9140786356426
 20
452.766697054032
 30
0.0
 42
-0.1483030456011519
 70
     1
  0
VERTEX
  5
292F
330
292A
100
AcDbEntity
  8
SCHRAFF
100
AcDbVertex
100
AcDb2dVertex
 10
629.4035889573441
 20
453.387831292801
 30
0.0
  0
SEQEND
  5
2930
330
292A
100
AcDbEntity
  8
SCHRAFF
  0
POLYLINE
  5
2931
330
1E
100
AcDbEntity
  8
SCHRAFF
100
AcDb2dPolyline
 66
     1
 10
0.0
 20
0.0
 30
0.0
 70
     2
  0
VERTEX
  5
2932
330
2931
100
AcDbEntity
  8
SCHRAFF
100
AcDbVertex
100
AcDb2dVertex
 10
631.9621590989473
 20
438.387831292801
 30
0.0
 42
-0.1481711738912995
  0
VERTEX
  5
2933
330
2931
100
AcDbEntity
  8
SCHRAFF
100
AcDbVertex
100
AcDb2dVertex
 10
631.4522640162429
 20
437.7670940173455
 30
0.0
 42
-0.1481711738912668
 70
     1
  0
VERTEX
  5
2934
330
2931
100
AcDbEntity
  8
SCHRAFF
100
AcDbVertex
100
AcDb2dVertex
 10
630.6835889573441
 20
437.5337564628609
 30
0.0
 42
-0.1483030456011378
  0
VERTEX
  5
2935
330
2931
100
AcDbEntity
  8
SCHRAFF
100
AcDbVertex
100
AcDb2dVertex
 10
629.9140786356426
 20
437.7666970540319
 30
0.0
 42
-0.1483030456011519
 70
     1
  0
VERTEX
  5
2936
330
2931
100
AcDbEntity
  8
SCHRAFF
100
AcDbVertex
100
AcDb2dVertex
 10
629.4035889573441
 20
438.387831292801
 30
0.0
  0
SEQEND
  5
2937
330
2931
100
AcDbEntity
  8
SCHRAFF
  0
POLYLINE
  5
2938
330
1E
100
AcDbEntity
  8
SCHRAFF
100
AcDb2dPolyline
 66
     1
 10
0.0
 20
0.0
 30
0.0
 70
     2
  0
VERTEX
  5
2939
330
2938
100
AcDbEntity
  8
SCHRAFF
100
AcDbVertex
100
AcDb2dVertex
 10
631.9621590989473
 20
443.387831292801
 30
0.0
 42
-0.1481711738912995
  0
VERTEX
  5
293A
330
2938
100
AcDbEntity
  8
SCHRAFF
100
AcDbVertex
100
AcDb2dVertex
 10
631.4522640162429
 20
442.7670940173455
 30
0.0
 42
-0.1481711738912668
 70
     1
  0
VERTEX
  5
293B
330
2938
100
AcDbEntity
  8
SCHRAFF
100
AcDbVertex
100
AcDb2dVertex
 10
630.6835889573441
 20
442.533756462861
 30
0.0
 42
-0.1483030456011378
  0
VERTEX
  5
293C
330
2938
100
AcDbEntity
  8
SCHRAFF
100
AcDbVertex
100
AcDb2dVertex
 10
629.9140786356426
 20
442.7666970540319
 30
0.0
 42
-0.1483030456011519
 70
     1
  0
VERTEX
  5
293D
330
2938
100
AcDbEntity
  8
SCHRAFF
100
AcDbVertex
100
AcDb2dVertex
 10
629.4035889573441
 20
443.387831292801
 30
0.0
  0
SEQEND
  5
293E
330
2938
100
AcDbEntity
  8
SCHRAFF
  0
POLYLINE
  5
293F
330
1E
100
AcDbEntity
  8
SCHRAFF
100
AcDb2dPolyline
 66
     1
 10
0.0
 20
0.0
 30
0.0
 70
     2
  0
VERTEX
  5
2940
330
293F
100
AcDbEntity
  8
SCHRAFF
100
AcDbVertex
100
AcDb2dVertex
 10
631.9621590989473
 20
448.387831292801
 30
0.0
 42
-0.1481711738912995
  0
VERTEX
  5
2941
330
293F
100
AcDbEntity
  8
SCHRAFF
100
AcDbVertex
100
AcDb2dVertex
 10
631.4522640162429
 20
447.7670940173456
 30
0.0
 42
-0.1481711738912668
 70
     1
  0
VERTEX
  5
2942
330
293F
100
AcDbEntity
  8
SCHRAFF
100
AcDbVertex
100
AcDb2dVertex
 10
630.6835889573441
 20
447.533756462861
 30
0.0
 42
-0.1483030456011378
  0
VERTEX
  5
2943
330
293F
100
AcDbEntity
  8
SCHRAFF
100
AcDbVertex
100
AcDb2dVertex
 10
629.9140786356426
 20
447.7666970540319
 30
0.0
 42
-0.1483030456011519
 70
     1
  0
VERTEX
  5
2944
330
293F
100
AcDbEntity
  8
SCHRAFF
100
AcDbVertex
100
AcDb2dVertex
 10
629.4035889573441
 20
448.387831292801
 30
0.0
  0
SEQEND
  5
2945
330
293F
100
AcDbEntity
  8
SCHRAFF
  0
POLYLINE
  5
2946
330
1E
100
AcDbEntity
  8
SCHRAFF
100
AcDb2dPolyline
 66
     1
 10
0.0
 20
0.0
 30
0.0
 70
     2
  0
VERTEX
  5
2947
330
2946
100
AcDbEntity
  8
SCHRAFF
100
AcDbVertex
100
AcDb2dVertex
 10
631.9621590989473
 20
428.387831292801
 30
0.0
 42
-0.1481711738912995
  0
VERTEX
  5
2948
330
2946
100
AcDbEntity
  8
SCHRAFF
100
AcDbVertex
100
AcDb2dVertex
 10
631.4522640162429
 20
427.7670940173456
 30
0.0
 42
-0.1481711738912668
 70
     1
  0
VERTEX
  5
2949
330
2946
100
AcDbEntity
  8
SCHRAFF
100
AcDbVertex
100
AcDb2dVertex
 10
630.6835889573441
 20
427.533756462861
 30
0.0
 42
-0.1483030456011378
  0
VERTEX
  5
294A
330
2946
100
AcDbEntity
  8
SCHRAFF
100
AcDbVertex
100
AcDb2dVertex
 10
629.9140786356426
 20
427.766697054032
 30
0.0
 42
-0.1483030456011519
 70
     1
  0
VERTEX
  5
294B
330
2946
100
AcDbEntity
  8
SCHRAFF
100
AcDbVertex
100
AcDb2dVertex
 10
629.4035889573441
 20
428.387831292801
 30
0.0
  0
SEQEND
  5
294C
330
2946
100
AcDbEntity
  8
SCHRAFF
  0
POLYLINE
  5
294D
330
1E
100
AcDbEntity
  8
SCHRAFF
100
AcDb2dPolyline
 66
     1
 10
0.0
 20
0.0
 30
0.0
 70
     2
  0
VERTEX
  5
294E
330
294D
100
AcDbEntity
  8
SCHRAFF
100
AcDbVertex
100
AcDb2dVertex
 10
631.9621590989473
 20
433.387831292801
 30
0.0
 42
-0.1481711738912995
  0
VERTEX
  5
294F
330
294D
100
AcDbEntity
  8
SCHRAFF
100
AcDbVertex
100
AcDb2dVertex
 10
631.4522640162429
 20
432.7670940173455
 30
0.0
 42
-0.1481711738912668
 70
     1
  0
VERTEX
  5
2950
330
294D
100
AcDbEntity
  8
SCHRAFF
100
AcDbVertex
100
AcDb2dVertex
 10
630.6835889573441
 20
432.5337564628609
 30
0.0
 42
-0.1483030456011378
  0
VERTEX
  5
2951
330
294D
100
AcDbEntity
  8
SCHRAFF
100
AcDbVertex
100
AcDb2dVertex
 10
629.9140786356426
 20
432.7666970540319
 30
0.0
 42
-0.1483030456011519
 70
     1
  0
VERTEX
  5
2952
330
294D
100
AcDbEntity
  8
SCHRAFF
100
AcDbVertex
100
AcDb2dVertex
 10
629.4035889573441
 20
433.387831292801
 30
0.0
  0
SEQEND
  5
2953
330
294D
100
AcDbEntity
  8
SCHRAFF
  0
POLYLINE
  5
2954
330
1E
100
AcDbEntity
  8
SCHRAFF
100
AcDb2dPolyline
 66
     1
 10
0.0
 20
0.0
 30
0.0
 70
     2
  0
VERTEX
  5
2955
330
2954
100
AcDbEntity
  8
SCHRAFF
100
AcDbVertex
100
AcDb2dVertex
 10
631.9621590989473
 20
423.387831292801
 30
0.0
 42
-0.1481711738912995
  0
VERTEX
  5
2956
330
2954
100
AcDbEntity
  8
SCHRAFF
100
AcDbVertex
100
AcDb2dVertex
 10
631.4522640162429
 20
422.7670940173456
 30
0.0
 42
-0.1481711738912668
 70
     1
  0
VERTEX
  5
2957
330
2954
100
AcDbEntity
  8
SCHRAFF
100
AcDbVertex
100
AcDb2dVertex
 10
630.6835889573441
 20
422.533756462861
 30
0.0
 42
-0.1483030456011378
  0
VERTEX
  5
2958
330
2954
100
AcDbEntity
  8
SCHRAFF
100
AcDbVertex
100
AcDb2dVertex
 10
629.9140786356426
 20
422.7666970540319
 30
0.0
 42
-0.1483030456011519
 70
     1
  0
VERTEX
  5
2959
330
2954
100
AcDbEntity
  8
SCHRAFF
100
AcDbVertex
100
AcDb2dVertex
 10
629.4035889573441
 20
423.387831292801
 30
0.0
  0
SEQEND
  5
295A
330
2954
100
AcDbEntity
  8
SCHRAFF
  0
POLYLINE
  5
295B
330
1E
100
AcDbEntity
  8
SCHRAFF
100
AcDb2dPolyline
 66
     1
 10
0.0
 20
0.0
 30
0.0
 70
     2
  0
VERTEX
  5
295C
330
295B
100
AcDbEntity
  8
SCHRAFF
100
AcDbVertex
100
AcDb2dVertex
 10
631.9621590989473
 20
418.387831292801
 30
0.0
 42
-0.1481711738912995
  0
VERTEX
  5
295D
330
295B
100
AcDbEntity
  8
SCHRAFF
100
AcDbVertex
100
AcDb2dVertex
 10
631.4522640162429
 20
417.7670940173455
 30
0.0
 42
-0.1481711738912668
 70
     1
  0
VERTEX
  5
295E
330
295B
100
AcDbEntity
  8
SCHRAFF
100
AcDbVertex
100
AcDb2dVertex
 10
630.6835889573441
 20
417.533756462861
 30
0.0
 42
-0.1483030456011378
  0
VERTEX
  5
295F
330
295B
100
AcDbEntity
  8
SCHRAFF
100
AcDbVertex
100
AcDb2dVertex
 10
629.9140786356426
 20
417.7666970540319
 30
0.0
 42
-0.1483030456011519
 70
     1
  0
VERTEX
  5
2960
330
295B
100
AcDbEntity
  8
SCHRAFF
100
AcDbVertex
100
AcDb2dVertex
 10
629.4035889573441
 20
418.387831292801
 30
0.0
  0
SEQEND
  5
2961
330
295B
100
AcDbEntity
  8
SCHRAFF
  0
POLYLINE
  5
2962
330
1E
100
AcDbEntity
  8
SCHRAFF
100
AcDb2dPolyline
 66
     1
 10
0.0
 20
0.0
 30
0.0
 70
     2
  0
VERTEX
  5
2963
330
2962
100
AcDbEntity
  8
SCHRAFF
100
AcDbVertex
100
AcDb2dVertex
 10
631.9621590989473
 20
403.387831292801
 30
0.0
 42
-0.1481711738912995
  0
VERTEX
  5
2964
330
2962
100
AcDbEntity
  8
SCHRAFF
100
AcDbVertex
100
AcDb2dVertex
 10
631.4522640162429
 20
402.7670940173456
 30
0.0
 42
-0.1481711738912668
 70
     1
  0
VERTEX
  5
2965
330
2962
100
AcDbEntity
  8
SCHRAFF
100
AcDbVertex
100
AcDb2dVertex
 10
630.6835889573441
 20
402.533756462861
 30
0.0
 42
-0.1483030456011378
  0
VERTEX
  5
2966
330
2962
100
AcDbEntity
  8
SCHRAFF
100
AcDbVertex
100
AcDb2dVertex
 10
629.9140786356426
 20
402.766697054032
 30
0.0
 42
-0.1483030456011519
 70
     1
  0
VERTEX
  5
2967
330
2962
100
AcDbEntity
  8
SCHRAFF
100
AcDbVertex
100
AcDb2dVertex
 10
629.4035889573441
 20
403.387831292801
 30
0.0
  0
SEQEND
  5
2968
330
2962
100
AcDbEntity
  8
SCHRAFF
  0
POLYLINE
  5
2969
330
1E
100
AcDbEntity
  8
SCHRAFF
100
AcDb2dPolyline
 66
     1
 10
0.0
 20
0.0
 30
0.0
 70
     2
  0
VERTEX
  5
296A
330
2969
100
AcDbEntity
  8
SCHRAFF
100
AcDbVertex
100
AcDb2dVertex
 10
631.9621590989473
 20
408.387831292801
 30
0.0
 42
-0.1481711738912995
  0
VERTEX
  5
296B
330
2969
100
AcDbEntity
  8
SCHRAFF
100
AcDbVertex
100
AcDb2dVertex
 10
631.4522640162429
 20
407.7670940173455
 30
0.0
 42
-0.1481711738912668
 70
     1
  0
VERTEX
  5
296C
330
2969
100
AcDbEntity
  8
SCHRAFF
100
AcDbVertex
100
AcDb2dVertex
 10
630.6835889573441
 20
407.5337564628609
 30
0.0
 42
-0.1483030456011378
  0
VERTEX
  5
296D
330
2969
100
AcDbEntity
  8
SCHRAFF
100
AcDbVertex
100
AcDb2dVertex
 10
629.9140786356426
 20
407.7666970540319
 30
0.0
 42
-0.1483030456011519
 70
     1
  0
VERTEX
  5
296E
330
2969
100
AcDbEntity
  8
SCHRAFF
100
AcDbVertex
100
AcDb2dVertex
 10
629.4035889573441
 20
408.387831292801
 30
0.0
  0
SEQEND
  5
296F
330
2969
100
AcDbEntity
  8
SCHRAFF
  0
POLYLINE
  5
2970
330
1E
100
AcDbEntity
  8
SCHRAFF
100
AcDb2dPolyline
 66
     1
 10
0.0
 20
0.0
 30
0.0
 70
     2
  0
VERTEX
  5
2971
330
2970
100
AcDbEntity
  8
SCHRAFF
100
AcDbVertex
100
AcDb2dVertex
 10
631.9621590989473
 20
398.387831292801
 30
0.0
 42
-0.1481711738912995
  0
VERTEX
  5
2972
330
2970
100
AcDbEntity
  8
SCHRAFF
100
AcDbVertex
100
AcDb2dVertex
 10
631.4522640162429
 20
397.7670940173456
 30
0.0
 42
-0.1481711738912668
 70
     1
  0
VERTEX
  5
2973
330
2970
100
AcDbEntity
  8
SCHRAFF
100
AcDbVertex
100
AcDb2dVertex
 10
630.6835889573441
 20
397.533756462861
 30
0.0
 42
-0.1483030456011378
  0
VERTEX
  5
2974
330
2970
100
AcDbEntity
  8
SCHRAFF
100
AcDbVertex
100
AcDb2dVertex
 10
629.9140786356426
 20
397.766697054032
 30
0.0
 42
-0.1483030456011519
 70
     1
  0
VERTEX
  5
2975
330
2970
100
AcDbEntity
  8
SCHRAFF
100
AcDbVertex
100
AcDb2dVertex
 10
629.4035889573441
 20
398.387831292801
 30
0.0
  0
SEQEND
  5
2976
330
2970
100
AcDbEntity
  8
SCHRAFF
  0
POLYLINE
  5
2977
330
1E
100
AcDbEntity
  8
SCHRAFF
100
AcDb2dPolyline
 66
     1
 10
0.0
 20
0.0
 30
0.0
 70
     2
  0
VERTEX
  5
2978
330
2977
100
AcDbEntity
  8
SCHRAFF
100
AcDbVertex
100
AcDb2dVertex
 10
631.9621590989473
 20
393.387831292801
 30
0.0
 42
-0.1481711738912995
  0
VERTEX
  5
2979
330
2977
100
AcDbEntity
  8
SCHRAFF
100
AcDbVertex
100
AcDb2dVertex
 10
631.4522640162429
 20
392.7670940173456
 30
0.0
 42
-0.1481711738912668
 70
     1
  0
VERTEX
  5
297A
330
2977
100
AcDbEntity
  8
SCHRAFF
100
AcDbVertex
100
AcDb2dVertex
 10
630.6835889573441
 20
392.533756462861
 30
0.0
 42
-0.1483030456011378
  0
VERTEX
  5
297B
330
2977
100
AcDbEntity
  8
SCHRAFF
100
AcDbVertex
100
AcDb2dVertex
 10
629.9140786356426
 20
392.766697054032
 30
0.0
 42
-0.1483030456011519
 70
     1
  0
VERTEX
  5
297C
330
2977
100
AcDbEntity
  8
SCHRAFF
100
AcDbVertex
100
AcDb2dVertex
 10
629.4035889573441
 20
393.387831292801
 30
0.0
  0
SEQEND
  5
297D
330
2977
100
AcDbEntity
  8
SCHRAFF
  0
POLYLINE
  5
297E
330
1E
100
AcDbEntity
  8
SCHRAFF
100
AcDb2dPolyline
 66
     1
 10
0.0
 20
0.0
 30
0.0
 70
     2
  0
VERTEX
  5
297F
330
297E
100
AcDbEntity
  8
SCHRAFF
100
AcDbVertex
100
AcDb2dVertex
 10
631.9621590989473
 20
413.3878312928009
 30
0.0
 42
-0.1481711738912995
  0
VERTEX
  5
2980
330
297E
100
AcDbEntity
  8
SCHRAFF
100
AcDbVertex
100
AcDb2dVertex
 10
631.4522640162429
 20
412.7670940173455
 30
0.0
 42
-0.1481711738912668
 70
     1
  0
VERTEX
  5
2981
330
297E
100
AcDbEntity
  8
SCHRAFF
100
AcDbVertex
100
AcDb2dVertex
 10
630.6835889573441
 20
412.5337564628609
 30
0.0
 42
-0.1483030456011378
  0
VERTEX
  5
2982
330
297E
100
AcDbEntity
  8
SCHRAFF
100
AcDbVertex
100
AcDb2dVertex
 10
629.9140786356426
 20
412.7666970540319
 30
0.0
 42
-0.1483030456011519
 70
     1
  0
VERTEX
  5
2983
330
297E
100
AcDbEntity
  8
SCHRAFF
100
AcDbVertex
100
AcDb2dVertex
 10
629.4035889573441
 20
413.3878312928009
 30
0.0
  0
SEQEND
  5
2984
330
297E
100
AcDbEntity
  8
SCHRAFF
  0
POLYLINE
  5
2985
330
1E
100
AcDbEntity
  8
SCHRAFF
100
AcDb2dPolyline
 66
     1
 10
0.0
 20
0.0
 30
0.0
 70
     2
  0
VERTEX
  5
2986
330
2985
100
AcDbEntity
  8
SCHRAFF
100
AcDbVertex
100
AcDb2dVertex
 10
631.9621590989473
 20
388.387831292801
 30
0.0
 42
-0.1481711738912995
  0
VERTEX
  5
2987
330
2985
100
AcDbEntity
  8
SCHRAFF
100
AcDbVertex
100
AcDb2dVertex
 10
631.4522640162429
 20
387.7670940173456
 30
0.0
 42
-0.1481711738912668
 70
     1
  0
VERTEX
  5
2988
330
2985
100
AcDbEntity
  8
SCHRAFF
100
AcDbVertex
100
AcDb2dVertex
 10
630.6835889573441
 20
387.533756462861
 30
0.0
 42
-0.1483030456011378
  0
VERTEX
  5
2989
330
2985
100
AcDbEntity
  8
SCHRAFF
100
AcDbVertex
100
AcDb2dVertex
 10
629.9140786356426
 20
387.766697054032
 30
0.0
 42
-0.1483030456011519
 70
     1
  0
VERTEX
  5
298A
330
2985
100
AcDbEntity
  8
SCHRAFF
100
AcDbVertex
100
AcDb2dVertex
 10
629.4035889573441
 20
388.387831292801
 30
0.0
  0
SEQEND
  5
298B
330
2985
100
AcDbEntity
  8
SCHRAFF
  0
POLYLINE
  5
298C
330
1E
100
AcDbEntity
  8
SCHRAFF
100
AcDb2dPolyline
 66
     1
 10
0.0
 20
0.0
 30
0.0
 70
     2
  0
VERTEX
  5
298D
330
298C
100
AcDbEntity
  8
SCHRAFF
100
AcDbVertex
100
AcDb2dVertex
 10
631.9621590989473
 20
383.387831292801
 30
0.0
 42
-0.1481711738912995
  0
VERTEX
  5
298E
330
298C
100
AcDbEntity
  8
SCHRAFF
100
AcDbVertex
100
AcDb2dVertex
 10
631.4522640162429
 20
382.7670940173456
 30
0.0
 42
-0.1481711738912668
 70
     1
  0
VERTEX
  5
298F
330
298C
100
AcDbEntity
  8
SCHRAFF
100
AcDbVertex
100
AcDb2dVertex
 10
630.6835889573441
 20
382.533756462861
 30
0.0
 42
-0.1483030456011378
  0
VERTEX
  5
2990
330
298C
100
AcDbEntity
  8
SCHRAFF
100
AcDbVertex
100
AcDb2dVertex
 10
629.9140786356426
 20
382.766697054032
 30
0.0
 42
-0.1483030456011519
 70
     1
  0
VERTEX
  5
2991
330
298C
100
AcDbEntity
  8
SCHRAFF
100
AcDbVertex
100
AcDb2dVertex
 10
629.4035889573441
 20
383.387831292801
 30
0.0
  0
SEQEND
  5
2992
330
298C
100
AcDbEntity
  8
SCHRAFF
  0
POLYLINE
  5
2993
330
1E
100
AcDbEntity
  8
SCHRAFF
100
AcDb2dPolyline
 66
     1
 10
0.0
 20
0.0
 30
0.0
 70
     2
  0
VERTEX
  5
2994
330
2993
100
AcDbEntity
  8
SCHRAFF
100
AcDbVertex
100
AcDb2dVertex
 10
631.9621590989473
 20
368.387831292801
 30
0.0
 42
-0.1481711738912995
  0
VERTEX
  5
2995
330
2993
100
AcDbEntity
  8
SCHRAFF
100
AcDbVertex
100
AcDb2dVertex
 10
631.4522640162429
 20
367.7670940173456
 30
0.0
 42
-0.1481711738912668
 70
     1
  0
VERTEX
  5
2996
330
2993
100
AcDbEntity
  8
SCHRAFF
100
AcDbVertex
100
AcDb2dVertex
 10
630.6835889573441
 20
367.533756462861
 30
0.0
 42
-0.1483030456011378
  0
VERTEX
  5
2997
330
2993
100
AcDbEntity
  8
SCHRAFF
100
AcDbVertex
100
AcDb2dVertex
 10
629.9140786356426
 20
367.7666970540319
 30
0.0
 42
-0.1483030456011519
 70
     1
  0
VERTEX
  5
2998
330
2993
100
AcDbEntity
  8
SCHRAFF
100
AcDbVertex
100
AcDb2dVertex
 10
629.4035889573441
 20
368.387831292801
 30
0.0
  0
SEQEND
  5
2999
330
2993
100
AcDbEntity
  8
SCHRAFF
  0
POLYLINE
  5
299A
330
1E
100
AcDbEntity
  8
SCHRAFF
100
AcDb2dPolyline
 66
     1
 10
0.0
 20
0.0
 30
0.0
 70
     2
  0
VERTEX
  5
299B
330
299A
100
AcDbEntity
  8
SCHRAFF
100
AcDbVertex
100
AcDb2dVertex
 10
631.9621590989473
 20
373.387831292801
 30
0.0
 42
-0.1481711738912995
  0
VERTEX
  5
299C
330
299A
100
AcDbEntity
  8
SCHRAFF
100
AcDbVertex
100
AcDb2dVertex
 10
631.4522640162429
 20
372.7670940173456
 30
0.0
 42
-0.1481711738912668
 70
     1
  0
VERTEX
  5
299D
330
299A
100
AcDbEntity
  8
SCHRAFF
100
AcDbVertex
100
AcDb2dVertex
 10
630.6835889573441
 20
372.533756462861
 30
0.0
 42
-0.1483030456011378
  0
VERTEX
  5
299E
330
299A
100
AcDbEntity
  8
SCHRAFF
100
AcDbVertex
100
AcDb2dVertex
 10
629.9140786356426
 20
372.766697054032
 30
0.0
 42
-0.1483030456011519
 70
     1
  0
VERTEX
  5
299F
330
299A
100
AcDbEntity
  8
SCHRAFF
100
AcDbVertex
100
AcDb2dVertex
 10
629.4035889573441
 20
373.387831292801
 30
0.0
  0
SEQEND
  5
29A0
330
299A
100
AcDbEntity
  8
SCHRAFF
  0
POLYLINE
  5
29A1
330
1E
100
AcDbEntity
  8
SCHRAFF
100
AcDb2dPolyline
 66
     1
 10
0.0
 20
0.0
 30
0.0
 70
     2
  0
VERTEX
  5
29A2
330
29A1
100
AcDbEntity
  8
SCHRAFF
100
AcDbVertex
100
AcDb2dVertex
 10
631.9621590989473
 20
378.387831292801
 30
0.0
 42
-0.1481711738912995
  0
VERTEX
  5
29A3
330
29A1
100
AcDbEntity
  8
SCHRAFF
100
AcDbVertex
100
AcDb2dVertex
 10
631.4522640162429
 20
377.7670940173456
 30
0.0
 42
-0.1481711738912668
 70
     1
  0
VERTEX
  5
29A4
330
29A1
100
AcDbEntity
  8
SCHRAFF
100
AcDbVertex
100
AcDb2dVertex
 10
630.6835889573441
 20
377.533756462861
 30
0.0
 42
-0.1483030456011378
  0
VERTEX
  5
29A5
330
29A1
100
AcDbEntity
  8
SCHRAFF
100
AcDbVertex
100
AcDb2dVertex
 10
629.9140786356426
 20
377.766697054032
 30
0.0
 42
-0.1483030456011519
 70
     1
  0
VERTEX
  5
29A6
330
29A1
100
AcDbEntity
  8
SCHRAFF
100
AcDbVertex
100
AcDb2dVertex
 10
629.4035889573441
 20
378.387831292801
 30
0.0
  0
SEQEND
  5
29A7
330
29A1
100
AcDbEntity
  8
SCHRAFF
  0
POLYLINE
  5
29A8
330
1E
100
AcDbEntity
  8
SCHRAFF
100
AcDb2dPolyline
 66
     1
 10
0.0
 20
0.0
 30
0.0
 70
     2
  0
VERTEX
  5
29A9
330
29A8
100
AcDbEntity
  8
SCHRAFF
100
AcDbVertex
100
AcDb2dVertex
 10
631.9621590989473
 20
363.387831292801
 30
0.0
 42
-0.1481711738912995
  0
VERTEX
  5
29AA
330
29A8
100
AcDbEntity
  8
SCHRAFF
100
AcDbVertex
100
AcDb2dVertex
 10
631.4522640162429
 20
362.7670940173456
 30
0.0
 42
-0.1481711738912668
 70
     1
  0
VERTEX
  5
29AB
330
29A8
100
AcDbEntity
  8
SCHRAFF
100
AcDbVertex
100
AcDb2dVertex
 10
630.6835889573441
 20
362.533756462861
 30
0.0
 42
-0.1483030456011378
  0
VERTEX
  5
29AC
330
29A8
100
AcDbEntity
  8
SCHRAFF
100
AcDbVertex
100
AcDb2dVertex
 10
629.9140786356426
 20
362.766697054032
 30
0.0
 42
-0.1483030456011519
 70
     1
  0
VERTEX
  5
29AD
330
29A8
100
AcDbEntity
  8
SCHRAFF
100
AcDbVertex
100
AcDb2dVertex
 10
629.4035889573441
 20
363.387831292801
 30
0.0
  0
SEQEND
  5
29AE
330
29A8
100
AcDbEntity
  8
SCHRAFF
  0
POLYLINE
  5
29AF
330
1E
100
AcDbEntity
  8
SCHRAFF
100
AcDb2dPolyline
 66
     1
 10
0.0
 20
0.0
 30
0.0
 70
     2
  0
VERTEX
  5
29B0
330
29AF
100
AcDbEntity
  8
SCHRAFF
100
AcDbVertex
100
AcDb2dVertex
 10
631.9621590989473
 20
358.387831292801
 30
0.0
 42
-0.1481711738912995
  0
VERTEX
  5
29B1
330
29AF
100
AcDbEntity
  8
SCHRAFF
100
AcDbVertex
100
AcDb2dVertex
 10
631.4522640162429
 20
357.7670940173456
 30
0.0
 42
-0.1481711738912668
 70
     1
  0
VERTEX
  5
29B2
330
29AF
100
AcDbEntity
  8
SCHRAFF
100
AcDbVertex
100
AcDb2dVertex
 10
630.6835889573441
 20
357.533756462861
 30
0.0
 42
-0.1483030456011378
  0
VERTEX
  5
29B3
330
29AF
100
AcDbEntity
  8
SCHRAFF
100
AcDbVertex
100
AcDb2dVertex
 10
629.9140786356426
 20
357.766697054032
 30
0.0
 42
-0.1483030456011519
 70
     1
  0
VERTEX
  5
29B4
330
29AF
100
AcDbEntity
  8
SCHRAFF
100
AcDbVertex
100
AcDb2dVertex
 10
629.4035889573441
 20
358.387831292801
 30
0.0
  0
SEQEND
  5
29B5
330
29AF
100
AcDbEntity
  8
SCHRAFF
  0
POLYLINE
  5
29B6
330
1E
100
AcDbEntity
  8
SCHRAFF
100
AcDb2dPolyline
 66
     1
 10
0.0
 20
0.0
 30
0.0
 70
     2
  0
VERTEX
  5
29B7
330
29B6
100
AcDbEntity
  8
SCHRAFF
100
AcDbVertex
100
AcDb2dVertex
 10
631.9621590989473
 20
347.387831292801
 30
0.0
 42
-0.1481711738912995
  0
VERTEX
  5
29B8
330
29B6
100
AcDbEntity
  8
SCHRAFF
100
AcDbVertex
100
AcDb2dVertex
 10
631.4522640162429
 20
346.7670940173456
 30
0.0
 42
-0.1481711738912668
 70
     1
  0
VERTEX
  5
29B9
330
29B6
100
AcDbEntity
  8
SCHRAFF
100
AcDbVertex
100
AcDb2dVertex
 10
630.6835889573441
 20
346.533756462861
 30
0.0
 42
-0.1483030456011378
  0
VERTEX
  5
29BA
330
29B6
100
AcDbEntity
  8
SCHRAFF
100
AcDbVertex
100
AcDb2dVertex
 10
629.9140786356426
 20
346.766697054032
 30
0.0
 42
-0.1483030456011519
 70
     1
  0
VERTEX
  5
29BB
330
29B6
100
AcDbEntity
  8
SCHRAFF
100
AcDbVertex
100
AcDb2dVertex
 10
629.4035889573441
 20
347.387831292801
 30
0.0
  0
SEQEND
  5
29BC
330
29B6
100
AcDbEntity
  8
SCHRAFF
  0
POLYLINE
  5
29BD
330
1E
100
AcDbEntity
  8
SCHRAFF
100
AcDb2dPolyline
 66
     1
 10
0.0
 20
0.0
 30
0.0
 70
     2
  0
VERTEX
  5
29BE
330
29BD
100
AcDbEntity
  8
SCHRAFF
100
AcDbVertex
100
AcDb2dVertex
 10
631.9621590989473
 20
354.387831292801
 30
0.0
 42
-0.1481711738912995
  0
VERTEX
  5
29BF
330
29BD
100
AcDbEntity
  8
SCHRAFF
100
AcDbVertex
100
AcDb2dVertex
 10
631.4522640162429
 20
353.7670940173456
 30
0.0
 42
-0.1481711738912668
 70
     1
  0
VERTEX
  5
29C0
330
29BD
100
AcDbEntity
  8
SCHRAFF
100
AcDbVertex
100
AcDb2dVertex
 10
630.6835889573441
 20
353.533756462861
 30
0.0
 42
-0.1483030456011378
  0
VERTEX
  5
29C1
330
29BD
100
AcDbEntity
  8
SCHRAFF
100
AcDbVertex
100
AcDb2dVertex
 10
629.9140786356426
 20
353.766697054032
 30
0.0
 42
-0.1483030456011519
 70
     1
  0
VERTEX
  5
29C2
330
29BD
100
AcDbEntity
  8
SCHRAFF
100
AcDbVertex
100
AcDb2dVertex
 10
629.4035889573441
 20
354.387831292801
 30
0.0
  0
SEQEND
  5
29C3
330
29BD
100
AcDbEntity
  8
SCHRAFF
  0
ARC
  5
29C4
330
1E
100
AcDbEntity
  8
SCHRAFF
100
AcDbCircle
 10
651.9155210533781
 20
330.1481311724578
 30
0.0
 40
2.121320343559662
100
AcDbArc
 50
135.0
 51
225.0
  0
LINE
  5
29C5
330
1E
100
AcDbEntity
  8
STEMPEL
100
AcDbLine
 10
652.9531753823182
 20
328.6481311724577
 30
0.0
 11
652.9531753823184
 21
328.1481311724578
 31
0.0
  0
LINE
  5
29C6
102
{ACAD_REACTORS
330
2F3C
102
}
330
1E
100
AcDbEntity
  8
STEMPEL
100
AcDbLine
 10
651.4531753823185
 20
330.1481311724578
 30
0.0
 11
652.9531753823184
 21
328.6481311724577
 31
0.0
  0
ARC
  5
29C7
102
{ACAD_REACTORS
330
2F3C
102
}
330
1E
100
AcDbEntity
  8
SCHRAFF
100
AcDbCircle
 10
651.4531753823185
 20
330.1481311724578
 30
0.0
 40
2.121320343559662
100
AcDbArc
 50
315.0
 51
45.0
  0
LINE
  5
29C8
102
{ACAD_REACTORS
330
2F3C
102
}
330
1E
100
AcDbEntity
  8
STEMPEL
100
AcDbLine
 10
652.9531753823184
 20
331.6481311724577
 30
0.0
 11
651.4531753823185
 21
330.1481311724578
 31
0.0
  0
ARC
  5
29C9
330
1E
100
AcDbEntity
  8
SCHRAFF
100
AcDbCircle
 10
648.4155210533781
 20
330.1481311724578
 30
0.0
 40
2.121320343559662
100
AcDbArc
 50
135.0
 51
225.0
  0
ARC
  5
29CA
330
1E
100
AcDbEntity
  8
SCHRAFF
100
AcDbCircle
 10
638.4155210533781
 20
330.1481311724578
 30
0.0
 40
2.121320343559662
100
AcDbArc
 50
135.0
 51
225.0
  0
ARC
  5
29CB
330
1E
100
AcDbEntity
  8
SCHRAFF
100
AcDbCircle
 10
643.4155210533781
 20
330.1481311724578
 30
0.0
 40
2.121320343559662
100
AcDbArc
 50
135.0
 51
225.0
  0
POLYLINE
  5
29CC
330
1E
100
AcDbEntity
  8
SCHRAFF
100
AcDb2dPolyline
 66
     1
 10
0.0
 20
0.0
 30
0.0
 70
     2
  0
VERTEX
  5
29CD
330
29CC
100
AcDbEntity
  8
SCHRAFF
100
AcDbVertex
100
AcDb2dVertex
 10
631.9621590989473
 20
342.387831292801
 30
0.0
 42
-0.1481711738912995
  0
VERTEX
  5
29CE
330
29CC
100
AcDbEntity
  8
SCHRAFF
100
AcDbVertex
100
AcDb2dVertex
 10
631.4522640162429
 20
341.7670940173456
 30
0.0
 42
-0.1481711738912668
 70
     1
  0
VERTEX
  5
29CF
330
29CC
100
AcDbEntity
  8
SCHRAFF
100
AcDbVertex
100
AcDb2dVertex
 10
630.6835889573441
 20
341.533756462861
 30
0.0
 42
-0.1483030456011378
  0
VERTEX
  5
29D0
330
29CC
100
AcDbEntity
  8
SCHRAFF
100
AcDbVertex
100
AcDb2dVertex
 10
629.9140786356426
 20
341.766697054032
 30
0.0
 42
-0.1483030456011519
 70
     1
  0
VERTEX
  5
29D1
330
29CC
100
AcDbEntity
  8
SCHRAFF
100
AcDbVertex
100
AcDb2dVertex
 10
629.4035889573441
 20
342.387831292801
 30
0.0
  0
SEQEND
  5
29D2
330
29CC
100
AcDbEntity
  8
SCHRAFF
  0
POLYLINE
  5
29D3
330
1E
100
AcDbEntity
  8
SCHRAFF
100
AcDb2dPolyline
 66
     1
 10
0.0
 20
0.0
 30
0.0
 70
     2
  0
VERTEX
  5
29D4
330
29D3
100
AcDbEntity
  8
SCHRAFF
100
AcDbVertex
100
AcDb2dVertex
 10
631.9621590989473
 20
337.387831292801
 30
0.0
 42
-0.1481711738912995
  0
VERTEX
  5
29D5
330
29D3
100
AcDbEntity
  8
SCHRAFF
100
AcDbVertex
100
AcDb2dVertex
 10
631.4522640162429
 20
336.7670940173456
 30
0.0
 42
-0.1481711738912668
 70
     1
  0
VERTEX
  5
29D6
330
29D3
100
AcDbEntity
  8
SCHRAFF
100
AcDbVertex
100
AcDb2dVertex
 10
630.6835889573441
 20
336.533756462861
 30
0.0
 42
-0.1483030456011378
  0
VERTEX
  5
29D7
330
29D3
100
AcDbEntity
  8
SCHRAFF
100
AcDbVertex
100
AcDb2dVertex
 10
629.9140786356426
 20
336.766697054032
 30
0.0
 42
-0.1483030456011519
 70
     1
  0
VERTEX
  5
29D8
330
29D3
100
AcDbEntity
  8
SCHRAFF
100
AcDbVertex
100
AcDb2dVertex
 10
629.4035889573441
 20
337.387831292801
 30
0.0
  0
SEQEND
  5
29D9
330
29D3
100
AcDbEntity
  8
SCHRAFF
  0
ARC
  5
29DA
330
1E
100
AcDbEntity
  8
SCHRAFF
100
AcDbCircle
 10
633.4155210533781
 20
330.1481311724578
 30
0.0
 40
2.121320343559662
100
AcDbArc
 50
135.0
 51
225.0
  0
ARC
  5
29DB
330
1E
100
AcDbEntity
  8
SCHRAFF
100
AcDbCircle
 10
628.4155210533781
 20
330.1481311724578
 30
0.0
 40
2.121320343559662
100
AcDbArc
 50
135.0
 51
225.0
  0
ARC
  5
29DC
102
{ACAD_REACTORS
330
2F43
102
}
330
1E
100
AcDbEntity
  8
SCHRAFF
100
AcDbCircle
 10
619.9531753823184
 20
328.1481311724577
 30
0.0
 40
3.933404693797342
100
AcDbArc
 50
270.0
 51
0.0
  0
ARC
  5
29DD
330
1E
100
AcDbEntity
  8
SCHRAFF
100
AcDbCircle
 10
623.4155210533781
 20
330.1481311724578
 30
0.0
 40
2.121320343559662
100
AcDbArc
 50
135.0
 51
225.0
  0
POLYLINE
  5
29DE
330
1E
100
AcDbEntity
  8
SCHRAFF
100
AcDb2dPolyline
 66
     1
 10
0.0
 20
0.0
 30
0.0
 70
     2
  0
VERTEX
  5
29DF
330
29DE
100
AcDbEntity
  8
SCHRAFF
100
AcDbVertex
100
AcDb2dVertex
 10
631.9621590989473
 20
332.387831292801
 30
0.0
 42
-0.1481711738912995
  0
VERTEX
  5
29E0
330
29DE
100
AcDbEntity
  8
SCHRAFF
100
AcDbVertex
100
AcDb2dVertex
 10
631.4522640162429
 20
331.7670940173456
 30
0.0
 42
-0.1481711738912668
 70
     1
  0
VERTEX
  5
29E1
330
29DE
100
AcDbEntity
  8
SCHRAFF
100
AcDbVertex
100
AcDb2dVertex
 10
630.6835889573441
 20
331.533756462861
 30
0.0
 42
-0.1483030456011378
  0
VERTEX
  5
29E2
330
29DE
100
AcDbEntity
  8
SCHRAFF
100
AcDbVertex
100
AcDb2dVertex
 10
629.9140786356426
 20
331.766697054032
 30
0.0
 42
-0.1483030456011519
 70
     1
  0
VERTEX
  5
29E3
330
29DE
100
AcDbEntity
  8
SCHRAFF
100
AcDbVertex
100
AcDb2dVertex
 10
629.4035889573441
 20
332.387831292801
 30
0.0
  0
SEQEND
  5
29E4
330
29DE
100
AcDbEntity
  8
SCHRAFF
  0
ARC
  5
29E5
330
1E
100
AcDbEntity
  8
SCHRAFF
100
AcDbCircle
 10
614.7140329097871
 20
326.1481311724578
 30
0.0
 40
3.529611588277334
100
AcDbArc
 50
145.484122981018
 51
214.515877018982
  0
ARC
  5
29E6
330
1E
100
AcDbEntity
  8
SCHRAFF
100
AcDbCircle
 10
613.4155210533781
 20
330.1481311724578
 30
0.0
 40
2.121320343559662
100
AcDbArc
 50
135.0
 51
225.0
  0
ARC
  5
29E7
330
1E
100
AcDbEntity
  8
SCHRAFF
100
AcDbCircle
 10
619.7140329097871
 20
326.1481311724578
 30
0.0
 40
3.529611588277334
100
AcDbArc
 50
145.484122981018
 51
214.515877018982
  0
ARC
  5
29E8
330
1E
100
AcDbEntity
  8
SCHRAFF
100
AcDbCircle
 10
609.7140329097872
 20
326.1481311724578
 30
0.0
 40
3.529611588277334
100
AcDbArc
 50
145.484122981018
 51
214.515877018982
  0
ARC
  5
29E9
330
1E
100
AcDbEntity
  8
SCHRAFF
100
AcDbCircle
 10
604.7140329097872
 20
326.1481311724578
 30
0.0
 40
3.529611588277334
100
AcDbArc
 50
145.484122981018
 51
214.515877018982
  0
ARC
  5
29EA
330
1E
100
AcDbEntity
  8
SCHRAFF
100
AcDbCircle
 10
608.4155210533781
 20
330.1481311724578
 30
0.0
 40
2.121320343559662
100
AcDbArc
 50
135.0
 51
225.0
  0
ARC
  5
29EB
330
1E
100
AcDbEntity
  8
SCHRAFF
100
AcDbCircle
 10
603.4155210533781
 20
330.1481311724578
 30
0.0
 40
2.121320343559662
100
AcDbArc
 50
135.0
 51
225.0
  0
ARC
  5
29EC
330
1E
100
AcDbEntity
  8
SCHRAFF
100
AcDbCircle
 10
599.7140329097872
 20
326.1481311724578
 30
0.0
 40
3.529611588277334
100
AcDbArc
 50
145.484122981018
 51
214.515877018982
  0
ARC
  5
29ED
330
1E
100
AcDbEntity
  8
SCHRAFF
100
AcDbCircle
 10
598.4155210533781
 20
330.1481311724578
 30
0.0
 40
2.121320343559662
100
AcDbArc
 50
135.0
 51
225.0
  0
ARC
  5
29EE
330
1E
100
AcDbEntity
  8
SCHRAFF
100
AcDbCircle
 10
589.7140329097872
 20
326.1481311724578
 30
0.0
 40
3.529611588277334
100
AcDbArc
 50
145.484122981018
 51
214.515877018982
  0
ARC
  5
29EF
330
1E
100
AcDbEntity
  8
SCHRAFF
100
AcDbCircle
 10
594.7140329097873
 20
326.1481311724578
 30
0.0
 40
3.529611588277334
100
AcDbArc
 50
145.484122981018
 51
214.515877018982
  0
ARC
  5
29F0
330
1E
100
AcDbEntity
  8
SCHRAFF
100
AcDbCircle
 10
588.4155210533781
 20
330.1481311724578
 30
0.0
 40
2.121320343559662
100
AcDbArc
 50
135.0
 51
225.0
  0
ARC
  5
29F1
330
1E
100
AcDbEntity
  8
SCHRAFF
100
AcDbCircle
 10
593.4155210533781
 20
330.1481311724578
 30
0.0
 40
2.121320343559662
100
AcDbArc
 50
135.0
 51
225.0
  0
ARC
  5
29F2
330
1E
100
AcDbEntity
  8
SCHRAFF
100
AcDbCircle
 10
579.7140329097873
 20
326.1481311724578
 30
0.0
 40
3.529611588277334
100
AcDbArc
 50
145.484122981018
 51
214.515877018982
  0
ARC
  5
29F3
330
1E
100
AcDbEntity
  8
SCHRAFF
100
AcDbCircle
 10
578.4155210533781
 20
330.1481311724578
 30
0.0
 40
2.121320343559662
100
AcDbArc
 50
135.0
 51
225.0
  0
ARC
  5
29F4
330
1E
100
AcDbEntity
  8
SCHRAFF
100
AcDbCircle
 10
584.7140329097872
 20
326.1481311724578
 30
0.0
 40
3.529611588277334
100
AcDbArc
 50
145.484122981018
 51
214.515877018982
  0
ARC
  5
29F5
330
1E
100
AcDbEntity
  8
SCHRAFF
100
AcDbCircle
 10
583.4155210533781
 20
330.1481311724578
 30
0.0
 40
2.121320343559662
100
AcDbArc
 50
135.0
 51
225.0
  0
ARC
  5
29F6
330
1E
100
AcDbEntity
  8
SCHRAFF
100
AcDbCircle
 10
574.7140329097873
 20
326.1481311724578
 30
0.0
 40
3.529611588277334
100
AcDbArc
 50
145.484122981018
 51
214.515877018982
  0
ARC
  5
29F7
330
1E
100
AcDbEntity
  8
SCHRAFF
100
AcDbCircle
 10
573.4155210533781
 20
330.1481311724578
 30
0.0
 40
2.121320343559662
100
AcDbArc
 50
135.0
 51
225.0
  0
ARC
  5
29F8
330
1E
100
AcDbEntity
  8
SCHRAFF
100
AcDbCircle
 10
569.7140329097873
 20
326.1481311724578
 30
0.0
 40
3.529611588277334
100
AcDbArc
 50
145.484122981018
 51
214.515877018982
  0
ARC
  5
29F9
330
1E
100
AcDbEntity
  8
SCHRAFF
100
AcDbCircle
 10
564.7140329097872
 20
326.1481311724578
 30
0.0
 40
3.529611588277334
100
AcDbArc
 50
145.484122981018
 51
214.515877018982
  0
ARC
  5
29FA
330
1E
100
AcDbEntity
  8
SCHRAFF
100
AcDbCircle
 10
568.4155210533781
 20
330.1481311724578
 30
0.0
 40
2.121320343559662
100
AcDbArc
 50
135.0
 51
225.0
  0
ARC
  5
29FB
330
1E
100
AcDbEntity
  8
SCHRAFF
100
AcDbCircle
 10
563.4155210533781
 20
330.1481311724578
 30
0.0
 40
2.121320343559662
100
AcDbArc
 50
135.0
 51
225.0
  0
ARC
  5
29FC
330
1E
100
AcDbEntity
  8
SCHRAFF
100
AcDbCircle
 10
559.7140329097872
 20
326.1481311724578
 30
0.0
 40
3.529611588277334
100
AcDbArc
 50
145.484122981018
 51
214.515877018982
  0
ARC
  5
29FD
330
1E
100
AcDbEntity
  8
SCHRAFF
100
AcDbCircle
 10
558.4155210533781
 20
330.1481311724578
 30
0.0
 40
2.121320343559662
100
AcDbArc
 50
135.0
 51
225.0
  0
ARC
  5
29FE
330
1E
100
AcDbEntity
  8
SCHRAFF
100
AcDbCircle
 10
553.4155210533781
 20
330.1481311724578
 30
0.0
 40
2.121320343559662
100
AcDbArc
 50
135.0
 51
225.0
  0
ARC
  5
29FF
330
1E
100
AcDbEntity
  8
SCHRAFF
100
AcDbCircle
 10
618.4155210533781
 20
330.1481311724578
 30
0.0
 40
2.121320343559662
100
AcDbArc
 50
135.0
 51
225.0
  0
POLYLINE
  5
2A00
330
1E
100
AcDbEntity
  8
SCHRAFF
100
AcDb2dPolyline
 66
     1
 10
0.0
 20
0.0
 30
0.0
 70
     2
  0
VERTEX
  5
2A01
330
2A00
100
AcDbEntity
  8
SCHRAFF
100
AcDbVertex
100
AcDb2dVertex
 10
505.9441916656896
 20
478.387831292801
 30
0.0
 42
0.1481711738912995
  0
VERTEX
  5
2A02
330
2A00
100
AcDbEntity
  8
SCHRAFF
100
AcDbVertex
100
AcDb2dVertex
 10
506.454086748394
 20
477.7670940173456
 30
0.0
 42
0.1481711738912668
 70
     1
  0
VERTEX
  5
2A03
330
2A00
100
AcDbEntity
  8
SCHRAFF
100
AcDbVertex
100
AcDb2dVertex
 10
507.2227618072928
 20
477.533756462861
 30
0.0
 42
0.1483030456011378
  0
VERTEX
  5
2A04
330
2A00
100
AcDbEntity
  8
SCHRAFF
100
AcDbVertex
100
AcDb2dVertex
 10
507.9922721289943
 20
477.766697054032
 30
0.0
 42
0.1483030456011519
 70
     1
  0
VERTEX
  5
2A05
330
2A00
100
AcDbEntity
  8
SCHRAFF
100
AcDbVertex
100
AcDb2dVertex
 10
508.5027618072928
 20
478.387831292801
 30
0.0
  0
SEQEND
  5
2A06
330
2A00
100
AcDbEntity
  8
SCHRAFF
  0
POLYLINE
  5
2A07
330
1E
100
AcDbEntity
  8
SCHRAFF
100
AcDb2dPolyline
 66
     1
 10
0.0
 20
0.0
 30
0.0
 70
     2
  0
VERTEX
  5
2A08
330
2A07
100
AcDbEntity
  8
SCHRAFF
100
AcDbVertex
100
AcDb2dVertex
 10
505.9441916656896
 20
473.387831292801
 30
0.0
 42
0.1481711738912995
  0
VERTEX
  5
2A09
330
2A07
100
AcDbEntity
  8
SCHRAFF
100
AcDbVertex
100
AcDb2dVertex
 10
506.454086748394
 20
472.7670940173456
 30
0.0
 42
0.1481711738912668
 70
     1
  0
VERTEX
  5
2A0A
330
2A07
100
AcDbEntity
  8
SCHRAFF
100
AcDbVertex
100
AcDb2dVertex
 10
507.2227618072928
 20
472.533756462861
 30
0.0
 42
0.1483030456011378
  0
VERTEX
  5
2A0B
330
2A07
100
AcDbEntity
  8
SCHRAFF
100
AcDbVertex
100
AcDb2dVertex
 10
507.9922721289943
 20
472.7666970540319
 30
0.0
 42
0.1483030456011519
 70
     1
  0
VERTEX
  5
2A0C
330
2A07
100
AcDbEntity
  8
SCHRAFF
100
AcDbVertex
100
AcDb2dVertex
 10
508.5027618072928
 20
473.387831292801
 30
0.0
  0
SEQEND
  5
2A0D
330
2A07
100
AcDbEntity
  8
SCHRAFF
  0
POLYLINE
  5
2A0E
330
1E
100
AcDbEntity
  8
SCHRAFF
100
AcDb2dPolyline
 66
     1
 10
0.0
 20
0.0
 30
0.0
 70
     2
  0
VERTEX
  5
2A0F
330
2A0E
100
AcDbEntity
  8
SCHRAFF
100
AcDbVertex
100
AcDb2dVertex
 10
505.9441916656896
 20
468.387831292801
 30
0.0
 42
0.1481711738912995
  0
VERTEX
  5
2A10
330
2A0E
100
AcDbEntity
  8
SCHRAFF
100
AcDbVertex
100
AcDb2dVertex
 10
506.454086748394
 20
467.7670940173455
 30
0.0
 42
0.1481711738912668
 70
     1
  0
VERTEX
  5
2A11
330
2A0E
100
AcDbEntity
  8
SCHRAFF
100
AcDbVertex
100
AcDb2dVertex
 10
507.2227618072928
 20
467.533756462861
 30
0.0
 42
0.1483030456011378
  0
VERTEX
  5
2A12
330
2A0E
100
AcDbEntity
  8
SCHRAFF
100
AcDbVertex
100
AcDb2dVertex
 10
507.9922721289943
 20
467.7666970540319
 30
0.0
 42
0.1483030456011519
 70
     1
  0
VERTEX
  5
2A13
330
2A0E
100
AcDbEntity
  8
SCHRAFF
100
AcDbVertex
100
AcDb2dVertex
 10
508.5027618072928
 20
468.387831292801
 30
0.0
  0
SEQEND
  5
2A14
330
2A0E
100
AcDbEntity
  8
SCHRAFF
  0
POLYLINE
  5
2A15
330
1E
100
AcDbEntity
  8
SCHRAFF
100
AcDb2dPolyline
 66
     1
 10
0.0
 20
0.0
 30
0.0
 70
     2
  0
VERTEX
  5
2A16
330
2A15
100
AcDbEntity
  8
SCHRAFF
100
AcDbVertex
100
AcDb2dVertex
 10
505.9441916656896
 20
463.387831292801
 30
0.0
 42
0.1481711738912995
  0
VERTEX
  5
2A17
330
2A15
100
AcDbEntity
  8
SCHRAFF
100
AcDbVertex
100
AcDb2dVertex
 10
506.454086748394
 20
462.7670940173455
 30
0.0
 42
0.1481711738912668
 70
     1
  0
VERTEX
  5
2A18
330
2A15
100
AcDbEntity
  8
SCHRAFF
100
AcDbVertex
100
AcDb2dVertex
 10
507.2227618072928
 20
462.5337564628609
 30
0.0
 42
0.1483030456011378
  0
VERTEX
  5
2A19
330
2A15
100
AcDbEntity
  8
SCHRAFF
100
AcDbVertex
100
AcDb2dVertex
 10
507.9922721289943
 20
462.7666970540319
 30
0.0
 42
0.1483030456011519
 70
     1
  0
VERTEX
  5
2A1A
330
2A15
100
AcDbEntity
  8
SCHRAFF
100
AcDbVertex
100
AcDb2dVertex
 10
508.5027618072928
 20
463.387831292801
 30
0.0
  0
SEQEND
  5
2A1B
330
2A15
100
AcDbEntity
  8
SCHRAFF
  0
POLYLINE
  5
2A1C
330
1E
100
AcDbEntity
  8
SCHRAFF
100
AcDb2dPolyline
 66
     1
 10
0.0
 20
0.0
 30
0.0
 70
     2
  0
VERTEX
  5
2A1D
330
2A1C
100
AcDbEntity
  8
SCHRAFF
100
AcDbVertex
100
AcDb2dVertex
 10
505.9441916656896
 20
453.387831292801
 30
0.0
 42
0.1481711738912995
  0
VERTEX
  5
2A1E
330
2A1C
100
AcDbEntity
  8
SCHRAFF
100
AcDbVertex
100
AcDb2dVertex
 10
506.454086748394
 20
452.7670940173456
 30
0.0
 42
0.1481711738912668
 70
     1
  0
VERTEX
  5
2A1F
330
2A1C
100
AcDbEntity
  8
SCHRAFF
100
AcDbVertex
100
AcDb2dVertex
 10
507.2227618072928
 20
452.533756462861
 30
0.0
 42
0.1483030456011378
  0
VERTEX
  5
2A20
330
2A1C
100
AcDbEntity
  8
SCHRAFF
100
AcDbVertex
100
AcDb2dVertex
 10
507.9922721289943
 20
452.766697054032
 30
0.0
 42
0.1483030456011519
 70
     1
  0
VERTEX
  5
2A21
330
2A1C
100
AcDbEntity
  8
SCHRAFF
100
AcDbVertex
100
AcDb2dVertex
 10
508.5027618072928
 20
453.387831292801
 30
0.0
  0
SEQEND
  5
2A22
330
2A1C
100
AcDbEntity
  8
SCHRAFF
  0
POLYLINE
  5
2A23
330
1E
100
AcDbEntity
  8
SCHRAFF
100
AcDb2dPolyline
 66
     1
 10
0.0
 20
0.0
 30
0.0
 70
     2
  0
VERTEX
  5
2A24
330
2A23
100
AcDbEntity
  8
SCHRAFF
100
AcDbVertex
100
AcDb2dVertex
 10
505.9441916656896
 20
458.387831292801
 30
0.0
 42
0.1481711738912995
  0
VERTEX
  5
2A25
330
2A23
100
AcDbEntity
  8
SCHRAFF
100
AcDbVertex
100
AcDb2dVertex
 10
506.454086748394
 20
457.7670940173455
 30
0.0
 42
0.1481711738912668
 70
     1
  0
VERTEX
  5
2A26
330
2A23
100
AcDbEntity
  8
SCHRAFF
100
AcDbVertex
100
AcDb2dVertex
 10
507.2227618072928
 20
457.5337564628609
 30
0.0
 42
0.1483030456011378
  0
VERTEX
  5
2A27
330
2A23
100
AcDbEntity
  8
SCHRAFF
100
AcDbVertex
100
AcDb2dVertex
 10
507.9922721289943
 20
457.7666970540319
 30
0.0
 42
0.1483030456011519
 70
     1
  0
VERTEX
  5
2A28
330
2A23
100
AcDbEntity
  8
SCHRAFF
100
AcDbVertex
100
AcDb2dVertex
 10
508.5027618072928
 20
458.387831292801
 30
0.0
  0
SEQEND
  5
2A29
330
2A23
100
AcDbEntity
  8
SCHRAFF
  0
POLYLINE
  5
2A2A
330
1E
100
AcDbEntity
  8
SCHRAFF
100
AcDb2dPolyline
 66
     1
 10
0.0
 20
0.0
 30
0.0
 70
     2
  0
VERTEX
  5
2A2B
330
2A2A
100
AcDbEntity
  8
SCHRAFF
100
AcDbVertex
100
AcDb2dVertex
 10
505.9441916656896
 20
443.387831292801
 30
0.0
 42
0.1481711738912995
  0
VERTEX
  5
2A2C
330
2A2A
100
AcDbEntity
  8
SCHRAFF
100
AcDbVertex
100
AcDb2dVertex
 10
506.454086748394
 20
442.7670940173455
 30
0.0
 42
0.1481711738912668
 70
     1
  0
VERTEX
  5
2A2D
330
2A2A
100
AcDbEntity
  8
SCHRAFF
100
AcDbVertex
100
AcDb2dVertex
 10
507.2227618072928
 20
442.533756462861
 30
0.0
 42
0.1483030456011378
  0
VERTEX
  5
2A2E
330
2A2A
100
AcDbEntity
  8
SCHRAFF
100
AcDbVertex
100
AcDb2dVertex
 10
507.9922721289943
 20
442.7666970540319
 30
0.0
 42
0.1483030456011519
 70
     1
  0
VERTEX
  5
2A2F
330
2A2A
100
AcDbEntity
  8
SCHRAFF
100
AcDbVertex
100
AcDb2dVertex
 10
508.5027618072928
 20
443.387831292801
 30
0.0
  0
SEQEND
  5
2A30
330
2A2A
100
AcDbEntity
  8
SCHRAFF
  0
POLYLINE
  5
2A31
330
1E
100
AcDbEntity
  8
SCHRAFF
100
AcDb2dPolyline
 66
     1
 10
0.0
 20
0.0
 30
0.0
 70
     2
  0
VERTEX
  5
2A32
330
2A31
100
AcDbEntity
  8
SCHRAFF
100
AcDbVertex
100
AcDb2dVertex
 10
505.9441916656896
 20
438.387831292801
 30
0.0
 42
0.1481711738912995
  0
VERTEX
  5
2A33
330
2A31
100
AcDbEntity
  8
SCHRAFF
100
AcDbVertex
100
AcDb2dVertex
 10
506.454086748394
 20
437.7670940173455
 30
0.0
 42
0.1481711738912668
 70
     1
  0
VERTEX
  5
2A34
330
2A31
100
AcDbEntity
  8
SCHRAFF
100
AcDbVertex
100
AcDb2dVertex
 10
507.2227618072928
 20
437.5337564628609
 30
0.0
 42
0.1483030456011378
  0
VERTEX
  5
2A35
330
2A31
100
AcDbEntity
  8
SCHRAFF
100
AcDbVertex
100
AcDb2dVertex
 10
507.9922721289943
 20
437.7666970540319
 30
0.0
 42
0.1483030456011519
 70
     1
  0
VERTEX
  5
2A36
330
2A31
100
AcDbEntity
  8
SCHRAFF
100
AcDbVertex
100
AcDb2dVertex
 10
508.5027618072928
 20
438.387831292801
 30
0.0
  0
SEQEND
  5
2A37
330
2A31
100
AcDbEntity
  8
SCHRAFF
  0
POLYLINE
  5
2A38
330
1E
100
AcDbEntity
  8
SCHRAFF
100
AcDb2dPolyline
 66
     1
 10
0.0
 20
0.0
 30
0.0
 70
     2
  0
VERTEX
  5
2A39
330
2A38
100
AcDbEntity
  8
SCHRAFF
100
AcDbVertex
100
AcDb2dVertex
 10
505.9441916656896
 20
448.387831292801
 30
0.0
 42
0.1481711738912995
  0
VERTEX
  5
2A3A
330
2A38
100
AcDbEntity
  8
SCHRAFF
100
AcDbVertex
100
AcDb2dVertex
 10
506.454086748394
 20
447.7670940173456
 30
0.0
 42
0.1481711738912668
 70
     1
  0
VERTEX
  5
2A3B
330
2A38
100
AcDbEntity
  8
SCHRAFF
100
AcDbVertex
100
AcDb2dVertex
 10
507.2227618072928
 20
447.533756462861
 30
0.0
 42
0.1483030456011378
  0
VERTEX
  5
2A3C
330
2A38
100
AcDbEntity
  8
SCHRAFF
100
AcDbVertex
100
AcDb2dVertex
 10
507.9922721289943
 20
447.7666970540319
 30
0.0
 42
0.1483030456011519
 70
     1
  0
VERTEX
  5
2A3D
330
2A38
100
AcDbEntity
  8
SCHRAFF
100
AcDbVertex
100
AcDb2dVertex
 10
508.5027618072928
 20
448.387831292801
 30
0.0
  0
SEQEND
  5
2A3E
330
2A38
100
AcDbEntity
  8
SCHRAFF
  0
POLYLINE
  5
2A3F
330
1E
100
AcDbEntity
  8
SCHRAFF
100
AcDb2dPolyline
 66
     1
 10
0.0
 20
0.0
 30
0.0
 70
     2
  0
VERTEX
  5
2A40
330
2A3F
100
AcDbEntity
  8
SCHRAFF
100
AcDbVertex
100
AcDb2dVertex
 10
505.9441916656896
 20
433.387831292801
 30
0.0
 42
0.1481711738912995
  0
VERTEX
  5
2A41
330
2A3F
100
AcDbEntity
  8
SCHRAFF
100
AcDbVertex
100
AcDb2dVertex
 10
506.454086748394
 20
432.7670940173455
 30
0.0
 42
0.1481711738912668
 70
     1
  0
VERTEX
  5
2A42
330
2A3F
100
AcDbEntity
  8
SCHRAFF
100
AcDbVertex
100
AcDb2dVertex
 10
507.2227618072928
 20
432.5337564628609
 30
0.0
 42
0.1483030456011378
  0
VERTEX
  5
2A43
330
2A3F
100
AcDbEntity
  8
SCHRAFF
100
AcDbVertex
100
AcDb2dVertex
 10
507.9922721289943
 20
432.7666970540319
 30
0.0
 42
0.1483030456011519
 70
     1
  0
VERTEX
  5
2A44
330
2A3F
100
AcDbEntity
  8
SCHRAFF
100
AcDbVertex
100
AcDb2dVertex
 10
508.5027618072928
 20
433.387831292801
 30
0.0
  0
SEQEND
  5
2A45
330
2A3F
100
AcDbEntity
  8
SCHRAFF
  0
POLYLINE
  5
2A46
330
1E
100
AcDbEntity
  8
SCHRAFF
100
AcDb2dPolyline
 66
     1
 10
0.0
 20
0.0
 30
0.0
 70
     2
  0
VERTEX
  5
2A47
330
2A46
100
AcDbEntity
  8
SCHRAFF
100
AcDbVertex
100
AcDb2dVertex
 10
505.9441916656896
 20
428.387831292801
 30
0.0
 42
0.1481711738912995
  0
VERTEX
  5
2A48
330
2A46
100
AcDbEntity
  8
SCHRAFF
100
AcDbVertex
100
AcDb2dVertex
 10
506.454086748394
 20
427.7670940173456
 30
0.0
 42
0.1481711738912668
 70
     1
  0
VERTEX
  5
2A49
330
2A46
100
AcDbEntity
  8
SCHRAFF
100
AcDbVertex
100
AcDb2dVertex
 10
507.2227618072928
 20
427.533756462861
 30
0.0
 42
0.1483030456011378
  0
VERTEX
  5
2A4A
330
2A46
100
AcDbEntity
  8
SCHRAFF
100
AcDbVertex
100
AcDb2dVertex
 10
507.9922721289943
 20
427.766697054032
 30
0.0
 42
0.1483030456011519
 70
     1
  0
VERTEX
  5
2A4B
330
2A46
100
AcDbEntity
  8
SCHRAFF
100
AcDbVertex
100
AcDb2dVertex
 10
508.5027618072928
 20
428.387831292801
 30
0.0
  0
SEQEND
  5
2A4C
330
2A46
100
AcDbEntity
  8
SCHRAFF
  0
POLYLINE
  5
2A4D
330
1E
100
AcDbEntity
  8
SCHRAFF
100
AcDb2dPolyline
 66
     1
 10
0.0
 20
0.0
 30
0.0
 70
     2
  0
VERTEX
  5
2A4E
330
2A4D
100
AcDbEntity
  8
SCHRAFF
100
AcDbVertex
100
AcDb2dVertex
 10
505.9441916656896
 20
418.387831292801
 30
0.0
 42
0.1481711738912995
  0
VERTEX
  5
2A4F
330
2A4D
100
AcDbEntity
  8
SCHRAFF
100
AcDbVertex
100
AcDb2dVertex
 10
506.454086748394
 20
417.7670940173455
 30
0.0
 42
0.1481711738912668
 70
     1
  0
VERTEX
  5
2A50
330
2A4D
100
AcDbEntity
  8
SCHRAFF
100
AcDbVertex
100
AcDb2dVertex
 10
507.2227618072928
 20
417.533756462861
 30
0.0
 42
0.1483030456011378
  0
VERTEX
  5
2A51
330
2A4D
100
AcDbEntity
  8
SCHRAFF
100
AcDbVertex
100
AcDb2dVertex
 10
507.9922721289943
 20
417.7666970540319
 30
0.0
 42
0.1483030456011519
 70
     1
  0
VERTEX
  5
2A52
330
2A4D
100
AcDbEntity
  8
SCHRAFF
100
AcDbVertex
100
AcDb2dVertex
 10
508.5027618072928
 20
418.387831292801
 30
0.0
  0
SEQEND
  5
2A53
330
2A4D
100
AcDbEntity
  8
SCHRAFF
  0
POLYLINE
  5
2A54
330
1E
100
AcDbEntity
  8
SCHRAFF
100
AcDb2dPolyline
 66
     1
 10
0.0
 20
0.0
 30
0.0
 70
     2
  0
VERTEX
  5
2A55
330
2A54
100
AcDbEntity
  8
SCHRAFF
100
AcDbVertex
100
AcDb2dVertex
 10
505.9441916656896
 20
423.387831292801
 30
0.0
 42
0.1481711738912995
  0
VERTEX
  5
2A56
330
2A54
100
AcDbEntity
  8
SCHRAFF
100
AcDbVertex
100
AcDb2dVertex
 10
506.454086748394
 20
422.7670940173456
 30
0.0
 42
0.1481711738912668
 70
     1
  0
VERTEX
  5
2A57
330
2A54
100
AcDbEntity
  8
SCHRAFF
100
AcDbVertex
100
AcDb2dVertex
 10
507.2227618072928
 20
422.533756462861
 30
0.0
 42
0.1483030456011378
  0
VERTEX
  5
2A58
330
2A54
100
AcDbEntity
  8
SCHRAFF
100
AcDbVertex
100
AcDb2dVertex
 10
507.9922721289943
 20
422.7666970540319
 30
0.0
 42
0.1483030456011519
 70
     1
  0
VERTEX
  5
2A59
330
2A54
100
AcDbEntity
  8
SCHRAFF
100
AcDbVertex
100
AcDb2dVertex
 10
508.5027618072928
 20
423.387831292801
 30
0.0
  0
SEQEND
  5
2A5A
330
2A54
100
AcDbEntity
  8
SCHRAFF
  0
POLYLINE
  5
2A5B
330
1E
100
AcDbEntity
  8
SCHRAFF
100
AcDb2dPolyline
 66
     1
 10
0.0
 20
0.0
 30
0.0
 70
     2
  0
VERTEX
  5
2A5C
330
2A5B
100
AcDbEntity
  8
SCHRAFF
100
AcDbVertex
100
AcDb2dVertex
 10
505.9441916656896
 20
408.387831292801
 30
0.0
 42
0.1481711738912995
  0
VERTEX
  5
2A5D
330
2A5B
100
AcDbEntity
  8
SCHRAFF
100
AcDbVertex
100
AcDb2dVertex
 10
506.454086748394
 20
407.7670940173455
 30
0.0
 42
0.1481711738912668
 70
     1
  0
VERTEX
  5
2A5E
330
2A5B
100
AcDbEntity
  8
SCHRAFF
100
AcDbVertex
100
AcDb2dVertex
 10
507.2227618072928
 20
407.5337564628609
 30
0.0
 42
0.1483030456011378
  0
VERTEX
  5
2A5F
330
2A5B
100
AcDbEntity
  8
SCHRAFF
100
AcDbVertex
100
AcDb2dVertex
 10
507.9922721289943
 20
407.7666970540319
 30
0.0
 42
0.1483030456011519
 70
     1
  0
VERTEX
  5
2A60
330
2A5B
100
AcDbEntity
  8
SCHRAFF
100
AcDbVertex
100
AcDb2dVertex
 10
508.5027618072928
 20
408.387831292801
 30
0.0
  0
SEQEND
  5
2A61
330
2A5B
100
AcDbEntity
  8
SCHRAFF
  0
POLYLINE
  5
2A62
330
1E
100
AcDbEntity
  8
SCHRAFF
100
AcDb2dPolyline
 66
     1
 10
0.0
 20
0.0
 30
0.0
 70
     2
  0
VERTEX
  5
2A63
330
2A62
100
AcDbEntity
  8
SCHRAFF
100
AcDbVertex
100
AcDb2dVertex
 10
505.9441916656896
 20
403.387831292801
 30
0.0
 42
0.1481711738912995
  0
VERTEX
  5
2A64
330
2A62
100
AcDbEntity
  8
SCHRAFF
100
AcDbVertex
100
AcDb2dVertex
 10
506.454086748394
 20
402.7670940173456
 30
0.0
 42
0.1481711738912668
 70
     1
  0
VERTEX
  5
2A65
330
2A62
100
AcDbEntity
  8
SCHRAFF
100
AcDbVertex
100
AcDb2dVertex
 10
507.2227618072928
 20
402.533756462861
 30
0.0
 42
0.1483030456011378
  0
VERTEX
  5
2A66
330
2A62
100
AcDbEntity
  8
SCHRAFF
100
AcDbVertex
100
AcDb2dVertex
 10
507.9922721289943
 20
402.766697054032
 30
0.0
 42
0.1483030456011519
 70
     1
  0
VERTEX
  5
2A67
330
2A62
100
AcDbEntity
  8
SCHRAFF
100
AcDbVertex
100
AcDb2dVertex
 10
508.5027618072928
 20
403.387831292801
 30
0.0
  0
SEQEND
  5
2A68
330
2A62
100
AcDbEntity
  8
SCHRAFF
  0
POLYLINE
  5
2A69
330
1E
100
AcDbEntity
  8
SCHRAFF
100
AcDb2dPolyline
 66
     1
 10
0.0
 20
0.0
 30
0.0
 70
     2
  0
VERTEX
  5
2A6A
330
2A69
100
AcDbEntity
  8
SCHRAFF
100
AcDbVertex
100
AcDb2dVertex
 10
505.9441916656896
 20
393.387831292801
 30
0.0
 42
0.1481711738912995
  0
VERTEX
  5
2A6B
330
2A69
100
AcDbEntity
  8
SCHRAFF
100
AcDbVertex
100
AcDb2dVertex
 10
506.454086748394
 20
392.7670940173456
 30
0.0
 42
0.1481711738912668
 70
     1
  0
VERTEX
  5
2A6C
330
2A69
100
AcDbEntity
  8
SCHRAFF
100
AcDbVertex
100
AcDb2dVertex
 10
507.2227618072928
 20
392.533756462861
 30
0.0
 42
0.1483030456011378
  0
VERTEX
  5
2A6D
330
2A69
100
AcDbEntity
  8
SCHRAFF
100
AcDbVertex
100
AcDb2dVertex
 10
507.9922721289943
 20
392.766697054032
 30
0.0
 42
0.1483030456011519
 70
     1
  0
VERTEX
  5
2A6E
330
2A69
100
AcDbEntity
  8
SCHRAFF
100
AcDbVertex
100
AcDb2dVertex
 10
508.5027618072928
 20
393.387831292801
 30
0.0
  0
SEQEND
  5
2A6F
330
2A69
100
AcDbEntity
  8
SCHRAFF
  0
POLYLINE
  5
2A70
330
1E
100
AcDbEntity
  8
SCHRAFF
100
AcDb2dPolyline
 66
     1
 10
0.0
 20
0.0
 30
0.0
 70
     2
  0
VERTEX
  5
2A71
330
2A70
100
AcDbEntity
  8
SCHRAFF
100
AcDbVertex
100
AcDb2dVertex
 10
505.9441916656896
 20
398.387831292801
 30
0.0
 42
0.1481711738912995
  0
VERTEX
  5
2A72
330
2A70
100
AcDbEntity
  8
SCHRAFF
100
AcDbVertex
100
AcDb2dVertex
 10
506.454086748394
 20
397.7670940173456
 30
0.0
 42
0.1481711738912668
 70
     1
  0
VERTEX
  5
2A73
330
2A70
100
AcDbEntity
  8
SCHRAFF
100
AcDbVertex
100
AcDb2dVertex
 10
507.2227618072928
 20
397.533756462861
 30
0.0
 42
0.1483030456011378
  0
VERTEX
  5
2A74
330
2A70
100
AcDbEntity
  8
SCHRAFF
100
AcDbVertex
100
AcDb2dVertex
 10
507.9922721289943
 20
397.766697054032
 30
0.0
 42
0.1483030456011519
 70
     1
  0
VERTEX
  5
2A75
330
2A70
100
AcDbEntity
  8
SCHRAFF
100
AcDbVertex
100
AcDb2dVertex
 10
508.5027618072928
 20
398.387831292801
 30
0.0
  0
SEQEND
  5
2A76
330
2A70
100
AcDbEntity
  8
SCHRAFF
  0
POLYLINE
  5
2A77
330
1E
100
AcDbEntity
  8
SCHRAFF
100
AcDb2dPolyline
 66
     1
 10
0.0
 20
0.0
 30
0.0
 70
     2
  0
VERTEX
  5
2A78
330
2A77
100
AcDbEntity
  8
SCHRAFF
100
AcDbVertex
100
AcDb2dVertex
 10
505.9441916656896
 20
413.3878312928009
 30
0.0
 42
0.1481711738912995
  0
VERTEX
  5
2A79
330
2A77
100
AcDbEntity
  8
SCHRAFF
100
AcDbVertex
100
AcDb2dVertex
 10
506.454086748394
 20
412.7670940173455
 30
0.0
 42
0.1481711738912668
 70
     1
  0
VERTEX
  5
2A7A
330
2A77
100
AcDbEntity
  8
SCHRAFF
100
AcDbVertex
100
AcDb2dVertex
 10
507.2227618072928
 20
412.5337564628609
 30
0.0
 42
0.1483030456011378
  0
VERTEX
  5
2A7B
330
2A77
100
AcDbEntity
  8
SCHRAFF
100
AcDbVertex
100
AcDb2dVertex
 10
507.9922721289943
 20
412.7666970540319
 30
0.0
 42
0.1483030456011519
 70
     1
  0
VERTEX
  5
2A7C
330
2A77
100
AcDbEntity
  8
SCHRAFF
100
AcDbVertex
100
AcDb2dVertex
 10
508.5027618072928
 20
413.3878312928009
 30
0.0
  0
SEQEND
  5
2A7D
330
2A77
100
AcDbEntity
  8
SCHRAFF
  0
POLYLINE
  5
2A7E
330
1E
100
AcDbEntity
  8
SCHRAFF
100
AcDb2dPolyline
 66
     1
 10
0.0
 20
0.0
 30
0.0
 70
     2
  0
VERTEX
  5
2A7F
330
2A7E
100
AcDbEntity
  8
SCHRAFF
100
AcDbVertex
100
AcDb2dVertex
 10
505.9441916656896
 20
383.387831292801
 30
0.0
 42
0.1481711738912995
  0
VERTEX
  5
2A80
330
2A7E
100
AcDbEntity
  8
SCHRAFF
100
AcDbVertex
100
AcDb2dVertex
 10
506.454086748394
 20
382.7670940173456
 30
0.0
 42
0.1481711738912668
 70
     1
  0
VERTEX
  5
2A81
330
2A7E
100
AcDbEntity
  8
SCHRAFF
100
AcDbVertex
100
AcDb2dVertex
 10
507.2227618072928
 20
382.533756462861
 30
0.0
 42
0.1483030456011378
  0
VERTEX
  5
2A82
330
2A7E
100
AcDbEntity
  8
SCHRAFF
100
AcDbVertex
100
AcDb2dVertex
 10
507.9922721289943
 20
382.766697054032
 30
0.0
 42
0.1483030456011519
 70
     1
  0
VERTEX
  5
2A83
330
2A7E
100
AcDbEntity
  8
SCHRAFF
100
AcDbVertex
100
AcDb2dVertex
 10
508.5027618072928
 20
383.387831292801
 30
0.0
  0
SEQEND
  5
2A84
330
2A7E
100
AcDbEntity
  8
SCHRAFF
  0
POLYLINE
  5
2A85
330
1E
100
AcDbEntity
  8
SCHRAFF
100
AcDb2dPolyline
 66
     1
 10
0.0
 20
0.0
 30
0.0
 70
     2
  0
VERTEX
  5
2A86
330
2A85
100
AcDbEntity
  8
SCHRAFF
100
AcDbVertex
100
AcDb2dVertex
 10
505.9441916656896
 20
388.387831292801
 30
0.0
 42
0.1481711738912995
  0
VERTEX
  5
2A87
330
2A85
100
AcDbEntity
  8
SCHRAFF
100
AcDbVertex
100
AcDb2dVertex
 10
506.454086748394
 20
387.7670940173456
 30
0.0
 42
0.1481711738912668
 70
     1
  0
VERTEX
  5
2A88
330
2A85
100
AcDbEntity
  8
SCHRAFF
100
AcDbVertex
100
AcDb2dVertex
 10
507.2227618072928
 20
387.533756462861
 30
0.0
 42
0.1483030456011378
  0
VERTEX
  5
2A89
330
2A85
100
AcDbEntity
  8
SCHRAFF
100
AcDbVertex
100
AcDb2dVertex
 10
507.9922721289943
 20
387.766697054032
 30
0.0
 42
0.1483030456011519
 70
     1
  0
VERTEX
  5
2A8A
330
2A85
100
AcDbEntity
  8
SCHRAFF
100
AcDbVertex
100
AcDb2dVertex
 10
508.5027618072928
 20
388.387831292801
 30
0.0
  0
SEQEND
  5
2A8B
330
2A85
100
AcDbEntity
  8
SCHRAFF
  0
POLYLINE
  5
2A8C
330
1E
100
AcDbEntity
  8
SCHRAFF
100
AcDb2dPolyline
 66
     1
 10
0.0
 20
0.0
 30
0.0
 70
     2
  0
VERTEX
  5
2A8D
330
2A8C
100
AcDbEntity
  8
SCHRAFF
100
AcDbVertex
100
AcDb2dVertex
 10
505.9441916656896
 20
373.387831292801
 30
0.0
 42
0.1481711738912995
  0
VERTEX
  5
2A8E
330
2A8C
100
AcDbEntity
  8
SCHRAFF
100
AcDbVertex
100
AcDb2dVertex
 10
506.454086748394
 20
372.7670940173456
 30
0.0
 42
0.1481711738912668
 70
     1
  0
VERTEX
  5
2A8F
330
2A8C
100
AcDbEntity
  8
SCHRAFF
100
AcDbVertex
100
AcDb2dVertex
 10
507.2227618072928
 20
372.533756462861
 30
0.0
 42
0.1483030456011378
  0
VERTEX
  5
2A90
330
2A8C
100
AcDbEntity
  8
SCHRAFF
100
AcDbVertex
100
AcDb2dVertex
 10
507.9922721289943
 20
372.766697054032
 30
0.0
 42
0.1483030456011519
 70
     1
  0
VERTEX
  5
2A91
330
2A8C
100
AcDbEntity
  8
SCHRAFF
100
AcDbVertex
100
AcDb2dVertex
 10
508.5027618072928
 20
373.387831292801
 30
0.0
  0
SEQEND
  5
2A92
330
2A8C
100
AcDbEntity
  8
SCHRAFF
  0
POLYLINE
  5
2A93
330
1E
100
AcDbEntity
  8
SCHRAFF
100
AcDb2dPolyline
 66
     1
 10
0.0
 20
0.0
 30
0.0
 70
     2
  0
VERTEX
  5
2A94
330
2A93
100
AcDbEntity
  8
SCHRAFF
100
AcDbVertex
100
AcDb2dVertex
 10
505.9441916656896
 20
368.387831292801
 30
0.0
 42
0.1481711738912995
  0
VERTEX
  5
2A95
330
2A93
100
AcDbEntity
  8
SCHRAFF
100
AcDbVertex
100
AcDb2dVertex
 10
506.454086748394
 20
367.7670940173456
 30
0.0
 42
0.1481711738912668
 70
     1
  0
VERTEX
  5
2A96
330
2A93
100
AcDbEntity
  8
SCHRAFF
100
AcDbVertex
100
AcDb2dVertex
 10
507.2227618072928
 20
367.533756462861
 30
0.0
 42
0.1483030456011378
  0
VERTEX
  5
2A97
330
2A93
100
AcDbEntity
  8
SCHRAFF
100
AcDbVertex
100
AcDb2dVertex
 10
507.9922721289943
 20
367.7666970540319
 30
0.0
 42
0.1483030456011519
 70
     1
  0
VERTEX
  5
2A98
330
2A93
100
AcDbEntity
  8
SCHRAFF
100
AcDbVertex
100
AcDb2dVertex
 10
508.5027618072928
 20
368.387831292801
 30
0.0
  0
SEQEND
  5
2A99
330
2A93
100
AcDbEntity
  8
SCHRAFF
  0
POLYLINE
  5
2A9A
330
1E
100
AcDbEntity
  8
SCHRAFF
100
AcDb2dPolyline
 66
     1
 10
0.0
 20
0.0
 30
0.0
 70
     2
  0
VERTEX
  5
2A9B
330
2A9A
100
AcDbEntity
  8
SCHRAFF
100
AcDbVertex
100
AcDb2dVertex
 10
505.9441916656896
 20
378.387831292801
 30
0.0
 42
0.1481711738912995
  0
VERTEX
  5
2A9C
330
2A9A
100
AcDbEntity
  8
SCHRAFF
100
AcDbVertex
100
AcDb2dVertex
 10
506.454086748394
 20
377.7670940173456
 30
0.0
 42
0.1481711738912668
 70
     1
  0
VERTEX
  5
2A9D
330
2A9A
100
AcDbEntity
  8
SCHRAFF
100
AcDbVertex
100
AcDb2dVertex
 10
507.2227618072928
 20
377.533756462861
 30
0.0
 42
0.1483030456011378
  0
VERTEX
  5
2A9E
330
2A9A
100
AcDbEntity
  8
SCHRAFF
100
AcDbVertex
100
AcDb2dVertex
 10
507.9922721289943
 20
377.766697054032
 30
0.0
 42
0.1483030456011519
 70
     1
  0
VERTEX
  5
2A9F
330
2A9A
100
AcDbEntity
  8
SCHRAFF
100
AcDbVertex
100
AcDb2dVertex
 10
508.5027618072928
 20
378.387831292801
 30
0.0
  0
SEQEND
  5
2AA0
330
2A9A
100
AcDbEntity
  8
SCHRAFF
  0
POLYLINE
  5
2AA1
330
1E
100
AcDbEntity
  8
SCHRAFF
100
AcDb2dPolyline
 66
     1
 10
0.0
 20
0.0
 30
0.0
 70
     2
  0
VERTEX
  5
2AA2
330
2AA1
100
AcDbEntity
  8
SCHRAFF
100
AcDbVertex
100
AcDb2dVertex
 10
505.9441916656896
 20
358.387831292801
 30
0.0
 42
0.1481711738912995
  0
VERTEX
  5
2AA3
330
2AA1
100
AcDbEntity
  8
SCHRAFF
100
AcDbVertex
100
AcDb2dVertex
 10
506.454086748394
 20
357.7670940173456
 30
0.0
 42
0.1481711738912668
 70
     1
  0
VERTEX
  5
2AA4
330
2AA1
100
AcDbEntity
  8
SCHRAFF
100
AcDbVertex
100
AcDb2dVertex
 10
507.2227618072928
 20
357.533756462861
 30
0.0
 42
0.1483030456011378
  0
VERTEX
  5
2AA5
330
2AA1
100
AcDbEntity
  8
SCHRAFF
100
AcDbVertex
100
AcDb2dVertex
 10
507.9922721289943
 20
357.766697054032
 30
0.0
 42
0.1483030456011519
 70
     1
  0
VERTEX
  5
2AA6
330
2AA1
100
AcDbEntity
  8
SCHRAFF
100
AcDbVertex
100
AcDb2dVertex
 10
508.5027618072928
 20
358.387831292801
 30
0.0
  0
SEQEND
  5
2AA7
330
2AA1
100
AcDbEntity
  8
SCHRAFF
  0
POLYLINE
  5
2AA8
330
1E
100
AcDbEntity
  8
SCHRAFF
100
AcDb2dPolyline
 66
     1
 10
0.0
 20
0.0
 30
0.0
 70
     2
  0
VERTEX
  5
2AA9
330
2AA8
100
AcDbEntity
  8
SCHRAFF
100
AcDbVertex
100
AcDb2dVertex
 10
505.9441916656896
 20
363.387831292801
 30
0.0
 42
0.1481711738912995
  0
VERTEX
  5
2AAA
330
2AA8
100
AcDbEntity
  8
SCHRAFF
100
AcDbVertex
100
AcDb2dVertex
 10
506.454086748394
 20
362.7670940173456
 30
0.0
 42
0.1481711738912668
 70
     1
  0
VERTEX
  5
2AAB
330
2AA8
100
AcDbEntity
  8
SCHRAFF
100
AcDbVertex
100
AcDb2dVertex
 10
507.2227618072928
 20
362.533756462861
 30
0.0
 42
0.1483030456011378
  0
VERTEX
  5
2AAC
330
2AA8
100
AcDbEntity
  8
SCHRAFF
100
AcDbVertex
100
AcDb2dVertex
 10
507.9922721289943
 20
362.766697054032
 30
0.0
 42
0.1483030456011519
 70
     1
  0
VERTEX
  5
2AAD
330
2AA8
100
AcDbEntity
  8
SCHRAFF
100
AcDbVertex
100
AcDb2dVertex
 10
508.5027618072928
 20
363.387831292801
 30
0.0
  0
SEQEND
  5
2AAE
330
2AA8
100
AcDbEntity
  8
SCHRAFF
  0
POLYLINE
  5
2AAF
330
1E
100
AcDbEntity
  8
SCHRAFF
100
AcDb2dPolyline
 66
     1
 10
0.0
 20
0.0
 30
0.0
 70
     2
  0
VERTEX
  5
2AB0
330
2AAF
100
AcDbEntity
  8
SCHRAFF
100
AcDbVertex
100
AcDb2dVertex
 10
505.9441916656896
 20
347.387831292801
 30
0.0
 42
0.1481711738912995
  0
VERTEX
  5
2AB1
330
2AAF
100
AcDbEntity
  8
SCHRAFF
100
AcDbVertex
100
AcDb2dVertex
 10
506.454086748394
 20
346.7670940173456
 30
0.0
 42
0.1481711738912668
 70
     1
  0
VERTEX
  5
2AB2
330
2AAF
100
AcDbEntity
  8
SCHRAFF
100
AcDbVertex
100
AcDb2dVertex
 10
507.2227618072928
 20
346.533756462861
 30
0.0
 42
0.1483030456011378
  0
VERTEX
  5
2AB3
330
2AAF
100
AcDbEntity
  8
SCHRAFF
100
AcDbVertex
100
AcDb2dVertex
 10
507.9922721289943
 20
346.766697054032
 30
0.0
 42
0.1483030456011519
 70
     1
  0
VERTEX
  5
2AB4
330
2AAF
100
AcDbEntity
  8
SCHRAFF
100
AcDbVertex
100
AcDb2dVertex
 10
508.5027618072928
 20
347.387831292801
 30
0.0
  0
SEQEND
  5
2AB5
330
2AAF
100
AcDbEntity
  8
SCHRAFF
  0
POLYLINE
  5
2AB6
330
1E
100
AcDbEntity
  8
SCHRAFF
100
AcDb2dPolyline
 66
     1
 10
0.0
 20
0.0
 30
0.0
 70
     2
  0
VERTEX
  5
2AB7
330
2AB6
100
AcDbEntity
  8
SCHRAFF
100
AcDbVertex
100
AcDb2dVertex
 10
505.9441916656896
 20
354.387831292801
 30
0.0
 42
0.1481711738912995
  0
VERTEX
  5
2AB8
330
2AB6
100
AcDbEntity
  8
SCHRAFF
100
AcDbVertex
100
AcDb2dVertex
 10
506.454086748394
 20
353.7670940173456
 30
0.0
 42
0.1481711738912668
 70
     1
  0
VERTEX
  5
2AB9
330
2AB6
100
AcDbEntity
  8
SCHRAFF
100
AcDbVertex
100
AcDb2dVertex
 10
507.2227618072928
 20
353.533756462861
 30
0.0
 42
0.1483030456011378
  0
VERTEX
  5
2ABA
330
2AB6
100
AcDbEntity
  8
SCHRAFF
100
AcDbVertex
100
AcDb2dVertex
 10
507.9922721289943
 20
353.766697054032
 30
0.0
 42
0.1483030456011519
 70
     1
  0
VERTEX
  5
2ABB
330
2AB6
100
AcDbEntity
  8
SCHRAFF
100
AcDbVertex
100
AcDb2dVertex
 10
508.5027618072928
 20
354.387831292801
 30
0.0
  0
SEQEND
  5
2ABC
330
2AB6
100
AcDbEntity
  8
SCHRAFF
  0
ARC
  5
2ABD
330
1E
100
AcDbEntity
  8
SCHRAFF
100
AcDbCircle
 10
549.7140329097873
 20
326.1481311724578
 30
0.0
 40
3.529611588277334
100
AcDbArc
 50
145.484122981018
 51
214.515877018982
  0
ARC
  5
2ABE
330
1E
100
AcDbEntity
  8
SCHRAFF
100
AcDbCircle
 10
548.4155210533781
 20
330.1481311724578
 30
0.0
 40
2.121320343559662
100
AcDbArc
 50
135.0
 51
225.0
  0
ARC
  5
2ABF
330
1E
100
AcDbEntity
  8
SCHRAFF
100
AcDbCircle
 10
539.7140329097872
 20
326.1481311724578
 30
0.0
 40
3.529611588277334
100
AcDbArc
 50
145.484122981018
 51
214.515877018982
  0
ARC
  5
2AC0
330
1E
100
AcDbEntity
  8
SCHRAFF
100
AcDbCircle
 10
544.7140329097873
 20
326.1481311724578
 30
0.0
 40
3.529611588277334
100
AcDbArc
 50
145.484122981018
 51
214.515877018982
  0
ARC
  5
2AC1
330
1E
100
AcDbEntity
  8
SCHRAFF
100
AcDbCircle
 10
538.4155210533781
 20
330.1481311724578
 30
0.0
 40
2.121320343559662
100
AcDbArc
 50
135.0
 51
225.0
  0
ARC
  5
2AC2
330
1E
100
AcDbEntity
  8
SCHRAFF
100
AcDbCircle
 10
543.4155210533781
 20
330.1481311724578
 30
0.0
 40
2.121320343559662
100
AcDbArc
 50
135.0
 51
225.0
  0
ARC
  5
2AC3
330
1E
100
AcDbEntity
  8
SCHRAFF
100
AcDbCircle
 10
534.7140329097872
 20
326.1481311724578
 30
0.0
 40
3.529611588277334
100
AcDbArc
 50
145.484122981018
 51
214.515877018982
  0
ARC
  5
2AC4
330
1E
100
AcDbEntity
  8
SCHRAFF
100
AcDbCircle
 10
533.4155210533781
 20
330.1481311724578
 30
0.0
 40
2.121320343559662
100
AcDbArc
 50
135.0
 51
225.0
  0
ARC
  5
2AC5
330
1E
100
AcDbEntity
  8
SCHRAFF
100
AcDbCircle
 10
524.7140329097873
 20
326.1481311724578
 30
0.0
 40
3.529611588277334
100
AcDbArc
 50
145.484122981018
 51
214.515877018982
  0
ARC
  5
2AC6
330
1E
100
AcDbEntity
  8
SCHRAFF
100
AcDbCircle
 10
523.4155210533781
 20
330.1481311724578
 30
0.0
 40
2.121320343559662
100
AcDbArc
 50
135.0
 51
225.0
  0
ARC
  5
2AC7
330
1E
100
AcDbEntity
  8
SCHRAFF
100
AcDbCircle
 10
529.7140329097873
 20
326.1481311724578
 30
0.0
 40
3.529611588277334
100
AcDbArc
 50
145.484122981018
 51
214.515877018982
  0
ARC
  5
2AC8
330
1E
100
AcDbEntity
  8
SCHRAFF
100
AcDbCircle
 10
528.4155210533781
 20
330.1481311724578
 30
0.0
 40
2.121320343559662
100
AcDbArc
 50
135.0
 51
225.0
  0
POLYLINE
  5
2AC9
330
1E
100
AcDbEntity
  8
SCHRAFF
100
AcDb2dPolyline
 66
     1
 10
0.0
 20
0.0
 30
0.0
 70
     2
  0
VERTEX
  5
2ACA
330
2AC9
100
AcDbEntity
  8
SCHRAFF
100
AcDbVertex
100
AcDb2dVertex
 10
505.9441916656896
 20
337.387831292801
 30
0.0
 42
0.1481711738912995
  0
VERTEX
  5
2ACB
330
2AC9
100
AcDbEntity
  8
SCHRAFF
100
AcDbVertex
100
AcDb2dVertex
 10
506.454086748394
 20
336.7670940173456
 30
0.0
 42
0.1481711738912668
 70
     1
  0
VERTEX
  5
2ACC
330
2AC9
100
AcDbEntity
  8
SCHRAFF
100
AcDbVertex
100
AcDb2dVertex
 10
507.2227618072928
 20
336.533756462861
 30
0.0
 42
0.1483030456011378
  0
VERTEX
  5
2ACD
330
2AC9
100
AcDbEntity
  8
SCHRAFF
100
AcDbVertex
100
AcDb2dVertex
 10
507.9922721289943
 20
336.766697054032
 30
0.0
 42
0.1483030456011519
 70
     1
  0
VERTEX
  5
2ACE
330
2AC9
100
AcDbEntity
  8
SCHRAFF
100
AcDbVertex
100
AcDb2dVertex
 10
508.5027618072928
 20
337.387831292801
 30
0.0
  0
SEQEND
  5
2ACF
330
2AC9
100
AcDbEntity
  8
SCHRAFF
  0
POLYLINE
  5
2AD0
330
1E
100
AcDbEntity
  8
SCHRAFF
100
AcDb2dPolyline
 66
     1
 10
0.0
 20
0.0
 30
0.0
 70
     2
  0
VERTEX
  5
2AD1
330
2AD0
100
AcDbEntity
  8
SCHRAFF
100
AcDbVertex
100
AcDb2dVertex
 10
505.9441916656896
 20
342.387831292801
 30
0.0
 42
0.1481711738912995
  0
VERTEX
  5
2AD2
330
2AD0
100
AcDbEntity
  8
SCHRAFF
100
AcDbVertex
100
AcDb2dVertex
 10
506.454086748394
 20
341.7670940173456
 30
0.0
 42
0.1481711738912668
 70
     1
  0
VERTEX
  5
2AD3
330
2AD0
100
AcDbEntity
  8
SCHRAFF
100
AcDbVertex
100
AcDb2dVertex
 10
507.2227618072928
 20
341.533756462861
 30
0.0
 42
0.1483030456011378
  0
VERTEX
  5
2AD4
330
2AD0
100
AcDbEntity
  8
SCHRAFF
100
AcDbVertex
100
AcDb2dVertex
 10
507.9922721289943
 20
341.766697054032
 30
0.0
 42
0.1483030456011519
 70
     1
  0
VERTEX
  5
2AD5
330
2AD0
100
AcDbEntity
  8
SCHRAFF
100
AcDbVertex
100
AcDb2dVertex
 10
508.5027618072928
 20
342.387831292801
 30
0.0
  0
SEQEND
  5
2AD6
330
2AD0
100
AcDbEntity
  8
SCHRAFF
  0
ARC
  5
2AD7
102
{ACAD_REACTORS
330
2F43
102
}
330
1E
100
AcDbEntity
  8
SCHRAFF
100
AcDbCircle
 10
517.9531753823185
 20
328.1481311724577
 30
0.0
 40
3.933404693797342
100
AcDbArc
 50
180.0
 51
270.0
  0
ARC
  5
2AD8
330
1E
100
AcDbEntity
  8
SCHRAFF
100
AcDbCircle
 10
513.4155210533781
 20
330.1481311724578
 30
0.0
 40
2.121320343559662
100
AcDbArc
 50
135.0
 51
225.0
  0
ARC
  5
2AD9
330
1E
100
AcDbEntity
  8
SCHRAFF
100
AcDbCircle
 10
518.4155210533781
 20
330.1481311724578
 30
0.0
 40
2.121320343559662
100
AcDbArc
 50
135.0
 51
225.0
  0
ARC
  5
2ADA
330
1E
100
AcDbEntity
  8
SCHRAFF
100
AcDbCircle
 10
508.4155210533781
 20
330.1481311724578
 30
0.0
 40
2.121320343559662
100
AcDbArc
 50
135.0
 51
225.0
  0
POLYLINE
  5
2ADB
330
1E
100
AcDbEntity
  8
SCHRAFF
100
AcDb2dPolyline
 66
     1
 10
0.0
 20
0.0
 30
0.0
 70
     2
  0
VERTEX
  5
2ADC
330
2ADB
100
AcDbEntity
  8
SCHRAFF
100
AcDbVertex
100
AcDb2dVertex
 10
505.9441916656896
 20
332.387831292801
 30
0.0
 42
0.1481711738912995
  0
VERTEX
  5
2ADD
330
2ADB
100
AcDbEntity
  8
SCHRAFF
100
AcDbVertex
100
AcDb2dVertex
 10
506.454086748394
 20
331.7670940173456
 30
0.0
 42
0.1481711738912668
 70
     1
  0
VERTEX
  5
2ADE
330
2ADB
100
AcDbEntity
  8
SCHRAFF
100
AcDbVertex
100
AcDb2dVertex
 10
507.2227618072928
 20
331.533756462861
 30
0.0
 42
0.1483030456011378
  0
VERTEX
  5
2ADF
330
2ADB
100
AcDbEntity
  8
SCHRAFF
100
AcDbVertex
100
AcDb2dVertex
 10
507.9922721289943
 20
331.766697054032
 30
0.0
 42
0.1483030456011519
 70
     1
  0
VERTEX
  5
2AE0
330
2ADB
100
AcDbEntity
  8
SCHRAFF
100
AcDbVertex
100
AcDb2dVertex
 10
508.5027618072928
 20
332.387831292801
 30
0.0
  0
SEQEND
  5
2AE1
330
2ADB
100
AcDbEntity
  8
SCHRAFF
  0
ARC
  5
2AE2
330
1E
100
AcDbEntity
  8
SCHRAFF
100
AcDbCircle
 10
503.4155210533781
 20
330.1481311724578
 30
0.0
 40
2.121320343559662
100
AcDbArc
 50
135.0
 51
225.0
  0
ARC
  5
2AE3
330
1E
100
AcDbEntity
  8
SCHRAFF
100
AcDbCircle
 10
498.4155210533781
 20
330.1481311724578
 30
0.0
 40
2.121320343559662
100
AcDbArc
 50
135.0
 51
225.0
  0
ARC
  5
2AE4
330
1E
100
AcDbEntity
  8
SCHRAFF
100
AcDbCircle
 10
493.4155210533781
 20
330.1481311724578
 30
0.0
 40
2.121320343559662
100
AcDbArc
 50
135.0
 51
225.0
  0
ARC
  5
2AE5
330
1E
100
AcDbEntity
  8
SCHRAFF
100
AcDbCircle
 10
489.9155210533781
 20
330.1481311724578
 30
0.0
 40
2.121320343559662
100
AcDbArc
 50
135.0
 51
225.0
  0
LINE
  5
2AE6
330
1E
100
AcDbEntity
  8
STEMPEL
100
AcDbLine
 10
484.9531753823185
 20
328.6481311724577
 30
0.0
 11
484.9531753823185
 21
328.1481311724578
 31
0.0
  0
ARC
  5
2AE7
102
{ACAD_REACTORS
330
2F3C
102
}
330
1E
100
AcDbEntity
  8
SCHRAFF
100
AcDbCircle
 10
486.4531753823184
 20
330.1481311724578
 30
0.0
 40
2.121320343559662
100
AcDbArc
 50
135.0
 51
225.0
  0
LINE
  5
2AE8
102
{ACAD_REACTORS
330
2F3C
102
}
330
1E
100
AcDbEntity
  8
STEMPEL
100
AcDbLine
 10
486.4531753823184
 20
330.1481311724578
 30
0.0
 11
484.9531753823185
 21
328.6481311724577
 31
0.0
  0
LINE
  5
2AE9
102
{ACAD_REACTORS
330
2F3C
102
}
330
1E
100
AcDbEntity
  8
STEMPEL
100
AcDbLine
 10
484.9531753823185
 20
331.6481311724577
 30
0.0
 11
486.4531753823184
 21
330.1481311724578
 31
0.0
  0
LINE
  5
2AEB
102
{ACAD_REACTORS
330
2F43
102
}
330
1E
100
AcDbEntity
  8
STEMPEL
100
AcDbLine
 10
484.9531753823185
 20
328.1481311724578
 30
0.0
 11
652.9531753823184
 21
328.1481311724578
 31
0.0
  0
LINE
  5
2AEC
330
1E
100
AcDbEntity
  8
STEMPEL
100
AcDbLine
 10
486.4531753823185
 20
330.1481311724578
 30
0.0
 11
651.4531753823185
 21
330.1481311724578
 31
0.0
  0
ARC
  5
2AEE
330
1E
100
AcDbEntity
  8
SCHRAFF
100
AcDbCircle
 10
554.7140329097873
 20
326.1481311724578
 30
0.0
 40
3.529611588277334
100
AcDbArc
 50
145.484122981018
 51
214.515877018982
  0
LINE
  5
2AEF
330
1E
100
AcDbEntity
  8
MITTEL
100
AcDbLine
 10
509.8531753823185
 20
451.1481311724576
 30
0.0
 11
628.0531753823184
 21
451.1481311724576
 31
0.0
  0
CIRCLE
  5
2AF0
330
1E
100
AcDbEntity
  8
STEMPEL
100
AcDbCircle
 10
568.9531753823184
 20
451.1481311724576
 30
0.0
 40
53.5
  0
CIRCLE
  5
2AF1
330
1E
100
AcDbEntity
  8
STEMPEL
100
AcDbCircle
 10
568.9531753823184
 20
451.1481311724576
 30
0.0
 40
52.0
  0
LINE
  5
2AF2
330
1E
100
AcDbEntity
  8
STEMPEL
100
AcDbLine
 10
652.9531753823187
 20
531.1481311724578
 30
0.0
 11
652.9531753823182
 21
331.6481311724577
 31
0.0
  0
LINE
  5
2AF3
330
1E
100
AcDbEntity
  8
STEMPEL
100
AcDbLine
 10
484.9531753823185
 20
531.148131172458
 30
0.0
 11
484.9531753823185
 21
331.6481311724579
 31
0.0
  0
LINE
  5
2AF4
330
1E
100
AcDbEntity
  8
VERDECKT
100
AcDbLine
 10
486.9531753823184
 20
531.148131172458
 30
0.0
 11
486.9531753823184
 21
330.1481311724578
 31
0.0
  0
LINE
  5
2AF5
330
1E
100
AcDbEntity
  8
VERDECKT
100
AcDbLine
 10
650.9531753823185
 20
531.1481311724578
 30
0.0
 11
650.9531753823182
 21
330.1481311724578
 31
0.0
  0
LINE
  5
2AF6
330
1E
100
AcDbEntity
  8
STEMPEL
100
AcDbLine
 10
507.8339839973241
 20
533.1481311724578
 30
0.0
 11
507.8339839973242
 21
330.1481311724578
 31
0.0
  0
LINE
  5
2AF7
330
1E
100
AcDbEntity
  8
STEMPEL
100
AcDbLine
 10
630.0723667673126
 20
533.1481311724577
 30
0.0
 11
630.0723667673127
 21
330.1481311724578
 31
0.0
  0
POLYLINE
  5
2AF8
330
1E
100
AcDbEntity
  8
SCHRAFF
100
AcDb2dPolyline
 66
     1
 10
0.0
 20
0.0
 30
0.0
 70
     2
  0
VERTEX
  5
2AF9
330
2AF8
100
AcDbEntity
  8
SCHRAFF
100
AcDbVertex
100
AcDb2dVertex
 10
631.9621590989473
 20
483.387831292801
 30
0.0
 42
-0.1481711738912995
  0
VERTEX
  5
2AFA
330
2AF8
100
AcDbEntity
  8
SCHRAFF
100
AcDbVertex
100
AcDb2dVertex
 10
631.4522640162429
 20
482.7670940173455
 30
0.0
 42
-0.1481711738912668
 70
     1
  0
VERTEX
  5
2AFB
330
2AF8
100
AcDbEntity
  8
SCHRAFF
100
AcDbVertex
100
AcDb2dVertex
 10
630.6835889573441
 20
482.5337564628609
 30
0.0
 42
-0.1483030456011378
  0
VERTEX
  5
2AFC
330
2AF8
100
AcDbEntity
  8
SCHRAFF
100
AcDbVertex
100
AcDb2dVertex
 10
629.9140786356426
 20
482.7666970540319
 30
0.0
 42
-0.1483030456011519
 70
     1
  0
VERTEX
  5
2AFD
330
2AF8
100
AcDbEntity
  8
SCHRAFF
100
AcDbVertex
100
AcDb2dVertex
 10
629.4035889573441
 20
483.387831292801
 30
0.0
  0
SEQEND
  5
2AFE
330
2AF8
100
AcDbEntity
  8
SCHRAFF
  0
POLYLINE
  5
2AFF
330
1E
100
AcDbEntity
  8
SCHRAFF
100
AcDb2dPolyline
 66
     1
 10
0.0
 20
0.0
 30
0.0
 70
     2
  0
VERTEX
  5
2B00
330
2AFF
100
AcDbEntity
  8
SCHRAFF
100
AcDbVertex
100
AcDb2dVertex
 10
505.9441916656896
 20
483.387831292801
 30
0.0
 42
0.1481711738912995
  0
VERTEX
  5
2B01
330
2AFF
100
AcDbEntity
  8
SCHRAFF
100
AcDbVertex
100
AcDb2dVertex
 10
506.454086748394
 20
482.7670940173455
 30
0.0
 42
0.1481711738912668
 70
     1
  0
VERTEX
  5
2B02
330
2AFF
100
AcDbEntity
  8
SCHRAFF
100
AcDbVertex
100
AcDb2dVertex
 10
507.2227618072928
 20
482.5337564628609
 30
0.0
 42
0.1483030456011378
  0
VERTEX
  5
2B03
330
2AFF
100
AcDbEntity
  8
SCHRAFF
100
AcDbVertex
100
AcDb2dVertex
 10
507.9922721289943
 20
482.7666970540319
 30
0.0
 42
0.1483030456011519
 70
     1
  0
VERTEX
  5
2B04
330
2AFF
100
AcDbEntity
  8
SCHRAFF
100
AcDbVertex
100
AcDb2dVertex
 10
508.5027618072928
 20
483.387831292801
 30
0.0
  0
SEQEND
  5
2B05
330
2AFF
100
AcDbEntity
  8
SCHRAFF
  0
LINE
  5
2B06
330
1E
100
AcDbEntity
  8
STEMPEL
100
AcDbLine
 10
619.9531753823184
 20
251.1481311724578
 30
0.0
 11
619.2532660741111
 21
243.1481311724577
 31
0.0
  0
LINE
  5
2B07
330
1E
100
AcDbEntity
  8
STEMPEL
100
AcDbLine
 10
517.9531753823185
 20
251.1481311724578
 30
0.0
 11
518.6530846905259
 21
243.1481311724577
 31
0.0
  0
DIMENSION
  5
2B08
330
1E
100
AcDbEntity
  8
BEM
100
AcDbDimension
  2
*D6
 10
619.9531753823184
 20
221.5944010979209
 30
0.0
 11
568.9531753823184
 21
228.0944010979208
 31
0.0
 70
    32
  1
%%c<>
 71
     5
 42
101.9999999999999
  3
Standard
100
AcDbAlignedDimension
 13
517.9531753823185
 23
251.1481311724578
 33
0.0
 14
619.9531753823184
 24
251.1481311724578
 34
0.0
100
AcDbRotatedDimension
1001
ACAD
1000
DSTYLE
1002
{
1070
    40
1040
2.0
1070
    41
1040
3.5
1070
    42
1040
1.0
1070
    43
1040
7.0
1070
    44
1040
1.0
1070
    73
1070
     0
1070
    74
1070
     0
1070
    77
1070
     1
1070
    78
1070
     8
1070
    79
1070
     2
1070
   140
1040
3.5
1070
   141
1040
1.5
1070
   146
1040
0.5142857142857144
1070
   147
1040
1.5
1070
   172
1070
     1
1070
   178
1070
     1
1070
   179
1070
     2
1070
   271
1070
     2
1070
   272
1070
     2
1070
   284
1070
     8
1070
   285
1070
     8
1070
   286
1070
     8
1002
}
  0
LINE
  5
2B09
330
1E
100
AcDbEntity
  8
STEMPEL
100
AcDbLine
 10
619.2532660741111
 20
243.1481311724577
 30
0.0
 11
518.6530846905259
 21
243.1481311724577
 31
0.0
  0
LINE
  5
2B0A
330
1E
100
AcDbEntity
  8
HILF
100
AcDbLine
 10
617.9455357072318
 20
251.1481311724578
 30
0.0
 11
519.9608150574053
 21
251.1481311724578
 31
0.0
  0
LINE
  5
2B0B
102
{ACAD_REACTORS
330
2F43
102
}
330
1E
100
AcDbEntity
  8
STEMPEL
100
AcDbLine
 10
517.9531753823185
 20
328.1481311724578
 30
0.0
 11
517.9531753823185
 21
251.1481311724578
 31
0.0
  0
LINE
  5
2B0C
102
{ACAD_REACTORS
330
2F43
102
}
330
1E
100
AcDbEntity
  8
STEMPEL
100
AcDbLine
 10
619.9531753823184
 20
328.1481311724578
 30
0.0
 11
619.9531753823184
 21
251.1481311724578
 31
0.0
  0
DIMENSION
  5
2B0E
330
1E
100
AcDbEntity
  8
BEM
100
AcDbDimension
  2
*D7
 10
459.1193942568054
 20
243.1481311724577
 30
0.0
 11
452.6193942568053
 21
388.148131172458
 31
0.0
 70
    32
 71
     5
 42
290.0000000000002
  3
Standard
100
AcDbAlignedDimension
 13
480.9531753823184
 23
533.1481311724579
 33
0.0
 14
518.6530846905259
 24
243.1481311724577
 34
0.0
 50
90.0
100
AcDbRotatedDimension
1001
ACAD
1000
DSTYLE
1002
{
1070
    40
1040
2.0
1070
    41
1040
3.5
1070
    42
1040
1.0
1070
    43
1040
7.0
1070
    44
1040
1.0
1070
    73
1070
     0
1070
    74
1070
     0
1070
    77
1070
     1
1070
    78
1070
     8
1070
    79
1070
     2
1070
   140
1040
3.5
1070
   141
1040
1.5
1070
   146
1040
0.5142857142857144
1070
   147
1040
1.5
1070
   172
1070
     1
1070
   178
1070
     1
1070
   179
1070
     2
1070
   271
1070
     2
1070
   272
1070
     2
1070
   284
1070
     8
1070
   285
1070
     8
1070
   286
1070
     8
1002
}
  0
LINE
  5
2B0F
330
1E
100
AcDbEntity
  8
MITTEL
100
AcDbLine
 10
568.9531753823184
 20
544.6532647163826
 30
0.0
 11
568.9531753823184
 21
238.1481311724577
 31
0.0
  0
POINT
  5
2B53
330
1E
100
AcDbEntity
  8
BEM
100
AcDbPoint
 10
159.6532303939162
 20
531.1481311724577
 30
0.0
  0
ARC
  5
2B5C
330
1E
100
AcDbEntity
  8
SCHRAFF
100
AcDbCircle
 10
161.6532303939162
 20
506.8548870103826
 30
0.0
 40
3.0
100
AcDbArc
 50
24.78516880376772
 51
90.0
  0
LINE
  5
2B5D
102
{ACAD_REACTORS
330
3540
102
}
330
1E
100
AcDbEntity
  8
STEMPEL
100
AcDbLine
 10
161.6532303939162
 20
504.6481311724575
 30
0.0
 11
159.6532303939162
 21
504.6481311724575
 31
0.0
  0
LINE
  5
2B6B
102
{ACAD_REACTORS
330
3738
102
}
330
1E
100
AcDbEntity
  8
STEMPEL
100
AcDbLine
 10
303.6532303939164
 20
533.1481311724578
 30
0.0
 11
159.6532303939162
 21
533.1481311724577
 31
0.0
  0
LINE
  5
2B6C
102
{ACAD_REACTORS
330
3540
330
3738
102
}
330
1E
100
AcDbEntity
  8
STEMPEL
100
AcDbLine
 10
303.6532303939164
 20
531.148131172458
 30
0.0
 11
159.6532303939162
 21
531.1481311724577
 31
0.0
  0
LINE
  5
2B6E
330
1E
100
AcDbEntity
  8
STEMPEL
100
AcDbLine
 10
299.6532303939162
 20
328.1481311724578
 30
0.0
 11
299.6532303939162
 21
328.6481311724577
 31
0.0
  0
LINE
  5
2B6F
330
1E
100
AcDbEntity
  8
STEMPEL
100
AcDbLine
 10
298.1532303939163
 20
330.1481311724578
 30
0.0
 11
299.6532303939162
 21
328.6481311724577
 31
0.0
  0
LINE
  5
2B70
330
1E
100
AcDbEntity
  8
STEMPEL
100
AcDbLine
 10
299.6532303939162
 20
331.6481311724577
 30
0.0
 11
298.1532303939163
 21
330.1481311724578
 31
0.0
  0
LINE
  5
2B71
102
{ACAD_REACTORS
330
3002
102
}
330
1E
100
AcDbEntity
  8
STEMPEL
100
AcDbLine
 10
299.6532303939162
 20
328.1481311724578
 30
0.0
 11
299.6532303939162
 21
328.6481311724577
 31
0.0
  0
LINE
  5
2B72
102
{ACAD_REACTORS
330
2F2E
330
3002
102
}
330
1E
100
AcDbEntity
  8
STEMPEL
100
AcDbLine
 10
298.1532303939161
 20
330.1481311724578
 30
0.0
 11
299.6532303939162
 21
328.6481311724577
 31
0.0
  0
ARC
  5
2B73
102
{ACAD_REACTORS
330
2F2E
102
}
330
1E
100
AcDbEntity
  8
SCHRAFF
100
AcDbCircle
 10
298.1532303939161
 20
330.1481311724578
 30
0.0
 40
2.121320343559662
100
AcDbArc
 50
315.0
 51
45.0
  0
LINE
  5
2B74
102
{ACAD_REACTORS
330
2F2E
330
3540
102
}
330
1E
100
AcDbEntity
  8
STEMPEL
100
AcDbLine
 10
299.6532303939162
 20
331.6481311724577
 30
0.0
 11
298.1532303939161
 21
330.1481311724578
 31
0.0
  0
ARC
  5
2B7C
330
1E
100
AcDbEntity
  8
SCHRAFF
100
AcDbCircle
 10
161.6532303939162
 20
395.4413753345326
 30
0.0
 40
3.0
100
AcDbArc
 50
270.0
 51
335.2148311962237
  0
LINE
  5
2B7E
102
{ACAD_REACTORS
330
3540
102
}
330
1E
100
AcDbEntity
  8
STEMPEL
100
AcDbLine
 10
161.6532303939162
 20
397.6481311724576
 30
0.0
 11
159.6532303939162
 21
397.6481311724576
 31
0.0
  0
ARC
  5
2B85
102
{ACAD_REACTORS
330
2F35
102
}
330
1E
100
AcDbEntity
  8
SCHRAFF
100
AcDbCircle
 10
270.6532303939162
 20
328.1481311724577
 30
0.0
 40
3.933404693797342
100
AcDbArc
 50
270.0
 51
0.0
  0
LINE
  5
2B86
102
{ACAD_REACTORS
330
2F2E
330
3540
102
}
330
1E
100
AcDbEntity
  8
STEMPEL
100
AcDbLine
 10
159.6532303939162
 20
331.6481311724577
 30
0.0
 11
161.1532303939162
 21
330.1481311724578
 31
0.0
  0
LINE
  5
2B87
102
{ACAD_REACTORS
330
2F2E
330
3002
102
}
330
1E
100
AcDbEntity
  8
STEMPEL
100
AcDbLine
 10
161.1532303939162
 20
330.1481311724578
 30
0.0
 11
159.6532303939161
 21
328.6481311724577
 31
0.0
  0
LINE
  5
2B88
102
{ACAD_REACTORS
330
3002
102
}
330
1E
100
AcDbEntity
  8
STEMPEL
100
AcDbLine
 10
159.6532303939162
 20
328.1481311724578
 30
0.0
 11
159.6532303939161
 21
328.6481311724577
 31
0.0
  0
ARC
  5
2B89
102
{ACAD_REACTORS
330
2F2E
102
}
330
1E
100
AcDbEntity
  8
SCHRAFF
100
AcDbCircle
 10
161.1532303939162
 20
330.1481311724578
 30
0.0
 40
2.121320343559662
100
AcDbArc
 50
135.0
 51
225.0
  0
ARC
  5
2B8A
102
{ACAD_REACTORS
330
2F35
102
}
330
1E
100
AcDbEntity
  8
SCHRAFF
100
AcDbCircle
 10
168.6532303939164
 20
328.1481311724577
 30
0.0
 40
3.933404693797342
100
AcDbArc
 50
180.0
 51
270.0
  0
LINE
  5
2B8D
102
{ACAD_REACTORS
330
3002
330
3540
102
}
330
1E
100
AcDbEntity
  8
STEMPEL
100
AcDbLine
 10
298.1532303939161
 20
330.1481311724578
 30
0.0
 11
161.1532303939164
 21
330.1481311724578
 31
0.0
  0
LINE
  5
2B8E
102
{ACAD_REACTORS
330
2F35
330
3002
330
3034
102
}
330
1E
100
AcDbEntity
  8
STEMPEL
100
AcDbLine
 10
299.6532303939162
 20
328.1481311724578
 30
0.0
 11
159.6532303939162
 21
328.1481311724578
 31
0.0
  0
LINE
  5
2B91
102
{ACAD_REACTORS
330
3540
102
}
330
1E
100
AcDbEntity
  8
STEMPEL
100
AcDbLine
 10
161.6532303939162
 20
330.1481311724578
 30
0.0
 11
161.6532303939162
 21
420.7222342713313
 31
0.0
  0
LINE
  5
2B93
102
{ACAD_REACTORS
330
3540
330
3738
102
}
330
1E
100
AcDbEntity
  8
STEMPEL
100
AcDbLine
 10
159.6532303939161
 20
331.6481311724577
 30
0.0
 11
159.6532303939162
 21
533.1481311724577
 31
0.0
  0
LINE
  5
2B94
102
{ACAD_REACTORS
330
326E
330
3738
102
}
330
1E
100
AcDbEntity
  8
MITTEL
100
AcDbLine
 10
215.6532303939163
 20
322.3500534716877
 30
0.0
 11
215.6532303939163
 21
538.1481311724577
 31
0.0
  0
LINE
  5
2B98
102
{ACAD_REACTORS
330
3540
102
}
330
1E
100
AcDbEntity
  8
STEMPEL
100
AcDbLine
 10
297.6532303939162
 20
330.1481311724578
 30
0.0
 11
297.6532303939162
 21
424.6481311724576
 31
0.0
  0
LINE
  5
2B99
102
{ACAD_REACTORS
330
3540
102
}
330
1E
100
AcDbEntity
  8
STEMPEL
100
AcDbLine
 10
299.6532303939162
 20
331.6481311724577
 30
0.0
 11
299.6532303939162
 21
424.6481311724576
 31
0.0
  0
DIMENSION
  5
2BA3
330
1E
100
AcDbEntity
  8
BEM
100
AcDbDimension
  2
*D8
 10
114.7503493100738
 20
330.1481311724578
 30
0.0
 11
108.2503493100738
 21
430.6481311724577
 31
0.0
 70
    32
 71
     5
 42
200.9999999999999
  3
Standard
100
AcDbAlignedDimension
 13
159.6532303939162
 23
531.1481311724577
 33
0.0
 14
161.1532303939164
 24
330.1481311724578
 34
0.0
 50
90.0
100
AcDbRotatedDimension
1001
ACAD
1000
DSTYLE
1002
{
1070
    40
1040
2.0
1070
    41
1040
3.5
1070
    42
1040
1.0
1070
    43
1040
7.0
1070
    44
1040
1.0
1070
    73
1070
     0
1070
    74
1070
     0
1070
    77
1070
     1
1070
    78
1070
     8
1070
    79
1070
     2
1070
   140
1040
3.5
1070
   141
1040
1.5
1070
   146
1040
0.5142857142857144
1070
   147
1040
1.5
1070
   172
1070
     1
1070
   178
1070
     1
1070
   179
1070
     2
1070
   271
1070
     2
1070
   272
1070
     2
1070
   284
1070
     8
1070
   285
1070
     8
1070
   286
1070
     8
1002
}
  0
DIMENSION
  5
2BA4
330
1E
100
AcDbEntity
  8
BEM
100
AcDbDimension
  2
*D9
 10
114.7503493100738
 20
328.1481311724578
 30
0.0
 11
108.2503493100738
 21
309.2814645057911
 31
0.0
 70
    32
 71
     5
 42
2.0
  3
Standard
100
AcDbAlignedDimension
 13
161.1532303939164
 23
330.1481311724578
 33
0.0
 14
159.6532303939162
 24
328.1481311724578
 34
0.0
 50
90.0
100
AcDbRotatedDimension
1001
ACAD
1000
DSTYLE
1002
{
1070
    40
1040
2.0
1070
    41
1040
3.5
1070
    42
1040
1.0
1070
    43
1040
7.0
1070
    44
1040
1.0
1070
    73
1070
     0
1070
    74
1070
     0
1070
    77
1070
     1
1070
    78
1070
     8
1070
    79
1070
     2
1070
   140
1040
3.5
1070
   141
1040
1.5
1070
   146
1040
0.5142857142857144
1070
   147
1040
1.5
1070
   172
1070
     1
1070
   178
1070
     1
1070
   179
1070
     2
1070
   271
1070
     2
1070
   272
1070
     2
1070
   284
1070
     8
1070
   285
1070
     8
1070
   286
1070
     8
1002
}
  0
LINE
  5
2BA5
330
1E
100
AcDbEntity
  8
MITTEL
100
AcDbLine
 10
152.4793961511036
 20
451.1481311724576
 30
0.0
 11
348.1532303939162
 21
451.1481311724576
 31
0.0
  0
TEXT
  5
2BA6
330
1E
100
AcDbEntity
  8
TEXT
 62
     1
100
AcDbText
 10
170.6941337216076
 20
491.0500700161605
 30
0.0
 40
7.0
  1
DN100
 41
0.8
  7
GREEKS
100
AcDbText
  0
LINE
  5
2BA8
102
{ACAD_REACTORS
330
3540
102
}
330
1E
100
AcDbEntity
  8
MITTEL
100
AcDbLine
 10
166.6532303939162
 20
521.1481311724578
 30
0.0
 11
154.6532303939161
 21
521.1481311724578
 31
0.0
  0
LINE
  5
2BAA
102
{ACAD_REACTORS
330
3034
102
}
330
1E
100
AcDbEntity
  8
STEMPEL
100
AcDbLine
 10
268.6532303939163
 20
251.2354530582751
 30
0.0
 11
267.9456814106222
 21
243.1481311724578
 31
0.0
  0
LINE
  5
2BAB
102
{ACAD_REACTORS
330
3034
102
}
330
1E
100
AcDbEntity
  8
STEMPEL
100
AcDbLine
 10
270.6532303939162
 20
251.1481311724578
 30
0.0
 11
269.9533210857089
 21
243.1481311724578
 31
0.0
  0
LINE
  5
2BAC
102
{ACAD_REACTORS
330
3034
102
}
330
1E
100
AcDbEntity
  8
STEMPEL
100
AcDbLine
 10
168.6532303939164
 20
251.1481311724578
 30
0.0
 11
169.3531397021237
 21
243.1481311724577
 31
0.0
  0
LINE
  5
2BAD
102
{ACAD_REACTORS
330
3034
102
}
330
1E
100
AcDbEntity
  8
STEMPEL
100
AcDbLine
 10
170.6532303939163
 20
251.2354530582748
 30
0.0
 11
171.3607793772104
 21
243.1481311724577
 31
0.0
  0
LINE
  5
2BAE
102
{ACAD_REACTORS
330
3034
102
}
330
1E
100
AcDbEntity
  8
STEMPEL
100
AcDbLine
 10
269.9533210857089
 20
243.1481311724578
 30
0.0
 11
169.3531397021237
 21
243.1481311724577
 31
0.0
  0
LINE
  5
2BAF
330
1E
100
AcDbEntity
  8
HILF
100
AcDbLine
 10
266.6379510437427
 20
251.1481311724578
 30
0.0
 11
172.6685097440897
 21
251.1481311724578
 31
0.0
  0
LINE
  5
2BB0
330
1E
100
AcDbEntity
  8
MITTEL
100
AcDbLine
 10
215.6532303939163
 20
214.3006695007493
 30
0.0
 11
215.6532303939163
 21
33.30066950074934
 31
0.0
  0
LINE
  5
2BB2
102
{ACAD_REACTORS
330
3034
102
}
330
1E
100
AcDbEntity
  8
STEMPEL
100
AcDbLine
 10
170.6532303939163
 20
328.1481311724578
 30
0.0
 11
170.6532303939163
 21
251.2354530582748
 31
0.0
  0
LINE
  5
2BB3
102
{ACAD_REACTORS
330
2F35
330
3002
330
3034
102
}
330
1E
100
AcDbEntity
  8
STEMPEL
100
AcDbLine
 10
168.6532303939164
 20
330.1481311724578
 30
0.0
 11
168.6532303939164
 21
251.1481311724578
 31
0.0
  0
LINE
  5
2BB4
102
{ACAD_REACTORS
330
2F35
330
3002
330
3034
102
}
330
1E
100
AcDbEntity
  8
STEMPEL
100
AcDbLine
 10
270.6532303939162
 20
330.1481311724578
 30
0.0
 11
270.6532303939162
 21
251.1481311724578
 31
0.0
  0
LINE
  5
2BB5
102
{ACAD_REACTORS
330
3034
102
}
330
1E
100
AcDbEntity
  8
STEMPEL
100
AcDbLine
 10
268.6532303939163
 20
328.1481311724577
 30
0.0
 11
268.6532303939163
 21
251.2354530582751
 31
0.0
  0
DIMENSION
  5
2BB6
330
1E
100
AcDbEntity
  8
BEM
100
AcDbDimension
  2
*D10
 10
130.6654488747249
 20
328.1481311724578
 30
0.0
 11
124.1654488747248
 21
285.6481311724578
 31
0.0
 70
    32
 71
     5
 42
85.00000000000003
  3
Standard
100
AcDbAlignedDimension
 13
169.3531397021237
 23
243.1481311724577
 33
0.0
 14
159.6532303939162
 24
328.1481311724578
 34
0.0
 50
90.0
100
AcDbRotatedDimension
1001
ACAD
1000
DSTYLE
1002
{
1070
    40
1040
2.0
1070
    41
1040
3.5
1070
    42
1040
1.0
1070
    43
1040
7.0
1070
    44
1040
1.0
1070
    73
1070
     0
1070
    74
1070
     0
1070
    77
1070
     1
1070
    78
1070
     8
1070
    79
1070
     2
1070
   140
1040
3.5
1070
   141
1040
1.5
1070
   146
1040
0.5142857142857144
1070
   147
1040
1.5
1070
   172
1070
     1
1070
   178
1070
     1
1070
   179
1070
     2
1070
   271
1070
     2
1070
   272
1070
     2
1070
   284
1070
     8
1070
   285
1070
     8
1070
   286
1070
     8
1002
}
  0
DIMENSION
  5
2BB7
330
1E
100
AcDbEntity
  8
BEM
100
AcDbDimension
  2
*D11
 10
219.6532303939163
 20
223.7239506205309
 30
0.0
 11
189.6532303939162
 21
230.2239506205309
 31
0.0
 70
    32
 71
     5
 42
60.0
  3
Standard
100
AcDbAlignedDimension
 13
159.6532303939162
 23
328.1481311724578
 33
0.0
 14
219.6532303939163
 24
238.1481311724577
 34
0.0
100
AcDbRotatedDimension
1001
ACAD
1000
DSTYLE
1002
{
1070
    40
1040
2.0
1070
    41
1040
3.5
1070
    42
1040
1.0
1070
    43
1040
7.0
1070
    44
1040
1.0
1070
    73
1070
     0
1070
    74
1070
     0
1070
    77
1070
     1
1070
    78
1070
     8
1070
    79
1070
     2
1070
   140
1040
3.5
1070
   141
1040
1.5
1070
   146
1040
0.5142857142857144
1070
   147
1040
1.5
1070
   172
1070
     1
1070
   178
1070
     1
1070
   179
1070
     2
1070
   271
1070
     2
1070
   272
1070
     2
1070
   284
1070
     8
1070
   285
1070
     8
1070
   286
1070
     8
1002
}
  0
LINE
  5
2BB8
330
1E
100
AcDbEntity
  8
MITTEL
100
AcDbLine
 10
219.6532303939163
 20
238.1481311724577
 30
0.0
 11
219.6532303939163
 21
335.1481311724579
 31
0.0
  0
LINE
  5
2BCA
330
1E
100
AcDbEntity
  8
VERDECKT
100
AcDbLine
 10
209.1532303939164
 20
178.8006695007493
 30
0.0
 11
211.6532303939163
 21
178.8006695007493
 31
0.0
  0
LINE
  5
2BCB
330
1E
100
AcDbEntity
  8
VERDECKT
100
AcDbLine
 10
209.1532303939164
 20
176.8006695007493
 30
0.0
 11
211.6532303939163
 21
176.8006695007493
 31
0.0
  0
ARC
  5
2BCC
330
1E
100
AcDbEntity
  8
VERDECKT
100
AcDbCircle
 10
209.1532303939164
 20
190.8006695007492
 30
0.0
 40
12.0
100
AcDbArc
 50
243.1122293409809
 51
270.0
  0
ARC
  5
2BCD
330
1E
100
AcDbEntity
  8
VERDECKT
100
AcDbCircle
 10
209.1532303939164
 20
190.8006695007492
 30
0.0
 40
14.0
100
AcDbArc
 50
242.9496314366249
 51
270.0
  0
ARC
  5
2BCE
330
1E
100
AcDbEntity
  8
VERDECKT
100
AcDbCircle
 10
192.4202303939163
 20
157.8006695007493
 30
0.0
 40
23.0
100
AcDbArc
 50
63.21120189479275
 51
90.0
  0
ARC
  5
2BCF
330
1E
100
AcDbEntity
  8
VERDECKT
100
AcDbCircle
 10
192.4202303939163
 20
157.8006695007493
 30
0.0
 40
24.99990931069965
100
AcDbArc
 50
63.11222934098088
 51
90.0
  0
ARC
  5
2BD2
330
1E
100
AcDbEntity
  8
SCHRAFF
100
AcDbCircle
 10
160.9519936795584
 20
185.2055057350608
 30
0.0
 40
2.641950433585531
100
AcDbArc
 50
82.89948158104834
 51
240.5546875250368
  0
LINE
  5
2BD3
330
1E
100
AcDbEntity
  8
VERDECKT
100
AcDbLine
 10
159.6532303939162
 20
184.9198608857435
 30
0.0
 11
161.6532303939162
 21
184.9198608857435
 31
0.0
  0
LINE
  5
2BD4
330
1E
100
AcDbEntity
  8
VERDECKT
100
AcDbLine
 10
160.9865637272496
 20
184.9198608857435
 30
0.0
 11
159.6532303939162
 21
186.4105728707434
 31
0.0
  0
INSERT
  5
2BD5
330
1E
100
AcDbEntity
  8
SCHRAFF
100
AcDbBlockReference
  2
*X2
 10
0.0
 20
0.0
 30
0.0
1001
ACAD
1000
HATCH
1002
{
1070
    16
1000
_U,I
1040
0.1
1040
0.0
1070
     0
1002
}
  0
LINE
  5
2BD9
330
1E
100
AcDbEntity
  8
VERDECKT
100
AcDbLine
 10
161.6532303939162
 20
177.3006695007492
 30
0.0
 11
159.6532303939162
 21
177.3006695007492
 31
0.0
  0
LINE
  5
2BDA
330
1E
100
AcDbEntity
  8
VERDECKT
100
AcDbLine
 10
161.6532303939162
 20
179.5074253386743
 30
0.0
 11
163.69252531297
 21
180.4583641766656
 31
0.0
  0
LINE
  5
2BDB
330
1E
100
AcDbEntity
  8
VERDECKT
100
AcDbLine
 10
161.6532303939162
 20
177.3006695007492
 30
0.0
 11
164.5377618364514
 21
178.6457486025923
 31
0.0
  0
LINE
  5
2BDC
330
1E
100
AcDbEntity
  8
VERDECKT
100
AcDbLine
 10
159.6532303939162
 20
173.8006695007493
 30
0.0
 11
161.6532303939162
 21
173.8006695007493
 31
0.0
  0
LINE
  5
2BDD
330
1E
100
AcDbEntity
  8
VERDECKT
100
AcDbLine
 10
161.6532303939162
 20
178.8006695007493
 30
0.0
 11
159.6532303939162
 21
178.8006695007494
 31
0.0
  0
ARC
  5
2BDE
330
1E
100
AcDbEntity
  8
VERDECKT
100
AcDbCircle
 10
174.2579818564874
 20
157.8006695007493
 30
0.0
 40
23.0
100
AcDbArc
 50
90.0
 51
114.9999999999934
  0
ARC
  5
2BDF
330
1E
100
AcDbEntity
  8
VERDECKT
100
AcDbCircle
 10
174.2579818564874
 20
157.8006695007493
 30
0.0
 40
25.0
100
AcDbArc
 50
90.0
 51
114.9999999999934
  0
LINE
  5
2BE2
330
1E
100
AcDbEntity
  8
VERDECKT
100
AcDbLine
 10
174.2579818564874
 20
180.8006695007493
 30
0.0
 11
192.4202303939163
 21
180.8006695007493
 31
0.0
  0
LINE
  5
2BE3
330
1E
100
AcDbEntity
  8
VERDECKT
100
AcDbLine
 10
174.2579818564874
 20
182.8006695007493
 30
0.0
 11
192.4202303939163
 21
182.8006695007493
 31
0.0
  0
LINE
  5
2BE4
330
1E
100
AcDbEntity
  8
VERDECKT
100
AcDbLine
 10
159.6532303939162
 20
153.8006695007493
 30
0.0
 11
161.6532303939162
 21
153.8006695007493
 31
0.0
  0
LINE
  5
2BE5
330
1E
100
AcDbEntity
  8
MITTEL
100
AcDbLine
 10
215.6532303939163
 20
123.8006695007493
 30
0.0
 11
173.3833300565671
 21
197.0142845159105
 31
0.0
  0
LINE
  5
2BE6
330
1E
100
AcDbEntity
  8
MITTEL
100
AcDbLine
 10
215.6532303939163
 20
123.8006695007493
 30
0.0
 11
275.4318967311542
 21
183.5793358379873
 31
0.0
  0
LINE
  5
2BF0
330
1E
100
AcDbEntity
  8
VERDECKT
100
AcDbLine
 10
209.1532303939164
 20
68.80066950074933
 30
0.0
 11
211.6532303939163
 21
68.80066950074933
 31
0.0
  0
LINE
  5
2BF1
330
1E
100
AcDbEntity
  8
VERDECKT
100
AcDbLine
 10
209.1532303939164
 20
70.80066950074933
 30
0.0
 11
211.6532303939163
 21
70.80066950074933
 31
0.0
  0
ARC
  5
2BF2
330
1E
100
AcDbEntity
  8
VERDECKT
100
AcDbCircle
 10
192.4202303939163
 20
89.80066950074927
 30
0.0
 40
23.0
100
AcDbArc
 50
270.0
 51
296.7887981052072
  0
ARC
  5
2BF3
330
1E
100
AcDbEntity
  8
VERDECKT
100
AcDbCircle
 10
209.1532303939164
 20
56.80066950074934
 30
0.0
 40
14.0
100
AcDbArc
 50
90.0
 51
117.0503685633751
  0
ARC
  5
2BF4
330
1E
100
AcDbEntity
  8
VERDECKT
100
AcDbCircle
 10
209.1532303939164
 20
56.80066950074934
 30
0.0
 40
12.0
100
AcDbArc
 50
90.0
 51
116.8877706590191
  0
LINE
  5
2BF5
330
1E
100
AcDbEntity
  8
VERDECKT
100
AcDbLine
 10
161.6532303939162
 20
68.09391366282421
 30
0.0
 11
163.69252531297
 21
67.14297482483289
 31
0.0
  0
LINE
  5
2BF6
330
1E
100
AcDbEntity
  8
VERDECKT
100
AcDbLine
 10
161.6532303939162
 20
70.30066950074933
 30
0.0
 11
159.6532303939162
 21
70.30066950074933
 31
0.0
  0
LINE
  5
2BF7
330
1E
100
AcDbEntity
  8
VERDECKT
100
AcDbLine
 10
161.6532303939162
 20
70.30066950074933
 30
0.0
 11
164.5377618364514
 21
68.95559039890622
 31
0.0
  0
LINE
  5
2BF8
330
1E
100
AcDbEntity
  8
VERDECKT
100
AcDbLine
 10
161.6532303939162
 20
68.80066950074933
 30
0.0
 11
159.6532303939162
 21
68.80066950074933
 31
0.0
  0
LINE
  5
2BF9
330
1E
100
AcDbEntity
  8
VERDECKT
100
AcDbLine
 10
159.6532303939162
 20
73.80066950074928
 30
0.0
 11
161.6532303939162
 21
73.80066950074928
 31
0.0
  0
ARC
  5
2BFA
330
1E
100
AcDbEntity
  8
VERDECKT
100
AcDbCircle
 10
174.2579818564874
 20
89.80066950074922
 30
0.0
 40
23.0
100
AcDbArc
 50
245.0000000000065
 51
270.0
  0
LINE
  5
2BFB
330
1E
100
AcDbEntity
  8
VERDECKT
100
AcDbLine
 10
174.2579818564874
 20
66.80066950074934
 30
0.0
 11
192.4202303939163
 21
66.80066950074934
 31
0.0
  0
INSERT
  5
2BFD
330
1E
100
AcDbEntity
  8
SCHRAFF
100
AcDbBlockReference
  2
*X2
 10
0.0
 20
247.6013390014986
 30
0.0
 41
-1.0
 50
180.0
1001
ACAD
1000
HATCH
1002
{
1070
    16
1000
_U,I
1040
0.1
1040
0.0
1070
     0
1002
}
  0
ARC
  5
2BFE
330
1E
100
AcDbEntity
  8
SCHRAFF
100
AcDbCircle
 10
160.9519936795584
 20
62.39583326643776
 30
0.0
 40
2.641950433585531
100
AcDbArc
 50
119.4453124749632
 51
277.1005184189517
  0
LINE
  5
2BFF
330
1E
100
AcDbEntity
  8
VERDECKT
100
AcDbLine
 10
159.6532303939162
 20
62.68147811575511
 30
0.0
 11
161.6532303939163
 21
62.68147811575511
 31
0.0
  0
LINE
  5
2C00
330
1E
100
AcDbEntity
  8
VERDECKT
100
AcDbLine
 10
160.9865637272495
 20
62.681478115755
 30
0.0
 11
159.6532303939162
 21
61.19076613075515
 31
0.0
  0
LINE
  5
2C02
330
1E
100
AcDbEntity
  8
VERDECKT
100
AcDbLine
 10
174.2579818564874
 20
64.80066950074934
 30
0.0
 11
192.4202303939163
 21
64.80066950074934
 31
0.0
  0
ARC
  5
2C03
330
1E
100
AcDbEntity
  8
VERDECKT
100
AcDbCircle
 10
174.2579818564874
 20
89.80066950074922
 30
0.0
 40
25.0
100
AcDbArc
 50
245.0000000000065
 51
270.0
  0
ARC
  5
2C04
330
1E
100
AcDbEntity
  8
VERDECKT
100
AcDbCircle
 10
192.4202303939163
 20
89.80066950074927
 30
0.0
 40
24.99990931069965
100
AcDbArc
 50
270.0
 51
296.8877706590191
  0
LINE
  5
2C08
330
1E
100
AcDbEntity
  8
VERDECKT
100
AcDbLine
 10
205.8790119616425
 20
72.46207089582748
 30
0.0
 11
205.8790119616425
 21
175.1392681056711
 31
0.0
  0
LINE
  5
2C09
330
1E
100
AcDbEntity
  8
VERDECKT
100
AcDbLine
 10
211.6532303939163
 20
68.80066950074933
 30
0.0
 11
211.6532303939163
 21
178.8006695007491
 31
0.0
  0
CIRCLE
  5
2C0A
330
1E
100
AcDbEntity
  8
VERDECKT
100
AcDbCircle
 10
215.6532303939163
 20
123.8006695007492
 30
0.0
 40
49.0
  0
CIRCLE
  5
2C0B
330
1E
100
AcDbEntity
  8
VERDECKT
100
AcDbCircle
 10
215.6532303939163
 20
123.8006695007492
 30
0.0
 40
51.0
  0
LINE
  5
2C0C
330
1E
100
AcDbEntity
  8
STEMPEL
100
AcDbLine
 10
159.6532303939162
 20
191.6829204946578
 30
0.0
 11
159.6532303939162
 21
55.91841850684073
 31
0.0
  0
LINE
  5
2C0F
330
1E
100
AcDbEntity
  8
MITTEL
100
AcDbLine
 10
215.6532303939163
 20
123.8006695007492
 30
0.0
 11
173.3833300565671
 21
50.58705448558805
 31
0.0
  0
LINE
  5
2C10
330
1E
100
AcDbEntity
  8
MITTEL
100
AcDbLine
 10
215.6532303939163
 20
123.8006695007493
 30
0.0
 11
275.4318967311542
 21
64.02200316351127
 31
0.0
  0
LINE
  5
2C11
330
1E
100
AcDbEntity
  8
VERDECKT
100
AcDbLine
 10
161.6532303939162
 20
184.9198608857435
 30
0.0
 11
161.6532303939163
 21
62.68147811575511
 31
0.0
  0
LINE
  5
2C12
330
1E
100
AcDbEntity
  8
MITTEL
100
AcDbLine
 10
219.6532303939163
 20
179.8006695007493
 30
0.0
 11
219.6532303939163
 21
67.80066950074933
 31
0.0
  0
ARC
  5
2C18
330
1E
100
AcDbEntity
  8
VERDECKT
100
AcDbCircle
 10
215.6532303939163
 20
123.8006695007493
 30
0.0
 40
82.0
100
AcDbArc
 50
228.189685104225
 51
131.810314895775
  0
LINE
  5
2C19
330
1E
100
AcDbEntity
  8
MITTEL
100
AcDbLine
 10
154.6532303939162
 20
123.8006695007493
 30
0.0
 11
374.6532303939162
 21
123.8006695007492
 31
0.0
  0
HATCH
  5
2F27
330
1E
100
AcDbEntity
  8
SCHRAFF
100
AcDbHatch
 10
0.0
 20
0.0
 30
0.0
210
0.0
220
0.0
230
1.0
  2
_USER
 70
     0
 71
     0
 91
        2
 92
        7
 72
     1
 73
     1
 93
        4
 10
163.6925253129701
 20
507.805825848374
 42
-0.0074999247465773
 10
164.3768884678219
 20
508.1125382722387
 42
0.292490712343362
 10
161.6532303939162
 20
509.8548870103826
 42
0.0
 10
161.6532303939162
 20
506.8548870103826
 42
0.0
 97
        0
 92
        7
 72
     1
 73
     1
 93
        4
 10
161.6532303939162
 20
395.4413753345325
 42
0.0
 10
161.6532303939162
 20
392.4413753345326
 42
0.2924907123433587
 10
164.3768884678219
 20
394.1837240726765
 42
-0.0074999247465773
 10
163.6925253129702
 20
394.4904364965412
 42
0.0
 97
        0
 75
     0
 76
     0
 52
0.0
 41
0.1
 77
     0
 78
     1
 53
0.0
 43
0.0
 44
-10.0
 45
0.0
 46
0.1
 79
     0
 47
0.2147623076251942
 98
        2
 10
162.8999398264002
 20
508.3804010974654
 10
163.3297238120069
 20
394.3416145641188
  0
HATCH
  5
2F2E
330
1E
100
AcDbEntity
  8
SCHRAFF
100
AcDbHatch
 10
0.0
 20
0.0
 30
0.0
210
0.0
220
0.0
230
1.0
  2
_USER
 70
     0
 71
     1
 91
        2
 92
        7
 72
     1
 73
     1
 93
        3
 10
299.6532303939162
 20
331.6481311724577
 42
0.0
 10
298.1532303939161
 20
330.1481311724578
 42
0.0
 10
299.6532303939162
 20
328.6481311724577
 42
0.4142135623730951
 97
        3
330
2B74
330
2B72
330
2B73
 92
        7
 72
     1
 73
     1
 93
        3
 10
159.6532303939162
 20
331.6481311724577
 42
0.4142135623730951
 10
159.6532303939161
 20
328.6481311724577
 42
0.0
 10
161.1532303939162
 20
330.1481311724578
 42
0.0
 97
        3
330
2B89
330
2B87
330
2B86
 75
     0
 76
     0
 52
0.0
 41
0.1
 77
     0
 78
     1
 53
0.0
 43
0.0
 44
0.0
 45
0.0
 46
0.1
 79
     0
 47
0.1714448913083045
 98
        2
 10
299.2377462724687
 20
330.2188786116478
 10
159.9404424765023
 20
330.5617677039738
  0
HATCH
  5
2F35
330
1E
100
AcDbEntity
  8
SCHRAFF
100
AcDbHatch
 10
0.0
 20
0.0
 30
0.0
210
0.0
220
0.0
230
1.0
  2
_USER
 70
     0
 71
     1
 91
        2
 92
        7
 72
     1
 73
     1
 93
        3
 10
274.5866350877136
 20
328.1481311724578
 42
0.0
 10
270.6532303939162
 20
328.1481311724578
 42
0.0
 10
270.6532303939162
 20
324.2147264786603
 42
0.4142135623730995
 97
        3
330
2B8E
330
2BB4
330
2B85
 92
        7
 72
     1
 73
     1
 93
        3
 10
168.6532303939164
 20
328.1481311724578
 42
0.0
 10
164.719825700119
 20
328.1481311724578
 42
0.4142135623731036
 10
168.6532303939164
 20
324.2147264786603
 42
0.0
 97
        3
330
2B8E
330
2B8A
330
2BB3
 75
     0
 76
     0
 52
0.0
 41
0.1
 77
     0
 78
     1
 53
0.0
 43
0.0
 44
0.0
 45
0.0
 46
0.1
 79
     0
 47
0.1714448913083045
 98
        2
 10
272.6477428902883
 20
326.4470902132862
 10
166.1161853516294
 20
327.1328697950673
  0
HATCH
  5
2F3C
330
1E
100
AcDbEntity
  8
SCHRAFF
100
AcDbHatch
 10
0.0
 20
0.0
 30
0.0
210
0.0
220
0.0
230
1.0
  2
_USER
 70
     0
 71
     1
 91
        2
 92
        7
 72
     1
 73
     1
 93
        3
 10
652.9531753823184
 20
331.6481311724577
 42
0.0
 10
651.4531753823184
 20
330.1481311724577
 42
0.0
 10
652.9531753823184
 20
328.6481311724577
 42
0.4142135623730951
 97
        3
330
29C8
330
29C6
330
29C7
 92
        7
 72
     1
 73
     1
 93
        3
 10
486.4531753823184
 20
330.1481311724578
 42
0.0
 10
484.9531753823185
 20
331.6481311724577
 42
0.4142135623730951
 10
484.9531753823185
 20
328.6481311724577
 42
0.0
 97
        3
330
2AE9
330
2AE7
330
2AE8
 75
     0
 76
     0
 52
0.0
 41
0.1
 77
     0
 78
     1
 53
0.0
 43
0.0
 44
0.0
 45
0.0
 46
0.1
 79
     0
 47
0.2013094831276523
 98
        2
 10
652.7309280110073
 20
329.7310904322592
 10
484.938884950973
 20
329.9323986199097
  0
HATCH
  5
2F43
330
1E
100
AcDbEntity
  8
SCHRAFF
100
AcDbHatch
 10
0.0
 20
0.0
 30
0.0
210
0.0
220
0.0
230
1.0
  2
_USER
 70
     0
 71
     1
 91
        2
 92
        7
 72
     1
 73
     1
 93
        3
 10
623.8865800761158
 20
328.1481311724578
 42
0.0
 10
619.9531753823183
 20
328.1481311724578
 42
0.0
 10
619.9531753823183
 20
324.2147264786603
 42
0.4142135623731078
 97
        3
330
2AEB
330
2B0C
330
29DC
 92
        7
 72
     1
 73
     1
 93
        3
 10
517.9531753823186
 20
328.1481311724578
 42
0.0
 10
514.0197706885214
 20
328.1481311724578
 42
0.4142135623730909
 10
517.9531753823185
 20
324.2147264786603
 42
0.0
 97
        3
330
2AEB
330
2AD7
330
2B0B
 75
     0
 76
     0
 52
0.0
 41
0.1
 77
     0
 78
     1
 53
0.0
 43
0.0
 44
0.0
 45
0.0
 46
0.1
 79
     0
 47
0.2013094831276523
 98
        2
 10
620.7033949161271
 20
326.3088288881277
 10
516.5635559533746
 20
327.3153754148987
  0
LINE
  5
2FA8
330
1E
100
AcDbEntity
  8
HILF
100
AcDbLine
 10
205.8790119616424
 20
399.8095325675358
 30
0.0
 11
205.8790119616424
 21
421.6481311724574
 31
0.0
  0
LINE
  5
2FAE
330
1E
100
AcDbEntity
  8
STEMPEL
100
AcDbLine
 10
209.1534309245978
 20
504.1481311724576
 30
0.0
 11
211.6532303939164
 21
504.1481311724575
 31
0.0
  0
LINE
  5
2FAF
330
1E
100
AcDbEntity
  8
STEMPEL
100
AcDbLine
 10
209.1532303939163
 20
506.1481311724576
 30
0.0
 11
211.6532303939164
 21
506.1481311724573
 31
0.0
  0
LINE
  5
2FB0
330
1E
100
AcDbEntity
  8
STEMPEL
100
AcDbLine
 10
174.2579818564873
 20
508.1481311724576
 30
0.0
 11
192.4202303939164
 21
508.1481311724576
 31
0.0
  0
LINE
  5
2FB1
330
1E
100
AcDbEntity
  8
STEMPEL
100
AcDbLine
 10
174.2579818564873
 20
510.1481311724575
 30
0.0
 11
192.4200298632347
 21
510.1481311724576
 31
0.0
  0
LINE
  5
2FB2
330
1E
100
AcDbEntity
  8
STEMPEL
100
AcDbLine
 10
161.6532303939162
 20
504.6481311724575
 30
0.0
 11
164.5377618364512
 21
505.9932102743005
 31
0.0
  0
LINE
  5
2FB3
330
1E
100
AcDbEntity
  8
STEMPEL
100
AcDbLine
 10
161.6532303939159
 20
506.8548870103826
 30
0.0
 11
163.69252531297
 21
507.8058258483738
 31
0.0
  0
ARC
  5
2FB8
330
1E
100
AcDbEntity
  8
STEMPEL
100
AcDbCircle
 10
209.1532303939161
 20
518.1481311724574
 30
0.0
 40
12.0
100
AcDbArc
 50
243.1119523822754
 51
270.0
  0
ARC
  5
2FB9
330
1E
100
AcDbEntity
  8
STEMPEL
100
AcDbCircle
 10
209.1534309245977
 20
518.1481311724576
 30
0.0
 40
14.0
100
AcDbArc
 50
243.1119523822754
 51
270.0
  0
ARC
  5
2FBA
330
1E
100
AcDbEntity
  8
STEMPEL
100
AcDbCircle
 10
192.4202303939163
 20
485.1481311724576
 30
0.0
 40
23.0
100
AcDbArc
 50
63.11195238227538
 51
90.0
  0
ARC
  5
2FBB
330
1E
100
AcDbEntity
  8
STEMPEL
100
AcDbCircle
 10
192.4200298632346
 20
485.1481311724576
 30
0.0
 40
25.0
100
AcDbArc
 50
63.11195238227538
 51
90.0
  0
ARC
  5
2FBC
330
1E
100
AcDbEntity
  8
STEMPEL
100
AcDbCircle
 10
174.2579818564873
 20
485.1481311724575
 30
0.0
 40
25.0
100
AcDbArc
 50
90.0
 51
114.9999999999993
  0
ARC
  5
2FBD
330
1E
100
AcDbEntity
  8
STEMPEL
100
AcDbCircle
 10
174.2579818564873
 20
485.1481311724576
 30
0.0
 40
23.0
100
AcDbArc
 50
90.0
 51
114.9999999999993
  0
ARC
  5
2FBE
330
1E
100
AcDbEntity
  8
STEMPEL
100
AcDbCircle
 10
174.2579818564873
 20
417.1481311724575
 30
0.0
 40
23.0
100
AcDbArc
 50
245.0000000000006
 51
270.0
  0
ARC
  5
2FBF
330
1E
100
AcDbEntity
  8
STEMPEL
100
AcDbCircle
 10
174.2579818564873
 20
417.1481311724575
 30
0.0
 40
25.0
100
AcDbArc
 50
245.0000000000006
 51
270.0
  0
ARC
  5
2FC0
330
1E
100
AcDbEntity
  8
STEMPEL
100
AcDbCircle
 10
192.4200298632346
 20
417.1481311724575
 30
0.0
 40
25.0
100
AcDbArc
 50
270.0
 51
296.8880476177247
  0
ARC
  5
2FC1
330
1E
100
AcDbEntity
  8
STEMPEL
100
AcDbCircle
 10
192.4202303939163
 20
417.1481311724575
 30
0.0
 40
23.0
100
AcDbArc
 50
270.0
 51
296.8880476177247
  0
ARC
  5
2FC2
330
1E
100
AcDbEntity
  8
STEMPEL
100
AcDbCircle
 10
209.1534309245977
 20
384.1481311724575
 30
0.0
 40
14.0
100
AcDbArc
 50
90.0
 51
116.8880476177246
  0
ARC
  5
2FC3
330
1E
100
AcDbEntity
  8
STEMPEL
100
AcDbCircle
 10
209.1532303939161
 20
384.1481311724576
 30
0.0
 40
12.0
100
AcDbArc
 50
90.0
 51
116.8880476177246
  0
LINE
  5
2FC8
330
1E
100
AcDbEntity
  8
STEMPEL
100
AcDbLine
 10
161.6532303939161
 20
395.4413753345326
 30
0.0
 11
163.6925253129702
 21
394.4904364965412
 31
0.0
  0
LINE
  5
2FC9
330
1E
100
AcDbEntity
  8
STEMPEL
100
AcDbLine
 10
161.6532303939162
 20
397.6481311724576
 30
0.0
 11
164.5377618364512
 21
396.3030520706146
 31
0.0
  0
LINE
  5
2FCA
330
1E
100
AcDbEntity
  8
STEMPEL
100
AcDbLine
 10
174.2579818564873
 20
392.1481311724576
 30
0.0
 11
192.4200298632347
 21
392.1481311724576
 31
0.0
  0
LINE
  5
2FCB
330
1E
100
AcDbEntity
  8
STEMPEL
100
AcDbLine
 10
174.2579818564873
 20
394.1481311724576
 30
0.0
 11
192.4202303939164
 21
394.1481311724576
 31
0.0
  0
LINE
  5
2FCC
330
1E
100
AcDbEntity
  8
STEMPEL
100
AcDbLine
 10
209.1532303939163
 20
396.1481311724576
 30
0.0
 11
211.6532303939164
 21
396.1481311724575
 31
0.0
  0
LINE
  5
2FCD
330
1E
100
AcDbEntity
  8
STEMPEL
100
AcDbLine
 10
209.1534309245978
 20
398.1481311724576
 30
0.0
 11
211.6532303939164
 21
398.1481311724575
 31
0.0
  0
LINE
  5
2FD0
330
1E
100
AcDbEntity
  8
STEMPEL
100
AcDbLine
 10
211.6532303939163
 20
396.1481311724575
 30
0.0
 11
211.6532303939163
 21
421.6481311724575
 31
0.0
  0
HATCH
  5
2FED
330
1E
100
AcDbEntity
  8
SCHRAFF
100
AcDbHatch
 10
0.0
 20
0.0
 30
0.0
210
0.0
220
0.0
230
1.0
  2
_USER
 70
     0
 71
     0
 91
        2
 92
        7
 72
     1
 73
     1
 93
       14
 10
192.4200298632347
 20
510.1481311724576
 42
0.0
 10
174.2579818564873
 20
510.1481311724575
 42
0.1095178116832362
 10
163.6925253129702
 20
507.8058258483739
 42
0.0
 10
161.6532303939161
 20
506.8548870103826
 42
0.0
 10
161.6532303939161
 20
504.6481311724575
 42
0.0
 10
164.5377618364512
 20
505.9932102743005
 42
-0.1095178116832428
 10
174.2579818564874
 20
508.1481311724576
 42
0.0
 10
192.4202303939164
 20
508.1481311724576
 42
-0.117862500850937
 10
202.8219496427186
 20
505.6616446859711
 42
0.1178625008509189
 10
209.1534309245972
 20
504.1481311724576
 42
0.0
 10
211.6532303939162
 20
504.1481311724574
 42
0.0
 10
211.6532303939164
 20
506.1481311724573
 42
0.0
 10
209.1532303939163
 20
506.1481311724576
 42
-0.11786250085094
 10
203.7262464380193
 20
507.4454284697549
 42
0.1178625008509334
 97
        0
 92
        7
 72
     1
 73
     1
 93
       14
 10
203.7262464380194
 20
394.8508338751604
 42
-0.1178625008509476
 10
209.1532303939167
 20
396.1481311724576
 42
0.0
 10
211.6532303939163
 20
396.1481311724575
 42
0.0
 10
211.6532303939162
 20
398.1481311724574
 42
0.0
 10
209.1534309245978
 20
398.1481311724576
 42
0.1178625008509336
 10
202.8219496427184
 20
396.6346176589441
 42
-0.1178625008509356
 10
192.4202303939164
 20
394.1481311724576
 42
0.0
 10
174.2579818564873
 20
394.1481311724576
 42
-0.1095178116832412
 10
164.5377618364512
 20
396.3030520706146
 42
0.0
 10
161.6532303939162
 20
397.6481311724577
 42
0.0
 10
161.6532303939162
 20
395.4413753345325
 42
0.0
 10
163.6925253129702
 20
394.4904364965412
 42
0.1095178116832362
 10
174.2579818564873
 20
392.1481311724576
 42
0.0
 10
192.4200298632347
 20
392.1481311724576
 42
0.1178625008509345
 97
        0
 75
     0
 76
     0
 52
135.0
 41
2.0
 77
     0
 78
     1
 53
135.0
 43
-544.1394553118768
 44
115.9702150296651
 45
-1.414213562373095
 46
-1.414213562373094
 79
     0
 47
0.2597552319976045
 98
        2
 10
186.7320221267073
 20
508.9562997219506
 10
178.6747477050658
 20
393.3652199653226
  0
HATCH
  5
3002
330
1E
100
AcDbEntity
  8
SCHRAFF
100
AcDbHatch
 10
0.0
 20
0.0
 30
0.0
210
0.0
220
0.0
230
1.0
  2
_USER
 70
     0
 71
     1
 91
        2
 92
        7
 72
     0
 73
     1
 93
        5
 10
298.1532303939161
 20
330.1481311724577
 10
270.6532303939162
 20
330.1481311724577
 10
270.6532303939162
 20
328.1481311724578
 10
299.6532303939162
 20
328.1481311724578
 10
299.6532303939162
 20
328.6481311724577
 97
        5
330
2B8D
330
2BB4
330
2B8E
330
2B71
330
2B72
 92
        7
 72
     0
 73
     1
 93
        5
 10
168.6532303939164
 20
330.1481311724578
 10
161.1532303939162
 20
330.1481311724578
 10
159.6532303939161
 20
328.6481311724577
 10
159.6532303939162
 20
328.1481311724578
 10
168.6532303939164
 20
328.1481311724578
 97
        5
330
2B8D
330
2B87
330
2B88
330
2B8E
330
2BB3
 75
     0
 76
     0
 52
135.0
 41
2.0
 77
     0
 78
     1
 53
135.0
 43
0.0
 44
0.0
 45
-1.414213562373095
 46
-1.414213562373094
 79
     0
 47
0.4089074292551204
 98
        2
 10
277.8576894499672
 20
328.8818718559278
 10
164.1127908721953
 20
329.6996871541437
  0
HATCH
  5
3034
330
1E
100
AcDbEntity
  8
SCHRAFF
100
AcDbHatch
 10
0.0
 20
0.0
 30
0.0
210
0.0
220
0.0
230
1.0
  2
_USER
 70
     0
 71
     1
 91
        2
 92
        7
 72
     0
 73
     1
 93
        6
 10
270.6532303939162
 20
328.1481311724577
 10
268.6532303939163
 20
328.1481311724576
 10
268.6532303939163
 20
251.2354530582748
 10
267.9456814106222
 20
243.1481311724578
 10
269.953321085709
 20
243.1481311724578
 10
270.6532303939162
 20
251.1481311724576
 97
        6
330
2B8E
330
2BB5
330
2BAA
330
2BAE
330
2BAB
330
2BB4
 92
        7
 72
     0
 73
     1
 93
        6
 10
170.6532303939164
 20
328.1481311724578
 10
168.6532303939163
 20
328.1481311724578
 10
168.6532303939163
 20
251.1481311724579
 10
169.3531397021237
 20
243.1481311724577
 10
171.3607793772104
 20
243.1481311724577
 10
170.6532303939163
 20
251.2354530582746
 97
        6
330
2B8E
330
2BB3
330
2BAC
330
2BAE
330
2BAD
330
2BB2
 75
     0
 76
     0
 52
45.0
 41
2.0
 77
     0
 78
     1
 53
45.0
 43
0.0
 44
0.0
 45
-1.414213562373094
 46
1.414213562373095
 79
     0
 47
0.1581717386005913
 98
        2
 10
269.6550546114943
 20
299.1696568440134
 10
169.6301612177819
 20
306.1292139807219
  0
LINE
  5
304D
330
1E
100
AcDbEntity
  8
TEXT
 62
     2
100
AcDbLine
 10
328.9331339537121
 20
333.6480579030792
 30
0.0
 11
298.976073578936
 21
354.2233771454264
 31
0.0
  0
TEXT
  5
304E
330
1E
100
AcDbEntity
  8
TEXT
 62
     1
100
AcDbText
 10
329.1985110913362
 20
323.4980499765517
 30
0.0
 40
7.0
  1
EDV-Art.Nr. 43794.100X
 41
0.8
  7
GREEKS
100
AcDbText
  0
LINE
  5
304F
330
1E
100
AcDbEntity
  8
TEXT
 62
     2
100
AcDbLine
 10
328.9331339537121
 20
333.6480579030792
 30
0.0
 11
435.2725628009554
 21
333.6480579030792
 31
0.0
  0
TEXT
  5
3050
330
1E
100
AcDbEntity
  8
TEXT
 62
     1
100
AcDbText
 10
329.1985110913362
 20
336.9839061839634
 30
0.0
 40
7.0
  1
Sammeltopf DN100
 41
0.8
  7
GREEKS
100
AcDbText
  0
TEXT
  5
3051
330
1E
100
AcDbEntity
  8
TEXT
 62
     1
100
AcDbText
 10
80.96590296409578
 20
567.3042395222726
 30
0.0
 40
7.0
  1
Deckel
 41
0.8
  7
GREEKS
100
AcDbText
  0
TEXT
  5
3053
330
1E
100
AcDbEntity
  8
TEXT
 62
     1
100
AcDbText
 10
80.96590296409578
 20
553.8183833148609
 30
0.0
 40
7.0
  1
EDV-Art.Nr. 43798.000X
 41
0.8
  7
GREEKS
100
AcDbText
  0
LINE
  5
3054
330
1E
100
AcDbEntity
  8
TEXT
 62
     2
100
AcDbLine
 10
207.1274542657241
 20
532.8057935760648
 30
0.0
 11
188.9516015499769
 21
563.9683912413884
 31
0.0
  0
DIMENSION
  5
3055
330
1E
100
AcDbEntity
  8
BEM
100
AcDbDimension
  2
*D12
 10
528.9531753823186
 20
556.0484756447529
 30
0.0
 11
568.9531753823184
 21
562.5484756447528
 31
0.0
 70
    32
 71
     5
 42
79.99999999999966
  3
Standard
100
AcDbAlignedDimension
 13
608.9531753823182
 23
531.148131172458
 33
0.0
 14
528.9531753823186
 24
531.148131172458
 34
0.0
100
AcDbRotatedDimension
1001
ACAD
1000
DSTYLE
1002
{
1070
    40
1040
2.0
1070
    41
1040
3.5
1070
    42
1040
1.0
1070
    43
1040
7.0
1070
    44
1040
1.0
1070
    73
1070
     0
1070
    74
1070
     0
1070
    77
1070
     1
1070
    78
1070
     8
1070
    79
1070
     2
1070
   140
1040
3.5
1070
   141
1040
1.5
1070
   146
1040
0.5142857142857144
1070
   147
1040
1.5
1070
   172
1070
     1
1070
   178
1070
     1
1070
   179
1070
     2
1070
   271
1070
     2
1070
   272
1070
     2
1070
   284
1070
     8
1070
   285
1070
     8
1070
   286
1070
     8
1002
}
  0
DIMENSION
  5
306B
330
1E
100
AcDbEntity
  8
BEM
100
AcDbDimension
  2
*D13
 10
138.5536771236459
 20
531.1481311724577
 30
0.0
 11
132.0536771236458
 21
491.1481311724577
 31
0.0
 70
    32
 71
     5
 42
80.00000000000005
  3
Standard
100
AcDbAlignedDimension
 13
152.4793961511036
 23
451.1481311724576
 33
0.0
 14
159.6532303939162
 24
531.1481311724577
 34
0.0
 50
90.0
100
AcDbRotatedDimension
1001
ACAD
1000
DSTYLE
1002
{
1070
    40
1040
2.0
1070
    41
1040
3.5
1070
    42
1040
1.0
1070
    43
1040
7.0
1070
    44
1040
1.0
1070
    73
1070
     0
1070
    74
1070
     0
1070
    77
1070
     1
1070
    78
1070
     8
1070
    79
1070
     2
1070
   140
1040
3.5
1070
   141
1040
1.5
1070
   146
1040
0.5142857142857144
1070
   147
1040
1.5
1070
   172
1070
     1
1070
   178
1070
     1
1070
   179
1070
     2
1070
   271
1070
     2
1070
   272
1070
     2
1070
   284
1070
     8
1070
   285
1070
     8
1070
   286
1070
     8
1002
}
  0
LINE
  5
30CC
330
1E
100
AcDbEntity
  8
VERDECKT
100
AcDbLine
 10
169.7840850574391
 20
188.2483597232887
 30
0.0
 11
182.7744661142056
 21
195.7483597232887
 31
0.0
  0
LINE
  5
30CD
330
1E
100
AcDbEntity
  8
VERDECKT
100
AcDbLine
 10
169.7840850574391
 20
188.2483597232887
 30
0.0
 11
168.7840850574391
 21
189.9804105308575
 31
0.0
  0
LINE
  5
30CE
330
1E
100
AcDbEntity
  8
VERDECKT
100
AcDbLine
 10
182.7744661142056
 20
195.7483597232887
 30
0.0
 11
181.7744661142056
 21
197.4804105308575
 31
0.0
  0
LINE
  5
30CF
330
1E
100
AcDbEntity
  8
VERDECKT
100
AcDbLine
 10
168.7840850574391
 20
189.9804105308575
 30
0.0
 11
181.7744661142056
 21
197.4804105308575
 31
0.0
  0
LINE
  5
30D0
330
1E
100
AcDbEntity
  8
VERDECKT
100
AcDbLine
 10
271.8682194982469
 20
169.4090568872816
 30
0.0
 11
278.0688208992834
 21
175.6096582883182
 31
0.0
  0
LINE
  5
30D1
330
1E
100
AcDbEntity
  8
VERDECKT
100
AcDbLine
 10
261.2616177804486
 20
180.0156586050797
 30
0.0
 11
267.4622191814851
 21
186.2162600061163
 31
0.0
  0
LINE
  5
30D2
330
1E
100
AcDbEntity
  8
VERDECKT
100
AcDbLine
 10
267.4622191814851
 20
186.2162600061163
 30
0.0
 11
278.0688208992834
 21
175.6096582883181
 31
0.0
  0
LINE
  5
30D3
330
1E
100
AcDbEntity
  8
VERDECKT
100
AcDbLine
 10
264.2541296048065
 20
183.0081704294377
 30
0.0
 11
274.8607313226048
 21
172.4015687116395
 31
0.0
  0
LINE
  5
30D4
330
1E
100
AcDbEntity
  8
VERDECKT
100
AcDbLine
 10
263.0293847334149
 20
181.7834255580461
 30
0.0
 11
273.635986451213
 21
171.1768238402479
 31
0.0
  0
LINE
  5
30D5
330
1E
100
AcDbEntity
  8
VERDECKT
100
AcDbLine
 10
262.4863626518402
 20
181.2404034764714
 30
0.0
 11
273.0929643696385
 21
170.6338017586732
 31
0.0
  0
LINE
  5
30D6
330
1E
100
AcDbEntity
  8
VERDECKT
100
AcDbLine
 10
261.2616177804486
 20
180.0156586050798
 30
0.0
 11
271.8682194982469
 21
169.4090568872816
 31
0.0
  0
LINE
  5
30D7
330
1E
100
AcDbEntity
  8
VERDECKT
100
AcDbLine
 10
261.2616177804487
 20
67.58568039641864
 30
0.0
 11
271.8682194982469
 21
78.19228211421688
 31
0.0
  0
LINE
  5
30D8
330
1E
100
AcDbEntity
  8
VERDECKT
100
AcDbLine
 10
262.4863626518403
 20
66.360935525027
 30
0.0
 11
273.0929643696386
 21
76.96753724282524
 31
0.0
  0
LINE
  5
30D9
330
1E
100
AcDbEntity
  8
VERDECKT
100
AcDbLine
 10
263.029384733415
 20
65.81791344345237
 30
0.0
 11
273.6359864512132
 21
76.42451516125055
 31
0.0
  0
LINE
  5
30DA
330
1E
100
AcDbEntity
  8
VERDECKT
100
AcDbLine
 10
264.2541296048066
 20
64.59316857206073
 30
0.0
 11
274.8607313226049
 21
75.19977028985895
 31
0.0
  0
LINE
  5
30DB
330
1E
100
AcDbEntity
  8
VERDECKT
100
AcDbLine
 10
267.4622191814853
 20
61.38507899538211
 30
0.0
 11
278.0688208992835
 21
71.99168071318036
 31
0.0
  0
LINE
  5
30DC
330
1E
100
AcDbEntity
  8
VERDECKT
100
AcDbLine
 10
261.2616177804487
 20
67.58568039641872
 30
0.0
 11
267.4622191814853
 21
61.38507899538211
 31
0.0
  0
LINE
  5
30DD
330
1E
100
AcDbEntity
  8
VERDECKT
100
AcDbLine
 10
271.8682194982469
 20
78.19228211421688
 30
0.0
 11
278.0688208992835
 21
71.99168071318033
 31
0.0
  0
LINE
  5
30DE
330
1E
100
AcDbEntity
  8
VERDECKT
100
AcDbLine
 10
168.7840850574391
 20
57.62092847064099
 30
0.0
 11
181.7744661142056
 21
50.12092847064099
 31
0.0
  0
LINE
  5
30DF
330
1E
100
AcDbEntity
  8
VERDECKT
100
AcDbLine
 10
182.7744661142056
 20
51.85297927820986
 30
0.0
 11
181.7744661142056
 21
50.12092847064099
 31
0.0
  0
LINE
  5
30E0
330
1E
100
AcDbEntity
  8
VERDECKT
100
AcDbLine
 10
169.7840850574391
 20
59.3529792782098
 30
0.0
 11
168.7840850574391
 21
57.62092847064099
 31
0.0
  0
LINE
  5
30E1
330
1E
100
AcDbEntity
  8
VERDECKT
100
AcDbLine
 10
169.7840850574391
 20
59.35297927820986
 30
0.0
 11
182.7744661142056
 21
51.85297927820986
 31
0.0
  0
LINE
  5
30FC
330
1E
100
AcDbEntity
  8
STEMPEL
100
AcDbLine
 10
168.3510723555467
 20
511.1481311724578
 30
0.0
 11
168.3510723555467
 21
531.1481311724577
 31
0.0
  0
LINE
  5
30FD
330
1E
100
AcDbEntity
  8
STEMPEL
100
AcDbLine
 10
169.3510723555468
 20
511.1481311724578
 30
0.0
 11
169.3510723555468
 21
531.1481311724577
 31
0.0
  0
LINE
  5
30FE
330
1E
100
AcDbEntity
  8
STEMPEL
100
AcDbLine
 10
183.2074788160976
 20
511.1481311724578
 30
0.0
 11
183.2074788160977
 21
531.1481311724577
 31
0.0
  0
ARC
  5
3100
330
1E
100
AcDbEntity
  8
STEMPEL
100
AcDbCircle
 10
264.9918751424926
 20
518.1545947298018
 30
0.0
 40
1.0
100
AcDbArc
 50
338.3663755437286
 51
21.84336930889145
  0
ARC
  5
3101
330
1E
100
AcDbEntity
  8
STEMPEL
100
AcDbCircle
 10
275.5984768602908
 20
518.1545947298017
 30
0.0
 40
1.0
100
AcDbArc
 50
338.3663755437286
 51
21.84336930889145
  0
LINE
  5
3102
330
1E
100
AcDbEntity
  8
STEMPEL
100
AcDbLine
 10
263.0293847334148
 20
510.4939439749412
 30
0.0
 11
265.9214354316409
 21
517.7859245942626
 31
0.0
  0
LINE
  5
3103
330
1E
100
AcDbEntity
  8
STEMPEL
100
AcDbLine
 10
273.635986451213
 20
510.4939439749413
 30
0.0
 11
276.528037149439
 21
517.7859245942625
 31
0.0
  0
LINE
  5
3104
330
1E
100
AcDbEntity
  8
STEMPEL
100
AcDbLine
 10
261.2616177804485
 20
530.1481311724581
 30
0.0
 11
265.9200796012681
 21
518.5266652643906
 31
0.0
  0
LINE
  5
3105
330
1E
100
AcDbEntity
  8
STEMPEL
100
AcDbLine
 10
271.8682194982467
 20
530.1481311724581
 30
0.0
 11
276.5266813190663
 21
518.5266652643905
 31
0.0
  0
LINE
  5
3106
330
1E
100
AcDbEntity
  8
STEMPEL
100
AcDbLine
 10
274.8607313226046
 20
509.4939439749411
 30
0.0
 11
277.8575017667282
 21
517.0499636576206
 31
0.0
  0
LINE
  5
3107
330
1E
100
AcDbEntity
  8
STEMPEL
100
AcDbLine
 10
273.0929643696384
 20
531.1481311724578
 30
0.0
 11
277.8534342756099
 21
519.2721856680048
 31
0.0
  0
ARC
  5
3108
330
1E
100
AcDbEntity
  8
STEMPEL
100
AcDbCircle
 10
275.0688208992833
 20
518.1559740642383
 30
0.0
 40
3.0
100
AcDbArc
 50
338.3663755437286
 51
21.84336930889145
  0
LINE
  5
3109
330
1E
100
AcDbEntity
  8
STEMPEL
100
AcDbLine
 10
264.2541296048065
 20
509.4939439749411
 30
0.0
 11
263.0293847334148
 21
510.4939439749412
 31
0.0
  0
LINE
  5
310A
330
1E
100
AcDbEntity
  8
STEMPEL
100
AcDbLine
 10
273.635986451213
 20
510.4939439749413
 30
0.0
 11
274.8607313226046
 21
509.4939439749411
 31
0.0
  0
LINE
  5
310B
330
1E
100
AcDbEntity
  8
STEMPEL
100
AcDbLine
 10
261.2616177804485
 20
530.1481311724581
 30
0.0
 11
262.4863626518402
 21
531.1481311724578
 31
0.0
  0
LINE
  5
310C
330
1E
100
AcDbEntity
  8
STEMPEL
100
AcDbLine
 10
271.8682194982467
 20
530.1481311724581
 30
0.0
 11
261.2616177804485
 21
530.1481311724581
 31
0.0
  0
LINE
  5
310D
330
1E
100
AcDbEntity
  8
STEMPEL
100
AcDbLine
 10
273.0929643696383
 20
531.1481311724578
 30
0.0
 11
271.8682194982467
 21
530.1481311724581
 31
0.0
  0
LINE
  5
310E
330
1E
100
AcDbEntity
  8
HILF
100
AcDbLine
 10
276.5984759090086
 20
518.1559740642383
 30
0.0
 11
265.9918741912104
 21
518.1559740642383
 31
0.0
  0
LINE
  5
310F
330
1E
100
AcDbEntity
  8
STEMPEL
100
AcDbLine
 10
273.635986451213
 20
510.4939439749413
 30
0.0
 11
263.0293847334148
 21
510.4939439749412
 31
0.0
  0
LINE
  5
3110
330
1E
100
AcDbEntity
  8
STEMPEL
100
AcDbLine
 10
274.8607313226047
 20
509.4939439749411
 30
0.0
 11
264.2541296048065
 21
509.4939439749411
 31
0.0
  0
ARC
  5
3142
330
1E
100
AcDbEntity
  8
VERDECKT
100
AcDbCircle
 10
509.0087233034205
 20
517.7948108142537
 30
0.0
 40
1.0
100
AcDbArc
 50
158.756343465414
 51
202.6410490731965
  0
ARC
  5
3143
330
1E
100
AcDbEntity
  8
VERDECKT
100
AcDbCircle
 10
519.6153250212188
 20
517.7948108142537
 30
0.0
 40
1.0
100
AcDbArc
 50
158.756343465414
 51
202.6410490731965
  0
LINE
  5
3144
330
1E
100
AcDbEntity
  8
VERDECKT
100
AcDbLine
 10
523.3447879957862
 20
530.1481311724579
 30
0.0
 11
521.5506947029149
 21
525.5331153896579
 31
0.0
  0
LINE
  5
3145
330
1E
100
AcDbEntity
  8
VERDECKT
100
AcDbLine
 10
521.57702104282
 20
510.4939439749413
 30
0.0
 11
518.6923903661294
 21
517.4098541641813
 31
0.0
  0
LINE
  5
3146
330
1E
100
AcDbEntity
  8
VERDECKT
100
AcDbLine
 10
510.9704193250216
 20
510.4939439749413
 30
0.0
 11
508.0857886483311
 21
517.4098541641813
 31
0.0
  0
LINE
  5
3147
330
1E
100
AcDbEntity
  8
VERDECKT
100
AcDbLine
 10
512.738186277988
 20
530.1481311724579
 30
0.0
 11
508.0766753127554
 21
518.1571456636639
 31
0.0
  0
LINE
  5
3148
330
1E
100
AcDbEntity
  8
VERDECKT
100
AcDbLine
 10
509.7456744536301
 20
509.4939439749411
 30
0.0
 11
506.7687809116832
 21
516.6310546440452
 31
0.0
  0
LINE
  5
3149
330
1E
100
AcDbEntity
  8
VERDECKT
100
AcDbLine
 10
511.5134414065964
 20
531.1481311724578
 30
0.0
 11
506.741440904956
 21
518.872929142493
 31
0.0
  0
ARC
  5
314A
330
1E
100
AcDbEntity
  8
VERDECKT
100
AcDbCircle
 10
509.5375848769514
 20
517.7859245942625
 30
0.0
 40
3.0
100
AcDbArc
 50
158.756343465414
 51
202.6410490732025
  0
LINE
  5
314B
330
1E
100
AcDbEntity
  8
VERDECKT
100
AcDbLine
 10
508.0087627866529
 20
517.7859245942625
 30
0.0
 11
518.6153645044512
 21
517.7859245942625
 31
0.0
  0
LINE
  5
314C
330
1E
100
AcDbEntity
  8
VERDECKT
100
AcDbLine
 10
510.9704193250216
 20
510.4939439749413
 30
0.0
 11
509.7456744536301
 21
509.4939439749411
 31
0.0
  0
LINE
  5
314D
330
1E
100
AcDbEntity
  8
VERDECKT
100
AcDbLine
 10
521.57702104282
 20
510.4939439749413
 30
0.0
 11
520.3522761714282
 21
509.493943974941
 31
0.0
  0
LINE
  5
314E
330
1E
100
AcDbEntity
  8
VERDECKT
100
AcDbLine
 10
509.7456744536301
 20
509.4939439749411
 30
0.0
 11
520.3522761714282
 21
509.493943974941
 31
0.0
  0
LINE
  5
314F
330
1E
100
AcDbEntity
  8
VERDECKT
100
AcDbLine
 10
510.9704193250216
 20
510.4939439749413
 30
0.0
 11
521.57702104282
 21
510.4939439749413
 31
0.0
  0
LINE
  5
3150
330
1E
100
AcDbEntity
  8
VERDECKT
100
AcDbLine
 10
512.738186277988
 20
530.1481311724579
 30
0.0
 11
511.5134414065964
 21
531.1481311724578
 31
0.0
  0
LINE
  5
3151
330
1E
100
AcDbEntity
  8
VERDECKT
100
AcDbLine
 10
523.3447879957862
 20
530.1481311724579
 30
0.0
 11
522.1200431243945
 21
531.1481311724578
 31
0.0
  0
LINE
  5
3152
330
1E
100
AcDbEntity
  8
VERDECKT
100
AcDbLine
 10
512.738186277988
 20
530.1481311724579
 30
0.0
 11
523.3447879957862
 21
530.1481311724579
 31
0.0
  0
LINE
  5
3153
330
1E
100
AcDbEntity
  8
VERDECKT
100
AcDbLine
 10
495.0234343522103
 20
511.1481311724579
 30
0.0
 11
504.7554851597791
 21
511.1481311724578
 31
0.0
  0
LINE
  5
3154
330
1E
100
AcDbEntity
  8
VERDECKT
100
AcDbLine
 10
504.7554851597791
 20
511.1481311724578
 30
0.0
 11
504.7554851597791
 21
531.1481311724578
 31
0.0
  0
LINE
  5
3155
330
1E
100
AcDbEntity
  8
VERDECKT
100
AcDbLine
 10
503.0234343522102
 20
511.1481311724578
 30
0.0
 11
503.0234343522103
 21
531.148131172458
 31
0.0
  0
LINE
  5
3156
330
1E
100
AcDbEntity
  8
VERDECKT
100
AcDbLine
 10
495.0234343522103
 20
511.1481311724579
 30
0.0
 11
495.0234343522103
 21
531.1481311724578
 31
0.0
  0
LINE
  5
3157
330
1E
100
AcDbEntity
  8
STEMPEL
100
AcDbLine
 10
623.7163445658307
 20
531.1481311724578
 30
0.0
 11
629.4898472577269
 21
531.1481311724578
 31
0.0
  0
POINT
  5
3158
330
1E
100
AcDbEntity
  8
DEFPOINTS
  6
ByBlock
 62
     0
100
AcDbPoint
 10
608.9531753823185
 20
531.148131172458
 30
0.0
  0
LINE
  5
3159
330
1E
100
AcDbEntity
  8
VERDECKT
100
AcDbLine
 10
642.8829164124266
 20
511.1481311724579
 30
0.0
 11
642.8829164124266
 21
531.1481311724578
 31
0.0
  0
LINE
  5
315A
330
1E
100
AcDbEntity
  8
VERDECKT
100
AcDbLine
 10
634.8829164124268
 20
511.1481311724578
 30
0.0
 11
634.8829164124266
 21
531.148131172458
 31
0.0
  0
LINE
  5
315B
330
1E
100
AcDbEntity
  8
VERDECKT
100
AcDbLine
 10
633.1508656048579
 20
511.1481311724578
 30
0.0
 11
633.1508656048579
 21
531.1481311724578
 31
0.0
  0
LINE
  5
315C
330
1E
100
AcDbEntity
  8
VERDECKT
100
AcDbLine
 10
642.8829164124266
 20
511.1481311724579
 30
0.0
 11
633.1508656048579
 21
511.1481311724578
 31
0.0
  0
LINE
  5
315D
330
1E
100
AcDbEntity
  8
VERDECKT
100
AcDbLine
 10
625.1681644866489
 20
530.1481311724579
 30
0.0
 11
614.5615627688507
 21
530.1481311724579
 31
0.0
  0
LINE
  5
315E
330
1E
100
AcDbEntity
  8
VERDECKT
100
AcDbLine
 10
614.5615627688507
 20
530.1481311724579
 30
0.0
 11
615.7863076402423
 21
531.1481311724578
 31
0.0
  0
LINE
  5
315F
330
1E
100
AcDbEntity
  8
VERDECKT
100
AcDbLine
 10
625.1681644866489
 20
530.1481311724579
 30
0.0
 11
626.3929093580405
 21
531.1481311724578
 31
0.0
  0
LINE
  5
3160
330
1E
100
AcDbEntity
  8
VERDECKT
100
AcDbLine
 10
626.9359314396153
 20
510.4939439749413
 30
0.0
 11
616.3293297218169
 21
510.4939439749413
 31
0.0
  0
LINE
  5
3161
330
1E
100
AcDbEntity
  8
VERDECKT
100
AcDbLine
 10
628.1606763110069
 20
509.4939439749411
 30
0.0
 11
617.5540745932087
 21
509.493943974941
 31
0.0
  0
LINE
  5
3162
330
1E
100
AcDbEntity
  8
VERDECKT
100
AcDbLine
 10
616.3293297218169
 20
510.4939439749413
 30
0.0
 11
617.5540745932087
 21
509.493943974941
 31
0.0
  0
LINE
  5
3163
330
1E
100
AcDbEntity
  8
VERDECKT
100
AcDbLine
 10
626.9359314396153
 20
510.4939439749413
 30
0.0
 11
628.1606763110069
 21
509.4939439749411
 31
0.0
  0
LINE
  5
3164
330
1E
100
AcDbEntity
  8
VERDECKT
100
AcDbLine
 10
629.8975879779841
 20
517.7859245942625
 30
0.0
 11
619.2909862601857
 21
517.7859245942625
 31
0.0
  0
ARC
  5
3165
330
1E
100
AcDbEntity
  8
VERDECKT
100
AcDbCircle
 10
628.3687658876853
 20
517.7859245942625
 30
0.0
 40
3.0
100
AcDbArc
 50
337.3589509267975
 51
21.24365653458601
  0
LINE
  5
3166
330
1E
100
AcDbEntity
  8
VERDECKT
100
AcDbLine
 10
626.3929093580405
 20
531.1481311724578
 30
0.0
 11
631.1649098596809
 21
518.872929142493
 31
0.0
  0
LINE
  5
3167
330
1E
100
AcDbEntity
  8
VERDECKT
100
AcDbLine
 10
628.1606763110069
 20
509.4939439749411
 30
0.0
 11
631.1375698529537
 21
516.6310546440452
 31
0.0
  0
LINE
  5
3168
330
1E
100
AcDbEntity
  8
VERDECKT
100
AcDbLine
 10
625.1681644866489
 20
530.1481311724579
 30
0.0
 11
629.8296754518815
 21
518.1571456636639
 31
0.0
  0
LINE
  5
3169
330
1E
100
AcDbEntity
  8
VERDECKT
100
AcDbLine
 10
626.9359314396153
 20
510.4939439749413
 30
0.0
 11
629.8205621163058
 21
517.4098541641813
 31
0.0
  0
LINE
  5
316A
330
1E
100
AcDbEntity
  8
VERDECKT
100
AcDbLine
 10
616.3293297218169
 20
510.4939439749413
 30
0.0
 11
619.2139603985075
 21
517.4098541641813
 31
0.0
  0
LINE
  5
316B
330
1E
100
AcDbEntity
  8
VERDECKT
100
AcDbLine
 10
614.5615627688507
 20
530.1481311724579
 30
0.0
 11
616.355656061722
 21
525.5331153896578
 31
0.0
  0
ARC
  5
316C
330
1E
100
AcDbEntity
  8
VERDECKT
100
AcDbCircle
 10
618.2910257434181
 20
517.7948108142537
 30
0.0
 40
1.0
100
AcDbArc
 50
337.3589509267975
 51
21.24365653458601
  0
ARC
  5
316D
330
1E
100
AcDbEntity
  8
VERDECKT
100
AcDbCircle
 10
628.8976274612164
 20
517.7948108142537
 30
0.0
 40
1.0
100
AcDbArc
 50
337.3589509267975
 51
21.24365653458601
  0
LINE
  5
316E
330
1E
100
AcDbEntity
  8
STEMPEL
100
AcDbLine
 10
616.355656061722
 20
525.5331153896578
 30
0.0
 11
618.6865657524286
 21
519.537225959807
 31
0.0
  0
LINE
  5
316F
330
1E
100
AcDbEntity
  8
VERDECKT
100
AcDbLine
 10
618.6865657524286
 20
519.537225959807
 30
0.0
 11
619.2230737340833
 21
518.1571456636639
 31
0.0
  0
LINE
  5
3170
330
1E
100
AcDbEntity
  8
STEMPEL
100
AcDbLine
 10
521.5506947029149
 20
525.5331153896579
 30
0.0
 11
519.219785012208
 21
519.5372259598067
 31
0.0
  0
LINE
  5
3171
330
1E
100
AcDbEntity
  8
VERDECKT
100
AcDbLine
 10
519.219785012208
 20
519.5372259598067
 30
0.0
 11
518.6832770305536
 21
518.1571456636639
 31
0.0
  0
DIMENSION
  5
31A2
330
1E
100
AcDbEntity
  8
BEM
100
AcDbDimension
  2
*D14
 10
249.6532303939163
 20
406.8512891504319
 30
0.0
 11
224.7523929006841
 21
406.8512891504319
 31
0.0
 70
   160
 71
     5
 42
90.00000000000023
  3
Standard
100
AcDbAlignedDimension
 13
159.6532303939161
 23
421.5417780225209
 33
0.0
 14
249.6532303939163
 24
422.9359885296434
 34
0.0
 50
180.0
100
AcDbRotatedDimension
1001
ACAD
1000
DSTYLE
1002
{
1070
    40
1040
2.0
1070
    41
1040
3.5
1070
    42
1040
1.0
1070
    43
1040
7.0
1070
    44
1040
1.0
1070
    73
1070
     0
1070
    74
1070
     0
1070
    77
1070
     1
1070
    78
1070
     8
1070
    79
1070
     2
1070
   140
1040
3.5
1070
   141
1040
1.5
1070
   146
1040
0.5142857142857144
1070
   147
1040
1.5
1070
   172
1070
     1
1070
   178
1070
     1
1070
   179
1070
     2
1070
   271
1070
     2
1070
   272
1070
     2
1070
   284
1070
     8
1070
   285
1070
     8
1070
   286
1070
     8
1002
}
  0
LINE
  5
31A3
330
1E
100
AcDbEntity
  8
STEMPEL
100
AcDbLine
 10
159.6532303939161
 20
480.7551760216488
 30
0.0
 11
159.7946756326334
 21
480.8211330196721
 31
0.0
  0
LINE
  5
31A4
102
{ACAD_REACTORS
330
326E
102
}
330
1E
100
AcDbEntity
  8
STEMPEL
100
AcDbLine
 10
168.0357317365769
 20
482.6481311724576
 30
0.0
 11
172.4511946919078
 21
482.6481311724576
 31
0.0
  0
ARC
  5
31A5
102
{ACAD_REACTORS
330
326E
102
}
330
1E
100
AcDbEntity
  8
STEMPEL
100
AcDbCircle
 10
172.4912303939162
 20
457.6481311724576
 30
0.0
 40
25.00003205712822
100
AcDbArc
 50
70.53690055531231
 51
90.09175499175885
  0
ARC
  5
31A6
102
{ACAD_REACTORS
330
326E
102
}
330
1E
100
AcDbEntity
  8
STEMPEL
100
AcDbCircle
 10
168.0357317365769
 20
463.1481311724575
 30
0.0
 40
19.5
100
AcDbArc
 50
90.0
 51
115.4594285688038
  0
LINE
  5
31A7
102
{ACAD_REACTORS
330
326E
102
}
330
1E
100
AcDbEntity
  8
STEMPEL
100
AcDbLine
 10
184.1532303939161
 20
480.6481311724576
 30
0.0
 11
244.2449034807202
 21
480.6481311724576
 31
0.0
  0
ARC
  5
31A8
102
{ACAD_REACTORS
330
326E
102
}
330
1E
100
AcDbEntity
  8
STEMPEL
100
AcDbCircle
 10
254.7805572335729
 20
485.6481311724576
 30
0.0
 40
8.0
100
AcDbArc
 50
238.2116693829497
 51
270.0
  0
ARC
  5
31A9
102
{ACAD_REACTORS
330
326E
102
}
330
1E
100
AcDbEntity
  8
STEMPEL
100
AcDbCircle
 10
244.2449034807202
 20
468.6481311724576
 30
0.0
 40
12.0
100
AcDbArc
 50
58.21166938294976
 51
90.0
  0
ARC
  5
31AA
102
{ACAD_REACTORS
330
326E
102
}
330
1E
100
AcDbEntity
  8
STEMPEL
100
AcDbCircle
 10
184.1532303939161
 20
490.6481311724576
 30
0.0
 40
10.0
100
AcDbArc
 50
250.5369005553124
 51
270.0
  0
LINE
  5
31AB
330
1E
100
AcDbEntity
  8
STEMPEL
100
AcDbLine
 10
159.6532303939161
 20
421.5410863232664
 30
0.0
 11
159.7946756326334
 21
421.475129325243
 31
0.0
  0
LINE
  5
31AC
102
{ACAD_REACTORS
330
326E
102
}
330
1E
100
AcDbEntity
  8
STEMPEL
100
AcDbLine
 10
168.0357317365771
 20
419.6481311724576
 30
0.0
 11
172.4511946919078
 21
419.6481311724576
 31
0.0
  0
ARC
  5
31AD
102
{ACAD_REACTORS
330
326E
102
}
330
1E
100
AcDbEntity
  8
STEMPEL
100
AcDbCircle
 10
172.4912303939162
 20
444.6481311724576
 30
0.0
 40
25.00003205712822
100
AcDbArc
 50
269.9082450082412
 51
289.4630994446876
  0
ARC
  5
31AE
102
{ACAD_REACTORS
330
326E
102
}
330
1E
100
AcDbEntity
  8
STEMPEL
100
AcDbCircle
 10
168.035731736577
 20
439.1481311724576
 30
0.0
 40
19.5
100
AcDbArc
 50
244.540571431189
 51
270.0
  0
LINE
  5
31AF
102
{ACAD_REACTORS
330
326E
102
}
330
1E
100
AcDbEntity
  8
STEMPEL
100
AcDbLine
 10
184.1532303939161
 20
421.6481311724576
 30
0.0
 11
244.2449034807202
 21
421.6481311724576
 31
0.0
  0
ARC
  5
31B0
102
{ACAD_REACTORS
330
326E
102
}
330
1E
100
AcDbEntity
  8
STEMPEL
100
AcDbCircle
 10
254.780557233573
 20
416.6481311724576
 30
0.0
 40
8.0
100
AcDbArc
 50
90.0
 51
121.7883306170502
  0
ARC
  5
31B1
102
{ACAD_REACTORS
330
326E
102
}
330
1E
100
AcDbEntity
  8
STEMPEL
100
AcDbCircle
 10
244.2449034807202
 20
433.6481311724575
 30
0.0
 40
12.0
100
AcDbArc
 50
270.0
 51
301.7883306170503
  0
ARC
  5
31B2
102
{ACAD_REACTORS
330
326E
102
}
330
1E
100
AcDbEntity
  8
STEMPEL
100
AcDbCircle
 10
184.1532303939161
 20
411.6481311724576
 30
0.0
 40
10.0
100
AcDbArc
 50
90.0
 51
109.4630994446876
  0
LINE
  5
31B3
102
{ACAD_REACTORS
330
326E
102
}
330
1E
100
AcDbEntity
  8
STEMPEL
100
AcDbLine
 10
159.6532303939163
 20
480.7544843223943
 30
0.0
 11
159.6532303939161
 21
421.5417780225209
 31
0.0
  0
LINE
  5
31B4
330
1E
100
AcDbEntity
  8
HILF
100
AcDbLine
 10
252.1788750854236
 20
427.3360332116793
 30
0.0
 11
252.1788750854236
 21
474.9602291332358
 31
0.0
  0
LINE
  5
31B5
330
1E
100
AcDbEntity
  8
HILF
100
AcDbLine
 10
247.1204469076224
 20
425.1198693331377
 30
0.0
 11
247.1204469076224
 21
477.1763930117775
 31
0.0
  0
LINE
  5
31B6
330
1E
100
AcDbEntity
  8
HILF
100
AcDbLine
 10
182.2093609197147
 20
424.5019777355401
 30
0.0
 11
182.2093609197147
 21
477.794284609375
 31
0.0
  0
TEXT
  5
31B7
330
1E
100
AcDbEntity
  8
VOLL
100
AcDbText
 10
290.6256388777095
 20
457.4510604167658
 30
0.0
 40
7.0
  1
DN50
 41
0.8
  7
GREEKS
100
AcDbText
  0
LINE
  5
31B8
102
{ACAD_REACTORS
330
326E
330
32D2
330
3540
102
}
330
1E
100
AcDbEntity
  8
STEMPEL
100
AcDbLine
 10
254.780557233573
 20
477.6481311724576
 30
0.0
 11
316.6532303939164
 21
477.6481311724576
 31
0.0
  0
LINE
  5
31B9
102
{ACAD_REACTORS
330
326E
330
3540
102
}
330
1E
100
AcDbEntity
  8
STEMPEL
100
AcDbLine
 10
254.780557233573
 20
424.6481311724576
 30
0.0
 11
369.6532303939162
 21
424.6481311724576
 31
0.0
  0
LINE
  5
31EC
102
{ACAD_REACTORS
330
3540
102
}
330
1E
100
AcDbEntity
  8
STEMPEL
100
AcDbLine
 10
297.6532303939162
 20
477.6481311724576
 30
0.0
 11
297.6532303939161
 21
491.148131172458
 31
0.0
  0
LINE
  5
31ED
102
{ACAD_REACTORS
330
32D2
330
3540
102
}
330
1E
100
AcDbEntity
  8
STEMPEL
100
AcDbLine
 10
299.6532303939162
 20
477.6481311724575
 30
0.0
 11
299.6532303939163
 21
491.148131172458
 31
0.0
  0
LINE
  5
31EE
330
1E
100
AcDbEntity
  8
HILF
100
AcDbLine
 10
205.8790119616424
 20
480.6481311724575
 30
0.0
 11
205.8790119616424
 21
502.4867297773794
 31
0.0
  0
LINE
  5
31EF
330
1E
100
AcDbEntity
  8
STEMPEL
100
AcDbLine
 10
211.6532303939163
 20
480.6481311724576
 30
0.0
 11
211.6532303939163
 21
506.1481311724573
 31
0.0
  0
LINE
  5
31F0
102
{ACAD_REACTORS
330
326E
102
}
330
1E
100
AcDbEntity
  8
STEMPEL
100
AcDbLine
 10
316.6532303939164
 20
477.6481311724576
 30
0.0
 11
369.6532303939161
 21
424.6481311724576
 31
0.0
  0
LINE
  5
31F2
102
{ACAD_REACTORS
330
3540
102
}
330
1E
100
AcDbEntity
  8
STEMPEL
100
AcDbLine
 10
161.6532303939163
 20
481.5740280735838
 30
0.0
 11
161.6532303939162
 21
531.1481311724577
 31
0.0
  0
LINE
  5
3205
102
{ACAD_REACTORS
330
326E
102
}
330
1E
100
AcDbEntity
  8
STEMPEL
100
AcDbLine
 10
254.780557233573
 20
476.1481311724576
 30
0.0
 11
318.1532303939163
 21
476.1481311724576
 31
0.0
  0
LINE
  5
3206
102
{ACAD_REACTORS
330
326E
102
}
330
1E
100
AcDbEntity
  8
STEMPEL
100
AcDbLine
 10
254.780557233573
 20
426.1481311724576
 30
0.0
 11
368.1532303939162
 21
426.1481311724576
 31
0.0
  0
ARC
  5
3207
102
{ACAD_REACTORS
330
326E
102
}
330
1E
100
AcDbEntity
  8
STEMPEL
100
AcDbCircle
 10
254.780557233573
 20
416.6481311724576
 30
0.0
 40
9.5
100
AcDbArc
 50
90.0
 51
121.7883306170502
  0
ARC
  5
3209
102
{ACAD_REACTORS
330
326E
102
}
330
1E
100
AcDbEntity
  8
STEMPEL
100
AcDbCircle
 10
244.2449034807202
 20
433.6481311724575
 30
0.0
 40
10.5
100
AcDbArc
 50
270.0
 51
301.7883306170503
  0
ARC
  5
320B
102
{ACAD_REACTORS
330
326E
102
}
330
1E
100
AcDbEntity
  8
STEMPEL
100
AcDbCircle
 10
254.7805572335729
 20
485.6481311724576
 30
0.0
 40
9.5
100
AcDbArc
 50
238.2116693829497
 51
270.0
  0
ARC
  5
320D
102
{ACAD_REACTORS
330
326E
102
}
330
1E
100
AcDbEntity
  8
STEMPEL
100
AcDbCircle
 10
244.2449034807202
 20
468.6481311724576
 30
0.0
 40
10.5
100
AcDbArc
 50
58.21166938294976
 51
90.0
  0
LINE
  5
320F
102
{ACAD_REACTORS
330
326E
102
}
330
1E
100
AcDbEntity
  8
STEMPEL
100
AcDbLine
 10
184.1532303939161
 20
479.1481311724576
 30
0.0
 11
244.2449034807202
 21
479.1481311724576
 31
0.0
  0
LINE
  5
3210
102
{ACAD_REACTORS
330
326E
102
}
330
1E
100
AcDbEntity
  8
STEMPEL
100
AcDbLine
 10
184.1532303939161
 20
423.1481311724576
 30
0.0
 11
244.2449034807202
 21
423.1481311724576
 31
0.0
  0
ARC
  5
3211
102
{ACAD_REACTORS
330
326E
102
}
330
1E
100
AcDbEntity
  8
STEMPEL
100
AcDbCircle
 10
184.1532303939161
 20
411.6481311724576
 30
0.0
 40
11.5
100
AcDbArc
 50
90.0
 51
109.4630994446876
  0
ARC
  5
3213
330
1E
100
AcDbEntity
  8
STEMPEL
100
AcDbCircle
 10
184.1532303939161
 20
490.6481311724576
 30
0.0
 40
11.5
100
AcDbArc
 50
250.5369005553124
 51
270.0
  0
ARC
  5
3214
102
{ACAD_REACTORS
330
326E
102
}
330
1E
100
AcDbEntity
  8
STEMPEL
100
AcDbCircle
 10
184.1532303939161
 20
490.6481311724576
 30
0.0
 40
11.5
100
AcDbArc
 50
250.5369005553124
 51
270.0
  0
ARC
  5
3216
102
{ACAD_REACTORS
330
326E
102
}
330
1E
100
AcDbEntity
  8
STEMPEL
100
AcDbCircle
 10
172.4912303939162
 20
457.6481311724576
 30
0.0
 40
23.50003205712821
100
AcDbArc
 50
70.53690055531231
 51
90.09175499175885
  0
ARC
  5
3217
102
{ACAD_REACTORS
330
326E
102
}
330
1E
100
AcDbEntity
  8
STEMPEL
100
AcDbCircle
 10
168.0357317365769
 20
463.1481311724575
 30
0.0
 40
18.0
100
AcDbArc
 50
90.0
 51
117.7551793916145
  0
LINE
  5
3218
102
{ACAD_REACTORS
330
326E
102
}
330
1E
100
AcDbEntity
  8
STEMPEL
100
AcDbLine
 10
168.0357317365769
 20
481.1481311724576
 30
0.0
 11
172.4511946919078
 21
481.1481311724576
 31
0.0
  0
ARC
  5
3219
102
{ACAD_REACTORS
330
326E
102
}
330
1E
100
AcDbEntity
  8
STEMPEL
100
AcDbCircle
 10
172.4912303939162
 20
444.6481311724576
 30
0.0
 40
23.50003205712821
100
AcDbArc
 50
269.9082450082412
 51
289.4630994446876
  0
LINE
  5
321A
102
{ACAD_REACTORS
330
326E
102
}
330
1E
100
AcDbEntity
  8
STEMPEL
100
AcDbLine
 10
168.0357317365771
 20
421.1481311724575
 30
0.0
 11
172.4511946919078
 21
421.1481311724575
 31
0.0
  0
ARC
  5
321B
102
{ACAD_REACTORS
330
326E
102
}
330
1E
100
AcDbEntity
  8
STEMPEL
100
AcDbCircle
 10
168.035731736577
 20
439.1481311724576
 30
0.0
 40
18.0
100
AcDbArc
 50
242.2448206083851
 51
270.0
  0
HATCH
  5
326E
330
1E
100
AcDbEntity
  8
SCHRAFF
100
AcDbHatch
 10
0.0
 20
0.0
 30
0.0
210
0.0
220
0.0
230
1.0
  2
_USER
 70
     0
 71
     1
 91
        4
 92
        7
 72
     1
 73
     1
 93
       10
 10
254.780557233573
 20
477.6481311724576
 42
-0.1395991324168588
 10
250.566295732432
 20
478.8481311724575
 42
0.1395991324168645
 10
244.2449034807202
 20
480.6481311724576
 42
0.0
 10
215.6532303939162
 20
480.6481311724575
 42
0.0
 10
215.6532303939163
 20
479.1481311724577
 42
0.0
 10
244.2449034807202
 20
479.1481311724576
 42
-0.1395991324168549
 10
249.7761217009677
 20
477.5731311724577
 42
0.1395991324168675
 10
254.780557233573
 20
476.1481311724576
 42
0.0
 10
318.1532303939164
 20
476.1481311724576
 42
0.0
 10
316.6532303939165
 20
477.6481311724576
 42
0.0
 97
       10
330
31B8
330
31A8
330
31A9
330
31A7
330
2B94
330
320F
330
320D
330
320B
330
3205
330
31F0
 92
        7
 72
     1
 73
     1
 93
       12
 10
184.1532303939161
 20
480.6481311724576
 42
-0.0851285408962447
 10
180.8212334457521
 20
481.2195683796759
 42
0.0855318126720408
 10
172.4511946919078
 20
482.6481311724576
 42
0.0
 10
168.0357317365769
 20
482.6481311724576
 42
0.1115469390821222
 10
159.6532303939163
 20
480.7544843223944
 42
0.0
 10
159.6532303939163
 20
479.0771509552405
 42
-0.1217003665640537
 10
168.0357317365768
 20
481.1481311724576
 42
0.0
 10
172.4524143398086
 20
481.1481311724576
 42
-0.0855444844072682
 10
180.3214339035269
 20
479.805283960759
 42
0.0851285408962614
 10
184.1532303939162
 20
479.1481311724576
 42
0.0
 10
215.6532303939163
 20
479.1481311724576
 42
0.0
 10
215.6532303939162
 20
480.6481311724575
 42
0.0
 97
       12
330
31A7
330
31AA
330
31A5
330
31A4
330
31A6
330
31B3
330
3217
330
3218
330
3216
330
3214
330
320F
330
2B94
 92
        7
 72
     1
 73
     1
 93
       12
 10
184.1532303939161
 20
423.1481311724576
 42
0.0851285408962517
 10
180.3214339035272
 20
422.4909783841563
 42
-0.0855444844073028
 10
172.4524143398056
 20
421.1481311724575
 42
0.0
 10
168.0357317365771
 20
421.1481311724575
 42
-0.1217003665640617
 10
159.6532303939161
 20
423.2191113896747
 42
0.0
 10
159.6532303939161
 20
421.5417780225209
 42
0.111546939082128
 10
168.0357317365771
 20
419.6481311724576
 42
0.0
 10
172.4511946919078
 20
419.6481311724576
 42
0.0855318126720388
 10
180.8212334457519
 20
421.0766939652391
 42
-0.0851285408962518
 10
184.1532303939162
 20
421.6481311724576
 42
0.0
 10
215.6532303939163
 20
421.6481311724576
 42
0.0
 10
215.6532303939163
 20
423.1481311724576
 42
0.0
 97
       12
330
3210
330
3211
330
3219
330
321A
330
321B
330
31B3
330
31AE
330
31AC
330
31AD
330
31B2
330
31AF
330
2B94
 92
        7
 72
     1
 73
     1
 93
       10
 10
215.6532303939163
 20
423.1481311724577
 42
0.0
 10
215.6532303939163
 20
421.6481311724576
 42
0.0
 10
244.2449034807202
 20
421.6481311724576
 42
0.1395991324168622
 10
250.5662957324319
 20
423.4481311724576
 42
-0.1395991324168606
 10
254.780557233573
 20
424.6481311724576
 42
0.0
 10
369.6532303939161
 20
424.6481311724576
 42
0.0
 10
368.1532303939161
 20
426.1481311724578
 42
0.0
 10
254.780557233573
 20
426.1481311724576
 42
0.139599132416862
 10
249.776121700968
 20
424.7231311724576
 42
-0.1395991324168622
 10
244.2449034807202
 20
423.1481311724576
 42
0.0
 97
       10
330
31B0
330
31B9
330
31F0
330
3206
330
3207
330
3209
330
3210
330
2B94
330
31AF
330
31B1
 75
     0
 76
     0
 52
135.0
 41
2.0
 77
     0
 78
     1
 53
135.0
 43
0.0
 44
-10.0
 45
-1.414213562373095
 46
-1.414213562373094
 79
     0
 47
0.2481166487354263
 98
        4
 10
283.0888607715262
 20
477.1976508484906
 10
209.1232003308016
 20
479.9269343409758
 10
197.9538910091826
 20
422.6119879143371
 10
229.476167188431
 20
422.6119879143371
  0
DIMENSION
  5
326F
330
1E
100
AcDbEntity
  8
BEM
100
AcDbDimension
  2
*D15
 10
369.6532303939161
 20
380.5701334660152
 30
0.0
 11
264.6532303939161
 21
387.0701334660152
 31
0.0
 70
    32
 71
     5
 42
210.0
  3
Standard
100
AcDbAlignedDimension
 13
159.6532303939161
 23
423.2191113896747
 33
0.0
 14
369.6532303939161
 24
424.6481311724576
 34
0.0
100
AcDbRotatedDimension
1001
ACAD
1000
DSTYLE
1002
{
1070
    40
1040
2.0
1070
    41
1040
3.5
1070
    42
1040
1.0
1070
    43
1040
7.0
1070
    44
1040
1.0
1070
    73
1070
     0
1070
    74
1070
     0
1070
    77
1070
     1
1070
    78
1070
     8
1070
    79
1070
     2
1070
   140
1040
3.5
1070
   141
1040
1.5
1070
   146
1040
0.5142857142857144
1070
   147
1040
1.5
1070
   172
1070
     1
1070
   178
1070
     1
1070
   179
1070
     2
1070
   271
1070
     2
1070
   272
1070
     2
1070
   284
1070
     8
1070
   285
1070
     8
1070
   286
1070
     8
1002
}
  0
DIMENSION
  5
327C
330
1E
100
AcDbEntity
  8
BEM
100
AcDbDimension
  2
*D16
 10
387.7413556624408
 20
424.6481311724576
 30
0.0
 11
381.2413556624407
 21
451.1481311724576
 31
0.0
 70
    32
  1
%%c<>
 71
     5
 42
53.0
  3
Standard
100
AcDbAlignedDimension
 13
316.6532303939164
 23
477.6481311724576
 33
0.0
 14
369.6532303939161
 24
424.6481311724576
 34
0.0
 50
90.0
100
AcDbRotatedDimension
1001
ACAD
1000
DSTYLE
1002
{
1070
    40
1040
2.0
1070
    41
1040
3.5
1070
    42
1040
1.0
1070
    43
1040
7.0
1070
    44
1040
1.0
1070
    73
1070
     0
1070
    74
1070
     0
1070
    77
1070
     1
1070
    78
1070
     8
1070
    79
1070
     2
1070
   140
1040
3.5
1070
   141
1040
1.5
1070
   146
1040
0.5142857142857144
1070
   147
1040
1.5
1070
   172
1070
     1
1070
   178
1070
     1
1070
   179
1070
     2
1070
   271
1070
     2
1070
   272
1070
     2
1070
   284
1070
     8
1070
   285
1070
     8
1070
   286
1070
     8
1002
}
  0
LINE
  5
32AD
330
1E
100
AcDbEntity
  8
VERDECKT
100
AcDbLine
 10
254.7805572335731
 20
97.30066950074927
 30
0.0
 11
299.568366096601
 21
97.30066950074929
 31
0.0
  0
LINE
  5
32AE
330
1E
100
AcDbEntity
  8
VERDECKT
100
AcDbLine
 10
254.7805572335731
 20
150.3006695007492
 30
0.0
 11
299.568366096601
 21
150.3006695007492
 31
0.0
  0
LINE
  5
32B0
330
1E
100
AcDbEntity
  8
VERDECKT
100
AcDbLine
 10
182.2093609197147
 20
95.63519072871775
 30
0.0
 11
182.2093609197147
 21
151.9661482727808
 31
0.0
  0
LINE
  5
32B1
330
1E
100
AcDbEntity
  8
VERDECKT
100
AcDbLine
 10
247.1204469076224
 20
96.20209286837184
 30
0.0
 11
247.1204469076224
 21
151.3992461331267
 31
0.0
  0
LINE
  5
32B2
330
1E
100
AcDbEntity
  8
VERDECKT
100
AcDbLine
 10
252.1788750854236
 20
98.43747693004319
 30
0.0
 11
252.1788750854237
 21
149.1638620714553
 31
0.0
  0
LINE
  5
32B3
330
1E
100
AcDbEntity
  8
STEMPEL
100
AcDbLine
 10
159.6532303939163
 20
153.407022650686
 30
0.0
 11
159.6532303939161
 21
94.19431635081258
 31
0.0
  0
ARC
  5
32B4
330
1E
100
AcDbEntity
  8
VERDECKT
100
AcDbCircle
 10
184.1532303939161
 20
84.30066950074929
 30
0.0
 40
10.0
100
AcDbArc
 50
90.0
 51
109.4630994446876
  0
ARC
  5
32B5
330
1E
100
AcDbEntity
  8
VERDECKT
100
AcDbCircle
 10
244.2449034807203
 20
106.3006695007493
 30
0.0
 40
12.0
100
AcDbArc
 50
270.0
 51
301.7883306170503
  0
ARC
  5
32B6
330
1E
100
AcDbEntity
  8
VERDECKT
100
AcDbCircle
 10
254.7805572335731
 20
89.30066950074929
 30
0.0
 40
8.0
100
AcDbArc
 50
90.0
 51
121.7883306170502
  0
LINE
  5
32B7
330
1E
100
AcDbEntity
  8
VERDECKT
100
AcDbLine
 10
184.1532303939161
 20
94.30066950074929
 30
0.0
 11
244.2449034807203
 21
94.30066950074929
 31
0.0
  0
ARC
  5
32B8
330
1E
100
AcDbEntity
  8
VERDECKT
100
AcDbCircle
 10
168.0357317365771
 20
111.8006695007492
 30
0.0
 40
19.5
100
AcDbArc
 50
244.540571431189
 51
270.0
  0
ARC
  5
32B9
330
1E
100
AcDbEntity
  8
VERDECKT
100
AcDbCircle
 10
172.4912303939162
 20
117.3006695007493
 30
0.0
 40
25.00003205712822
100
AcDbArc
 50
269.9082450082412
 51
289.4630994446876
  0
LINE
  5
32BA
330
1E
100
AcDbEntity
  8
VERDECKT
100
AcDbLine
 10
168.0357317365772
 20
92.30066950074927
 30
0.0
 11
172.4511946919078
 21
92.30066950074927
 31
0.0
  0
LINE
  5
32BB
330
1E
100
AcDbEntity
  8
VERDECKT
100
AcDbLine
 10
159.6532303939161
 20
94.19362465155808
 30
0.0
 11
159.7946756326335
 21
94.12766765353461
 31
0.0
  0
ARC
  5
32BC
330
1E
100
AcDbEntity
  8
VERDECKT
100
AcDbCircle
 10
184.1532303939161
 20
163.3006695007493
 30
0.0
 40
10.0
100
AcDbArc
 50
250.5369005553124
 51
270.0
  0
ARC
  5
32BD
330
1E
100
AcDbEntity
  8
VERDECKT
100
AcDbCircle
 10
244.2449034807203
 20
141.3006695007493
 30
0.0
 40
12.0
100
AcDbArc
 50
58.21166938294976
 51
90.0
  0
ARC
  5
32BE
330
1E
100
AcDbEntity
  8
VERDECKT
100
AcDbCircle
 10
254.7805572335729
 20
158.3006695007493
 30
0.0
 40
8.0
100
AcDbArc
 50
238.2116693829497
 51
270.0
  0
LINE
  5
32BF
330
1E
100
AcDbEntity
  8
VERDECKT
100
AcDbLine
 10
184.1532303939161
 20
153.3006695007492
 30
0.0
 11
244.2449034807203
 21
153.3006695007492
 31
0.0
  0
ARC
  5
32C0
330
1E
100
AcDbEntity
  8
VERDECKT
100
AcDbCircle
 10
168.0357317365769
 20
135.8006695007491
 30
0.0
 40
19.5
100
AcDbArc
 50
90.0
 51
115.4594285688038
  0
ARC
  5
32C1
330
1E
100
AcDbEntity
  8
VERDECKT
100
AcDbCircle
 10
172.4912303939162
 20
130.3006695007492
 30
0.0
 40
25.00003205712822
100
AcDbArc
 50
70.53690055531231
 51
90.09175499175885
  0
LINE
  5
32C2
330
1E
100
AcDbEntity
  8
VERDECKT
100
AcDbLine
 10
168.0357317365769
 20
155.3006695007493
 30
0.0
 11
172.4511946919078
 21
155.3006695007493
 31
0.0
  0
LINE
  5
32C3
330
1E
100
AcDbEntity
  8
VERDECKT
100
AcDbLine
 10
159.6532303939161
 20
153.4077143499404
 30
0.0
 11
159.7946756326335
 21
153.4736713479638
 31
0.0
  0
ARC
  5
32C7
330
1E
100
AcDbEntity
  8
VERDECKT
100
AcDbCircle
 10
343.1532303939162
 20
123.8006695007492
 30
0.0
 40
26.5
100
AcDbArc
 50
142.8593584744655
 51
217.1406415255345
  0
ARC
  5
32CA
330
1E
100
AcDbEntity
  8
VERDECKT
100
AcDbCircle
 10
343.1532303939162
 20
123.8006695007493
 30
0.0
 40
24.99999999999989
100
AcDbArc
 50
140.2081805004427
 51
219.7918194995575
  0
LINE
  5
32CB
330
1E
100
AcDbEntity
  8
STEMPEL
100
AcDbLine
 10
299.568366096601
 20
150.3006695007492
 30
0.0
 11
343.1532303939162
 21
150.3006695007492
 31
0.0
  0
LINE
  5
32CC
330
1E
100
AcDbEntity
  8
STEMPEL
100
AcDbLine
 10
299.568366096601
 20
97.30066950074929
 30
0.0
 11
343.1532303939162
 21
97.30066950074927
 31
0.0
  0
ARC
  5
32CD
102
{ACAD_REACTORS
330
32D2
102
}
330
1E
100
AcDbEntity
  8
SCHRAFF
100
AcDbCircle
 10
299.6532303939162
 20
477.6481311724576
 30
0.0
 40
3.0
100
AcDbArc
 50
0.0
 51
90.0
  0
HATCH
  5
32D2
330
1E
100
AcDbEntity
  8
SCHRAFF
100
AcDbHatch
 10
0.0
 20
0.0
 30
0.0
210
0.0
220
0.0
230
1.0
  2
_USER
 70
     0
 71
     1
 91
        1
 92
        7
 72
     1
 73
     1
 93
        3
 10
299.6532303939162
 20
480.6481311724576
 42
0.0
 10
299.6532303939162
 20
477.6481311724575
 42
0.0
 10
302.6532303939163
 20
477.6481311724575
 42
0.4142135623731007
 97
        3
330
31ED
330
31B8
330
32CD
 75
     0
 76
     0
 52
0.0
 41
0.1
 77
     0
 78
     1
 53
0.0
 43
0.0
 44
-10.0
 45
0.0
 46
0.1
 79
     0
 47
0.0333524385850056
 98
        1
 10
301.6577984977546
 20
478.6171715943435
  0
HATCH
  5
32D3
330
1E
100
AcDbEntity
  8
SCHRAFF
100
AcDbHatch
 10
0.0
 20
0.0
 30
0.0
210
0.0
220
0.0
230
1.0
  2
_USER
 70
     0
 71
     0
 91
        1
 92
        7
 72
     1
 73
     1
 93
        3
 10
299.6532303939162
 20
421.6481311724576
 42
0.0
 10
299.6532303939162
 20
424.6481311724576
 42
0.0
 10
302.6532303939163
 20
424.6481311724576
 42
-0.4142135623730951
 97
        0
 75
     0
 76
     0
 52
0.0
 41
0.1
 77
     0
 78
     1
 53
0.0
 43
0.0
 44
912.2962623449154
 45
0.0
 46
-0.1
 79
     0
 47
0.0333524385850056
 98
        1
 10
301.6577984977546
 20
423.6790907505717
  0
ARC
  5
32D4
330
1E
100
AcDbEntity
  8
SCHRAFF
100
AcDbCircle
 10
299.6532303939162
 20
424.6481311724576
 30
0.0
 40
3.0
100
AcDbArc
 50
270.0
 51
0.0
  0
ARC
  5
32D8
330
1E
100
AcDbEntity
  8
SCHRAFF
100
AcDbCircle
 10
295.155883010905
 20
150.0071691885537
 30
0.0
 40
3.22115996145178
100
AcDbArc
 50
5.227832662787917
 51
104.1849240051462
  0
ARC
  5
32D9
330
1E
100
AcDbEntity
  8
SCHRAFF
100
AcDbCircle
 10
295.155883010905
 20
97.59416981294476
 30
0.0
 40
3.22115996145178
100
AcDbArc
 50
255.8150759948537
 51
354.7721673372121
  0
HATCH
  5
32E3
330
1E
100
AcDbEntity
  8
SCHRAFF
100
AcDbHatch
 10
0.0
 20
0.0
 30
0.0
210
0.0
220
0.0
230
1.0
  2
_USER
 70
     0
 71
     0
 91
        2
 92
        7
 72
     1
 73
     1
 93
        3
 10
294.3665303815245
 20
153.1301155415592
 42
-0.0089292833223272
 10
295.3636437663232
 20
150.3006695007492
 42
0.0
 10
298.3636437663232
 20
150.3006695007492
 42
0.4607793194849825
 97
        0
 92
        7
 72
     1
 73
     1
 93
        3
 10
298.3636437663231
 20
97.30066950074927
 42
0.0
 10
295.3636437663232
 20
97.30066950074927
 42
-0.0089292833223273
 10
294.3665303815245
 20
94.4712234599393
 42
0.4607793194849825
 97
        0
 75
     0
 76
     0
 52
0.0
 41
0.1
 77
     0
 78
     1
 53
0.0
 43
0.0
 44
0.0
 45
0.0
 46
0.1
 79
     0
 47
0.1364123373992926
 98
        2
 10
295.8257265060245
 20
151.4166868005488
 10
296.2351128184803
 20
96.57892596882106
  0
ARC
  5
32E4
330
1E
100
AcDbEntity
  8
SCHRAFF
100
AcDbCircle
 10
296.9428361255225
 20
150.3006695007492
 30
0.0
 40
5.0
100
AcDbArc
 50
268.9926712575054
 51
303.9219058909154
  0
ARC
  5
32E6
330
1E
100
AcDbEntity
  8
SCHRAFF
100
AcDbCircle
 10
299.4801065101304
 20
140.6323313496842
 30
0.0
 40
5.0
100
AcDbArc
 50
103.029044265182
 51
106.3801522745312
  0
ARC
  5
32EC
330
1E
100
AcDbEntity
  8
SCHRAFF
100
AcDbCircle
 10
300.1574225685107
 20
110.7894626036465
 30
0.0
 40
5.0
100
AcDbArc
 50
242.183807182739
 51
277.1130418161488
  0
ARC
  5
32ED
330
1E
100
AcDbEntity
  8
SCHRAFF
100
AcDbCircle
 10
299.2523625413968
 20
105.8720581717007
 30
0.0
 40
5.0
100
AcDbArc
 50
238.8326991733929
 51
273.7619338068037
  0
CIRCLE
  5
32F4
330
1E
100
AcDbEntity
  8
STEMPEL
100
AcDbCircle
 10
568.9531753823184
 20
451.1481311724576
 30
0.0
 40
27.9290197827828
  0
CIRCLE
  5
32F5
330
1E
100
AcDbEntity
  8
STEMPEL
100
AcDbCircle
 10
568.9531753823184
 20
451.1481311724576
 30
0.0
 40
29.6070448491912
  0
CIRCLE
  5
32F6
330
1E
100
AcDbEntity
  8
STEMPEL
100
AcDbCircle
 10
568.9531753823184
 20
451.1481311724576
 30
0.0
 40
31.50000000000006
  0
ARC
  5
32FB
330
1E
100
AcDbEntity
  8
VERDECKT
100
AcDbCircle
 10
215.6532303939163
 20
123.8006695007493
 30
0.0
 40
84.0
100
AcDbArc
 50
228.1896851042214
 51
131.8103148957786
  0
HATCH
  5
343C
330
1E
100
AcDbEntity
  8
SCHRAFF
100
AcDbHatch
 10
0.0
 20
0.0
 30
0.0
210
0.0
220
0.0
230
1.0
  2
_USER
 70
     0
 71
     1
 91
        1
 92
        7
 72
     1
 73
     1
 93
        3
 10
344.7928283807264
 20
492.5645071446248
 42
0.0
 10
344.6532303939163
 20
488.5669438365485
 42
0.0
 10
340.65566708584
 20
488.7065418233584
 42
1.278475089836313
 97
        3
330
344A
330
3451
330
343D
 75
     0
 76
     0
 52
0.0
 41
0.1
 77
     0
 78
     1
 53
0.0
 43
0.0
 44
15.31540500833273
 45
0.0
 46
0.1
 79
     0
 47
0.033338599820807
 98
        1
 10
345.4600454199674
 20
490.0143328914587
  0
ARC
  5
343D
102
{ACAD_REACTORS
330
343C
102
}
330
1E
100
AcDbEntity
  8
SCHRAFF
100
AcDbCircle
 10
343.2029182686585
 20
490.1222131794443
 30
0.0
 40
2.914208979605371
100
AcDbArc
 50
209.0637441387384
 51
56.93625586126395
  0
HATCH
  5
343E
330
1E
100
AcDbEntity
  8
SCHRAFF
100
AcDbHatch
 10
0.0
 20
0.0
 30
0.0
210
0.0
220
0.0
230
1.0
  2
_USER
 70
     0
 71
     1
 91
        1
 92
        7
 72
     1
 73
     1
 93
        3
 10
313.9291058105956
 20
525.6617975037157
 42
0.4142135623730964
 10
309.7919445157092
 20
521.8038321824493
 42
0.0
 10
313.7895078237856
 20
521.6642341956393
 42
0.0
 97
        3
330
343F
330
3455
330
3448
 75
     0
 76
     0
 52
0.0
 41
0.1
 77
     0
 78
     1
 53
0.0
 43
0.0
 44
15.31540500833273
 45
0.0
 46
0.1
 79
     0
 47
0.0238569266317855
 98
        1
 10
312.6358644502914
 20
523.8973133431206
  0
ARC
  5
343F
102
{ACAD_REACTORS
330
343E
102
}
330
1E
100
AcDbEntity
  8
SCHRAFF
100
AcDbCircle
 10
313.7895078237856
 20
521.6642341956393
 30
0.0
 40
4.0
100
AcDbArc
 50
87.99999999999952
 51
178.0000000000029
  0
HATCH
  5
3440
330
1E
100
AcDbEntity
  8
SCHRAFF
100
AcDbHatch
 10
0.0
 20
0.0
 30
0.0
210
0.0
220
0.0
230
1.0
  2
_USER
 70
     0
 71
     1
 91
        2
 92
        7
 72
     0
 73
     1
 93
        4
 10
346.3982052290416
 20
538.5364851875031
 10
345.3988144020225
 20
538.5713846842056
 10
343.6887390635996
 20
489.6012341602699
 10
344.6532303939163
 20
488.5669438365483
 97
        4
330
3447
330
344B
330
344C
330
344A
 92
        7
 72
     0
 73
     1
 93
        4
 10
313.7895078237855
 20
521.6642341956392
 10
314.7539991541021
 20
520.6299438719176
 10
315.4170895914497
 20
539.6183695852807
 10
314.4176987644306
 20
539.6532690819831
 97
        4
330
3447
330
3448
330
344C
330
3449
 75
     0
 76
     0
 52
45.0
 41
2.0
 77
     0
 78
     1
 53
45.0
 43
0.0
 44
15.31540500833273
 45
-1.414213562373094
 46
1.414213562373095
 79
     0
 47
0.1845610827493432
 98
        2
 10
345.3575501763314
 20
521.3559509091764
 10
314.7094049179334
 20
535.9362759466206
  0
HATCH
  5
3441
330
1E
100
AcDbEntity
  8
SCHRAFF
100
AcDbHatch
 10
0.0
 20
0.0
 30
0.0
210
0.0
220
0.0
230
1.0
  2
_USER
 70
     0
 71
     0
 91
        2
 92
        7
 72
     0
 73
     1
 93
        4
 10
314.7539991541021
 20
520.6299438719177
 10
313.7895078237856
 20
521.6642341956393
 10
299.6532303939164
 20
522.1578838812392
 10
299.6532303939164
 20
521.1572743369404
 97
        0
 92
        7
 72
     0
 73
     1
 93
        4
 10
299.6532303939164
 20
491.1389880079758
 10
299.6532303939164
 20
490.138378463677
 10
344.6532303939163
 20
488.5669438365484
 10
343.6887390635998
 20
489.6012341602701
 97
        0
 75
     0
 76
     0
 52
135.0
 41
2.0
 77
     0
 78
     1
 53
135.0
 43
0.0
 44
15.31540500833273
 45
-1.414213562373095
 46
-1.414213562373094
 79
     0
 47
0.1845610827493432
 98
        2
 10
306.9550541092942
 20
521.3559509091764
 10
309.9090929095535
 20
490.16512733018
  0
DIMENSION
  5
3442
330
1E
100
AcDbEntity
  8
BEM
100
AcDbDimension
  2
*D17
 10
346.7510860226227
 20
548.6416689711737
 30
0.0
 11
330.9876795188836
 21
555.6961012940379
 31
0.0
 70
    33
  1
%%c<>
 71
     5
 42
31.99999999999966
  3
Standard
100
AcDbAlignedDimension
 13
314.4176987644306
 23
539.6532690819832
 33
0.0
 14
346.3982052290413
 24
538.5364851875031
 34
0.0
1001
ACAD
1000
DSTYLE
1002
{
1070
    40
1040
2.0
1070
    41
1040
3.5
1070
    42
1040
1.0
1070
    43
1040
7.0
1070
    44
1040
1.0
1070
    73
1070
     0
1070
    74
1070
     0
1070
    77
1070
     1
1070
    78
1070
     8
1070
    79
1070
     2
1070
   140
1040
3.5
1070
   141
1040
1.5
1070
   146
1040
0.5142857142857144
1070
   147
1040
1.5
1070
   172
1070
     1
1070
   178
1070
     1
1070
   179
1070
     2
1070
   271
1070
     2
1070
   272
1070
     2
1070
   284
1070
     8
1070
   285
1070
     8
1070
   286
1070
     8
1002
}
  0
DIMENSION
  5
3444
330
1E
100
AcDbEntity
  8
BEM
100
AcDbDimension
  2
*D18
 10
363.2009568244342
 20
537.9497201722131
 30
0.0
 11
355.8324290312475
 21
513.1917962253022
 31
0.0
 70
    33
 71
     5
 42
49.99999999999983
  3
Standard
100
AcDbAlignedDimension
 13
344.6532303939163
 23
488.5669438365484
 33
0.0
 14
346.3982052290415
 24
538.5364851875031
 34
0.0
1001
ACAD
1000
DSTYLE
1002
{
1070
    40
1040
2.0
1070
    41
1040
3.5
1070
    42
1040
1.0
1070
    43
1040
7.0
1070
    44
1040
1.0
1070
    73
1070
     0
1070
    74
1070
     0
1070
    77
1070
     1
1070
    78
1070
     8
1070
    79
1070
     2
1070
   140
1040
3.5
1070
   141
1040
1.5
1070
   146
1040
0.5142857142857144
1070
   147
1040
1.5
1070
   172
1070
     1
1070
   178
1070
     1
1070
   179
1070
     2
1070
   271
1070
     2
1070
   272
1070
     2
1070
   284
1070
     8
1070
   285
1070
     8
1070
   286
1070
     8
1002
}
  0
LINE
  5
3446
330
1E
100
AcDbEntity
  8
MITTEL
100
AcDbLine
 10
330.5824494802486
 20
544.0918312698387
 30
0.0
 11
329.2213691088509
 21
505.1155890160938
 31
0.0
  0
LINE
  5
3447
102
{ACAD_REACTORS
330
3440
102
}
330
1E
100
AcDbEntity
  8
STEMPEL
100
AcDbLine
 10
314.4176987644306
 20
539.6532690819832
 30
0.0
 11
346.3982052290413
 21
538.5364851875031
 31
0.0
  0
LINE
  5
3448
102
{ACAD_REACTORS
330
3440
330
343E
102
}
330
1E
100
AcDbEntity
  8
STEMPEL
100
AcDbLine
 10
314.4176987644306
 20
539.6532690819832
 30
0.0
 11
313.7895078237856
 21
521.6642341956393
 31
0.0
  0
LINE
  5
3449
102
{ACAD_REACTORS
330
3440
102
}
330
1E
100
AcDbEntity
  8
STEMPEL
100
AcDbLine
 10
315.4170895914497
 20
539.6183695852807
 30
0.0
 11
314.7539991541022
 21
520.6299438719176
 31
0.0
  0
LINE
  5
344A
102
{ACAD_REACTORS
330
3440
330
343C
102
}
330
1E
100
AcDbEntity
  8
STEMPEL
100
AcDbLine
 10
346.3982052290415
 20
538.5364851875031
 30
0.0
 11
344.6532303939163
 21
488.5669438365484
 31
0.0
  0
LINE
  5
344B
102
{ACAD_REACTORS
330
3440
102
}
330
1E
100
AcDbEntity
  8
STEMPEL
100
AcDbLine
 10
345.3988144020225
 20
538.5713846842057
 30
0.0
 11
343.6887390635997
 21
489.6012341602699
 31
0.0
  0
LINE
  5
344C
102
{ACAD_REACTORS
330
3440
102
}
330
1E
100
AcDbEntity
  8
STEMPEL
100
AcDbLine
 10
313.7895078237855
 20
521.6642341956393
 30
0.0
 11
344.6532303939163
 21
488.5669438365484
 31
0.0
  0
HATCH
  5
344E
330
1E
100
AcDbEntity
  8
SCHRAFF
100
AcDbHatch
 10
0.0
 20
0.0
 30
0.0
210
0.0
220
0.0
230
1.0
  2
_USER
 70
     0
 71
     0
 91
        2
 92
        7
 72
     1
 73
     1
 93
        3
 10
303.5842389638513
 20
522.0206100370984
 42
0.424474816209595
 10
299.6532303939164
 20
526.0912885750364
 42
0.0
 10
299.6532303939163
 20
522.1578838812392
 42
0.0
 97
        0
 92
        7
 72
     1
 73
     1
 93
        3
 10
299.6532303939164
 20
486.2049737698797
 42
0.4040262258351464
 10
303.5842389638513
 20
490.0011046195362
 42
0.0
 10
299.6532303939164
 20
490.138378463677
 42
0.0
 97
        0
 75
     0
 76
     0
 52
0.0
 41
0.1
 77
     0
 78
     1
 53
0.0
 43
0.0
 44
-4.999999999999886
 45
0.0
 46
0.1
 79
     0
 47
0.1072038684900372
 98
        2
 10
301.732605361344
 20
523.1117079346327
 10
300.767186881789
 20
488.6992645181646
  0
ARC
  5
344F
330
1E
100
AcDbEntity
  8
SCHRAFF
100
AcDbCircle
 10
299.6532303939164
 20
522.1578838812392
 30
0.0
 40
3.933404693797342
100
AcDbArc
 50
358.0000000000029
 51
90.0
  0
LINE
  5
3450
330
1E
100
AcDbEntity
  8
STEMPEL
100
AcDbLine
 10
299.6532303939164
 20
491.1389880079759
 30
0.0
 11
343.6887390635998
 21
489.60123416027
 31
0.0
  0
LINE
  5
3451
102
{ACAD_REACTORS
330
343C
102
}
330
1E
100
AcDbEntity
  8
STEMPEL
100
AcDbLine
 10
299.6532303939164
 20
490.138378463677
 30
0.0
 11
344.6532303939163
 21
488.5669438365484
 31
0.0
  0
LINE
  5
3453
330
1E
100
AcDbEntity
  8
MITTEL
100
AcDbLine
 10
299.6532303939164
 20
506.1481311724581
 30
0.0
 11
329.2213691088509
 21
505.1155890160938
 31
0.0
  0
LINE
  5
3454
330
1E
100
AcDbEntity
  8
STEMPEL
100
AcDbLine
 10
299.6532303939164
 20
521.1572743369404
 30
0.0
 11
314.7539991541023
 21
520.6299438719176
 31
0.0
  0
LINE
  5
3455
102
{ACAD_REACTORS
330
343E
102
}
330
1E
100
AcDbEntity
  8
STEMPEL
100
AcDbLine
 10
299.6532303939164
 20
522.1578838812392
 30
0.0
 11
313.7895078237856
 21
521.6642341956393
 31
0.0
  0
POINT
  5
3456
330
1E
100
AcDbEntity
  8
BEM
100
AcDbPoint
 10
329.2213691088509
 20
505.115589016094
 30
0.0
  0
ARC
  5
3458
330
1E
100
AcDbEntity
  8
STEMPEL
100
AcDbCircle
 10
390.4928544561763
 20
506.148131172458
 30
0.0
 40
94.04358455536334
100
AcDbArc
 50
170.8220945798453
 51
189.1779054201546
  0
ARC
  5
3459
330
1E
100
AcDbEntity
  8
STEMPEL
100
AcDbCircle
 10
394.8200014183722
 20
506.1481311724579
 30
0.0
 40
96.34165406106127
100
AcDbArc
 50
171.042841932368
 51
188.9571580676319
  0
LINE
  5
345A
102
{ACAD_REACTORS
330
3540
102
}
330
1E
100
AcDbEntity
  8
STEMPEL
100
AcDbLine
 10
299.6532303939164
 20
491.148131172458
 30
0.0
 11
297.6532303939162
 21
491.148131172458
 31
0.0
  0
LINE
  5
345B
330
1E
100
AcDbEntity
  8
MITTEL
100
AcDbLine
 10
299.6532303939164
 20
506.1481311724581
 30
0.0
 11
292.6532303939161
 21
506.1481311724581
 31
0.0
  0
POINT
  5
345D
330
1E
100
AcDbEntity
  8
BEM
100
AcDbPoint
 10
299.6660954374572
 20
506.5723305362312
 30
0.0
  0
POINT
  5
345E
330
1E
100
AcDbEntity
  8
BEM
100
AcDbPoint
 10
299.6660954374572
 20
506.5723305362312
 30
0.0
  0
POINT
  5
345F
330
1E
100
AcDbEntity
  8
BEM
100
AcDbPoint
 10
299.6660954374572
 20
506.5723305362312
 30
0.0
  0
POINT
  5
3460
330
1E
100
AcDbEntity
  8
BEM
100
AcDbPoint
 10
299.6660954374572
 20
506.5723305362312
 30
0.0
  0
POINT
  5
3461
330
1E
100
AcDbEntity
  8
BEM
100
AcDbPoint
 10
299.6660954374572
 20
506.5723305362312
 30
0.0
  0
LINE
  5
3462
102
{ACAD_REACTORS
330
3540
102
}
330
1E
100
AcDbEntity
  8
STEMPEL
100
AcDbLine
 10
299.6532303939164
 20
521.1481311724581
 30
0.0
 11
297.6532303939162
 21
521.1481311724581
 31
0.0
  0
LINE
  5
34F6
102
{ACAD_REACTORS
330
3540
102
}
330
1E
100
AcDbEntity
  8
STEMPEL
100
AcDbLine
 10
299.6532303939164
 20
521.1481311724581
 30
0.0
 11
299.6532303939164
 21
531.148131172458
 31
0.0
  0
LINE
  5
34F7
102
{ACAD_REACTORS
330
3540
102
}
330
1E
100
AcDbEntity
  8
STEMPEL
100
AcDbLine
 10
297.6532303939161
 20
521.1481311724581
 30
0.0
 11
297.653230393916
 21
531.1481311724578
 31
0.0
  0
HATCH
  5
3540
330
1E
100
AcDbEntity
  8
SCHRAFF
100
AcDbHatch
 10
0.0
 20
0.0
 30
0.0
210
0.0
220
0.0
230
1.0
  2
_USER
 70
     0
 71
     1
 91
        6
 92
        7
 72
     0
 73
     1
 93
        4
 10
161.6532303939162
 20
521.1481311724578
 10
161.6532303939162
 20
531.1481311724577
 10
159.6532303939163
 20
531.1481311724577
 10
159.6532303939162
 20
521.1481311724577
 97
        4
330
2B6C
330
2B93
330
2BA8
330
31F2
 92
        7
 72
     0
 73
     1
 93
        4
 10
159.6532303939162
 20
504.6481311724576
 10
161.6532303939163
 20
504.6481311724576
 10
161.6532303939162
 20
521.1481311724577
 10
159.6532303939162
 20
521.1481311724578
 97
        4
330
2BA8
330
2B93
330
2B5D
330
31F2
 92
        7
 72
     0
 73
     1
 93
        5
 10
159.6532303939161
 20
331.6481311724579
 10
161.1532303939162
 20
330.1481311724577
 10
161.6532303939162
 20
330.1481311724577
 10
161.6532303939162
 20
397.6481311724576
 10
159.6532303939162
 20
397.6481311724577
 97
        5
330
2B7E
330
2B93
330
2B86
330
2B8D
330
2B91
 92
        7
 72
     0
 73
     1
 93
        5
 10
297.6532303939162
 20
330.1481311724578
 10
298.1532303939161
 20
330.1481311724578
 10
299.6532303939162
 20
331.6481311724577
 10
299.6532303939162
 20
424.6481311724576
 10
297.6532303939162
 20
424.6481311724576
 97
        5
330
31B9
330
2B98
330
2B8D
330
2B74
330
2B99
 92
        7
 72
     0
 73
     1
 93
        4
 10
297.6532303939162
 20
477.6481311724577
 10
299.6532303939162
 20
477.6481311724575
 10
299.6532303939163
 20
491.148131172458
 10
297.6532303939161
 20
491.148131172458
 97
        4
330
345A
330
31EC
330
31B8
330
31ED
 92
        7
 72
     0
 73
     1
 93
        4
 10
297.6532303939162
 20
521.1481311724581
 10
299.6532303939164
 20
521.1481311724579
 10
299.6532303939165
 20
531.148131172458
 10
297.653230393916
 20
531.148131172458
 97
        4
330
2B6C
330
34F7
330
3462
330
34F6
 75
     0
 76
     0
 52
45.0
 41
2.0
 77
     0
 78
     1
 53
45.0
 43
0.0
 44
-10.0
 45
-1.414213562373094
 46
1.414213562373095
 79
     0
 47
0.3068871244401774
 98
        6
 10
161.4042627824788
 20
516.0584595103235
 10
160.4832661930613
 20
507.7725069680318
 10
160.4832661930613
 20
393.3036086132104
 10
298.6327115229478
 20
396.3724802414267
 10
298.3257134576374
 20
481.0733260795964
 10
298.0187153923266
 20
518.8204422679336
  0
ELLIPSE
  5
3605
330
1E
100
AcDbEntity
  8
STEMPEL
100
AcDbEllipse
 10
329.779761056091
 20
123.8006695007493
 30
0.0
 11
0.0
 21
16.0
 31
0.0
210
0.0
220
0.0
230
1.0
 40
0.9993908270190878
 41
0.0
 42
3.141592653589793
  0
ELLIPSE
  5
3606
330
1E
100
AcDbEntity
  8
STEMPEL
100
AcDbEllipse
 10
330.4079519967362
 20
123.8006695007493
 30
0.0
 11
-0.0349206748598902
 21
14.99995935149383
 31
0.0
210
0.0
220
0.0
230
1.0
 40
0.9993935352760459
 41
0.0
 42
6.283185307179586
  0
LINE
  5
3607
330
1E
100
AcDbEntity
  8
VERDECKT
100
AcDbLine
 10
296.2696059016256
 20
108.8006695007493
 30
0.0
 11
330.407951996736
 21
108.8006695007493
 31
0.0
  0
LINE
  5
3608
330
1E
100
AcDbEntity
  8
VERDECKT
100
AcDbLine
 10
296.2696059016256
 20
138.8006695007492
 30
0.0
 11
330.407951996736
 21
138.8006695007492
 31
0.0
  0
ELLIPSE
  5
3609
330
1E
100
AcDbEntity
  8
STEMPEL
100
AcDbEllipse
 10
330.407951996736
 20
123.8006695007493
 30
0.0
 11
0.0
 21
16.0
 31
0.0
210
0.0
220
0.0
230
1.0
 40
0.9993908270190878
 41
0.0
 42
6.283185307179586
  0
LINE
  5
360A
330
1E
100
AcDbEntity
  8
MITTEL
100
AcDbLine
 10
330.4079519967361
 20
144.8006695007492
 30
0.0
 11
330.4079519967361
 21
102.8011554300419
 31
0.0
  0
INSERT
  5
360B
330
1E
100
AcDbEntity
  8
SCHRAFF
100
AcDbBlockReference
  2
*X19
 10
0.0
 20
0.0
 30
0.0
1001
ACAD
1000
HATCH
1002
{
1070
    16
1000
_U,I
1040
0.1
1040
0.0
1070
     0
1002
}
  0
LINE
  5
360C
330
1E
100
AcDbEntity
  8
STEMPEL
100
AcDbLine
 10
302.186461005052
 20
107.8006695007493
 30
0.0
 11
330.407951996736
 21
107.8006695007493
 31
0.0
  0
ARC
  5
360D
330
1E
100
AcDbEntity
  8
SCHRAFF
100
AcDbCircle
 10
297.2428507814996
 20
108.8611080607309
 30
0.0
 40
4.067138779062189
100
AcDbArc
 50
273.2892529706408
 51
344.8864213383687
  0
ARC
  5
360E
330
1E
100
AcDbEntity
  8
SCHRAFF
100
AcDbCircle
 10
300.0282900285308
 20
109.1335799683716
 30
0.0
 40
1.784048529285653
100
AcDbArc
 50
32.77696697281929
 51
147.2230330271807
  0
ARC
  5
360F
330
1E
100
AcDbEntity
  8
SCHRAFF
100
AcDbCircle
 10
300.547081483106
 20
132.9078521673845
 30
0.0
 40
1.784048529285653
100
AcDbArc
 50
32.77696697281929
 51
147.2230330271807
  0
ARC
  5
3610
330
1E
100
AcDbEntity
  8
SCHRAFF
100
AcDbCircle
 10
301.136236877235
 20
121.1452760180062
 30
0.0
 40
1.784048529285653
100
AcDbArc
 50
32.77696697281929
 51
147.2230330271807
  0
ARC
  5
3611
330
1E
100
AcDbEntity
  8
SCHRAFF
100
AcDbCircle
 10
300.9639129928365
 20
117.1983963455603
 30
0.0
 40
1.784048529285653
100
AcDbArc
 50
32.77696697281929
 51
147.2230330271807
  0
ARC
  5
3612
330
1E
100
AcDbEntity
  8
SCHRAFF
100
AcDbCircle
 10
300.5573918610829
 20
112.8475542764431
 30
0.0
 40
1.784048529285653
100
AcDbArc
 50
32.77696697281929
 51
147.2230330271807
  0
ARC
  5
3613
330
1E
100
AcDbEntity
  8
SCHRAFF
100
AcDbCircle
 10
300.9194057995652
 20
129.0980533526958
 30
0.0
 40
1.784048529285653
100
AcDbArc
 50
32.77696697281929
 51
147.2230330271807
  0
ARC
  5
3614
330
1E
100
AcDbEntity
  8
SCHRAFF
100
AcDbCircle
 10
301.1225301657246
 20
125.1056746225425
 30
0.0
 40
1.784048529285653
100
AcDbArc
 50
32.77696697281929
 51
147.2230330271807
  0
POINT
  5
3615
330
1E
100
AcDbEntity
  8
STEMPEL
100
AcDbPoint
 10
348.9082838453797
 20
123.8006695007494
 30
0.0
  0
POINT
  5
3616
330
1E
100
AcDbEntity
  8
STEMPEL
100
AcDbPoint
 10
348.9082838453797
 20
123.8006695007493
 30
0.0
  0
LINE
  5
3617
330
1E
100
AcDbEntity
  8
STEMPEL
100
AcDbLine
 10
302.186461005052
 20
139.8006695007492
 30
0.0
 11
330.407951996736
 21
139.8006695007492
 31
0.0
  0
ARC
  5
3618
330
1E
100
AcDbEntity
  8
SCHRAFF
100
AcDbCircle
 10
297.4391054356658
 20
138.9818270077843
 30
0.0
 40
3.819022746537453
100
AcDbArc
 50
12.38100509849528
 51
89.44332059249173
  0
ARC
  5
3619
330
1E
100
AcDbEntity
  8
SCHRAFF
100
AcDbCircle
 10
300.0774387401138
 20
136.2354233846491
 30
0.0
 40
1.784048529285653
100
AcDbArc
 50
32.77696697281929
 51
147.2230330271807
  0
ARC
  5
361A
330
1E
100
AcDbEntity
  8
STEMPEL
100
AcDbCircle
 10
343.1532303939162
 20
123.8006695007493
 30
0.0
 40
24.99999999999989
100
AcDbArc
 50
219.7918194995575
 51
140.2081805004425
  0
ARC
  5
361B
330
1E
100
AcDbEntity
  8
STEMPEL
100
AcDbCircle
 10
343.1532303939162
 20
123.8006695007492
 30
0.0
 40
26.5
100
AcDbArc
 50
217.1406415255345
 51
142.8593584744655
  0
ARC
  5
3622
330
1E
100
AcDbEntity
  8
STEMPEL
100
AcDbCircle
 10
568.9531753823184
 20
506.1481311724588
 30
0.0
 40
15.0
100
AcDbArc
 50
199.323962889254
 51
340.676037110746
  0
ELLIPSE
  5
3633
330
1E
100
AcDbEntity
  8
VERDECKT
100
AcDbEllipse
 10
568.9531753823185
 20
539.0948771347434
 30
0.0
 11
-15.99999999999988
 21
0.0
 31
0.0
210
0.0
220
0.0
230
-1.0
 40
0.0348994967024939
 41
3.141592653589787
 42
6.283185307179584
  0
ELLIPSE
  5
3634
330
1E
100
AcDbEntity
  8
STEMPEL
100
AcDbEllipse
 10
568.9531753823185
 20
539.0948771347433
 30
0.0
 11
-15.99999999999988
 21
0.0
 31
0.0
210
0.0
220
0.0
230
1.0
 40
0.0348994967024939
 41
3.141592653589794
 42
6.283185307179584
  0
LINE
  5
3635
330
1E
100
AcDbEntity
  8
STEMPEL
100
AcDbLine
 10
584.9531753823185
 20
539.0948771347433
 30
0.0
 11
584.9531753823185
 21
533.1481311724578
 31
0.0
  0
LINE
  5
3636
330
1E
100
AcDbEntity
  8
STEMPEL
100
AcDbLine
 10
552.9531753823185
 20
539.0948771347433
 30
0.0
 11
552.9531753823187
 21
533.1481311724579
 31
0.0
  0
LINE
  5
36AA
330
1E
100
AcDbEntity
  8
STEMPEL
100
AcDbLine
 10
183.2074788160976
 20
511.1481311724578
 30
0.0
 11
168.3510723555467
 21
511.1481311724578
 31
0.0
  0
LINE
  5
36D6
330
1E
100
AcDbEntity
  8
TEXT
 62
     2
100
AcDbLine
 10
80.70052582647168
 20
563.9683912413884
 30
0.0
 11
188.9516015499769
 21
563.9683912413884
 31
0.0
  0
DIMENSION
  5
36D7
330
1E
100
AcDbEntity
  8
BEM
100
AcDbDimension
  2
*D20
 10
484.9531753823185
 20
206.9147282901131
 30
0.0
 11
568.9531753823184
 21
213.4147282901131
 31
0.0
 70
    32
  1
%%c<>
 71
     5
 42
168.0
  3
Standard
100
AcDbAlignedDimension
 13
652.9531753823184
 23
328.1481311724578
 33
0.0
 14
484.9531753823185
 24
328.1481311724578
 34
0.0
100
AcDbRotatedDimension
1001
ACAD
1000
DSTYLE
1002
{
1070
    40
1040
2.0
1070
    41
1040
3.5
1070
    42
1040
1.0
1070
    43
1040
7.0
1070
    44
1040
1.0
1070
    73
1070
     0
1070
    74
1070
     0
1070
    77
1070
     1
1070
    78
1070
     8
1070
    79
1070
     2
1070
   140
1040
3.5
1070
   141
1040
1.5
1070
   146
1040
0.5142857142857144
1070
   147
1040
1.5
1070
   172
1070
     1
1070
   178
1070
     1
1070
   179
1070
     2
1070
   271
1070
     2
1070
   272
1070
     2
1070
   284
1070
     8
1070
   285
1070
     8
1070
   286
1070
     8
1002
}
  0
LINE
  5
36ED
330
1E
100
AcDbEntity
  8
STEMPEL
100
AcDbLine
 10
656.9531753823187
 20
533.1481311724578
 30
0.0
 11
656.9531753823187
 21
531.1481311724578
 31
0.0
  0
LINE
  5
371F
330
1E
100
AcDbEntity
  8
STEMPEL
100
AcDbLine
 10
480.9531753823184
 20
533.1481311724579
 30
0.0
 11
480.9531753823184
 21
531.148131172458
 31
0.0
  0
ARC
  5
3720
330
1E
100
AcDbEntity
  8
STEMPEL
100
AcDbCircle
 10
215.6532303939163
 20
123.8006695007493
 30
0.0
 40
88.0
100
AcDbArc
 50
230.4788036413578
 51
129.5211963586422
  0
LINE
  5
372A
102
{ACAD_REACTORS
330
3738
102
}
330
1E
100
AcDbEntity
  8
STEMPEL
100
AcDbLine
 10
303.6532303939164
 20
533.1481311724578
 30
0.0
 11
303.6532303939164
 21
531.148131172458
 31
0.0
  0
HATCH
  5
3738
330
1E
100
AcDbEntity
  8
SCHRAFF
100
AcDbHatch
 10
0.0
 20
0.0
 30
0.0
210
0.0
220
0.0
230
1.0
  2
_USER
 70
     0
 71
     1
 91
        2
 92
        7
 72
     0
 73
     1
 93
        4
 10
303.6532303939164
 20
531.148131172458
 10
303.6532303939163
 20
533.1481311724578
 10
215.6532303939162
 20
533.1481311724578
 10
215.6532303939163
 20
531.1481311724578
 97
        4
330
2B6B
330
2B94
330
2B6C
330
372A
 92
        7
 72
     0
 73
     1
 93
        4
 10
215.6532303939163
 20
531.1481311724578
 10
215.6532303939163
 20
533.1481311724578
 10
159.6532303939163
 20
533.1481311724577
 10
159.6532303939163
 20
531.1481311724577
 97
        4
330
2B6B
330
2B93
330
2B6C
330
2B94
 75
     0
 76
     0
 52
135.0
 41
2.0
 77
     0
 78
     1
 53
135.0
 43
0.0
 44
0.0
 45
-1.414213562373095
 46
-1.414213562373094
 79
     0
 47
0.2217768975362882
 98
        2
 10
258.4621733503754
 20
531.6108004670295
 10
203.4414927559949
 20
531.8325780790035
  0
LINE
  5
3763
330
1E
100
AcDbEntity
  8
STEMPEL
100
AcDbLine
 10
619.2136787379588
 20
513.469294699878
 30
0.0
 11
625.6320118548983
 21
519.8876278168175
 31
0.0
  0
LINE
  5
3764
330
1E
100
AcDbEntity
  8
STEMPEL
100
AcDbLine
 10
620.2743389097387
 20
512.4086345280983
 30
0.0
 11
626.6926720266781
 21
518.8269676450377
 31
0.0
  0
LINE
  5
3765
330
1E
100
AcDbEntity
  8
MITTEL
100
AcDbLine
 10
614.4531753823184
 20
516.1481311724579
 30
0.0
 11
631.4531753823185
 21
516.1481311724579
 31
0.0
  0
LINE
  5
3766
330
1E
100
AcDbEntity
  8
MITTEL
100
AcDbLine
 10
622.9531753823184
 20
524.6481311724578
 30
0.0
 11
622.9531753823184
 21
507.6481311724578
 31
0.0
  0
CIRCLE
  5
3767
330
1E
100
AcDbEntity
  8
STEMPEL
100
AcDbCircle
 10
622.9531753823184
 20
516.1481311724579
 30
0.0
 40
4.599999999999999
  0
ARC
  5
3768
330
1E
100
AcDbEntity
  8
VERDECKT
100
AcDbCircle
 10
635.9531753823184
 20
530.1481311724577
 30
0.0
 40
1.0
100
AcDbArc
 50
90.0
 51
270.0
  0
ARC
  5
3769
330
1E
100
AcDbEntity
  8
VERDECKT
100
AcDbCircle
 10
641.9531753823185
 20
530.1481311724577
 30
0.0
 40
1.0
100
AcDbArc
 50
270.0
 51
90.0
  0
LINE
  5
376A
330
1E
100
AcDbEntity
  8
VERDECKT
100
AcDbLine
 10
641.9531753823185
 20
529.1481311724577
 30
0.0
 11
635.9531753823184
 21
529.1481311724577
 31
0.0
  0
ARC
  5
376B
330
1E
100
AcDbEntity
  8
STEMPEL
100
AcDbCircle
 10
638.9531753823185
 20
523.0681311724578
 30
0.0
 40
11.07999999999998
100
AcDbArc
 50
65.4704525442131
 51
114.5295474557869
  0
LINE
  5
376C
330
1E
100
AcDbEntity
  8
VERDECKT
100
AcDbLine
 10
643.5531753823185
 20
533.1481311724578
 30
0.0
 11
641.5531753823183
 21
531.1481311724577
 31
0.0
  0
LINE
  5
376D
330
1E
100
AcDbEntity
  8
VERDECKT
100
AcDbLine
 10
634.3531753823185
 20
533.1481311724578
 30
0.0
 11
636.3531753823187
 21
531.1481311724577
 31
0.0
  0
LINE
  5
376E
330
1E
100
AcDbEntity
  8
VERDECKT
100
AcDbLine
 10
641.4531753823186
 20
525.1481311724577
 30
0.0
 11
641.4531753823186
 21
522.1481311724577
 31
0.0
  0
LINE
  5
376F
330
1E
100
AcDbEntity
  8
VERDECKT
100
AcDbLine
 10
636.4531753823186
 20
525.1481311724577
 30
0.0
 11
636.4531753823186
 21
522.1481311724577
 31
0.0
  0
LINE
  5
3770
330
1E
100
AcDbEntity
  8
VERDECKT
100
AcDbLine
 10
640.4531753823185
 20
521.1481311724577
 30
0.0
 11
637.4531753823186
 21
521.1481311724577
 31
0.0
  0
LINE
  5
3771
330
1E
100
AcDbEntity
  8
VERDECKT
100
AcDbLine
 10
641.4531753823186
 20
522.1481311724577
 30
0.0
 11
636.4531753823186
 21
522.1481311724577
 31
0.0
  0
LINE
  5
3772
330
1E
100
AcDbEntity
  8
VERDECKT
100
AcDbLine
 10
640.4531753823185
 20
525.1481311724577
 30
0.0
 11
640.4531753823185
 21
521.1481311724577
 31
0.0
  0
LINE
  5
3773
330
1E
100
AcDbEntity
  8
VERDECKT
100
AcDbLine
 10
637.4531753823186
 20
525.1481311724577
 30
0.0
 11
637.4531753823186
 21
521.1481311724577
 31
0.0
  0
LINE
  5
3774
330
1E
100
AcDbEntity
  8
VERDECKT
100
AcDbLine
 10
640.4531753823185
 20
521.1481311724577
 30
0.0
 11
641.4531753823186
 21
522.1481311724577
 31
0.0
  0
LINE
  5
3775
330
1E
100
AcDbEntity
  8
VERDECKT
100
AcDbLine
 10
637.4531753823186
 20
521.1481311724577
 30
0.0
 11
636.4531753823186
 21
522.1481311724577
 31
0.0
  0
ARC
  5
3776
330
1E
100
AcDbEntity
  8
VERDECKT
  6
Continuous
100
AcDbCircle
 10
638.9531753823185
 20
531.7414741893061
 30
0.0
 40
6.593343016848384
100
AcDbArc
 50
250.5278273813862
 51
289.4721726186137
  0
ARC
  5
3777
330
1E
100
AcDbEntity
  8
VERDECKT
  6
Continuous
100
AcDbCircle
 10
638.9531753823185
 20
522.5547881556093
 30
0.0
 40
6.593343016848384
100
AcDbArc
 50
70.52782738138624
 51
109.4721726186137
  0
LINE
  5
3778
330
1E
100
AcDbEntity
  8
VERDECKT
  6
Continuous
100
AcDbLine
 10
635.6566704425542
 20
525.1481311724577
 30
0.0
 11
642.2496803220769
 21
525.1481311724577
 31
0.0
  0
LINE
  5
3779
330
1E
100
AcDbEntity
  8
VERDECKT
  6
Continuous
100
AcDbLine
 10
635.6566704425542
 20
529.1481311724577
 30
0.0
 11
642.2496803220769
 21
529.1481311724577
 31
0.0
  0
LINE
  5
377A
330
1E
100
AcDbEntity
  8
VERDECKT
  6
Continuous
100
AcDbLine
 10
634.5574068020599
 20
528.7898532002724
 30
0.0
 11
634.5574068020599
 21
525.506409144643
 31
0.0
  0
LINE
  5
377B
330
1E
100
AcDbEntity
  8
VERDECKT
  6
Continuous
100
AcDbLine
 10
636.7552910921893
 20
528.7710150485907
 30
0.0
 11
636.7552910921893
 21
525.5252472963246
 31
0.0
  0
LINE
  5
377C
330
1E
100
AcDbEntity
  8
VERDECKT
  6
Continuous
100
AcDbLine
 10
634.5574068020599
 20
525.506409144643
 30
0.0
 11
634.8015065162216
 21
525.3654781089627
 31
0.0
  0
ARC
  5
377D
330
1E
100
AcDbEntity
  8
VERDECKT
  6
Continuous
100
AcDbCircle
 10
635.6563489471247
 20
526.9378853360808
 30
0.0
 40
1.789754192498356
100
AcDbArc
 50
238.5308054759252
 51
307.8806357171815
  0
LINE
  5
377E
330
1E
100
AcDbEntity
  8
VERDECKT
  6
Continuous
100
AcDbLine
 10
634.5574068020599
 20
528.7898532002724
 30
0.0
 11
634.8015065162216
 21
528.9307842359528
 31
0.0
  0
ARC
  5
377F
330
1E
100
AcDbEntity
  8
VERDECKT
  6
Continuous
100
AcDbCircle
 10
635.6563489471247
 20
527.3583770088347
 30
0.0
 40
1.789754192498356
100
AcDbArc
 50
52.11936428281847
 51
121.4691945240748
  0
LINE
  5
3780
330
1E
100
AcDbEntity
  8
VERDECKT
  6
Continuous
100
AcDbLine
 10
643.348943962577
 20
528.7898532002724
 30
0.0
 11
643.348943962577
 21
525.506409144643
 31
0.0
  0
LINE
  5
3781
330
1E
100
AcDbEntity
  8
VERDECKT
  6
Continuous
100
AcDbLine
 10
641.1510596724477
 20
528.7710150485907
 30
0.0
 11
641.1510596724477
 21
525.5252472963246
 31
0.0
  0
LINE
  5
3782
330
1E
100
AcDbEntity
  8
VERDECKT
  6
Continuous
100
AcDbLine
 10
643.348943962577
 20
525.506409144643
 30
0.0
 11
643.1048442484153
 21
525.3654781089627
 31
0.0
  0
ARC
  5
3783
330
1E
100
AcDbEntity
  8
VERDECKT
  6
Continuous
100
AcDbCircle
 10
642.2500018175123
 20
526.9378853360808
 30
0.0
 40
1.789754192498356
100
AcDbArc
 50
232.1193642828185
 51
301.4691945240749
  0
LINE
  5
3784
330
1E
100
AcDbEntity
  8
VERDECKT
  6
Continuous
100
AcDbLine
 10
643.348943962577
 20
528.7898532002724
 30
0.0
 11
643.1048442484153
 21
528.9307842359528
 31
0.0
  0
LINE
  5
3785
330
1E
100
AcDbEntity
  8
VERDECKT
  6
Continuous
100
AcDbLine
 10
642.2468495218736
 20
529.1481311724577
 30
0.0
 11
642.2496803220707
 21
529.1481311724577
 31
0.0
  0
ARC
  5
3786
330
1E
100
AcDbEntity
  8
VERDECKT
  6
Continuous
100
AcDbCircle
 10
642.2500018175123
 20
527.3583770088347
 30
0.0
 40
1.789754192498356
100
AcDbArc
 50
58.53080547592512
 51
127.8806357171815
  0
LINE
  5
3787
330
1E
100
AcDbEntity
  8
MITTEL
100
AcDbLine
 10
638.9531753823185
 20
538.1481311724578
 30
0.0
 11
638.9531753823185
 21
516.1481311724578
 31
0.0
  0
ARC
  5
37C1
330
1E
100
AcDbEntity
  8
VERDECKT
100
AcDbCircle
 10
199.6532303939162
 20
53.80066950074926
 30
0.0
 40
2.0
100
AcDbArc
 50
209.9999999999994
 51
29.99999999999938
  0
ARC
  5
37C2
330
1E
100
AcDbEntity
  8
VERDECKT
100
AcDbCircle
 10
199.6532303939162
 20
53.80066950074926
 30
0.0
 40
4.0
100
AcDbArc
 50
209.9999999999994
 51
29.99999999999938
  0
ARC
  5
37C3
330
1E
100
AcDbEntity
  8
VERDECKT
100
AcDbCircle
 10
190.6532303939162
 20
69.38912676886916
 30
0.0
 40
4.0
100
AcDbArc
 50
29.99999999999938
 51
165.5224878140721
  0
ARC
  5
37C4
330
1E
100
AcDbEntity
  8
VERDECKT
100
AcDbCircle
 10
190.6532303939162
 20
69.38912676886916
 30
0.0
 40
2.0
100
AcDbArc
 50
29.99999999999938
 51
150.0000000000042
  0
LINE
  5
37C5
330
1E
100
AcDbEntity
  8
VERDECKT
100
AcDbLine
 10
188.9211795863474
 20
68.38912676886916
 30
0.0
 11
197.9211795863474
 21
52.80066950074926
 31
0.0
  0
LINE
  5
37C6
330
1E
100
AcDbEntity
  8
VERDECKT
100
AcDbLine
 10
192.3852812014851
 20
70.38912676886916
 30
0.0
 11
201.3852812014853
 21
54.80066950074932
 31
0.0
  0
LINE
  5
37C7
330
1E
100
AcDbEntity
  8
VERDECKT
100
AcDbLine
 10
194.117332009054
 20
71.38912676886921
 30
0.0
 11
203.1173320090541
 21
55.80066950074932
 31
0.0
  0
LINE
  5
37C8
330
1E
100
AcDbEntity
  8
VERDECKT
100
AcDbLine
 10
187.1891287787785
 20
67.38912676886916
 30
0.0
 11
196.1891287787785
 21
51.80066950074927
 31
0.0
  0
LINE
  5
37C9
330
1E
100
AcDbEntity
  8
MITTEL
100
AcDbLine
 10
199.6532303939162
 20
62.30066950074915
 30
0.0
 11
199.6532303939162
 21
45.30066950074915
 31
0.0
  0
LINE
  5
37CA
330
1E
100
AcDbEntity
  8
MITTEL
100
AcDbLine
 10
191.1532303939162
 20
53.80066950074926
 30
0.0
 11
208.1532303939164
 21
53.80066950074926
 31
0.0
  0
CIRCLE
  5
37CB
330
1E
100
AcDbEntity
  8
STEMPEL
100
AcDbCircle
 10
199.6532303939162
 20
53.80066950074926
 30
0.0
 40
4.599999999999999
  0
LINE
  5
37CC
330
1E
100
AcDbEntity
  8
STEMPEL
100
AcDbLine
 10
196.9743939213365
 20
50.06117285638963
 30
0.0
 11
203.3927270382759
 21
56.47950597332901
 31
0.0
  0
LINE
  5
37CD
330
1E
100
AcDbEntity
  8
STEMPEL
100
AcDbLine
 10
195.9137337495566
 20
51.12183302816941
 30
0.0
 11
202.3320668664961
 21
57.5401661451089
 31
0.0
  0
ARC
  5
37CE
330
1E
100
AcDbEntity
  8
VERDECKT
100
AcDbCircle
 10
190.6532303939162
 20
69.38912676886916
 30
0.0
 40
4.0
100
AcDbArc
 50
194.4775121859299
 51
209.9999999999994
  0
ARC
  5
37CF
330
1E
100
AcDbEntity
  8
VERDECKT
100
AcDbCircle
 10
189.6532303939162
 20
69.38912676886916
 30
0.0
 40
1.0
100
AcDbArc
 50
270.0
 51
90.0
  0
ARC
  5
37D0
330
1E
100
AcDbEntity
  8
VERDECKT
100
AcDbCircle
 10
165.6532303939162
 20
69.38912676886916
 30
0.0
 40
1.0
100
AcDbArc
 50
90.0
 51
270.0
  0
LINE
  5
37D1
330
1E
100
AcDbEntity
  8
VERDECKT
100
AcDbLine
 10
165.6532303939162
 20
70.38912676886903
 30
0.0
 11
189.6532303939162
 21
70.38912676886903
 31
0.0
  0
LINE
  5
37D2
330
1E
100
AcDbEntity
  8
VERDECKT
100
AcDbLine
 10
165.6532303939162
 20
68.38912676886915
 30
0.0
 11
189.6532303939162
 21
68.38912676886915
 31
0.0
  0
ARC
  5
37D3
330
1E
100
AcDbEntity
  8
VERDECKT
  6
Continuous
100
AcDbCircle
 10
165.4429845575394
 20
73.09749593594313
 30
0.0
 40
1.789754192498356
100
AcDbArc
 50
148.5308054759227
 51
217.8806357171786
  0
LINE
  5
37D4
330
1E
100
AcDbEntity
  8
VERDECKT
  6
Continuous
100
AcDbLine
 10
163.6532303939163
 20
73.09434364030436
 30
0.0
 11
163.6532303939163
 21
73.0971744405014
 31
0.0
  0
LINE
  5
37D5
330
1E
100
AcDbEntity
  8
VERDECKT
  6
Continuous
100
AcDbLine
 10
164.0115083661016
 20
74.19643808100777
 30
0.0
 11
163.8705773304212
 21
73.95233836684609
 31
0.0
  0
ARC
  5
37D6
330
1E
100
AcDbEntity
  8
VERDECKT
  6
Continuous
100
AcDbCircle
 10
165.8634762302932
 20
73.09749593594313
 30
0.0
 40
1.789754192498356
100
AcDbArc
 50
322.1193642828214
 51
31.46919452407697
  0
LINE
  5
37D7
330
1E
100
AcDbEntity
  8
VERDECKT
  6
Continuous
100
AcDbLine
 10
167.294952421731
 20
74.19643808100777
 30
0.0
 11
167.4358834574114
 21
73.95233836684609
 31
0.0
  0
LINE
  5
37D8
330
1E
100
AcDbEntity
  8
VERDECKT
  6
Continuous
100
AcDbLine
 10
164.0303465177832
 20
71.99855379087852
 30
0.0
 11
167.2761142700495
 21
71.99855379087849
 31
0.0
  0
LINE
  5
37D9
330
1E
100
AcDbEntity
  8
VERDECKT
  6
Continuous
100
AcDbLine
 10
164.0115083661016
 20
74.19643808100777
 30
0.0
 11
167.294952421731
 21
74.19643808100777
 31
0.0
  0
ARC
  5
37DA
330
1E
100
AcDbEntity
  8
VERDECKT
  6
Continuous
100
AcDbCircle
 10
165.4429845575394
 20
66.50384306555537
 30
0.0
 40
1.789754192498356
100
AcDbArc
 50
142.1193642828214
 51
211.469194524077
  0
LINE
  5
37DB
330
1E
100
AcDbEntity
  8
VERDECKT
  6
Continuous
100
AcDbLine
 10
164.0115083661016
 20
65.4049009204907
 30
0.0
 11
163.8705773304212
 21
65.64900063465238
 31
0.0
  0
ARC
  5
37DC
330
1E
100
AcDbEntity
  8
VERDECKT
  6
Continuous
100
AcDbCircle
 10
165.8634762302932
 20
66.50384306555537
 30
0.0
 40
1.789754192498356
100
AcDbArc
 50
328.530805475923
 51
37.88063571717861
  0
LINE
  5
37DD
330
1E
100
AcDbEntity
  8
VERDECKT
  6
Continuous
100
AcDbLine
 10
167.294952421731
 20
65.4049009204907
 30
0.0
 11
167.4358834574114
 21
65.64900063465238
 31
0.0
  0
LINE
  5
37DE
330
1E
100
AcDbEntity
  8
VERDECKT
  6
Continuous
100
AcDbLine
 10
164.0303465177832
 20
67.60278521061998
 30
0.0
 11
167.2761142700494
 21
67.60278521061998
 31
0.0
  0
LINE
  5
37DF
330
1E
100
AcDbEntity
  8
VERDECKT
  6
Continuous
100
AcDbLine
 10
164.0115083661016
 20
65.4049009204907
 30
0.0
 11
167.294952421731
 21
65.4049009204907
 31
0.0
  0
LINE
  5
37E0
330
1E
100
AcDbEntity
  8
VERDECKT
  6
Continuous
100
AcDbLine
 10
163.6532303939163
 20
66.50416456098501
 30
0.0
 11
163.6532303939163
 21
73.09717444050774
 31
0.0
  0
LINE
  5
37E1
330
1E
100
AcDbEntity
  8
VERDECKT
  6
Continuous
100
AcDbLine
 10
167.6532303939163
 20
66.50416456098501
 30
0.0
 11
167.6532303939163
 21
73.09717444050774
 31
0.0
  0
ARC
  5
37E2
330
1E
100
AcDbEntity
  8
VERDECKT
  6
Continuous
100
AcDbCircle
 10
170.2465734107647
 20
69.80066950074925
 30
0.0
 40
6.593343016848384
100
AcDbArc
 50
160.5278273813862
 51
199.4721726186137
  0
ARC
  5
37E3
330
1E
100
AcDbEntity
  8
VERDECKT
  6
Continuous
100
AcDbCircle
 10
161.059887377068
 20
69.80066950074925
 30
0.0
 40
6.593343016848384
100
AcDbArc
 50
340.5278273813863
 51
19.47217261861375
  0
LINE
  5
37E4
330
1E
100
AcDbEntity
  8
VERDECKT
100
AcDbLine
 10
171.6532303939164
 20
68.30066950074926
 30
0.0
 11
170.6532303939164
 21
67.30066950074927
 31
0.0
  0
LINE
  5
37E5
330
1E
100
AcDbEntity
  8
VERDECKT
100
AcDbLine
 10
171.6532303939164
 20
71.30066950074928
 30
0.0
 11
170.6532303939163
 21
72.30066950074927
 31
0.0
  0
LINE
  5
37E6
330
1E
100
AcDbEntity
  8
VERDECKT
100
AcDbLine
 10
167.6532303939163
 20
68.30066950074928
 30
0.0
 11
171.6532303939164
 21
68.30066950074926
 31
0.0
  0
LINE
  5
37E7
330
1E
100
AcDbEntity
  8
VERDECKT
100
AcDbLine
 10
167.6532303939163
 20
71.3006695007493
 30
0.0
 11
171.6532303939164
 21
71.30066950074928
 31
0.0
  0
LINE
  5
37E8
330
1E
100
AcDbEntity
  8
VERDECKT
100
AcDbLine
 10
170.6532303939163
 20
72.30066950074927
 30
0.0
 11
170.6532303939164
 21
67.30066950074927
 31
0.0
  0
LINE
  5
37E9
330
1E
100
AcDbEntity
  8
VERDECKT
100
AcDbLine
 10
171.6532303939164
 20
71.3006695007493
 30
0.0
 11
171.6532303939164
 21
68.30066950074926
 31
0.0
  0
LINE
  5
37EA
330
1E
100
AcDbEntity
  8
VERDECKT
100
AcDbLine
 10
167.6532303939163
 20
67.30066950074927
 30
0.0
 11
170.6532303939164
 21
67.30066950074927
 31
0.0
  0
LINE
  5
37EB
330
1E
100
AcDbEntity
  8
VERDECKT
100
AcDbLine
 10
167.6532303939163
 20
72.30066950074927
 30
0.0
 11
170.6532303939163
 21
72.30066950074927
 31
0.0
  0
LINE
  5
37EC
330
1E
100
AcDbEntity
  8
VERDECKT
100
AcDbLine
 10
159.6532303939162
 20
65.20066950074927
 30
0.0
 11
161.6532303939163
 21
67.20066950074937
 31
0.0
  0
LINE
  5
37ED
330
1E
100
AcDbEntity
  8
VERDECKT
100
AcDbLine
 10
159.6532303939162
 20
74.40066950074923
 30
0.0
 11
161.6532303939163
 21
72.40066950074916
 31
0.0
  0
ARC
  5
37EE
330
1E
100
AcDbEntity
  8
STEMPEL
100
AcDbCircle
 10
169.7332303939162
 20
69.80066950074925
 30
0.0
 40
11.07999999999998
100
AcDbArc
 50
155.4704525442159
 51
204.5295474557841
  0
LINE
  5
37EF
330
1E
100
AcDbEntity
  8
MITTEL
100
AcDbLine
 10
154.6532303939162
 20
69.80066950074925
 30
0.0
 11
176.6532303939162
 21
69.80066950074927
 31
0.0
  0
LINE
  5
37F0
330
1E
100
AcDbEntity
  8
VERDECKT
100
AcDbLine
 10
163.6532303939163
 20
72.80066950074925
 30
0.0
 11
163.6532303939163
 21
66.80066950074925
 31
0.0
  0
ARC
  5
37F1
330
1E
100
AcDbEntity
  8
VERDECKT
100
AcDbCircle
 10
162.6532303939163
 20
72.80066950074925
 30
0.0
 40
1.0
100
AcDbArc
 50
0.0
 51
180.0
  0
ARC
  5
37F2
330
1E
100
AcDbEntity
  8
VERDECKT
100
AcDbCircle
 10
162.6532303939163
 20
66.80066950074925
 30
0.0
 40
1.0
100
AcDbArc
 50
180.0
 51
0.0
  0
LINE
  5
37F3
330
1E
100
AcDbEntity
  8
VERDECKT
100
AcDbLine
 10
159.6532303939162
 20
73.80066950074926
 30
0.0
 11
161.6532303939162
 21
73.80066950074926
 31
0.0
  0
LINE
  5
37F4
330
1E
100
AcDbEntity
  8
VERDECKT
100
AcDbLine
 10
161.6532303939162
 20
68.80066950074932
 30
0.0
 11
159.6532303939162
 21
68.80066950074932
 31
0.0
  0
ENDSEC
  0
SECTION
  2
OBJECTS
  0
DICTIONARY
  5
C
330
0
100
AcDbDictionary
281
     1
  3
ACAD_COLOR
350
11A
  3
ACAD_GROUP
350
D
  3
ACAD_LAYOUT
350
19
  3
ACAD_MATERIAL
350
119
  3
ACAD_MLINESTYLE
350
16
  3
ACAD_PLOTSETTINGS
350
18
  3
ACAD_PLOTSTYLENAME
350
E
  3
AcDbVariableDictionary
350
125
  0
DICTIONARY
  5
DB
330
1E
100
AcDbDictionary
280
     1
281
     1
  3
ACAD_LAYOUTSELFREF
360
10F
  0
DICTIONARY
  5
DD
330
1A
100
AcDbDictionary
280
     1
281
     1
  3
ACAD_LAYOUTSELFREF
360
10E
  0
DICTIONARY
  5
11A
102
{ACAD_REACTORS
330
C
102
}
330
C
100
AcDbDictionary
281
     1
  0
DICTIONARY
  5
D
102
{ACAD_REACTORS
330
C
102
}
330
C
100
AcDbDictionary
281
     1
  0
DICTIONARY
  5
19
102
{ACAD_REACTORS
330
C
102
}
330
C
100
AcDbDictionary
281
     1
  3
Layout1
350
1D
  3
Model
350
21
  0
DICTIONARY
  5
119
102
{ACAD_REACTORS
330
C
102
}
330
C
100
AcDbDictionary
281
     1
  0
DICTIONARY
  5
16
102
{ACAD_REACTORS
330
C
102
}
330
C
100
AcDbDictionary
281
     1
  3
Standard
350
17
  0
DICTIONARY
  5
18
102
{ACAD_REACTORS
330
C
102
}
330
C
100
AcDbDictionary
281
     1
  0
ACDBDICTIONARYWDFLT
  5
E
102
{ACAD_REACTORS
330
C
102
}
330
C
100
AcDbDictionary
281
     1
  3
Normal
350
F
100
AcDbDictionaryWithDefault
340
F
  0
DICTIONARY
  5
125
102
{ACAD_REACTORS
330
C
102
}
330
C
100
AcDbDictionary
281
     1
  3
DIMASSOC
350
126
  3
PROJECTNAME
350
127
  0
XRECORD
  5
10F
102
{ACAD_REACTORS
330
DB
102
}
330
DB
100
AcDbXrecord
280
     1
340
1E
  0
XRECORD
  5
10E
102
{ACAD_REACTORS
330
DD
102
}
330
DD
100
AcDbXrecord
280
     1
340
1A
  0
LAYOUT
  5
1D
102
{ACAD_REACTORS
330
19
102
}
330
19
100
AcDbPlotSettings
  1

  2
\\NT_WORK01\HP LaserJet 5000 PCL 6
  4

  6

 40
0.0
 41
0.0
 42
0.0
 43
0.0
 44
0.0
 45
0.0
 46
0.0
 47
0.0
 48
0.0
 49
0.0
140
0.0
141
0.0
142
1.0
143
1.0
 70
   688
 72
     0
 73
     0
 74
     5
  7

 75
    16
147
1.0
 76
     0
 77
     2
 78
   300
148
0.0
149
0.0
100
AcDbLayout
  1
Layout1
 70
     0
 71
     1
 10
0.0
 20
0.0
 11
12.0
 21
9.0
 12
0.0
 22
0.0
 32
0.0
 14
1.000000000000000E+20
 24
1.000000000000000E+20
 34
1.000000000000000E+20
 15
-1.000000000000000E+20
 25
-1.000000000000000E+20
 35
-1.000000000000000E+20
146
0.0
 13
0.0
 23
0.0
 33
0.0
 16
1.0
 26
0.0
 36
0.0
 17
0.0
 27
1.0
 37
0.0
 76
     0
330
1A
  0
LAYOUT
  5
21
102
{ACAD_REACTORS
330
19
102
}
330
19
100
AcDbPlotSettings
  1

  2
none_device
  4
Letter_(8.50_x_11.00_Inches)
  6

 40
6.349999904632568
 41
6.349999904632568
 42
6.350006103515625
 43
6.350006103515625
 44
215.8999938964844
 45
279.3999938964844
 46
0.0
 47
0.0
 48
0.0
 49
0.0
140
0.0
141
0.0
142
1.0
143
1.0
 70
 11952
 72
     0
 73
     1
 74
     0
  7

 75
     0
147
1.0
 76
     0
 77
     2
 78
   300
148
-3124.2
149
0.0
100
AcDbLayout
  1
Model
 70
     1
 71
     0
 10
0.0
 20
0.0
 11
12.0
 21
9.0
 12
0.0
 22
0.0
 32
0.0
 14
0.0
 24
0.0
 34
0.0
 15
0.0
 25
0.0
 35
0.0
146
0.0
 13
0.0
 23
0.0
 33
0.0
 16
1.0
 26
0.0
 36
0.0
 17
0.0
 27
1.0
 37
0.0
 76
     0
330
1E
  0
MLINESTYLE
  5
17
102
{ACAD_REACTORS
330
16
102
}
330
16
100
AcDbMlineStyle
  2
STANDARD
 70
     0
  3

 62
   256
 51
90.0
 52
90.0
 71
     2
 49
0.5
 62
   256
  6
BYLAYER
 49
-0.5
 62
   256
  6
BYLAYER
  0
ACDBPLACEHOLDER
  5
F
102
{ACAD_REACTORS
330
E
102
}
330
E
  0
DICTIONARYVAR
  5
126
102
{ACAD_REACTORS
330
125
102
}
330
125
100
DictionaryVariables
280
     0
  1
1
  0
DICTIONARYVAR
  5
127
102
{ACAD_REACTORS
330
125
102
}
330
125
100
DictionaryVariables
280
     0
  1

  0
ENDSEC
  0
EOF
