  0
SECTION
  2
HEADER
  9
$ACADVER
  1
AC1018
  9
$ACADMAINTVER
 70
     2
  9
$DWGCODEPAGE
  3
ANSI_1252
  9
$INSBASE
 10
0.0
 20
0.0
 30
0.0
  9
$EXTMIN
 10
-0.0000000000001137
 20
-0.0000000000001137
 30
0.0
  9
$EXTMAX
 10
420.0
 20
594.0000000000002
 30
0.0
  9
$LIMMIN
 10
0.0
 20
0.0
  9
$LIMMAX
 10
419.9999999999999
 20
594.0
  9
$ORTHOMODE
 70
     1
  9
$REGENMODE
 70
     1
  9
$FILLMODE
 70
     1
  9
$QTEXTMODE
 70
     0
  9
$MIRRTEXT
 70
     1
  9
$LTSCALE
 40
20.0
  9
$ATTMODE
 70
     1
  9
$TEXTSIZE
 40
3.5
  9
$TRACEWID
 40
0.5
  9
$TEXTSTYLE
  7
STANDARD
  9
$CLAYER
  8
SCHRAFF
  9
$CELTYPE
  6
ByLayer
  9
$CECOLOR
 62
   256
  9
$CELTSCALE
 40
1.0
  9
$DISPSILH
 70
     0
  9
$DIMSCALE
 40
2.0
  9
$DIMASZ
 40
3.5
  9
$DIMEXO
 40
1.0
  9
$DIMDLI
 40
7.0
  9
$DIMRND
 40
0.0
  9
$DIMDLE
 40
0.0
  9
$DIMEXE
 40
1.0
  9
$DIMTP
 40
0.0
  9
$DIMTM
 40
0.0
  9
$DIMTXT
 40
3.5
  9
$DIMCEN
 40
1.5
  9
$DIMTSZ
 40
0.0
  9
$DIMTOL
 70
     0
  9
$DIMLIM
 70
     0
  9
$DIMTIH
 70
     0
  9
$DIMTOH
 70
     0
  9
$DIMSE1
 70
     0
  9
$DIMSE2
 70
     0
  9
$DIMTAD
 70
     1
  9
$DIMZIN
 70
     8
  9
$DIMBLK
  1

  9
$DIMASO
 70
     1
  9
$DIMSHO
 70
     0
  9
$DIMPOST
  1

  9
$DIMAPOST
  1

  9
$DIMALT
 70
     0
  9
$DIMALTD
 70
     2
  9
$DIMALTF
 40
25.4
  9
$DIMLFAC
 40
1.0
  9
$DIMTOFL
 70
     1
  9
$DIMTVP
 40
0.0
  9
$DIMTIX
 70
     0
  9
$DIMSOXD
 70
     0
  9
$DIMSAH
 70
     0
  9
$DIMBLK1
  1

  9
$DIMBLK2
  1

  9
$DIMSTYLE
  2
Standard
  9
$DIMCLRD
 70
     0
  9
$DIMCLRE
 70
     0
  9
$DIMCLRT
 70
     1
  9
$DIMTFAC
 40
0.5
  9
$DIMGAP
 40
1.5
  9
$DIMJUST
 70
     0
  9
$DIMSD1
 70
     0
  9
$DIMSD2
 70
     0
  9
$DIMTOLJ
 70
     1
  9
$DIMTZIN
 70
     8
  9
$DIMALTZ
 70
     8
  9
$DIMALTTZ
 70
     8
  9
$DIMUPT
 70
     0
  9
$DIMDEC
 70
     2
  9
$DIMTDEC
 70
     2
  9
$DIMALTU
 70
     2
  9
$DIMALTTD
 70
     2
  9
$DIMTXSTY
  7
STANDARD
  9
$DIMAUNIT
 70
     0
  9
$DIMADEC
 70
     2
  9
$DIMALTRND
 40
0.0
  9
$DIMAZIN
 70
     2
  9
$DIMDSEP
 70
    46
  9
$DIMATFIT
 70
     3
  9
$DIMFRAC
 70
     0
  9
$DIMLDRBLK
  1

  9
$DIMLUNIT
 70
     2
  9
$DIMLWD
 70
    -2
  9
$DIMLWE
 70
    -2
  9
$DIMTMOVE
 70
     0
  9
$LUNITS
 70
     2
  9
$LUPREC
 70
     2
  9
$SKETCHINC
 40
1.0
  9
$FILLETRAD
 40
60.0
  9
$AUNITS
 70
     0
  9
$AUPREC
 70
     0
  9
$MENU
  1
ACAD
  9
$ELEVATION
 40
0.0
  9
$PELEVATION
 40
0.0
  9
$THICKNESS
 40
0.0
  9
$LIMCHECK
 70
     0
  9
$CHAMFERA
 40
0.0
  9
$CHAMFERB
 40
0.0
  9
$CHAMFERC
 40
0.0
  9
$CHAMFERD
 40
0.0
  9
$SKPOLY
 70
     0
  9
$TDCREATE
 40
2455397.864709028
  9
$TDUCREATE
 40
2455397.781375695
  9
$TDUPDATE
 40
2455859.405747315
  9
$TDUUPDATE
 40
2455859.322413981
  9
$TDINDWG
 40
0.1871360417
  9
$TDUSRTIMER
 40
0.1871360417
  9
$USRTIMER
 70
     1
  9
$ANGBASE
 50
0.0
  9
$ANGDIR
 70
     0
  9
$PDMODE
 70
     0
  9
$PDSIZE
 40
0.0
  9
$PLINEWID
 40
0.0
  9
$SPLFRAME
 70
     0
  9
$SPLINETYPE
 70
     6
  9
$SPLINESEGS
 70
     8
  9
$HANDSEED
  5
B76
  9
$SURFTAB1
 70
     6
  9
$SURFTAB2
 70
     6
  9
$SURFTYPE
 70
     6
  9
$SURFU
 70
     6
  9
$SURFV
 70
     6
  9
$UCSBASE
  2

  9
$UCSNAME
  2

  9
$UCSORG
 10
0.0
 20
0.0
 30
0.0
  9
$UCSXDIR
 10
1.0
 20
0.0
 30
0.0
  9
$UCSYDIR
 10
0.0
 20
1.0
 30
0.0
  9
$UCSORTHOREF
  2

  9
$UCSORTHOVIEW
 70
     0
  9
$UCSORGTOP
 10
0.0
 20
0.0
 30
0.0
  9
$UCSORGBOTTOM
 10
0.0
 20
0.0
 30
0.0
  9
$UCSORGLEFT
 10
0.0
 20
0.0
 30
0.0
  9
$UCSORGRIGHT
 10
0.0
 20
0.0
 30
0.0
  9
$UCSORGFRONT
 10
0.0
 20
0.0
 30
0.0
  9
$UCSORGBACK
 10
0.0
 20
0.0
 30
0.0
  9
$PUCSBASE
  2

  9
$PUCSNAME
  2

  9
$PUCSORG
 10
0.0
 20
0.0
 30
0.0
  9
$PUCSXDIR
 10
1.0
 20
0.0
 30
0.0
  9
$PUCSYDIR
 10
0.0
 20
1.0
 30
0.0
  9
$PUCSORTHOREF
  2

  9
$PUCSORTHOVIEW
 70
     0
  9
$PUCSORGTOP
 10
0.0
 20
0.0
 30
0.0
  9
$PUCSORGBOTTOM
 10
0.0
 20
0.0
 30
0.0
  9
$PUCSORGLEFT
 10
0.0
 20
0.0
 30
0.0
  9
$PUCSORGRIGHT
 10
0.0
 20
0.0
 30
0.0
  9
$PUCSORGFRONT
 10
0.0
 20
0.0
 30
0.0
  9
$PUCSORGBACK
 10
0.0
 20
0.0
 30
0.0
  9
$USERI1
 70
     0
  9
$USERI2
 70
     0
  9
$USERI3
 70
     0
  9
$USERI4
 70
     0
  9
$USERI5
 70
     0
  9
$USERR1
 40
0.0
  9
$USERR2
 40
0.0
  9
$USERR3
 40
0.0
  9
$USERR4
 40
0.0
  9
$USERR5
 40
0.0
  9
$WORLDVIEW
 70
     1
  9
$SHADEDGE
 70
     3
  9
$SHADEDIF
 70
    70
  9
$TILEMODE
 70
     1
  9
$MAXACTVP
 70
    16
  9
$PINSBASE
 10
0.0
 20
0.0
 30
0.0
  9
$PLIMCHECK
 70
     0
  9
$PEXTMIN
 10
1.000000000000000E+20
 20
1.000000000000000E+20
 30
1.000000000000000E+20
  9
$PEXTMAX
 10
-1.000000000000000E+20
 20
-1.000000000000000E+20
 30
-1.000000000000000E+20
  9
$PLIMMIN
 10
0.0
 20
0.0
  9
$PLIMMAX
 10
12.0
 20
9.0
  9
$UNITMODE
 70
     0
  9
$VISRETAIN
 70
     0
  9
$PLINEGEN
 70
     0
  9
$PSLTSCALE
 70
     0
  9
$TREEDEPTH
 70
  3020
  9
$CMLSTYLE
  2
Standard
  9
$CMLJUST
 70
     0
  9
$CMLSCALE
 40
1.0
  9
$PROXYGRAPHICS
 70
     1
  9
$MEASUREMENT
 70
     0
  9
$CELWEIGHT
370
    -1
  9
$ENDCAPS
280
     0
  9
$JOINSTYLE
280
     0
  9
$LWDISPLAY
290
     0
  9
$INSUNITS
 70
     0
  9
$HYPERLINKBASE
  1

  9
$STYLESHEET
  1
monochrome1.ctb
  9
$XEDIT
290
     1
  9
$CEPSNTYPE
380
     0
  9
$PSTYLEMODE
290
     1
  9
$FINGERPRINTGUID
  2
{D68B0D02-A558-11D7-B632-000102183313}
  9
$VERSIONGUID
  2
{4CFFAD2F-68B7-477F-8042-A5DBA3CDBE53}
  9
$EXTNAMES
290
     1
  9
$PSVPSCALE
 40
0.0
  9
$OLESTARTUP
290
     0
  9
$SORTENTS
280
   127
  9
$INDEXCTL
280
     0
  9
$HIDETEXT
280
     0
  9
$XCLIPFRAME
290
     0
  9
$HALOGAP
280
     0
  9
$OBSCOLOR
 70
   257
  9
$OBSLTYPE
280
     0
  9
$INTERSECTIONDISPLAY
280
     0
  9
$INTERSECTIONCOLOR
 70
   257
  9
$DIMASSOC
280
     1
  9
$PROJECTNAME
  1

  0
ENDSEC
  0
SECTION
  2
CLASSES
  0
CLASS
  1
ACDBDICTIONARYWDFLT
  2
AcDbDictionaryWithDefault
  3
ObjectDBX Classes
 90
        0
 91
        1
280
     0
281
     0
  0
CLASS
  1
DICTIONARYVAR
  2
AcDbDictionaryVar
  3
ObjectDBX Classes
 90
        0
 91
        2
280
     0
281
     0
  0
ENDSEC
  0
SECTION
  2
TABLES
  0
TABLE
  2
VPORT
  5
8
330
0
100
AcDbSymbolTable
 70
     2
  0
VPORT
  5
B75
330
8
100
AcDbSymbolTableRecord
100
AcDbViewportTableRecord
  2
*Active
 70
     0
 10
0.0
 20
0.0
 11
1.0
 21
1.0
 12
210.0
 22
297.0
 13
0.0
 23
0.0
 14
1.0
 24
1.0
 15
10.0
 25
10.0
 16
0.0
 26
0.0
 36
1.0
 17
0.0
 27
0.0
 37
0.0
 40
594.1470839067907
 41
1.36388140161725
 42
50.0
 43
0.0
 44
0.0
 50
0.0
 51
0.0
 71
     0
 72
  1500
 73
     1
 74
     0
 75
     0
 76
     0
 77
     0
 78
     0
281
     0
 65
     1
110
0.0
120
0.0
130
0.0
111
1.0
121
0.0
131
0.0
112
0.0
122
1.0
132
0.0
 79
     0
146
0.0
  0
ENDTAB
  0
TABLE
  2
LTYPE
  5
5
330
0
100
AcDbSymbolTable
 70
     2
  0
LTYPE
  5
13
330
5
100
AcDbSymbolTableRecord
100
AcDbLinetypeTableRecord
  2
ByBlock
 70
     0
  3

 72
    65
 73
     0
 40
0.0
  0
LTYPE
  5
14
330
5
100
AcDbSymbolTableRecord
100
AcDbLinetypeTableRecord
  2
ByLayer
 70
     0
  3

 72
    65
 73
     0
 40
0.0
  0
LTYPE
  5
15
330
5
100
AcDbSymbolTableRecord
100
AcDbLinetypeTableRecord
  2
Continuous
 70
     0
  3
Solid line
 72
    65
 73
     0
 40
0.0
  0
LTYPE
  5
25
330
5
100
AcDbSymbolTableRecord
100
AcDbLinetypeTableRecord
  2
STRICHPUNKT
 70
     0
  3
__ . __ . __ . __ . __ . __ . __ . __ . __ . __
 72
    65
 73
     4
 40
1.0
 49
0.5
 74
     0
 49
-0.25
 74
     0
 49
0.0
 74
     0
 49
-0.25
 74
     0
  0
ENDTAB
  0
TABLE
  2
LAYER
  5
2
330
0
100
AcDbSymbolTable
 70
     9
  0
LAYER
  5
10
330
2
100
AcDbSymbolTableRecord
100
AcDbLayerTableRecord
  2
0
 70
     0
 62
     7
  6
Continuous
370
    -3
390
F
  0
LAYER
  5
2A
330
2
100
AcDbSymbolTableRecord
100
AcDbLayerTableRecord
  2
VOLL
 70
     0
 62
     1
  6
Continuous
370
    -3
390
F
  0
LAYER
  5
2B
330
2
100
AcDbSymbolTableRecord
100
AcDbLayerTableRecord
  2
HILF
 70
     0
 62
     2
  6
Continuous
370
    -3
390
F
  0
LAYER
  5
2C
330
2
100
AcDbSymbolTableRecord
100
AcDbLayerTableRecord
  2
MITTEL
 70
     0
 62
     2
  6
STRICHPUNKT
370
    -3
390
F
  0
LAYER
  5
2F
330
2
100
AcDbSymbolTableRecord
100
AcDbLayerTableRecord
  2
BEM
 70
     0
 62
     7
  6
Continuous
370
    -3
390
F
  0
LAYER
  5
30
330
2
100
AcDbSymbolTableRecord
100
AcDbLayerTableRecord
  2
STEMPEL
 70
     0
 62
     3
  6
Continuous
370
    -3
390
F
  0
LAYER
  5
31
330
2
100
AcDbSymbolTableRecord
100
AcDbLayerTableRecord
  2
TEXT
 70
     0
 62
     7
  6
Continuous
370
    -3
390
F
  0
LAYER
  5
1B6
330
2
100
AcDbSymbolTableRecord
100
AcDbLayerTableRecord
  2
Defpoints
 70
     0
 62
     7
  6
Continuous
290
     0
370
    -3
390
F
  0
LAYER
  5
490
330
2
100
AcDbSymbolTableRecord
100
AcDbLayerTableRecord
  2
SCHRAFF
 70
     0
 62
     7
  6
Continuous
370
    -3
390
F
  0
ENDTAB
  0
TABLE
  2
STYLE
  5
3
330
0
100
AcDbSymbolTable
 70
     2
  0
STYLE
  5
11
330
3
100
AcDbSymbolTableRecord
100
AcDbTextStyleTableRecord
  2
STANDARD
 70
     0
 40
0.0
 41
0.8
 50
0.0
 71
     0
 42
3.5
  3
simplex.shx
  4

  0
STYLE
  5
24
330
3
100
AcDbSymbolTableRecord
100
AcDbTextStyleTableRecord
  2
GREEKS
 70
     0
 40
0.0
 41
0.8
 50
0.0
 71
     0
 42
2.5
  3
SIMPLEX.shx
  4

  0
ENDTAB
  0
TABLE
  2
VIEW
  5
6
330
0
100
AcDbSymbolTable
 70
     0
  0
ENDTAB
  0
TABLE
  2
UCS
  5
7
330
0
100
AcDbSymbolTable
 70
     0
  0
ENDTAB
  0
TABLE
  2
APPID
  5
9
330
0
100
AcDbSymbolTable
 70
     1
  0
APPID
  5
12
330
9
100
AcDbSymbolTableRecord
100
AcDbRegAppTableRecord
  2
ACAD
 70
     0
  0
ENDTAB
  0
TABLE
  2
DIMSTYLE
  5
A
330
0
100
AcDbSymbolTable
 70
     1
100
AcDbDimStyleTable
 71
     1
340
9D
  0
DIMSTYLE
105
9D
102
{ACAD_REACTORS
330
943
330
9EF
330
9FC
330
A9F
102
}
330
A
100
AcDbSymbolTableRecord
100
AcDbDimStyleTableRecord
  2
Standard
 70
     0
340
11
  0
ENDTAB
  0
TABLE
  2
BLOCK_RECORD
  5
1
330
0
100
AcDbSymbolTable
 70
     5
  0
BLOCK_RECORD
  5
1E
102
{ACAD_XDICTIONARY
360
A0
102
}
330
1
100
AcDbSymbolTableRecord
100
AcDbBlockTableRecord
  2
*Model_Space
340
21
  0
BLOCK_RECORD
  5
1A
102
{ACAD_XDICTIONARY
360
A2
102
}
330
1
100
AcDbSymbolTableRecord
100
AcDbBlockTableRecord
  2
*Paper_Space
340
1D
  0
BLOCK_RECORD
  5
22
330
1
100
AcDbSymbolTableRecord
100
AcDbBlockTableRecord
  2
LOGO
340
0
102
{BLKREFS
331
9B
102
}
  0
BLOCK_RECORD
  5
944
330
1
100
AcDbSymbolTableRecord
100
AcDbBlockTableRecord
  2
*D1
340
0
  0
BLOCK_RECORD
  5
9F0
330
1
100
AcDbSymbolTableRecord
100
AcDbBlockTableRecord
  2
*D2
340
0
  0
BLOCK_RECORD
  5
9FD
330
1
100
AcDbSymbolTableRecord
100
AcDbBlockTableRecord
  2
*D3
340
0
  0
BLOCK_RECORD
  5
AA0
330
1
100
AcDbSymbolTableRecord
100
AcDbBlockTableRecord
  2
*D4
340
0
  0
ENDTAB
  0
ENDSEC
  0
SECTION
  2
BLOCKS
  0
BLOCK
  5
35
330
1E
100
AcDbEntity
  8
0
100
AcDbBlockBegin
  2
*Model_Space
 70
     0
 10
0.0
 20
0.0
 30
0.0
  3
*Model_Space
  1

  0
ENDBLK
  5
36
330
1E
100
AcDbEntity
  8
0
100
AcDbBlockEnd
  0
BLOCK
  5
33
330
1A
100
AcDbEntity
 67
     1
  8
0
100
AcDbBlockBegin
  2
*Paper_Space
 70
     0
 10
0.0
 20
0.0
 30
0.0
  3
*Paper_Space
  1

  0
ENDBLK
  5
34
330
1A
100
AcDbEntity
 67
     1
  8
0
100
AcDbBlockEnd
  0
BLOCK
  5
37
330
22
100
AcDbEntity
  8
0
100
AcDbBlockBegin
  2
LOGO
 70
     0
 10
0.0
 20
0.0
 30
0.0
  3
LOGO
  1

  0
ARC
  5
38
330
22
100
AcDbEntity
  8
0
100
AcDbCircle
 10
11.59973089678112
 20
-9.271599258481501
 30
0.0
 40
4.5
100
AcDbArc
 50
270.0
 51
231.0575587310159
  0
LINE
  5
39
330
22
100
AcDbEntity
  8
0
100
AcDbLine
 10
3.599730896781125
 20
-4.771599258481529
 30
0.0
 11
3.599730896781153
 21
-11.77159925848133
 31
0.0
  0
LINE
  5
3A
330
22
100
AcDbEntity
  8
0
100
AcDbLine
 10
2.599730896781125
 20
-4.771599258481529
 30
0.0
 11
2.599730896781153
 21
-11.77159925848133
 31
0.0
  0
CIRCLE
  5
3B
330
22
100
AcDbEntity
  8
0
100
AcDbCircle
 10
11.59973089678112
 20
-9.271599258481501
 30
0.0
 40
3.5
  0
ARC
  5
3C
330
22
100
AcDbEntity
  8
0
100
AcDbCircle
 10
31.59973089678115
 20
-9.271599258481472
 30
0.0
 40
4.5
100
AcDbArc
 50
270.0
 51
231.0575587310182
  0
LINE
  5
3D
330
22
100
AcDbEntity
  8
0
100
AcDbLine
 10
17.59973089678112
 20
-4.771599258481472
 30
0.0
 11
17.59973089678115
 21
-13.77159925848147
 31
0.0
  0
ARC
  5
3E
330
22
100
AcDbEntity
  8
0
100
AcDbCircle
 10
22.59973089678116
 20
-7.271599258481472
 30
0.0
 40
2.5
100
AcDbArc
 50
293.1161887722295
 51
90.0
  0
CIRCLE
  5
3F
330
22
100
AcDbEntity
  8
0
100
AcDbCircle
 10
31.59973089678115
 20
-9.271599258481472
 30
0.0
 40
3.5
  0
ARC
  5
40
330
22
100
AcDbEntity
  8
0
100
AcDbCircle
 10
4.599730896781153
 20
-11.77159925848133
 30
0.0
 40
1.0
100
AcDbArc
 50
180.0
 51
270.0
  0
ARC
  5
41
330
22
100
AcDbEntity
  8
0
100
AcDbCircle
 10
4.599730896781153
 20
-11.77159925848133
 30
0.0
 40
2.0
100
AcDbArc
 50
179.9999999999992
 51
270.0
  0
LINE
  5
42
330
22
100
AcDbEntity
  8
0
100
AcDbLine
 10
11.59973089678115
 20
-13.77159925848144
 30
0.0
 11
4.599730896781153
 21
-13.77159925848147
 31
0.0
  0
LINE
  5
43
330
22
100
AcDbEntity
  8
0
100
AcDbLine
 10
8.771303772034769
 20
-12.77159925848136
 30
0.0
 11
4.599730896781153
 21
-12.77159925848133
 31
0.0
  0
LINE
  5
44
330
22
100
AcDbEntity
  8
0
100
AcDbLine
 10
31.59973089678115
 20
-13.77159925848147
 30
0.0
 11
23.6715276665056
 21
-13.77159925848144
 31
0.0
  0
LINE
  5
45
330
22
100
AcDbEntity
  8
0
100
AcDbLine
 10
23.56565672307022
 20
-9.51278021337896
 30
0.0
 11
24.4388546544846
 21
-12.77159925848144
 31
0.0
  0
LINE
  5
46
330
22
100
AcDbEntity
  8
0
100
AcDbLine
 10
22.59973089678116
 20
-9.771599258481472
 30
0.0
 11
18.59973089678112
 21
-9.771599258481472
 31
0.0
  0
LINE
  5
47
330
22
100
AcDbEntity
  8
0
100
AcDbLine
 10
18.59973089678115
 20
-13.77159925848144
 30
0.0
 11
17.59973089678115
 21
-13.77159925848144
 31
0.0
  0
LINE
  5
48
330
22
100
AcDbEntity
  8
0
100
AcDbLine
 10
18.59973089678115
 20
-9.771599258481472
 30
0.0
 11
18.59973089678115
 21
-13.77159925848144
 31
0.0
  0
LINE
  5
49
330
22
100
AcDbEntity
  8
0
100
AcDbLine
 10
22.59973089678116
 20
-9.771599258481472
 30
0.0
 11
23.67152766650562
 21
-13.77159925848147
 31
0.0
  0
ARC
  5
4A
330
22
100
AcDbEntity
  8
0
100
AcDbCircle
 10
22.59973089678116
 20
-7.271599258481472
 30
0.0
 40
2.5
100
AcDbArc
 50
270.0
 51
270.0000000000007
  0
LINE
  5
4B
330
22
100
AcDbEntity
  8
0
100
AcDbLine
 10
28.77130377203494
 20
-12.77159925848147
 30
0.0
 11
24.43885465448463
 21
-12.77159925848144
 31
0.0
  0
LINE
  5
4C
330
22
100
AcDbEntity
  8
0
100
AcDbLine
 10
3.599730896781125
 20
-4.771599258481472
 30
0.0
 11
2.599730896781125
 21
-4.771599258481472
 31
0.0
  0
LINE
  5
4D
330
22
100
AcDbEntity
  8
0
100
AcDbLine
 10
22.59973089678116
 20
-8.771599258481472
 30
0.0
 11
18.59973089678115
 21
-8.771599258481472
 31
0.0
  0
LINE
  5
4E
330
22
100
AcDbEntity
  8
0
100
AcDbLine
 10
22.59973089678116
 20
-5.771599258481472
 30
0.0
 11
18.59973089678115
 21
-5.771599258481472
 31
0.0
  0
LINE
  5
4F
330
22
100
AcDbEntity
  8
0
100
AcDbLine
 10
22.59973089678116
 20
-4.771599258481472
 30
0.0
 11
17.59973089678115
 21
-4.771599258481472
 31
0.0
  0
LINE
  5
50
330
22
100
AcDbEntity
  8
0
100
AcDbLine
 10
18.59973089678115
 20
-5.771599258481472
 30
0.0
 11
18.59973089678115
 21
-8.771599258481472
 31
0.0
  0
ARC
  5
51
330
22
100
AcDbEntity
  8
0
100
AcDbCircle
 10
22.59973089678116
 20
-7.271599258481472
 30
0.0
 40
1.5
100
AcDbArc
 50
270.0
 51
90.0
  0
ENDBLK
  5
52
330
22
100
AcDbEntity
  8
0
100
AcDbBlockEnd
  0
BLOCK
  5
94E
330
944
100
AcDbEntity
  8
0
100
AcDbBlockBegin
  2
*D1
 70
     1
 10
0.0
 20
0.0
 30
0.0
  3
*D1
  1

  0
LINE
  5
A8D
330
944
100
AcDbEntity
  8
BEM
 62
     0
370
    -2
100
AcDbLine
 10
177.9748772078115
 20
253.6343175711508
 30
0.0
 11
177.9748772078115
 21
229.2621201825217
 31
0.0
  0
LINE
  5
A8E
330
944
100
AcDbEntity
  8
BEM
 62
     0
370
    -2
100
AcDbLine
 10
266.9748772078116
 20
253.6343175711507
 30
0.0
 11
266.9748772078116
 21
229.2621201825217
 31
0.0
  0
LINE
  5
A8F
330
944
100
AcDbEntity
  8
BEM
 62
     0
370
    -2
100
AcDbLine
 10
184.9748772078116
 20
231.2621201825217
 30
0.0
 11
259.9748772078116
 21
231.2621201825217
 31
0.0
  0
SOLID
  5
A90
330
944
100
AcDbEntity
  8
BEM
 62
     0
100
AcDbTrace
 10
184.9748772078116
 20
232.4287868491884
 30
0.0
 11
184.9748772078116
 21
230.0954535158551
 31
0.0
 12
177.9748772078115
 22
231.2621201825217
 32
0.0
 13
177.9748772078115
 23
231.2621201825217
 33
0.0
  0
SOLID
  5
A91
330
944
100
AcDbEntity
  8
BEM
 62
     0
100
AcDbTrace
 10
259.9748772078116
 20
232.4287868491884
 30
0.0
 11
259.9748772078116
 21
230.0954535158551
 31
0.0
 12
266.9748772078116
 22
231.2621201825217
 32
0.0
 13
266.9748772078116
 23
231.2621201825217
 33
0.0
  0
MTEXT
  5
A92
330
944
100
AcDbEntity
  8
BEM
 62
     1
100
AcDbMText
 10
222.4748772078116
 20
237.7621201825217
 30
0.0
 40
7.0
 41
0.0
 71
     5
 72
     1
  1
\A1;%%c89
 73
     1
 44
1.0
  0
POINT
  5
A93
330
944
100
AcDbEntity
  8
Defpoints
 62
     0
100
AcDbPoint
 10
177.9748772078115
 20
255.6343175711508
 30
0.0
  0
POINT
  5
A94
330
944
100
AcDbEntity
  8
Defpoints
 62
     0
100
AcDbPoint
 10
266.9748772078116
 20
255.6343175711507
 30
0.0
  0
POINT
  5
A95
330
944
100
AcDbEntity
  8
Defpoints
 62
     0
100
AcDbPoint
 10
266.9748772078116
 20
231.2621201825217
 30
0.0
  0
ENDBLK
  5
94F
330
944
100
AcDbEntity
  8
0
100
AcDbBlockEnd
  0
BLOCK
  5
9FA
330
9F0
100
AcDbEntity
  8
0
100
AcDbBlockBegin
  2
*D2
 70
     1
 10
0.0
 20
0.0
 30
0.0
  3
*D2
  1

  0
LINE
  5
A84
330
9F0
100
AcDbEntity
  8
BEM
 62
     0
370
    -2
100
AcDbLine
 10
176.4123205254411
 20
250.6343175711506
 30
0.0
 11
159.333660442082
 21
250.6343175711506
 31
0.0
  0
LINE
  5
A85
330
9F0
100
AcDbEntity
  8
BEM
 62
     0
370
    -2
100
AcDbLine
 10
220.4748772078118
 20
350.6332583509439
 30
0.0
 11
159.333660442082
 21
350.6332583509439
 31
0.0
  0
LINE
  5
A86
330
9F0
100
AcDbEntity
  8
BEM
 62
     0
370
    -2
100
AcDbLine
 10
161.333660442082
 20
257.6343175711506
 30
0.0
 11
161.3336604420821
 21
343.6332583509439
 31
0.0
  0
SOLID
  5
A87
330
9F0
100
AcDbEntity
  8
BEM
 62
     0
100
AcDbTrace
 10
160.1669937754154
 20
257.6343175711506
 30
0.0
 11
162.5003271087487
 21
257.6343175711506
 31
0.0
 12
161.333660442082
 22
250.6343175711506
 32
0.0
 13
161.333660442082
 23
250.6343175711506
 33
0.0
  0
SOLID
  5
A88
330
9F0
100
AcDbEntity
  8
BEM
 62
     0
100
AcDbTrace
 10
160.1669937754154
 20
343.6332583509439
 30
0.0
 11
162.5003271087487
 21
343.6332583509439
 31
0.0
 12
161.3336604420821
 22
350.6332583509439
 32
0.0
 13
161.3336604420821
 23
350.6332583509439
 33
0.0
  0
MTEXT
  5
A89
330
9F0
100
AcDbEntity
  8
BEM
 62
     1
100
AcDbMText
 10
154.833660442082
 20
300.6337879610474
 30
0.0
 40
7.0
 41
0.0
 71
     5
 72
     1
  1
\A1;100
 11
0.0000000000000001
 21
1.0
 31
0.0
 73
     1
 44
1.0
  0
POINT
  5
A8A
330
9F0
100
AcDbEntity
  8
Defpoints
 62
     0
100
AcDbPoint
 10
178.4123205254411
 20
250.6343175711506
 30
0.0
  0
POINT
  5
A8B
330
9F0
100
AcDbEntity
  8
Defpoints
 62
     0
100
AcDbPoint
 10
222.4748772078118
 20
350.6332583509439
 30
0.0
  0
POINT
  5
A8C
330
9F0
100
AcDbEntity
  8
Defpoints
 62
     0
100
AcDbPoint
 10
161.3336604420821
 20
350.6332583509439
 30
0.0
  0
ENDBLK
  5
9FB
330
9F0
100
AcDbEntity
  8
0
100
AcDbBlockEnd
  0
BLOCK
  5
A07
330
9FD
100
AcDbEntity
  8
0
100
AcDbBlockBegin
  2
*D3
 70
     1
 10
0.0
 20
0.0
 30
0.0
  3
*D3
  1

  0
LINE
  5
B68
330
9FD
100
AcDbEntity
  8
BEM
 62
     0
370
    -2
100
AcDbLine
 10
250.6122010184363
 20
449.773657190316
 30
0.0
 11
232.5983445150864
 21
467.787513693666
 31
0.0
  0
LINE
  5
B69
330
9FD
100
AcDbEntity
  8
BEM
 62
     0
370
    -2
100
AcDbLine
 10
221.0606636454386
 20
352.047471913317
 30
0.0
 11
168.9594831900879
 21
404.148652368668
 31
0.0
  0
LINE
  5
B6A
330
9FD
100
AcDbEntity
  8
BEM
 62
     0
370
    -2
100
AcDbLine
 10
229.0628106091536
 20
461.4235526629872
 30
0.0
 11
175.3234442207668
 21
407.6841862746007
 31
0.0
  0
SOLID
  5
B6B
330
9FD
100
AcDbEntity
  8
BEM
 62
     0
100
AcDbTrace
 10
228.2378526977693
 20
462.2485105743714
 30
0.0
 11
229.8877685205379
 21
460.5985947516028
 31
0.0
 12
234.0125580774595
 22
466.3733001312929
 32
0.0
 13
234.0125580774595
 23
466.3733001312929
 33
0.0
  0
SOLID
  5
B6C
330
9FD
100
AcDbEntity
  8
BEM
 62
     0
100
AcDbTrace
 10
174.4984863093825
 20
408.509144185985
 30
0.0
 11
176.1484021321511
 21
406.8592283632164
 31
0.0
 12
170.3736967524609
 22
402.734438806295
 32
0.0
 13
170.3736967524609
 23
402.734438806295
 33
0.0
  0
MTEXT
  5
B6D
330
9FD
100
AcDbEntity
  8
BEM
 62
     1
100
AcDbMText
 10
197.5969333372476
 20
439.1500635465065
 30
0.0
 40
7.0
 41
0.0
 71
     5
 72
     1
  1
\A1;90
 11
0.7071067811865505
 21
0.7071067811865446
 31
0.0
 73
     1
 44
1.0
  0
POINT
  5
B6E
330
9FD
100
AcDbEntity
  8
Defpoints
 62
     0
100
AcDbPoint
 10
252.0264145808093
 20
448.3594436279429
 30
0.0
  0
POINT
  5
B6F
330
9FD
100
AcDbEntity
  8
Defpoints
 62
     0
100
AcDbPoint
 10
222.4748772078117
 20
350.6332583509438
 30
0.0
  0
POINT
  5
B70
330
9FD
100
AcDbEntity
  8
Defpoints
 62
     0
100
AcDbPoint
 10
170.3736967524609
 20
402.734438806295
 30
0.0
  0
ENDBLK
  5
A08
330
9FD
100
AcDbEntity
  8
0
100
AcDbBlockEnd
  0
BLOCK
  5
AAC
330
AA0
100
AcDbEntity
  8
0
100
AcDbBlockBegin
  2
*D4
 70
     1
 10
0.0
 20
0.0
 30
0.0
  3
*D4
  1

  0
LINE
  5
B5E
330
AA0
100
AcDbEntity
  8
BEM
 62
     0
370
    -2
100
AcDbLine
 10
222.4748772078116
 20
352.6332583509437
 30
0.0
 11
222.4748772078117
 21
396.4827281518174
 31
0.0
  0
ARC
  5
B5F
330
AA0
100
AcDbEntity
  8
BEM
 62
     0
370
    -2
100
AcDbCircle
 10
222.4748772078117
 20
350.6332583509438
 30
0.0
 40
43.84946980087355
100
AcDbArc
 50
54.15626924992136
 51
80.84373075007837
  0
SOLID
  5
B60
330
AA0
100
AcDbEntity
  8
BEM
 62
     0
100
AcDbTrace
 10
248.9085771386841
 20
387.0665618520965
 30
0.0
 11
247.3956193654753
 21
385.2902163843084
 31
0.0
 12
253.4811346554442
 22
381.6395157985761
 32
0.0
 13
253.4811346554442
 23
381.6395157985761
 33
0.0
  0
SOLID
  5
B61
330
AA0
100
AcDbEntity
  8
BEM
 62
     0
100
AcDbTrace
 10
229.3594214766161
 20
392.7610541635189
 30
0.0
 11
229.5456647015343
 21
395.0869427906067
 31
0.0
 12
222.4748772078117
 22
394.4827281518174
 32
0.0
 13
222.4748772078117
 23
394.4827281518174
 33
0.0
  0
MTEXT
  5
B62
330
AA0
100
AcDbEntity
  8
BEM
 62
     1
100
AcDbMText
 10
243.0458566116051
 20
396.5887141271386
 30
0.0
 40
7.0
 41
0.0
 71
     5
 72
     1
  1
\A1;45°
 11
0.9127296862895143
 21
-0.4085639726723893
 31
0.0
 73
     1
 44
1.0
  0
POINT
  5
B63
330
AA0
100
AcDbEntity
  8
Defpoints
 62
     0
100
AcDbPoint
 10
233.8239551099257
 20
392.9885937006901
 30
0.0
  0
POINT
  5
B64
330
AA0
100
AcDbEntity
  8
Defpoints
 62
     0
100
AcDbPoint
 10
222.4748772078117
 20
350.6332583509438
 30
0.0
  0
POINT
  5
B65
330
AA0
100
AcDbEntity
  8
Defpoints
 62
     0
100
AcDbPoint
 10
289.649272438743
 20
417.8076535818745
 30
0.0
  0
POINT
  5
B66
330
AA0
100
AcDbEntity
  8
Defpoints
 62
     0
100
AcDbPoint
 10
222.4748772078117
 20
350.6332583509438
 30
0.0
  0
POINT
  5
B67
330
AA0
100
AcDbEntity
  8
Defpoints
 62
     0
100
AcDbPoint
 10
222.4748772078116
 20
245.6343175711507
 30
0.0
  0
ENDBLK
  5
AAD
330
AA0
100
AcDbEntity
  8
0
100
AcDbBlockEnd
  0
ENDSEC
  0
SECTION
  2
ENTITIES
  0
LINE
  5
57
330
1E
100
AcDbEntity
  8
STEMPEL
100
AcDbLine
 10
410.0
 20
110.0
 30
0.0
 11
39.99999999999997
 21
110.0
 31
0.0
  0
LINE
  5
58
330
1E
100
AcDbEntity
  8
STEMPEL
100
AcDbLine
 10
136.0000000000001
 20
109.9999999999999
 30
0.0
 11
136.0
 21
9.999999999999971
 31
0.0
  0
LINE
  5
59
330
1E
100
AcDbEntity
  8
STEMPEL
100
AcDbLine
 10
220.0
 20
110.0
 30
0.0
 11
220.0
 21
9.999999999999971
 31
0.0
  0
LINE
  5
5A
330
1E
100
AcDbEntity
  8
STEMPEL
100
AcDbLine
 10
332.0
 20
109.9999999999997
 30
0.0
 11
332.0
 21
40.0
 31
0.0
  0
LINE
  5
5B
330
1E
100
AcDbEntity
  8
STEMPEL
100
AcDbLine
 10
135.9999999999999
 20
29.99999999999997
 30
0.0
 11
39.99999999999997
 21
29.99999999999997
 31
0.0
  0
LINE
  5
5C
330
1E
100
AcDbEntity
  8
STEMPEL
100
AcDbLine
 10
410.0
 20
40.0
 30
0.0
 11
136.0000000000001
 21
39.99999999999997
 31
0.0
  0
LINE
  5
5D
330
1E
100
AcDbEntity
  8
STEMPEL
100
AcDbLine
 10
410.0
 20
80.0
 30
0.0
 11
136.0000000000001
 21
79.99999999999994
 31
0.0
  0
LINE
  5
5E
330
1E
100
AcDbEntity
  8
VOLL
100
AcDbLine
 10
54.00000000000009
 20
110.0
 30
0.0
 11
53.99999999999997
 21
9.999999999999971
 31
0.0
  0
LINE
  5
5F
330
1E
100
AcDbEntity
  8
VOLL
100
AcDbLine
 10
94.00000000000011
 20
109.9999999999999
 30
0.0
 11
94.0
 21
9.999999999999971
 31
0.0
  0
LINE
  5
60
330
1E
100
AcDbEntity
  8
VOLL
100
AcDbLine
 10
114.0000000000001
 20
109.9999999999999
 30
0.0
 11
114.0
 21
9.999999999999971
 31
0.0
  0
LINE
  5
61
330
1E
100
AcDbEntity
  8
VOLL
100
AcDbLine
 10
154.0000000000001
 20
79.99999999999994
 30
0.0
 11
154.0000000000001
 21
39.99999999999997
 31
0.0
  0
LINE
  5
62
330
1E
100
AcDbEntity
  8
VOLL
100
AcDbLine
 10
180.0000000000001
 20
109.9999999999998
 30
0.0
 11
180.0
 21
39.99999999999997
 31
0.0
  0
LINE
  5
63
330
1E
100
AcDbEntity
  8
HILF
100
AcDbLine
 10
40.00000000000008
 20
100.0
 30
0.0
 11
136.0000000000001
 21
100.0
 31
0.0
  0
LINE
  5
64
330
1E
100
AcDbEntity
  8
HILF
100
AcDbLine
 10
40.00000000000008
 20
90.00000000000005
 30
0.0
 11
136.0000000000001
 21
90.00000000000005
 31
0.0
  0
LINE
  5
65
330
1E
100
AcDbEntity
  8
HILF
100
AcDbLine
 10
40.00000000000008
 20
79.99999999999994
 30
0.0
 11
136.0000000000001
 21
79.99999999999994
 31
0.0
  0
LINE
  5
66
330
1E
100
AcDbEntity
  8
HILF
100
AcDbLine
 10
40.00000000000008
 20
69.99999999999994
 30
0.0
 11
136.0000000000001
 21
69.99999999999994
 31
0.0
  0
LINE
  5
67
330
1E
100
AcDbEntity
  8
HILF
100
AcDbLine
 10
40.00000000000008
 20
59.99999999999997
 30
0.0
 11
136.0000000000001
 21
59.99999999999997
 31
0.0
  0
LINE
  5
68
330
1E
100
AcDbEntity
  8
HILF
100
AcDbLine
 10
40.00000000000008
 20
49.99999999999997
 30
0.0
 11
136.0000000000001
 21
49.99999999999997
 31
0.0
  0
LINE
  5
69
330
1E
100
AcDbEntity
  8
HILF
100
AcDbLine
 10
40.00000000000008
 20
39.99999999999997
 30
0.0
 11
136.0000000000001
 21
39.99999999999997
 31
0.0
  0
LINE
  5
6A
330
1E
100
AcDbEntity
  8
HILF
100
AcDbLine
 10
136.0000000000001
 20
69.99999999999994
 30
0.0
 11
220.0
 21
69.99999999999994
 31
0.0
  0
LINE
  5
6B
330
1E
100
AcDbEntity
  8
HILF
100
AcDbLine
 10
136.0000000000001
 20
59.99999999999997
 30
0.0
 11
220.0
 21
59.99999999999997
 31
0.0
  0
LINE
  5
6C
330
1E
100
AcDbEntity
  8
HILF
100
AcDbLine
 10
136.0000000000001
 20
49.99999999999997
 30
0.0
 11
220.0
 21
49.99999999999997
 31
0.0
  0
LINE
  5
6D
330
1E
100
AcDbEntity
  8
HILF
100
AcDbLine
 10
224.7736801096948
 20
84.03758247564139
 30
0.0
 11
324.8353916556311
 21
84.03758247564139
 31
0.0
  0
LINE
  5
6E
330
1E
100
AcDbEntity
  8
HILF
100
AcDbLine
 10
224.7736801096948
 20
69.99999999999994
 30
0.0
 11
324.835391655631
 21
69.99999999999994
 31
0.0
  0
LINE
  5
6F
330
1E
100
AcDbEntity
  8
HILF
100
AcDbLine
 10
224.7736801096948
 20
59.99999999999997
 30
0.0
 11
324.835391655631
 21
59.99999999999997
 31
0.0
  0
LINE
  5
70
330
1E
100
AcDbEntity
  8
HILF
100
AcDbLine
 10
224.7736801096948
 20
49.99999999999997
 30
0.0
 11
324.835391655631
 21
49.99999999999997
 31
0.0
  0
LINE
  5
71
330
1E
100
AcDbEntity
  8
VOLL
100
AcDbLine
 10
332.0
 20
60.0
 30
0.0
 11
410.0
 21
60.0
 31
0.0
  0
LINE
  5
72
330
1E
100
AcDbEntity
  8
HILF
100
AcDbLine
 10
336.7238616296993
 20
83.77983636955827
 30
0.0
 11
404.8588839326728
 21
83.77983636955827
 31
0.0
  0
LINE
  5
73
330
1E
100
AcDbEntity
  8
HILF
100
AcDbLine
 10
223.4909699289885
 20
14.89398258028314
 30
0.0
 11
404.8588839326728
 21
14.89398258028314
 31
0.0
  0
TEXT
  5
74
330
1E
100
AcDbEntity
  8
TEXT
100
AcDbText
 10
63.86165979631819
 20
18.67381894984132
 30
0.0
 40
4.0
  1
Änderung
 41
0.8
  7
GREEKS
 72
     1
 11
74.60451693917534
 21
18.67381894984132
 31
0.0
100
AcDbText
  0
TEXT
  5
75
330
1E
100
AcDbEntity
  8
TEXT
100
AcDbText
 10
143.5163572150377
 20
102.4620895087088
 30
0.0
 40
5.0
  1
Maßstab
 41
0.8
  7
GREEKS
100
AcDbText
  0
TEXT
  5
76
330
1E
100
AcDbEntity
  8
TEXT
100
AcDbText
 10
184.2858954734051
 20
102.4184168434819
 30
0.0
 40
5.0
  1
Zul. Abw.
 41
0.8
  7
GREEKS
100
AcDbText
  0
TEXT
  5
77
330
1E
100
AcDbEntity
  8
TEXT
100
AcDbText
 10
224.877940380901
 20
102.5489328011779
 30
0.0
 40
5.0
  1
Benennung
 41
0.8
  7
GREEKS
100
AcDbText
  0
TEXT
  5
78
330
1E
100
AcDbEntity
  8
TEXT
100
AcDbText
 10
336.178754957634
 20
102.3132034537136
 30
0.0
 40
5.0
  1
Zeichnungs Nr.
 41
0.8
  7
GREEKS
100
AcDbText
  0
TEXT
  5
79
330
1E
100
AcDbEntity
  8
TEXT
100
AcDbText
 10
224.742238391136
 20
30.84560570193057
 30
0.0
 40
5.0
  1
Bauvorhaben
 41
0.8
  7
GREEKS
100
AcDbText
  0
TEXT
  5
7A
330
1E
100
AcDbEntity
  8
TEXT
100
AcDbText
 10
336.7238616296993
 20
73.1811823709997
 30
0.0
 40
5.0
  1
Ersatz für:
 41
0.8
  7
GREEKS
100
AcDbText
  0
TEXT
  5
7B
330
1E
100
AcDbEntity
  8
TEXT
100
AcDbText
 10
48.26641107045756
 20
13.65465846027192
 30
0.0
 40
4.0
  1
Index
 50
90.0
 41
0.8
  7
GREEKS
100
AcDbText
  0
TEXT
  5
7C
330
1E
100
AcDbEntity
  8
TEXT
100
AcDbText
 10
100.0934676075481
 20
18.6715626933981
 30
0.0
 40
4.0
  1
Tag
 41
0.8
  7
GREEKS
 72
     1
 11
103.8268009408814
 21
18.6715626933981
 31
0.0
100
AcDbText
  0
TEXT
  5
7D
330
1E
100
AcDbEntity
  8
TEXT
100
AcDbText
 10
119.0122744386592
 20
18.59324216966408
 30
0.0
 40
4.0
  1
Name
 41
0.8
  7
GREEKS
 72
     1
 11
125.3360839624688
 21
18.59324216966408
 31
0.0
100
AcDbText
  0
TEXT
  5
7E
330
1E
100
AcDbEntity
  8
TEXT
100
AcDbText
 10
162.3311673153651
 20
73.31880501229926
 30
0.0
 40
4.0
  1
Tag
 41
0.8
  7
GREEKS
100
AcDbText
  0
TEXT
  5
7F
330
1E
100
AcDbEntity
  8
TEXT
100
AcDbText
 10
192.4626584226295
 20
73.30961091915225
 30
0.0
 40
4.0
  1
Name
 41
0.8
  7
GREEKS
100
AcDbText
  0
TEXT
  5
80
330
1E
100
AcDbEntity
  8
TEXT
100
AcDbText
 10
137.5836127167615
 20
63.62990369617964
 30
0.0
 40
4.0
  1
Gez.
 41
0.8
  7
GREEKS
100
AcDbText
  0
TEXT
  5
81
330
1E
100
AcDbEntity
  8
TEXT
100
AcDbText
 10
137.5515086571672
 20
53.68926291428377
 30
0.0
 40
4.0
  1
Gepr.
 41
0.8
  7
GREEKS
100
AcDbText
  0
TEXT
  5
82
330
1E
100
AcDbEntity
  8
TEXT
100
AcDbText
 10
137.6006777387304
 20
43.52946389649807
 30
0.0
 40
4.0
  1
Norm.
 41
0.8
  7
GREEKS
100
AcDbText
  0
LINE
  5
83
330
1E
100
AcDbEntity
  8
STEMPEL
100
AcDbLine
 10
49.99999999999989
 20
10.0
 30
0.0
 11
410.0
 21
10.0
 31
0.0
  0
TEXT
  5
84
330
1E
100
AcDbEntity
  8
TEXT
100
AcDbText
 10
337.2400861497006
 20
52.07416177878602
 30
0.0
 40
5.0
  1
ersetzt durch:
 41
0.8
  7
GREEKS
100
AcDbText
  0
LINE
  5
85
330
1E
100
AcDbEntity
  8
STEMPEL
100
AcDbLine
 10
410.0
 20
10.0
 30
0.0
 11
39.99999999999989
 21
10.0
 31
0.0
  0
LINE
  5
86
330
1E
100
AcDbEntity
  8
STEMPEL
100
AcDbLine
 10
410.0
 20
10.0
 30
0.0
 11
410.0
 21
584.0
 31
0.0
  0
LINE
  5
87
330
1E
100
AcDbEntity
  8
STEMPEL
100
AcDbLine
 10
40.0
 20
10.0
 30
0.0
 11
39.99999999999989
 21
584.0
 31
0.0
  0
LINE
  5
88
330
1E
100
AcDbEntity
  8
STEMPEL
100
AcDbLine
 10
410.0
 20
584.0
 30
0.0
 11
39.99999999999989
 21
584.0
 31
0.0
  0
LINE
  5
89
330
1E
100
AcDbEntity
  8
HILF
100
AcDbLine
 10
0.0
 20
0.0
 30
0.0
 11
-0.0000000000001137
 21
594.0
 31
0.0
  0
LINE
  5
8A
330
1E
100
AcDbEntity
  8
HILF
100
AcDbLine
 10
419.9999999999999
 20
594.0000000000002
 30
0.0
 11
0.0
 21
594.0
 31
0.0
  0
LINE
  5
8B
330
1E
100
AcDbEntity
  8
HILF
100
AcDbLine
 10
420.0
 20
0.0
 30
0.0
 11
0.0
 21
0.0
 31
0.0
  0
LINE
  5
8C
330
1E
100
AcDbEntity
  8
HILF
100
AcDbLine
 10
31.08767135713856
 20
297.0
 30
0.0
 11
0.0000000000001137
 21
297.0
 31
0.0
  0
TEXT
  5
8D
330
1E
100
AcDbEntity
  8
TEXT
100
AcDbText
 10
138.622109822104
 20
73.14025471151666
 30
0.0
 40
4.0
  1
2011
 41
0.8
  7
GREEKS
100
AcDbText
  0
LINE
  5
8E
330
1E
100
AcDbEntity
  8
HILF
100
AcDbLine
 10
420.0
 20
-0.0000000000001137
 30
0.0
 11
419.9999999999999
 21
594.0
 31
0.0
  0
TEXT
  5
8F
330
1E
100
AcDbEntity
  8
VOLL
100
AcDbText
 10
78.07675471698113
 20
31.02594776470585
 30
0.0
 40
1.8
  1

  7
GREEKS
100
AcDbText
  0
TEXT
  5
90
330
1E
100
AcDbEntity
  8
TEXT
100
AcDbText
 10
41.85509950977674
 20
111.6719999999999
 30
0.0
 40
5.0
  1
Erstellt mit AUTOCAD 2004
 41
0.8
  7
GREEKS
100
AcDbText
  0
TEXT
  5
91
330
1E
100
AcDbEntity
  8
TEXT
100
AcDbText
 10
194.4216048581257
 20
63.0896391972351
 30
0.0
 40
4.0
  1
Koeh
 41
0.8
  7
GREEKS
 72
     1
 11
199.6787477152685
 21
63.0896391972351
 31
0.0
100
AcDbText
  0
TEXT
  5
92
330
1E
100
AcDbEntity
  8
TEXT
 62
     1
100
AcDbText
 10
345.5662059744554
 20
88.14901428913959
 30
0.0
 40
7.0
  1
03502080N
 41
0.8
  7
GREEKS
 72
     1
 11
368.7662059744554
 21
88.14901428913959
 31
0.0
100
AcDbText
  0
TEXT
  5
93
330
1E
100
AcDbEntity
  8
TEXT
 62
     1
100
AcDbText
 10
150.5006306481887
 20
88.14901428913959
 30
0.0
 40
7.0
  1
1:2
 41
0.8
  7
GREEKS
100
AcDbText
  0
TEXT
  5
94
330
1E
100
AcDbEntity
  8
TEXT
100
AcDbText
 10
160.7037590129979
 20
63.10765040825732
 30
0.0
 40
4.0
  1
24.10.
 41
0.8
  7
GREEKS
 72
     1
 11
167.4085209177598
 21
63.10765040825732
 31
0.0
100
AcDbText
  0
TEXT
  5
95
330
1E
100
AcDbEntity
  8
TEXT
 62
     1
100
AcDbText
 10
226.8935731057402
 20
87.41748789253779
 30
0.0
 40
7.0
  1
Bogen DN80 45°
 41
0.8
  7
GREEKS
100
AcDbText
  0
TEXT
  5
98
330
1E
100
AcDbEntity
  8
TEXT
100
AcDbText
 10
225.1296391125315
 20
51.64011943042158
 30
0.0
 40
5.0
  1
EDV-Art.Nr. 03502.080N
 41
0.8
  7
GREEKS
100
AcDbText
  0
TEXT
  5
99
330
1E
100
AcDbEntity
  8
TEXT
100
AcDbText
 10
224.9837501577827
 20
42.62974153022632
 30
0.0
 40
4.0
  1
03502.080N.DWG
 41
0.8
  7
GREEKS
100
AcDbText
  0
TEXT
  5
9A
330
1E
100
AcDbEntity
  8
TEXT
100
AcDbText
 10
182.626132208084
 20
90.76363841023022
 30
0.0
 40
4.0
  1
DIN EN1123-2
 41
0.8
  7
GREEKS
 72
     1
 11
199.6166083985602
 21
90.76363841023022
 31
0.0
100
AcDbText
  0
INSERT
  5
9B
330
1E
100
AcDbEntity
  8
STEMPEL
100
AcDbBlockReference
  2
LOGO
 10
140.9955485457794
 20
45.02105276448322
 30
0.0
 41
2.0
 42
2.0
 43
2.0
  0
TEXT
  5
118
330
1E
100
AcDbEntity
  8
BEM
100
AcDbText
 10
417.3022923857165
 20
10.16790107998849
 30
0.0
 40
4.0
  1
Diese Zeichnung ist urheberrechtlich geschützt und bleibt unser Eigentum. Sie darf weder ganz noch teilweise verfielfältigt und nicht an Dritte weitergegeben werden.
 50
90.0
 41
0.8
  7
GREEKS
100
AcDbText
  0
LINE
  5
137
330
1E
100
AcDbEntity
  8
MITTEL
100
AcDbLine
 10
222.4748772078117
 20
350.6332583509438
 30
0.0
 11
222.4748772078116
 21
245.6343175711507
 31
0.0
  0
LINE
  5
16A
330
1E
100
AcDbEntity
  8
MITTEL
100
AcDbLine
 10
289.649272438743
 20
417.8076535818745
 30
0.0
 11
222.4748772078117
 21
350.6332583509438
 31
0.0
  0
TEXT
  5
21A
330
1E
100
AcDbEntity
  8
TEXT
 62
     1
100
AcDbText
 10
263.1170180197255
 20
400.9044073440604
 30
0.0
 40
7.0
  1
DN80
 50
45.0
 41
0.8
  7
GREEKS
100
AcDbText
  0
TEXT
  5
4F3
330
1E
100
AcDbEntity
  8
TEXT
 62
     1
100
AcDbText
 10
182.0164268508513
 20
138.5680159469384
 30
0.0
 40
7.0
  1
Werkstoff: SF-Cu DIN1754/1786
 41
0.8
  7
GREEKS
100
AcDbText
  0
LINE
  5
51A
102
{ACAD_REACTORS
330
AEE
102
}
330
1E
100
AcDbEntity
  8
STEMPEL
100
AcDbLine
 10
177.9748772078116
 20
369.0657618765462
 30
0.0
 11
177.9748772078115
 21
255.6343175711508
 31
0.0
  0
LINE
  5
51B
102
{ACAD_REACTORS
330
AEE
102
}
330
1E
100
AcDbEntity
  8
STEMPEL
100
AcDbLine
 10
266.9748772078118
 20
332.200754825341
 30
0.0
 11
266.9748772078116
 21
255.6343175711507
 31
0.0
  0
TEXT
  5
703
330
1E
100
AcDbEntity
  8
VOLL
100
AcDbText
 10
530.1376913021803
 20
277.6019812781993
 30
0.0
 40
1.8
  1

  7
GREEKS
100
AcDbText
  0
TEXT
  5
704
330
1E
100
AcDbEntity
  8
TEXT
100
AcDbText
 10
861.9699595057731
 20
283.1602168114249
 30
0.0
 40
2.5
  1
  
  7
GREEKS
 72
     1
 11
864.231864267678
 21
283.1602168114249
 31
0.0
100
AcDbText
  0
TEXT
  5
705
330
1E
100
AcDbEntity
  8
BEM
100
AcDbText
 10
1106.089676818255
 20
418.719098841827
 30
0.0
 40
2.5
  1
 
 72
     4
 11
1107.220629199207
 21
418.719098841827
 31
0.0
100
AcDbText
  0
TEXT
  5
706
330
1E
100
AcDbEntity
  8
VOLL
100
AcDbText
 10
687.6724083793419
 20
283.1575369132705
 30
0.0
 40
1.8
  1

  7
GREEKS
100
AcDbText
  0
TEXT
  5
707
330
1E
100
AcDbEntity
  8
BEM
100
AcDbText
 10
722.1604732186265
 20
287.8832612364911
 30
0.0
 40
2.5
  1

 41
0.8
  7
GREEKS
100
AcDbText
  0
TEXT
  5
708
330
1E
100
AcDbEntity
  8
BEM
100
AcDbText
 10
722.1604732186265
 20
283.189492682439
 30
0.0
 40
2.5
  1

 41
0.8
  7
GREEKS
100
AcDbText
  0
TEXT
  5
709
330
1E
100
AcDbEntity
  8
BEM
100
AcDbText
 10
722.1604732186265
 20
277.9516488637755
 30
0.0
 40
2.5
  1

 41
0.8
  7
GREEKS
100
AcDbText
  0
TEXT
  5
70A
330
1E
100
AcDbEntity
  8
BEM
100
AcDbText
 10
722.087528741252
 20
273.4464599136779
 30
0.0
 40
1.8
  1

 41
0.8
  7
GREEKS
100
AcDbText
  0
TEXT
  5
70B
330
1E
100
AcDbEntity
  8
TEXT
100
AcDbText
 10
1019.504676582934
 20
288.7157724464961
 30
0.0
 40
2.5
  1
  
  7
GREEKS
 72
     1
 11
1021.766581344839
 21
288.7157724464961
 31
0.0
100
AcDbText
  0
TEXT
  5
70C
330
1E
100
AcDbEntity
  8
BEM
100
AcDbText
 10
1263.624393895417
 20
424.2746544768983
 30
0.0
 40
2.5
  1
 
 72
     4
 11
1264.755346276369
 21
424.2746544768983
 31
0.0
100
AcDbText
  0
LINE
  5
70D
102
{ACAD_REACTORS
330
AEE
102
}
330
1E
100
AcDbEntity
  8
STEMPEL
100
AcDbLine
 10
208.0393012089575
 20
399.1301858776923
 30
0.0
 11
177.9748772078116
 21
369.0657618765462
 31
0.0
  0
LINE
  5
70E
330
1E
100
AcDbEntity
  8
STEMPEL
100
AcDbLine
 10
319.8889800813272
 20
380.4968781274249
 30
0.0
 11
252.0264145808091
 21
448.3594436279429
 31
0.0
  0
TEXT
  5
72E
330
1E
100
AcDbEntity
  8
BEM
100
AcDbText
 10
544.2038843219018
 20
297.7852419352345
 30
0.0
 40
2.5
  1

  7
GREEKS
100
AcDbText
  0
TEXT
  5
747
330
1E
100
AcDbEntity
  8
VOLL
100
AcDbText
 10
530.1376913021803
 20
277.6019812781993
 30
0.0
 40
1.8
  1

  7
GREEKS
100
AcDbText
  0
TEXT
  5
74D
330
1E
100
AcDbEntity
  8
BEM
100
AcDbText
 10
564.625756141465
 20
282.32770560142
 30
0.0
 40
2.5
  1

 41
0.8
  7
GREEKS
100
AcDbText
  0
TEXT
  5
74E
330
1E
100
AcDbEntity
  8
BEM
100
AcDbText
 10
564.625756141465
 20
277.6339370473678
 30
0.0
 40
2.5
  1

 41
0.8
  7
GREEKS
100
AcDbText
  0
TEXT
  5
74F
330
1E
100
AcDbEntity
  8
BEM
100
AcDbText
 10
564.625756141465
 20
272.3960932287043
 30
0.0
 40
2.5
  1

 41
0.8
  7
GREEKS
100
AcDbText
  0
TEXT
  5
751
330
1E
100
AcDbEntity
  8
BEM
100
AcDbText
 10
551.8692407844793
 20
293.482493374832
 30
0.0
 40
2.0
  1

 41
0.8
  7
GREEKS
 72
     1
 11
551.8692407844793
 21
293.482493374832
 31
0.0
100
AcDbText
  0
TEXT
  5
752
330
1E
100
AcDbEntity
  8
TEXT
100
AcDbText
 10
861.9699595057731
 20
283.1602168114249
 30
0.0
 40
2.5
  1
  
  7
GREEKS
 72
     1
 11
864.231864267678
 21
283.1602168114249
 31
0.0
100
AcDbText
  0
TEXT
  5
753
330
1E
100
AcDbEntity
  8
BEM
100
AcDbText
 10
1106.089676818255
 20
418.719098841827
 30
0.0
 40
2.5
  1
 
 72
     4
 11
1107.220629199207
 21
418.719098841827
 31
0.0
100
AcDbText
  0
LINE
  5
76B
330
1E
100
AcDbEntity
  8
STEMPEL
100
AcDbLine
 10
227.1833652988354
 20
423.223997435876
 30
0.0
 11
213.5566111563774
 21
409.5972432934181
 31
0.0
  0
ARC
  5
76D
330
1E
100
AcDbEntity
  8
STEMPEL
100
AcDbCircle
 10
202.6652896719398
 20
404.5041974147099
 30
0.0
 40
7.599999999999999
100
AcDbArc
 50
315.0
 51
349.4115086697697
  0
ARC
  5
76E
330
1E
100
AcDbEntity
  8
STEMPEL
100
AcDbCircle
 10
222.3247352430909
 20
400.8291192067047
 30
0.0
 40
12.4
100
AcDbArc
 50
134.9999999999999
 51
169.4115086697696
  0
LINE
  5
76F
330
1E
100
AcDbEntity
  8
STEMPEL
100
AcDbLine
 10
240.7848340673479
 20
441.7752136726939
 30
0.0
 11
235.7672555085636
 21
436.7576351139098
 31
0.0
  0
ARC
  5
770
330
1E
100
AcDbEntity
  8
STEMPEL
100
AcDbCircle
 10
218.9809266370716
 20
431.4264360976399
 30
0.0
 40
11.6
100
AcDbArc
 50
315.0
 51
339.9533333189529
  0
ARC
  5
771
330
1E
100
AcDbEntity
  8
STEMPEL
100
AcDbCircle
 10
253.7764337525826
 20
418.8457888736521
 30
0.0
 40
25.40009324312573
100
AcDbArc
 50
134.8435140456688
 51
160.2201231806556
  0
ARC
  5
772
330
1E
100
AcDbEntity
  8
STEMPEL
  6
Continuous
100
AcDbCircle
 10
258.4625035970117
 20
424.0975441430302
 30
0.0
 40
25.0
100
AcDbArc
 50
110.0000000000064
 51
134.9999999999999
  0
LINE
  5
773
330
1E
100
AcDbEntity
  8
STEMPEL
  6
Continuous
100
AcDbLine
 10
252.0264145808091
 20
448.3594436279429
 30
0.0
 11
249.9120000138698
 21
447.5898596626779
 31
0.0
  0
LINE
  5
775
102
{ACAD_REACTORS
330
AEE
102
}
330
1E
100
AcDbEntity
  8
STEMPEL
100
AcDbLine
 10
270.9718047345601
 20
336.1976823520895
 30
0.0
 11
266.9748772078118
 21
332.200754825341
 31
0.0
  0
ARC
  5
776
330
1E
100
AcDbEntity
  8
STEMPEL
100
AcDbCircle
 10
303.2680549545081
 20
347.1393077802034
 30
0.0
 40
11.6
100
AcDbArc
 50
110.04666668105
 51
134.9999999999999
  0
ARC
  5
778
330
1E
100
AcDbEntity
  8
STEMPEL
100
AcDbCircle
 10
272.670738063573
 20
350.4831163862227
 30
0.0
 40
12.4
100
AcDbArc
 50
280.5884913302303
 51
315.0
  0
ARC
  5
77A
330
1E
100
AcDbEntity
  8
STEMPEL
100
AcDbCircle
 10
276.345816271578
 20
330.8236708150715
 30
0.0
 40
7.599999999999999
100
AcDbArc
 50
100.5884913302303
 51
134.9999999999999
  0
LINE
  5
77C
330
1E
100
AcDbEntity
  8
STEMPEL
100
AcDbLine
 10
295.0656162927439
 20
355.3417464419675
 30
0.0
 11
281.4388621502859
 21
341.7149922995096
 31
0.0
  0
ARC
  5
77E
330
1E
100
AcDbEntity
  8
STEMPEL
  6
Continuous
100
AcDbCircle
 10
295.9391629998986
 20
386.6208847401433
 30
0.0
 40
25.0
100
AcDbArc
 50
315.0
 51
339.9999999999906
  0
ARC
  5
780
330
1E
100
AcDbEntity
  8
STEMPEL
100
AcDbCircle
 10
290.6874077305202
 20
381.9348148957143
 30
0.0
 40
25.40009324312573
100
AcDbArc
 50
289.7798768193487
 51
315.1564859543311
  0
LINE
  5
782
330
1E
100
AcDbEntity
  8
STEMPEL
100
AcDbLine
 10
313.6168325295622
 20
368.9432152104797
 30
0.0
 11
308.599253970778
 21
363.9256366516955
 31
0.0
  0
LINE
  5
787
330
1E
100
AcDbEntity
  8
STEMPEL
  6
Continuous
100
AcDbLine
 10
320.2010624848109
 20
380.184795723941
 30
0.0
 11
319.4314785195461
 21
378.0703811570015
 31
0.0
  0
POINT
  5
788
330
1E
100
AcDbEntity
  8
Defpoints
  6
ByBlock
 62
     0
100
AcDbPoint
 10
318.6406504673912
 20
381.7452077413607
 30
0.0
  0
LINE
  5
78E
330
1E
100
AcDbEntity
  8
HILF
  6
Continuous
100
AcDbLine
 10
230.2049693350095
 20
423.7465359996657
 30
0.0
 11
295.5881548565334
 21
358.3633504781413
 31
0.0
  0
LINE
  5
78F
330
1E
100
AcDbEntity
  8
HILF
  6
Continuous
100
AcDbLine
 10
276.9584435927377
 20
341.0081186925465
 30
0.0
 11
212.8497375494145
 21
405.1168247358697
 31
0.0
  0
LINE
  5
790
330
1E
100
AcDbEntity
  8
HILF
  6
Continuous
100
AcDbLine
 10
210.854413398018
 20
399.4943817894615
 30
0.0
 11
271.3360006463295
 21
339.0127945411499
 31
0.0
  0
LINE
  5
889
330
1E
100
AcDbEntity
  8
STEMPEL
100
AcDbLine
 10
266.537433890182
 20
250.6343175711508
 30
0.0
 11
178.4123205254411
 21
250.6343175711506
 31
0.0
  0
LINE
  5
88A
330
1E
100
AcDbEntity
  8
HILF
100
AcDbLine
 10
264.9672375327249
 20
255.6343175711506
 30
0.0
 11
179.9825168828983
 21
255.6343175711507
 31
0.0
  0
LINE
  5
88B
330
1E
100
AcDbEntity
  8
STEMPEL
100
AcDbLine
 10
177.9748772078115
 20
255.6343175711508
 30
0.0
 11
178.4123205254411
 21
250.6343175711506
 31
0.0
  0
LINE
  5
88C
330
1E
100
AcDbEntity
  8
STEMPEL
100
AcDbLine
 10
266.9748772078116
 20
255.6343175711507
 30
0.0
 11
266.537433890182
 21
250.6343175711508
 31
0.0
  0
DIMENSION
  5
943
330
1E
100
AcDbEntity
  8
BEM
100
AcDbDimension
  2
*D1
 10
266.9748772078116
 20
231.2621201825217
 30
0.0
 11
222.4748772078116
 21
237.7621201825217
 31
0.0
 70
    32
  1
%%c<>
 71
     5
 42
89.00000000000005
  3
Standard
100
AcDbAlignedDimension
 13
177.9748772078115
 23
255.6343175711508
 33
0.0
 14
266.9748772078116
 24
255.6343175711507
 34
0.0
100
AcDbRotatedDimension
1001
ACAD
1000
DSTYLE
1002
{
1070
    40
1040
2.0
1070
    41
1040
3.5
1070
    42
1040
1.0
1070
    43
1040
7.0
1070
    44
1040
1.0
1070
    73
1070
     0
1070
    74
1070
     0
1070
    77
1070
     1
1070
    78
1070
     8
1070
    79
1070
     2
1070
   140
1040
3.5
1070
   141
1040
1.5
1070
   146
1040
0.5
1070
   147
1040
1.5
1070
   172
1070
     1
1070
   178
1070
     1
1070
   179
1070
     2
1070
   271
1070
     2
1070
   272
1070
     2
1070
   284
1070
     8
1070
   285
1070
     8
1070
   286
1070
     8
1002
}
  0
LINE
  5
9EE
330
1E
100
AcDbEntity
  8
STEMPEL
100
AcDbLine
 10
266.9748772078118
 20
332.200754825341
 30
0.0
 11
177.9748772078121
 21
369.0657618765466
 31
0.0
  0
DIMENSION
  5
9EF
330
1E
100
AcDbEntity
  8
BEM
100
AcDbDimension
  2
*D2
 10
161.3336604420821
 20
350.6332583509439
 30
0.0
 11
154.833660442082
 21
300.6337879610474
 31
0.0
 70
    32
 71
     5
 42
99.99894077979327
  3
Standard
100
AcDbAlignedDimension
 13
178.4123205254411
 23
250.6343175711506
 33
0.0
 14
222.4748772078118
 24
350.6332583509439
 34
0.0
 50
90.0
100
AcDbRotatedDimension
1001
ACAD
1000
DSTYLE
1002
{
1070
    40
1040
2.0
1070
    41
1040
3.5
1070
    42
1040
1.0
1070
    43
1040
7.0
1070
    44
1040
1.0
1070
    73
1070
     0
1070
    74
1070
     0
1070
    77
1070
     1
1070
    78
1070
     8
1070
    79
1070
     2
1070
   140
1040
3.5
1070
   141
1040
1.5
1070
   146
1040
0.5
1070
   147
1040
1.5
1070
   172
1070
     1
1070
   178
1070
     1
1070
   179
1070
     2
1070
   271
1070
     2
1070
   272
1070
     2
1070
   284
1070
     8
1070
   285
1070
     8
1070
   286
1070
     8
1002
}
  0
DIMENSION
  5
9FC
330
1E
100
AcDbEntity
  8
BEM
100
AcDbDimension
  2
*D3
 10
170.3736967524609
 20
402.734438806295
 30
0.0
 11
197.5969333372476
 21
439.1500635465065
 31
0.0
 70
    32
 71
     5
 42
89.99894077979314
 51
315.0000000000002
  3
Standard
100
AcDbAlignedDimension
 13
252.0264145808093
 23
448.3594436279429
 33
0.0
 14
222.4748772078117
 24
350.6332583509438
 34
0.0
 50
44.99999999999971
100
AcDbRotatedDimension
1001
ACAD
1000
DSTYLE
1002
{
1070
    40
1040
2.0
1070
    41
1040
3.5
1070
    42
1040
1.0
1070
    43
1040
7.0
1070
    44
1040
1.0
1070
    73
1070
     0
1070
    74
1070
     0
1070
    77
1070
     1
1070
    78
1070
     8
1070
    79
1070
     2
1070
   140
1040
3.5
1070
   141
1040
1.5
1070
   146
1040
0.5
1070
   147
1040
1.5
1070
   172
1070
     1
1070
   178
1070
     1
1070
   179
1070
     2
1070
   271
1070
     2
1070
   272
1070
     2
1070
   284
1070
     8
1070
   285
1070
     8
1070
   286
1070
     8
1002
}
  0
DIMENSION
  5
A9F
330
1E
100
AcDbEntity
  8
BEM
100
AcDbDimension
  2
*D4
 10
222.4748772078116
 20
245.6343175711507
 30
0.0
 11
240.3901907892346
 21
390.6559711662567
 31
0.0
 70
   162
 71
     5
 42
0.785398163397451
  3
Standard
100
AcDb2LineAngularDimension
 13
289.649272438743
 23
417.8076535818745
 33
0.0
 14
222.4748772078117
 24
350.6332583509438
 34
0.0
 15
222.4748772078117
 25
350.6332583509438
 35
0.0
 16
233.8239551099257
 26
392.9885937006901
 36
0.0
1001
ACAD
1000
DSTYLE
1002
{
1070
    40
1040
2.0
1070
    41
1040
3.5
1070
    42
1040
1.0
1070
    43
1040
7.0
1070
    44
1040
1.0
1070
    73
1070
     0
1070
    74
1070
     0
1070
    77
1070
     1
1070
    78
1070
     8
1070
    79
1070
     2
1070
   140
1040
3.5
1070
   141
1040
1.5
1070
   146
1040
0.5
1070
   147
1040
1.5
1070
   172
1070
     1
1070
   178
1070
     1
1070
   179
1070
     2
1070
   271
1070
     2
1070
   272
1070
     2
1070
   284
1070
     8
1070
   285
1070
     8
1070
   286
1070
     8
1002
}
  0
ARC
  5
ACF
102
{ACAD_REACTORS
330
AEE
102
}
330
1E
100
AcDbEntity
  8
SCHRAFF
100
AcDbCircle
 10
265.4955678455701
 20
332.8135048261271
 30
0.0
 40
3.633500836784642
100
AcDbArc
 50
294.024710345151
 51
20.97528965484835
  0
ARC
  5
AD1
102
{ACAD_REACTORS
330
AEE
102
}
330
1E
100
AcDbEntity
  8
SCHRAFF
100
AcDbCircle
 10
178.8775401658787
 20
368.6918666370636
 30
0.0
 40
2.500684322659585
100
AcDbArc
 50
66.15955635738217
 51
248.840443642607
  0
ARC
  5
AD2
330
1E
100
AcDbEntity
  8
SCHRAFF
100
AcDbCircle
 10
177.9748772078121
 20
369.0657618765466
 30
0.0
 40
5.0
100
AcDbArc
 50
307.5000000000014
 51
7.499999999999511
  0
ARC
  5
AD3
330
1E
100
AcDbEntity
  8
SCHRAFF
100
AcDbCircle
 10
182.5942748703685
 20
367.1523447147212
 30
0.0
 40
5.0
100
AcDbArc
 50
307.5000000000014
 51
7.499999999999511
  0
ARC
  5
AD4
330
1E
100
AcDbEntity
  8
SCHRAFF
100
AcDbCircle
 10
187.2136725329249
 20
365.2389275528957
 30
0.0
 40
5.0
100
AcDbArc
 50
307.5000000000014
 51
7.499999999999511
  0
ARC
  5
AD5
330
1E
100
AcDbEntity
  8
SCHRAFF
100
AcDbCircle
 10
191.8330701954814
 20
363.3255103910702
 30
0.0
 40
5.0
100
AcDbArc
 50
307.5000000000014
 51
7.499999999999511
  0
ARC
  5
AD6
330
1E
100
AcDbEntity
  8
SCHRAFF
100
AcDbCircle
 10
196.4524678580378
 20
361.4120932292447
 30
0.0
 40
5.0
100
AcDbArc
 50
307.5000000000014
 51
7.499999999999511
  0
ARC
  5
AD7
330
1E
100
AcDbEntity
  8
SCHRAFF
100
AcDbCircle
 10
201.0718655205942
 20
359.4986760674193
 30
0.0
 40
5.0
100
AcDbArc
 50
307.5000000000014
 51
7.499999999999511
  0
ARC
  5
AD8
330
1E
100
AcDbEntity
  8
SCHRAFF
100
AcDbCircle
 10
205.6912631831507
 20
357.5852589055938
 30
0.0
 40
5.0
100
AcDbArc
 50
307.5000000000014
 51
7.499999999999511
  0
ARC
  5
AD9
330
1E
100
AcDbEntity
  8
SCHRAFF
100
AcDbCircle
 10
210.3106608457071
 20
355.6718417437684
 30
0.0
 40
5.0
100
AcDbArc
 50
307.5000000000014
 51
7.499999999999511
  0
ARC
  5
ADA
330
1E
100
AcDbEntity
  8
SCHRAFF
100
AcDbCircle
 10
214.9300585082635
 20
353.7584245819429
 30
0.0
 40
5.0
100
AcDbArc
 50
307.5000000000014
 51
7.499999999999511
  0
ARC
  5
ADB
330
1E
100
AcDbEntity
  8
SCHRAFF
100
AcDbCircle
 10
219.5494561708199
 20
351.8450074201175
 30
0.0
 40
5.0
100
AcDbArc
 50
307.5000000000014
 51
7.499999999999511
  0
ARC
  5
ADC
330
1E
100
AcDbEntity
  8
SCHRAFF
100
AcDbCircle
 10
224.1688538333764
 20
349.9315902582921
 30
0.0
 40
5.0
100
AcDbArc
 50
307.5000000000014
 51
7.499999999999511
  0
ARC
  5
ADD
330
1E
100
AcDbEntity
  8
SCHRAFF
100
AcDbCircle
 10
228.7882514959328
 20
348.0181730964666
 30
0.0
 40
5.0
100
AcDbArc
 50
307.5000000000014
 51
7.499999999999511
  0
ARC
  5
ADE
330
1E
100
AcDbEntity
  8
SCHRAFF
100
AcDbCircle
 10
233.4076491584892
 20
346.1047559346411
 30
0.0
 40
5.0
100
AcDbArc
 50
307.5000000000014
 51
7.499999999999511
  0
ARC
  5
ADF
330
1E
100
AcDbEntity
  8
SCHRAFF
100
AcDbCircle
 10
238.0270468210456
 20
344.1913387728157
 30
0.0
 40
5.0
100
AcDbArc
 50
307.5000000000014
 51
7.499999999999511
  0
ARC
  5
AE0
330
1E
100
AcDbEntity
  8
SCHRAFF
100
AcDbCircle
 10
242.6464444836021
 20
342.2779216109902
 30
0.0
 40
5.0
100
AcDbArc
 50
307.5000000000014
 51
7.499999999999511
  0
ARC
  5
AE1
330
1E
100
AcDbEntity
  8
SCHRAFF
100
AcDbCircle
 10
247.2658421461585
 20
340.3645044491647
 30
0.0
 40
5.0
100
AcDbArc
 50
307.5000000000014
 51
7.499999999999511
  0
ARC
  5
AE2
330
1E
100
AcDbEntity
  8
SCHRAFF
100
AcDbCircle
 10
251.8852398087149
 20
338.4510872873392
 30
0.0
 40
5.0
100
AcDbArc
 50
307.5000000000014
 51
7.499999999999511
  0
ARC
  5
AE3
330
1E
100
AcDbEntity
  8
SCHRAFF
100
AcDbCircle
 10
256.5046374712713
 20
336.5376701255138
 30
0.0
 40
5.0
100
AcDbArc
 50
307.5000000000014
 51
7.499999999999511
  0
ARC
  5
AE4
330
1E
100
AcDbEntity
  8
SCHRAFF
100
AcDbCircle
 10
261.1240351338278
 20
334.6242529636883
 30
0.0
 40
5.0
100
AcDbArc
 50
307.5000000000014
 51
7.499999999999511
  0
HATCH
  5
AEE
330
1E
100
AcDbEntity
  8
SCHRAFF
100
AcDbHatch
 10
0.0
 20
0.0
 30
0.0
210
0.0
220
0.0
230
1.0
  2
_USER
 70
     0
 71
     1
 91
        2
 92
        7
 72
     1
 73
     1
 93
        3
 10
268.8882943696371
 20
334.1141719871665
 42
0.0
 10
266.9748772078118
 20
332.2007548253411
 42
0.0
 10
266.9748772078118
 20
329.4947743246102
 42
0.3987096061368087
 97
        3
330
775
330
51B
330
ACF
 92
        7
 72
     1
 73
     1
 93
        3
 10
179.8882943696375
 20
370.9791790383721
 42
1.023673153315065
 10
177.9748772078116
 20
366.3597813758159
 42
0.0
 10
177.9748772078116
 20
369.0657618765461
 42
0.0
 97
        3
330
AD1
330
51A
330
70D
 75
     0
 76
     0
 52
0.0
 41
0.1
 77
     0
 78
     1
 53
0.0
 43
0.0
 44
0.0
 45
0.0
 46
0.1
 79
     0
 47
0.161244021196417
 98
        2
 10
267.8255787225871
 20
330.9153482279455
 10
177.462786337473
 20
369.6139132695985
  0
ARC
  5
B27
330
1E
100
AcDbEntity
  8
MITTEL
100
AcDbCircle
 10
282.4748772078116
 20
325.7804446085579
 30
0.0
 40
60.0
100
AcDbArc
 50
134.9999999999997
 51
179.9999999999999
  0
ENDSEC
  0
SECTION
  2
OBJECTS
  0
DICTIONARY
  5
C
330
0
100
AcDbDictionary
281
     1
  3
ACAD_COLOR
350
DF
  3
ACAD_GROUP
350
D
  3
ACAD_LAYOUT
350
19
  3
ACAD_MATERIAL
350
DE
  3
ACAD_MLINESTYLE
350
16
  3
ACAD_PLOTSETTINGS
350
18
  3
ACAD_PLOTSTYLENAME
350
E
  3
AcDbVariableDictionary
350
EA
  0
DICTIONARY
  5
A0
330
1E
100
AcDbDictionary
280
     1
281
     1
  3
ACAD_LAYOUTSELFREF
360
D4
  0
DICTIONARY
  5
A2
330
1A
100
AcDbDictionary
280
     1
281
     1
  3
ACAD_LAYOUTSELFREF
360
D3
  0
DICTIONARY
  5
DF
102
{ACAD_REACTORS
330
C
102
}
330
C
100
AcDbDictionary
281
     1
  0
DICTIONARY
  5
D
102
{ACAD_REACTORS
330
C
102
}
330
C
100
AcDbDictionary
281
     1
  0
DICTIONARY
  5
19
102
{ACAD_REACTORS
330
C
102
}
330
C
100
AcDbDictionary
281
     1
  3
Layout1
350
1D
  3
Model
350
21
  0
DICTIONARY
  5
DE
102
{ACAD_REACTORS
330
C
102
}
330
C
100
AcDbDictionary
281
     1
  0
DICTIONARY
  5
16
102
{ACAD_REACTORS
330
C
102
}
330
C
100
AcDbDictionary
281
     1
  3
Standard
350
17
  0
DICTIONARY
  5
18
102
{ACAD_REACTORS
330
C
102
}
330
C
100
AcDbDictionary
281
     1
  0
ACDBDICTIONARYWDFLT
  5
E
102
{ACAD_REACTORS
330
C
102
}
330
C
100
AcDbDictionary
281
     1
  3
Normal
350
F
100
AcDbDictionaryWithDefault
340
F
  0
DICTIONARY
  5
EA
102
{ACAD_REACTORS
330
C
102
}
330
C
100
AcDbDictionary
281
     1
  3
DIMASSOC
350
EB
  3
PROJECTNAME
350
EC
  0
XRECORD
  5
D4
102
{ACAD_REACTORS
330
A0
102
}
330
A0
100
AcDbXrecord
280
     1
340
1E
  0
XRECORD
  5
D3
102
{ACAD_REACTORS
330
A2
102
}
330
A2
100
AcDbXrecord
280
     1
340
1A
  0
LAYOUT
  5
1D
102
{ACAD_REACTORS
330
19
102
}
330
19
100
AcDbPlotSettings
  1

  2
\\NT_WORK01\HP LaserJet 5000 PCL 6
  4

  6

 40
0.0
 41
0.0
 42
0.0
 43
0.0
 44
0.0
 45
0.0
 46
0.0
 47
0.0
 48
0.0
 49
0.0
140
0.0
141
0.0
142
1.0
143
1.0
 70
   688
 72
     0
 73
     0
 74
     5
  7

 75
    16
147
1.0
 76
     0
 77
     2
 78
   300
148
0.0
149
0.0
100
AcDbLayout
  1
Layout1
 70
     0
 71
     1
 10
0.0
 20
0.0
 11
12.0
 21
9.0
 12
0.0
 22
0.0
 32
0.0
 14
1.000000000000000E+20
 24
1.000000000000000E+20
 34
1.000000000000000E+20
 15
-1.000000000000000E+20
 25
-1.000000000000000E+20
 35
-1.000000000000000E+20
146
0.0
 13
0.0
 23
0.0
 33
0.0
 16
1.0
 26
0.0
 36
0.0
 17
0.0
 27
1.0
 37
0.0
 76
     0
330
1A
  0
LAYOUT
  5
21
102
{ACAD_REACTORS
330
19
102
}
330
19
100
AcDbPlotSettings
  1

  2
none_device
  4
Letter_(8.50_x_11.00_Inches)
  6

 40
6.349999904632568
 41
6.349999904632568
 42
6.350006103515625
 43
6.350006103515625
 44
215.8999938964844
 45
279.3999938964844
 46
0.0
 47
0.0
 48
0.0
 49
0.0
140
0.0
141
0.0
142
1.0
143
1.0
 70
 11952
 72
     0
 73
     1
 74
     0
  7

 75
     0
147
1.0
 76
     0
 77
     2
 78
   300
148
2300.349244052759
149
90.51547295399315
100
AcDbLayout
  1
Model
 70
     1
 71
     0
 10
0.0
 20
0.0
 11
12.0
 21
9.0
 12
0.0
 22
0.0
 32
0.0
 14
0.0
 24
0.0
 34
0.0
 15
0.0
 25
0.0
 35
0.0
146
0.0
 13
0.0
 23
0.0
 33
0.0
 16
1.0
 26
0.0
 36
0.0
 17
0.0
 27
1.0
 37
0.0
 76
     0
330
1E
  0
MLINESTYLE
  5
17
102
{ACAD_REACTORS
330
16
102
}
330
16
100
AcDbMlineStyle
  2
STANDARD
 70
     0
  3

 62
   256
 51
90.0
 52
90.0
 71
     2
 49
0.5
 62
   256
  6
BYLAYER
 49
-0.5
 62
   256
  6
BYLAYER
  0
ACDBPLACEHOLDER
  5
F
102
{ACAD_REACTORS
330
E
102
}
330
E
  0
DICTIONARYVAR
  5
EB
102
{ACAD_REACTORS
330
EA
102
}
330
EA
100
DictionaryVariables
280
     0
  1
1
  0
DICTIONARYVAR
  5
EC
102
{ACAD_REACTORS
330
EA
102
}
330
EA
100
DictionaryVariables
280
     0
  1

  0
ENDSEC
  0
EOF
