  0
SECTION
  2
HEADER
  9
$ACADVER
  1
AC1018
  9
$ACADMAINTVER
 70
     2
  9
$DWGCODEPAGE
  3
ANSI_1252
  9
$INSBASE
 10
0.0
 20
0.0
 30
0.0
  9
$EXTMIN
 10
-0.0480524721101574
 20
-0.0679599248414888
 30
-0.0000000000000058
  9
$EXTMAX
 10
1050.048072030928
 20
1485.067987586599
 30
0.0000000000000104
  9
$LIMMIN
 10
0.0
 20
0.0
  9
$LIMMAX
 10
1050.0
 20
1485.0
  9
$ORTHOMODE
 70
     1
  9
$REGENMODE
 70
     1
  9
$FILLMODE
 70
     1
  9
$QTEXTMODE
 70
     0
  9
$MIRRTEXT
 70
     1
  9
$LTSCALE
 40
50.0
  9
$ATTMODE
 70
     1
  9
$TEXTSIZE
 40
2.5
  9
$TRACEWID
 40
0.5
  9
$TEXTSTYLE
  7
GREEKS
  9
$CLAYER
  8
BEM
  9
$CELTYPE
  6
ByLayer
  9
$CECOLOR
 62
   256
  9
$CELTSCALE
 40
1.0
  9
$DISPSILH
 70
     0
  9
$DIMSCALE
 40
5.0
  9
$DIMASZ
 40
3.5
  9
$DIMEXO
 40
1.0
  9
$DIMDLI
 40
7.0
  9
$DIMRND
 40
0.0
  9
$DIMDLE
 40
0.0
  9
$DIMEXE
 40
1.0
  9
$DIMTP
 40
3.0
  9
$DIMTM
 40
3.0
  9
$DIMTXT
 40
3.5
  9
$DIMCEN
 40
1.5
  9
$DIMTSZ
 40
0.0
  9
$DIMTOL
 70
     0
  9
$DIMLIM
 70
     0
  9
$DIMTIH
 70
     0
  9
$DIMTOH
 70
     0
  9
$DIMSE1
 70
     0
  9
$DIMSE2
 70
     0
  9
$DIMTAD
 70
     1
  9
$DIMZIN
 70
     8
  9
$DIMBLK
  1

  9
$DIMASO
 70
     1
  9
$DIMSHO
 70
     0
  9
$DIMPOST
  1

  9
$DIMAPOST
  1

  9
$DIMALT
 70
     0
  9
$DIMALTD
 70
     2
  9
$DIMALTF
 40
25.4
  9
$DIMLFAC
 40
1.0
  9
$DIMTOFL
 70
     1
  9
$DIMTVP
 40
0.0
  9
$DIMTIX
 70
     0
  9
$DIMSOXD
 70
     0
  9
$DIMSAH
 70
     0
  9
$DIMBLK1
  1

  9
$DIMBLK2
  1

  9
$DIMSTYLE
  2
Standard
  9
$DIMCLRD
 70
     0
  9
$DIMCLRE
 70
     0
  9
$DIMCLRT
 70
     1
  9
$DIMTFAC
 40
0.5
  9
$DIMGAP
 40
1.5
  9
$DIMJUST
 70
     0
  9
$DIMSD1
 70
     0
  9
$DIMSD2
 70
     0
  9
$DIMTOLJ
 70
     1
  9
$DIMTZIN
 70
     8
  9
$DIMALTZ
 70
     8
  9
$DIMALTTZ
 70
     8
  9
$DIMUPT
 70
     0
  9
$DIMDEC
 70
     2
  9
$DIMTDEC
 70
     2
  9
$DIMALTU
 70
     2
  9
$DIMALTTD
 70
     2
  9
$DIMTXSTY
  7
GREEKS
  9
$DIMAUNIT
 70
     0
  9
$DIMADEC
 70
     2
  9
$DIMALTRND
 40
0.0
  9
$DIMAZIN
 70
     2
  9
$DIMDSEP
 70
    46
  9
$DIMATFIT
 70
     3
  9
$DIMFRAC
 70
     0
  9
$DIMLDRBLK
  1

  9
$DIMLUNIT
 70
     2
  9
$DIMLWD
 70
    -2
  9
$DIMLWE
 70
    -2
  9
$DIMTMOVE
 70
     0
  9
$LUNITS
 70
     2
  9
$LUPREC
 70
     2
  9
$SKETCHINC
 40
1.0
  9
$FILLETRAD
 40
0.0
  9
$AUNITS
 70
     0
  9
$AUPREC
 70
     2
  9
$MENU
  1
ACAD
  9
$ELEVATION
 40
0.0
  9
$PELEVATION
 40
0.0
  9
$THICKNESS
 40
0.0
  9
$LIMCHECK
 70
     0
  9
$CHAMFERA
 40
0.0
  9
$CHAMFERB
 40
0.0
  9
$CHAMFERC
 40
0.0
  9
$CHAMFERD
 40
0.0
  9
$SKPOLY
 70
     0
  9
$TDCREATE
 40
2452283.559437732
  9
$TDUCREATE
 40
2452283.476104399
  9
$TDUPDATE
 40
2455658.331875625
  9
$TDUUPDATE
 40
2455658.248542292
  9
$TDINDWG
 40
0.0060245833
  9
$TDUSRTIMER
 40
0.0060245833
  9
$USRTIMER
 70
     1
  9
$ANGBASE
 50
0.0
  9
$ANGDIR
 70
     0
  9
$PDMODE
 70
     0
  9
$PDSIZE
 40
0.0
  9
$PLINEWID
 40
0.0
  9
$SPLFRAME
 70
     0
  9
$SPLINETYPE
 70
     6
  9
$SPLINESEGS
 70
     8
  9
$HANDSEED
  5
14C8C
  9
$SURFTAB1
 70
     6
  9
$SURFTAB2
 70
     6
  9
$SURFTYPE
 70
     6
  9
$SURFU
 70
     6
  9
$SURFV
 70
     6
  9
$UCSBASE
  2

  9
$UCSNAME
  2

  9
$UCSORG
 10
0.0
 20
0.0
 30
0.0
  9
$UCSXDIR
 10
1.0
 20
0.0
 30
0.0
  9
$UCSYDIR
 10
0.0
 20
1.0
 30
0.0
  9
$UCSORTHOREF
  2

  9
$UCSORTHOVIEW
 70
     0
  9
$UCSORGTOP
 10
0.0
 20
0.0
 30
0.0
  9
$UCSORGBOTTOM
 10
0.0
 20
0.0
 30
0.0
  9
$UCSORGLEFT
 10
0.0
 20
0.0
 30
0.0
  9
$UCSORGRIGHT
 10
0.0
 20
0.0
 30
0.0
  9
$UCSORGFRONT
 10
0.0
 20
0.0
 30
0.0
  9
$UCSORGBACK
 10
0.0
 20
0.0
 30
0.0
  9
$PUCSBASE
  2

  9
$PUCSNAME
  2

  9
$PUCSORG
 10
0.0
 20
0.0
 30
0.0
  9
$PUCSXDIR
 10
1.0
 20
0.0
 30
0.0
  9
$PUCSYDIR
 10
0.0
 20
1.0
 30
0.0
  9
$PUCSORTHOREF
  2

  9
$PUCSORTHOVIEW
 70
     0
  9
$PUCSORGTOP
 10
0.0
 20
0.0
 30
0.0
  9
$PUCSORGBOTTOM
 10
0.0
 20
0.0
 30
0.0
  9
$PUCSORGLEFT
 10
0.0
 20
0.0
 30
0.0
  9
$PUCSORGRIGHT
 10
0.0
 20
0.0
 30
0.0
  9
$PUCSORGFRONT
 10
0.0
 20
0.0
 30
0.0
  9
$PUCSORGBACK
 10
0.0
 20
0.0
 30
0.0
  9
$USERI1
 70
     0
  9
$USERI2
 70
     0
  9
$USERI3
 70
     0
  9
$USERI4
 70
     0
  9
$USERI5
 70
     0
  9
$USERR1
 40
0.0
  9
$USERR2
 40
0.0
  9
$USERR3
 40
0.0
  9
$USERR4
 40
0.0
  9
$USERR5
 40
0.0
  9
$WORLDVIEW
 70
     1
  9
$SHADEDGE
 70
     3
  9
$SHADEDIF
 70
    70
  9
$TILEMODE
 70
     1
  9
$MAXACTVP
 70
    16
  9
$PINSBASE
 10
5.612851412409735
 20
50.00000000000001
 30
-2.58105543498411
  9
$PLIMCHECK
 70
     0
  9
$PEXTMIN
 10
1.000000000000000E+20
 20
1.000000000000000E+20
 30
1.000000000000000E+20
  9
$PEXTMAX
 10
-1.000000000000000E+20
 20
-1.000000000000000E+20
 30
-1.000000000000000E+20
  9
$PLIMMIN
 10
0.0
 20
0.0
  9
$PLIMMAX
 10
12.0
 20
9.0
  9
$UNITMODE
 70
     0
  9
$VISRETAIN
 70
     0
  9
$PLINEGEN
 70
     0
  9
$PSLTSCALE
 70
     0
  9
$TREEDEPTH
 70
  3020
  9
$CMLSTYLE
  2
Standard
  9
$CMLJUST
 70
     0
  9
$CMLSCALE
 40
1.0
  9
$PROXYGRAPHICS
 70
     1
  9
$MEASUREMENT
 70
     0
  9
$CELWEIGHT
370
    -1
  9
$ENDCAPS
280
     0
  9
$JOINSTYLE
280
     0
  9
$LWDISPLAY
290
     0
  9
$INSUNITS
 70
     0
  9
$HYPERLINKBASE
  1

  9
$STYLESHEET
  1
monochrome 1.ctb
  9
$XEDIT
290
     1
  9
$CEPSNTYPE
380
     0
  9
$PSTYLEMODE
290
     1
  9
$FINGERPRINTGUID
  2
{6C16A87B-E6B3-4CEF-84D3-0BB7C43799BF}
  9
$VERSIONGUID
  2
{3D737817-4E30-4BDD-8F2D-F723B302F758}
  9
$EXTNAMES
290
     1
  9
$PSVPSCALE
 40
0.0
  9
$OLESTARTUP
290
     0
  9
$SORTENTS
280
   127
  9
$INDEXCTL
280
     0
  9
$HIDETEXT
280
     1
  9
$XCLIPFRAME
290
     0
  9
$HALOGAP
280
     0
  9
$OBSCOLOR
 70
   257
  9
$OBSLTYPE
280
     0
  9
$INTERSECTIONDISPLAY
280
     0
  9
$INTERSECTIONCOLOR
 70
   257
  9
$DIMASSOC
280
     2
  9
$PROJECTNAME
  1

  0
ENDSEC
  0
SECTION
  2
CLASSES
  0
CLASS
  1
ACDBDICTIONARYWDFLT
  2
AcDbDictionaryWithDefault
  3
ObjectDBX Classes
 90
        0
 91
        1
280
     0
281
     0
  0
CLASS
  1
DICTIONARYVAR
  2
AcDbDictionaryVar
  3
ObjectDBX Classes
 90
        0
 91
        3
280
     0
281
     0
  0
ENDSEC
  0
SECTION
  2
TABLES
  0
TABLE
  2
VPORT
  5
14B9D
330
0
100
AcDbSymbolTable
 70
     3
  0
VPORT
  5
14C8B
330
14B9D
100
AcDbSymbolTableRecord
100
AcDbViewportTableRecord
  2
*Active
 70
     0
 10
0.0
 20
0.0
 11
1.0
 21
1.0
 12
524.9999999999998
 22
742.4999999999999
 13
0.0
 23
0.0
 14
1.0
 24
1.0
 15
10.0
 25
10.0
 16
0.0
 26
0.0
 36
1.0
 17
0.0
 27
0.0
 37
0.0
 40
1485.0
 41
1.334231805929919
 42
50.0
 43
0.0
 44
0.0
 50
0.0
 51
0.0
 71
     0
 72
  1500
 73
     1
 74
     0
 75
     0
 76
     0
 77
     0
 78
     0
281
     0
 65
     1
110
0.0
120
0.0
130
0.0
111
1.0
121
0.0
131
0.0
112
0.0
122
1.0
132
0.0
 79
     0
146
0.0
  0
ENDTAB
  0
TABLE
  2
LTYPE
  5
14B9A
330
0
100
AcDbSymbolTable
 70
     2
  0
LTYPE
  5
14BA8
330
14B9A
100
AcDbSymbolTableRecord
100
AcDbLinetypeTableRecord
  2
ByBlock
 70
     0
  3

 72
    65
 73
     0
 40
0.0
  0
LTYPE
  5
14BA9
330
14B9A
100
AcDbSymbolTableRecord
100
AcDbLinetypeTableRecord
  2
ByLayer
 70
     0
  3

 72
    65
 73
     0
 40
0.0
  0
LTYPE
  5
14BAA
330
14B9A
100
AcDbSymbolTableRecord
100
AcDbLinetypeTableRecord
  2
Continuous
 70
     0
  3
Solid line
 72
    65
 73
     0
 40
0.0
  0
LTYPE
  5
14BC7
330
14B9A
100
AcDbSymbolTableRecord
100
AcDbLinetypeTableRecord
  2
STRICHPUNKT
 70
     0
  3
__ . __ . __ . __ . __ . __ . __ . __ . __ . __
 72
    65
 73
     4
 40
1.0
 49
0.5
 74
     0
 49
-0.25
 74
     0
 49
0.0
 74
     0
 49
-0.25
 74
     0
  0
ENDTAB
  0
TABLE
  2
LAYER
  5
14B97
330
0
100
AcDbSymbolTable
 70
     9
  0
LAYER
  5
14BA5
330
14B97
100
AcDbSymbolTableRecord
100
AcDbLayerTableRecord
  2
0
 70
     0
 62
     7
  6
Continuous
370
    -3
390
14BA4
  0
LAYER
  5
14BCA
330
14B97
100
AcDbSymbolTableRecord
100
AcDbLayerTableRecord
  2
VOLL
 70
     0
 62
     1
  6
Continuous
370
    -3
390
14BA4
  0
LAYER
  5
14BCB
330
14B97
100
AcDbSymbolTableRecord
100
AcDbLayerTableRecord
  2
HILF
 70
     0
 62
     2
  6
Continuous
370
    -3
390
14BA4
  0
LAYER
  5
14BCC
330
14B97
100
AcDbSymbolTableRecord
100
AcDbLayerTableRecord
  2
MITTEL
 70
     0
 62
     2
  6
STRICHPUNKT
370
    -3
390
14BA4
  0
LAYER
  5
14BCD
330
14B97
100
AcDbSymbolTableRecord
100
AcDbLayerTableRecord
  2
BEM
 70
     0
 62
     7
  6
Continuous
370
    -3
390
14BA4
  0
LAYER
  5
14BCE
330
14B97
100
AcDbSymbolTableRecord
100
AcDbLayerTableRecord
  2
STEMPEL
 70
     0
 62
     3
  6
Continuous
370
    -3
390
14BA4
  0
LAYER
  5
14BCF
330
14B97
100
AcDbSymbolTableRecord
100
AcDbLayerTableRecord
  2
TEXT
 70
     0
 62
     7
  6
Continuous
370
    -3
390
14BA4
  0
LAYER
  5
14BD0
330
14B97
100
AcDbSymbolTableRecord
100
AcDbLayerTableRecord
  2
DEFPOINTS
 70
     0
 62
     7
  6
Continuous
290
     0
370
    -3
390
14BA4
  0
LAYER
  5
14BD1
330
14B97
100
AcDbSymbolTableRecord
100
AcDbLayerTableRecord
  2
SCHRAFF
 70
     0
 62
     7
  6
Continuous
370
    -3
390
14BA4
  0
ENDTAB
  0
TABLE
  2
STYLE
  5
14B98
330
0
100
AcDbSymbolTable
 70
     2
  0
STYLE
  5
14BA6
330
14B98
100
AcDbSymbolTableRecord
100
AcDbTextStyleTableRecord
  2
STANDARD
 70
     0
 40
0.0
 41
1.0
 50
0.0
 71
     0
 42
3.5
  3
txt
  4

  0
STYLE
  5
14BC6
330
14B98
100
AcDbSymbolTableRecord
100
AcDbTextStyleTableRecord
  2
GREEKS
 70
     0
 40
0.0
 41
0.8
 50
0.0
 71
     0
 42
2.5
  3
SIMPLEX.shx
  4

  0
ENDTAB
  0
TABLE
  2
VIEW
  5
14B9B
330
0
100
AcDbSymbolTable
 70
     0
  0
ENDTAB
  0
TABLE
  2
UCS
  5
14B9C
330
0
100
AcDbSymbolTable
 70
     0
  0
ENDTAB
  0
TABLE
  2
APPID
  5
14B9E
330
0
100
AcDbSymbolTable
 70
     1
  0
APPID
  5
14BA7
330
14B9E
100
AcDbSymbolTableRecord
100
AcDbRegAppTableRecord
  2
ACAD
 70
     0
  0
ENDTAB
  0
TABLE
  2
DIMSTYLE
  5
14B9F
330
0
100
AcDbSymbolTable
 70
     1
100
AcDbDimStyleTable
 71
     1
340
14BD8
  0
DIMSTYLE
105
14BD8
102
{ACAD_REACTORS
330
14B16
330
14B17
330
14B1A
102
}
330
14B9F
100
AcDbSymbolTableRecord
100
AcDbDimStyleTableRecord
  2
Standard
 70
     0
340
14BA6
  0
ENDTAB
  0
TABLE
  2
BLOCK_RECORD
  5
14B96
330
0
100
AcDbSymbolTable
 70
    13
  0
BLOCK_RECORD
  5
14BB5
330
14B96
100
AcDbSymbolTableRecord
100
AcDbBlockTableRecord
  2
*Model_Space
340
14BB8
  0
BLOCK_RECORD
  5
14BB1
330
14B96
100
AcDbSymbolTableRecord
100
AcDbBlockTableRecord
  2
*Paper_Space
340
14BB4
  0
BLOCK_RECORD
  5
14BB9
330
14B96
100
AcDbSymbolTableRecord
100
AcDbBlockTableRecord
  2
LOGO
340
0
102
{BLKREFS
331
14B1D
102
}
  0
BLOCK_RECORD
  5
14BBB
330
14B96
100
AcDbSymbolTableRecord
100
AcDbBlockTableRecord
  2
*D1
340
0
  0
BLOCK_RECORD
  5
14BBC
330
14B96
100
AcDbSymbolTableRecord
100
AcDbBlockTableRecord
  2
*D2
340
0
  0
BLOCK_RECORD
  5
14BBD
330
14B96
100
AcDbSymbolTableRecord
100
AcDbBlockTableRecord
  2
*D3
340
0
  0
BLOCK_RECORD
  5
14BBE
330
14B96
100
AcDbSymbolTableRecord
100
AcDbBlockTableRecord
  2
*D4
340
0
  0
BLOCK_RECORD
  5
14BBF
330
14B96
100
AcDbSymbolTableRecord
100
AcDbBlockTableRecord
  2
*D5
340
0
  0
BLOCK_RECORD
  5
14BC2
330
14B96
100
AcDbSymbolTableRecord
100
AcDbBlockTableRecord
  2
*X6
340
0
102
{BLKREFS
331
14B4F
102
}
  0
BLOCK_RECORD
  5
14BC3
330
14B96
100
AcDbSymbolTableRecord
100
AcDbBlockTableRecord
  2
*X7
340
0
102
{BLKREFS
331
14B93
102
}
  0
BLOCK_RECORD
  5
14BC4
330
14B96
100
AcDbSymbolTableRecord
100
AcDbBlockTableRecord
  2
*X8
340
0
  0
BLOCK_RECORD
  5
14BC5
330
14B96
100
AcDbSymbolTableRecord
100
AcDbBlockTableRecord
  2
*X9
340
0
  0
BLOCK_RECORD
  5
14BFE
330
14B96
100
AcDbSymbolTableRecord
100
AcDbBlockTableRecord
  2
*D10
340
0
  0
BLOCK_RECORD
  5
14C0A
330
14B96
100
AcDbSymbolTableRecord
100
AcDbBlockTableRecord
  2
*D11
340
0
  0
BLOCK_RECORD
  5
14C4C
330
14B96
100
AcDbSymbolTableRecord
100
AcDbBlockTableRecord
  2
*D12
340
0
  0
ENDTAB
  0
ENDSEC
  0
SECTION
  2
BLOCKS
  0
BLOCK
  5
14BD5
330
14BB5
100
AcDbEntity
  8
0
100
AcDbBlockBegin
  2
*Model_Space
 70
     0
 10
0.0
 20
0.0
 30
0.0
  3
*Model_Space
  1

  0
ENDBLK
  5
14BD6
330
14BB5
100
AcDbEntity
  8
0
100
AcDbBlockEnd
  0
BLOCK
  5
14BD3
330
14BB1
100
AcDbEntity
 67
     1
  8
0
100
AcDbBlockBegin
  2
*Paper_Space
 70
     0
 10
0.0
 20
0.0
 30
0.0
  3
*Paper_Space
  1

  0
ENDBLK
  5
14BD4
330
14BB1
100
AcDbEntity
 67
     1
  8
0
100
AcDbBlockEnd
  0
BLOCK
  5
44
330
14BB9
100
AcDbEntity
  8
0
100
AcDbBlockBegin
  2
LOGO
 70
     0
 10
0.0
 20
0.0
 30
0.0
  3
LOGO
  1

  0
ARC
  5
45
330
14BB9
100
AcDbEntity
  8
0
100
AcDbCircle
 10
11.59973089678112
 20
-9.271599258481501
 30
0.0
 40
4.5
100
AcDbArc
 50
270.0
 51
231.0575587310159
  0
LINE
  5
46
330
14BB9
100
AcDbEntity
  8
0
100
AcDbLine
 10
3.599730896781125
 20
-4.771599258481529
 30
0.0
 11
3.599730896781153
 21
-11.77159925848133
 31
0.0
  0
LINE
  5
47
330
14BB9
100
AcDbEntity
  8
0
100
AcDbLine
 10
2.599730896781125
 20
-4.771599258481529
 30
0.0
 11
2.599730896781153
 21
-11.77159925848133
 31
0.0
  0
CIRCLE
  5
48
330
14BB9
100
AcDbEntity
  8
0
100
AcDbCircle
 10
11.59973089678112
 20
-9.271599258481501
 30
0.0
 40
3.5
  0
ARC
  5
49
330
14BB9
100
AcDbEntity
  8
0
100
AcDbCircle
 10
31.59973089678115
 20
-9.271599258481472
 30
0.0
 40
4.5
100
AcDbArc
 50
270.0
 51
231.0575587310182
  0
LINE
  5
4A
330
14BB9
100
AcDbEntity
  8
0
100
AcDbLine
 10
17.59973089678112
 20
-4.771599258481472
 30
0.0
 11
17.59973089678115
 21
-13.77159925848147
 31
0.0
  0
ARC
  5
4B
330
14BB9
100
AcDbEntity
  8
0
100
AcDbCircle
 10
22.59973089678116
 20
-7.271599258481472
 30
0.0
 40
2.5
100
AcDbArc
 50
293.1161887722295
 51
90.0
  0
CIRCLE
  5
4C
330
14BB9
100
AcDbEntity
  8
0
100
AcDbCircle
 10
31.59973089678115
 20
-9.271599258481472
 30
0.0
 40
3.5
  0
ARC
  5
4D
330
14BB9
100
AcDbEntity
  8
0
100
AcDbCircle
 10
4.599730896781153
 20
-11.77159925848133
 30
0.0
 40
1.0
100
AcDbArc
 50
180.0
 51
270.0
  0
ARC
  5
4E
330
14BB9
100
AcDbEntity
  8
0
100
AcDbCircle
 10
4.599730896781153
 20
-11.77159925848133
 30
0.0
 40
2.0
100
AcDbArc
 50
179.9999999999992
 51
270.0
  0
LINE
  5
4F
330
14BB9
100
AcDbEntity
  8
0
100
AcDbLine
 10
11.59973089678115
 20
-13.77159925848144
 30
0.0
 11
4.599730896781153
 21
-13.77159925848147
 31
0.0
  0
LINE
  5
50
330
14BB9
100
AcDbEntity
  8
0
100
AcDbLine
 10
8.771303772034769
 20
-12.77159925848136
 30
0.0
 11
4.599730896781153
 21
-12.77159925848133
 31
0.0
  0
LINE
  5
51
330
14BB9
100
AcDbEntity
  8
0
100
AcDbLine
 10
31.59973089678115
 20
-13.77159925848147
 30
0.0
 11
23.6715276665056
 21
-13.77159925848144
 31
0.0
  0
LINE
  5
52
330
14BB9
100
AcDbEntity
  8
0
100
AcDbLine
 10
23.56565672307022
 20
-9.51278021337896
 30
0.0
 11
24.4388546544846
 21
-12.77159925848144
 31
0.0
  0
LINE
  5
53
330
14BB9
100
AcDbEntity
  8
0
100
AcDbLine
 10
22.59973089678116
 20
-9.771599258481472
 30
0.0
 11
18.59973089678112
 21
-9.771599258481472
 31
0.0
  0
LINE
  5
54
330
14BB9
100
AcDbEntity
  8
0
100
AcDbLine
 10
18.59973089678115
 20
-13.77159925848144
 30
0.0
 11
17.59973089678115
 21
-13.77159925848144
 31
0.0
  0
LINE
  5
55
330
14BB9
100
AcDbEntity
  8
0
100
AcDbLine
 10
18.59973089678115
 20
-9.771599258481472
 30
0.0
 11
18.59973089678115
 21
-13.77159925848144
 31
0.0
  0
LINE
  5
56
330
14BB9
100
AcDbEntity
  8
0
100
AcDbLine
 10
22.59973089678116
 20
-9.771599258481472
 30
0.0
 11
23.67152766650562
 21
-13.77159925848147
 31
0.0
  0
ARC
  5
57
330
14BB9
100
AcDbEntity
  8
0
100
AcDbCircle
 10
22.59973089678116
 20
-7.271599258481472
 30
0.0
 40
2.5
100
AcDbArc
 50
270.0
 51
270.0000000000007
  0
LINE
  5
58
330
14BB9
100
AcDbEntity
  8
0
100
AcDbLine
 10
28.77130377203494
 20
-12.77159925848147
 30
0.0
 11
24.43885465448463
 21
-12.77159925848144
 31
0.0
  0
LINE
  5
59
330
14BB9
100
AcDbEntity
  8
0
100
AcDbLine
 10
3.599730896781125
 20
-4.771599258481472
 30
0.0
 11
2.599730896781125
 21
-4.771599258481472
 31
0.0
  0
LINE
  5
5A
330
14BB9
100
AcDbEntity
  8
0
100
AcDbLine
 10
22.59973089678116
 20
-8.771599258481472
 30
0.0
 11
18.59973089678115
 21
-8.771599258481472
 31
0.0
  0
LINE
  5
5B
330
14BB9
100
AcDbEntity
  8
0
100
AcDbLine
 10
22.59973089678116
 20
-5.771599258481472
 30
0.0
 11
18.59973089678115
 21
-5.771599258481472
 31
0.0
  0
LINE
  5
5C
330
14BB9
100
AcDbEntity
  8
0
100
AcDbLine
 10
22.59973089678116
 20
-4.771599258481472
 30
0.0
 11
17.59973089678115
 21
-4.771599258481472
 31
0.0
  0
LINE
  5
5D
330
14BB9
100
AcDbEntity
  8
0
100
AcDbLine
 10
18.59973089678115
 20
-5.771599258481472
 30
0.0
 11
18.59973089678115
 21
-8.771599258481472
 31
0.0
  0
ARC
  5
5E
330
14BB9
100
AcDbEntity
  8
0
100
AcDbCircle
 10
22.59973089678116
 20
-7.271599258481472
 30
0.0
 40
1.5
100
AcDbArc
 50
270.0
 51
90.0
  0
ENDBLK
  5
5F
330
14BB9
100
AcDbEntity
  8
0
100
AcDbBlockEnd
  0
BLOCK
  5
108B7
330
14BBB
100
AcDbEntity
  8
0
100
AcDbBlockBegin
  2
*D1
 70
     1
 10
0.0
 20
0.0
 30
0.0
  3
*D1
  1

  0
LINE
  5
108B8
330
14BBB
100
AcDbEntity
  8
0
  6
ByBlock
 62
     0
100
AcDbLine
 10
412.7651087002959
 20
756.5550742876845
 30
0.0
 11
412.7651087002959
 21
675.3590259711034
 31
0.0
  0
LINE
  5
108B9
330
14BBB
100
AcDbEntity
  8
0
  6
ByBlock
 62
     0
100
AcDbLine
 10
736.6651087002958
 20
756.5550742876845
 30
0.0
 11
736.6651087002958
 21
675.3590259711034
 31
0.0
  0
LINE
  5
108BA
330
14BBB
100
AcDbEntity
  8
0
  6
ByBlock
 62
     0
100
AcDbLine
 10
430.2651087002959
 20
680.3590259711035
 30
0.0
 11
719.1651087002958
 21
680.3590259711035
 31
0.0
  0
SOLID
  5
108BB
330
14BBB
100
AcDbEntity
  8
0
  6
ByBlock
 62
     0
100
AcDbTrace
 10
430.2651087002959
 20
683.2756926377701
 30
0.0
 11
430.2651087002959
 21
677.4423593044368
 31
0.0
 12
412.7651087002959
 22
680.3590259711035
 32
0.0
 13
412.7651087002959
 23
680.3590259711035
 33
0.0
  0
SOLID
  5
108BC
330
14BBB
100
AcDbEntity
  8
0
  6
ByBlock
 62
     0
100
AcDbTrace
 10
719.1651087002958
 20
683.2756926377701
 30
0.0
 11
719.1651087002958
 21
677.4423593044368
 31
0.0
 12
736.6651087002958
 22
680.3590259711035
 32
0.0
 13
736.6651087002958
 23
680.3590259711035
 33
0.0
  0
TEXT
  5
108BD
330
14BBB
100
AcDbEntity
  8
0
  6
ByBlock
 62
     1
100
AcDbText
 10
525.3817753669625
 20
689.1090259711035
 30
0.0
 40
17.5
  1
%%c324%%p2.6
 41
0.8
  7
GREEKS
 72
     1
 11
574.7151087002959
 21
697.8590259711035
 31
0.0
100
AcDbText
 73
     2
  0
POINT
  5
108BE
330
14BBB
100
AcDbEntity
  8
DEFPOINTS
  6
ByBlock
 62
     0
100
AcDbPoint
 10
412.7651087002959
 20
761.5550742876845
 30
0.0
  0
POINT
  5
108BF
330
14BBB
100
AcDbEntity
  8
DEFPOINTS
  6
ByBlock
 62
     0
100
AcDbPoint
 10
736.6651087002958
 20
761.5550742876845
 30
0.0
  0
POINT
  5
108C0
330
14BBB
100
AcDbEntity
  8
DEFPOINTS
  6
ByBlock
 62
     0
100
AcDbPoint
 10
736.6651087002958
 20
680.3590259711035
 30
0.0
  0
ENDBLK
  5
108C1
330
14BBB
100
AcDbEntity
  8
0
100
AcDbBlockEnd
  0
BLOCK
  5
108C2
330
14BBC
100
AcDbEntity
  8
0
100
AcDbBlockBegin
  2
*D2
 70
     1
 10
0.0
 20
0.0
 30
0.0
  3
*D2
  1

  0
LINE
  5
108C3
330
14BBC
100
AcDbEntity
  8
0
  6
ByBlock
 62
     0
100
AcDbLine
 10
732.6651087002958
 20
756.5550742876845
 30
0.0
 11
732.6651087002958
 21
712.0492991215777
 31
0.0
  0
LINE
  5
108C4
330
14BBC
100
AcDbEntity
  8
0
  6
ByBlock
 62
     0
100
AcDbLine
 10
736.6651087002958
 20
756.5550742876845
 30
0.0
 11
736.6651087002958
 21
712.0492991215777
 31
0.0
  0
LINE
  5
108C5
330
14BBC
100
AcDbEntity
  8
0
  6
ByBlock
 62
     0
100
AcDbLine
 10
715.1651087002958
 20
717.0492991215777
 30
0.0
 11
697.6651087002958
 21
717.0492991215777
 31
0.0
  0
LINE
  5
108C6
330
14BBC
100
AcDbEntity
  8
0
  6
ByBlock
 62
     0
100
AcDbLine
 10
754.1651087002958
 20
717.0492991215777
 30
0.0
 11
771.6651087002958
 21
717.0492991215777
 31
0.0
  0
LINE
  5
108C7
330
14BBC
100
AcDbEntity
  8
0
  6
ByBlock
 62
     0
100
AcDbLine
 10
771.6651087002958
 20
717.0492991215777
 30
0.0
 11
839.1651087002959
 21
717.0492991215777
 31
0.0
  0
SOLID
  5
108C8
330
14BBC
100
AcDbEntity
  8
0
  6
ByBlock
 62
     0
100
AcDbTrace
 10
715.1651087002958
 20
719.9659657882444
 30
0.0
 11
715.1651087002958
 21
714.1326324549111
 31
0.0
 12
732.6651087002958
 22
717.0492991215777
 32
0.0
 13
732.6651087002958
 23
717.0492991215777
 33
0.0
  0
SOLID
  5
108C9
330
14BBC
100
AcDbEntity
  8
0
  6
ByBlock
 62
     0
100
AcDbTrace
 10
754.1651087002958
 20
719.9659657882444
 30
0.0
 11
754.1651087002958
 21
714.1326324549111
 31
0.0
 12
736.6651087002958
 22
717.0492991215777
 32
0.0
 13
736.6651087002958
 23
717.0492991215777
 33
0.0
  0
LINE
  5
108CA
330
14BBC
100
AcDbEntity
  8
0
  6
ByBlock
 62
     0
100
AcDbLine
 10
732.6651087002958
 20
717.0492991215777
 30
0.0
 11
736.6651087002958
 21
717.0492991215777
 31
0.0
  0
TEXT
  5
108CB
330
14BBC
100
AcDbEntity
  8
0
  6
ByBlock
 62
     1
100
AcDbText
 10
779.1651087002958
 20
725.7992991215777
 30
0.0
 40
17.5
  1
4%%p0.8
 41
0.8
  7
GREEKS
 72
     1
 11
809.1651087002958
 21
734.5492991215778
 31
0.0
100
AcDbText
 73
     2
  0
POINT
  5
108CC
330
14BBC
100
AcDbEntity
  8
DEFPOINTS
  6
ByBlock
 62
     0
100
AcDbPoint
 10
732.6651087002958
 20
761.5550742876845
 30
0.0
  0
POINT
  5
108CD
330
14BBC
100
AcDbEntity
  8
DEFPOINTS
  6
ByBlock
 62
     0
100
AcDbPoint
 10
736.6651087002958
 20
761.5550742876845
 30
0.0
  0
POINT
  5
108CE
330
14BBC
100
AcDbEntity
  8
DEFPOINTS
  6
ByBlock
 62
     0
100
AcDbPoint
 10
736.6651087002958
 20
717.0492991215777
 30
0.0
  0
ENDBLK
  5
108CF
330
14BBC
100
AcDbEntity
  8
0
100
AcDbBlockEnd
  0
BLOCK
  5
13CDE
330
14BBD
100
AcDbEntity
  8
0
100
AcDbBlockBegin
  2
*D3
 70
     1
 10
0.0
 20
0.0
 30
0.0
  3
*D3
  1

  0
LINE
  5
13CDF
330
14BBD
100
AcDbEntity
  8
0
  6
ByBlock
 62
     0
100
AcDbLine
 10
1294.464695001305
 20
768.4692741992746
 30
0.0
 11
1226.79343705999
 21
777.3783643221296
 31
0.0
  0
LINE
  5
13CE0
330
14BBD
100
AcDbEntity
  8
0
  6
ByBlock
 62
     0
100
AcDbLine
 10
1452.371919308149
 20
746.4955212538955
 30
0.0
 11
1224.769268583718
 21
746.4955212538955
 31
0.0
  0
ARC
  5
13CE1
330
14BBD
100
AcDbEntity
  8
0
  6
ByBlock
 62
     0
100
AcDbCircle
 10
1461.371919308174
 20
746.4955212538955
 30
0.0
 40
231.6026507244559
100
AcDbArc
 50
163.839349362405
 51
168.1696746812025
  0
ARC
  5
13CE2
330
14BBD
100
AcDbEntity
  8
0
  6
ByBlock
 62
     0
100
AcDbCircle
 10
1461.371919308174
 20
746.4955212538955
 30
0.0
 40
231.6026507244559
100
AcDbArc
 50
184.3303253187975
 51
188.6606506375949
  0
ARC
  5
13CE3
330
14BBD
100
AcDbEntity
  8
0
  6
ByBlock
 62
     0
100
AcDbCircle
 10
1461.371919308174
 20
746.4955212538955
 30
0.0
 40
231.6026507244559
100
AcDbArc
 50
172.5
 51
180.0
  0
SOLID
  5
13CE4
330
14BBD
100
AcDbEntity
  8
0
  6
ByBlock
 62
     0
100
AcDbTrace
 10
1237.564003347157
 20
793.4876544760016
 30
0.0
 11
1231.813469905528
 21
794.4670128958294
 31
0.0
 12
1231.750661366859
 22
776.7257333610293
 32
0.0
 13
1231.750661366859
 23
776.7257333610293
 33
0.0
  0
SOLID
  5
13CE5
330
14BBD
100
AcDbEntity
  8
0
  6
ByBlock
 62
     0
100
AcDbTrace
 10
1227.515838123843
 20
728.8978226655303
 30
0.0
 11
1233.345006880063
 21
729.1182073049419
 31
0.0
 12
1229.769268583718
 22
746.4955212538955
 32
0.0
 13
1229.769268583718
 23
746.4955212538955
 33
0.0
  0
TEXT
  5
13CE6
330
14BBD
100
AcDbEntity
  8
0
  6
ByBlock
 62
     1
100
AcDbText
 10
1218.586283794439
 20
740.6483586680638
 30
0.0
 40
17.5
  1
7.5%%d
 50
87.34820515326914
 41
0.8
  7
GREEKS
 72
     1
 11
1210.678442228557
 21
759.0339111963104
 31
0.0
100
AcDbText
 73
     2
  0
POINT
  5
13CE7
330
14BBD
100
AcDbEntity
  8
DEFPOINTS
  6
ByBlock
 62
     0
100
AcDbPoint
 10
1229.771701901638
 20
747.5571802572622
 30
0.0
  0
POINT
  5
13CE8
330
14BBD
100
AcDbEntity
  8
DEFPOINTS
  6
ByBlock
 62
     0
100
AcDbPoint
 10
1461.371919308174
 20
746.4955212538955
 30
0.0
  0
POINT
  5
13CE9
330
14BBD
100
AcDbEntity
  8
DEFPOINTS
  6
ByBlock
 62
     0
100
AcDbPoint
 10
1623.321919308174
 20
725.1743992696169
 30
0.0
  0
POINT
  5
13CEA
330
14BBD
100
AcDbEntity
  8
DEFPOINTS
  6
ByBlock
 62
     0
100
AcDbPoint
 10
1299.421919308174
 20
767.8166432381743
 30
0.0
  0
POINT
  5
13CEB
330
14BBD
100
AcDbEntity
  8
DEFPOINTS
  6
ByBlock
 62
     0
100
AcDbPoint
 10
1457.371919308149
 20
746.4955212538955
 30
0.0
  0
ENDBLK
  5
13CEC
330
14BBD
100
AcDbEntity
  8
0
100
AcDbBlockEnd
  0
BLOCK
  5
13CED
330
14BBE
100
AcDbEntity
  8
0
100
AcDbBlockBegin
  2
*D4
 70
     1
 10
0.0
 20
0.0
 30
0.0
  3
*D4
  1

  0
LINE
  5
13CEE
330
14BBE
100
AcDbEntity
  8
0
  6
ByBlock
 62
     0
100
AcDbLine
 10
1452.678586871548
 20
748.8248926598246
 30
0.0
 11
1193.983892441748
 21
818.14192711849
 31
0.0
  0
LINE
  5
13CEF
330
14BBE
100
AcDbEntity
  8
0
  6
ByBlock
 62
     0
100
AcDbLine
 10
1294.464695001305
 20
768.4692741992746
 30
0.0
 11
1186.919701534818
 21
782.6278411921581
 31
0.0
  0
ARC
  5
13CF0
330
14BBE
100
AcDbEntity
  8
0
  6
ByBlock
 62
     0
100
AcDbCircle
 10
1461.371919308176
 20
746.4955212538955
 30
0.0
 40
271.8204551416601
100
AcDbArc
 50
157.6212367850635
 51
161.3106183925334
  0
ARC
  5
13CF1
330
14BBE
100
AcDbEntity
  8
0
  6
ByBlock
 62
     0
100
AcDbCircle
 10
1461.371919308176
 20
746.4955212538955
 30
0.0
 40
271.8204551416601
100
AcDbArc
 50
176.1893816074698
 51
179.8787632149396
  0
ARC
  5
13CF2
330
14BBE
100
AcDbEntity
  8
0
  6
ByBlock
 62
     0
100
AcDbCircle
 10
1461.371919308176
 20
746.4955212538955
 30
0.0
 40
271.8204551416601
100
AcDbArc
 50
165.0000000000032
 51
172.4999999999999
  0
SOLID
  5
13CF3
330
14BBE
100
AcDbEntity
  8
0
  6
ByBlock
 62
     0
100
AcDbTrace
 10
1206.676167388593
 20
832.7517856537888
 30
0.0
 11
1201.093120449119
 21
834.4421597690097
 31
0.0
 12
1198.813521573193
 22
816.8478318929777
 32
0.0
 13
1198.813521573193
 23
816.8478318929777
 33
0.0
  0
SOLID
  5
13CF4
330
14BBE
100
AcDbEntity
  8
0
  6
ByBlock
 62
     0
100
AcDbTrace
 10
1187.249942803735
 20
764.8478060958438
 30
0.0
 11
1193.054883768558
 21
764.2729685773304
 31
0.0
 12
1191.876925841687
 22
781.9752102310578
 32
0.0
 13
1191.876925841687
 23
781.9752102310578
 33
0.0
  0
TEXT
  5
13CF5
330
14BBE
100
AcDbEntity
  8
0
  6
ByBlock
 62
     1
100
AcDbText
 10
1176.316772387501
 20
784.9672941342841
 30
0.0
 40
17.5
  1
7.5%%d
 50
77.52146281486375
 41
0.8
  7
GREEKS
 72
     1
 11
1171.662803361179
 21
804.4327268883238
 31
0.0
100
AcDbText
 73
     2
  0
POINT
  5
13CF6
330
14BBE
100
AcDbEntity
  8
DEFPOINTS
  6
ByBlock
 62
     0
100
AcDbPoint
 10
1194.437044270186
 20
797.7998322021197
 30
0.0
  0
POINT
  5
13CF7
330
14BBE
100
AcDbEntity
  8
DEFPOINTS
  6
ByBlock
 62
     0
100
AcDbPoint
 10
1461.371919308174
 20
746.4955212538957
 30
0.0
  0
POINT
  5
13CF8
330
14BBE
100
AcDbEntity
  8
DEFPOINTS
  6
ByBlock
 62
     0
100
AcDbPoint
 10
1623.321919308174
 20
725.1743992696169
 30
0.0
  0
POINT
  5
13CF9
330
14BBE
100
AcDbEntity
  8
DEFPOINTS
  6
ByBlock
 62
     0
100
AcDbPoint
 10
1299.421919308174
 20
767.8166432381743
 30
0.0
  0
POINT
  5
13CFA
330
14BBE
100
AcDbEntity
  8
DEFPOINTS
  6
ByBlock
 62
     0
100
AcDbPoint
 10
1457.508216002994
 20
747.5307974343122
 30
0.0
  0
ENDBLK
  5
13CFB
330
14BBE
100
AcDbEntity
  8
0
100
AcDbBlockEnd
  0
BLOCK
  5
149FC
330
14BBF
100
AcDbEntity
  8
0
100
AcDbBlockBegin
  2
*D5
 70
     1
 10
0.0
 20
0.0
 30
0.0
  3
*D5
  1

  0
LINE
  5
149FD
330
14BBF
100
AcDbEntity
  8
0
  6
ByBlock
 62
     0
100
AcDbLine
 10
1494.242228427094
 20
869.1691849461991
 30
0.0
 11
1515.265029388998
 21
947.6273462534338
 31
0.0
  0
LINE
  5
149FE
330
14BBF
100
AcDbEntity
  8
0
  6
ByBlock
 62
     0
100
AcDbLine
 10
1461.371919308174
 20
751.4955212538961
 30
0.0
 11
1461.371919308174
 21
954.7225087983267
 31
0.0
  0
ARC
  5
149FF
330
14BBF
100
AcDbEntity
  8
0
  6
ByBlock
 62
     0
100
AcDbCircle
 10
1461.371919308174
 20
746.495521253896
 30
0.0
 40
203.2269875444307
100
AcDbArc
 50
79.93530017352258
 51
85.06469982647747
  0
SOLID
  5
14A00
330
14BBF
100
AcDbEntity
  8
0
  6
ByBlock
 62
     0
100
AcDbTrace
 10
1497.520785198641
 20
949.4422294049831
 30
0.0
 11
1496.255005483337
 21
943.7478831308176
 31
0.0
 12
1513.970934163485
 22
942.7977171219884
 32
0.0
 13
1513.970934163485
 23
942.7977171219884
 33
0.0
  0
SOLID
  5
14A01
330
14BBF
100
AcDbEntity
  8
0
  6
ByBlock
 62
     0
100
AcDbTrace
 10
1478.730113416119
 20
946.0550789414163
 30
0.0
 11
1478.981269363877
 21
951.8830029686908
 31
0.0
 12
1461.371919308174
 22
949.7225087983267
 32
0.0
 13
1461.371919308174
 23
949.7225087983267
 33
0.0
  0
TEXT
  5
14A02
330
14BBF
100
AcDbEntity
  8
0
  6
ByBlock
 62
     1
100
AcDbText
 10
1476.08154038694
 20
960.1280251134971
 30
0.0
 40
17.5
  1
15%%d
 50
352.0058764541241
 41
0.8
  7
GREEKS
 72
     1
 11
1490.502180818743
 21
966.9387084356337
 31
0.0
100
AcDbText
 73
     2
  0
POINT
  5
14A03
330
14BBF
100
AcDbEntity
  8
DEFPOINTS
  6
ByBlock
 62
     0
100
AcDbPoint
 10
1484.808620591491
 20
948.3665927310662
 30
0.0
  0
POINT
  5
14A04
330
14BBF
100
AcDbEntity
  8
DEFPOINTS
  6
ByBlock
 62
     0
100
AcDbPoint
 10
1461.371919308174
 20
746.4955212538955
 30
0.0
  0
POINT
  5
14A05
330
14BBF
100
AcDbEntity
  8
DEFPOINTS
  6
ByBlock
 62
     0
100
AcDbPoint
 10
1461.371919308174
 20
746.4955212538957
 30
0.0
  0
POINT
  5
14A06
330
14BBF
100
AcDbEntity
  8
DEFPOINTS
  6
ByBlock
 62
     0
100
AcDbPoint
 10
1492.948133201581
 20
864.3395558147537
 30
0.0
  0
POINT
  5
14A07
330
14BBF
100
AcDbEntity
  8
DEFPOINTS
  6
ByBlock
 62
     0
100
AcDbPoint
 10
1461.371919308174
 20
624.4943992696168
 30
0.0
  0
ENDBLK
  5
14A08
330
14BBF
100
AcDbEntity
  8
0
100
AcDbBlockEnd
  0
BLOCK
  5
14A2A
330
14BC2
100
AcDbEntity
  8
0
100
AcDbBlockBegin
  2
*X6
 70
     1
 10
0.0
 20
0.0
 30
0.0
  3
*X6
  1

  0
LINE
  5
14A2C
330
14BC2
100
AcDbEntity
  8
0
 62
     0
100
AcDbLine
 10
399.4347465765187
 20
936.1
 30
0.0
 11
401.2144638370115
 21
936.1
 31
0.0
  0
LINE
  5
14A2D
330
14BC2
100
AcDbEntity
  8
0
 62
     0
100
AcDbLine
 10
399.4417305359998
 20
936.2
 30
0.0
 11
401.2138817720956
 21
936.2
 31
0.0
  0
LINE
  5
14A2E
330
14BC2
100
AcDbEntity
  8
0
 62
     0
100
AcDbLine
 10
399.4508916414325
 20
936.3000000000001
 30
0.0
 11
401.2406766913387
 21
936.3000000000001
 31
0.0
  0
LINE
  5
14A2F
330
14BC2
100
AcDbEntity
  8
0
 62
     0
100
AcDbLine
 10
399.4622428915956
 20
936.4
 30
0.0
 11
401.2674716105819
 21
936.4
 31
0.0
  0
LINE
  5
14A30
330
14BC2
100
AcDbEntity
  8
0
 62
     0
100
AcDbLine
 10
399.4758005369054
 20
936.5
 30
0.0
 11
401.294266529825
 21
936.5
 31
0.0
  0
LINE
  5
14A31
330
14BC2
100
AcDbEntity
  8
0
 62
     0
100
AcDbLine
 10
399.4915841979264
 20
936.5999999999999
 30
0.0
 11
401.3210614490681
 21
936.5999999999999
 31
0.0
  0
LINE
  5
14A32
330
14BC2
100
AcDbEntity
  8
0
 62
     0
100
AcDbLine
 10
399.509617011038
 20
936.7
 30
0.0
 11
401.3478563683112
 21
936.7
 31
0.0
  0
LINE
  5
14A33
330
14BC2
100
AcDbEntity
  8
0
 62
     0
100
AcDbLine
 10
399.5299258038437
 20
936.8
 30
0.0
 11
401.3746512875543
 21
936.8
 31
0.0
  0
LINE
  5
14A34
330
14BC2
100
AcDbEntity
  8
0
 62
     0
100
AcDbLine
 10
399.5525413035342
 20
936.9000000000001
 30
0.0
 11
401.4014462067974
 21
936.9000000000001
 31
0.0
  0
LINE
  5
14A35
330
14BC2
100
AcDbEntity
  8
0
 62
     0
100
AcDbLine
 10
399.5774983821348
 20
937.0
 30
0.0
 11
401.4282411260405
 21
937.0
 31
0.0
  0
LINE
  5
14A36
330
14BC2
100
AcDbEntity
  8
0
 62
     0
100
AcDbLine
 10
399.6048363434411
 20
937.1
 30
0.0
 11
401.4550360452837
 21
937.1
 31
0.0
  0
LINE
  5
14A37
330
14BC2
100
AcDbEntity
  8
0
 62
     0
100
AcDbLine
 10
399.6345992574847
 20
937.1999999999999
 30
0.0
 11
401.4818309645268
 21
937.1999999999999
 31
0.0
  0
LINE
  5
14A38
330
14BC2
100
AcDbEntity
  8
0
 62
     0
100
AcDbLine
 10
399.6668363496427
 20
937.3000000000001
 30
0.0
 11
401.5086258837698
 21
937.3000000000001
 31
0.0
  0
LINE
  5
14A39
330
14BC2
100
AcDbEntity
  8
0
 62
     0
100
AcDbLine
 10
399.70160245306
 20
937.4
 30
0.0
 11
401.535420803013
 21
937.4
 31
0.0
  0
LINE
  5
14A3A
330
14BC2
100
AcDbEntity
  8
0
 62
     0
100
AcDbLine
 10
399.7389585349803
 20
937.5
 30
0.0
 11
401.5622157222561
 21
937.5
 31
0.0
  0
LINE
  5
14A3B
330
14BC2
100
AcDbEntity
  8
0
 62
     0
100
AcDbLine
 10
399.7789723099923
 20
937.6000000000001
 30
0.0
 11
401.5890106414992
 21
937.6000000000001
 31
0.0
  0
LINE
  5
14A3C
330
14BC2
100
AcDbEntity
  8
0
 62
     0
100
AcDbLine
 10
399.8217189562217
 20
937.7
 30
0.0
 11
401.6158055607424
 21
937.7
 31
0.0
  0
LINE
  5
14A3D
330
14BC2
100
AcDbEntity
  8
0
 62
     0
100
AcDbLine
 10
399.8672819543521
 20
937.8
 30
0.0
 11
401.6426004799854
 21
937.8
 31
0.0
  0
LINE
  5
14A3E
330
14BC2
100
AcDbEntity
  8
0
 62
     0
100
AcDbLine
 10
399.9157540742847
 20
937.9000000000001
 30
0.0
 11
401.6693953992286
 21
937.9000000000001
 31
0.0
  0
LINE
  5
14A3F
330
14BC2
100
AcDbEntity
  8
0
 62
     0
100
AcDbLine
 10
399.9672385406163
 20
938.0
 30
0.0
 11
401.6961903184716
 21
938.0
 31
0.0
  0
LINE
  5
14A40
330
14BC2
100
AcDbEntity
  8
0
 62
     0
100
AcDbLine
 10
400.021850416433
 20
938.1
 30
0.0
 11
401.7229852377147
 21
938.1
 31
0.0
  0
LINE
  5
14A41
330
14BC2
100
AcDbEntity
  8
0
 62
     0
100
AcDbLine
 10
400.0797182558855
 20
938.2000000000001
 30
0.0
 11
401.7497801569579
 21
938.2000000000001
 31
0.0
  0
LINE
  5
14A42
330
14BC2
100
AcDbEntity
  8
0
 62
     0
100
AcDbLine
 10
400.1409860906319
 20
938.3
 30
0.0
 11
401.776575076201
 21
938.3
 31
0.0
  0
LINE
  5
14A43
330
14BC2
100
AcDbEntity
  8
0
 62
     0
100
AcDbLine
 10
400.2058158349659
 20
938.4
 30
0.0
 11
401.8033699954441
 21
938.4
 31
0.0
  0
LINE
  5
14A44
330
14BC2
100
AcDbEntity
  8
0
 62
     0
100
AcDbLine
 10
400.2743902214083
 20
938.4999999999999
 30
0.0
 11
401.8301649146872
 21
938.4999999999999
 31
0.0
  0
LINE
  5
14A45
330
14BC2
100
AcDbEntity
  8
0
 62
     0
100
AcDbLine
 10
400.3469164158976
 20
938.6000000000001
 30
0.0
 11
401.8569598339303
 21
938.6000000000001
 31
0.0
  0
LINE
  5
14A46
330
14BC2
100
AcDbEntity
  8
0
 62
     0
100
AcDbLine
 10
400.4236305142714
 20
938.7
 30
0.0
 11
401.8837547531735
 21
938.7
 31
0.0
  0
LINE
  5
14A47
330
14BC2
100
AcDbEntity
  8
0
 62
     0
100
AcDbLine
 10
400.5048031969119
 20
938.8000000000001
 30
0.0
 11
401.9105496724166
 21
938.8000000000001
 31
0.0
  0
LINE
  5
14A48
330
14BC2
100
AcDbEntity
  8
0
 62
     0
100
AcDbLine
 10
400.59074692795
 20
938.9000000000001
 30
0.0
 11
401.9373445916597
 21
938.9000000000001
 31
0.0
  0
LINE
  5
14A49
330
14BC2
100
AcDbEntity
  8
0
 62
     0
100
AcDbLine
 10
400.6818252482777
 20
939.0
 30
0.0
 11
401.9641395109028
 21
939.0
 31
0.0
  0
LINE
  5
14A4A
330
14BC2
100
AcDbEntity
  8
0
 62
     0
100
AcDbLine
 10
400.7784649593064
 20
939.1
 30
0.0
 11
401.9909344301459
 21
939.1
 31
0.0
  0
LINE
  5
14A4B
330
14BC2
100
AcDbEntity
  8
0
 62
     0
100
AcDbLine
 10
400.8811723808691
 20
939.2000000000001
 30
0.0
 11
402.017729349389
 21
939.2000000000001
 31
0.0
  0
LINE
  5
14A4C
330
14BC2
100
AcDbEntity
  8
0
 62
     0
100
AcDbLine
 10
400.9905554873019
 20
939.3
 30
0.0
 11
402.0445242686322
 21
939.3
 31
0.0
  0
LINE
  5
14A4D
330
14BC2
100
AcDbEntity
  8
0
 62
     0
100
AcDbLine
 10
401.107354755833
 20
939.4000000000001
 30
0.0
 11
402.0713191878753
 21
939.4000000000001
 31
0.0
  0
LINE
  5
14A4E
330
14BC2
100
AcDbEntity
  8
0
 62
     0
100
AcDbLine
 10
401.2324873373814
 20
939.4999999999999
 30
0.0
 11
402.0981141071183
 21
939.4999999999999
 31
0.0
  0
LINE
  5
14A4F
330
14BC2
100
AcDbEntity
  8
0
 62
     0
100
AcDbLine
 10
401.3671123608038
 20
939.6
 30
0.0
 11
402.1249090263615
 21
939.6
 31
0.0
  0
LINE
  5
14A50
330
14BC2
100
AcDbEntity
  8
0
 62
     0
100
AcDbLine
 10
401.5127312624644
 20
939.7
 30
0.0
 11
402.1517039456046
 21
939.7
 31
0.0
  0
LINE
  5
14A51
330
14BC2
100
AcDbEntity
  8
0
 62
     0
100
AcDbLine
 10
401.671349341263
 20
939.8000000000001
 30
0.0
 11
402.1784988648477
 21
939.8000000000001
 31
0.0
  0
LINE
  5
14A52
330
14BC2
100
AcDbEntity
  8
0
 62
     0
100
AcDbLine
 10
401.8457516790761
 20
939.9
 30
0.0
 11
402.2052937840909
 21
939.9
 31
0.0
  0
LINE
  5
14A53
330
14BC2
100
AcDbEntity
  8
0
 62
     0
100
AcDbLine
 10
402.040011685839
 20
940.0
 30
0.0
 11
402.2320887033339
 21
940.0
 31
0.0
  0
LINE
  5
14A54
330
14BC2
100
AcDbEntity
  8
0
 62
     0
100
AcDbLine
 10
399.4299299224379
 20
936.0
 30
0.0
 11
401.2144638370115
 21
936.0
 31
0.0
  0
LINE
  5
14A55
330
14BC2
100
AcDbEntity
  8
0
 62
     0
100
AcDbLine
 10
399.4272738215332
 20
935.9000000000001
 30
0.0
 11
401.2144638370115
 21
935.9000000000001
 31
0.0
  0
LINE
  5
14A56
330
14BC2
100
AcDbEntity
  8
0
 62
     0
100
AcDbLine
 10
399.4267745623521
 20
935.8
 30
0.0
 11
401.2144638370115
 21
935.8
 31
0.0
  0
LINE
  5
14A57
330
14BC2
100
AcDbEntity
  8
0
 62
     0
100
AcDbLine
 10
399.428431448214
 20
935.7000000000001
 30
0.0
 11
401.2144638370115
 21
935.7000000000001
 31
0.0
  0
LINE
  5
14A58
330
14BC2
100
AcDbEntity
  8
0
 62
     0
100
AcDbLine
 10
399.4322467923409
 20
935.5999999999999
 30
0.0
 11
401.2144638370115
 21
935.5999999999999
 31
0.0
  0
LINE
  5
14A59
330
14BC2
100
AcDbEntity
  8
0
 62
     0
100
AcDbLine
 10
399.4382259340385
 20
935.5
 30
0.0
 11
401.2144638370115
 21
935.5
 31
0.0
  0
LINE
  5
14A5A
330
14BC2
100
AcDbEntity
  8
0
 62
     0
100
AcDbLine
 10
399.4463772761937
 20
935.4
 30
0.0
 11
401.2144638370115
 21
935.4
 31
0.0
  0
LINE
  5
14A5B
330
14BC2
100
AcDbEntity
  8
0
 62
     0
100
AcDbLine
 10
399.4567123447032
 20
935.3000000000001
 30
0.0
 11
401.2144638370115
 21
935.3000000000001
 31
0.0
  0
LINE
  5
14A5C
330
14BC2
100
AcDbEntity
  8
0
 62
     0
100
AcDbLine
 10
399.4692458708247
 20
935.2
 30
0.0
 11
401.2144638370115
 21
935.2
 31
0.0
  0
LINE
  5
14A5D
330
14BC2
100
AcDbEntity
  8
0
 62
     0
100
AcDbLine
 10
399.4839958978369
 20
935.1
 30
0.0
 11
401.2144638370115
 21
935.1
 31
0.0
  0
LINE
  5
14A5E
330
14BC2
100
AcDbEntity
  8
0
 62
     0
100
AcDbLine
 10
399.50098391384
 20
935.0
 30
0.0
 11
401.2144638370115
 21
935.0
 31
0.0
  0
LINE
  5
14A5F
330
14BC2
100
AcDbEntity
  8
0
 62
     0
100
AcDbLine
 10
399.5202350130316
 20
934.9000000000001
 30
0.0
 11
401.2144638370115
 21
934.9000000000001
 31
0.0
  0
LINE
  5
14A60
330
14BC2
100
AcDbEntity
  8
0
 62
     0
100
AcDbLine
 10
399.541778088365
 20
934.8
 30
0.0
 11
401.2144638370115
 21
934.8
 31
0.0
  0
LINE
  5
14A61
330
14BC2
100
AcDbEntity
  8
0
 62
     0
100
AcDbLine
 10
399.5656460591725
 20
934.7000000000001
 30
0.0
 11
401.2144638370115
 21
934.7000000000001
 31
0.0
  0
LINE
  5
14A62
330
14BC2
100
AcDbEntity
  8
0
 62
     0
100
AcDbLine
 10
399.5918761381353
 20
934.6
 30
0.0
 11
401.2144638370115
 21
934.6
 31
0.0
  0
LINE
  5
14A63
330
14BC2
100
AcDbEntity
  8
0
 62
     0
100
AcDbLine
 10
399.6205101429339
 20
934.5
 30
0.0
 11
401.2144638370115
 21
934.5
 31
0.0
  0
LINE
  5
14A64
330
14BC2
100
AcDbEntity
  8
0
 62
     0
100
AcDbLine
 10
399.6515948590737
 20
934.4000000000001
 30
0.0
 11
401.2144638370115
 21
934.4000000000001
 31
0.0
  0
LINE
  5
14A65
330
14BC2
100
AcDbEntity
  8
0
 62
     0
100
AcDbLine
 10
399.6851824617936
 20
934.3000000000001
 30
0.0
 11
401.2144638370115
 21
934.3000000000001
 31
0.0
  0
LINE
  5
14A66
330
14BC2
100
AcDbEntity
  8
0
 62
     0
100
AcDbLine
 10
399.7213310067081
 20
934.2
 30
0.0
 11
401.2144638370115
 21
934.2
 31
0.0
  0
LINE
  5
14A67
330
14BC2
100
AcDbEntity
  8
0
 62
     0
100
AcDbLine
 10
399.7601050010057
 20
934.1000000000001
 30
0.0
 11
401.2144638370115
 21
934.1000000000001
 31
0.0
  0
LINE
  5
14A68
330
14BC2
100
AcDbEntity
  8
0
 62
     0
100
AcDbLine
 10
399.8015760697452
 20
934.0
 30
0.0
 11
401.2144638370115
 21
934.0
 31
0.0
  0
LINE
  5
14A69
330
14BC2
100
AcDbEntity
  8
0
 62
     0
100
AcDbLine
 10
399.8458237352324
 20
933.9
 30
0.0
 11
401.2144638370115
 21
933.9
 31
0.0
  0
LINE
  5
14A6A
330
14BC2
100
AcDbEntity
  8
0
 62
     0
100
AcDbLine
 10
399.8929363318495
 20
933.8
 30
0.0
 11
401.2144638370115
 21
933.8
 31
0.0
  0
LINE
  5
14A6B
330
14BC2
100
AcDbEntity
  8
0
 62
     0
100
AcDbLine
 10
399.9430120843598
 20
933.7000000000001
 30
0.0
 11
401.2144638370115
 21
933.7000000000001
 31
0.0
  0
LINE
  5
14A6C
330
14BC2
100
AcDbEntity
  8
0
 62
     0
100
AcDbLine
 10
399.9961603850529
 20
933.6
 30
0.0
 11
401.2144638370115
 21
933.6
 31
0.0
  0
LINE
  5
14A6D
330
14BC2
100
AcDbEntity
  8
0
 62
     0
100
AcDbLine
 10
400.0525033147279
 20
933.5
 30
0.0
 11
401.2144638370115
 21
933.5
 31
0.0
  0
LINE
  5
14A6E
330
14BC2
100
AcDbEntity
  8
0
 62
     0
100
AcDbLine
 10
400.1121774652989
 20
933.4000000000001
 30
0.0
 11
401.2144638370115
 21
933.4000000000001
 31
0.0
  0
LINE
  5
14A6F
330
14BC2
100
AcDbEntity
  8
0
 62
     0
100
AcDbLine
 10
400.1753361389477
 20
933.3
 30
0.0
 11
401.2144638370115
 21
933.3
 31
0.0
  0
LINE
  5
14A70
330
14BC2
100
AcDbEntity
  8
0
 62
     0
100
AcDbLine
 10
400.2421520220456
 20
933.2
 30
0.0
 11
401.2144638370115
 21
933.2
 31
0.0
  0
LINE
  5
14A71
330
14BC2
100
AcDbEntity
  8
0
 62
     0
100
AcDbLine
 10
400.3128204641272
 20
933.1000000000001
 30
0.0
 11
401.2144638370115
 21
933.1000000000001
 31
0.0
  0
LINE
  5
14A72
330
14BC2
100
AcDbEntity
  8
0
 62
     0
100
AcDbLine
 10
400.3875635369806
 20
933.0
 30
0.0
 11
401.2144638370115
 21
933.0
 31
0.0
  0
LINE
  5
14A73
330
14BC2
100
AcDbEntity
  8
0
 62
     0
100
AcDbLine
 10
400.4666351124749
 20
932.9
 30
0.0
 11
401.2144638370115
 21
932.9
 31
0.0
  0
LINE
  5
14A74
330
14BC2
100
AcDbEntity
  8
0
 62
     0
100
AcDbLine
 10
400.5503272895325
 20
932.8000000000001
 30
0.0
 11
401.2144638370115
 21
932.8000000000001
 31
0.0
  0
LINE
  5
14A75
330
14BC2
100
AcDbEntity
  8
0
 62
     0
100
AcDbLine
 10
400.6389786358125
 20
932.6999999999999
 30
0.0
 11
401.2144638370115
 21
932.6999999999999
 31
0.0
  0
LINE
  5
14A76
330
14BC2
100
AcDbEntity
  8
0
 62
     0
100
AcDbLine
 10
400.7329849130303
 20
932.6
 30
0.0
 11
401.2144638370115
 21
932.6
 31
0.0
  0
LINE
  5
14A77
330
14BC2
100
AcDbEntity
  8
0
 62
     0
100
AcDbLine
 10
400.8328132682851
 20
932.5000000000001
 30
0.0
 11
401.2144638370115
 21
932.5000000000001
 31
0.0
  0
LINE
  5
14A78
330
14BC2
100
AcDbEntity
  8
0
 62
     0
100
AcDbLine
 10
400.9390213702332
 20
932.4000000000001
 30
0.0
 11
401.2144638370115
 21
932.4000000000001
 31
0.0
  0
LINE
  5
14A79
330
14BC2
100
AcDbEntity
  8
0
 62
     0
100
AcDbLine
 10
401.0522837800136
 20
932.3
 30
0.0
 11
401.2144638370115
 21
932.3
 31
0.0
  0
LINE
  5
14A7A
330
14BC2
100
AcDbEntity
  8
0
 62
     0
100
AcDbLine
 10
401.1734292197958
 20
932.2
 30
0.0
 11
401.2144638370115
 21
932.2
 31
0.0
  0
ENDBLK
  5
14A7B
330
14BC2
100
AcDbEntity
  8
0
100
AcDbBlockEnd
  0
BLOCK
  5
14A85
330
14BC3
100
AcDbEntity
  8
0
100
AcDbBlockBegin
  2
*X7
 70
     1
 10
0.0
 20
0.0
 30
0.0
  3
*X7
  1

  0
LINE
  5
14A87
330
14BC3
100
AcDbEntity
  8
0
 62
     0
100
AcDbLine
 10
725.1144638370109
 20
893.4000000000001
 30
0.0
 11
727.5935278030179
 21
893.4000000000001
 31
0.0
  0
LINE
  5
14A88
330
14BC3
100
AcDbEntity
  8
0
 62
     0
100
AcDbLine
 10
725.1144638370109
 20
893.5
 30
0.0
 11
727.6023952659413
 21
893.5
 31
0.0
  0
LINE
  5
14A89
330
14BC3
100
AcDbEntity
  8
0
 62
     0
100
AcDbLine
 10
725.1252010093551
 20
893.5999999999999
 30
0.0
 11
727.6092717394007
 21
893.5999999999999
 31
0.0
  0
LINE
  5
14A8A
330
14BC3
100
AcDbEntity
  8
0
 62
     0
100
AcDbLine
 10
725.1519959285982
 20
893.7000000000001
 30
0.0
 11
727.6141653309422
 21
893.7000000000001
 31
0.0
  0
LINE
  5
14A8B
330
14BC3
100
AcDbEntity
  8
0
 62
     0
100
AcDbLine
 10
725.1787908478413
 20
893.8
 30
0.0
 11
727.6170817834384
 21
893.8
 31
0.0
  0
LINE
  5
14A8C
330
14BC3
100
AcDbEntity
  8
0
 62
     0
100
AcDbLine
 10
725.2055857670844
 20
893.9000000000001
 30
0.0
 11
727.6180245089436
 21
893.9000000000001
 31
0.0
  0
LINE
  5
14A8D
330
14BC3
100
AcDbEntity
  8
0
 62
     0
100
AcDbLine
 10
725.2323806863276
 20
894.0
 30
0.0
 11
727.6169946087033
 21
894.0
 31
0.0
  0
LINE
  5
14A8E
330
14BC3
100
AcDbEntity
  8
0
 62
     0
100
AcDbLine
 10
725.2591756055707
 20
894.1
 30
0.0
 11
727.6139908795973
 21
894.1
 31
0.0
  0
LINE
  5
14A8F
330
14BC3
100
AcDbEntity
  8
0
 62
     0
100
AcDbLine
 10
725.2859705248138
 20
894.2
 30
0.0
 11
727.6090098071002
 21
894.2
 31
0.0
  0
LINE
  5
14A90
330
14BC3
100
AcDbEntity
  8
0
 62
     0
100
AcDbLine
 10
725.3127654440569
 20
894.3000000000001
 30
0.0
 11
727.6020455446676
 21
894.3000000000001
 31
0.0
  0
LINE
  5
14A91
330
14BC3
100
AcDbEntity
  8
0
 62
     0
100
AcDbLine
 10
725.3395603633
 20
894.4
 30
0.0
 11
727.59308987926
 21
894.4
 31
0.0
  0
LINE
  5
14A92
330
14BC3
100
AcDbEntity
  8
0
 62
     0
100
AcDbLine
 10
725.3663552825432
 20
894.5
 30
0.0
 11
727.5821321825303
 21
894.5
 31
0.0
  0
LINE
  5
14A93
330
14BC3
100
AcDbEntity
  8
0
 62
     0
100
AcDbLine
 10
725.3931502017863
 20
894.5999999999999
 30
0.0
 11
727.5691593469938
 21
894.5999999999999
 31
0.0
  0
LINE
  5
14A94
330
14BC3
100
AcDbEntity
  8
0
 62
     0
100
AcDbLine
 10
725.4199451210293
 20
894.7
 30
0.0
 11
727.5541557062693
 21
894.7
 31
0.0
  0
LINE
  5
14A95
330
14BC3
100
AcDbEntity
  8
0
 62
     0
100
AcDbLine
 10
725.4467400402725
 20
894.8
 30
0.0
 11
727.5371029382443
 21
894.8
 31
0.0
  0
LINE
  5
14A96
330
14BC3
100
AcDbEntity
  8
0
 62
     0
100
AcDbLine
 10
725.4735349595156
 20
894.9000000000001
 30
0.0
 11
727.5179799497323
 21
894.9000000000001
 31
0.0
  0
LINE
  5
14A97
330
14BC3
100
AcDbEntity
  8
0
 62
     0
100
AcDbLine
 10
725.5003298787587
 20
895.0
 30
0.0
 11
727.4967627408757
 21
895.0
 31
0.0
  0
LINE
  5
14A98
330
14BC3
100
AcDbEntity
  8
0
 62
     0
100
AcDbLine
 10
725.5271247980019
 20
895.1
 30
0.0
 11
727.4734242471851
 21
895.1
 31
0.0
  0
LINE
  5
14A99
330
14BC3
100
AcDbEntity
  8
0
 62
     0
100
AcDbLine
 10
725.5539197172449
 20
895.1999999999999
 30
0.0
 11
727.4479341566786
 21
895.1999999999999
 31
0.0
  0
LINE
  5
14A9A
330
14BC3
100
AcDbEntity
  8
0
 62
     0
100
AcDbLine
 10
725.580714636488
 20
895.3000000000001
 30
0.0
 11
727.4202586990802
 21
895.3000000000001
 31
0.0
  0
LINE
  5
14A9B
330
14BC3
100
AcDbEntity
  8
0
 62
     0
100
AcDbLine
 10
725.6075095557312
 20
895.4
 30
0.0
 11
727.3903604034414
 21
895.4
 31
0.0
  0
LINE
  5
14A9C
330
14BC3
100
AcDbEntity
  8
0
 62
     0
100
AcDbLine
 10
725.6343044749743
 20
895.5
 30
0.0
 11
727.3581978198326
 21
895.5
 31
0.0
  0
LINE
  5
14A9D
330
14BC3
100
AcDbEntity
  8
0
 62
     0
100
AcDbLine
 10
725.6610993942175
 20
895.6000000000001
 30
0.0
 11
727.323725199884
 21
895.6000000000001
 31
0.0
  0
LINE
  5
14A9E
330
14BC3
100
AcDbEntity
  8
0
 62
     0
100
AcDbLine
 10
725.6878943134605
 20
895.7
 30
0.0
 11
727.2868921299016
 21
895.7
 31
0.0
  0
LINE
  5
14A9F
330
14BC3
100
AcDbEntity
  8
0
 62
     0
100
AcDbLine
 10
725.7146892327036
 20
895.8
 30
0.0
 11
727.2476431089955
 21
895.8
 31
0.0
  0
LINE
  5
14AA0
330
14BC3
100
AcDbEntity
  8
0
 62
     0
100
AcDbLine
 10
725.7414841519468
 20
895.9000000000001
 30
0.0
 11
727.2059170630598
 21
895.9000000000001
 31
0.0
  0
LINE
  5
14AA1
330
14BC3
100
AcDbEntity
  8
0
 62
     0
100
AcDbLine
 10
725.7682790711897
 20
896.0
 30
0.0
 11
727.1616467834662
 21
896.0
 31
0.0
  0
LINE
  5
14AA2
330
14BC3
100
AcDbEntity
  8
0
 62
     0
100
AcDbLine
 10
725.7950739904329
 20
896.1
 30
0.0
 11
727.1147582768518
 21
896.1
 31
0.0
  0
LINE
  5
14AA3
330
14BC3
100
AcDbEntity
  8
0
 62
     0
100
AcDbLine
 10
725.821868909676
 20
896.2000000000001
 30
0.0
 11
727.0651700092543
 21
896.2000000000001
 31
0.0
  0
LINE
  5
14AA4
330
14BC3
100
AcDbEntity
  8
0
 62
     0
100
AcDbLine
 10
725.8486638289191
 20
896.3
 30
0.0
 11
727.0127920238713
 21
896.3
 31
0.0
  0
LINE
  5
14AA5
330
14BC3
100
AcDbEntity
  8
0
 62
     0
100
AcDbLine
 10
725.8754587481623
 20
896.4
 30
0.0
 11
726.9575249066203
 21
896.4
 31
0.0
  0
LINE
  5
14AA6
330
14BC3
100
AcDbEntity
  8
0
 62
     0
100
AcDbLine
 10
725.9022536674053
 20
896.4999999999999
 30
0.0
 11
726.8992585670826
 21
896.4999999999999
 31
0.0
  0
LINE
  5
14AA7
330
14BC3
100
AcDbEntity
  8
0
 62
     0
100
AcDbLine
 10
725.9290485866484
 20
896.6000000000001
 30
0.0
 11
726.8378707937975
 21
896.6000000000001
 31
0.0
  0
LINE
  5
14AA8
330
14BC3
100
AcDbEntity
  8
0
 62
     0
100
AcDbLine
 10
725.9558435058916
 20
896.7
 30
0.0
 11
726.773225531523
 21
896.7
 31
0.0
  0
LINE
  5
14AA9
330
14BC3
100
AcDbEntity
  8
0
 62
     0
100
AcDbLine
 10
725.9826384251347
 20
896.8000000000001
 30
0.0
 11
726.7051708129194
 21
896.8000000000001
 31
0.0
  0
LINE
  5
14AAA
330
14BC3
100
AcDbEntity
  8
0
 62
     0
100
AcDbLine
 10
726.0094333443778
 20
896.9000000000001
 30
0.0
 11
726.6335362566877
 21
896.9000000000001
 31
0.0
  0
LINE
  5
14AAB
330
14BC3
100
AcDbEntity
  8
0
 62
     0
100
AcDbLine
 10
726.0362282636209
 20
897.0
 30
0.0
 11
726.5581300162633
 21
897.0
 31
0.0
  0
LINE
  5
14AAC
330
14BC3
100
AcDbEntity
  8
0
 62
     0
100
AcDbLine
 10
726.063023182864
 20
897.1
 30
0.0
 11
726.4787350244816
 21
897.1
 31
0.0
  0
LINE
  5
14AAD
330
14BC3
100
AcDbEntity
  8
0
 62
     0
100
AcDbLine
 10
726.0898181021071
 20
897.2000000000001
 30
0.0
 11
726.395104325218
 21
897.2000000000001
 31
0.0
  0
LINE
  5
14AAE
330
14BC3
100
AcDbEntity
  8
0
 62
     0
100
AcDbLine
 10
726.1166130213503
 20
897.3
 30
0.0
 11
726.3069552051848
 21
897.3
 31
0.0
  0
LINE
  5
14AAF
330
14BC3
100
AcDbEntity
  8
0
 62
     0
100
AcDbLine
 10
726.1434079405934
 20
897.4000000000001
 30
0.0
 11
726.2139617257337
 21
897.4000000000001
 31
0.0
  0
LINE
  5
14AB0
330
14BC3
100
AcDbEntity
  8
0
 62
     0
100
AcDbLine
 10
725.1144638370109
 20
893.3000000000001
 30
0.0
 11
727.5826588302464
 21
893.3000000000001
 31
0.0
  0
LINE
  5
14AB1
330
14BC3
100
AcDbEntity
  8
0
 62
     0
100
AcDbLine
 10
725.1144638370109
 20
893.2
 30
0.0
 11
727.5697753512529
 21
893.2
 31
0.0
  0
LINE
  5
14AB2
330
14BC3
100
AcDbEntity
  8
0
 62
     0
100
AcDbLine
 10
725.1144638370109
 20
893.1
 30
0.0
 11
727.5548618146435
 21
893.1
 31
0.0
  0
LINE
  5
14AB3
330
14BC3
100
AcDbEntity
  8
0
 62
     0
100
AcDbLine
 10
725.1144638370109
 20
893.0
 30
0.0
 11
727.5379000179509
 21
893.0
 31
0.0
  0
LINE
  5
14AB4
330
14BC3
100
AcDbEntity
  8
0
 62
     0
100
AcDbLine
 10
725.1144638370109
 20
892.9
 30
0.0
 11
727.5188689931444
 21
892.9
 31
0.0
  0
LINE
  5
14AB5
330
14BC3
100
AcDbEntity
  8
0
 62
     0
100
AcDbLine
 10
725.1144638370109
 20
892.8
 30
0.0
 11
727.4977448719688
 21
892.8
 31
0.0
  0
LINE
  5
14AB6
330
14BC3
100
AcDbEntity
  8
0
 62
     0
100
AcDbLine
 10
725.1144638370109
 20
892.7000000000001
 30
0.0
 11
727.4745007290233
 21
892.7000000000001
 31
0.0
  0
LINE
  5
14AB7
330
14BC3
100
AcDbEntity
  8
0
 62
     0
100
AcDbLine
 10
725.1144638370109
 20
892.6
 30
0.0
 11
727.4491064000601
 21
892.6
 31
0.0
  0
LINE
  5
14AB8
330
14BC3
100
AcDbEntity
  8
0
 62
     0
100
AcDbLine
 10
725.1144638370109
 20
892.5
 30
0.0
 11
727.4215282724898
 21
892.5
 31
0.0
  0
LINE
  5
14AB9
330
14BC3
100
AcDbEntity
  8
0
 62
     0
100
AcDbLine
 10
725.1144638370109
 20
892.4000000000001
 30
0.0
 11
727.3917290444849
 21
892.4000000000001
 31
0.0
  0
LINE
  5
14ABA
330
14BC3
100
AcDbEntity
  8
0
 62
     0
100
AcDbLine
 10
725.1144638370109
 20
892.3
 30
0.0
 11
727.3596674483618
 21
892.3
 31
0.0
  0
LINE
  5
14ABB
330
14BC3
100
AcDbEntity
  8
0
 62
     0
100
AcDbLine
 10
725.1144638370109
 20
892.2
 30
0.0
 11
727.3252979330638
 21
892.2
 31
0.0
  0
LINE
  5
14ABC
330
14BC3
100
AcDbEntity
  8
0
 62
     0
100
AcDbLine
 10
725.1144638370109
 20
892.1000000000001
 30
0.0
 11
727.2885702995225
 21
892.1000000000001
 31
0.0
  0
LINE
  5
14ABD
330
14BC3
100
AcDbEntity
  8
0
 62
     0
100
AcDbLine
 10
725.1144638370109
 20
892.0
 30
0.0
 11
727.2494292813959
 21
892.0
 31
0.0
  0
LINE
  5
14ABE
330
14BC3
100
AcDbEntity
  8
0
 62
     0
100
AcDbLine
 10
725.1144638370109
 20
891.9
 30
0.0
 11
727.2078140621025
 21
891.9
 31
0.0
  0
LINE
  5
14ABF
330
14BC3
100
AcDbEntity
  8
0
 62
     0
100
AcDbLine
 10
725.1144638370109
 20
891.8000000000001
 30
0.0
 11
727.1636577171083
 21
891.8000000000001
 31
0.0
  0
LINE
  5
14AC0
330
14BC3
100
AcDbEntity
  8
0
 62
     0
100
AcDbLine
 10
725.1144638370109
 20
891.6999999999999
 30
0.0
 11
727.1168865679713
 21
891.6999999999999
 31
0.0
  0
LINE
  5
14AC1
330
14BC3
100
AcDbEntity
  8
0
 62
     0
100
AcDbLine
 10
725.1144638370109
 20
891.6
 30
0.0
 11
727.0674194315506
 21
891.6
 31
0.0
  0
LINE
  5
14AC2
330
14BC3
100
AcDbEntity
  8
0
 62
     0
100
AcDbLine
 10
725.1144638370109
 20
891.5
 30
0.0
 11
727.0151667438524
 21
891.5
 31
0.0
  0
LINE
  5
14AC3
330
14BC3
100
AcDbEntity
  8
0
 62
     0
100
AcDbLine
 10
725.1144638370109
 20
891.4000000000001
 30
0.0
 11
726.9600295329456
 21
891.4000000000001
 31
0.0
  0
LINE
  5
14AC4
330
14BC3
100
AcDbEntity
  8
0
 62
     0
100
AcDbLine
 10
725.1144638370109
 20
891.3
 30
0.0
 11
726.9018982088575
 21
891.3
 31
0.0
  0
LINE
  5
14AC5
330
14BC3
100
AcDbEntity
  8
0
 62
     0
100
AcDbLine
 10
725.1144638370109
 20
891.2
 30
0.0
 11
726.8406511298511
 21
891.2
 31
0.0
  0
LINE
  5
14AC6
330
14BC3
100
AcDbEntity
  8
0
 62
     0
100
AcDbLine
 10
725.1144638370109
 20
891.0999999999999
 30
0.0
 11
726.7761528932689
 21
891.0999999999999
 31
0.0
  0
LINE
  5
14AC7
330
14BC3
100
AcDbEntity
  8
0
 62
     0
100
AcDbLine
 10
725.1144638370109
 20
891.0
 30
0.0
 11
726.7082522841721
 21
891.0
 31
0.0
  0
LINE
  5
14AC8
330
14BC3
100
AcDbEntity
  8
0
 62
     0
100
AcDbLine
 10
725.1144638370109
 20
890.9
 30
0.0
 11
726.6367797948451
 21
890.9
 31
0.0
  0
LINE
  5
14AC9
330
14BC3
100
AcDbEntity
  8
0
 62
     0
100
AcDbLine
 10
725.1144638370109
 20
890.8000000000001
 30
0.0
 11
726.5615446007011
 21
890.8000000000001
 31
0.0
  0
LINE
  5
14ACA
330
14BC3
100
AcDbEntity
  8
0
 62
     0
100
AcDbLine
 10
725.1144638370109
 20
890.7
 30
0.0
 11
726.4823308400007
 21
890.7
 31
0.0
  0
LINE
  5
14ACB
330
14BC3
100
AcDbEntity
  8
0
 62
     0
100
AcDbLine
 10
725.1144638370109
 20
890.6
 30
0.0
 11
726.3988929912152
 21
890.6
 31
0.0
  0
LINE
  5
14ACC
330
14BC3
100
AcDbEntity
  8
0
 62
     0
100
AcDbLine
 10
725.1144638370109
 20
890.4999999999999
 30
0.0
 11
726.3109500652973
 21
890.4999999999999
 31
0.0
  0
LINE
  5
14ACD
330
14BC3
100
AcDbEntity
  8
0
 62
     0
100
AcDbLine
 10
725.1144638370109
 20
890.4000000000001
 30
0.0
 11
726.2181782186994
 21
890.4000000000001
 31
0.0
  0
LINE
  5
14ACE
330
14BC3
100
AcDbEntity
  8
0
 62
     0
100
AcDbLine
 10
725.1144638370109
 20
890.3
 30
0.0
 11
726.120201227523
 21
890.3
 31
0.0
  0
LINE
  5
14ACF
330
14BC3
100
AcDbEntity
  8
0
 62
     0
100
AcDbLine
 10
725.1144638370109
 20
890.2000000000001
 30
0.0
 11
726.0165780119024
 21
890.2000000000001
 31
0.0
  0
LINE
  5
14AD0
330
14BC3
100
AcDbEntity
  8
0
 62
     0
100
AcDbLine
 10
725.1144638370109
 20
890.0999999999999
 30
0.0
 11
725.9067860083088
 21
890.0999999999999
 31
0.0
  0
LINE
  5
14AD1
330
14BC3
100
AcDbEntity
  8
0
 62
     0
100
AcDbLine
 10
725.1144638370109
 20
890.0
 30
0.0
 11
725.7901985600784
 21
890.0
 31
0.0
  0
LINE
  5
14AD2
330
14BC3
100
AcDbEntity
  8
0
 62
     0
100
AcDbLine
 10
725.1144638370109
 20
889.9
 30
0.0
 11
725.6660534574637
 21
889.9
 31
0.0
  0
LINE
  5
14AD3
330
14BC3
100
AcDbEntity
  8
0
 62
     0
100
AcDbLine
 10
725.1144638370109
 20
889.8000000000001
 30
0.0
 11
725.5334079717811
 21
889.8000000000001
 31
0.0
  0
LINE
  5
14AD4
330
14BC3
100
AcDbEntity
  8
0
 62
     0
100
AcDbLine
 10
725.1144638370109
 20
889.7
 30
0.0
 11
725.3910725177087
 21
889.7
 31
0.0
  0
LINE
  5
14AD5
330
14BC3
100
AcDbEntity
  8
0
 62
     0
100
AcDbLine
 10
725.1144638370109
 20
889.6
 30
0.0
 11
725.2375090009661
 21
889.6
 31
0.0
  0
ENDBLK
  5
14AD6
330
14BC3
100
AcDbEntity
  8
0
100
AcDbBlockEnd
  0
BLOCK
  5
14AE1
330
14BC4
100
AcDbEntity
  8
0
100
AcDbBlockBegin
  2
*X8
 70
     1
 10
0.0
 20
0.0
 30
0.0
  3
*X8
  1

  0
LINE
  5
14AE3
330
14BC4
100
AcDbEntity
  8
0
 62
     0
100
AcDbLine
 10
721.1144638370111
 20
845.5652573258436
 30
0.0
 11
725.114463837011
 21
849.5652573258434
 31
0.0
  0
LINE
  5
14AE4
330
14BC4
100
AcDbEntity
  8
0
 62
     0
100
AcDbLine
 10
721.1144638370111
 20
851.2221115753359
 30
0.0
 11
725.1144638370109
 21
855.2221115753356
 31
0.0
  0
LINE
  5
14AE5
330
14BC4
100
AcDbEntity
  8
0
 62
     0
100
AcDbLine
 10
721.1144638370111
 20
856.8789658248283
 30
0.0
 11
725.1144638370109
 21
860.8789658248282
 31
0.0
  0
LINE
  5
14AE6
330
14BC4
100
AcDbEntity
  8
0
 62
     0
100
AcDbLine
 10
721.1144638370111
 20
862.5358200743207
 30
0.0
 11
725.1144638370109
 21
866.5358200743204
 31
0.0
  0
LINE
  5
14AE7
330
14BC4
100
AcDbEntity
  8
0
 62
     0
100
AcDbLine
 10
721.1144638370111
 20
868.1926743238131
 30
0.0
 11
725.1144638370109
 21
872.1926743238126
 31
0.0
  0
LINE
  5
14AE8
330
14BC4
100
AcDbEntity
  8
0
 62
     0
100
AcDbLine
 10
721.1144638370111
 20
873.8495285733055
 30
0.0
 11
725.1144638370109
 21
877.8495285733052
 31
0.0
  0
LINE
  5
14AE9
330
14BC4
100
AcDbEntity
  8
0
 62
     0
100
AcDbLine
 10
721.1144638370111
 20
879.5063828227979
 30
0.0
 11
725.1144638370109
 21
883.5063828227974
 31
0.0
  0
LINE
  5
14AEA
330
14BC4
100
AcDbEntity
  8
0
 62
     0
100
AcDbLine
 10
721.1144638370111
 20
885.1632370722903
 30
0.0
 11
725.1144638370109
 21
889.1632370722899
 31
0.0
  0
LINE
  5
14AEB
330
14BC4
100
AcDbEntity
  8
0
 62
     0
100
AcDbLine
 10
721.1144638370111
 20
890.8200913217825
 30
0.0
 11
724.0009038022943
 21
893.7065312870657
 31
0.0
  0
LINE
  5
14AEC
330
14BC4
100
AcDbEntity
  8
0
 62
     0
100
AcDbLine
 10
721.1144638370111
 20
839.9084030763512
 30
0.0
 11
725.114463837011
 21
843.908403076351
 31
0.0
  0
LINE
  5
14AED
330
14BC4
100
AcDbEntity
  8
0
 62
     0
100
AcDbLine
 10
721.1144638370111
 20
834.2515488268587
 30
0.0
 11
725.114463837011
 21
838.2515488268586
 31
0.0
  0
LINE
  5
14AEE
330
14BC4
100
AcDbEntity
  8
0
 62
     0
100
AcDbLine
 10
721.1144638370111
 20
828.5946945773664
 30
0.0
 11
725.114463837011
 21
832.5946945773662
 31
0.0
  0
LINE
  5
14AEF
330
14BC4
100
AcDbEntity
  8
0
 62
     0
100
AcDbLine
 10
721.1144638370111
 20
822.937840327874
 30
0.0
 11
725.114463837011
 21
826.9378403278739
 31
0.0
  0
LINE
  5
14AF0
330
14BC4
100
AcDbEntity
  8
0
 62
     0
100
AcDbLine
 10
721.1144638370111
 20
817.2809860783816
 30
0.0
 11
725.114463837011
 21
821.2809860783815
 31
0.0
  0
LINE
  5
14AF1
330
14BC4
100
AcDbEntity
  8
0
 62
     0
100
AcDbLine
 10
721.1144638370111
 20
811.6241318288892
 30
0.0
 11
725.114463837011
 21
815.6241318288891
 31
0.0
  0
LINE
  5
14AF2
330
14BC4
100
AcDbEntity
  8
0
 62
     0
100
AcDbLine
 10
721.1144638370111
 20
805.9672775793968
 30
0.0
 11
725.114463837011
 21
809.9672775793967
 31
0.0
  0
LINE
  5
14AF3
330
14BC4
100
AcDbEntity
  8
0
 62
     0
100
AcDbLine
 10
723.6839688343886
 20
802.8799283272819
 30
0.0
 11
725.1144638370111
 21
804.3104233299043
 31
0.0
  0
ENDBLK
  5
14AF4
330
14BC4
100
AcDbEntity
  8
0
100
AcDbBlockEnd
  0
BLOCK
  5
14AFF
330
14BC5
100
AcDbEntity
  8
0
100
AcDbBlockBegin
  2
*X9
 70
     1
 10
0.0
 20
0.0
 30
0.0
  3
*X9
  1

  0
LINE
  5
14B01
330
14BC5
100
AcDbEntity
  8
0
 62
     0
100
AcDbLine
 10
735.8216181186717
 20
933.519572110918
 30
0.0
 11
732.9931909939257
 21
938.4185515964842
 31
0.0
  0
LINE
  5
14B02
330
14BC5
100
AcDbEntity
  8
0
 62
     0
100
AcDbLine
 10
734.3575165035339
 20
928.05547049578
 30
0.0
 11
731.5290893787879
 21
932.9544499813465
 31
0.0
  0
LINE
  5
14B03
330
14BC5
100
AcDbEntity
  8
0
 62
     0
100
AcDbLine
 10
732.8934148883962
 20
922.5913688806425
 30
0.0
 11
730.0649877636502
 21
927.4903483662088
 31
0.0
  0
LINE
  5
14B04
330
14BC5
100
AcDbEntity
  8
0
 62
     0
100
AcDbLine
 10
731.4293132732585
 20
917.1272672655046
 30
0.0
 11
728.6008861485123
 21
922.0262467510709
 31
0.0
  0
LINE
  5
14B05
330
14BC5
100
AcDbEntity
  8
0
 62
     0
100
AcDbLine
 10
729.9652116581206
 20
911.6631656503669
 30
0.0
 11
727.1367845333746
 21
916.5621451359333
 31
0.0
  0
LINE
  5
14B06
330
14BC5
100
AcDbEntity
  8
0
 62
     0
100
AcDbLine
 10
728.5011100429828
 20
906.1990640352291
 30
0.0
 11
725.6726829182369
 21
911.0980435207954
 31
0.0
  0
LINE
  5
14B07
330
14BC5
100
AcDbEntity
  8
0
 62
     0
100
AcDbLine
 10
727.037008427845
 20
900.7349624200914
 30
0.0
 11
724.2085813030991
 21
905.6339419056577
 31
0.0
  0
LINE
  5
14B08
330
14BC5
100
AcDbEntity
  8
0
 62
     0
100
AcDbLine
 10
725.5729068127074
 20
895.2708608049537
 30
0.0
 11
722.7444796879613
 21
900.16984029052
 31
0.0
  0
LINE
  5
14B09
330
14BC5
100
AcDbEntity
  8
0
 62
     0
100
AcDbLine
 10
721.6809304711124
 20
894.0119615704521
 30
0.0
 11
721.2803780728236
 21
894.7057386753822
 31
0.0
  0
LINE
  5
14B0A
330
14BC5
100
AcDbEntity
  8
0
 62
     0
100
AcDbLine
 10
737.2857197338094
 20
938.9836737260555
 30
0.0
 11
734.4572926090634
 21
943.882653211622
 31
0.0
  0
LINE
  5
14B0B
330
14BC5
100
AcDbEntity
  8
0
 62
     0
100
AcDbLine
 10
738.7498213489473
 20
944.4477753411934
 30
0.0
 11
735.9213942242011
 21
949.3467548267599
 31
0.0
  0
LINE
  5
14B0C
330
14BC5
100
AcDbEntity
  8
0
 62
     0
100
AcDbLine
 10
740.2139229640851
 20
949.911876956331
 30
0.0
 11
737.385495839339
 21
954.8108564418974
 31
0.0
  0
LINE
  5
14B0D
330
14BC5
100
AcDbEntity
  8
0
 62
     0
100
AcDbLine
 10
741.6780245792227
 20
955.3759785714689
 30
0.0
 11
738.8495974544767
 21
960.2749580570353
 31
0.0
  0
LINE
  5
14B0E
330
14BC5
100
AcDbEntity
  8
0
 62
     0
100
AcDbLine
 10
743.1421261943605
 20
960.8400801866066
 30
0.0
 11
740.3136990696144
 21
965.7390596721731
 31
0.0
  0
LINE
  5
14B0F
330
14BC5
100
AcDbEntity
  8
0
 62
     0
100
AcDbLine
 10
744.6062278094983
 20
966.3041818017443
 30
0.0
 11
741.7778006847522
 21
971.2031612873108
 31
0.0
  0
LINE
  5
14B10
330
14BC5
100
AcDbEntity
  8
0
 62
     0
100
AcDbLine
 10
746.0703294246362
 20
971.7682834168821
 30
0.0
 11
743.24190229989
 21
976.6672629024485
 31
0.0
  0
LINE
  5
14B11
330
14BC5
100
AcDbEntity
  8
0
 62
     0
100
AcDbLine
 10
747.5344310397739
 20
977.2323850320198
 30
0.0
 11
744.7060039150277
 21
982.1313645175862
 31
0.0
  0
ENDBLK
  5
14B12
330
14BC5
100
AcDbEntity
  8
0
100
AcDbBlockEnd
  0
BLOCK
  5
14C08
330
14BFE
100
AcDbEntity
  8
0
100
AcDbBlockBegin
  2
*D10
 70
     1
 10
0.0
 20
0.0
 30
0.0
  3
*D10
  1

  0
LINE
  5
14BFF
330
14BFE
100
AcDbEntity
  8
BEM
 62
     0
370
    -2
100
AcDbLine
 10
430.8911705804336
 20
1066.275666189393
 30
0.0
 11
401.9133957917617
 21
1074.040237542469
 31
0.0
  0
LINE
  5
14C00
330
14BFE
100
AcDbEntity
  8
BEM
 62
     0
370
    -2
100
AcDbLine
 10
558.3348347055659
 20
916.1751455370731
 30
0.0
 11
372.9253723493798
 21
965.8554612445021
 31
0.0
  0
LINE
  5
14C01
330
14BFE
100
AcDbEntity
  8
BEM
 62
     0
370
    -2
100
AcDbLine
 10
402.2136916339129
 20
1055.842440356898
 30
0.0
 11
382.2843347701192
 21
981.4650679790482
 31
0.0
  0
SOLID
  5
14C02
330
14BFE
100
AcDbEntity
  8
BEM
 62
     0
100
AcDbTrace
 10
399.3964079739031
 20
1056.597329238447
 30
0.0
 11
405.0309752939226
 21
1055.087551475349
 31
0.0
 12
406.743024923207
 22
1072.746142316956
 32
0.0
 13
406.743024923207
 23
1072.746142316956
 33
0.0
  0
SOLID
  5
14C03
330
14BFE
100
AcDbEntity
  8
BEM
 62
     0
100
AcDbTrace
 10
379.4670511101094
 20
982.219956860597
 30
0.0
 11
385.101618430129
 21
980.7101790974991
 31
0.0
 12
377.7550014808252
 22
964.5613660189894
 32
0.0
 13
377.7550014808252
 23
964.5613660189894
 33
0.0
  0
MTEXT
  5
14C04
330
14BFE
100
AcDbEntity
  8
BEM
 62
     1
100
AcDbMText
 10
376.5527185248187
 20
1022.859563650889
 30
0.0
 40
17.5
 41
0.0
 71
     5
 72
     1
  1
\A1;112
  7
GREEKS
 11
0.2588190451025207
 21
0.9659258262890682
 31
0.0
 73
     1
 44
1.0
  0
POINT
  5
14C05
330
14BFE
100
AcDbEntity
  8
DEFPOINTS
 62
     0
100
AcDbPoint
 10
435.720799711879
 20
1064.981570963881
 30
0.0
  0
POINT
  5
14C06
330
14BFE
100
AcDbEntity
  8
DEFPOINTS
 62
     0
100
AcDbPoint
 10
563.1644638370113
 20
914.8810503115607
 30
0.0
  0
POINT
  5
14C07
330
14BFE
100
AcDbEntity
  8
DEFPOINTS
 62
     0
100
AcDbPoint
 10
377.7550014808252
 20
964.5613660189894
 30
0.0
  0
ENDBLK
  5
14C09
330
14BFE
100
AcDbEntity
  8
0
100
AcDbBlockEnd
  0
BLOCK
  5
14C14
330
14C0A
100
AcDbEntity
  8
0
100
AcDbBlockBegin
  2
*D11
 70
     1
 10
0.0
 20
0.0
 30
0.0
  3
*D11
  1

  0
LINE
  5
14C0B
330
14C0A
100
AcDbEntity
  8
BEM
 62
     0
370
    -2
100
AcDbLine
 10
396.2144638370115
 20
802.8799283272819
 30
0.0
 11
366.2144638370115
 21
802.8799283272819
 31
0.0
  0
LINE
  5
14C0C
330
14C0A
100
AcDbEntity
  8
BEM
 62
     0
370
    -2
100
AcDbLine
 10
558.1644638370113
 20
914.8810503115605
 30
0.0
 11
366.2144638370115
 21
914.8810503115605
 31
0.0
  0
LINE
  5
14C0D
330
14C0A
100
AcDbEntity
  8
BEM
 62
     0
370
    -2
100
AcDbLine
 10
371.2144638370115
 20
820.379928327282
 30
0.0
 11
371.2144638370115
 21
897.3810503115606
 31
0.0
  0
SOLID
  5
14C0E
330
14C0A
100
AcDbEntity
  8
BEM
 62
     0
100
AcDbTrace
 10
368.2977971703448
 20
820.379928327282
 30
0.0
 11
374.1311305036782
 21
820.379928327282
 31
0.0
 12
371.2144638370115
 22
802.8799283272819
 32
0.0
 13
371.2144638370115
 23
802.8799283272819
 33
0.0
  0
SOLID
  5
14C0F
330
14C0A
100
AcDbEntity
  8
BEM
 62
     0
100
AcDbTrace
 10
368.2977971703448
 20
897.3810503115606
 30
0.0
 11
374.1311305036782
 21
897.3810503115606
 31
0.0
 12
371.2144638370115
 22
914.8810503115605
 32
0.0
 13
371.2144638370115
 23
914.8810503115605
 33
0.0
  0
MTEXT
  5
14C10
330
14C0A
100
AcDbEntity
  8
BEM
 62
     1
100
AcDbMText
 10
354.9644638370113
 20
858.8804893194213
 30
0.0
 40
17.5
 41
0.0
 71
     5
 72
     1
  1
\A1;112
  7
GREEKS
 11
0.0000000000000001
 21
1.0
 31
0.0
 73
     1
 44
1.0
  0
POINT
  5
14C11
330
14C0A
100
AcDbEntity
  8
DEFPOINTS
 62
     0
100
AcDbPoint
 10
401.2144638370115
 20
802.8799283272819
 30
0.0
  0
POINT
  5
14C12
330
14C0A
100
AcDbEntity
  8
DEFPOINTS
 62
     0
100
AcDbPoint
 10
563.1644638370113
 20
914.8810503115605
 30
0.0
  0
POINT
  5
14C13
330
14C0A
100
AcDbEntity
  8
DEFPOINTS
 62
     0
100
AcDbPoint
 10
371.2144638370115
 20
914.8810503115605
 30
0.0
  0
ENDBLK
  5
14C15
330
14C0A
100
AcDbEntity
  8
0
100
AcDbBlockEnd
  0
BLOCK
  5
14C56
330
14C4C
100
AcDbEntity
  8
0
100
AcDbBlockBegin
  2
*D12
 70
     1
 10
0.0
 20
0.0
 30
0.0
  3
*D12
  1

  0
LINE
  5
14C61
330
14C4C
100
AcDbEntity
  8
BEM
 62
     0
370
    -2
100
AcDbLine
 10
401.2144638370115
 20
797.8799283272817
 30
0.0
 11
401.2144638370115
 21
749.0502335681367
 31
0.0
  0
LINE
  5
14C62
330
14C4C
100
AcDbEntity
  8
BEM
 62
     0
370
    -2
100
AcDbLine
 10
725.1144638370111
 20
797.8799283272817
 30
0.0
 11
725.1144638370111
 21
749.0502335681367
 31
0.0
  0
LINE
  5
14C63
330
14C4C
100
AcDbEntity
  8
BEM
 62
     0
370
    -2
100
AcDbLine
 10
418.7144638370114
 20
754.0502335681367
 30
0.0
 11
707.6144638370111
 21
754.0502335681367
 31
0.0
  0
SOLID
  5
14C64
330
14C4C
100
AcDbEntity
  8
BEM
 62
     0
100
AcDbTrace
 10
418.7144638370114
 20
756.9669002348033
 30
0.0
 11
418.7144638370114
 21
751.1335669014701
 31
0.0
 12
401.2144638370115
 22
754.0502335681367
 32
0.0
 13
401.2144638370115
 23
754.0502335681367
 33
0.0
  0
SOLID
  5
14C65
330
14C4C
100
AcDbEntity
  8
BEM
 62
     0
100
AcDbTrace
 10
707.6144638370111
 20
756.9669002348033
 30
0.0
 11
707.6144638370111
 21
751.1335669014701
 31
0.0
 12
725.1144638370111
 22
754.0502335681367
 32
0.0
 13
725.1144638370111
 23
754.0502335681367
 33
0.0
  0
MTEXT
  5
14C66
330
14C4C
100
AcDbEntity
  8
BEM
 62
     1
100
AcDbMText
 10
563.1644638370113
 20
770.3002335681367
 30
0.0
 40
17.5
 41
0.0
 71
     5
 72
     1
  1
\A1;%%c324
  7
GREEKS
 73
     1
 44
1.0
  0
POINT
  5
14C67
330
14C4C
100
AcDbEntity
  8
DEFPOINTS
 62
     0
100
AcDbPoint
 10
401.2144638370115
 20
802.8799283272817
 30
0.0
  0
POINT
  5
14C68
330
14C4C
100
AcDbEntity
  8
DEFPOINTS
 62
     0
100
AcDbPoint
 10
725.1144638370111
 20
802.8799283272817
 30
0.0
  0
POINT
  5
14C69
330
14C4C
100
AcDbEntity
  8
DEFPOINTS
 62
     0
100
AcDbPoint
 10
725.1144638370111
 20
754.0502335681367
 30
0.0
  0
ENDBLK
  5
14C57
330
14C4C
100
AcDbEntity
  8
0
100
AcDbBlockEnd
  0
ENDSEC
  0
SECTION
  2
ENTITIES
  0
DIMENSION
  5
14B16
330
14BB5
100
AcDbEntity
  8
BEM
100
AcDbDimension
  2
*D10
 10
377.7550014808252
 20
964.5613660189894
 30
0.0
 11
376.5527185248187
 21
1022.859563650889
 31
0.0
 70
    32
 71
     5
 42
112.0011219842786
  3
Standard
100
AcDbAlignedDimension
 13
435.720799711879
 23
1064.981570963881
 33
0.0
 14
563.1644638370113
 24
914.8810503115608
 34
0.0
 50
75.0
100
AcDbRotatedDimension
1001
ACAD
1000
DSTYLE
1002
{
1070
    40
1040
5.0
1070
    41
1040
3.5
1070
    42
1040
1.0
1070
    43
1040
7.0
1070
    44
1040
1.0
1070
    47
1040
3.0
1070
    48
1040
3.0
1070
    73
1070
     0
1070
    74
1070
     0
1070
    77
1070
     1
1070
    78
1070
     8
1070
    79
1070
     2
1070
   140
1040
3.5
1070
   141
1040
1.5
1070
   146
1040
0.5
1070
   147
1040
1.5
1070
   172
1070
     1
1070
   178
1070
     1
1070
   179
1070
     2
1070
   271
1070
     2
1070
   272
1070
     2
1070
   284
1070
     8
1070
   285
1070
     8
1070
   286
1070
     8
1070
   340
1005
14BC6
1002
}
  0
DIMENSION
  5
14B17
330
14BB5
100
AcDbEntity
  8
BEM
100
AcDbDimension
  2
*D11
 10
371.2144638370115
 20
914.8810503115605
 30
0.0
 11
354.9644638370113
 21
858.8804893194213
 31
0.0
 70
    32
 71
     5
 42
112.0011219842786
  3
Standard
100
AcDbAlignedDimension
 13
401.2144638370115
 23
802.8799283272819
 33
0.0
 14
563.1644638370113
 24
914.8810503115605
 34
0.0
 50
90.0
100
AcDbRotatedDimension
1001
ACAD
1000
DSTYLE
1002
{
1070
    40
1040
5.0
1070
    41
1040
3.5
1070
    42
1040
1.0
1070
    43
1040
7.0
1070
    44
1040
1.0
1070
    47
1040
3.0
1070
    48
1040
3.0
1070
    73
1070
     0
1070
    74
1070
     0
1070
    77
1070
     1
1070
    78
1070
     8
1070
    79
1070
     2
1070
   140
1040
3.5
1070
   141
1040
1.5
1070
   146
1040
0.5
1070
   147
1040
1.5
1070
   172
1070
     1
1070
   178
1070
     1
1070
   179
1070
     2
1070
   271
1070
     2
1070
   272
1070
     2
1070
   284
1070
     8
1070
   285
1070
     8
1070
   286
1070
     8
1070
   340
1005
14BC6
1002
}
  0
LINE
  5
14B18
330
14BB5
100
AcDbEntity
  8
STEMPEL
100
AcDbLine
 10
748.5841748469077
 20
981.1500822551742
 30
0.0
 11
435.7207997118788
 21
1064.981570963881
 31
0.0
  0
LINE
  5
14B19
330
14BB5
100
AcDbEntity
  8
STEMPEL
100
AcDbLine
 10
725.1144638370109
 20
893.5599283272818
 30
0.0
 11
401.2144638370115
 21
936.2021722958393
 31
0.0
  0
DIMENSION
  5
14B1A
330
14BB5
100
AcDbEntity
  8
BEM
100
AcDbDimension
  2
*D12
 10
725.1144638370111
 20
754.0502335681367
 30
0.0
 11
563.1644638370113
 21
770.3002335681367
 31
0.0
 70
    32
  1
%%c324
 71
     5
 42
323.8999999999996
  3
Standard
100
AcDbAlignedDimension
 13
401.2144638370115
 23
802.8799283272817
 33
0.0
 14
725.1144638370111
 24
802.8799283272817
 34
0.0
100
AcDbRotatedDimension
1001
ACAD
1000
DSTYLE
1002
{
1070
    40
1040
5.0
1070
    41
1040
3.5
1070
    42
1040
1.0
1070
    43
1040
7.0
1070
    44
1040
1.0
1070
    47
1040
3.0
1070
    48
1040
3.0
1070
    73
1070
     0
1070
    74
1070
     0
1070
    77
1070
     1
1070
    78
1070
     8
1070
    79
1070
     2
1070
   140
1040
3.5
1070
   141
1040
1.5
1070
   146
1040
0.5
1070
   147
1040
1.5
1070
   172
1070
     1
1070
   178
1070
     1
1070
   179
1070
     2
1070
   271
1070
     2
1070
   272
1070
     2
1070
   284
1070
     8
1070
   285
1070
     8
1070
   286
1070
     8
1070
   340
1005
14BC6
1002
}
  0
LINE
  5
14B1B
330
14BB5
100
AcDbEntity
  8
STEMPEL
100
AcDbLine
 10
725.1144638370111
 20
802.8799283272819
 30
0.0
 11
401.2144638370115
 21
802.8799283272819
 31
0.0
  0
TEXT
  5
14B1C
330
14BB5
100
AcDbEntity
  8
TEXT
 62
     1
100
AcDbText
 10
273.9036994186759
 20
439.8504167589382
 30
0.0
 40
17.5
  1
Rohrenden leicht entgratet
 41
0.8
  7
GREEKS
100
AcDbText
  0
INSERT
  5
14B1D
330
14BB5
100
AcDbEntity
  8
STEMPEL
100
AcDbBlockReference
  2
LOGO
 10
377.4888713644485
 20
112.552631911208
 30
0.0
 41
5.0
 42
5.0
 43
5.0
  0
LINE
  5
14B1E
330
14BB5
100
AcDbEntity
  8
HILF
100
AcDbLine
 10
1050.0
 20
0.0
 30
0.0
 11
0.0
 21
0.0
 31
0.0
  0
LINE
  5
14B1F
330
14BB5
100
AcDbEntity
  8
STEMPEL
100
AcDbLine
 10
1025.0
 20
25.0
 30
0.0
 11
99.99999999999971
 21
25.0
 31
0.0
  0
LINE
  5
14B20
330
14BB5
100
AcDbEntity
  8
STEMPEL
100
AcDbLine
 10
124.9999999999997
 20
25.0
 30
0.0
 11
1025.0
 21
25.0
 31
0.0
  0
LINE
  5
14B21
330
14BB5
100
AcDbEntity
  8
HILF
100
AcDbLine
 10
365.0000000000003
 20
124.9999999999999
 30
0.0
 11
575.0
 21
124.9999999999999
 31
0.0
  0
LINE
  5
14B22
330
14BB5
100
AcDbEntity
  8
HILF
100
AcDbLine
 10
365.0000000000003
 20
149.9999999999999
 30
0.0
 11
575.0
 21
149.9999999999999
 31
0.0
  0
LINE
  5
14B23
330
14BB5
100
AcDbEntity
  8
HILF
100
AcDbLine
 10
365.0000000000003
 20
174.9999999999998
 30
0.0
 11
575.0
 21
174.9999999999998
 31
0.0
  0
LINE
  5
14B24
330
14BB5
100
AcDbEntity
  8
STEMPEL
100
AcDbLine
 10
1025.0
 20
200.0
 30
0.0
 11
365.0000000000003
 21
199.9999999999998
 31
0.0
  0
LINE
  5
14B25
330
14BB5
100
AcDbEntity
  8
STEMPEL
100
AcDbLine
 10
1025.0
 20
100.0
 30
0.0
 11
365.0000000000003
 21
99.99999999999992
 31
0.0
  0
LINE
  5
14B26
330
14BB5
100
AcDbEntity
  8
STEMPEL
100
AcDbLine
 10
1025.0
 20
275.0000000000001
 30
0.0
 11
99.99999999999992
 21
275.0
 31
0.0
  0
TEXT
  5
14B27
330
14BB5
100
AcDbEntity
  8
TEXT
100
AcDbText
 10
511.0540121453142
 20
157.7240979930877
 30
0.0
 40
10.0
  1
Koeh
 41
0.8
  7
GREEKS
 72
     1
 11
524.1968692881714
 21
157.7240979930877
 31
0.0
100
AcDbText
  0
TEXT
  5
14B28
330
14BB5
100
AcDbEntity
  8
TEXT
100
AcDbText
 10
485.7147386835128
 20
256.0460421087048
 30
0.0
 40
12.5
  1
Zul. Abw.
 41
0.8
  7
GREEKS
100
AcDbText
  0
TEXT
  5
14B29
330
14BB5
100
AcDbEntity
  8
TEXT
100
AcDbText
 10
506.1566460565737
 20
183.2740272978806
 30
0.0
 40
10.0
  1
Name
 41
0.8
  7
GREEKS
100
AcDbText
  0
TEXT
  5
14B2B
330
14BB5
100
AcDbEntity
  8
TEXT
 62
     1
100
AcDbText
 10
471.7846544748148
 20
351.64847138984
 30
0.0
 40
17.5
  1
Werkstoff: EN 10219 S235
 41
0.8
  7
GREEKS
100
AcDbText
  0
LINE
  5
14B2C
330
14BB5
100
AcDbEntity
  8
HILF
100
AcDbLine
 10
1050.0
 20
1485.0
 30
0.0
 11
0.0
 21
1485.0
 31
0.0
  0
LINE
  5
14B2D
330
14BB5
100
AcDbEntity
  8
STEMPEL
100
AcDbLine
 10
1025.0
 20
1460.0
 30
0.0
 11
99.99999999999971
 21
1460.0
 31
0.0
  0
LINE
  5
14B2E
330
14BB5
100
AcDbEntity
  8
HILF
100
AcDbLine
 10
0.0
 20
0.0
 30
0.0
 11
-0.0000000000002842
 21
1485.0
 31
0.0
  0
LINE
  5
14B2F
330
14BB5
100
AcDbEntity
  8
STEMPEL
100
AcDbLine
 10
100.0
 20
25.0
 30
0.0
 11
99.99999999999971
 21
1460.0
 31
0.0
  0
TEXT
  5
14B30
330
14BB5
100
AcDbEntity
  8
TEXT
100
AcDbText
 10
104.6377487744418
 20
279.1799999999999
 30
0.0
 40
12.5
  1
Erstellt mit AUTOCAD 2004
 41
0.8
  7
GREEKS
100
AcDbText
  0
TEXT
  5
14B31
330
14BB5
100
AcDbEntity
  8
TEXT
100
AcDbText
 10
170.8791740339942
 20
46.68454737460329
 30
0.0
 40
10.0
  1
Änderung
 41
0.8
  7
GREEKS
 72
     1
 11
197.7363168911371
 21
46.68454737460329
 31
0.0
100
AcDbText
  0
LINE
  5
14B32
330
14BB5
100
AcDbEntity
  8
HILF
100
AcDbLine
 10
100.0000000000002
 20
99.99999999999992
 30
0.0
 11
365.0000000000003
 21
99.99999999999992
 31
0.0
  0
LINE
  5
14B33
330
14BB5
100
AcDbEntity
  8
HILF
100
AcDbLine
 10
100.0000000000002
 20
124.9999999999999
 30
0.0
 11
365.0000000000003
 21
124.9999999999999
 31
0.0
  0
LINE
  5
14B34
330
14BB5
100
AcDbEntity
  8
HILF
100
AcDbLine
 10
100.0000000000002
 20
149.9999999999999
 30
0.0
 11
365.0000000000003
 21
149.9999999999999
 31
0.0
  0
LINE
  5
14B35
330
14BB5
100
AcDbEntity
  8
HILF
100
AcDbLine
 10
100.0000000000002
 20
174.9999999999998
 30
0.0
 11
365.0000000000003
 21
174.9999999999998
 31
0.0
  0
LINE
  5
14B36
330
14BB5
100
AcDbEntity
  8
HILF
100
AcDbLine
 10
100.0000000000002
 20
199.9999999999998
 30
0.0
 11
365.0000000000003
 21
199.9999999999998
 31
0.0
  0
LINE
  5
14B37
330
14BB5
100
AcDbEntity
  8
HILF
100
AcDbLine
 10
100.0000000000002
 20
225.0000000000001
 30
0.0
 11
365.0000000000003
 21
225.0000000000001
 31
0.0
  0
LINE
  5
14B38
330
14BB5
100
AcDbEntity
  8
HILF
100
AcDbLine
 10
100.0000000000002
 20
250.0000000000001
 30
0.0
 11
365.0000000000003
 21
250.0000000000001
 31
0.0
  0
LINE
  5
14B39
330
14BB5
100
AcDbEntity
  8
STEMPEL
100
AcDbLine
 10
364.9999999999997
 20
74.99999999999992
 30
0.0
 11
99.99999999999992
 21
74.99999999999992
 31
0.0
  0
TEXT
  5
14B3A
330
14BB5
100
AcDbEntity
  8
TEXT
100
AcDbText
 10
120.6660276761439
 20
34.13664615067979
 30
0.0
 40
10.0
  1
Index
 50
90.0
 41
0.8
  7
GREEKS
100
AcDbText
  0
LINE
  5
14B3B
330
14BB5
100
AcDbEntity
  8
VOLL
100
AcDbLine
 10
135.0000000000002
 20
275.0000000000001
 30
0.0
 11
134.9999999999999
 21
24.99999999999993
 31
0.0
  0
LINE
  5
14B3C
330
14BB5
100
AcDbEntity
  8
HILF
100
AcDbLine
 10
77.7191783928464
 20
742.5000000000001
 30
0.0
 11
0.0000000000002842
 21
742.5000000000001
 31
0.0
  0
TEXT
  5
14B3D
330
14BB5
100
AcDbEntity
  8
TEXT
100
AcDbText
 10
275.2764282932893
 20
46.67890673349525
 30
0.0
 40
10.0
  1
Tag
 41
0.8
  7
GREEKS
 72
     1
 11
284.6097616266226
 21
46.67890673349525
 31
0.0
100
AcDbText
  0
LINE
  5
14B3E
330
14BB5
100
AcDbEntity
  8
VOLL
100
AcDbLine
 10
310.0000000000003
 20
274.9999999999999
 30
0.0
 11
310.0
 21
24.99999999999993
 31
0.0
  0
LINE
  5
14B3F
330
14BB5
100
AcDbEntity
  8
VOLL
100
AcDbLine
 10
260.0000000000003
 20
274.9999999999999
 30
0.0
 11
260.0
 21
24.99999999999993
 31
0.0
  0
TEXT
  5
14B40
330
14BB5
100
AcDbEntity
  8
TEXT
100
AcDbText
 10
323.235869436516
 20
46.4831054241602
 30
0.0
 40
10.0
  1
Name
 41
0.8
  7
GREEKS
 72
     1
 11
339.0453932460397
 21
46.4831054241602
 31
0.0
100
AcDbText
  0
LINE
  5
14B41
330
14BB5
100
AcDbEntity
  8
STEMPEL
100
AcDbLine
 10
365.0000000000003
 20
274.9999999999999
 30
0.0
 11
365.0
 21
24.99999999999993
 31
0.0
  0
TEXT
  5
14B42
330
14BB5
100
AcDbEntity
  8
TEXT
100
AcDbText
 10
425.9974927705902
 20
157.7691260206433
 30
0.0
 40
10.0
  1
06.04.
 41
0.8
  7
GREEKS
 72
     1
 11
443.5213022943996
 21
157.7691260206433
 31
0.0
100
AcDbText
  0
TEXT
  5
14B43
330
14BB5
100
AcDbEntity
  8
TEXT
100
AcDbText
 10
430.8279182884127
 20
183.2970125307481
 30
0.0
 40
10.0
  1
Tag
 41
0.8
  7
GREEKS
100
AcDbText
  0
TEXT
  5
14B44
330
14BB5
100
AcDbEntity
  8
TEXT
100
AcDbText
 10
368.9590317919039
 20
159.0747592404491
 30
0.0
 40
10.0
  1
Gez.
 41
0.8
  7
GREEKS
100
AcDbText
  0
LINE
  5
14B45
330
14BB5
100
AcDbEntity
  8
VOLL
100
AcDbLine
 10
410.0000000000003
 20
199.9999999999998
 30
0.0
 11
410.0000000000003
 21
99.99999999999992
 31
0.0
  0
TEXT
  5
14B46
330
14BB5
100
AcDbEntity
  8
TEXT
100
AcDbText
 10
368.8787716429181
 20
134.2231572857094
 30
0.0
 40
10.0
  1
Gepr.
 41
0.8
  7
GREEKS
100
AcDbText
  0
TEXT
  5
14B47
330
14BB5
100
AcDbEntity
  8
TEXT
100
AcDbText
 10
369.0016943468259
 20
108.8236597412452
 30
0.0
 40
10.0
  1
Norm.
 41
0.8
  7
GREEKS
100
AcDbText
  0
TEXT
  5
14B48
330
14BB5
100
AcDbEntity
  8
TEXT
 62
     1
100
AcDbText
 10
401.2515766204717
 20
220.372535722849
 30
0.0
 40
17.5
  1
1:5
 41
0.8
  7
GREEKS
100
AcDbText
  0
TEXT
  5
14B49
330
14BB5
100
AcDbEntity
  8
TEXT
100
AcDbText
 10
383.7908930375943
 20
256.1552237717722
 30
0.0
 40
12.5
  1
Maßstab
 41
0.8
  7
GREEKS
100
AcDbText
  0
TEXT
  5
14B4A
330
14BB5
100
AcDbEntity
  8
TEXT
100
AcDbText
 10
371.55527455526
 20
182.8506367787916
 30
0.0
 40
10.0
  1
2011
 41
0.8
  7
GREEKS
100
AcDbText
  0
LINE
  5
14B4B
330
14BB5
100
AcDbEntity
  8
VOLL
100
AcDbLine
 10
475.0000000000002
 20
274.9999999999996
 30
0.0
 11
475.0
 21
99.99999999999992
 31
0.0
  0
LINE
  5
14B4C
330
14BB5
100
AcDbEntity
  8
STEMPEL
100
AcDbLine
 10
401.2144638370115
 20
936.2021722958393
 30
0.0
 11
435.7207997118788
 21
1064.981570963881
 31
0.0
  0
ARC
  5
14B4D
330
14BB5
100
AcDbEntity
  8
SCHRAFF
100
AcDbCircle
 10
437.8132509767789
 20
931.2502879847233
 30
0.0
 40
5.705091079773839
100
AcDbArc
 50
307.9824135024093
 51
37.01758649759066
  0
LINE
  5
14B4E
330
14BB5
100
AcDbEntity
  8
STEMPEL
100
AcDbLine
 10
401.2144638370115
 20
936.2021722958393
 30
0.0
 11
401.2144638370115
 21
802.8799283272819
 31
0.0
  0
INSERT
  5
14B4F
330
14BB5
100
AcDbEntity
  8
SCHRAFF
100
AcDbBlockReference
  2
*X6
 10
0.0
 20
0.0
 30
0.0
1001
ACAD
1000
HATCH
1002
{
1070
    16
1000
_U,I
1040
0.1
1040
0.0
1070
     0
1002
}
  0
ARC
  5
14B50
330
14BB5
100
AcDbEntity
  8
SCHRAFF
100
AcDbCircle
 10
404.065375892884
 20
935.8268426032816
 30
0.0
 40
4.638678996108427
100
AcDbArc
 50
112.9225472999067
 51
232.0774527000941
  0
ARC
  5
14B51
330
14BB5
100
AcDbEntity
  8
SCHRAFF
100
AcDbCircle
 10
417.9843537493028
 20
933.8608118291245
 30
0.0
 40
5.705091079773839
100
AcDbArc
 50
307.9824135024093
 51
37.01758649759066
  0
ARC
  5
14B52
330
14BB5
100
AcDbEntity
  8
SCHRAFF
100
AcDbCircle
 10
398.8240139864203
 20
936.5168809890272
 30
0.0
 40
5.705091079773839
100
AcDbArc
 50
307.9824135024093
 51
37.01758649759066
  0
ARC
  5
14B53
330
14BB5
100
AcDbEntity
  8
SCHRAFF
100
AcDbCircle
 10
403.7812382932892
 20
935.864250027927
 30
0.0
 40
5.705091079773839
100
AcDbArc
 50
307.9824135024093
 51
37.01758649759066
  0
ARC
  5
14B54
330
14BB5
100
AcDbEntity
  8
SCHRAFF
100
AcDbCircle
 10
408.7384626001582
 20
935.2116190668267
 30
0.0
 40
5.705091079773839
100
AcDbArc
 50
307.9824135024093
 51
37.01758649759066
  0
ARC
  5
14B55
330
14BB5
100
AcDbEntity
  8
SCHRAFF
100
AcDbCircle
 10
413.0271294424336
 20
934.5134427902246
 30
0.0
 40
5.705091079773839
100
AcDbArc
 50
307.9824135024093
 51
37.01758649759066
  0
ARC
  5
14B56
330
14BB5
100
AcDbEntity
  8
SCHRAFF
100
AcDbCircle
 10
427.898802363041
 20
932.5555499069238
 30
0.0
 40
5.705091079773839
100
AcDbArc
 50
307.9824135024093
 51
37.01758649759066
  0
ARC
  5
14B57
330
14BB5
100
AcDbEntity
  8
SCHRAFF
100
AcDbCircle
 10
422.9415780561717
 20
933.2081808680241
 30
0.0
 40
5.705091079773839
100
AcDbArc
 50
307.9824135024093
 51
37.01758649759066
  0
ARC
  5
14B58
330
14BB5
100
AcDbEntity
  8
SCHRAFF
100
AcDbCircle
 10
432.8560266699099
 20
931.9029189458236
 30
0.0
 40
5.705091079773839
100
AcDbArc
 50
307.9824135024093
 51
37.01758649759066
  0
ARC
  5
14B59
330
14BB5
100
AcDbEntity
  8
SCHRAFF
100
AcDbCircle
 10
457.6421482042552
 20
928.6397641403222
 30
0.0
 40
5.705091079773839
100
AcDbArc
 50
307.9824135024093
 51
37.01758649759066
  0
ARC
  5
14B5A
330
14BB5
100
AcDbEntity
  8
SCHRAFF
100
AcDbCircle
 10
447.727699590517
 20
929.9450260625224
 30
0.0
 40
5.705091079773839
100
AcDbArc
 50
307.9824135024093
 51
37.01758649759066
  0
ARC
  5
14B5B
330
14BB5
100
AcDbEntity
  8
SCHRAFF
100
AcDbCircle
 10
442.7704752836478
 20
930.5976570236232
 30
0.0
 40
5.705091079773839
100
AcDbArc
 50
307.9824135024093
 51
37.01758649759066
  0
ARC
  5
14B5C
330
14BB5
100
AcDbEntity
  8
SCHRAFF
100
AcDbCircle
 10
452.6849238973863
 20
929.2923951014227
 30
0.0
 40
5.705091079773839
100
AcDbArc
 50
307.9824135024093
 51
37.01758649759066
  0
ARC
  5
14B5D
330
14BB5
100
AcDbEntity
  8
SCHRAFF
100
AcDbCircle
 10
467.5565968179931
 20
927.3345022181219
 30
0.0
 40
5.705091079773839
100
AcDbArc
 50
307.9824135024093
 51
37.01758649759066
  0
ARC
  5
14B5E
330
14BB5
100
AcDbEntity
  8
SCHRAFF
100
AcDbCircle
 10
462.5993725111244
 20
927.9871331792222
 30
0.0
 40
5.705091079773839
100
AcDbArc
 50
307.9824135024093
 51
37.01758649759066
  0
ARC
  5
14B5F
330
14BB5
100
AcDbEntity
  8
SCHRAFF
100
AcDbCircle
 10
477.4710454317313
 20
926.029240295921
 30
0.0
 40
5.705091079773839
100
AcDbArc
 50
307.9824135024093
 51
37.01758649759066
  0
ARC
  5
14B60
330
14BB5
100
AcDbEntity
  8
SCHRAFF
100
AcDbCircle
 10
472.5138211248621
 20
926.6818712570216
 30
0.0
 40
5.705091079773839
100
AcDbArc
 50
307.9824135024093
 51
37.01758649759066
  0
ARC
  5
14B61
330
14BB5
100
AcDbEntity
  8
SCHRAFF
100
AcDbCircle
 10
517.1288398866837
 20
920.8081926071191
 30
0.0
 40
5.705091079773839
100
AcDbArc
 50
307.9824135024093
 51
37.01758649759066
  0
ARC
  5
14B62
330
14BB5
100
AcDbEntity
  8
SCHRAFF
100
AcDbCircle
 10
482.4282697386003
 20
925.3766093348213
 30
0.0
 40
5.705091079773839
100
AcDbArc
 50
307.9824135024093
 51
37.01758649759066
  0
ARC
  5
14B63
330
14BB5
100
AcDbEntity
  8
SCHRAFF
100
AcDbCircle
 10
487.3854940454697
 20
924.7239783737205
 30
0.0
 40
5.705091079773839
100
AcDbArc
 50
307.9824135024093
 51
37.01758649759066
  0
ARC
  5
14B64
330
14BB5
100
AcDbEntity
  8
SCHRAFF
100
AcDbCircle
 10
497.2999426592076
 20
923.41871645152
 30
0.0
 40
5.705091079773839
100
AcDbArc
 50
307.9824135024093
 51
37.01758649759066
  0
ARC
  5
14B65
330
14BB5
100
AcDbEntity
  8
SCHRAFF
100
AcDbCircle
 10
492.3427183523385
 20
924.0713474126202
 30
0.0
 40
5.705091079773839
100
AcDbArc
 50
307.9824135024093
 51
37.01758649759066
  0
ARC
  5
14B66
330
14BB5
100
AcDbEntity
  8
SCHRAFF
100
AcDbCircle
 10
507.2143912729457
 20
922.1134545293196
 30
0.0
 40
5.705091079773839
100
AcDbArc
 50
307.9824135024093
 51
37.01758649759066
  0
ARC
  5
14B67
330
14BB5
100
AcDbEntity
  8
SCHRAFF
100
AcDbCircle
 10
502.2571669660766
 20
922.7660854904197
 30
0.0
 40
5.705091079773839
100
AcDbArc
 50
307.9824135024093
 51
37.01758649759066
  0
ARC
  5
14B68
330
14BB5
100
AcDbEntity
  8
SCHRAFF
100
AcDbCircle
 10
512.1716155798146
 20
921.4608235682192
 30
0.0
 40
5.705091079773839
100
AcDbArc
 50
307.9824135024093
 51
37.01758649759066
  0
LINE
  5
14B6A
330
14BB5
100
AcDbEntity
  8
HILF
100
AcDbLine
 10
1050.0
 20
-0.0000000000002842
 30
0.0
 11
1050.0
 21
1485.0
 31
0.0
  0
LINE
  5
14B6B
330
14BB5
100
AcDbEntity
  8
STEMPEL
100
AcDbLine
 10
1025.0
 20
25.0
 30
0.0
 11
1025.0
 21
1460.0
 31
0.0
  0
LINE
  5
14B6C
330
14BB5
100
AcDbEntity
  8
HILF
100
AcDbLine
 10
583.7274248224712
 20
37.23495645070784
 30
0.0
 11
1012.147209831682
 21
37.23495645070784
 31
0.0
  0
TEXT
  5
14B6D
330
14BB5
100
AcDbEntity
  8
TEXT
100
AcDbText
 10
843.1002153742515
 20
130.185404446965
 30
0.0
 40
12.5
  1
ersetzt durch:
 41
0.8
  7
GREEKS
100
AcDbText
  0
TEXT
  5
14B6E
330
14BB5
100
AcDbEntity
  8
TEXT
100
AcDbText
 10
841.8096540742482
 20
182.9529559274992
 30
0.0
 40
12.5
  1
Ersatz für:
 41
0.8
  7
GREEKS
100
AcDbText
  0
TEXT
  5
14B6F
330
14BB5
100
AcDbEntity
  8
TEXT
100
AcDbText
 10
840.4468873940851
 20
255.7830086342841
 30
0.0
 40
12.5
  1
Zeichnungs Nr.
 41
0.8
  7
GREEKS
100
AcDbText
  0
LINE
  5
14B70
330
14BB5
100
AcDbEntity
  8
HILF
100
AcDbLine
 10
841.8096540742482
 20
209.4495909238957
 30
0.0
 11
1012.147209831682
 21
209.4495909238957
 31
0.0
  0
LINE
  5
14B71
330
14BB5
100
AcDbEntity
  8
VOLL
100
AcDbLine
 10
830.0
 20
150.0
 30
0.0
 11
1025.0
 21
150.0
 31
0.0
  0
TEXT
  5
14B72
330
14BB5
100
AcDbEntity
  8
TEXT
 62
     1
100
AcDbText
 10
591.7846544748149
 20
321.64847138984
 30
0.0
 40
17.5
  1
feuerverzinkt und innen beschichtet
 41
0.8
  7
GREEKS
100
AcDbText
  0
LINE
  5
14B73
330
14BB5
100
AcDbEntity
  8
HILF
100
AcDbLine
 10
586.9342002742369
 20
124.9999999999999
 30
0.0
 11
812.0884791390775
 21
124.9999999999999
 31
0.0
  0
LINE
  5
14B74
330
14BB5
100
AcDbEntity
  8
HILF
100
AcDbLine
 10
586.9342002742369
 20
149.9999999999999
 30
0.0
 11
812.0884791390775
 21
149.9999999999999
 31
0.0
  0
LINE
  5
14B75
330
14BB5
100
AcDbEntity
  8
HILF
100
AcDbLine
 10
586.9342002742369
 20
174.9999999999998
 30
0.0
 11
812.0884791390775
 21
174.9999999999998
 31
0.0
  0
LINE
  5
14B76
330
14BB5
100
AcDbEntity
  8
HILF
100
AcDbLine
 10
586.9342002742369
 20
210.0939561891034
 30
0.0
 11
812.0884791390777
 21
210.0939561891034
 31
0.0
  0
TEXT
  5
14B77
330
14BB5
100
AcDbEntity
  8
TEXT
 62
     1
100
AcDbText
 10
587.207320850568
 20
218.5437197313445
 30
0.0
 40
17.5
  1
Bogen 15%%d DN300
 41
0.8
  7
GREEKS
100
AcDbText
  0
LINE
  5
14B78
330
14BB5
100
AcDbEntity
  8
STEMPEL
100
AcDbLine
 10
575.0
 20
275.0000000000001
 30
0.0
 11
575.0
 21
24.99999999999993
 31
0.0
  0
TEXT
  5
14B79
330
14BB5
100
AcDbEntity
  8
TEXT
100
AcDbText
 10
586.8555959778399
 20
77.11401425482641
 30
0.0
 40
12.5
  1
Bauvorhaben
 41
0.8
  7
GREEKS
100
AcDbText
  0
TEXT
  5
14B7A
330
14BB5
100
AcDbEntity
  8
TEXT
100
AcDbText
 10
587.8240977813288
 20
181.1007260038562
 30
0.0
 40
12.5
  1
Muffenlos
 41
0.8
  7
GREEKS
100
AcDbText
  0
TEXT
  5
14B7B
330
14BB5
100
AcDbEntity
  8
TEXT
100
AcDbText
 10
587.1948509522525
 20
256.3723320029449
 30
0.0
 40
12.5
  1
Benennung
 41
0.8
  7
GREEKS
100
AcDbText
  0
TEXT
  5
14B7C
330
14BB5
100
AcDbEntity
  8
TEXT
100
AcDbText
 10
587.4593753944567
 20
106.5743538255658
 30
0.0
 40
10.0
  1
03008300W.DWG
 41
0.8
  7
GREEKS
100
AcDbText
  0
TEXT
  5
14B7D
330
14BB5
100
AcDbEntity
  8
TEXT
100
AcDbText
 10
587.8240977813288
 20
129.100298576054
 30
0.0
 40
12.5
  1
EDV-Art.Nr. 03008.300X
 41
0.8
  7
GREEKS
100
AcDbText
  0
LINE
  5
14B7E
330
14BB5
100
AcDbEntity
  8
STEMPEL
100
AcDbLine
 10
830.0
 20
274.9999999999994
 30
0.0
 11
830.0
 21
100.0
 31
0.0
  0
TEXT
  5
14B7F
330
14BB5
100
AcDbEntity
  8
TEXT
 62
     1
100
AcDbText
 10
863.4029320140379
 20
220.372535722849
 30
0.0
 40
17.5
  1
03008300W
 41
0.8
  7
GREEKS
 72
     1
 11
923.4029320140379
 21
220.372535722849
 31
0.0
100
AcDbText
  0
DIMENSION
  5
14B81
330
14BB5
100
AcDbEntity
  8
BEM
100
AcDbDimension
  2
*D5
 10
563.1644638370113
 20
792.8799283272817
 30
0.0
 11
592.2947253475798
 21
1135.324237493298
 31
0.0
 12
-898.2074554711628
 22
168.3855290576649
 32
0.0
 70
   130
 71
     5
 42
-1.0
 53
352.0058764541241
100
AcDb2LineAngularDimension
 13
563.1644638370113
 23
914.8810503115605
 33
0.0
 14
594.7406777304185
 24
1032.725084872418
 34
0.0
 15
563.1644638370113
 25
914.8810503115605
 35
0.0
 16
586.6011651203283
 26
1116.752121788731
 36
0.0
  0
LINE
  5
14B82
330
14BB5
100
AcDbEntity
  8
MITTEL
100
AcDbLine
 10
563.1644638370113
 20
914.8810503115605
 30
0.0
 11
594.7406777304185
 21
1032.725084872418
 31
0.0
  0
LINE
  5
14B83
330
14BB5
100
AcDbEntity
  8
MITTEL
100
AcDbLine
 10
563.1644638370113
 20
914.8810503115605
 30
0.0
 11
563.1644638370113
 21
792.8799283272817
 31
0.0
  0
TEXT
  5
14B84
330
14BB5
100
AcDbEntity
  8
TEXT
 62
     1
100
AcDbText
 10
555.5447054019851
 20
839.155975815577
 30
0.0
 40
17.5
  1
DN300
 50
90.0
 41
0.8
  7
GREEKS
100
AcDbText
  0
ARC
  5
14B85
330
14BB5
100
AcDbEntity
  8
SCHRAFF
100
AcDbCircle
 10
556.7866343416364
 20
915.5871449183175
 30
0.0
 40
5.705091079773839
100
AcDbArc
 50
307.9824135024093
 51
37.01758649759066
  0
ARC
  5
14B86
330
14BB5
100
AcDbEntity
  8
SCHRAFF
100
AcDbCircle
 10
546.8721857278985
 20
916.892406840518
 30
0.0
 40
5.705091079773839
100
AcDbArc
 50
307.9824135024093
 51
37.01758649759066
  0
ARC
  5
14B87
330
14BB5
100
AcDbEntity
  8
SCHRAFF
100
AcDbCircle
 10
541.9149614210287
 20
917.5450378016178
 30
0.0
 40
5.705091079773839
100
AcDbArc
 50
307.9824135024093
 51
37.01758649759066
  0
ARC
  5
14B88
330
14BB5
100
AcDbEntity
  8
SCHRAFF
100
AcDbCircle
 10
551.8294100347672
 20
916.2397758794172
 30
0.0
 40
5.705091079773839
100
AcDbArc
 50
307.9824135024093
 51
37.01758649759066
  0
ARC
  5
14B89
330
14BB5
100
AcDbEntity
  8
SCHRAFF
100
AcDbCircle
 10
532.0005128072913
 20
918.8502997238183
 30
0.0
 40
5.705091079773839
100
AcDbArc
 50
307.9824135024093
 51
37.01758649759066
  0
ARC
  5
14B8A
330
14BB5
100
AcDbEntity
  8
SCHRAFF
100
AcDbCircle
 10
522.0860641935529
 20
920.1555616460186
 30
0.0
 40
5.705091079773839
100
AcDbArc
 50
307.9824135024093
 51
37.01758649759066
  0
ARC
  5
14B8B
330
14BB5
100
AcDbEntity
  8
SCHRAFF
100
AcDbCircle
 10
527.0432885004221
 20
919.5029306849185
 30
0.0
 40
5.705091079773839
100
AcDbArc
 50
307.9824135024093
 51
37.01758649759066
  0
ARC
  5
14B8C
330
14BB5
100
AcDbEntity
  8
SCHRAFF
100
AcDbCircle
 10
536.95773711416
 20
918.197668762718
 30
0.0
 40
5.705091079773839
100
AcDbArc
 50
307.9824135024093
 51
37.01758649759066
  0
LINE
  5
14B8F
330
14BB5
100
AcDbEntity
  8
STEMPEL
100
AcDbLine
 10
725.1144638370109
 20
893.5599283272818
 30
0.0
 11
748.5841748469077
 21
981.1500822551742
 31
0.0
  0
LINE
  5
14B92
330
14BB5
100
AcDbEntity
  8
STEMPEL
100
AcDbLine
 10
725.1144638370109
 20
893.5599283272818
 30
0.0
 11
725.1144638370111
 21
802.8799283272819
 31
0.0
  0
INSERT
  5
14B93
330
14BB5
100
AcDbEntity
  8
SCHRAFF
100
AcDbBlockReference
  2
*X7
 10
0.0
 20
0.0
 30
0.0
1001
ACAD
1000
HATCH
1002
{
1070
    16
1000
_U,I
1040
0.1
1040
0.0
1070
     0
1002
}
  0
ARC
  5
14B94
330
14BB5
100
AcDbEntity
  8
SCHRAFF
100
AcDbCircle
 10
722.5481450672967
 20
893.8977906029201
 30
0.0
 40
5.069879923054633
100
AcDbArc
 50
300.410329998297
 51
44.58967000170342
  0
TEXT
  5
14BE0
330
14BB5
100
AcDbEntity
  8
BEM
100
AcDbText
 10
1043.255730964291
 20
25.41975269997124
 30
0.0
 40
10.0
  1
Diese Zeichnung ist urheberrechtlich geschützt und bleibt unser Eigentum. Sie darf weder ganz noch teilweise verfielfältigt und nicht an Dritte weitergegeben werden.
 50
90.0
 41
0.8
  7
GREEKS
100
AcDbText
  0
TEXT
  5
14BE2
330
14BB5
100
AcDbEntity
  8
TEXT
100
AcDbText
 10
481.7206788119809
 20
225.0400409546389
 30
0.0
 40
10.0
  1
DIN EN1123-2
 41
0.8
  7
GREEKS
 72
     1
 11
524.1968692881714
 21
225.0400409546389
 31
0.0
100
AcDbText
  0
ARC
  5
14C6A
330
14BB5
100
AcDbEntity
  8
SCHRAFF
100
AcDbCircle
 10
694.9361178920935
 20
897.3994203684902
 30
0.0
 40
5.705091079773839
100
AcDbArc
 50
307.9824135024093
 51
37.01758649759066
  0
ARC
  5
14C6B
330
14BB5
100
AcDbEntity
  8
SCHRAFF
100
AcDbCircle
 10
685.0216692783556
 20
898.7046822906908
 30
0.0
 40
5.705091079773839
100
AcDbArc
 50
307.9824135024093
 51
37.01758649759066
  0
ARC
  5
14C6C
330
14BB5
100
AcDbEntity
  8
SCHRAFF
100
AcDbCircle
 10
680.0644449714864
 20
899.3573132517909
 30
0.0
 40
5.705091079773839
100
AcDbArc
 50
307.9824135024093
 51
37.01758649759066
  0
ARC
  5
14C6D
330
14BB5
100
AcDbEntity
  8
SCHRAFF
100
AcDbCircle
 10
689.9788935852248
 20
898.0520513295907
 30
0.0
 40
5.705091079773839
100
AcDbArc
 50
307.9824135024093
 51
37.01758649759066
  0
ARC
  5
14C6E
330
14BB5
100
AcDbEntity
  8
SCHRAFF
100
AcDbCircle
 10
709.8077908127006
 20
895.4415274851895
 30
0.0
 40
5.705091079773839
100
AcDbArc
 50
307.9824135024093
 51
37.01758649759066
  0
ARC
  5
14C6F
330
14BB5
100
AcDbEntity
  8
SCHRAFF
100
AcDbCircle
 10
699.8933421989622
 20
896.7467894073902
 30
0.0
 40
5.705091079773839
100
AcDbArc
 50
307.9824135024093
 51
37.01758649759066
  0
ARC
  5
14C70
330
14BB5
100
AcDbEntity
  8
SCHRAFF
100
AcDbCircle
 10
704.8505665058319
 20
896.0941584462904
 30
0.0
 40
5.705091079773839
100
AcDbArc
 50
307.9824135024093
 51
37.01758649759066
  0
ARC
  5
14C71
330
14BB5
100
AcDbEntity
  8
SCHRAFF
100
AcDbCircle
 10
714.7650151195698
 20
894.7888965240899
 30
0.0
 40
5.705091079773839
100
AcDbArc
 50
307.9824135024093
 51
37.01758649759066
  0
ARC
  5
14C72
330
14BB5
100
AcDbEntity
  8
SCHRAFF
100
AcDbCircle
 10
670.149996357748
 20
900.6625751739916
 30
0.0
 40
5.705091079773839
100
AcDbArc
 50
307.9824135024093
 51
37.01758649759066
  0
ARC
  5
14C73
330
14BB5
100
AcDbEntity
  8
SCHRAFF
100
AcDbCircle
 10
660.23554774401
 20
901.9678370961921
 30
0.0
 40
5.705091079773839
100
AcDbArc
 50
307.9824135024093
 51
37.01758649759066
  0
ARC
  5
14C74
330
14BB5
100
AcDbEntity
  8
SCHRAFF
100
AcDbCircle
 10
665.1927720508792
 20
901.3152061350918
 30
0.0
 40
5.705091079773839
100
AcDbArc
 50
307.9824135024093
 51
37.01758649759066
  0
ARC
  5
14C75
330
14BB5
100
AcDbEntity
  8
SCHRAFF
100
AcDbCircle
 10
650.3210991302719
 20
903.2730990183926
 30
0.0
 40
5.705091079773839
100
AcDbArc
 50
307.9824135024093
 51
37.01758649759066
  0
ARC
  5
14C76
330
14BB5
100
AcDbEntity
  8
SCHRAFF
100
AcDbCircle
 10
655.278323437141
 20
902.6204680572922
 30
0.0
 40
5.705091079773839
100
AcDbArc
 50
307.9824135024093
 51
37.01758649759066
  0
ARC
  5
14C77
330
14BB5
100
AcDbEntity
  8
SCHRAFF
100
AcDbCircle
 10
645.3638748234031
 20
903.9257299794927
 30
0.0
 40
5.705091079773839
100
AcDbArc
 50
307.9824135024093
 51
37.01758649759066
  0
ARC
  5
14C78
330
14BB5
100
AcDbEntity
  8
SCHRAFF
100
AcDbCircle
 10
640.4066505165338
 20
904.5783609405935
 30
0.0
 40
5.705091079773839
100
AcDbArc
 50
307.9824135024093
 51
37.01758649759066
  0
ARC
  5
14C79
330
14BB5
100
AcDbEntity
  8
SCHRAFF
100
AcDbCircle
 10
675.1072206646171
 20
900.0099442128913
 30
0.0
 40
5.705091079773839
100
AcDbArc
 50
307.9824135024093
 51
37.01758649759066
  0
ARC
  5
14C7A
330
14BB5
100
AcDbEntity
  8
SCHRAFF
100
AcDbCircle
 10
630.4922019027956
 20
905.8836228627939
 30
0.0
 40
5.705091079773839
100
AcDbArc
 50
307.9824135024093
 51
37.01758649759066
  0
ARC
  5
14C7B
330
14BB5
100
AcDbEntity
  8
SCHRAFF
100
AcDbCircle
 10
635.4494262096648
 20
905.2309919016932
 30
0.0
 40
5.705091079773839
100
AcDbArc
 50
307.9824135024093
 51
37.01758649759066
  0
ARC
  5
14C7C
330
14BB5
100
AcDbEntity
  8
SCHRAFF
100
AcDbCircle
 10
620.5777532890579
 20
907.1888847849944
 30
0.0
 40
5.705091079773839
100
AcDbArc
 50
307.9824135024093
 51
37.01758649759066
  0
ARC
  5
14C7D
330
14BB5
100
AcDbEntity
  8
SCHRAFF
100
AcDbCircle
 10
625.5349775959266
 20
906.5362538238943
 30
0.0
 40
5.705091079773839
100
AcDbArc
 50
307.9824135024093
 51
37.01758649759066
  0
ARC
  5
14C7E
330
14BB5
100
AcDbEntity
  8
SCHRAFF
100
AcDbCircle
 10
610.6633046753197
 20
908.4941467071949
 30
0.0
 40
5.705091079773839
100
AcDbArc
 50
307.9824135024093
 51
37.01758649759066
  0
ARC
  5
14C7F
330
14BB5
100
AcDbEntity
  8
SCHRAFF
100
AcDbCircle
 10
600.7488560615813
 20
909.7994086293955
 30
0.0
 40
5.705091079773839
100
AcDbArc
 50
307.9824135024093
 51
37.01758649759066
  0
ARC
  5
14C80
330
14BB5
100
AcDbEntity
  8
SCHRAFF
100
AcDbCircle
 10
605.7060803684505
 20
909.1467776682947
 30
0.0
 40
5.705091079773839
100
AcDbArc
 50
307.9824135024093
 51
37.01758649759066
  0
ARC
  5
14C81
330
14BB5
100
AcDbEntity
  8
SCHRAFF
100
AcDbCircle
 10
615.6205289821887
 20
907.8415157460947
 30
0.0
 40
5.705091079773839
100
AcDbArc
 50
307.9824135024093
 51
37.01758649759066
  0
ARC
  5
14C82
330
14BB5
100
AcDbEntity
  8
SCHRAFF
100
AcDbCircle
 10
590.8344074478434
 20
911.1046705515958
 30
0.0
 40
5.705091079773839
100
AcDbArc
 50
307.9824135024093
 51
37.01758649759066
  0
ARC
  5
14C83
330
14BB5
100
AcDbEntity
  8
SCHRAFF
100
AcDbCircle
 10
580.9199588341052
 20
912.4099324737963
 30
0.0
 40
5.705091079773839
100
AcDbArc
 50
307.9824135024093
 51
37.01758649759066
  0
ARC
  5
14C84
330
14BB5
100
AcDbEntity
  8
SCHRAFF
100
AcDbCircle
 10
585.8771831409744
 20
911.7573015126962
 30
0.0
 40
5.705091079773839
100
AcDbArc
 50
307.9824135024093
 51
37.01758649759066
  0
ARC
  5
14C85
330
14BB5
100
AcDbEntity
  8
SCHRAFF
100
AcDbCircle
 10
571.005510220367
 20
913.7151943959969
 30
0.0
 40
5.705091079773839
100
AcDbArc
 50
307.9824135024093
 51
37.01758649759066
  0
ARC
  5
14C86
330
14BB5
100
AcDbEntity
  8
SCHRAFF
100
AcDbCircle
 10
566.7168433780916
 20
914.4133706725989
 30
0.0
 40
5.705091079773839
100
AcDbArc
 50
307.9824135024093
 51
37.01758649759066
  0
ARC
  5
14C87
330
14BB5
100
AcDbEntity
  8
SCHRAFF
100
AcDbCircle
 10
561.7596190712227
 20
915.0660016336994
 30
0.0
 40
5.705091079773839
100
AcDbArc
 50
307.9824135024093
 51
37.01758649759066
  0
ARC
  5
14C88
330
14BB5
100
AcDbEntity
  8
SCHRAFF
100
AcDbCircle
 10
575.9627345272362
 20
913.0625634348968
 30
0.0
 40
5.705091079773839
100
AcDbArc
 50
307.9824135024093
 51
37.01758649759066
  0
ARC
  5
14C89
330
14BB5
100
AcDbEntity
  8
SCHRAFF
100
AcDbCircle
 10
595.7916317547123
 20
910.4520395904957
 30
0.0
 40
5.705091079773839
100
AcDbArc
 50
307.9824135024093
 51
37.01758649759066
  0
ENDSEC
  0
SECTION
  2
OBJECTS
  0
DICTIONARY
  5
14BA1
330
0
100
AcDbDictionary
281
     1
  3
ACAD_COLOR
350
14BB0
  3
ACAD_GROUP
350
14BA2
  3
ACAD_LAYOUT
350
14BAE
  3
ACAD_MATERIAL
350
14BAF
  3
ACAD_MLINESTYLE
350
14BAB
  3
ACAD_PLOTSETTINGS
350
14BAD
  3
ACAD_PLOTSTYLENAME
350
14BA3
  3
AcDbVariableDictionary
350
14BF7
  0
DICTIONARY
  5
14BB0
102
{ACAD_REACTORS
330
14BA1
102
}
330
14BA1
100
AcDbDictionary
281
     1
  0
DICTIONARY
  5
14BA2
102
{ACAD_REACTORS
330
14BA1
102
}
330
14BA1
100
AcDbDictionary
281
     1
  0
DICTIONARY
  5
14BAE
102
{ACAD_REACTORS
330
14BA1
102
}
330
14BA1
100
AcDbDictionary
281
     1
  3
Layout1
350
14BB4
  3
Model
350
14BB8
  0
DICTIONARY
  5
14BAF
102
{ACAD_REACTORS
330
14BA1
102
}
330
14BA1
100
AcDbDictionary
281
     1
  0
DICTIONARY
  5
14BAB
102
{ACAD_REACTORS
330
14BA1
102
}
330
14BA1
100
AcDbDictionary
281
     1
  3
Standard
350
14BAC
  0
DICTIONARY
  5
14BAD
102
{ACAD_REACTORS
330
14BA1
102
}
330
14BA1
100
AcDbDictionary
281
     1
  0
ACDBDICTIONARYWDFLT
  5
14BA3
102
{ACAD_REACTORS
330
14BA1
102
}
330
14BA1
100
AcDbDictionary
281
     1
  3
Normal
350
14BA4
100
AcDbDictionaryWithDefault
340
14BA4
  0
DICTIONARY
  5
14BF7
102
{ACAD_REACTORS
330
14BA1
102
}
330
14BA1
100
AcDbDictionary
281
     1
  3
DIMASSOC
350
14BF9
  3
HIDETEXT
350
14BF8
  3
PROJECTNAME
350
14BFA
  0
LAYOUT
  5
14BB4
102
{ACAD_REACTORS
330
14BAE
102
}
330
14BAE
100
AcDbPlotSettings
  1

  2
RICOH Aficio 2027 PCL 6
  4

  6

 40
0.0
 41
0.0
 42
0.0
 43
0.0
 44
0.0
 45
0.0
 46
0.0
 47
0.0
 48
0.0
 49
0.0
140
0.0
141
0.0
142
1.0
143
1.0
 70
   688
 72
     0
 73
     0
 74
     5
  7
monochrome1.ctb
 75
    16
147
1.0
 76
     0
 77
     2
 78
   300
148
0.0
149
0.0
100
AcDbLayout
  1
Layout1
 70
     0
 71
     1
 10
0.0
 20
0.0
 11
12.0
 21
9.0
 12
5.612851412409735
 22
50.00000000000001
 32
-2.58105543498411
 14
1.000000000000000E+20
 24
1.000000000000000E+20
 34
1.000000000000000E+20
 15
-1.000000000000000E+20
 25
-1.000000000000000E+20
 35
-1.000000000000000E+20
146
0.0
 13
0.0
 23
0.0
 33
0.0
 16
1.0
 26
0.0
 36
0.0
 17
0.0
 27
1.0
 37
0.0
 76
     0
330
14BB1
  0
LAYOUT
  5
14BB8
102
{ACAD_REACTORS
330
14BAE
102
}
330
14BAE
100
AcDbPlotSettings
  1

  2
RICOH Aficio 2027 PCL 6
  4
A4
  6

 40
5.027083396911621
 41
5.027085304260253
 42
5.027084350585937
 43
5.027069091796875
 44
209.9733276367187
 45
296.9259948730469
 46
0.0
 47
0.0
 48
0.0
 49
0.0
140
0.0
141
0.0
142
1.0
143
1.0
 70
 11952
 72
     0
 73
     1
 74
     0
  7
monochrome1.ctb
 75
     0
147
1.0
 76
     0
 77
     2
 78
   300
148
5749.737974108374
149
225.2379483828901
100
AcDbLayout
  1
Model
 70
     1
 71
     0
 10
0.0
 20
0.0
 11
12.0
 21
9.0
 12
0.0
 22
0.0
 32
0.0
 14
0.0
 24
0.0
 34
0.0
 15
0.0
 25
0.0
 35
0.0
146
0.0
 13
0.0
 23
0.0
 33
0.0
 16
1.0
 26
0.0
 36
0.0
 17
0.0
 27
1.0
 37
0.0
 76
     0
330
14BB5
  0
MLINESTYLE
  5
14BAC
102
{ACAD_REACTORS
330
14BAB
102
}
330
14BAB
100
AcDbMlineStyle
  2
STANDARD
 70
     0
  3

 62
   256
 51
90.0
 52
90.0
 71
     2
 49
0.5
 62
   256
  6
BYLAYER
 49
-0.5
 62
   256
  6
BYLAYER
  0
ACDBPLACEHOLDER
  5
14BA4
102
{ACAD_REACTORS
330
14BA3
102
}
330
14BA3
  0
DICTIONARYVAR
  5
14BF9
102
{ACAD_REACTORS
330
14BF7
102
}
330
14BF7
100
DictionaryVariables
280
     0
  1
2
  0
DICTIONARYVAR
  5
14BF8
102
{ACAD_REACTORS
330
14BF7
102
}
330
14BF7
100
DictionaryVariables
280
     0
  1
1
  0
DICTIONARYVAR
  5
14BFA
102
{ACAD_REACTORS
330
14BF7
102
}
330
14BF7
100
DictionaryVariables
280
     0
  1

  0
ENDSEC
  0
EOF
