  0
SECTION
  2
HEADER
  9
$ACADVER
  1
AC1018
  9
$ACADMAINTVER
 70
     2
  9
$DWGCODEPAGE
  3
ANSI_1252
  9
$INSBASE
 10
0.0
 20
0.0
 30
0.0
  9
$EXTMIN
 10
-0.0480524721101574
 20
-0.0679599248414888
 30
-0.0000000000000058
  9
$EXTMAX
 10
1050.048072030928
 20
1485.067987586599
 30
0.0000000000000104
  9
$LIMMIN
 10
0.0
 20
0.0
  9
$LIMMAX
 10
1050.0
 20
1485.0
  9
$ORTHOMODE
 70
     1
  9
$REGENMODE
 70
     1
  9
$FILLMODE
 70
     1
  9
$QTEXTMODE
 70
     0
  9
$MIRRTEXT
 70
     1
  9
$LTSCALE
 40
50.0
  9
$ATTMODE
 70
     1
  9
$TEXTSIZE
 40
2.5
  9
$TRACEWID
 40
0.5
  9
$TEXTSTYLE
  7
GREEKS
  9
$CLAYER
  8
VOLL
  9
$CELTYPE
  6
ByLayer
  9
$CECOLOR
 62
   256
  9
$CELTSCALE
 40
1.0
  9
$DISPSILH
 70
     0
  9
$DIMSCALE
 40
5.0
  9
$DIMASZ
 40
3.5
  9
$DIMEXO
 40
1.0
  9
$DIMDLI
 40
7.0
  9
$DIMRND
 40
0.0
  9
$DIMDLE
 40
0.0
  9
$DIMEXE
 40
1.0
  9
$DIMTP
 40
3.0
  9
$DIMTM
 40
3.0
  9
$DIMTXT
 40
3.5
  9
$DIMCEN
 40
1.5
  9
$DIMTSZ
 40
0.0
  9
$DIMTOL
 70
     0
  9
$DIMLIM
 70
     0
  9
$DIMTIH
 70
     0
  9
$DIMTOH
 70
     0
  9
$DIMSE1
 70
     0
  9
$DIMSE2
 70
     0
  9
$DIMTAD
 70
     1
  9
$DIMZIN
 70
     8
  9
$DIMBLK
  1

  9
$DIMASO
 70
     1
  9
$DIMSHO
 70
     0
  9
$DIMPOST
  1

  9
$DIMAPOST
  1

  9
$DIMALT
 70
     0
  9
$DIMALTD
 70
     2
  9
$DIMALTF
 40
25.4
  9
$DIMLFAC
 40
1.0
  9
$DIMTOFL
 70
     1
  9
$DIMTVP
 40
0.0
  9
$DIMTIX
 70
     0
  9
$DIMSOXD
 70
     0
  9
$DIMSAH
 70
     0
  9
$DIMBLK1
  1

  9
$DIMBLK2
  1

  9
$DIMSTYLE
  2
Standard
  9
$DIMCLRD
 70
     0
  9
$DIMCLRE
 70
     0
  9
$DIMCLRT
 70
     1
  9
$DIMTFAC
 40
0.5
  9
$DIMGAP
 40
1.5
  9
$DIMJUST
 70
     0
  9
$DIMSD1
 70
     0
  9
$DIMSD2
 70
     0
  9
$DIMTOLJ
 70
     1
  9
$DIMTZIN
 70
     8
  9
$DIMALTZ
 70
     8
  9
$DIMALTTZ
 70
     8
  9
$DIMUPT
 70
     0
  9
$DIMDEC
 70
     2
  9
$DIMTDEC
 70
     2
  9
$DIMALTU
 70
     2
  9
$DIMALTTD
 70
     2
  9
$DIMTXSTY
  7
GREEKS
  9
$DIMAUNIT
 70
     0
  9
$DIMADEC
 70
     2
  9
$DIMALTRND
 40
0.0
  9
$DIMAZIN
 70
     2
  9
$DIMDSEP
 70
    46
  9
$DIMATFIT
 70
     3
  9
$DIMFRAC
 70
     0
  9
$DIMLDRBLK
  1

  9
$DIMLUNIT
 70
     2
  9
$DIMLWD
 70
    -2
  9
$DIMLWE
 70
    -2
  9
$DIMTMOVE
 70
     0
  9
$LUNITS
 70
     2
  9
$LUPREC
 70
     2
  9
$SKETCHINC
 40
1.0
  9
$FILLETRAD
 40
0.0
  9
$AUNITS
 70
     0
  9
$AUPREC
 70
     2
  9
$MENU
  1
ACAD
  9
$ELEVATION
 40
0.0
  9
$PELEVATION
 40
0.0
  9
$THICKNESS
 40
0.0
  9
$LIMCHECK
 70
     0
  9
$CHAMFERA
 40
0.0
  9
$CHAMFERB
 40
0.0
  9
$CHAMFERC
 40
0.0
  9
$CHAMFERD
 40
0.0
  9
$SKPOLY
 70
     0
  9
$TDCREATE
 40
2452283.558673611
  9
$TDUCREATE
 40
2452283.475340278
  9
$TDUPDATE
 40
2455658.329978403
  9
$TDUUPDATE
 40
2455658.246645069
  9
$TDINDWG
 40
0.0151462384
  9
$TDUSRTIMER
 40
0.0151462384
  9
$USRTIMER
 70
     1
  9
$ANGBASE
 50
0.0
  9
$ANGDIR
 70
     0
  9
$PDMODE
 70
     0
  9
$PDSIZE
 40
0.0
  9
$PLINEWID
 40
0.0
  9
$SPLFRAME
 70
     0
  9
$SPLINETYPE
 70
     6
  9
$SPLINESEGS
 70
     8
  9
$HANDSEED
  5
1603D
  9
$SURFTAB1
 70
     6
  9
$SURFTAB2
 70
     6
  9
$SURFTYPE
 70
     6
  9
$SURFU
 70
     6
  9
$SURFV
 70
     6
  9
$UCSBASE
  2

  9
$UCSNAME
  2

  9
$UCSORG
 10
0.0
 20
0.0
 30
0.0
  9
$UCSXDIR
 10
1.0
 20
0.0
 30
0.0
  9
$UCSYDIR
 10
0.0
 20
1.0
 30
0.0
  9
$UCSORTHOREF
  2

  9
$UCSORTHOVIEW
 70
     0
  9
$UCSORGTOP
 10
0.0
 20
0.0
 30
0.0
  9
$UCSORGBOTTOM
 10
0.0
 20
0.0
 30
0.0
  9
$UCSORGLEFT
 10
0.0
 20
0.0
 30
0.0
  9
$UCSORGRIGHT
 10
0.0
 20
0.0
 30
0.0
  9
$UCSORGFRONT
 10
0.0
 20
0.0
 30
0.0
  9
$UCSORGBACK
 10
0.0
 20
0.0
 30
0.0
  9
$PUCSBASE
  2

  9
$PUCSNAME
  2

  9
$PUCSORG
 10
0.0
 20
0.0
 30
0.0
  9
$PUCSXDIR
 10
1.0
 20
0.0
 30
0.0
  9
$PUCSYDIR
 10
0.0
 20
1.0
 30
0.0
  9
$PUCSORTHOREF
  2

  9
$PUCSORTHOVIEW
 70
     0
  9
$PUCSORGTOP
 10
0.0
 20
0.0
 30
0.0
  9
$PUCSORGBOTTOM
 10
0.0
 20
0.0
 30
0.0
  9
$PUCSORGLEFT
 10
0.0
 20
0.0
 30
0.0
  9
$PUCSORGRIGHT
 10
0.0
 20
0.0
 30
0.0
  9
$PUCSORGFRONT
 10
0.0
 20
0.0
 30
0.0
  9
$PUCSORGBACK
 10
0.0
 20
0.0
 30
0.0
  9
$USERI1
 70
     0
  9
$USERI2
 70
     0
  9
$USERI3
 70
     0
  9
$USERI4
 70
     0
  9
$USERI5
 70
     0
  9
$USERR1
 40
0.0
  9
$USERR2
 40
0.0
  9
$USERR3
 40
0.0
  9
$USERR4
 40
0.0
  9
$USERR5
 40
0.0
  9
$WORLDVIEW
 70
     1
  9
$SHADEDGE
 70
     3
  9
$SHADEDIF
 70
    70
  9
$TILEMODE
 70
     1
  9
$MAXACTVP
 70
    16
  9
$PINSBASE
 10
621.4227862518698
 20
50.00000000000001
 30
-2.58105543498411
  9
$PLIMCHECK
 70
     0
  9
$PEXTMIN
 10
1.000000000000000E+20
 20
1.000000000000000E+20
 30
1.000000000000000E+20
  9
$PEXTMAX
 10
-1.000000000000000E+20
 20
-1.000000000000000E+20
 30
-1.000000000000000E+20
  9
$PLIMMIN
 10
0.0
 20
0.0
  9
$PLIMMAX
 10
12.0
 20
9.0
  9
$UNITMODE
 70
     0
  9
$VISRETAIN
 70
     0
  9
$PLINEGEN
 70
     0
  9
$PSLTSCALE
 70
     0
  9
$TREEDEPTH
 70
  3020
  9
$CMLSTYLE
  2
Standard
  9
$CMLJUST
 70
     0
  9
$CMLSCALE
 40
1.0
  9
$PROXYGRAPHICS
 70
     1
  9
$MEASUREMENT
 70
     0
  9
$CELWEIGHT
370
    -1
  9
$ENDCAPS
280
     0
  9
$JOINSTYLE
280
     0
  9
$LWDISPLAY
290
     0
  9
$INSUNITS
 70
     0
  9
$HYPERLINKBASE
  1

  9
$STYLESHEET
  1
monochrome 1.ctb
  9
$XEDIT
290
     1
  9
$CEPSNTYPE
380
     0
  9
$PSTYLEMODE
290
     1
  9
$FINGERPRINTGUID
  2
{DA7429E7-074D-4673-A775-26870E8B9C3D}
  9
$VERSIONGUID
  2
{2A96E751-8100-4644-8364-6E657C422D54}
  9
$EXTNAMES
290
     1
  9
$PSVPSCALE
 40
0.0
  9
$OLESTARTUP
290
     0
  9
$SORTENTS
280
   127
  9
$INDEXCTL
280
     0
  9
$HIDETEXT
280
     1
  9
$XCLIPFRAME
290
     0
  9
$HALOGAP
280
     0
  9
$OBSCOLOR
 70
   257
  9
$OBSLTYPE
280
     0
  9
$INTERSECTIONDISPLAY
280
     0
  9
$INTERSECTIONCOLOR
 70
   257
  9
$DIMASSOC
280
     2
  9
$PROJECTNAME
  1

  0
ENDSEC
  0
SECTION
  2
CLASSES
  0
CLASS
  1
ACDBDICTIONARYWDFLT
  2
AcDbDictionaryWithDefault
  3
ObjectDBX Classes
 90
        0
 91
        1
280
     0
281
     0
  0
CLASS
  1
DICTIONARYVAR
  2
AcDbDictionaryVar
  3
ObjectDBX Classes
 90
        0
 91
        3
280
     0
281
     0
  0
ENDSEC
  0
SECTION
  2
TABLES
  0
TABLE
  2
VPORT
  5
15F38
330
0
100
AcDbSymbolTable
 70
     3
  0
VPORT
  5
1603C
330
15F38
100
AcDbSymbolTableRecord
100
AcDbViewportTableRecord
  2
*Active
 70
     0
 10
0.0
 20
0.0
 11
1.0
 21
1.0
 12
524.9999999999998
 22
742.4999999999999
 13
0.0
 23
0.0
 14
1.0
 24
1.0
 15
10.0
 25
10.0
 16
0.0
 26
0.0
 36
1.0
 17
0.0
 27
0.0
 37
0.0
 40
1485.0
 41
1.334231805929919
 42
50.0
 43
0.0
 44
0.0
 50
0.0
 51
0.0
 71
     0
 72
  1500
 73
     1
 74
     0
 75
     0
 76
     0
 77
     0
 78
     0
281
     0
 65
     1
110
0.0
120
0.0
130
0.0
111
1.0
121
0.0
131
0.0
112
0.0
122
1.0
132
0.0
 79
     0
146
0.0
  0
ENDTAB
  0
TABLE
  2
LTYPE
  5
15F35
330
0
100
AcDbSymbolTable
 70
     2
  0
LTYPE
  5
15F43
330
15F35
100
AcDbSymbolTableRecord
100
AcDbLinetypeTableRecord
  2
ByBlock
 70
     0
  3

 72
    65
 73
     0
 40
0.0
  0
LTYPE
  5
15F44
330
15F35
100
AcDbSymbolTableRecord
100
AcDbLinetypeTableRecord
  2
ByLayer
 70
     0
  3

 72
    65
 73
     0
 40
0.0
  0
LTYPE
  5
15F45
330
15F35
100
AcDbSymbolTableRecord
100
AcDbLinetypeTableRecord
  2
Continuous
 70
     0
  3
Solid line
 72
    65
 73
     0
 40
0.0
  0
LTYPE
  5
15F62
330
15F35
100
AcDbSymbolTableRecord
100
AcDbLinetypeTableRecord
  2
STRICHPUNKT
 70
     0
  3
__ . __ . __ . __ . __ . __ . __ . __ . __ . __
 72
    65
 73
     4
 40
1.0
 49
0.5
 74
     0
 49
-0.25
 74
     0
 49
0.0
 74
     0
 49
-0.25
 74
     0
  0
ENDTAB
  0
TABLE
  2
LAYER
  5
15F32
330
0
100
AcDbSymbolTable
 70
     9
  0
LAYER
  5
15F40
330
15F32
100
AcDbSymbolTableRecord
100
AcDbLayerTableRecord
  2
0
 70
     0
 62
     7
  6
Continuous
370
    -3
390
15F3F
  0
LAYER
  5
15F65
330
15F32
100
AcDbSymbolTableRecord
100
AcDbLayerTableRecord
  2
VOLL
 70
     0
 62
     1
  6
Continuous
370
    -3
390
15F3F
  0
LAYER
  5
15F66
330
15F32
100
AcDbSymbolTableRecord
100
AcDbLayerTableRecord
  2
HILF
 70
     0
 62
     2
  6
Continuous
370
    -3
390
15F3F
  0
LAYER
  5
15F67
330
15F32
100
AcDbSymbolTableRecord
100
AcDbLayerTableRecord
  2
MITTEL
 70
     0
 62
     2
  6
STRICHPUNKT
370
    -3
390
15F3F
  0
LAYER
  5
15F68
330
15F32
100
AcDbSymbolTableRecord
100
AcDbLayerTableRecord
  2
BEM
 70
     0
 62
     7
  6
Continuous
370
    -3
390
15F3F
  0
LAYER
  5
15F69
330
15F32
100
AcDbSymbolTableRecord
100
AcDbLayerTableRecord
  2
STEMPEL
 70
     0
 62
     3
  6
Continuous
370
    -3
390
15F3F
  0
LAYER
  5
15F6A
330
15F32
100
AcDbSymbolTableRecord
100
AcDbLayerTableRecord
  2
TEXT
 70
     0
 62
     7
  6
Continuous
370
    -3
390
15F3F
  0
LAYER
  5
15F6B
330
15F32
100
AcDbSymbolTableRecord
100
AcDbLayerTableRecord
  2
DEFPOINTS
 70
     0
 62
     7
  6
Continuous
290
     0
370
    -3
390
15F3F
  0
LAYER
  5
15F6C
330
15F32
100
AcDbSymbolTableRecord
100
AcDbLayerTableRecord
  2
SCHRAFF
 70
     0
 62
     7
  6
Continuous
370
    -3
390
15F3F
  0
ENDTAB
  0
TABLE
  2
STYLE
  5
15F33
330
0
100
AcDbSymbolTable
 70
     2
  0
STYLE
  5
15F41
330
15F33
100
AcDbSymbolTableRecord
100
AcDbTextStyleTableRecord
  2
STANDARD
 70
     0
 40
0.0
 41
1.0
 50
0.0
 71
     0
 42
3.5
  3
txt
  4

  0
STYLE
  5
15F61
330
15F33
100
AcDbSymbolTableRecord
100
AcDbTextStyleTableRecord
  2
GREEKS
 70
     0
 40
0.0
 41
0.8
 50
0.0
 71
     0
 42
2.5
  3
SIMPLEX.shx
  4

  0
ENDTAB
  0
TABLE
  2
VIEW
  5
15F36
330
0
100
AcDbSymbolTable
 70
     0
  0
ENDTAB
  0
TABLE
  2
UCS
  5
15F37
330
0
100
AcDbSymbolTable
 70
     0
  0
ENDTAB
  0
TABLE
  2
APPID
  5
15F39
330
0
100
AcDbSymbolTable
 70
     1
  0
APPID
  5
15F42
330
15F39
100
AcDbSymbolTableRecord
100
AcDbRegAppTableRecord
  2
ACAD
 70
     0
  0
ENDTAB
  0
TABLE
  2
DIMSTYLE
  5
15F3A
330
0
100
AcDbSymbolTable
 70
     1
100
AcDbDimStyleTable
 71
     1
340
15F73
  0
DIMSTYLE
105
15F73
102
{ACAD_REACTORS
330
15EB7
330
15EB8
330
15EB4
102
}
330
15F3A
100
AcDbSymbolTableRecord
100
AcDbDimStyleTableRecord
  2
Standard
 70
     0
340
15F41
  0
ENDTAB
  0
TABLE
  2
BLOCK_RECORD
  5
15F31
330
0
100
AcDbSymbolTable
 70
    13
  0
BLOCK_RECORD
  5
15F50
330
15F31
100
AcDbSymbolTableRecord
100
AcDbBlockTableRecord
  2
*Model_Space
340
15F53
  0
BLOCK_RECORD
  5
15F4C
330
15F31
100
AcDbSymbolTableRecord
100
AcDbBlockTableRecord
  2
*Paper_Space
340
15F4F
  0
BLOCK_RECORD
  5
15F54
330
15F31
100
AcDbSymbolTableRecord
100
AcDbBlockTableRecord
  2
LOGO
340
0
102
{BLKREFS
331
15EC7
102
}
  0
BLOCK_RECORD
  5
15F58
330
15F31
100
AcDbSymbolTableRecord
100
AcDbBlockTableRecord
  2
*X3
340
0
102
{BLKREFS
331
15EF0
102
}
  0
BLOCK_RECORD
  5
15F59
330
15F31
100
AcDbSymbolTableRecord
100
AcDbBlockTableRecord
  2
*X4
340
0
102
{BLKREFS
331
15F2E
102
}
  0
BLOCK_RECORD
  5
15F5E
330
15F31
100
AcDbSymbolTableRecord
100
AcDbBlockTableRecord
  2
*D7
340
0
  0
BLOCK_RECORD
  5
15F99
330
15F31
100
AcDbSymbolTableRecord
100
AcDbBlockTableRecord
  2
*D10
340
0
  0
BLOCK_RECORD
  5
15FA5
330
15F31
100
AcDbSymbolTableRecord
100
AcDbBlockTableRecord
  2
*D11
340
0
  0
BLOCK_RECORD
  5
1600B
330
15F31
100
AcDbSymbolTableRecord
100
AcDbBlockTableRecord
  2
*D12
340
0
  0
ENDTAB
  0
ENDSEC
  0
SECTION
  2
BLOCKS
  0
BLOCK
  5
15F70
330
15F50
100
AcDbEntity
  8
0
100
AcDbBlockBegin
  2
*Model_Space
 70
     0
 10
0.0
 20
0.0
 30
0.0
  3
*Model_Space
  1

  0
ENDBLK
  5
15F71
330
15F50
100
AcDbEntity
  8
0
100
AcDbBlockEnd
  0
BLOCK
  5
15F6E
330
15F4C
100
AcDbEntity
 67
     1
  8
0
100
AcDbBlockBegin
  2
*Paper_Space
 70
     0
 10
0.0
 20
0.0
 30
0.0
  3
*Paper_Space
  1

  0
ENDBLK
  5
15F6F
330
15F4C
100
AcDbEntity
 67
     1
  8
0
100
AcDbBlockEnd
  0
BLOCK
  5
44
330
15F54
100
AcDbEntity
  8
0
100
AcDbBlockBegin
  2
LOGO
 70
     0
 10
0.0
 20
0.0
 30
0.0
  3
LOGO
  1

  0
ARC
  5
45
330
15F54
100
AcDbEntity
  8
0
100
AcDbCircle
 10
11.59973089678112
 20
-9.271599258481501
 30
0.0
 40
4.5
100
AcDbArc
 50
270.0
 51
231.0575587310159
  0
LINE
  5
46
330
15F54
100
AcDbEntity
  8
0
100
AcDbLine
 10
3.599730896781125
 20
-4.771599258481529
 30
0.0
 11
3.599730896781153
 21
-11.77159925848133
 31
0.0
  0
LINE
  5
47
330
15F54
100
AcDbEntity
  8
0
100
AcDbLine
 10
2.599730896781125
 20
-4.771599258481529
 30
0.0
 11
2.599730896781153
 21
-11.77159925848133
 31
0.0
  0
CIRCLE
  5
48
330
15F54
100
AcDbEntity
  8
0
100
AcDbCircle
 10
11.59973089678112
 20
-9.271599258481501
 30
0.0
 40
3.5
  0
ARC
  5
49
330
15F54
100
AcDbEntity
  8
0
100
AcDbCircle
 10
31.59973089678115
 20
-9.271599258481472
 30
0.0
 40
4.5
100
AcDbArc
 50
270.0
 51
231.0575587310182
  0
LINE
  5
4A
330
15F54
100
AcDbEntity
  8
0
100
AcDbLine
 10
17.59973089678112
 20
-4.771599258481472
 30
0.0
 11
17.59973089678115
 21
-13.77159925848147
 31
0.0
  0
ARC
  5
4B
330
15F54
100
AcDbEntity
  8
0
100
AcDbCircle
 10
22.59973089678116
 20
-7.271599258481472
 30
0.0
 40
2.5
100
AcDbArc
 50
293.1161887722295
 51
90.0
  0
CIRCLE
  5
4C
330
15F54
100
AcDbEntity
  8
0
100
AcDbCircle
 10
31.59973089678115
 20
-9.271599258481472
 30
0.0
 40
3.5
  0
ARC
  5
4D
330
15F54
100
AcDbEntity
  8
0
100
AcDbCircle
 10
4.599730896781153
 20
-11.77159925848133
 30
0.0
 40
1.0
100
AcDbArc
 50
180.0
 51
270.0
  0
ARC
  5
4E
330
15F54
100
AcDbEntity
  8
0
100
AcDbCircle
 10
4.599730896781153
 20
-11.77159925848133
 30
0.0
 40
2.0
100
AcDbArc
 50
179.9999999999992
 51
270.0
  0
LINE
  5
4F
330
15F54
100
AcDbEntity
  8
0
100
AcDbLine
 10
11.59973089678115
 20
-13.77159925848144
 30
0.0
 11
4.599730896781153
 21
-13.77159925848147
 31
0.0
  0
LINE
  5
50
330
15F54
100
AcDbEntity
  8
0
100
AcDbLine
 10
8.771303772034769
 20
-12.77159925848136
 30
0.0
 11
4.599730896781153
 21
-12.77159925848133
 31
0.0
  0
LINE
  5
51
330
15F54
100
AcDbEntity
  8
0
100
AcDbLine
 10
31.59973089678115
 20
-13.77159925848147
 30
0.0
 11
23.6715276665056
 21
-13.77159925848144
 31
0.0
  0
LINE
  5
52
330
15F54
100
AcDbEntity
  8
0
100
AcDbLine
 10
23.56565672307022
 20
-9.51278021337896
 30
0.0
 11
24.4388546544846
 21
-12.77159925848144
 31
0.0
  0
LINE
  5
53
330
15F54
100
AcDbEntity
  8
0
100
AcDbLine
 10
22.59973089678116
 20
-9.771599258481472
 30
0.0
 11
18.59973089678112
 21
-9.771599258481472
 31
0.0
  0
LINE
  5
54
330
15F54
100
AcDbEntity
  8
0
100
AcDbLine
 10
18.59973089678115
 20
-13.77159925848144
 30
0.0
 11
17.59973089678115
 21
-13.77159925848144
 31
0.0
  0
LINE
  5
55
330
15F54
100
AcDbEntity
  8
0
100
AcDbLine
 10
18.59973089678115
 20
-9.771599258481472
 30
0.0
 11
18.59973089678115
 21
-13.77159925848144
 31
0.0
  0
LINE
  5
56
330
15F54
100
AcDbEntity
  8
0
100
AcDbLine
 10
22.59973089678116
 20
-9.771599258481472
 30
0.0
 11
23.67152766650562
 21
-13.77159925848147
 31
0.0
  0
ARC
  5
57
330
15F54
100
AcDbEntity
  8
0
100
AcDbCircle
 10
22.59973089678116
 20
-7.271599258481472
 30
0.0
 40
2.5
100
AcDbArc
 50
270.0
 51
270.0000000000007
  0
LINE
  5
58
330
15F54
100
AcDbEntity
  8
0
100
AcDbLine
 10
28.77130377203494
 20
-12.77159925848147
 30
0.0
 11
24.43885465448463
 21
-12.77159925848144
 31
0.0
  0
LINE
  5
59
330
15F54
100
AcDbEntity
  8
0
100
AcDbLine
 10
3.599730896781125
 20
-4.771599258481472
 30
0.0
 11
2.599730896781125
 21
-4.771599258481472
 31
0.0
  0
LINE
  5
5A
330
15F54
100
AcDbEntity
  8
0
100
AcDbLine
 10
22.59973089678116
 20
-8.771599258481472
 30
0.0
 11
18.59973089678115
 21
-8.771599258481472
 31
0.0
  0
LINE
  5
5B
330
15F54
100
AcDbEntity
  8
0
100
AcDbLine
 10
22.59973089678116
 20
-5.771599258481472
 30
0.0
 11
18.59973089678115
 21
-5.771599258481472
 31
0.0
  0
LINE
  5
5C
330
15F54
100
AcDbEntity
  8
0
100
AcDbLine
 10
22.59973089678116
 20
-4.771599258481472
 30
0.0
 11
17.59973089678115
 21
-4.771599258481472
 31
0.0
  0
LINE
  5
5D
330
15F54
100
AcDbEntity
  8
0
100
AcDbLine
 10
18.59973089678115
 20
-5.771599258481472
 30
0.0
 11
18.59973089678115
 21
-8.771599258481472
 31
0.0
  0
ARC
  5
5E
330
15F54
100
AcDbEntity
  8
0
100
AcDbCircle
 10
22.59973089678116
 20
-7.271599258481472
 30
0.0
 40
1.5
100
AcDbArc
 50
270.0
 51
90.0
  0
ENDBLK
  5
5F
330
15F54
100
AcDbEntity
  8
0
100
AcDbBlockEnd
  0
BLOCK
  5
14AC2
330
15F58
100
AcDbEntity
  8
0
100
AcDbBlockBegin
  2
*X3
 70
     1
 10
0.0
 20
0.0
 30
0.0
  3
*X3
  1

  0
LINE
  5
14AC4
330
15F58
100
AcDbEntity
  8
0
 62
     0
100
AcDbLine
 10
1347.474853596532
 20
756.3
 30
0.0
 11
1349.07884747893
 21
756.3
 31
0.0
  0
LINE
  5
14AC5
330
15F58
100
AcDbEntity
  8
0
 62
     0
100
AcDbLine
 10
1347.480496088077
 20
756.4
 30
0.0
 11
1349.083169397437
 21
756.4
 31
0.0
  0
LINE
  5
14AC6
330
15F58
100
AcDbEntity
  8
0
 62
     0
100
AcDbLine
 10
1347.489232562399
 20
756.5
 30
0.0
 11
1349.10996431668
 21
756.5
 31
0.0
  0
LINE
  5
14AC7
330
15F58
100
AcDbEntity
  8
0
 62
     0
100
AcDbLine
 10
1347.501088133156
 20
756.6
 30
0.0
 11
1349.136759235923
 21
756.6
 31
0.0
  0
LINE
  5
14AC8
330
15F58
100
AcDbEntity
  8
0
 62
     0
100
AcDbLine
 10
1347.516097317099
 20
756.7
 30
0.0
 11
1349.163554155166
 21
756.7
 31
0.0
  0
LINE
  5
14AC9
330
15F58
100
AcDbEntity
  8
0
 62
     0
100
AcDbLine
 10
1347.534304547754
 20
756.8
 30
0.0
 11
1349.19034907441
 21
756.8
 31
0.0
  0
LINE
  5
14ACA
330
15F58
100
AcDbEntity
  8
0
 62
     0
100
AcDbLine
 10
1347.555764855113
 20
756.9
 30
0.0
 11
1349.217143993653
 21
756.9
 31
0.0
  0
LINE
  5
14ACB
330
15F58
100
AcDbEntity
  8
0
 62
     0
100
AcDbLine
 10
1347.580544736439
 20
757.0
 30
0.0
 11
1349.243938912896
 21
757.0
 31
0.0
  0
LINE
  5
14ACC
330
15F58
100
AcDbEntity
  8
0
 62
     0
100
AcDbLine
 10
1347.608723251819
 20
757.1
 30
0.0
 11
1349.270733832139
 21
757.1
 31
0.0
  0
LINE
  5
14ACD
330
15F58
100
AcDbEntity
  8
0
 62
     0
100
AcDbLine
 10
1347.6403933891
 20
757.2
 30
0.0
 11
1349.297528751382
 21
757.2
 31
0.0
  0
LINE
  5
14ACE
330
15F58
100
AcDbEntity
  8
0
 62
     0
100
AcDbLine
 10
1347.675663757306
 20
757.3
 30
0.0
 11
1349.324323670625
 21
757.3
 31
0.0
  0
LINE
  5
14ACF
330
15F58
100
AcDbEntity
  8
0
 62
     0
100
AcDbLine
 10
1347.714660686955
 20
757.4
 30
0.0
 11
1349.351118589868
 21
757.4
 31
0.0
  0
LINE
  5
14AD0
330
15F58
100
AcDbEntity
  8
0
 62
     0
100
AcDbLine
 10
1347.757530842116
 20
757.5
 30
0.0
 11
1349.377913509111
 21
757.5
 31
0.0
  0
LINE
  5
14AD1
330
15F58
100
AcDbEntity
  8
0
 62
     0
100
AcDbLine
 10
1347.804444485611
 20
757.6
 30
0.0
 11
1349.404708428355
 21
757.6
 31
0.0
  0
LINE
  5
14AD2
330
15F58
100
AcDbEntity
  8
0
 62
     0
100
AcDbLine
 10
1347.855599590436
 20
757.7
 30
0.0
 11
1349.431503347598
 21
757.7
 31
0.0
  0
LINE
  5
14AD3
330
15F58
100
AcDbEntity
  8
0
 62
     0
100
AcDbLine
 10
1347.911227064743
 20
757.8000000000001
 30
0.0
 11
1349.458298266841
 21
757.8000000000001
 31
0.0
  0
LINE
  5
14AD4
330
15F58
100
AcDbEntity
  8
0
 62
     0
100
AcDbLine
 10
1347.971597466633
 20
757.9
 30
0.0
 11
1349.485093186084
 21
757.9
 31
0.0
  0
LINE
  5
14AD5
330
15F58
100
AcDbEntity
  8
0
 62
     0
100
AcDbLine
 10
1348.03702974826
 20
758.0
 30
0.0
 11
1349.511888105327
 21
758.0
 31
0.0
  0
LINE
  5
14AD6
330
15F58
100
AcDbEntity
  8
0
 62
     0
100
AcDbLine
 10
1348.107902819336
 20
758.1
 30
0.0
 11
1349.53868302457
 21
758.1
 31
0.0
  0
LINE
  5
14AD7
330
15F58
100
AcDbEntity
  8
0
 62
     0
100
AcDbLine
 10
1348.184671115338
 20
758.2
 30
0.0
 11
1349.565477943813
 21
758.2
 31
0.0
  0
LINE
  5
14AD8
330
15F58
100
AcDbEntity
  8
0
 62
     0
100
AcDbLine
 10
1348.267885998363
 20
758.3000000000001
 30
0.0
 11
1349.592272863056
 21
758.3000000000001
 31
0.0
  0
LINE
  5
14AD9
330
15F58
100
AcDbEntity
  8
0
 62
     0
100
AcDbLine
 10
1348.358225900624
 20
758.4000000000001
 30
0.0
 11
1349.619067782299
 21
758.4000000000001
 31
0.0
  0
LINE
  5
14ADA
330
15F58
100
AcDbEntity
  8
0
 62
     0
100
AcDbLine
 10
1348.456540017914
 20
758.4999999999999
 30
0.0
 11
1349.645862701543
 21
758.4999999999999
 31
0.0
  0
LINE
  5
14ADB
330
15F58
100
AcDbEntity
  8
0
 62
     0
100
AcDbLine
 10
1348.563913849065
 20
758.6
 30
0.0
 11
1349.672657620786
 21
758.6
 31
0.0
  0
LINE
  5
14ADC
330
15F58
100
AcDbEntity
  8
0
 62
     0
100
AcDbLine
 10
1348.681771666329
 20
758.7
 30
0.0
 11
1349.699452540029
 21
758.7
 31
0.0
  0
LINE
  5
14ADD
330
15F58
100
AcDbEntity
  8
0
 62
     0
100
AcDbLine
 10
1348.812045155237
 20
758.8
 30
0.0
 11
1349.726247459272
 21
758.8
 31
0.0
  0
LINE
  5
14ADE
330
15F58
100
AcDbEntity
  8
0
 62
     0
100
AcDbLine
 10
1348.957469617259
 20
758.9000000000001
 30
0.0
 11
1349.753042378515
 21
758.9000000000001
 31
0.0
  0
LINE
  5
14ADF
330
15F58
100
AcDbEntity
  8
0
 62
     0
100
AcDbLine
 10
1349.122150728834
 20
759.0
 30
0.0
 11
1349.779837297758
 21
759.0
 31
0.0
  0
LINE
  5
14AE0
330
15F58
100
AcDbEntity
  8
0
 62
     0
100
AcDbLine
 10
1349.312785303017
 20
759.1
 30
0.0
 11
1349.806632217001
 21
759.1
 31
0.0
  0
LINE
  5
14AE1
330
15F58
100
AcDbEntity
  8
0
 62
     0
100
AcDbLine
 10
1349.541799679887
 20
759.2
 30
0.0
 11
1349.833427136244
 21
759.2
 31
0.0
  0
LINE
  5
14AE2
330
15F58
100
AcDbEntity
  8
0
 62
     0
100
AcDbLine
 10
1347.472289011277
 20
756.2
 30
0.0
 11
1349.07884747893
 21
756.2
 31
0.0
  0
LINE
  5
14AE3
330
15F58
100
AcDbEntity
  8
0
 62
     0
100
AcDbLine
 10
1347.47279506219
 20
756.0999999999999
 30
0.0
 11
1349.07884747893
 21
756.0999999999999
 31
0.0
  0
LINE
  5
14AE4
330
15F58
100
AcDbEntity
  8
0
 62
     0
100
AcDbLine
 10
1347.476373182014
 20
756.0
 30
0.0
 11
1349.07884747893
 21
756.0
 31
0.0
  0
LINE
  5
14AE5
330
15F58
100
AcDbEntity
  8
0
 62
     0
100
AcDbLine
 10
1347.483033526714
 20
755.9000000000001
 30
0.0
 11
1349.07884747893
 21
755.9000000000001
 31
0.0
  0
LINE
  5
14AE6
330
15F58
100
AcDbEntity
  8
0
 62
     0
100
AcDbLine
 10
1347.492795120354
 20
755.8
 30
0.0
 11
1349.07884747893
 21
755.8
 31
0.0
  0
LINE
  5
14AE7
330
15F58
100
AcDbEntity
  8
0
 62
     0
100
AcDbLine
 10
1347.50568612937
 20
755.7
 30
0.0
 11
1349.07884747893
 21
755.7
 31
0.0
  0
LINE
  5
14AE8
330
15F58
100
AcDbEntity
  8
0
 62
     0
100
AcDbLine
 10
1347.521744275551
 20
755.6
 30
0.0
 11
1349.07884747893
 21
755.6
 31
0.0
  0
LINE
  5
14AE9
330
15F58
100
AcDbEntity
  8
0
 62
     0
100
AcDbLine
 10
1347.541017402131
 20
755.4999999999999
 30
0.0
 11
1349.07884747893
 21
755.4999999999999
 31
0.0
  0
LINE
  5
14AEA
330
15F58
100
AcDbEntity
  8
0
 62
     0
100
AcDbLine
 10
1347.56356421334
 20
755.4000000000001
 30
0.0
 11
1349.07884747893
 21
755.4000000000001
 31
0.0
  0
LINE
  5
14AEB
330
15F58
100
AcDbEntity
  8
0
 62
     0
100
AcDbLine
 10
1347.589455215105
 20
755.3
 30
0.0
 11
1349.07884747893
 21
755.3
 31
0.0
  0
LINE
  5
14AEC
330
15F58
100
AcDbEntity
  8
0
 62
     0
100
AcDbLine
 10
1347.618773893866
 20
755.2
 30
0.0
 11
1349.07884747893
 21
755.2
 31
0.0
  0
LINE
  5
14AED
330
15F58
100
AcDbEntity
  8
0
 62
     0
100
AcDbLine
 10
1347.651618182444
 20
755.1
 30
0.0
 11
1349.07884747893
 21
755.1
 31
0.0
  0
LINE
  5
14AEE
330
15F58
100
AcDbEntity
  8
0
 62
     0
100
AcDbLine
 10
1347.688102277824
 20
755.0
 30
0.0
 11
1349.07884747893
 21
755.0
 31
0.0
  0
LINE
  5
14AEF
330
15F58
100
AcDbEntity
  8
0
 62
     0
100
AcDbLine
 10
1347.728358897057
 20
754.9000000000001
 30
0.0
 11
1349.07884747893
 21
754.9000000000001
 31
0.0
  0
LINE
  5
14AF0
330
15F58
100
AcDbEntity
  8
0
 62
     0
100
AcDbLine
 10
1347.772542086868
 20
754.8
 30
0.0
 11
1349.07884747893
 21
754.8
 31
0.0
  0
LINE
  5
14AF1
330
15F58
100
AcDbEntity
  8
0
 62
     0
100
AcDbLine
 10
1347.820830743432
 20
754.7
 30
0.0
 11
1349.07884747893
 21
754.7
 31
0.0
  0
LINE
  5
14AF2
330
15F58
100
AcDbEntity
  8
0
 62
     0
100
AcDbLine
 10
1347.873433056908
 20
754.6
 30
0.0
 11
1349.07884747893
 21
754.6
 31
0.0
  0
LINE
  5
14AF3
330
15F58
100
AcDbEntity
  8
0
 62
     0
100
AcDbLine
 10
1347.930592179389
 20
754.4999999999999
 30
0.0
 11
1349.07884747893
 21
754.4999999999999
 31
0.0
  0
LINE
  5
14AF4
330
15F58
100
AcDbEntity
  8
0
 62
     0
100
AcDbLine
 10
1347.992593539053
 20
754.4000000000001
 30
0.0
 11
1349.07884747893
 21
754.4000000000001
 31
0.0
  0
LINE
  5
14AF5
330
15F58
100
AcDbEntity
  8
0
 62
     0
100
AcDbLine
 10
1348.059774410837
 20
754.3000000000001
 30
0.0
 11
1349.07884747893
 21
754.3000000000001
 31
0.0
  0
LINE
  5
14AF6
330
15F58
100
AcDbEntity
  8
0
 62
     0
100
AcDbLine
 10
1348.1325366442
 20
754.2
 30
0.0
 11
1349.07884747893
 21
754.2
 31
0.0
  0
LINE
  5
14AF7
330
15F58
100
AcDbEntity
  8
0
 62
     0
100
AcDbLine
 10
1348.211363910855
 20
754.1
 30
0.0
 11
1349.07884747893
 21
754.1
 31
0.0
  0
LINE
  5
14AF8
330
15F58
100
AcDbEntity
  8
0
 62
     0
100
AcDbLine
 10
1348.296845595266
 20
754.0
 30
0.0
 11
1349.07884747893
 21
754.0
 31
0.0
  0
LINE
  5
14AF9
330
15F58
100
AcDbEntity
  8
0
 62
     0
100
AcDbLine
 10
1348.389710746655
 20
753.9000000000001
 30
0.0
 11
1349.07884747893
 21
753.9000000000001
 31
0.0
  0
LINE
  5
14AFA
330
15F58
100
AcDbEntity
  8
0
 62
     0
100
AcDbLine
 10
1348.49087781749
 20
753.8000000000001
 30
0.0
 11
1349.07884747893
 21
753.8000000000001
 31
0.0
  0
LINE
  5
14AFB
330
15F58
100
AcDbEntity
  8
0
 62
     0
100
AcDbLine
 10
1348.601530228999
 20
753.7
 30
0.0
 11
1349.07884747893
 21
753.7
 31
0.0
  0
LINE
  5
14AFC
330
15F58
100
AcDbEntity
  8
0
 62
     0
100
AcDbLine
 10
1348.723236382135
 20
753.6
 30
0.0
 11
1349.07884747893
 21
753.6
 31
0.0
  0
LINE
  5
14AFD
330
15F58
100
AcDbEntity
  8
0
 62
     0
100
AcDbLine
 10
1348.858151089285
 20
753.5
 30
0.0
 11
1349.07884747893
 21
753.5
 31
0.0
  0
LINE
  5
14AFE
330
15F58
100
AcDbEntity
  8
0
 62
     0
100
AcDbLine
 10
1349.009378515683
 20
753.4
 30
0.0
 11
1349.07884747893
 21
753.4
 31
0.0
  0
ENDBLK
  5
14AFF
330
15F58
100
AcDbEntity
  8
0
100
AcDbBlockEnd
  0
BLOCK
  5
14B09
330
15F59
100
AcDbEntity
  8
0
100
AcDbBlockBegin
  2
*X4
 70
     1
 10
0.0
 20
0.0
 30
0.0
  3
*X4
  1

  0
LINE
  5
14B0B
330
15F59
100
AcDbEntity
  8
0
 62
     0
100
AcDbLine
 10
1622.078847478929
 20
720.3000000000001
 30
0.0
 11
1624.128351176117
 21
720.3000000000001
 31
0.0
  0
LINE
  5
14B0C
330
15F59
100
AcDbEntity
  8
0
 62
     0
100
AcDbLine
 10
1622.078847478929
 20
720.4
 30
0.0
 11
1624.136486462417
 21
720.4
 31
0.0
  0
LINE
  5
14B0D
330
15F59
100
AcDbEntity
  8
0
 62
     0
100
AcDbLine
 10
1622.094190641112
 20
720.5
 30
0.0
 11
1624.141779804308
 21
720.5
 31
0.0
  0
LINE
  5
14B0E
330
15F59
100
AcDbEntity
  8
0
 62
     0
100
AcDbLine
 10
1622.120985560355
 20
720.6
 30
0.0
 11
1624.144243939477
 21
720.6
 31
0.0
  0
LINE
  5
14B0F
330
15F59
100
AcDbEntity
  8
0
 62
     0
100
AcDbLine
 10
1622.147780479598
 20
720.7
 30
0.0
 11
1624.143884771531
 21
720.7
 31
0.0
  0
LINE
  5
14B10
330
15F59
100
AcDbEntity
  8
0
 62
     0
100
AcDbLine
 10
1622.174575398841
 20
720.8000000000001
 30
0.0
 11
1624.140701440997
 21
720.8000000000001
 31
0.0
  0
LINE
  5
14B11
330
15F59
100
AcDbEntity
  8
0
 62
     0
100
AcDbLine
 10
1622.201370318084
 20
720.9000000000001
 30
0.0
 11
1624.134686314997
 21
720.9000000000001
 31
0.0
  0
LINE
  5
14B12
330
15F59
100
AcDbEntity
  8
0
 62
     0
100
AcDbLine
 10
1622.228165237327
 20
721.0
 30
0.0
 11
1624.125824895353
 21
721.0
 31
0.0
  0
LINE
  5
14B13
330
15F59
100
AcDbEntity
  8
0
 62
     0
100
AcDbLine
 10
1622.254960156571
 20
721.1
 30
0.0
 11
1624.114095642491
 21
721.1
 31
0.0
  0
LINE
  5
14B14
330
15F59
100
AcDbEntity
  8
0
 62
     0
100
AcDbLine
 10
1622.281755075814
 20
721.2
 30
0.0
 11
1624.09946971013
 21
721.2
 31
0.0
  0
LINE
  5
14B15
330
15F59
100
AcDbEntity
  8
0
 62
     0
100
AcDbLine
 10
1622.308549995057
 20
721.3
 30
0.0
 11
1624.081910583006
 21
721.3
 31
0.0
  0
LINE
  5
14B16
330
15F59
100
AcDbEntity
  8
0
 62
     0
100
AcDbLine
 10
1622.3353449143
 20
721.4000000000001
 30
0.0
 11
1624.061373606765
 21
721.4000000000001
 31
0.0
  0
LINE
  5
14B17
330
15F59
100
AcDbEntity
  8
0
 62
     0
100
AcDbLine
 10
1622.362139833543
 20
721.4999999999999
 30
0.0
 11
1624.037805395479
 21
721.4999999999999
 31
0.0
  0
LINE
  5
14B18
330
15F59
100
AcDbEntity
  8
0
 62
     0
100
AcDbLine
 10
1622.388934752786
 20
721.6
 30
0.0
 11
1624.011143097634
 21
721.6
 31
0.0
  0
LINE
  5
14B19
330
15F59
100
AcDbEntity
  8
0
 62
     0
100
AcDbLine
 10
1622.415729672029
 20
721.7
 30
0.0
 11
1623.981313495765
 21
721.7
 31
0.0
  0
LINE
  5
14B1A
330
15F59
100
AcDbEntity
  8
0
 62
     0
100
AcDbLine
 10
1622.442524591273
 20
721.8
 30
0.0
 11
1623.948231907601
 21
721.8
 31
0.0
  0
LINE
  5
14B1B
330
15F59
100
AcDbEntity
  8
0
 62
     0
100
AcDbLine
 10
1622.469319510515
 20
721.9000000000001
 30
0.0
 11
1623.911800847092
 21
721.9000000000001
 31
0.0
  0
LINE
  5
14B1C
330
15F59
100
AcDbEntity
  8
0
 62
     0
100
AcDbLine
 10
1622.496114429759
 20
722.0
 30
0.0
 11
1623.871908391179
 21
722.0
 31
0.0
  0
LINE
  5
14B1D
330
15F59
100
AcDbEntity
  8
0
 62
     0
100
AcDbLine
 10
1622.522909349002
 20
722.1
 30
0.0
 11
1623.828426181384
 21
722.1
 31
0.0
  0
LINE
  5
14B1E
330
15F59
100
AcDbEntity
  8
0
 62
     0
100
AcDbLine
 10
1622.549704268245
 20
722.2
 30
0.0
 11
1623.781206966538
 21
722.2
 31
0.0
  0
LINE
  5
14B1F
330
15F59
100
AcDbEntity
  8
0
 62
     0
100
AcDbLine
 10
1622.576499187488
 20
722.3
 30
0.0
 11
1623.730081561516
 21
722.3
 31
0.0
  0
LINE
  5
14B20
330
15F59
100
AcDbEntity
  8
0
 62
     0
100
AcDbLine
 10
1622.603294106731
 20
722.4000000000001
 30
0.0
 11
1623.67485505286
 21
722.4000000000001
 31
0.0
  0
LINE
  5
14B21
330
15F59
100
AcDbEntity
  8
0
 62
     0
100
AcDbLine
 10
1622.630089025974
 20
722.5
 30
0.0
 11
1623.615302019394
 21
722.5
 31
0.0
  0
LINE
  5
14B22
330
15F59
100
AcDbEntity
  8
0
 62
     0
100
AcDbLine
 10
1622.656883945217
 20
722.5999999999999
 30
0.0
 11
1623.551160444909
 21
722.5999999999999
 31
0.0
  0
LINE
  5
14B23
330
15F59
100
AcDbEntity
  8
0
 62
     0
100
AcDbLine
 10
1622.68367886446
 20
722.7
 30
0.0
 11
1623.482123865107
 21
722.7
 31
0.0
  0
LINE
  5
14B24
330
15F59
100
AcDbEntity
  8
0
 62
     0
100
AcDbLine
 10
1622.710473783704
 20
722.8
 30
0.0
 11
1623.407831086697
 21
722.8
 31
0.0
  0
LINE
  5
14B25
330
15F59
100
AcDbEntity
  8
0
 62
     0
100
AcDbLine
 10
1622.737268702947
 20
722.9
 30
0.0
 11
1623.327852499211
 21
722.9
 31
0.0
  0
LINE
  5
14B26
330
15F59
100
AcDbEntity
  8
0
 62
     0
100
AcDbLine
 10
1622.76406362219
 20
723.0
 30
0.0
 11
1623.241671493008
 21
723.0
 31
0.0
  0
LINE
  5
14B27
330
15F59
100
AcDbEntity
  8
0
 62
     0
100
AcDbLine
 10
1622.790858541433
 20
723.1
 30
0.0
 11
1623.148658660047
 21
723.1
 31
0.0
  0
LINE
  5
14B28
330
15F59
100
AcDbEntity
  8
0
 62
     0
100
AcDbLine
 10
1622.817653460676
 20
723.2
 30
0.0
 11
1623.048035020322
 21
723.2
 31
0.0
  0
LINE
  5
14B29
330
15F59
100
AcDbEntity
  8
0
 62
     0
100
AcDbLine
 10
1622.844448379919
 20
723.3
 30
0.0
 11
1622.93881795229
 21
723.3
 31
0.0
  0
LINE
  5
14B2A
330
15F59
100
AcDbEntity
  8
0
 62
     0
100
AcDbLine
 10
1622.078847478929
 20
720.2
 30
0.0
 11
1624.117354219369
 21
720.2
 31
0.0
  0
LINE
  5
14B2B
330
15F59
100
AcDbEntity
  8
0
 62
     0
100
AcDbLine
 10
1622.078847478929
 20
720.1
 30
0.0
 11
1624.103468635785
 21
720.1
 31
0.0
  0
LINE
  5
14B2C
330
15F59
100
AcDbEntity
  8
0
 62
     0
100
AcDbLine
 10
1622.078847478929
 20
720.0
 30
0.0
 11
1624.086659901931
 21
720.0
 31
0.0
  0
LINE
  5
14B2D
330
15F59
100
AcDbEntity
  8
0
 62
     0
100
AcDbLine
 10
1622.078847478929
 20
719.9
 30
0.0
 11
1624.066885485888
 21
719.9
 31
0.0
  0
LINE
  5
14B2E
330
15F59
100
AcDbEntity
  8
0
 62
     0
100
AcDbLine
 10
1622.078847478929
 20
719.8
 30
0.0
 11
1624.044094287524
 21
719.8
 31
0.0
  0
LINE
  5
14B2F
330
15F59
100
AcDbEntity
  8
0
 62
     0
100
AcDbLine
 10
1622.078847478929
 20
719.7
 30
0.0
 11
1624.018225942608
 21
719.7
 31
0.0
  0
LINE
  5
14B30
330
15F59
100
AcDbEntity
  8
0
 62
     0
100
AcDbLine
 10
1622.078847478929
 20
719.6
 30
0.0
 11
1623.989209967509
 21
719.6
 31
0.0
  0
LINE
  5
14B31
330
15F59
100
AcDbEntity
  8
0
 62
     0
100
AcDbLine
 10
1622.078847478929
 20
719.5
 30
0.0
 11
1623.956964714383
 21
719.5
 31
0.0
  0
LINE
  5
14B32
330
15F59
100
AcDbEntity
  8
0
 62
     0
100
AcDbLine
 10
1622.078847478929
 20
719.4
 30
0.0
 11
1623.921396097889
 21
719.4
 31
0.0
  0
LINE
  5
14B33
330
15F59
100
AcDbEntity
  8
0
 62
     0
100
AcDbLine
 10
1622.078847478929
 20
719.3
 30
0.0
 11
1623.882396042814
 21
719.3
 31
0.0
  0
LINE
  5
14B34
330
15F59
100
AcDbEntity
  8
0
 62
     0
100
AcDbLine
 10
1622.078847478929
 20
719.2
 30
0.0
 11
1623.839840586468
 21
719.2
 31
0.0
  0
LINE
  5
14B35
330
15F59
100
AcDbEntity
  8
0
 62
     0
100
AcDbLine
 10
1622.078847478929
 20
719.1
 30
0.0
 11
1623.793587548624
 21
719.1
 31
0.0
  0
LINE
  5
14B36
330
15F59
100
AcDbEntity
  8
0
 62
     0
100
AcDbLine
 10
1622.078847478929
 20
719.0
 30
0.0
 11
1623.743473652917
 21
719.0
 31
0.0
  0
LINE
  5
14B37
330
15F59
100
AcDbEntity
  8
0
 62
     0
100
AcDbLine
 10
1622.078847478929
 20
718.9
 30
0.0
 11
1623.689310943236
 21
718.9
 31
0.0
  0
LINE
  5
14B38
330
15F59
100
AcDbEntity
  8
0
 62
     0
100
AcDbLine
 10
1622.078847478929
 20
718.8
 30
0.0
 11
1623.630882281435
 21
718.8
 31
0.0
  0
LINE
  5
14B39
330
15F59
100
AcDbEntity
  8
0
 62
     0
100
AcDbLine
 10
1622.078847478929
 20
718.7
 30
0.0
 11
1623.567935630005
 21
718.7
 31
0.0
  0
LINE
  5
14B3A
330
15F59
100
AcDbEntity
  8
0
 62
     0
100
AcDbLine
 10
1622.078847478929
 20
718.5999999999999
 30
0.0
 11
1623.500176701571
 21
718.5999999999999
 31
0.0
  0
LINE
  5
14B3B
330
15F59
100
AcDbEntity
  8
0
 62
     0
100
AcDbLine
 10
1622.078847478929
 20
718.5
 30
0.0
 11
1623.427259373666
 21
718.5
 31
0.0
  0
LINE
  5
14B3C
330
15F59
100
AcDbEntity
  8
0
 62
     0
100
AcDbLine
 10
1622.078847478929
 20
718.4000000000001
 30
0.0
 11
1623.348772984285
 21
718.4000000000001
 31
0.0
  0
LINE
  5
14B3D
330
15F59
100
AcDbEntity
  8
0
 62
     0
100
AcDbLine
 10
1622.078847478929
 20
718.3
 30
0.0
 11
1623.264225174948
 21
718.3
 31
0.0
  0
LINE
  5
14B3E
330
15F59
100
AcDbEntity
  8
0
 62
     0
100
AcDbLine
 10
1622.078847478929
 20
718.2
 30
0.0
 11
1623.173018213738
 21
718.2
 31
0.0
  0
LINE
  5
14B3F
330
15F59
100
AcDbEntity
  8
0
 62
     0
100
AcDbLine
 10
1622.078847478929
 20
718.1
 30
0.0
 11
1623.074415485422
 21
718.1
 31
0.0
  0
LINE
  5
14B40
330
15F59
100
AcDbEntity
  8
0
 62
     0
100
AcDbLine
 10
1622.078847478929
 20
718.0
 30
0.0
 11
1622.967492633995
 21
718.0
 31
0.0
  0
LINE
  5
14B41
330
15F59
100
AcDbEntity
  8
0
 62
     0
100
AcDbLine
 10
1622.078847478929
 20
717.9000000000001
 30
0.0
 11
1622.85106375431
 21
717.9000000000001
 31
0.0
  0
LINE
  5
14B42
330
15F59
100
AcDbEntity
  8
0
 62
     0
100
AcDbLine
 10
1622.078847478929
 20
717.8
 30
0.0
 11
1622.723564978522
 21
717.8
 31
0.0
  0
LINE
  5
14B43
330
15F59
100
AcDbEntity
  8
0
 62
     0
100
AcDbLine
 10
1622.078847478929
 20
717.7
 30
0.0
 11
1622.582860772538
 21
717.7
 31
0.0
  0
LINE
  5
14B44
330
15F59
100
AcDbEntity
  8
0
 62
     0
100
AcDbLine
 10
1622.078847478929
 20
717.6
 30
0.0
 11
1622.425898848637
 21
717.6
 31
0.0
  0
LINE
  5
14B45
330
15F59
100
AcDbEntity
  8
0
 62
     0
100
AcDbLine
 10
1622.078847478929
 20
717.4999999999999
 30
0.0
 11
1622.248037137925
 21
717.4999999999999
 31
0.0
  0
ENDBLK
  5
14B46
330
15F59
100
AcDbEntity
  8
0
100
AcDbBlockEnd
  0
BLOCK
  5
15187
330
15F5E
100
AcDbEntity
  8
0
100
AcDbBlockBegin
  2
*D7
 70
     1
 10
0.0
 20
0.0
 30
0.0
  3
*D7
  1

  0
LINE
  5
15188
330
15F5E
100
AcDbEntity
  8
0
  6
ByBlock
 62
     0
100
AcDbLine
 10
1515.602003181871
 20
850.4612469467954
 30
0.0
 11
1531.144598404917
 21
908.4670020006795
 31
0.0
  0
LINE
  5
15189
330
15F5E
100
AcDbEntity
  8
0
  6
ByBlock
 62
     0
100
AcDbLine
 10
1485.578847478929
 20
743.4133044598626
 30
0.0
 11
1485.578847478929
 21
914.465846914531
 31
0.0
  0
ARC
  5
1518A
330
15F5E
100
AcDbEntity
  8
0
  6
ByBlock
 62
     0
100
AcDbCircle
 10
1485.578847478929
 20
738.4133044598625
 30
0.0
 40
171.0525424546686
100
AcDbArc
 50
63.27127700407155
 51
69.1356385020358
  0
ARC
  5
1518B
330
15F5E
100
AcDbEntity
  8
0
  6
ByBlock
 62
     0
100
AcDbCircle
 10
1485.578847478929
 20
738.4133044598625
 30
0.0
 40
171.0525424546686
100
AcDbArc
 50
95.86436149796424
 51
101.7287229959285
  0
ARC
  5
1518C
330
15F5E
100
AcDbEntity
  8
0
  6
ByBlock
 62
     0
100
AcDbCircle
 10
1485.578847478929
 20
738.4133044598625
 30
0.0
 40
171.0525424546686
100
AcDbArc
 50
75.00000000000006
 51
90.0
  0
SOLID
  5
1518D
330
15F5E
100
AcDbEntity
  8
0
  6
ByBlock
 62
     0
100
AcDbTrace
 10
1545.602366058405
 20
895.4742999009452
 30
0.0
 11
1547.398397135742
 21
901.0242593735016
 31
0.0
 12
1529.850503179405
 22
903.6373728692343
 32
0.0
 13
1529.850503179405
 23
903.6373728692343
 33
0.0
  0
SOLID
  5
1518E
330
15F5E
100
AcDbEntity
  8
0
  6
ByBlock
 62
     0
100
AcDbTrace
 10
1467.952559969811
 20
911.483502259318
 30
0.0
 11
1468.250957561184
 21
905.6578060215073
 31
0.0
 12
1485.578847478929
 22
909.4658469145311
 32
0.0
 13
1485.578847478929
 23
909.4658469145311
 33
0.0
  0
TEXT
  5
1518F
330
15F5E
100
AcDbEntity
  8
0
  6
ByBlock
 62
     1
100
AcDbText
 10
1497.351124277207
 20
918.8290037559797
 30
0.0
 40
17.5
  1
15%%d
 50
353.5822855695272
 41
0.8
  7
GREEKS
 72
     1
 11
1511.578944586822
 21
926.0338220753475
 31
0.0
100
AcDbText
 73
     2
  0
POINT
  5
15190
330
15F5E
100
AcDbEntity
  8
DEFPOINTS
  6
ByBlock
 62
     0
100
AcDbPoint
 10
1502.994010120984
 20
908.5770032629767
 30
0.0
  0
POINT
  5
15191
330
15F5E
100
AcDbEntity
  8
DEFPOINTS
  6
ByBlock
 62
     0
100
AcDbPoint
 10
1485.578847478929
 20
738.4133044598626
 30
0.0
  0
POINT
  5
15192
330
15F5E
100
AcDbEntity
  8
DEFPOINTS
  6
ByBlock
 62
     0
100
AcDbPoint
 10
1485.578847478929
 20
738.4133044598626
 30
0.0
  0
POINT
  5
15193
330
15F5E
100
AcDbEntity
  8
DEFPOINTS
  6
ByBlock
 62
     0
100
AcDbPoint
 10
1514.307907956359
 20
845.63161781535
 30
0.0
  0
POINT
  5
15194
330
15F5E
100
AcDbEntity
  8
DEFPOINTS
  6
ByBlock
 62
     0
100
AcDbPoint
 10
1485.578847478929
 20
627.412738539184
 30
0.0
  0
ENDBLK
  5
15195
330
15F5E
100
AcDbEntity
  8
0
100
AcDbBlockEnd
  0
BLOCK
  5
15FA3
330
15F99
100
AcDbEntity
  8
0
100
AcDbBlockBegin
  2
*D10
 70
     1
 10
0.0
 20
0.0
 30
0.0
  3
*D10
  1

  0
LINE
  5
15FC3
330
15F99
100
AcDbEntity
  8
BEM
 62
     0
370
    -2
100
AcDbLine
 10
585.9831707516896
 20
874.4158229315072
 30
0.0
 11
420.2346991865472
 21
918.82799203408
 31
0.0
  0
LINE
  5
15FC4
330
15F99
100
AcDbEntity
  8
BEM
 62
     0
370
    -2
100
AcDbLine
 10
481.5692607151488
 20
1012.133306812043
 30
0.0
 11
447.6696644384645
 21
1021.216676258122
 31
0.0
  0
LINE
  5
15FC5
330
15F99
100
AcDbEntity
  8
BEM
 62
     0
370
    -2
100
AcDbLine
 10
429.5936616072866
 20
934.4375987686261
 30
0.0
 11
447.9699602806158
 21
1003.018879072551
 31
0.0
  0
SOLID
  5
15FC6
330
15F99
100
AcDbEntity
  8
BEM
 62
     0
100
AcDbTrace
 10
426.7763779472769
 20
935.1924876501751
 30
0.0
 11
432.4109452672964
 21
933.682709887077
 31
0.0
 12
425.0643283179925
 22
917.5338968085673
 32
0.0
 13
425.0643283179925
 23
917.5338968085673
 33
0.0
  0
SOLID
  5
15FC7
330
15F99
100
AcDbEntity
  8
BEM
 62
     0
100
AcDbTrace
 10
445.152676620606
 20
1003.7737679541
 30
0.0
 11
450.7872439406255
 21
1002.263990191002
 31
0.0
 12
452.4992935699099
 22
1019.92258103261
 32
0.0
 13
452.4992935699099
 23
1019.92258103261
 33
0.0
  0
MTEXT
  5
15FC8
330
15F99
100
AcDbEntity
  8
BEM
 62
     1
100
AcDbMText
 10
424.1579990235524
 20
976.9366085421179
 30
0.0
 40
17.5
 41
0.0
 71
     5
 72
     1
  1
\A1;106
  7
GREEKS
 11
0.2588190451025207
 21
0.9659258262890682
 31
0.0
 73
     1
 44
1.0
  0
POINT
  5
15FC9
330
15F99
100
AcDbEntity
  8
DEFPOINTS
 62
     0
100
AcDbPoint
 10
590.8127998831349
 20
873.1217277059945
 30
0.0
  0
POINT
  5
15FCA
330
15F99
100
AcDbEntity
  8
DEFPOINTS
 62
     0
100
AcDbPoint
 10
486.3988898465941
 20
1010.839211586531
 30
0.0
  0
POINT
  5
15FCB
330
15F99
100
AcDbEntity
  8
DEFPOINTS
 62
     0
100
AcDbPoint
 10
452.4992935699099
 20
1019.92258103261
 30
0.0
  0
ENDBLK
  5
15FA4
330
15F99
100
AcDbEntity
  8
0
100
AcDbBlockEnd
  0
BLOCK
  5
15FAF
330
15FA5
100
AcDbEntity
  8
0
100
AcDbBlockBegin
  2
*D11
 70
     1
 10
0.0
 20
0.0
 30
0.0
  3
*D11
  1

  0
LINE
  5
15FCC
330
15FA5
100
AcDbEntity
  8
BEM
 62
     0
370
    -2
100
AcDbLine
 10
585.8127998831347
 20
873.1217277059945
 30
0.0
 11
415.772324027216
 21
873.1217277059945
 31
0.0
  0
LINE
  5
15FCD
330
15FA5
100
AcDbEntity
  8
BEM
 62
     0
370
    -2
100
AcDbLine
 10
449.3127998831347
 20
767.121161785316
 30
0.0
 11
415.772324027216
 21
767.121161785316
 31
0.0
  0
LINE
  5
15FCE
330
15FA5
100
AcDbEntity
  8
BEM
 62
     0
370
    -2
100
AcDbLine
 10
420.772324027216
 20
855.6217277059944
 30
0.0
 11
420.772324027216
 21
784.621161785316
 31
0.0
  0
SOLID
  5
15FCF
330
15FA5
100
AcDbEntity
  8
BEM
 62
     0
100
AcDbTrace
 10
417.8556573605493
 20
855.6217277059944
 30
0.0
 11
423.6889906938826
 21
855.6217277059944
 31
0.0
 12
420.772324027216
 22
873.1217277059945
 32
0.0
 13
420.772324027216
 23
873.1217277059945
 33
0.0
  0
SOLID
  5
15FD0
330
15FA5
100
AcDbEntity
  8
BEM
 62
     0
100
AcDbTrace
 10
417.8556573605493
 20
784.621161785316
 30
0.0
 11
423.6889906938826
 21
784.621161785316
 31
0.0
 12
420.772324027216
 22
767.121161785316
 32
0.0
 13
420.772324027216
 23
767.121161785316
 33
0.0
  0
MTEXT
  5
15FD1
330
15FA5
100
AcDbEntity
  8
BEM
 62
     1
100
AcDbMText
 10
404.5223240272158
 20
820.7110362601145
 30
0.0
 40
17.5
 41
0.0
 71
     5
 72
     1
  1
\A1;106
  7
GREEKS
 11
0.0000000000000001
 21
1.0
 31
0.0
 73
     1
 44
1.0
  0
POINT
  5
15FD2
330
15FA5
100
AcDbEntity
  8
DEFPOINTS
 62
     0
100
AcDbPoint
 10
590.8127998831347
 20
873.1217277059945
 30
0.0
  0
POINT
  5
15FD3
330
15FA5
100
AcDbEntity
  8
DEFPOINTS
 62
     0
100
AcDbPoint
 10
454.3127998831347
 20
767.121161785316
 30
0.0
  0
POINT
  5
15FD4
330
15FA5
100
AcDbEntity
  8
DEFPOINTS
 62
     0
100
AcDbPoint
 10
420.772324027216
 20
767.121161785316
 30
0.0
  0
ENDBLK
  5
15FB0
330
15FA5
100
AcDbEntity
  8
0
100
AcDbBlockEnd
  0
BLOCK
  5
16015
330
1600B
100
AcDbEntity
  8
0
100
AcDbBlockBegin
  2
*D12
 70
     1
 10
0.0
 20
0.0
 30
0.0
  3
*D12
  1

  0
LINE
  5
16017
330
1600B
100
AcDbEntity
  8
BEM
 62
     0
370
    -2
100
AcDbLine
 10
727.3127998831347
 20
762.1211617853159
 30
0.0
 11
727.3127998831347
 21
717.8907649343111
 31
0.0
  0
LINE
  5
16018
330
1600B
100
AcDbEntity
  8
BEM
 62
     0
370
    -2
100
AcDbLine
 10
454.312799883135
 20
762.1211617853159
 30
0.0
 11
454.312799883135
 21
717.8907649343111
 31
0.0
  0
LINE
  5
16019
330
1600B
100
AcDbEntity
  8
BEM
 62
     0
370
    -2
100
AcDbLine
 10
709.8127998831347
 20
722.8907649343112
 30
0.0
 11
471.812799883135
 21
722.8907649343112
 31
0.0
  0
SOLID
  5
1601A
330
1600B
100
AcDbEntity
  8
BEM
 62
     0
100
AcDbTrace
 10
709.8127998831347
 20
725.8074316009778
 30
0.0
 11
709.8127998831347
 21
719.9740982676445
 31
0.0
 12
727.3127998831347
 22
722.8907649343112
 32
0.0
 13
727.3127998831347
 23
722.8907649343112
 33
0.0
  0
SOLID
  5
1601B
330
1600B
100
AcDbEntity
  8
BEM
 62
     0
100
AcDbTrace
 10
471.812799883135
 20
725.8074316009778
 30
0.0
 11
471.812799883135
 21
719.9740982676445
 31
0.0
 12
454.312799883135
 22
722.8907649343112
 32
0.0
 13
454.312799883135
 23
722.8907649343112
 33
0.0
  0
MTEXT
  5
1601C
330
1600B
100
AcDbEntity
  8
BEM
 62
     1
100
AcDbMText
 10
590.8127998831348
 20
739.1407649343111
 30
0.0
 40
17.5
 41
0.0
 71
     5
 72
     1
  1
\A1;%%c273
  7
GREEKS
 73
     1
 44
1.0
  0
POINT
  5
1601D
330
1600B
100
AcDbEntity
  8
DEFPOINTS
 62
     0
100
AcDbPoint
 10
727.3127998831347
 20
767.121161785316
 30
0.0
  0
POINT
  5
1601E
330
1600B
100
AcDbEntity
  8
DEFPOINTS
 62
     0
100
AcDbPoint
 10
454.312799883135
 20
767.121161785316
 30
0.0
  0
POINT
  5
1601F
330
1600B
100
AcDbEntity
  8
DEFPOINTS
 62
     0
100
AcDbPoint
 10
454.312799883135
 20
722.8907649343112
 30
0.0
  0
ENDBLK
  5
16016
330
1600B
100
AcDbEntity
  8
0
100
AcDbBlockEnd
  0
ENDSEC
  0
SECTION
  2
ENTITIES
  0
DIMENSION
  5
15EB4
330
15F50
100
AcDbEntity
  8
BEM
100
AcDbDimension
  2
*D12
 10
454.312799883135
 20
722.8907649343112
 30
0.0
 11
590.8127998831348
 21
739.1407649343111
 31
0.0
 70
    32
  1
%%c<>
 71
     5
 42
272.9999999999998
  3
Standard
100
AcDbAlignedDimension
 13
727.3127998831347
 23
767.121161785316
 33
0.0
 14
454.312799883135
 24
767.121161785316
 34
0.0
100
AcDbRotatedDimension
1001
ACAD
1000
DSTYLE
1002
{
1070
    40
1040
5.0
1070
    41
1040
3.5
1070
    42
1040
1.0
1070
    43
1040
7.0
1070
    44
1040
1.0
1070
    47
1040
3.0
1070
    48
1040
3.0
1070
    73
1070
     0
1070
    74
1070
     0
1070
    77
1070
     1
1070
    78
1070
     8
1070
    79
1070
     2
1070
   140
1040
3.5
1070
   141
1040
1.5
1070
   146
1040
0.5
1070
   147
1040
1.5
1070
   172
1070
     1
1070
   178
1070
     1
1070
   179
1070
     2
1070
   271
1070
     2
1070
   272
1070
     2
1070
   284
1070
     8
1070
   285
1070
     8
1070
   286
1070
     8
1070
   340
1005
15F61
1002
}
  0
DIMENSION
  5
15EB7
330
15F50
100
AcDbEntity
  8
BEM
100
AcDbDimension
  2
*D10
 10
452.4992935699099
 20
1019.92258103261
 30
0.0
 11
439.8542937007497
 21
972.730799059202
 31
0.0
 70
   160
 71
     5
 42
106.0005659206806
  3
Standard
100
AcDbAlignedDimension
 13
590.8127998831349
 23
873.1217277059945
 33
0.0
 14
486.3988898465942
 24
1010.839211586531
 34
0.0
 50
75.0
100
AcDbRotatedDimension
1001
ACAD
1000
DSTYLE
1002
{
1070
    40
1040
5.0
1070
    41
1040
3.5
1070
    42
1040
1.0
1070
    43
1040
7.0
1070
    44
1040
1.0
1070
    47
1040
3.0
1070
    48
1040
3.0
1070
    73
1070
     0
1070
    74
1070
     0
1070
    77
1070
     1
1070
    78
1070
     8
1070
    79
1070
     2
1070
   140
1040
3.5
1070
   141
1040
1.5
1070
   146
1040
0.5
1070
   147
1040
1.5
1070
   172
1070
     1
1070
   178
1070
     1
1070
   179
1070
     2
1070
   271
1070
     2
1070
   272
1070
     2
1070
   284
1070
     8
1070
   285
1070
     8
1070
   286
1070
     8
1070
   340
1005
15F61
1002
}
  0
DIMENSION
  5
15EB8
330
15F50
100
AcDbEntity
  8
BEM
100
AcDbDimension
  2
*D11
 10
420.772324027216
 20
767.121161785316
 30
0.0
 11
420.7723240272158
 21
820.7110362601145
 31
0.0
 70
   160
 71
     5
 42
106.0005659206786
  3
Standard
100
AcDbAlignedDimension
 13
590.8127998831347
 23
873.1217277059945
 33
0.0
 14
454.3127998831347
 24
767.121161785316
 34
0.0
 50
90.0
100
AcDbRotatedDimension
1001
ACAD
1000
DSTYLE
1002
{
1070
    40
1040
5.0
1070
    41
1040
3.5
1070
    42
1040
1.0
1070
    43
1040
7.0
1070
    44
1040
1.0
1070
    47
1040
3.0
1070
    48
1040
3.0
1070
    73
1070
     0
1070
    74
1070
     0
1070
    77
1070
     1
1070
    78
1070
     8
1070
    79
1070
     2
1070
   140
1040
3.5
1070
   141
1040
1.5
1070
   146
1040
0.5
1070
   147
1040
1.5
1070
   172
1070
     1
1070
   178
1070
     1
1070
   179
1070
     2
1070
   271
1070
     2
1070
   272
1070
     2
1070
   284
1070
     8
1070
   285
1070
     8
1070
   286
1070
     8
1070
   340
1005
15F61
1002
}
  0
LINE
  5
15EB9
330
15F50
100
AcDbEntity
  8
STEMPEL
100
AcDbLine
 10
750.0966404235099
 20
940.1816122735423
 30
0.0
 11
486.3988898465942
 21
1010.839211586531
 31
0.0
  0
LINE
  5
15EBA
330
15F50
100
AcDbEntity
  8
STEMPEL
100
AcDbLine
 10
727.3127998831342
 20
855.151161785316
 30
0.0
 11
454.3127998831351
 21
891.092293626675
 31
0.0
  0
ARC
  5
15EBB
330
15F50
100
AcDbEntity
  8
SCHRAFF
100
AcDbCircle
 10
522.7360640917814
 20
882.0733776969564
 30
0.0
 40
3.811488253428933
100
AcDbArc
 50
300.585224108806
 51
44.41477589119089
  0
LINE
  5
15EBC
330
15F50
100
AcDbEntity
  8
STEMPEL
100
AcDbLine
 10
727.3127998831347
 20
767.121161785316
 30
0.0
 11
454.3127998831347
 21
767.121161785316
 31
0.0
  0
TEXT
  5
15EBD
330
15F50
100
AcDbEntity
  8
TEXT
 62
     1
100
AcDbText
 10
273.9036994186759
 20
439.8504167589382
 30
0.0
 40
17.5
  1
Rohrenden leicht entgratet
 41
0.8
  7
GREEKS
100
AcDbText
  0
LINE
  5
15EBE
330
15F50
100
AcDbEntity
  8
STEMPEL
100
AcDbLine
 10
1025.0
 20
275.0000000000001
 30
0.0
 11
99.99999999999992
 21
275.0
 31
0.0
  0
LINE
  5
15EBF
330
15F50
100
AcDbEntity
  8
STEMPEL
100
AcDbLine
 10
1025.0
 20
100.0
 30
0.0
 11
365.0000000000003
 21
99.99999999999992
 31
0.0
  0
LINE
  5
15EC0
330
15F50
100
AcDbEntity
  8
STEMPEL
100
AcDbLine
 10
1025.0
 20
200.0
 30
0.0
 11
365.0000000000003
 21
199.9999999999998
 31
0.0
  0
LINE
  5
15EC1
330
15F50
100
AcDbEntity
  8
HILF
100
AcDbLine
 10
365.0000000000003
 20
174.9999999999998
 30
0.0
 11
575.0
 21
174.9999999999998
 31
0.0
  0
LINE
  5
15EC2
330
15F50
100
AcDbEntity
  8
HILF
100
AcDbLine
 10
365.0000000000003
 20
149.9999999999999
 30
0.0
 11
575.0
 21
149.9999999999999
 31
0.0
  0
LINE
  5
15EC3
330
15F50
100
AcDbEntity
  8
HILF
100
AcDbLine
 10
365.0000000000003
 20
124.9999999999999
 30
0.0
 11
575.0
 21
124.9999999999999
 31
0.0
  0
LINE
  5
15EC4
330
15F50
100
AcDbEntity
  8
STEMPEL
100
AcDbLine
 10
124.9999999999997
 20
25.0
 30
0.0
 11
1025.0
 21
25.0
 31
0.0
  0
LINE
  5
15EC5
330
15F50
100
AcDbEntity
  8
STEMPEL
100
AcDbLine
 10
1025.0
 20
25.0
 30
0.0
 11
99.99999999999971
 21
25.0
 31
0.0
  0
LINE
  5
15EC6
330
15F50
100
AcDbEntity
  8
HILF
100
AcDbLine
 10
1050.0
 20
0.0
 30
0.0
 11
0.0
 21
0.0
 31
0.0
  0
INSERT
  5
15EC7
330
15F50
100
AcDbEntity
  8
STEMPEL
100
AcDbBlockReference
  2
LOGO
 10
377.4888713644485
 20
112.552631911208
 30
0.0
 41
5.0
 42
5.0
 43
5.0
  0
TEXT
  5
15EC8
330
15F50
100
AcDbEntity
  8
TEXT
100
AcDbText
 10
511.0540121453142
 20
157.7240979930877
 30
0.0
 40
10.0
  1
Koeh
 41
0.8
  7
GREEKS
 72
     1
 11
524.1968692881714
 21
157.7240979930877
 31
0.0
100
AcDbText
  0
TEXT
  5
15EC9
330
15F50
100
AcDbEntity
  8
TEXT
100
AcDbText
 10
506.1566460565737
 20
183.2740272978806
 30
0.0
 40
10.0
  1
Name
 41
0.8
  7
GREEKS
100
AcDbText
  0
TEXT
  5
15ECA
330
15F50
100
AcDbEntity
  8
TEXT
100
AcDbText
 10
485.7147386835128
 20
256.0460421087048
 30
0.0
 40
12.5
  1
Zul. Abw.
 41
0.8
  7
GREEKS
100
AcDbText
  0
TEXT
  5
15ECB
330
15F50
100
AcDbEntity
  8
TEXT
 62
     1
100
AcDbText
 10
471.7846544748148
 20
351.64847138984
 30
0.0
 40
17.5
  1
Werkstoff: EN 10219 S235
 41
0.8
  7
GREEKS
100
AcDbText
  0
LINE
  5
15ECD
330
15F50
100
AcDbEntity
  8
STEMPEL
100
AcDbLine
 10
1025.0
 20
1460.0
 30
0.0
 11
99.99999999999971
 21
1460.0
 31
0.0
  0
LINE
  5
15ECE
330
15F50
100
AcDbEntity
  8
HILF
100
AcDbLine
 10
1050.0
 20
1485.0
 30
0.0
 11
0.0
 21
1485.0
 31
0.0
  0
LINE
  5
15ECF
330
15F50
100
AcDbEntity
  8
STEMPEL
100
AcDbLine
 10
100.0
 20
25.0
 30
0.0
 11
99.99999999999971
 21
1460.0
 31
0.0
  0
LINE
  5
15ED0
330
15F50
100
AcDbEntity
  8
HILF
100
AcDbLine
 10
0.0
 20
0.0
 30
0.0
 11
-0.0000000000002842
 21
1485.0
 31
0.0
  0
TEXT
  5
15ED1
330
15F50
100
AcDbEntity
  8
TEXT
100
AcDbText
 10
104.6377487744418
 20
279.1799999999999
 30
0.0
 40
12.5
  1
Erstellt mit AUTOCAD 2004
 41
0.8
  7
GREEKS
100
AcDbText
  0
TEXT
  5
15ED2
330
15F50
100
AcDbEntity
  8
TEXT
100
AcDbText
 10
164.5864391002692
 20
46.68454737460329
 30
0.0
 40
10.0
  1
Änderung
 41
0.8
  7
GREEKS
 72
     1
 11
191.4435819574121
 21
46.68454737460329
 31
0.0
100
AcDbText
  0
LINE
  5
15ED3
330
15F50
100
AcDbEntity
  8
STEMPEL
100
AcDbLine
 10
364.9999999999997
 20
74.99999999999992
 30
0.0
 11
99.99999999999992
 21
74.99999999999992
 31
0.0
  0
LINE
  5
15ED4
330
15F50
100
AcDbEntity
  8
HILF
100
AcDbLine
 10
100.0000000000002
 20
250.0000000000001
 30
0.0
 11
365.0000000000003
 21
250.0000000000001
 31
0.0
  0
LINE
  5
15ED5
330
15F50
100
AcDbEntity
  8
HILF
100
AcDbLine
 10
100.0000000000002
 20
225.0000000000001
 30
0.0
 11
365.0000000000003
 21
225.0000000000001
 31
0.0
  0
LINE
  5
15ED6
330
15F50
100
AcDbEntity
  8
HILF
100
AcDbLine
 10
100.0000000000002
 20
199.9999999999998
 30
0.0
 11
365.0000000000003
 21
199.9999999999998
 31
0.0
  0
LINE
  5
15ED7
330
15F50
100
AcDbEntity
  8
HILF
100
AcDbLine
 10
100.0000000000002
 20
174.9999999999998
 30
0.0
 11
365.0000000000003
 21
174.9999999999998
 31
0.0
  0
LINE
  5
15ED8
330
15F50
100
AcDbEntity
  8
HILF
100
AcDbLine
 10
100.0000000000002
 20
149.9999999999999
 30
0.0
 11
365.0000000000003
 21
149.9999999999999
 31
0.0
  0
LINE
  5
15ED9
330
15F50
100
AcDbEntity
  8
HILF
100
AcDbLine
 10
100.0000000000002
 20
124.9999999999999
 30
0.0
 11
365.0000000000003
 21
124.9999999999999
 31
0.0
  0
LINE
  5
15EDA
330
15F50
100
AcDbEntity
  8
HILF
100
AcDbLine
 10
100.0000000000002
 20
99.99999999999992
 30
0.0
 11
365.0000000000003
 21
99.99999999999992
 31
0.0
  0
LINE
  5
15EDB
330
15F50
100
AcDbEntity
  8
VOLL
100
AcDbLine
 10
135.0000000000002
 20
275.0000000000001
 30
0.0
 11
134.9999999999999
 21
24.99999999999993
 31
0.0
  0
TEXT
  5
15EDC
330
15F50
100
AcDbEntity
  8
TEXT
100
AcDbText
 10
120.6660276761439
 20
34.13664615067979
 30
0.0
 40
10.0
  1
Index
 50
90.0
 41
0.8
  7
GREEKS
100
AcDbText
  0
LINE
  5
15EDD
330
15F50
100
AcDbEntity
  8
HILF
100
AcDbLine
 10
77.7191783928464
 20
742.5000000000001
 30
0.0
 11
0.0000000000002842
 21
742.5000000000001
 31
0.0
  0
LINE
  5
15EDE
330
15F50
100
AcDbEntity
  8
VOLL
100
AcDbLine
 10
260.0000000000003
 20
274.9999999999999
 30
0.0
 11
260.0
 21
24.99999999999993
 31
0.0
  0
LINE
  5
15EDF
330
15F50
100
AcDbEntity
  8
VOLL
100
AcDbLine
 10
310.0000000000003
 20
274.9999999999999
 30
0.0
 11
310.0
 21
24.99999999999993
 31
0.0
  0
TEXT
  5
15EE0
330
15F50
100
AcDbEntity
  8
TEXT
100
AcDbText
 10
274.2609029640008
 20
46.67890673349525
 30
0.0
 40
10.0
  1
Tag
 41
0.8
  7
GREEKS
 72
     1
 11
283.5942362973341
 21
46.67890673349525
 31
0.0
100
AcDbText
  0
TEXT
  5
15EE1
330
15F50
100
AcDbEntity
  8
TEXT
100
AcDbText
 10
321.2631057832852
 20
46.4831054241602
 30
0.0
 40
10.0
  1
Name
 41
0.8
  7
GREEKS
 72
     1
 11
337.072629592809
 21
46.4831054241602
 31
0.0
100
AcDbText
  0
LINE
  5
15EE2
330
15F50
100
AcDbEntity
  8
STEMPEL
100
AcDbLine
 10
365.0000000000003
 20
274.9999999999999
 30
0.0
 11
365.0
 21
24.99999999999993
 31
0.0
  0
TEXT
  5
15EE3
330
15F50
100
AcDbEntity
  8
TEXT
100
AcDbText
 10
425.9974927705902
 20
157.7691260206433
 30
0.0
 40
10.0
  1
06.04.
 41
0.8
  7
GREEKS
 72
     1
 11
443.5213022943996
 21
157.7691260206433
 31
0.0
100
AcDbText
  0
TEXT
  5
15EE4
330
15F50
100
AcDbEntity
  8
TEXT
100
AcDbText
 10
430.8279182884127
 20
183.2970125307481
 30
0.0
 40
10.0
  1
Tag
 41
0.8
  7
GREEKS
100
AcDbText
  0
TEXT
  5
15EE5
330
15F50
100
AcDbEntity
  8
TEXT
100
AcDbText
 10
368.9590317919039
 20
159.0747592404491
 30
0.0
 40
10.0
  1
Gez.
 41
0.8
  7
GREEKS
100
AcDbText
  0
LINE
  5
15EE6
330
15F50
100
AcDbEntity
  8
VOLL
100
AcDbLine
 10
410.0000000000003
 20
199.9999999999998
 30
0.0
 11
410.0000000000003
 21
99.99999999999992
 31
0.0
  0
TEXT
  5
15EE7
330
15F50
100
AcDbEntity
  8
TEXT
100
AcDbText
 10
369.0016943468259
 20
108.8236597412452
 30
0.0
 40
10.0
  1
Norm.
 41
0.8
  7
GREEKS
100
AcDbText
  0
TEXT
  5
15EE8
330
15F50
100
AcDbEntity
  8
TEXT
100
AcDbText
 10
368.8787716429181
 20
134.2231572857094
 30
0.0
 40
10.0
  1
Gepr.
 41
0.8
  7
GREEKS
100
AcDbText
  0
TEXT
  5
15EE9
330
15F50
100
AcDbEntity
  8
TEXT
100
AcDbText
 10
383.7908930375943
 20
256.1552237717722
 30
0.0
 40
12.5
  1
Maßstab
 41
0.8
  7
GREEKS
100
AcDbText
  0
TEXT
  5
15EEA
330
15F50
100
AcDbEntity
  8
TEXT
 62
     1
100
AcDbText
 10
401.2515766204717
 20
220.372535722849
 30
0.0
 40
17.5
  1
1:5
 41
0.8
  7
GREEKS
100
AcDbText
  0
TEXT
  5
15EEB
330
15F50
100
AcDbEntity
  8
TEXT
100
AcDbText
 10
371.55527455526
 20
182.8506367787916
 30
0.0
 40
10.0
  1
2011
 41
0.8
  7
GREEKS
100
AcDbText
  0
LINE
  5
15EEC
330
15F50
100
AcDbEntity
  8
VOLL
100
AcDbLine
 10
475.0000000000002
 20
274.9999999999996
 30
0.0
 11
475.0
 21
99.99999999999992
 31
0.0
  0
LINE
  5
15EED
330
15F50
100
AcDbEntity
  8
STEMPEL
100
AcDbLine
 10
454.3127998831351
 20
891.0922936266747
 30
0.0
 11
486.3988898465942
 21
1010.839211586531
 31
0.0
  0
LINE
  5
15EEE
330
15F50
100
AcDbEntity
  8
STEMPEL
100
AcDbLine
 10
454.3127998831351
 20
891.092293626675
 30
0.0
 11
454.3127998831347
 21
767.121161785316
 31
0.0
  0
ARC
  5
15EEF
330
15F50
100
AcDbEntity
  8
SCHRAFF
100
AcDbCircle
 10
458.927262717728
 20
890.5262285894043
 30
0.0
 40
3.811488253428933
100
AcDbArc
 50
300.585224108806
 51
44.41477589119089
  0
INSERT
  5
15EF0
330
15F50
100
AcDbEntity
  8
SCHRAFF
100
AcDbBlockReference
  2
*X3
 10
-894.7660475957944
 20
134.7084232461319
 30
0.0
1001
ACAD
1000
HATCH
1002
{
1070
    16
1000
_U,I
1040
0.1
1040
0.0
1070
     0
1002
}
  0
ARC
  5
15EF1
330
15F50
100
AcDbEntity
  8
SCHRAFF
100
AcDbCircle
 10
455.9640082254223
 20
890.8749079243758
 30
0.0
 40
3.257939205166423
100
AcDbArc
 50
105.4526424554521
 51
239.547357544545
  0
ARC
  5
15EF2
330
15F50
100
AcDbEntity
  8
SCHRAFF
100
AcDbCircle
 10
454.5981851371001
 20
891.0961624651438
 30
0.0
 40
3.811488253428933
100
AcDbArc
 50
300.585224108806
 51
44.41477589119089
  0
ARC
  5
15EF3
330
15F50
100
AcDbEntity
  8
SCHRAFF
100
AcDbCircle
 10
478.1210453299601
 20
887.947056346859
 30
0.0
 40
3.811488253428933
100
AcDbArc
 50
300.585224108806
 51
44.41477589119089
  0
ARC
  5
15EF4
330
15F50
100
AcDbEntity
  8
SCHRAFF
100
AcDbCircle
 10
468.2065967162219
 20
889.2523182690593
 30
0.0
 40
3.811488253428933
100
AcDbArc
 50
300.585224108806
 51
44.41477589119089
  0
ARC
  5
15EF5
330
15F50
100
AcDbEntity
  8
SCHRAFF
100
AcDbCircle
 10
473.1638210230911
 20
888.5996873079591
 30
0.0
 40
3.811488253428933
100
AcDbArc
 50
300.585224108806
 51
44.41477589119089
  0
ARC
  5
15EF6
330
15F50
100
AcDbEntity
  8
SCHRAFF
100
AcDbCircle
 10
463.2493724093527
 20
889.9049492301596
 30
0.0
 40
3.811488253428933
100
AcDbArc
 50
300.585224108806
 51
44.41477589119089
  0
ARC
  5
15EF7
330
15F50
100
AcDbEntity
  8
SCHRAFF
100
AcDbCircle
 10
488.0354939436982
 20
886.6417944246581
 30
0.0
 40
3.811488253428933
100
AcDbArc
 50
300.585224108806
 51
44.41477589119089
  0
ARC
  5
15EF8
330
15F50
100
AcDbEntity
  8
SCHRAFF
100
AcDbCircle
 10
497.9499425574362
 20
885.3365325024579
 30
0.0
 40
3.811488253428933
100
AcDbArc
 50
300.585224108806
 51
44.41477589119089
  0
ARC
  5
15EF9
330
15F50
100
AcDbEntity
  8
SCHRAFF
100
AcDbCircle
 10
492.992718250567
 20
885.989163463558
 30
0.0
 40
3.811488253428933
100
AcDbArc
 50
300.585224108806
 51
44.41477589119089
  0
ARC
  5
15EFA
330
15F50
100
AcDbEntity
  8
SCHRAFF
100
AcDbCircle
 10
483.0782696368292
 20
887.2944253857584
 30
0.0
 40
3.811488253428933
100
AcDbArc
 50
300.585224108806
 51
44.41477589119089
  0
ARC
  5
15EFB
330
15F50
100
AcDbEntity
  8
SCHRAFF
100
AcDbCircle
 10
502.9071668643052
 20
884.6839015413577
 30
0.0
 40
3.811488253428933
100
AcDbArc
 50
300.585224108806
 51
44.41477589119089
  0
ARC
  5
15EFC
330
15F50
100
AcDbEntity
  8
SCHRAFF
100
AcDbCircle
 10
507.8643911711743
 20
884.0312705802572
 30
0.0
 40
3.811488253428933
100
AcDbArc
 50
300.585224108806
 51
44.41477589119089
  0
ARC
  5
15EFD
330
15F50
100
AcDbEntity
  8
SCHRAFF
100
AcDbCircle
 10
517.7788397849125
 20
882.7260086580571
 30
0.0
 40
3.811488253428933
100
AcDbArc
 50
300.585224108806
 51
44.41477589119089
  0
ARC
  5
15EFE
330
15F50
100
AcDbEntity
  8
SCHRAFF
100
AcDbCircle
 10
512.8216154780435
 20
883.378639619157
 30
0.0
 40
3.811488253428933
100
AcDbArc
 50
300.585224108806
 51
44.41477589119089
  0
LINE
  5
15F00
330
15F50
100
AcDbEntity
  8
STEMPEL
100
AcDbLine
 10
1025.0
 20
25.0
 30
0.0
 11
1025.0
 21
1460.0
 31
0.0
  0
LINE
  5
15F01
330
15F50
100
AcDbEntity
  8
HILF
100
AcDbLine
 10
1050.0
 20
-0.0000000000002842
 30
0.0
 11
1050.0
 21
1485.0
 31
0.0
  0
LINE
  5
15F03
330
15F50
100
AcDbEntity
  8
HILF
100
AcDbLine
 10
583.7274248224712
 20
37.23495645070784
 30
0.0
 11
1012.147209831682
 21
37.23495645070784
 31
0.0
  0
LINE
  5
15F04
330
15F50
100
AcDbEntity
  8
VOLL
100
AcDbLine
 10
830.0
 20
150.0
 30
0.0
 11
1025.0
 21
150.0
 31
0.0
  0
LINE
  5
15F05
330
15F50
100
AcDbEntity
  8
HILF
100
AcDbLine
 10
841.8096540742482
 20
209.4495909238957
 30
0.0
 11
1012.147209831682
 21
209.4495909238957
 31
0.0
  0
TEXT
  5
15F06
330
15F50
100
AcDbEntity
  8
TEXT
100
AcDbText
 10
840.4468873940851
 20
255.7830086342841
 30
0.0
 40
12.5
  1
Zeichnungs Nr.
 41
0.8
  7
GREEKS
100
AcDbText
  0
TEXT
  5
15F07
330
15F50
100
AcDbEntity
  8
TEXT
100
AcDbText
 10
841.8096540742482
 20
182.9529559274992
 30
0.0
 40
12.5
  1
Ersatz für:
 41
0.8
  7
GREEKS
100
AcDbText
  0
TEXT
  5
15F08
330
15F50
100
AcDbEntity
  8
TEXT
100
AcDbText
 10
843.1002153742515
 20
130.185404446965
 30
0.0
 40
12.5
  1
ersetzt durch:
 41
0.8
  7
GREEKS
100
AcDbText
  0
TEXT
  5
15F09
330
15F50
100
AcDbEntity
  8
TEXT
 62
     1
100
AcDbText
 10
591.7846544748149
 20
321.64847138984
 30
0.0
 40
17.5
  1
feuerverzinkt und innen beschichtet
 41
0.8
  7
GREEKS
100
AcDbText
  0
LINE
  5
15F0A
330
15F50
100
AcDbEntity
  8
HILF
100
AcDbLine
 10
586.9342002742369
 20
210.0939561891034
 30
0.0
 11
812.0884791390777
 21
210.0939561891034
 31
0.0
  0
LINE
  5
15F0B
330
15F50
100
AcDbEntity
  8
HILF
100
AcDbLine
 10
586.9342002742369
 20
174.9999999999998
 30
0.0
 11
812.0884791390775
 21
174.9999999999998
 31
0.0
  0
LINE
  5
15F0C
330
15F50
100
AcDbEntity
  8
HILF
100
AcDbLine
 10
586.9342002742369
 20
149.9999999999999
 30
0.0
 11
812.0884791390775
 21
149.9999999999999
 31
0.0
  0
LINE
  5
15F0D
330
15F50
100
AcDbEntity
  8
HILF
100
AcDbLine
 10
586.9342002742369
 20
124.9999999999999
 30
0.0
 11
812.0884791390775
 21
124.9999999999999
 31
0.0
  0
TEXT
  5
15F0E
330
15F50
100
AcDbEntity
  8
TEXT
 62
     1
100
AcDbText
 10
587.207320850568
 20
218.5437197313445
 30
0.0
 40
17.5
  1
Bogen 15%%d DN250
 41
0.8
  7
GREEKS
100
AcDbText
  0
LINE
  5
15F0F
330
15F50
100
AcDbEntity
  8
STEMPEL
100
AcDbLine
 10
575.0
 20
275.0000000000001
 30
0.0
 11
575.0
 21
24.99999999999993
 31
0.0
  0
TEXT
  5
15F10
330
15F50
100
AcDbEntity
  8
TEXT
100
AcDbText
 10
586.8555959778399
 20
77.11401425482641
 30
0.0
 40
12.5
  1
Bauvorhaben
 41
0.8
  7
GREEKS
100
AcDbText
  0
TEXT
  5
15F11
330
15F50
100
AcDbEntity
  8
TEXT
100
AcDbText
 10
587.4593753944567
 20
106.5743538255658
 30
0.0
 40
10.0
  1
03008250W.DWG
 41
0.8
  7
GREEKS
100
AcDbText
  0
TEXT
  5
15F12
330
15F50
100
AcDbEntity
  8
TEXT
100
AcDbText
 10
587.1948509522525
 20
256.3723320029449
 30
0.0
 40
12.5
  1
Benennung
 41
0.8
  7
GREEKS
100
AcDbText
  0
TEXT
  5
15F13
330
15F50
100
AcDbEntity
  8
TEXT
100
AcDbText
 10
587.8240977813288
 20
181.1007260038562
 30
0.0
 40
12.5
  1
Muffenlos
 41
0.8
  7
GREEKS
100
AcDbText
  0
TEXT
  5
15F14
330
15F50
100
AcDbEntity
  8
TEXT
100
AcDbText
 10
587.8240977813288
 20
129.100298576054
 30
0.0
 40
12.5
  1
EDV-Art.Nr. 03008.250X
 41
0.8
  7
GREEKS
100
AcDbText
  0
LINE
  5
15F15
330
15F50
100
AcDbEntity
  8
STEMPEL
100
AcDbLine
 10
830.0
 20
274.9999999999994
 30
0.0
 11
830.0
 21
100.0
 31
0.0
  0
TEXT
  5
15F16
330
15F50
100
AcDbEntity
  8
TEXT
 62
     1
100
AcDbText
 10
866.9099136411615
 20
220.372535722849
 30
0.0
 40
17.5
  1
03008250W
 41
0.8
  7
GREEKS
 72
     1
 11
926.9099136411615
 21
220.372535722849
 31
0.0
100
AcDbText
  0
DIMENSION
  5
15F17
330
15F50
100
AcDbEntity
  8
BEM
100
AcDbDimension
  2
*D7
 10
590.8127998831347
 20
762.1211617853159
 30
0.0
 11
616.8128969910273
 21
1060.742245321479
 31
0.0
 12
-894.7660475957944
 22
134.7084232461319
 32
0.0
 70
   130
 71
     5
 42
-1.0
 53
353.5822855695272
100
AcDb2LineAngularDimension
 13
590.8127998831347
 23
873.1217277059945
 33
0.0
 14
619.5418603605645
 24
980.340041061482
 34
0.0
 15
590.8127998831347
 25
873.1217277059945
 35
0.0
 16
608.2279625251893
 26
1043.285426509108
 36
0.0
  0
LINE
  5
15F18
330
15F50
100
AcDbEntity
  8
MITTEL
100
AcDbLine
 10
590.8127998831347
 20
873.1217277059945
 30
0.0
 11
619.5418603605645
 21
980.340041061482
 31
0.0
  0
LINE
  5
15F19
330
15F50
100
AcDbEntity
  8
MITTEL
100
AcDbLine
 10
590.8127998831347
 20
873.1217277059945
 30
0.0
 11
590.8127998831347
 21
762.1211617853159
 31
0.0
  0
TEXT
  5
15F1A
330
15F50
100
AcDbEntity
  8
TEXT
 62
     1
100
AcDbText
 10
584.2003299809568
 20
788.0994615854879
 30
0.0
 40
17.5
  1
DN250
 50
90.0
 41
0.8
  7
GREEKS
100
AcDbText
  0
ARC
  5
15F1B
330
15F50
100
AcDbEntity
  8
SCHRAFF
100
AcDbCircle
 10
562.3938585467341
 20
876.8523300081545
 30
0.0
 40
3.811488253428933
100
AcDbArc
 50
300.585224108806
 51
44.41477589119089
  0
ARC
  5
15F1C
330
15F50
100
AcDbEntity
  8
SCHRAFF
100
AcDbCircle
 10
542.5649613192578
 20
879.4628538525557
 30
0.0
 40
3.811488253428933
100
AcDbArc
 50
300.585224108806
 51
44.41477589119089
  0
ARC
  5
15F1D
330
15F50
100
AcDbEntity
  8
SCHRAFF
100
AcDbCircle
 10
532.6505127055196
 20
880.7681157747559
 30
0.0
 40
3.811488253428933
100
AcDbArc
 50
300.585224108806
 51
44.41477589119089
  0
ARC
  5
15F1E
330
15F50
100
AcDbEntity
  8
SCHRAFF
100
AcDbCircle
 10
527.6932883986504
 20
881.4207467358562
 30
0.0
 40
3.811488253428933
100
AcDbArc
 50
300.585224108806
 51
44.41477589119089
  0
ARC
  5
15F1F
330
15F50
100
AcDbEntity
  8
SCHRAFF
100
AcDbCircle
 10
537.6077370123888
 20
880.1154848136556
 30
0.0
 40
3.811488253428933
100
AcDbArc
 50
300.585224108806
 51
44.41477589119089
  0
ARC
  5
15F20
330
15F50
100
AcDbEntity
  8
SCHRAFF
100
AcDbCircle
 10
552.4794099329959
 20
878.157591930355
 30
0.0
 40
3.811488253428933
100
AcDbArc
 50
300.585224108806
 51
44.41477589119089
  0
ARC
  5
15F21
330
15F50
100
AcDbEntity
  8
SCHRAFF
100
AcDbCircle
 10
547.522185626127
 20
878.8102228914551
 30
0.0
 40
3.811488253428933
100
AcDbArc
 50
300.585224108806
 51
44.41477589119089
  0
ARC
  5
15F22
330
15F50
100
AcDbEntity
  8
SCHRAFF
100
AcDbCircle
 10
557.4366342398649
 20
877.5049609692546
 30
0.0
 40
3.811488253428933
100
AcDbArc
 50
300.585224108806
 51
44.41477589119089
  0
ARC
  5
15F23
330
15F50
100
AcDbEntity
  8
SCHRAFF
100
AcDbCircle
 10
572.308307160472
 20
875.547068085954
 30
0.0
 40
3.811488253428933
100
AcDbArc
 50
300.585224108806
 51
44.41477589119089
  0
ARC
  5
15F24
330
15F50
100
AcDbEntity
  8
SCHRAFF
100
AcDbCircle
 10
567.3510828536031
 20
876.1996990470541
 30
0.0
 40
3.811488253428933
100
AcDbArc
 50
300.585224108806
 51
44.41477589119089
  0
ARC
  5
15F25
330
15F50
100
AcDbEntity
  8
SCHRAFF
100
AcDbCircle
 10
582.22275577421
 20
874.2418061637534
 30
0.0
 40
3.811488253428933
100
AcDbArc
 50
300.585224108806
 51
44.41477589119089
  0
ARC
  5
15F26
330
15F50
100
AcDbEntity
  8
SCHRAFF
100
AcDbCircle
 10
577.265531467341
 20
874.8944371248535
 30
0.0
 40
3.811488253428933
100
AcDbArc
 50
300.585224108806
 51
44.41477589119089
  0
ARC
  5
15F27
330
15F50
100
AcDbEntity
  8
SCHRAFF
100
AcDbCircle
 10
587.1799800810796
 20
873.5891752026532
 30
0.0
 40
3.811488253428933
100
AcDbArc
 50
300.585224108806
 51
44.41477589119089
  0
LINE
  5
15F29
330
15F50
100
AcDbEntity
  8
STEMPEL
100
AcDbLine
 10
727.3127998831342
 20
855.1511617853156
 30
0.0
 11
750.0966404235099
 21
940.1816122735423
 31
0.0
  0
LINE
  5
15F2C
330
15F50
100
AcDbEntity
  8
STEMPEL
100
AcDbLine
 10
727.3127998831342
 20
855.151161785316
 30
0.0
 11
727.3127998831347
 21
767.121161785316
 31
0.0
  0
INSERT
  5
15F2E
330
15F50
100
AcDbEntity
  8
SCHRAFF
100
AcDbBlockReference
  2
*X4
 10
-894.7660475957944
 20
134.7084232461319
 30
0.0
1001
ACAD
1000
HATCH
1002
{
1070
    16
1000
_U,I
1040
0.1
1040
0.0
1070
     0
1002
}
  0
ARC
  5
15F2F
330
15F50
100
AcDbEntity
  8
SCHRAFF
100
AcDbCircle
 10
725.8351476235994
 20
855.3456983958492
 30
0.0
 40
3.543244793928058
100
AcDbArc
 50
294.647449667423
 51
50.35255033257907
  0
TEXT
  5
15F76
330
15F50
100
AcDbEntity
  8
TEXT
100
AcDbText
 10
481.7206788119809
 20
225.4867060790914
 30
0.0
 40
10.0
  1
DIN EN1123-2
 41
0.8
  7
GREEKS
 72
     1
 11
524.1968692881714
 21
225.4867060790914
 31
0.0
100
AcDbText
  0
TEXT
  5
15F7D
330
15F50
100
AcDbEntity
  8
BEM
100
AcDbText
 10
1043.255730964291
 20
25.41975269997152
 30
0.0
 40
10.0
  1
Diese Zeichnung ist urheberrechtlich geschützt und bleibt unser Eigentum. Sie darf weder ganz noch teilweise verfielfältigt und nicht an Dritte weitergegeben werden.
 50
90.0
 41
0.8
  7
GREEKS
100
AcDbText
  0
ARC
  5
16020
330
15F50
100
AcDbEntity
  8
SCHRAFF
100
AcDbCircle
 10
719.7687429140621
 20
856.1335334236682
 30
0.0
 40
3.811488253428933
100
AcDbArc
 50
300.585224108806
 51
44.41477589119089
  0
ARC
  5
16021
330
15F50
100
AcDbEntity
  8
SCHRAFF
100
AcDbCircle
 10
709.8542943003235
 20
857.4387953458684
 30
0.0
 40
3.811488253428933
100
AcDbArc
 50
300.585224108806
 51
44.41477589119089
  0
ARC
  5
16022
330
15F50
100
AcDbEntity
  8
SCHRAFF
100
AcDbCircle
 10
714.8115186071925
 20
856.7861643847683
 30
0.0
 40
3.811488253428933
100
AcDbArc
 50
300.585224108806
 51
44.41477589119089
  0
ARC
  5
16023
330
15F50
100
AcDbEntity
  8
SCHRAFF
100
AcDbCircle
 10
699.9398456865856
 20
858.7440572680689
 30
0.0
 40
3.811488253428933
100
AcDbArc
 50
300.585224108806
 51
44.41477589119089
  0
ARC
  5
16024
330
15F50
100
AcDbEntity
  8
SCHRAFF
100
AcDbCircle
 10
704.8970699934545
 20
858.0914263069688
 30
0.0
 40
3.811488253428933
100
AcDbArc
 50
300.585224108806
 51
44.41477589119089
  0
ARC
  5
16025
330
15F50
100
AcDbEntity
  8
SCHRAFF
100
AcDbCircle
 10
690.0253970728474
 20
860.0493191902696
 30
0.0
 40
3.811488253428933
100
AcDbArc
 50
300.585224108806
 51
44.41477589119089
  0
ARC
  5
16026
330
15F50
100
AcDbEntity
  8
SCHRAFF
100
AcDbCircle
 10
680.1109484591095
 20
861.3545811124701
 30
0.0
 40
3.811488253428933
100
AcDbArc
 50
300.585224108806
 51
44.41477589119089
  0
ARC
  5
16027
330
15F50
100
AcDbEntity
  8
SCHRAFF
100
AcDbCircle
 10
685.0681727659784
 20
860.7019501513699
 30
0.0
 40
3.811488253428933
100
AcDbArc
 50
300.585224108806
 51
44.41477589119089
  0
ARC
  5
16028
330
15F50
100
AcDbEntity
  8
SCHRAFF
100
AcDbCircle
 10
670.1964998453713
 20
862.6598430346707
 30
0.0
 40
3.811488253428933
100
AcDbArc
 50
300.585224108806
 51
44.41477589119089
  0
ARC
  5
16029
330
15F50
100
AcDbEntity
  8
SCHRAFF
100
AcDbCircle
 10
660.282051231633
 20
863.9651049568712
 30
0.0
 40
3.811488253428933
100
AcDbArc
 50
300.585224108806
 51
44.41477589119089
  0
ARC
  5
1602A
330
15F50
100
AcDbEntity
  8
SCHRAFF
100
AcDbCircle
 10
665.2392755385021
 20
863.3124739957708
 30
0.0
 40
3.811488253428933
100
AcDbArc
 50
300.585224108806
 51
44.41477589119089
  0
ARC
  5
1602B
330
15F50
100
AcDbEntity
  8
SCHRAFF
100
AcDbCircle
 10
675.1537241522403
 20
862.0072120735708
 30
0.0
 40
3.811488253428933
100
AcDbArc
 50
300.585224108806
 51
44.41477589119089
  0
ARC
  5
1602C
330
15F50
100
AcDbEntity
  8
SCHRAFF
100
AcDbCircle
 10
694.9826213797166
 20
859.3966882291693
 30
0.0
 40
3.811488253428933
100
AcDbArc
 50
300.585224108806
 51
44.41477589119089
  0
ARC
  5
1602D
330
15F50
100
AcDbEntity
  8
SCHRAFF
100
AcDbCircle
 10
645.4103783110261
 20
865.9229978401718
 30
0.0
 40
3.811488253428933
100
AcDbArc
 50
300.585224108806
 51
44.41477589119089
  0
ARC
  5
1602E
330
15F50
100
AcDbEntity
  8
SCHRAFF
100
AcDbCircle
 10
650.3676026178951
 20
865.2703668790719
 30
0.0
 40
3.811488253428933
100
AcDbArc
 50
300.585224108806
 51
44.41477589119089
  0
ARC
  5
1602F
330
15F50
100
AcDbEntity
  8
SCHRAFF
100
AcDbCircle
 10
640.4531540041569
 20
866.5756288012723
 30
0.0
 40
3.811488253428933
100
AcDbArc
 50
300.585224108806
 51
44.41477589119089
  0
ARC
  5
16030
330
15F50
100
AcDbEntity
  8
SCHRAFF
100
AcDbCircle
 10
635.4959296972877
 20
867.2282597623727
 30
0.0
 40
3.811488253428933
100
AcDbArc
 50
300.585224108806
 51
44.41477589119089
  0
ARC
  5
16031
330
15F50
100
AcDbEntity
  8
SCHRAFF
100
AcDbCircle
 10
615.6670324698118
 20
869.8387836067732
 30
0.0
 40
3.811488253428933
100
AcDbArc
 50
300.585224108806
 51
44.41477589119089
  0
ARC
  5
16032
330
15F50
100
AcDbEntity
  8
SCHRAFF
100
AcDbCircle
 10
625.5814810835495
 20
868.5335216845729
 30
0.0
 40
3.811488253428933
100
AcDbArc
 50
300.585224108806
 51
44.41477589119089
  0
ARC
  5
16033
330
15F50
100
AcDbEntity
  8
SCHRAFF
100
AcDbCircle
 10
630.5387053904187
 20
867.8808907234728
 30
0.0
 40
3.811488253428933
100
AcDbArc
 50
300.585224108806
 51
44.41477589119089
  0
ARC
  5
16034
330
15F50
100
AcDbEntity
  8
SCHRAFF
100
AcDbCircle
 10
620.6242567766808
 20
869.1861526456731
 30
0.0
 40
3.811488253428933
100
AcDbArc
 50
300.585224108806
 51
44.41477589119089
  0
ARC
  5
16035
330
15F50
100
AcDbEntity
  8
SCHRAFF
100
AcDbCircle
 10
595.8381352423352
 20
872.4493074511746
 30
0.0
 40
3.811488253428933
100
AcDbArc
 50
300.585224108806
 51
44.41477589119089
  0
ARC
  5
16036
330
15F50
100
AcDbEntity
  8
SCHRAFF
100
AcDbCircle
 10
605.7525838560736
 20
871.1440455289741
 30
0.0
 40
3.811488253428933
100
AcDbArc
 50
300.585224108806
 51
44.41477589119089
  0
ARC
  5
16037
330
15F50
100
AcDbEntity
  8
SCHRAFF
100
AcDbCircle
 10
600.7953595492044
 20
871.7966764900742
 30
0.0
 40
3.811488253428933
100
AcDbArc
 50
300.585224108806
 51
44.41477589119089
  0
ARC
  5
16038
330
15F50
100
AcDbEntity
  8
SCHRAFF
100
AcDbCircle
 10
610.7098081629426
 20
870.4914145678738
 30
0.0
 40
3.811488253428933
100
AcDbArc
 50
300.585224108806
 51
44.41477589119089
  0
ARC
  5
16039
330
15F50
100
AcDbEntity
  8
SCHRAFF
100
AcDbCircle
 10
591.5160255507105
 20
873.0705868104193
 30
0.0
 40
3.811488253428933
100
AcDbArc
 50
300.585224108806
 51
44.41477589119089
  0
ARC
  5
1603A
330
15F50
100
AcDbEntity
  8
SCHRAFF
100
AcDbCircle
 10
655.324826924764
 20
864.6177359179713
 30
0.0
 40
3.811488253428933
100
AcDbArc
 50
300.585224108806
 51
44.41477589119089
  0
ENDSEC
  0
SECTION
  2
OBJECTS
  0
DICTIONARY
  5
15F3C
330
0
100
AcDbDictionary
281
     1
  3
ACAD_COLOR
350
15F4B
  3
ACAD_GROUP
350
15F3D
  3
ACAD_LAYOUT
350
15F49
  3
ACAD_MATERIAL
350
15F4A
  3
ACAD_MLINESTYLE
350
15F46
  3
ACAD_PLOTSETTINGS
350
15F48
  3
ACAD_PLOTSTYLENAME
350
15F3E
  3
AcDbVariableDictionary
350
15F92
  0
DICTIONARY
  5
15F4B
102
{ACAD_REACTORS
330
15F3C
102
}
330
15F3C
100
AcDbDictionary
281
     1
  0
DICTIONARY
  5
15F3D
102
{ACAD_REACTORS
330
15F3C
102
}
330
15F3C
100
AcDbDictionary
281
     1
  0
DICTIONARY
  5
15F49
102
{ACAD_REACTORS
330
15F3C
102
}
330
15F3C
100
AcDbDictionary
281
     1
  3
Layout1
350
15F4F
  3
Model
350
15F53
  0
DICTIONARY
  5
15F4A
102
{ACAD_REACTORS
330
15F3C
102
}
330
15F3C
100
AcDbDictionary
281
     1
  0
DICTIONARY
  5
15F46
102
{ACAD_REACTORS
330
15F3C
102
}
330
15F3C
100
AcDbDictionary
281
     1
  3
Standard
350
15F47
  0
DICTIONARY
  5
15F48
102
{ACAD_REACTORS
330
15F3C
102
}
330
15F3C
100
AcDbDictionary
281
     1
  0
ACDBDICTIONARYWDFLT
  5
15F3E
102
{ACAD_REACTORS
330
15F3C
102
}
330
15F3C
100
AcDbDictionary
281
     1
  3
Normal
350
15F3F
100
AcDbDictionaryWithDefault
340
15F3F
  0
DICTIONARY
  5
15F92
102
{ACAD_REACTORS
330
15F3C
102
}
330
15F3C
100
AcDbDictionary
281
     1
  3
DIMASSOC
350
15F94
  3
HIDETEXT
350
15F93
  3
PROJECTNAME
350
15F95
  0
LAYOUT
  5
15F4F
102
{ACAD_REACTORS
330
15F49
102
}
330
15F49
100
AcDbPlotSettings
  1

  2
RICOH Aficio 2027 PCL 6
  4

  6

 40
0.0
 41
0.0
 42
0.0
 43
0.0
 44
0.0
 45
0.0
 46
0.0
 47
0.0
 48
0.0
 49
0.0
140
0.0
141
0.0
142
1.0
143
1.0
 70
   688
 72
     0
 73
     0
 74
     5
  7
monochrome1.ctb
 75
    16
147
1.0
 76
     0
 77
     2
 78
   300
148
0.0
149
0.0
100
AcDbLayout
  1
Layout1
 70
     0
 71
     1
 10
0.0
 20
0.0
 11
12.0
 21
9.0
 12
621.4227862518698
 22
50.00000000000001
 32
-2.58105543498411
 14
1.000000000000000E+20
 24
1.000000000000000E+20
 34
1.000000000000000E+20
 15
-1.000000000000000E+20
 25
-1.000000000000000E+20
 35
-1.000000000000000E+20
146
0.0
 13
0.0
 23
0.0
 33
0.0
 16
1.0
 26
0.0
 36
0.0
 17
0.0
 27
1.0
 37
0.0
 76
     0
330
15F4C
  0
LAYOUT
  5
15F53
102
{ACAD_REACTORS
330
15F49
102
}
330
15F49
100
AcDbPlotSettings
  1

  2
RICOH Aficio 2027 PCL 6
  4
A4
  6

 40
5.027083396911621
 41
5.027085304260253
 42
5.027084350585937
 43
5.027069091796875
 44
209.9733276367187
 45
296.9259948730469
 46
0.0
 47
0.0
 48
0.0
 49
0.0
140
0.0
141
0.0
142
1.0
143
1.0
 70
 11952
 72
     0
 73
     1
 74
     0
  7
monochrome1.ctb
 75
     0
147
1.0
 76
     0
 77
     2
 78
   300
148
5756.851871210684
149
232.3518454851996
100
AcDbLayout
  1
Model
 70
     1
 71
     0
 10
0.0
 20
0.0
 11
12.0
 21
9.0
 12
0.0
 22
0.0
 32
0.0
 14
0.0
 24
0.0
 34
0.0
 15
0.0
 25
0.0
 35
0.0
146
0.0
 13
0.0
 23
0.0
 33
0.0
 16
1.0
 26
0.0
 36
0.0
 17
0.0
 27
1.0
 37
0.0
 76
     0
330
15F50
  0
MLINESTYLE
  5
15F47
102
{ACAD_REACTORS
330
15F46
102
}
330
15F46
100
AcDbMlineStyle
  2
STANDARD
 70
     0
  3

 62
   256
 51
90.0
 52
90.0
 71
     2
 49
0.5
 62
   256
  6
BYLAYER
 49
-0.5
 62
   256
  6
BYLAYER
  0
ACDBPLACEHOLDER
  5
15F3F
102
{ACAD_REACTORS
330
15F3E
102
}
330
15F3E
  0
DICTIONARYVAR
  5
15F94
102
{ACAD_REACTORS
330
15F92
102
}
330
15F92
100
DictionaryVariables
280
     0
  1
2
  0
DICTIONARYVAR
  5
15F93
102
{ACAD_REACTORS
330
15F92
102
}
330
15F92
100
DictionaryVariables
280
     0
  1
1
  0
DICTIONARYVAR
  5
15F95
102
{ACAD_REACTORS
330
15F92
102
}
330
15F92
100
DictionaryVariables
280
     0
  1

  0
ENDSEC
  0
EOF
