  0
SECTION
  2
HEADER
  9
$ACADVER
  1
AC1018
  9
$ACADMAINTVER
 70
     2
  9
$DWGCODEPAGE
  3
ANSI_1252
  9
$INSBASE
 10
0.0
 20
0.0
 30
0.0
  9
$EXTMIN
 10
-0.0480524721101574
 20
-0.0679599248414888
 30
-0.0000000000000058
  9
$EXTMAX
 10
1050.048072030928
 20
1485.067987586599
 30
0.0000000000000104
  9
$LIMMIN
 10
0.0
 20
0.0
  9
$LIMMAX
 10
1050.0
 20
1485.0
  9
$ORTHOMODE
 70
     1
  9
$REGENMODE
 70
     1
  9
$FILLMODE
 70
     1
  9
$QTEXTMODE
 70
     0
  9
$MIRRTEXT
 70
     1
  9
$LTSCALE
 40
50.0
  9
$ATTMODE
 70
     1
  9
$TEXTSIZE
 40
2.5
  9
$TRACEWID
 40
0.5
  9
$TEXTSTYLE
  7
GREEKS
  9
$CLAYER
  8
BEM
  9
$CELTYPE
  6
ByLayer
  9
$CECOLOR
 62
   256
  9
$CELTSCALE
 40
1.0
  9
$DISPSILH
 70
     0
  9
$DIMSCALE
 40
5.0
  9
$DIMASZ
 40
3.5
  9
$DIMEXO
 40
1.0
  9
$DIMDLI
 40
7.0
  9
$DIMRND
 40
0.0
  9
$DIMDLE
 40
0.0
  9
$DIMEXE
 40
1.0
  9
$DIMTP
 40
3.0
  9
$DIMTM
 40
3.0
  9
$DIMTXT
 40
3.5
  9
$DIMCEN
 40
1.5
  9
$DIMTSZ
 40
0.0
  9
$DIMTOL
 70
     0
  9
$DIMLIM
 70
     0
  9
$DIMTIH
 70
     0
  9
$DIMTOH
 70
     0
  9
$DIMSE1
 70
     0
  9
$DIMSE2
 70
     0
  9
$DIMTAD
 70
     1
  9
$DIMZIN
 70
     8
  9
$DIMBLK
  1

  9
$DIMASO
 70
     1
  9
$DIMSHO
 70
     0
  9
$DIMPOST
  1

  9
$DIMAPOST
  1

  9
$DIMALT
 70
     0
  9
$DIMALTD
 70
     2
  9
$DIMALTF
 40
25.4
  9
$DIMLFAC
 40
1.0
  9
$DIMTOFL
 70
     1
  9
$DIMTVP
 40
0.0
  9
$DIMTIX
 70
     0
  9
$DIMSOXD
 70
     0
  9
$DIMSAH
 70
     0
  9
$DIMBLK1
  1

  9
$DIMBLK2
  1

  9
$DIMSTYLE
  2
Standard
  9
$DIMCLRD
 70
     0
  9
$DIMCLRE
 70
     0
  9
$DIMCLRT
 70
     1
  9
$DIMTFAC
 40
0.5
  9
$DIMGAP
 40
1.5
  9
$DIMJUST
 70
     0
  9
$DIMSD1
 70
     0
  9
$DIMSD2
 70
     0
  9
$DIMTOLJ
 70
     1
  9
$DIMTZIN
 70
     8
  9
$DIMALTZ
 70
     8
  9
$DIMALTTZ
 70
     8
  9
$DIMUPT
 70
     0
  9
$DIMDEC
 70
     2
  9
$DIMTDEC
 70
     2
  9
$DIMALTU
 70
     2
  9
$DIMALTTD
 70
     2
  9
$DIMTXSTY
  7
GREEKS
  9
$DIMAUNIT
 70
     0
  9
$DIMADEC
 70
     2
  9
$DIMALTRND
 40
0.0
  9
$DIMAZIN
 70
     2
  9
$DIMDSEP
 70
    46
  9
$DIMATFIT
 70
     3
  9
$DIMFRAC
 70
     0
  9
$DIMLDRBLK
  1

  9
$DIMLUNIT
 70
     2
  9
$DIMLWD
 70
    -2
  9
$DIMLWE
 70
    -2
  9
$DIMTMOVE
 70
     0
  9
$LUNITS
 70
     2
  9
$LUPREC
 70
     2
  9
$SKETCHINC
 40
1.0
  9
$FILLETRAD
 40
0.0
  9
$AUNITS
 70
     0
  9
$AUPREC
 70
     2
  9
$MENU
  1
ACAD
  9
$ELEVATION
 40
0.0
  9
$PELEVATION
 40
0.0
  9
$THICKNESS
 40
0.0
  9
$LIMCHECK
 70
     0
  9
$CHAMFERA
 40
0.0
  9
$CHAMFERB
 40
0.0
  9
$CHAMFERC
 40
0.0
  9
$CHAMFERD
 40
0.0
  9
$SKPOLY
 70
     0
  9
$TDCREATE
 40
2452216.170264468
  9
$TDUCREATE
 40
2452216.086931134
  9
$TDUPDATE
 40
2455658.322486482
  9
$TDUUPDATE
 40
2455658.239153148
  9
$TDINDWG
 40
0.0129492824
  9
$TDUSRTIMER
 40
0.0129492824
  9
$USRTIMER
 70
     1
  9
$ANGBASE
 50
0.0
  9
$ANGDIR
 70
     0
  9
$PDMODE
 70
     0
  9
$PDSIZE
 40
0.0
  9
$PLINEWID
 40
0.0
  9
$SPLFRAME
 70
     0
  9
$SPLINETYPE
 70
     6
  9
$SPLINESEGS
 70
     8
  9
$HANDSEED
  5
109E6
  9
$SURFTAB1
 70
     6
  9
$SURFTAB2
 70
     6
  9
$SURFTYPE
 70
     6
  9
$SURFU
 70
     6
  9
$SURFV
 70
     6
  9
$UCSBASE
  2

  9
$UCSNAME
  2

  9
$UCSORG
 10
0.0
 20
0.0
 30
0.0
  9
$UCSXDIR
 10
1.0
 20
0.0
 30
0.0
  9
$UCSYDIR
 10
0.0
 20
1.0
 30
0.0
  9
$UCSORTHOREF
  2

  9
$UCSORTHOVIEW
 70
     0
  9
$UCSORGTOP
 10
0.0
 20
0.0
 30
0.0
  9
$UCSORGBOTTOM
 10
0.0
 20
0.0
 30
0.0
  9
$UCSORGLEFT
 10
0.0
 20
0.0
 30
0.0
  9
$UCSORGRIGHT
 10
0.0
 20
0.0
 30
0.0
  9
$UCSORGFRONT
 10
0.0
 20
0.0
 30
0.0
  9
$UCSORGBACK
 10
0.0
 20
0.0
 30
0.0
  9
$PUCSBASE
  2

  9
$PUCSNAME
  2

  9
$PUCSORG
 10
0.0
 20
0.0
 30
0.0
  9
$PUCSXDIR
 10
1.0
 20
0.0
 30
0.0
  9
$PUCSYDIR
 10
0.0
 20
1.0
 30
0.0
  9
$PUCSORTHOREF
  2

  9
$PUCSORTHOVIEW
 70
     0
  9
$PUCSORGTOP
 10
0.0
 20
0.0
 30
0.0
  9
$PUCSORGBOTTOM
 10
0.0
 20
0.0
 30
0.0
  9
$PUCSORGLEFT
 10
0.0
 20
0.0
 30
0.0
  9
$PUCSORGRIGHT
 10
0.0
 20
0.0
 30
0.0
  9
$PUCSORGFRONT
 10
0.0
 20
0.0
 30
0.0
  9
$PUCSORGBACK
 10
0.0
 20
0.0
 30
0.0
  9
$USERI1
 70
     0
  9
$USERI2
 70
     0
  9
$USERI3
 70
     0
  9
$USERI4
 70
     0
  9
$USERI5
 70
     0
  9
$USERR1
 40
0.0
  9
$USERR2
 40
0.0
  9
$USERR3
 40
0.0
  9
$USERR4
 40
0.0
  9
$USERR5
 40
0.0
  9
$WORLDVIEW
 70
     1
  9
$SHADEDGE
 70
     3
  9
$SHADEDIF
 70
    70
  9
$TILEMODE
 70
     1
  9
$MAXACTVP
 70
    16
  9
$PINSBASE
 10
724.0577753917799
 20
50.00000000000001
 30
-2.581055434984111
  9
$PLIMCHECK
 70
     0
  9
$PEXTMIN
 10
1.000000000000000E+20
 20
1.000000000000000E+20
 30
1.000000000000000E+20
  9
$PEXTMAX
 10
-1.000000000000000E+20
 20
-1.000000000000000E+20
 30
-1.000000000000000E+20
  9
$PLIMMIN
 10
0.0
 20
0.0
  9
$PLIMMAX
 10
12.0
 20
9.0
  9
$UNITMODE
 70
     0
  9
$VISRETAIN
 70
     0
  9
$PLINEGEN
 70
     0
  9
$PSLTSCALE
 70
     0
  9
$TREEDEPTH
 70
  3020
  9
$CMLSTYLE
  2
Standard
  9
$CMLJUST
 70
     0
  9
$CMLSCALE
 40
1.0
  9
$PROXYGRAPHICS
 70
     1
  9
$MEASUREMENT
 70
     0
  9
$CELWEIGHT
370
    -1
  9
$ENDCAPS
280
     0
  9
$JOINSTYLE
280
     0
  9
$LWDISPLAY
290
     0
  9
$INSUNITS
 70
     0
  9
$HYPERLINKBASE
  1

  9
$STYLESHEET
  1
monochrome 1.ctb
  9
$XEDIT
290
     1
  9
$CEPSNTYPE
380
     0
  9
$PSTYLEMODE
290
     1
  9
$FINGERPRINTGUID
  2
{837750D2-7E5F-497F-AA55-AE4643B5419E}
  9
$VERSIONGUID
  2
{6613A73C-8A3C-46D8-97AC-56900FF84AAC}
  9
$EXTNAMES
290
     1
  9
$PSVPSCALE
 40
0.0
  9
$OLESTARTUP
290
     0
  9
$SORTENTS
280
   127
  9
$INDEXCTL
280
     0
  9
$HIDETEXT
280
     1
  9
$XCLIPFRAME
290
     0
  9
$HALOGAP
280
     0
  9
$OBSCOLOR
 70
   257
  9
$OBSLTYPE
280
     0
  9
$INTERSECTIONDISPLAY
280
     0
  9
$INTERSECTIONCOLOR
 70
   257
  9
$DIMASSOC
280
     2
  9
$PROJECTNAME
  1

  0
ENDSEC
  0
SECTION
  2
CLASSES
  0
CLASS
  1
ACDBDICTIONARYWDFLT
  2
AcDbDictionaryWithDefault
  3
ObjectDBX Classes
 90
        0
 91
        1
280
     0
281
     0
  0
CLASS
  1
DICTIONARYVAR
  2
AcDbDictionaryVar
  3
ObjectDBX Classes
 90
        0
 91
        3
280
     0
281
     0
  0
ENDSEC
  0
SECTION
  2
TABLES
  0
TABLE
  2
VPORT
  5
108F3
330
0
100
AcDbSymbolTable
 70
     3
  0
VPORT
  5
109E5
330
108F3
100
AcDbSymbolTableRecord
100
AcDbViewportTableRecord
  2
*Active
 70
     0
 10
0.0
 20
0.0
 11
1.0
 21
1.0
 12
524.9999999999998
 22
742.4999999999999
 13
0.0
 23
0.0
 14
1.0
 24
1.0
 15
10.0
 25
10.0
 16
0.0
 26
0.0
 36
1.0
 17
0.0
 27
0.0
 37
0.0
 40
1485.0
 41
1.334231805929919
 42
50.0
 43
0.0
 44
0.0
 50
0.0
 51
0.0
 71
     0
 72
  1500
 73
     1
 74
     0
 75
     0
 76
     0
 77
     0
 78
     0
281
     0
 65
     1
110
0.0
120
0.0
130
0.0
111
1.0
121
0.0
131
0.0
112
0.0
122
1.0
132
0.0
 79
     0
146
0.0
  0
ENDTAB
  0
TABLE
  2
LTYPE
  5
108F0
330
0
100
AcDbSymbolTable
 70
     2
  0
LTYPE
  5
108FE
330
108F0
100
AcDbSymbolTableRecord
100
AcDbLinetypeTableRecord
  2
ByBlock
 70
     0
  3

 72
    65
 73
     0
 40
0.0
  0
LTYPE
  5
108FF
330
108F0
100
AcDbSymbolTableRecord
100
AcDbLinetypeTableRecord
  2
ByLayer
 70
     0
  3

 72
    65
 73
     0
 40
0.0
  0
LTYPE
  5
10900
330
108F0
100
AcDbSymbolTableRecord
100
AcDbLinetypeTableRecord
  2
Continuous
 70
     0
  3
Solid line
 72
    65
 73
     0
 40
0.0
  0
LTYPE
  5
1091D
330
108F0
100
AcDbSymbolTableRecord
100
AcDbLinetypeTableRecord
  2
STRICHPUNKT
 70
     0
  3
__ . __ . __ . __ . __ . __ . __ . __ . __ . __
 72
    65
 73
     4
 40
1.0
 49
0.5
 74
     0
 49
-0.25
 74
     0
 49
0.0
 74
     0
 49
-0.25
 74
     0
  0
ENDTAB
  0
TABLE
  2
LAYER
  5
108ED
330
0
100
AcDbSymbolTable
 70
     9
  0
LAYER
  5
108FB
330
108ED
100
AcDbSymbolTableRecord
100
AcDbLayerTableRecord
  2
0
 70
     0
 62
     7
  6
Continuous
370
    -3
390
108FA
  0
LAYER
  5
10920
330
108ED
100
AcDbSymbolTableRecord
100
AcDbLayerTableRecord
  2
VOLL
 70
     0
 62
     1
  6
Continuous
370
    -3
390
108FA
  0
LAYER
  5
10921
330
108ED
100
AcDbSymbolTableRecord
100
AcDbLayerTableRecord
  2
HILF
 70
     0
 62
     2
  6
Continuous
370
    -3
390
108FA
  0
LAYER
  5
10922
330
108ED
100
AcDbSymbolTableRecord
100
AcDbLayerTableRecord
  2
MITTEL
 70
     0
 62
     2
  6
STRICHPUNKT
370
    -3
390
108FA
  0
LAYER
  5
10923
330
108ED
100
AcDbSymbolTableRecord
100
AcDbLayerTableRecord
  2
BEM
 70
     0
 62
     7
  6
Continuous
370
    -3
390
108FA
  0
LAYER
  5
10924
330
108ED
100
AcDbSymbolTableRecord
100
AcDbLayerTableRecord
  2
STEMPEL
 70
     0
 62
     3
  6
Continuous
370
    -3
390
108FA
  0
LAYER
  5
10925
330
108ED
100
AcDbSymbolTableRecord
100
AcDbLayerTableRecord
  2
TEXT
 70
     0
 62
     7
  6
Continuous
370
    -3
390
108FA
  0
LAYER
  5
10926
330
108ED
100
AcDbSymbolTableRecord
100
AcDbLayerTableRecord
  2
DEFPOINTS
 70
     0
 62
     7
  6
Continuous
290
     0
370
    -3
390
108FA
  0
LAYER
  5
10927
330
108ED
100
AcDbSymbolTableRecord
100
AcDbLayerTableRecord
  2
SCHRAFF
 70
     0
 62
     7
  6
Continuous
370
    -3
390
108FA
  0
ENDTAB
  0
TABLE
  2
STYLE
  5
108EE
330
0
100
AcDbSymbolTable
 70
     2
  0
STYLE
  5
108FC
330
108EE
100
AcDbSymbolTableRecord
100
AcDbTextStyleTableRecord
  2
STANDARD
 70
     0
 40
0.0
 41
1.0
 50
0.0
 71
     0
 42
3.5
  3
txt
  4

  0
STYLE
  5
1091C
330
108EE
100
AcDbSymbolTableRecord
100
AcDbTextStyleTableRecord
  2
GREEKS
 70
     0
 40
0.0
 41
0.8
 50
0.0
 71
     0
 42
2.5
  3
SIMPLEX.shx
  4

  0
ENDTAB
  0
TABLE
  2
VIEW
  5
108F1
330
0
100
AcDbSymbolTable
 70
     0
  0
ENDTAB
  0
TABLE
  2
UCS
  5
108F2
330
0
100
AcDbSymbolTable
 70
     0
  0
ENDTAB
  0
TABLE
  2
APPID
  5
108F4
330
0
100
AcDbSymbolTable
 70
     1
  0
APPID
  5
108FD
330
108F4
100
AcDbSymbolTableRecord
100
AcDbRegAppTableRecord
  2
ACAD
 70
     0
  0
ENDTAB
  0
TABLE
  2
DIMSTYLE
  5
108F5
330
0
100
AcDbSymbolTable
 70
     1
100
AcDbDimStyleTable
 71
     1
340
1092E
  0
DIMSTYLE
105
1092E
102
{ACAD_REACTORS
330
1081B
330
1081C
330
10835
102
}
330
108F5
100
AcDbSymbolTableRecord
100
AcDbDimStyleTableRecord
  2
Standard
 70
     0
340
108FC
  0
ENDTAB
  0
TABLE
  2
BLOCK_RECORD
  5
108EC
330
0
100
AcDbSymbolTable
 70
    13
  0
BLOCK_RECORD
  5
1090B
330
108EC
100
AcDbSymbolTableRecord
100
AcDbBlockTableRecord
  2
*Model_Space
340
1090E
  0
BLOCK_RECORD
  5
10907
330
108EC
100
AcDbSymbolTableRecord
100
AcDbBlockTableRecord
  2
*Paper_Space
340
1090A
  0
BLOCK_RECORD
  5
1090F
330
108EC
100
AcDbSymbolTableRecord
100
AcDbBlockTableRecord
  2
LOGO
340
0
102
{BLKREFS
331
10834
102
}
  0
BLOCK_RECORD
  5
10911
330
108EC
100
AcDbSymbolTableRecord
100
AcDbBlockTableRecord
  2
*X1
340
0
102
{BLKREFS
331
1089E
102
}
  0
BLOCK_RECORD
  5
10912
330
108EC
100
AcDbSymbolTableRecord
100
AcDbBlockTableRecord
  2
*X2
340
0
102
{BLKREFS
331
1086C
102
}
  0
BLOCK_RECORD
  5
10915
330
108EC
100
AcDbSymbolTableRecord
100
AcDbBlockTableRecord
  2
*D5
340
0
  0
BLOCK_RECORD
  5
10954
330
108EC
100
AcDbSymbolTableRecord
100
AcDbBlockTableRecord
  2
*D10
340
0
  0
BLOCK_RECORD
  5
10960
330
108EC
100
AcDbSymbolTableRecord
100
AcDbBlockTableRecord
  2
*D11
340
0
  0
BLOCK_RECORD
  5
109AA
330
108EC
100
AcDbSymbolTableRecord
100
AcDbBlockTableRecord
  2
*D12
340
0
  0
ENDTAB
  0
ENDSEC
  0
SECTION
  2
BLOCKS
  0
BLOCK
  5
1092B
330
1090B
100
AcDbEntity
  8
0
100
AcDbBlockBegin
  2
*Model_Space
 70
     0
 10
0.0
 20
0.0
 30
0.0
  3
*Model_Space
  1

  0
ENDBLK
  5
1092C
330
1090B
100
AcDbEntity
  8
0
100
AcDbBlockEnd
  0
BLOCK
  5
10929
330
10907
100
AcDbEntity
 67
     1
  8
0
100
AcDbBlockBegin
  2
*Paper_Space
 70
     0
 10
0.0
 20
0.0
 30
0.0
  3
*Paper_Space
  1

  0
ENDBLK
  5
1092A
330
10907
100
AcDbEntity
 67
     1
  8
0
100
AcDbBlockEnd
  0
BLOCK
  5
44
330
1090F
100
AcDbEntity
  8
0
100
AcDbBlockBegin
  2
LOGO
 70
     0
 10
0.0
 20
0.0
 30
0.0
  3
LOGO
  1

  0
ARC
  5
45
330
1090F
100
AcDbEntity
  8
0
100
AcDbCircle
 10
11.59973089678112
 20
-9.271599258481501
 30
0.0
 40
4.5
100
AcDbArc
 50
270.0
 51
231.0575587310159
  0
LINE
  5
46
330
1090F
100
AcDbEntity
  8
0
100
AcDbLine
 10
3.599730896781125
 20
-4.771599258481529
 30
0.0
 11
3.599730896781153
 21
-11.77159925848133
 31
0.0
  0
LINE
  5
47
330
1090F
100
AcDbEntity
  8
0
100
AcDbLine
 10
2.599730896781125
 20
-4.771599258481529
 30
0.0
 11
2.599730896781153
 21
-11.77159925848133
 31
0.0
  0
CIRCLE
  5
48
330
1090F
100
AcDbEntity
  8
0
100
AcDbCircle
 10
11.59973089678112
 20
-9.271599258481501
 30
0.0
 40
3.5
  0
ARC
  5
49
330
1090F
100
AcDbEntity
  8
0
100
AcDbCircle
 10
31.59973089678115
 20
-9.271599258481472
 30
0.0
 40
4.5
100
AcDbArc
 50
270.0
 51
231.0575587310182
  0
LINE
  5
4A
330
1090F
100
AcDbEntity
  8
0
100
AcDbLine
 10
17.59973089678112
 20
-4.771599258481472
 30
0.0
 11
17.59973089678115
 21
-13.77159925848147
 31
0.0
  0
ARC
  5
4B
330
1090F
100
AcDbEntity
  8
0
100
AcDbCircle
 10
22.59973089678116
 20
-7.271599258481472
 30
0.0
 40
2.5
100
AcDbArc
 50
293.1161887722295
 51
90.0
  0
CIRCLE
  5
4C
330
1090F
100
AcDbEntity
  8
0
100
AcDbCircle
 10
31.59973089678115
 20
-9.271599258481472
 30
0.0
 40
3.5
  0
ARC
  5
4D
330
1090F
100
AcDbEntity
  8
0
100
AcDbCircle
 10
4.599730896781153
 20
-11.77159925848133
 30
0.0
 40
1.0
100
AcDbArc
 50
180.0
 51
270.0
  0
ARC
  5
4E
330
1090F
100
AcDbEntity
  8
0
100
AcDbCircle
 10
4.599730896781153
 20
-11.77159925848133
 30
0.0
 40
2.0
100
AcDbArc
 50
179.9999999999992
 51
270.0
  0
LINE
  5
4F
330
1090F
100
AcDbEntity
  8
0
100
AcDbLine
 10
11.59973089678115
 20
-13.77159925848144
 30
0.0
 11
4.599730896781153
 21
-13.77159925848147
 31
0.0
  0
LINE
  5
50
330
1090F
100
AcDbEntity
  8
0
100
AcDbLine
 10
8.771303772034769
 20
-12.77159925848136
 30
0.0
 11
4.599730896781153
 21
-12.77159925848133
 31
0.0
  0
LINE
  5
51
330
1090F
100
AcDbEntity
  8
0
100
AcDbLine
 10
31.59973089678115
 20
-13.77159925848147
 30
0.0
 11
23.6715276665056
 21
-13.77159925848144
 31
0.0
  0
LINE
  5
52
330
1090F
100
AcDbEntity
  8
0
100
AcDbLine
 10
23.56565672307022
 20
-9.51278021337896
 30
0.0
 11
24.4388546544846
 21
-12.77159925848144
 31
0.0
  0
LINE
  5
53
330
1090F
100
AcDbEntity
  8
0
100
AcDbLine
 10
22.59973089678116
 20
-9.771599258481472
 30
0.0
 11
18.59973089678112
 21
-9.771599258481472
 31
0.0
  0
LINE
  5
54
330
1090F
100
AcDbEntity
  8
0
100
AcDbLine
 10
18.59973089678115
 20
-13.77159925848144
 30
0.0
 11
17.59973089678115
 21
-13.77159925848144
 31
0.0
  0
LINE
  5
55
330
1090F
100
AcDbEntity
  8
0
100
AcDbLine
 10
18.59973089678115
 20
-9.771599258481472
 30
0.0
 11
18.59973089678115
 21
-13.77159925848144
 31
0.0
  0
LINE
  5
56
330
1090F
100
AcDbEntity
  8
0
100
AcDbLine
 10
22.59973089678116
 20
-9.771599258481472
 30
0.0
 11
23.67152766650562
 21
-13.77159925848147
 31
0.0
  0
ARC
  5
57
330
1090F
100
AcDbEntity
  8
0
100
AcDbCircle
 10
22.59973089678116
 20
-7.271599258481472
 30
0.0
 40
2.5
100
AcDbArc
 50
270.0
 51
270.0000000000007
  0
LINE
  5
58
330
1090F
100
AcDbEntity
  8
0
100
AcDbLine
 10
28.77130377203494
 20
-12.77159925848147
 30
0.0
 11
24.43885465448463
 21
-12.77159925848144
 31
0.0
  0
LINE
  5
59
330
1090F
100
AcDbEntity
  8
0
100
AcDbLine
 10
3.599730896781125
 20
-4.771599258481472
 30
0.0
 11
2.599730896781125
 21
-4.771599258481472
 31
0.0
  0
LINE
  5
5A
330
1090F
100
AcDbEntity
  8
0
100
AcDbLine
 10
22.59973089678116
 20
-8.771599258481472
 30
0.0
 11
18.59973089678115
 21
-8.771599258481472
 31
0.0
  0
LINE
  5
5B
330
1090F
100
AcDbEntity
  8
0
100
AcDbLine
 10
22.59973089678116
 20
-5.771599258481472
 30
0.0
 11
18.59973089678115
 21
-5.771599258481472
 31
0.0
  0
LINE
  5
5C
330
1090F
100
AcDbEntity
  8
0
100
AcDbLine
 10
22.59973089678116
 20
-4.771599258481472
 30
0.0
 11
17.59973089678115
 21
-4.771599258481472
 31
0.0
  0
LINE
  5
5D
330
1090F
100
AcDbEntity
  8
0
100
AcDbLine
 10
18.59973089678115
 20
-5.771599258481472
 30
0.0
 11
18.59973089678115
 21
-8.771599258481472
 31
0.0
  0
ARC
  5
5E
330
1090F
100
AcDbEntity
  8
0
100
AcDbCircle
 10
22.59973089678116
 20
-7.271599258481472
 30
0.0
 40
1.5
100
AcDbArc
 50
270.0
 51
90.0
  0
ENDBLK
  5
5F
330
1090F
100
AcDbEntity
  8
0
100
AcDbBlockEnd
  0
BLOCK
  5
EF9F
330
10911
100
AcDbEntity
  8
0
100
AcDbBlockBegin
  2
*X1
 70
     1
 10
0.0
 20
0.0
 30
0.0
  3
*X1
  1

  0
LINE
  5
EF7D
330
10911
100
AcDbEntity
  8
SCHRAFF
 62
     0
100
AcDbLine
 10
757.0880234322104
 20
721.5559076775861
 30
0.0
 11
758.3652221540382
 21
722.8331063994139
 31
0.0
  0
LINE
  5
EF7E
330
10911
100
AcDbEntity
  8
SCHRAFF
 62
     0
100
AcDbLine
 10
756.6742386716505
 20
721.3188996123229
 30
0.0
 11
758.6022302193014
 21
723.2468911599738
 31
0.0
  0
LINE
  5
EF7F
330
10911
100
AcDbEntity
  8
SCHRAFF
 62
     0
100
AcDbLine
 10
756.3518721581499
 20
721.173309794119
 30
0.0
 11
758.7478200375053
 21
723.5692576734743
 31
0.0
  0
LINE
  5
EF80
330
10911
100
AcDbEntity
  8
SCHRAFF
 62
     0
100
AcDbLine
 10
756.0738806285964
 20
721.0720949598623
 30
0.0
 11
758.8490348717621
 21
723.8472492030279
 31
0.0
  0
LINE
  5
EF81
330
10911
100
AcDbEntity
  8
SCHRAFF
 62
     0
100
AcDbLine
 10
755.8238844631084
 20
720.9988754896709
 30
0.0
 11
758.9222543419534
 21
724.0972453685159
 31
0.0
  0
LINE
  5
EF82
330
10911
100
AcDbEntity
  8
SCHRAFF
 62
     0
100
AcDbLine
 10
755.5938372759583
 20
720.9456049978174
 30
0.0
 11
758.9755248338069
 21
724.327292555666
 31
0.0
  0
LINE
  5
EF83
330
10911
100
AcDbEntity
  8
SCHRAFF
 62
     0
100
AcDbLine
 10
755.3790677918974
 20
720.9076122090532
 30
0.0
 11
759.013517622571
 21
724.5420620397268
 31
0.0
  0
LINE
  5
EF84
330
10911
100
AcDbEntity
  8
SCHRAFF
 62
     0
100
AcDbLine
 10
755.1765744806906
 20
720.8818955931429
 30
0.0
 11
759.0392342384815
 21
724.7445553509337
 31
0.0
  0
LINE
  5
EF85
330
10911
100
AcDbEntity
  8
SCHRAFF
 62
     0
100
AcDbLine
 10
754.9842915011509
 20
720.8663893088997
 30
0.0
 11
759.0547405227246
 21
724.9368383304735
 31
0.0
  0
LINE
  5
EF86
330
10911
100
AcDbEntity
  8
SCHRAFF
 62
     0
100
AcDbLine
 10
754.8007245293168
 20
720.8595990323622
 30
0.0
 11
759.0615307992621
 21
725.1204053023076
 31
0.0
  0
LINE
  5
EF87
330
10911
100
AcDbEntity
  8
SCHRAFF
 62
     0
100
AcDbLine
 10
754.7324995728356
 20
720.9681507711779
 30
0.0
 11
759.0607274197866
 21
725.2963786181289
 31
0.0
  0
LINE
  5
EF88
330
10911
100
AcDbEntity
  8
SCHRAFF
 62
     0
100
AcDbLine
 10
754.7324995728356
 20
721.1449274664745
 30
0.0
 11
759.0531984919678
 21
725.4656263856067
 31
0.0
  0
LINE
  5
EF89
330
10911
100
AcDbEntity
  8
SCHRAFF
 62
     0
100
AcDbLine
 10
754.7324995728356
 20
721.3217041617712
 30
0.0
 11
759.0396314360869
 21
725.6288360250225
 31
0.0
  0
LINE
  5
EF8A
330
10911
100
AcDbEntity
  8
SCHRAFF
 62
     0
100
AcDbLine
 10
754.7324995728356
 20
721.4984808570679
 30
0.0
 11
759.020581099367
 21
725.7865623835993
 31
0.0
  0
LINE
  5
EF8B
330
10911
100
AcDbEntity
  8
SCHRAFF
 62
     0
100
AcDbLine
 10
754.7324995728356
 20
721.6752575523645
 30
0.0
 11
758.9965024314912
 21
725.9392604110201
 31
0.0
  0
LINE
  5
EF8C
330
10911
100
AcDbEntity
  8
SCHRAFF
 62
     0
100
AcDbLine
 10
754.7324995728358
 20
721.8520342476611
 30
0.0
 11
758.9677733801285
 21
726.0873080549538
 31
0.0
  0
LINE
  5
EF8D
330
10911
100
AcDbEntity
  8
SCHRAFF
 62
     0
100
AcDbLine
 10
754.7324995728356
 20
722.0288109429576
 30
0.0
 11
758.9347113633927
 21
726.2310227335147
 31
0.0
  0
LINE
  5
EF8E
330
10911
100
AcDbEntity
  8
SCHRAFF
 62
     0
100
AcDbLine
 10
754.7324995728356
 20
722.2055876382543
 30
0.0
 11
758.8975853919654
 21
726.370673457384
 31
0.0
  0
LINE
  5
EF8F
330
10911
100
AcDbEntity
  8
SCHRAFF
 62
     0
100
AcDbLine
 10
754.7324995728359
 20
722.3823643335512
 30
0.0
 11
758.856625165221
 21
726.5064899259363
 31
0.0
  0
LINE
  5
EF90
330
10911
100
AcDbEntity
  8
SCHRAFF
 62
     0
100
AcDbLine
 10
754.7324995728356
 20
722.5591410288476
 30
0.0
 11
758.8120280128885
 21
726.6386694689004
 31
0.0
  0
LINE
  5
EF91
330
10911
100
AcDbEntity
  8
SCHRAFF
 62
     0
100
AcDbLine
 10
754.7324995728356
 20
722.7359177241443
 30
0.0
 11
758.7639642707946
 21
726.7673824221033
 31
0.0
  0
LINE
  5
EF92
330
10911
100
AcDbEntity
  8
SCHRAFF
 62
     0
100
AcDbLine
 10
754.7324995728356
 20
722.9126944194409
 30
0.0
 11
758.7125814972292
 21
726.8927763438346
 31
0.0
  0
LINE
  5
EF93
330
10911
100
AcDbEntity
  8
SCHRAFF
 62
     0
100
AcDbLine
 10
754.7324995728358
 20
723.0894711147376
 30
0.0
 11
758.6580078164413
 21
727.0149793583432
 31
0.0
  0
LINE
  5
EF94
330
10911
100
AcDbEntity
  8
SCHRAFF
 62
     0
100
AcDbLine
 10
754.7324995728358
 20
723.2662478100341
 30
0.0
 11
758.6003545948012
 21
727.1341028319997
 31
0.0
  0
LINE
  5
EF95
330
10911
100
AcDbEntity
  8
SCHRAFF
 62
     0
100
AcDbLine
 10
754.7324995728356
 20
723.4430245053308
 30
0.0
 11
758.5397185993983
 21
727.2502435318934
 31
0.0
  0
LINE
  5
EF96
330
10911
100
AcDbEntity
  8
SCHRAFF
 62
     0
100
AcDbLine
 10
754.7324995728356
 20
723.6198012006274
 30
0.0
 11
758.4761837497514
 21
727.3634853775432
 31
0.0
  0
LINE
  5
EF97
330
10911
100
AcDbEntity
  8
SCHRAFF
 62
     0
100
AcDbLine
 10
754.7324995728359
 20
723.7965778959242
 30
0.0
 11
758.4098225453962
 21
727.4739008684846
 31
0.0
  0
LINE
  5
EF98
330
10911
100
AcDbEntity
  8
SCHRAFF
 62
     0
100
AcDbLine
 10
754.7324995728356
 20
723.9733545912208
 30
0.0
 11
758.3406972318831
 21
727.5815522502682
 31
0.0
  0
LINE
  5
EF99
330
10911
100
AcDbEntity
  8
SCHRAFF
 62
     0
100
AcDbLine
 10
754.7324995728356
 20
724.1501312865174
 30
0.0
 11
758.2688607528232
 21
727.686492466505
 31
0.0
  0
LINE
  5
EF9A
330
10911
100
AcDbEntity
  8
SCHRAFF
 62
     0
100
AcDbLine
 10
754.7324995728358
 20
724.3269079818142
 30
0.0
 11
758.1943575244807
 21
727.7887659334591
 31
0.0
  0
LINE
  5
EF9B
330
10911
100
AcDbEntity
  8
SCHRAFF
 62
     0
100
AcDbLine
 10
754.7324995728359
 20
724.5036846771107
 30
0.0
 11
758.1172240609484
 21
727.8884091652233
 31
0.0
  0
LINE
  5
EF9C
330
10911
100
AcDbEntity
  8
SCHRAFF
 62
     0
100
AcDbLine
 10
754.7324995728356
 20
724.6804613724072
 30
0.0
 11
758.0374894714213
 21
727.9854512709929
 31
0.0
  0
LINE
  5
EF9D
330
10911
100
AcDbEntity
  8
SCHRAFF
 62
     0
100
AcDbLine
 10
754.7324995728359
 20
724.8572380677041
 30
0.0
 11
757.9551758459311
 21
728.0799143407993
 31
0.0
  0
LINE
  5
EF9E
330
10911
100
AcDbEntity
  8
SCHRAFF
 62
     0
100
AcDbLine
 10
754.7324995728359
 20
725.0340147630007
 30
0.0
 11
757.8702985417834
 21
728.1718137319483
 31
0.0
  0
ENDBLK
  5
EFA0
330
10911
100
AcDbEntity
  8
0
100
AcDbBlockEnd
  0
BLOCK
  5
EFD2
330
10912
100
AcDbEntity
  8
0
100
AcDbBlockBegin
  2
*X2
 70
     1
 10
0.0
 20
0.0
 30
0.0
  3
*X2
  1

  0
LINE
  5
EFA2
330
10912
100
AcDbEntity
  8
SCHRAFF
 62
     0
100
AcDbLine
 10
430.7753444027414
 20
855.0394131146699
 30
0.0
 11
430.8324995728358
 21
855.0965682847643
 31
0.0
  0
LINE
  5
EFA3
330
10912
100
AcDbEntity
  8
SCHRAFF
 62
     0
100
AcDbLine
 10
430.6411406292782
 20
855.0819860365033
 30
0.0
 11
430.8324995728358
 21
855.2733449800609
 31
0.0
  0
LINE
  5
EFA4
330
10912
100
AcDbEntity
  8
SCHRAFF
 62
     0
100
AcDbLine
 10
430.5107562310609
 20
855.1283783335827
 30
0.0
 11
430.8324995728357
 21
855.4501216753575
 31
0.0
  0
LINE
  5
EFA5
330
10912
100
AcDbEntity
  8
SCHRAFF
 62
     0
100
AcDbLine
 10
430.3840083432687
 20
855.1784071410871
 30
0.0
 11
430.8324995728358
 21
855.6268983706541
 31
0.0
  0
LINE
  5
EFA6
330
10912
100
AcDbEntity
  8
SCHRAFF
 62
     0
100
AcDbLine
 10
430.2607400139613
 20
855.2319155070764
 30
0.0
 11
430.8324995728358
 21
855.8036750659507
 31
0.0
  0
LINE
  5
EFA7
330
10912
100
AcDbEntity
  8
SCHRAFF
 62
     0
100
AcDbLine
 10
430.1408162845001
 20
855.2887684729116
 30
0.0
 11
430.8324995728358
 21
855.9804517612475
 31
0.0
  0
LINE
  5
EFA8
330
10912
100
AcDbEntity
  8
SCHRAFF
 62
     0
100
AcDbLine
 10
430.0241210880757
 20
855.348849971784
 30
0.0
 11
430.8324995728358
 21
856.1572284565439
 31
0.0
  0
LINE
  5
EFA9
330
10912
100
AcDbEntity
  8
SCHRAFF
 62
     0
100
AcDbLine
 10
429.9105547766641
 20
855.412060355669
 30
0.0
 11
430.8324995728358
 21
856.3340051518407
 31
0.0
  0
LINE
  5
EFAA
330
10912
100
AcDbEntity
  8
SCHRAFF
 62
     0
100
AcDbLine
 10
429.8000321381858
 20
855.4783144124874
 30
0.0
 11
430.8324995728358
 21
856.5107818471373
 31
0.0
  0
LINE
  5
EFAB
330
10912
100
AcDbEntity
  8
SCHRAFF
 62
     0
100
AcDbLine
 10
429.6924808018679
 20
855.547539771466
 30
0.0
 11
430.8324995728358
 21
856.6875585424339
 31
0.0
  0
LINE
  5
EFAC
330
10912
100
AcDbEntity
  8
SCHRAFF
 62
     0
100
AcDbLine
 10
429.5878399557985
 20
855.6196756206933
 30
0.0
 11
430.8324995728357
 21
856.8643352377305
 31
0.0
  0
LINE
  5
EFAD
330
10912
100
AcDbEntity
  8
SCHRAFF
 62
     0
100
AcDbLine
 10
429.4860593196166
 20
855.6946716798078
 30
0.0
 11
430.8324995728358
 21
857.0411119330271
 31
0.0
  0
LINE
  5
EFAE
330
10912
100
AcDbEntity
  8
SCHRAFF
 62
     0
100
AcDbLine
 10
429.387098329375
 20
855.7724873848631
 30
0.0
 11
430.8324995728356
 21
857.2178886283237
 31
0.0
  0
LINE
  5
EFAF
330
10912
100
AcDbEntity
  8
SCHRAFF
 62
     0
100
AcDbLine
 10
429.2909255022848
 20
855.8530912530695
 30
0.0
 11
430.8324995728356
 21
857.3946653236204
 31
0.0
  0
LINE
  5
EFB0
330
10912
100
AcDbEntity
  8
SCHRAFF
 62
     0
100
AcDbLine
 10
429.1975179573199
 20
855.9364604034012
 30
0.0
 11
430.8324995728356
 21
857.571442018917
 31
0.0
  0
LINE
  5
EFB1
330
10912
100
AcDbEntity
  8
SCHRAFF
 62
     0
100
AcDbLine
 10
429.1068610742318
 20
856.0225802156097
 30
0.0
 11
430.8324995728356
 21
857.7482187142136
 31
0.0
  0
LINE
  5
EFB2
330
10912
100
AcDbEntity
  8
SCHRAFF
 62
     0
100
AcDbLine
 10
429.0189482789291
 20
856.1114441156037
 30
0.0
 11
430.8324995728356
 21
857.9249954095102
 31
0.0
  0
LINE
  5
EFB3
330
10912
100
AcDbEntity
  8
SCHRAFF
 62
     0
100
AcDbLine
 10
428.9337809477978
 20
856.203053479769
 30
0.0
 11
430.8324995728357
 21
858.101772104807
 31
0.0
  0
LINE
  5
EFB4
330
10912
100
AcDbEntity
  8
SCHRAFF
 62
     0
100
AcDbLine
 10
428.8513684276905
 20
856.2974176549586
 30
0.0
 11
430.8324995728357
 21
858.2785488001036
 31
0.0
  0
LINE
  5
EFB5
330
10912
100
AcDbEntity
  8
SCHRAFF
 62
     0
100
AcDbLine
 10
428.7717281722681
 20
856.3945540948324
 30
0.0
 11
430.8324995728358
 21
858.4553254954002
 31
0.0
  0
LINE
  5
EFB6
330
10912
100
AcDbEntity
  8
SCHRAFF
 62
     0
100
AcDbLine
 10
428.6948859993657
 20
856.494488617227
 30
0.0
 11
430.8324995728356
 21
858.632102190697
 31
0.0
  0
LINE
  5
EFB7
330
10912
100
AcDbEntity
  8
SCHRAFF
 62
     0
100
AcDbLine
 10
428.6208764783452
 20
856.597255791503
 30
0.0
 11
430.8324995728356
 21
858.8088788859934
 31
0.0
  0
LINE
  5
EFB8
330
10912
100
AcDbEntity
  8
SCHRAFF
 62
     0
100
AcDbLine
 10
428.5497434612446
 20
856.7028994696991
 30
0.0
 11
430.8324995728356
 21
858.98565558129
 31
0.0
  0
LINE
  5
EFB9
330
10912
100
AcDbEntity
  8
SCHRAFF
 62
     0
100
AcDbLine
 10
428.4815407772978
 20
856.8114734810489
 30
0.0
 11
430.8324995728356
 21
859.1624322765866
 31
0.0
  0
LINE
  5
EFBA
330
10912
100
AcDbEntity
  8
SCHRAFF
 62
     0
100
AcDbLine
 10
428.4163331174902
 20
856.9230425165379
 30
0.0
 11
430.8324995728357
 21
859.3392089718834
 31
0.0
  0
LINE
  5
EFBB
330
10912
100
AcDbEntity
  8
SCHRAFF
 62
     0
100
AcDbLine
 10
428.3541971448233
 20
857.0376832391676
 30
0.0
 11
433.7877756802213
 21
862.4712617745657
 31
0.0
  0
LINE
  5
EFBC
330
10912
100
AcDbEntity
  8
SCHRAFF
 62
     0
100
AcDbLine
 10
428.2952228776904
 20
857.1554856673314
 30
0.0
 11
433.6699732520576
 21
862.5302360416986
 31
0.0
  0
LINE
  5
EFBD
330
10912
100
AcDbEntity
  8
SCHRAFF
 62
     0
100
AcDbLine
 10
428.2395154093446
 20
857.2765548942824
 30
0.0
 11
433.5489040251067
 21
862.5859435100442
 31
0.0
  0
LINE
  5
EFBE
330
10912
100
AcDbEntity
  8
SCHRAFF
 62
     0
100
AcDbLine
 10
428.1871970475523
 20
857.4010132277864
 30
0.0
 11
433.4244456916024
 21
862.6382618718366
 31
0.0
  0
LINE
  5
EFBF
330
10912
100
AcDbEntity
  8
SCHRAFF
 62
     0
100
AcDbLine
 10
428.138409987618
 20
857.5290028631489
 30
0.0
 11
433.2964560562401
 21
862.687048931771
 31
0.0
  0
LINE
  5
EFC0
330
10912
100
AcDbEntity
  8
SCHRAFF
 62
     0
100
AcDbLine
 10
428.0933196728043
 20
857.6606892436318
 30
0.0
 11
433.1647696757571
 21
862.7321392465846
 31
0.0
  0
LINE
  5
EFC1
330
10912
100
AcDbEntity
  8
SCHRAFF
 62
     0
100
AcDbLine
 10
428.0521190545148
 20
857.7962653206389
 30
0.0
 11
433.0291935987498
 21
862.7733398648741
 31
0.0
  0
LINE
  5
EFC2
330
10912
100
AcDbEntity
  8
SCHRAFF
 62
     0
100
AcDbLine
 10
428.0150340496446
 20
857.9359570110653
 30
0.0
 11
432.8895019083235
 21
862.8104248697445
 31
0.0
  0
LINE
  5
EFC3
330
10912
100
AcDbEntity
  8
SCHRAFF
 62
     0
100
AcDbLine
 10
427.9823306190478
 20
858.0800302757653
 30
0.0
 11
432.7454286436235
 21
862.843128300341
 31
0.0
  0
LINE
  5
EFC4
330
10912
100
AcDbEntity
  8
SCHRAFF
 62
     0
100
AcDbLine
 10
427.9543240838643
 20
858.2288004358783
 30
0.0
 11
432.5966584835106
 21
862.8711348355246
 31
0.0
  0
LINE
  5
EFC5
330
10912
100
AcDbEntity
  8
SCHRAFF
 62
     0
100
AcDbLine
 10
427.9313915978709
 20
858.3826446451817
 30
0.0
 11
432.4428142742073
 21
862.8940673215179
 31
0.0
  0
LINE
  5
EFC6
330
10912
100
AcDbEntity
  8
SCHRAFF
 62
     0
100
AcDbLine
 10
427.9139891793871
 20
858.5420189219945
 30
0.0
 11
432.2834399973944
 21
862.9114697400018
 31
0.0
  0
LINE
  5
EFC7
330
10912
100
AcDbEntity
  8
SCHRAFF
 62
     0
100
AcDbLine
 10
427.9026755143765
 20
858.7074819522804
 30
0.0
 11
432.1179769671085
 21
862.9227834050125
 31
0.0
  0
LINE
  5
EFC8
330
10912
100
AcDbEntity
  8
SCHRAFF
 62
     0
100
AcDbLine
 10
427.8981461409721
 20
858.8797292741727
 30
0.0
 11
431.9457296452161
 21
862.9273127784168
 31
0.0
  0
LINE
  5
EFC9
330
10912
100
AcDbEntity
  8
SCHRAFF
 62
     0
100
AcDbLine
 10
427.9012841579892
 20
859.0596439864865
 30
0.0
 11
431.7658149329023
 21
862.9241747613995
 31
0.0
  0
LINE
  5
EFCA
330
10912
100
AcDbEntity
  8
SCHRAFF
 62
     0
100
AcDbLine
 10
427.9132384376441
 20
859.248374961438
 30
0.0
 11
431.5770839579509
 21
862.9122204817448
 31
0.0
  0
LINE
  5
EFCB
330
10912
100
AcDbEntity
  8
SCHRAFF
 62
     0
100
AcDbLine
 10
427.9355501827486
 20
859.4474634018391
 30
0.0
 11
431.3779955175498
 21
862.8899087366404
 31
0.0
  0
LINE
  5
EFCC
330
10912
100
AcDbEntity
  8
SCHRAFF
 62
     0
100
AcDbLine
 10
427.9703704404917
 20
859.6590603548788
 30
0.0
 11
431.1663985645101
 21
862.8550884788971
 31
0.0
  0
LINE
  5
EFCD
330
10912
100
AcDbEntity
  8
SCHRAFF
 62
     0
100
AcDbLine
 10
428.0208644219426
 20
859.8863310316264
 30
0.0
 11
430.9391278877625
 21
862.8045944974463
 31
0.0
  0
LINE
  5
EFCE
330
10912
100
AcDbEntity
  8
SCHRAFF
 62
     0
100
AcDbLine
 10
428.092047540964
 20
860.1342908459443
 30
0.0
 11
430.6911680734446
 21
862.733411378425
 31
0.0
  0
LINE
  5
EFCF
330
10912
100
AcDbEntity
  8
SCHRAFF
 62
     0
100
AcDbLine
 10
428.1928036107875
 20
860.4118236110647
 30
0.0
 11
430.4136353083243
 21
862.6326553086013
 31
0.0
  0
LINE
  5
EFD0
330
10912
100
AcDbEntity
  8
SCHRAFF
 62
     0
100
AcDbLine
 10
428.3421542938348
 20
860.7379509894085
 30
0.0
 11
430.0875079299803
 21
862.483304625554
 31
0.0
  0
LINE
  5
EFD1
330
10912
100
AcDbEntity
  8
SCHRAFF
 62
     0
100
AcDbLine
 10
428.6025331342588
 20
861.1751065251292
 30
0.0
 11
429.6503523942597
 21
862.22292578513
 31
0.0
  0
ENDBLK
  5
EFD3
330
10912
100
AcDbEntity
  8
0
100
AcDbBlockEnd
  0
BLOCK
  5
F79E
330
10915
100
AcDbEntity
  8
0
100
AcDbBlockBegin
  2
*D5
 70
     1
 10
0.0
 20
0.0
 30
0.0
  3
*D5
  1

  0
LINE
  5
F79F
330
10915
100
AcDbEntity
  8
0
  6
ByBlock
 62
     0
100
AcDbLine
 10
694.9232615020094
 20
1036.763227089397
 30
0.0
 11
764.8287660344006
 21
1106.668731621788
 31
0.0
  0
LINE
  5
F7A0
330
10915
100
AcDbEntity
  8
0
  6
ByBlock
 62
     0
100
AcDbLine
 10
574.715108700296
 20
921.5550742876848
 30
0.0
 11
574.715108700296
 21
1185.416386881926
 31
0.0
  0
ARC
  5
F7A1
330
10915
100
AcDbEntity
  8
0
  6
ByBlock
 62
     0
100
AcDbCircle
 10
574.715108700296
 20
916.5550742876845
 30
0.0
 40
263.8613125942417
100
AcDbArc
 50
48.80070876021791
 51
86.199291239782
  0
SOLID
  5
F7A2
330
10915
100
AcDbEntity
  8
0
  6
ByBlock
 62
     0
100
AcDbTrace
 10
750.5081869986405
 20
1117.220062022437
 30
0.0
 11
746.5224496629832
 21
1112.960757423218
 31
0.0
 12
761.2932321284679
 22
1103.133197715856
 32
0.0
 13
761.2932321284679
 23
1103.133197715856
 33
0.0
  0
SOLID
  5
F7A3
330
10915
100
AcDbEntity
  8
0
  6
ByBlock
 62
     0
100
AcDbTrace
 10
592.1087632566633
 20
1176.921000548742
 30
0.0
 11
592.3022045238382
 21
1182.751125612061
 31
0.0
 12
574.715108700296
 22
1180.416386881926
 32
0.0
 13
574.715108700296
 23
1180.416386881926
 33
0.0
  0
TEXT
  5
F7A4
330
10915
100
AcDbEntity
  8
0
  6
ByBlock
 62
     1
100
AcDbText
 10
668.5123724830861
 20
1171.680397587788
 30
0.0
 40
17.5
  1
45%%d
 50
336.9078566792603
 41
0.8
  7
GREEKS
 72
     1
 11
685.4357228017472
 21
1173.976878613833
 31
0.0
100
AcDbText
 73
     2
  0
POINT
  5
F7A5
330
10915
100
AcDbEntity
  8
DEFPOINTS
  6
ByBlock
 62
     0
100
AcDbPoint
 10
658.4805058511488
 20
1166.767285268915
 30
0.0
  0
POINT
  5
F7A6
330
10915
100
AcDbEntity
  8
DEFPOINTS
  6
ByBlock
 62
     0
100
AcDbPoint
 10
574.715108700296
 20
916.5550742876847
 30
0.0
  0
POINT
  5
F7A7
330
10915
100
AcDbEntity
  8
DEFPOINTS
  6
ByBlock
 62
     0
100
AcDbPoint
 10
574.715108700296
 20
916.5550742876847
 30
0.0
  0
POINT
  5
F7A8
330
10915
100
AcDbEntity
  8
DEFPOINTS
  6
ByBlock
 62
     0
100
AcDbPoint
 10
691.3877275960767
 20
1033.227693183465
 30
0.0
  0
POINT
  5
F7A9
330
10915
100
AcDbEntity
  8
DEFPOINTS
  6
ByBlock
 62
     0
100
AcDbPoint
 10
574.715108700296
 20
751.5550742876844
 30
0.0
  0
ENDBLK
  5
F7AA
330
10915
100
AcDbEntity
  8
0
100
AcDbBlockEnd
  0
BLOCK
  5
1095E
330
10954
100
AcDbEntity
  8
0
100
AcDbBlockBegin
  2
*D10
 70
     1
 10
0.0
 20
0.0
 30
0.0
  3
*D10
  1

  0
LINE
  5
10955
330
10954
100
AcDbEntity
  8
BEM
 62
     0
370
    -2
100
AcDbLine
 10
571.1795747943631
 20
920.0906081936173
 30
0.0
 11
424.6040152617856
 21
1066.666167726195
 31
0.0
  0
LINE
  5
10956
330
10954
100
AcDbEntity
  8
BEM
 62
     0
370
    -2
100
AcDbLine
 10
566.265182665117
 20
1144.208102490694
 30
0.0
 11
534.2055663457007
 21
1176.26771881011
 31
0.0
  0
LINE
  5
10957
330
10954
100
AcDbEntity
  8
BEM
 62
     0
370
    -2
100
AcDbLine
 10
440.513917838483
 20
1075.505002491027
 30
0.0
 11
525.3667315808688
 21
1160.357816233412
 31
0.0
  0
SOLID
  5
10958
330
10954
100
AcDbEntity
  8
BEM
 62
     0
100
AcDbTrace
 10
438.4515230600222
 20
1077.567397269487
 30
0.0
 11
442.5763126169438
 21
1073.442607712566
 31
0.0
 12
428.1395491677184
 22
1063.130633820262
 32
0.0
 13
428.1395491677184
 23
1063.130633820262
 33
0.0
  0
SOLID
  5
10959
330
10954
100
AcDbEntity
  8
BEM
 62
     0
100
AcDbTrace
 10
523.304336802408
 20
1162.420211011873
 30
0.0
 11
527.4291263593296
 21
1158.295421454952
 31
0.0
 12
537.7411002516335
 22
1172.732184904177
 32
0.0
 13
537.7411002516335
 23
1172.732184904177
 33
0.0
  0
MTEXT
  5
1095A
330
10954
100
AcDbEntity
  8
BEM
 62
     1
100
AcDbMText
 10
471.4498395153947
 20
1129.421894556501
 30
0.0
 40
17.5
 41
0.0
 71
     5
 72
     1
  1
\A1;155
  7
GREEKS
 11
0.7071067811865476
 21
0.7071067811865475
 31
0.0
 73
     1
 44
1.0
  0
POINT
  5
1095B
330
10954
100
AcDbEntity
  8
DEFPOINTS
 62
     0
100
AcDbPoint
 10
574.7151087002959
 20
916.5550742876845
 30
0.0
  0
POINT
  5
1095C
330
10954
100
AcDbEntity
  8
DEFPOINTS
 62
     0
100
AcDbPoint
 10
569.8007165710497
 20
1140.672568584761
 30
0.0
  0
POINT
  5
1095D
330
10954
100
AcDbEntity
  8
DEFPOINTS
 62
     0
100
AcDbPoint
 10
537.7411002516335
 20
1172.732184904177
 30
0.0
  0
ENDBLK
  5
1095F
330
10954
100
AcDbEntity
  8
0
100
AcDbBlockEnd
  0
BLOCK
  5
1096A
330
10960
100
AcDbEntity
  8
0
100
AcDbBlockBegin
  2
*D11
 70
     1
 10
0.0
 20
0.0
 30
0.0
  3
*D11
  1

  0
LINE
  5
10961
330
10960
100
AcDbEntity
  8
BEM
 62
     0
370
    -2
100
AcDbLine
 10
407.7651087002959
 20
761.5550742876846
 30
0.0
 11
361.6520902660072
 21
761.5550742876846
 31
0.0
  0
LINE
  5
10962
330
10960
100
AcDbEntity
  8
BEM
 62
     0
370
    -2
100
AcDbLine
 10
569.715108700296
 20
916.5550742876845
 30
0.0
 11
361.6520902660072
 21
916.5550742876845
 31
0.0
  0
LINE
  5
10963
330
10960
100
AcDbEntity
  8
BEM
 62
     0
370
    -2
100
AcDbLine
 10
366.6520902660072
 20
779.0550742876846
 30
0.0
 11
366.6520902660072
 21
899.0550742876846
 31
0.0
  0
SOLID
  5
10964
330
10960
100
AcDbEntity
  8
BEM
 62
     0
100
AcDbTrace
 10
363.7354235993405
 20
779.0550742876846
 30
0.0
 11
369.5687569326739
 21
779.0550742876846
 31
0.0
 12
366.6520902660072
 22
761.5550742876846
 32
0.0
 13
366.6520902660072
 23
761.5550742876846
 33
0.0
  0
SOLID
  5
10965
330
10960
100
AcDbEntity
  8
BEM
 62
     0
100
AcDbTrace
 10
363.7354235993405
 20
899.0550742876846
 30
0.0
 11
369.5687569326739
 21
899.0550742876846
 31
0.0
 12
366.6520902660072
 22
916.5550742876845
 32
0.0
 13
366.6520902660072
 23
916.5550742876845
 33
0.0
  0
MTEXT
  5
10966
330
10960
100
AcDbEntity
  8
BEM
 62
     1
100
AcDbMText
 10
350.4020902660071
 20
839.0550742876847
 30
0.0
 40
17.5
 41
0.0
 71
     5
 72
     1
  1
\A1;155
  7
GREEKS
 11
0.0000000000000001
 21
1.0
 31
0.0
 73
     1
 44
1.0
  0
POINT
  5
10967
330
10960
100
AcDbEntity
  8
DEFPOINTS
 62
     0
100
AcDbPoint
 10
412.7651087002959
 20
761.5550742876846
 30
0.0
  0
POINT
  5
10968
330
10960
100
AcDbEntity
  8
DEFPOINTS
 62
     0
100
AcDbPoint
 10
574.715108700296
 20
916.5550742876845
 30
0.0
  0
POINT
  5
10969
330
10960
100
AcDbEntity
  8
DEFPOINTS
 62
     0
100
AcDbPoint
 10
366.6520902660072
 20
916.5550742876845
 30
0.0
  0
ENDBLK
  5
1096B
330
10960
100
AcDbEntity
  8
0
100
AcDbBlockEnd
  0
BLOCK
  5
109B4
330
109AA
100
AcDbEntity
  8
0
100
AcDbBlockBegin
  2
*D12
 70
     1
 10
0.0
 20
0.0
 30
0.0
  3
*D12
  1

  0
LINE
  5
109B6
330
109AA
100
AcDbEntity
  8
BEM
 62
     0
370
    -2
100
AcDbLine
 10
412.7651087002959
 20
756.5550742876845
 30
0.0
 11
412.7651087002959
 21
675.3590259711034
 31
0.0
  0
LINE
  5
109B7
330
109AA
100
AcDbEntity
  8
BEM
 62
     0
370
    -2
100
AcDbLine
 10
736.6651087002958
 20
756.5550742876845
 30
0.0
 11
736.6651087002958
 21
675.3590259711034
 31
0.0
  0
LINE
  5
109B8
330
109AA
100
AcDbEntity
  8
BEM
 62
     0
370
    -2
100
AcDbLine
 10
430.2651087002959
 20
680.3590259711035
 30
0.0
 11
719.1651087002958
 21
680.3590259711035
 31
0.0
  0
SOLID
  5
109B9
330
109AA
100
AcDbEntity
  8
BEM
 62
     0
100
AcDbTrace
 10
430.2651087002959
 20
683.2756926377701
 30
0.0
 11
430.2651087002959
 21
677.4423593044368
 31
0.0
 12
412.7651087002959
 22
680.3590259711035
 32
0.0
 13
412.7651087002959
 23
680.3590259711035
 33
0.0
  0
SOLID
  5
109BA
330
109AA
100
AcDbEntity
  8
BEM
 62
     0
100
AcDbTrace
 10
719.1651087002958
 20
683.2756926377701
 30
0.0
 11
719.1651087002958
 21
677.4423593044368
 31
0.0
 12
736.6651087002958
 22
680.3590259711035
 32
0.0
 13
736.6651087002958
 23
680.3590259711035
 33
0.0
  0
MTEXT
  5
109BB
330
109AA
100
AcDbEntity
  8
BEM
 62
     1
100
AcDbMText
 10
574.7151087002959
 20
696.6090259711035
 30
0.0
 40
17.5
 41
0.0
 71
     5
 72
     1
  1
\A1;%%c324
  7
GREEKS
 73
     1
 44
1.0
  0
POINT
  5
109BC
330
109AA
100
AcDbEntity
  8
DEFPOINTS
 62
     0
100
AcDbPoint
 10
412.7651087002959
 20
761.5550742876845
 30
0.0
  0
POINT
  5
109BD
330
109AA
100
AcDbEntity
  8
DEFPOINTS
 62
     0
100
AcDbPoint
 10
736.6651087002958
 20
761.5550742876845
 30
0.0
  0
POINT
  5
109BE
330
109AA
100
AcDbEntity
  8
DEFPOINTS
 62
     0
100
AcDbPoint
 10
736.6651087002958
 20
680.3590259711035
 30
0.0
  0
ENDBLK
  5
109B5
330
109AA
100
AcDbEntity
  8
0
100
AcDbBlockEnd
  0
ENDSEC
  0
SECTION
  2
ENTITIES
  0
DIMENSION
  5
1081B
330
1090B
100
AcDbEntity
  8
BEM
100
AcDbDimension
  2
*D10
 10
537.7411002516335
 20
1172.732184904177
 30
0.0
 11
471.4498395153947
 21
1129.421894556501
 31
0.0
 70
    32
 71
     5
 42
155.0000000000002
  3
Standard
100
AcDbAlignedDimension
 13
574.7151087002959
 23
916.5550742876845
 33
0.0
 14
569.8007165710497
 24
1140.672568584761
 34
0.0
 50
45.0
100
AcDbRotatedDimension
1001
ACAD
1000
DSTYLE
1002
{
1070
    40
1040
5.0
1070
    41
1040
3.5
1070
    42
1040
1.0
1070
    43
1040
7.0
1070
    44
1040
1.0
1070
    47
1040
3.0
1070
    48
1040
3.0
1070
    73
1070
     0
1070
    74
1070
     0
1070
    77
1070
     1
1070
    78
1070
     8
1070
    79
1070
     2
1070
   140
1040
3.5
1070
   141
1040
1.5
1070
   146
1040
0.5
1070
   147
1040
1.5
1070
   172
1070
     1
1070
   178
1070
     1
1070
   179
1070
     2
1070
   271
1070
     2
1070
   272
1070
     2
1070
   284
1070
     8
1070
   285
1070
     8
1070
   286
1070
     8
1070
   340
1005
1091C
1002
}
  0
DIMENSION
  5
1081C
330
1090B
100
AcDbEntity
  8
BEM
100
AcDbDimension
  2
*D11
 10
366.6520902660072
 20
916.5550742876845
 30
0.0
 11
350.4020902660071
 21
839.0550742876847
 31
0.0
 70
    32
 71
     5
 42
155.0
  3
Standard
100
AcDbAlignedDimension
 13
412.7651087002959
 23
761.5550742876846
 33
0.0
 14
574.715108700296
 24
916.5550742876845
 34
0.0
 50
90.0
100
AcDbRotatedDimension
1001
ACAD
1000
DSTYLE
1002
{
1070
    40
1040
5.0
1070
    41
1040
3.5
1070
    42
1040
1.0
1070
    43
1040
7.0
1070
    44
1040
1.0
1070
    47
1040
3.0
1070
    48
1040
3.0
1070
    73
1070
     0
1070
    74
1070
     0
1070
    77
1070
     1
1070
    78
1070
     8
1070
    79
1070
     2
1070
   140
1040
3.5
1070
   141
1040
1.5
1070
   146
1040
0.5
1070
   147
1040
1.5
1070
   172
1070
     1
1070
   178
1070
     1
1070
   179
1070
     2
1070
   271
1070
     2
1070
   272
1070
     2
1070
   284
1070
     8
1070
   285
1070
     8
1070
   286
1070
     8
1070
   340
1005
1091C
1002
}
  0
ARC
  5
1081F
330
1090B
100
AcDbEntity
  8
SCHRAFF
100
AcDbCircle
 10
520.7455430414954
 20
938.7666700404727
 30
0.0
 40
5.705091079773839
100
AcDbArc
 50
292.9824135024093
 51
22.01758649759065
  0
LINE
  5
10820
330
1090B
100
AcDbEntity
  8
STEMPEL
100
AcDbLine
 10
736.6651087002958
 20
849.4731878613617
 30
0.0
 11
412.7651087002959
 21
983.6369607140074
 31
0.0
  0
LINE
  5
10821
330
1090B
100
AcDbEntity
  8
STEMPEL
100
AcDbLine
 10
736.6651087002958
 20
849.4731878613619
 30
0.0
 11
412.7651087002959
 21
983.6369607140078
 31
0.0
  0
LINE
  5
10822
330
1090B
100
AcDbEntity
  8
STEMPEL
100
AcDbLine
 10
736.6651087002958
 20
761.5550742876846
 30
0.0
 11
412.7651087002959
 21
761.5550742876846
 31
0.0
  0
LINE
  5
10823
330
1090B
100
AcDbEntity
  8
STEMPEL
100
AcDbLine
 10
412.7651087002959
 20
983.6369607140078
 30
0.0
 11
569.8007165710499
 21
1140.672568584761
 31
0.0
  0
LINE
  5
10824
330
1090B
100
AcDbEntity
  8
STEMPEL
100
AcDbLine
 10
1025.0
 20
1460.0
 30
0.0
 11
99.99999999999971
 21
1460.0
 31
0.0
  0
LINE
  5
10825
330
1090B
100
AcDbEntity
  8
HILF
100
AcDbLine
 10
1050.0
 20
1485.0
 30
0.0
 11
0.0
 21
1485.0
 31
0.0
  0
TEXT
  5
10826
330
1090B
100
AcDbEntity
  8
TEXT
 62
     1
100
AcDbText
 10
471.7846544748148
 20
351.64847138984
 30
0.0
 40
17.5
  1
Werkstoff: EN 10219 S235
 41
0.8
  7
GREEKS
100
AcDbText
  0
TEXT
  5
10828
330
1090B
100
AcDbEntity
  8
TEXT
100
AcDbText
 10
506.1566460565737
 20
183.2740272978806
 30
0.0
 40
10.0
  1
Name
 41
0.8
  7
GREEKS
100
AcDbText
  0
TEXT
  5
10829
330
1090B
100
AcDbEntity
  8
TEXT
100
AcDbText
 10
485.7147386835128
 20
256.0460421087048
 30
0.0
 40
12.5
  1
Zul. Abw.
 41
0.8
  7
GREEKS
100
AcDbText
  0
TEXT
  5
1082A
330
1090B
100
AcDbEntity
  8
TEXT
100
AcDbText
 10
511.0540121453142
 20
157.7240979930877
 30
0.0
 40
10.0
  1
Koeh
 41
0.8
  7
GREEKS
 72
     1
 11
524.1968692881714
 21
157.7240979930877
 31
0.0
100
AcDbText
  0
LINE
  5
1082B
330
1090B
100
AcDbEntity
  8
STEMPEL
100
AcDbLine
 10
1025.0
 20
275.0000000000001
 30
0.0
 11
99.99999999999992
 21
275.0
 31
0.0
  0
LINE
  5
1082C
330
1090B
100
AcDbEntity
  8
STEMPEL
100
AcDbLine
 10
1025.0
 20
100.0
 30
0.0
 11
365.0000000000003
 21
99.99999999999992
 31
0.0
  0
LINE
  5
1082D
330
1090B
100
AcDbEntity
  8
STEMPEL
100
AcDbLine
 10
1025.0
 20
200.0
 30
0.0
 11
365.0000000000003
 21
199.9999999999998
 31
0.0
  0
LINE
  5
1082E
330
1090B
100
AcDbEntity
  8
HILF
100
AcDbLine
 10
365.0000000000003
 20
174.9999999999998
 30
0.0
 11
575.0
 21
174.9999999999998
 31
0.0
  0
LINE
  5
1082F
330
1090B
100
AcDbEntity
  8
HILF
100
AcDbLine
 10
365.0000000000003
 20
149.9999999999999
 30
0.0
 11
575.0
 21
149.9999999999999
 31
0.0
  0
LINE
  5
10830
330
1090B
100
AcDbEntity
  8
HILF
100
AcDbLine
 10
365.0000000000003
 20
124.9999999999999
 30
0.0
 11
575.0
 21
124.9999999999999
 31
0.0
  0
LINE
  5
10831
330
1090B
100
AcDbEntity
  8
STEMPEL
100
AcDbLine
 10
124.9999999999997
 20
25.0
 30
0.0
 11
1025.0
 21
25.0
 31
0.0
  0
LINE
  5
10832
330
1090B
100
AcDbEntity
  8
STEMPEL
100
AcDbLine
 10
1025.0
 20
25.0
 30
0.0
 11
99.99999999999971
 21
25.0
 31
0.0
  0
LINE
  5
10833
330
1090B
100
AcDbEntity
  8
HILF
100
AcDbLine
 10
1050.0
 20
0.0
 30
0.0
 11
0.0
 21
0.0
 31
0.0
  0
INSERT
  5
10834
330
1090B
100
AcDbEntity
  8
STEMPEL
100
AcDbBlockReference
  2
LOGO
 10
377.4888713644485
 20
112.552631911208
 30
0.0
 41
5.0
 42
5.0
 43
5.0
  0
DIMENSION
  5
10835
330
1090B
100
AcDbEntity
  8
BEM
100
AcDbDimension
  2
*D12
 10
736.6651087002958
 20
680.3590259711035
 30
0.0
 11
574.7151087002959
 21
696.6090259711035
 31
0.0
 70
    32
  1
%%c324
 71
     5
 42
323.8999999999998
  3
Standard
100
AcDbAlignedDimension
 13
412.7651087002959
 23
761.5550742876845
 33
0.0
 14
736.6651087002958
 24
761.5550742876845
 34
0.0
100
AcDbRotatedDimension
1001
ACAD
1000
DSTYLE
1002
{
1070
    40
1040
5.0
1070
    41
1040
3.5
1070
    42
1040
1.0
1070
    43
1040
7.0
1070
    44
1040
1.0
1070
    47
1040
3.0
1070
    48
1040
3.0
1070
    73
1070
     0
1070
    74
1070
     0
1070
    77
1070
     1
1070
    78
1070
     8
1070
    79
1070
     2
1070
   140
1040
3.5
1070
   141
1040
1.5
1070
   146
1040
0.5
1070
   147
1040
1.5
1070
   172
1070
     1
1070
   178
1070
     1
1070
   179
1070
     2
1070
   271
1070
     2
1070
   272
1070
     2
1070
   284
1070
     8
1070
   285
1070
     8
1070
   286
1070
     8
1070
   340
1005
1091C
1002
}
  0
LINE
  5
10836
330
1090B
100
AcDbEntity
  8
STEMPEL
100
AcDbLine
 10
100.0
 20
25.0
 30
0.0
 11
99.99999999999971
 21
1460.0
 31
0.0
  0
LINE
  5
10837
330
1090B
100
AcDbEntity
  8
HILF
100
AcDbLine
 10
0.0
 20
0.0
 30
0.0
 11
-0.0000000000002842
 21
1485.0
 31
0.0
  0
LINE
  5
10838
330
1090B
100
AcDbEntity
  8
STEMPEL
100
AcDbLine
 10
364.9999999999997
 20
74.99999999999992
 30
0.0
 11
99.99999999999992
 21
74.99999999999992
 31
0.0
  0
LINE
  5
10839
330
1090B
100
AcDbEntity
  8
HILF
100
AcDbLine
 10
100.0000000000002
 20
250.0000000000001
 30
0.0
 11
365.0000000000003
 21
250.0000000000001
 31
0.0
  0
LINE
  5
1083A
330
1090B
100
AcDbEntity
  8
HILF
100
AcDbLine
 10
100.0000000000002
 20
225.0000000000001
 30
0.0
 11
365.0000000000003
 21
225.0000000000001
 31
0.0
  0
LINE
  5
1083B
330
1090B
100
AcDbEntity
  8
HILF
100
AcDbLine
 10
100.0000000000002
 20
199.9999999999998
 30
0.0
 11
365.0000000000003
 21
199.9999999999998
 31
0.0
  0
LINE
  5
1083C
330
1090B
100
AcDbEntity
  8
HILF
100
AcDbLine
 10
100.0000000000002
 20
174.9999999999998
 30
0.0
 11
365.0000000000003
 21
174.9999999999998
 31
0.0
  0
LINE
  5
1083D
330
1090B
100
AcDbEntity
  8
HILF
100
AcDbLine
 10
100.0000000000002
 20
149.9999999999999
 30
0.0
 11
365.0000000000003
 21
149.9999999999999
 31
0.0
  0
LINE
  5
1083E
330
1090B
100
AcDbEntity
  8
HILF
100
AcDbLine
 10
100.0000000000002
 20
124.9999999999999
 30
0.0
 11
365.0000000000003
 21
124.9999999999999
 31
0.0
  0
LINE
  5
1083F
330
1090B
100
AcDbEntity
  8
HILF
100
AcDbLine
 10
100.0000000000002
 20
99.99999999999992
 30
0.0
 11
365.0000000000003
 21
99.99999999999992
 31
0.0
  0
TEXT
  5
10840
330
1090B
100
AcDbEntity
  8
TEXT
100
AcDbText
 10
170.8791740339942
 20
46.68454737460329
 30
0.0
 40
10.0
  1
Änderung
 41
0.8
  7
GREEKS
 72
     1
 11
197.7363168911371
 21
46.68454737460329
 31
0.0
100
AcDbText
  0
TEXT
  5
10841
330
1090B
100
AcDbEntity
  8
TEXT
100
AcDbText
 10
104.6377487744418
 20
279.1799999999999
 30
0.0
 40
12.5
  1
Erstellt mit AUTOCAD 2004
 41
0.8
  7
GREEKS
100
AcDbText
  0
LINE
  5
10842
330
1090B
100
AcDbEntity
  8
VOLL
100
AcDbLine
 10
135.0000000000002
 20
275.0000000000001
 30
0.0
 11
134.9999999999999
 21
24.99999999999993
 31
0.0
  0
TEXT
  5
10843
330
1090B
100
AcDbEntity
  8
TEXT
100
AcDbText
 10
120.6660276761439
 20
34.13664615067979
 30
0.0
 40
10.0
  1
Index
 50
90.0
 41
0.8
  7
GREEKS
100
AcDbText
  0
LINE
  5
10844
330
1090B
100
AcDbEntity
  8
HILF
100
AcDbLine
 10
77.7191783928464
 20
742.5000000000001
 30
0.0
 11
0.0000000000002842
 21
742.5000000000001
 31
0.0
  0
LINE
  5
10845
330
1090B
100
AcDbEntity
  8
VOLL
100
AcDbLine
 10
260.0000000000003
 20
274.9999999999999
 30
0.0
 11
260.0
 21
24.99999999999993
 31
0.0
  0
LINE
  5
10846
330
1090B
100
AcDbEntity
  8
VOLL
100
AcDbLine
 10
310.0000000000003
 20
274.9999999999999
 30
0.0
 11
310.0
 21
24.99999999999993
 31
0.0
  0
TEXT
  5
10847
330
1090B
100
AcDbEntity
  8
TEXT
100
AcDbText
 10
275.2764282932893
 20
46.67890673349525
 30
0.0
 40
10.0
  1
Tag
 41
0.8
  7
GREEKS
 72
     1
 11
284.6097616266226
 21
46.67890673349525
 31
0.0
100
AcDbText
  0
TEXT
  5
10848
330
1090B
100
AcDbEntity
  8
TEXT
100
AcDbText
 10
323.235869436516
 20
46.4831054241602
 30
0.0
 40
10.0
  1
Name
 41
0.8
  7
GREEKS
 72
     1
 11
339.0453932460397
 21
46.4831054241602
 31
0.0
100
AcDbText
  0
LINE
  5
10849
330
1090B
100
AcDbEntity
  8
STEMPEL
100
AcDbLine
 10
365.0000000000003
 20
274.9999999999999
 30
0.0
 11
365.0
 21
24.99999999999993
 31
0.0
  0
TEXT
  5
1084A
330
1090B
100
AcDbEntity
  8
TEXT
100
AcDbText
 10
430.8279182884127
 20
183.2970125307481
 30
0.0
 40
10.0
  1
Tag
 41
0.8
  7
GREEKS
100
AcDbText
  0
TEXT
  5
1084B
330
1090B
100
AcDbEntity
  8
TEXT
100
AcDbText
 10
425.9974927705902
 20
157.7691260206433
 30
0.0
 40
10.0
  1
06.04.
 41
0.8
  7
GREEKS
 72
     1
 11
443.5213022943996
 21
157.7691260206433
 31
0.0
100
AcDbText
  0
LINE
  5
1084C
330
1090B
100
AcDbEntity
  8
VOLL
100
AcDbLine
 10
410.0000000000003
 20
199.9999999999998
 30
0.0
 11
410.0000000000003
 21
99.99999999999992
 31
0.0
  0
TEXT
  5
1084D
330
1090B
100
AcDbEntity
  8
TEXT
100
AcDbText
 10
368.9590317919039
 20
159.0747592404491
 30
0.0
 40
10.0
  1
Gez.
 41
0.8
  7
GREEKS
100
AcDbText
  0
TEXT
  5
1084E
330
1090B
100
AcDbEntity
  8
TEXT
100
AcDbText
 10
369.0016943468259
 20
108.8236597412452
 30
0.0
 40
10.0
  1
Norm.
 41
0.8
  7
GREEKS
100
AcDbText
  0
TEXT
  5
1084F
330
1090B
100
AcDbEntity
  8
TEXT
100
AcDbText
 10
368.8787716429181
 20
134.2231572857094
 30
0.0
 40
10.0
  1
Gepr.
 41
0.8
  7
GREEKS
100
AcDbText
  0
TEXT
  5
10850
330
1090B
100
AcDbEntity
  8
TEXT
100
AcDbText
 10
383.7908930375943
 20
256.1552237717722
 30
0.0
 40
12.5
  1
Maßstab
 41
0.8
  7
GREEKS
100
AcDbText
  0
TEXT
  5
10851
330
1090B
100
AcDbEntity
  8
TEXT
 62
     1
100
AcDbText
 10
401.2515766204717
 20
220.372535722849
 30
0.0
 40
17.5
  1
1:5
 41
0.8
  7
GREEKS
100
AcDbText
  0
TEXT
  5
10852
330
1090B
100
AcDbEntity
  8
TEXT
100
AcDbText
 10
371.55527455526
 20
182.8506367787916
 30
0.0
 40
10.0
  1
2011
 41
0.8
  7
GREEKS
100
AcDbText
  0
LINE
  5
10853
330
1090B
100
AcDbEntity
  8
VOLL
100
AcDbLine
 10
475.0000000000002
 20
274.9999999999996
 30
0.0
 11
475.0
 21
99.99999999999992
 31
0.0
  0
TEXT
  5
10854
330
1090B
100
AcDbEntity
  8
TEXT
 62
     1
100
AcDbText
 10
273.9036994186759
 20
439.8504167589382
 30
0.0
 40
17.5
  1
Rohrenden leicht entgratet
 41
0.8
  7
GREEKS
100
AcDbText
  0
ARC
  5
10855
330
1090B
100
AcDbEntity
  8
SCHRAFF
100
AcDbCircle
 10
423.7381921278101
 20
978.9484304388071
 30
0.0
 40
5.705091079773839
100
AcDbArc
 50
292.9824135024093
 51
22.01758649759065
  0
ARC
  5
10856
330
1090B
100
AcDbEntity
  8
SCHRAFF
100
AcDbCircle
 10
432.9769874529231
 20
975.1215961151563
 30
0.0
 40
5.705091079773839
100
AcDbArc
 50
292.9824135024093
 51
22.01758649759065
  0
ARC
  5
10857
330
1090B
100
AcDbEntity
  8
SCHRAFF
100
AcDbCircle
 10
428.3575897903667
 20
977.0350132769818
 30
0.0
 40
5.705091079773839
100
AcDbArc
 50
292.9824135024093
 51
22.01758649759065
  0
ARC
  5
10858
330
1090B
100
AcDbEntity
  8
SCHRAFF
100
AcDbCircle
 10
437.5963851154797
 20
973.2081789533308
 30
0.0
 40
5.705091079773839
100
AcDbArc
 50
292.9824135024093
 51
22.01758649759065
  0
LINE
  5
10859
330
1090B
100
AcDbEntity
  8
STEMPEL
100
AcDbLine
 10
412.7651087002959
 20
983.6369607140074
 30
0.0
 11
412.7651087002959
 21
761.5550742876846
 31
0.0
  0
ARC
  5
1085A
330
1090B
100
AcDbEntity
  8
SCHRAFF
100
AcDbCircle
 10
479.1709640784874
 20
955.9874244969018
 30
0.0
 40
5.705091079773839
100
AcDbArc
 50
292.9824135024093
 51
22.01758649759065
  0
ARC
  5
1085B
330
1090B
100
AcDbEntity
  8
SCHRAFF
100
AcDbCircle
 10
460.6933734282618
 20
963.6410931442036
 30
0.0
 40
5.705091079773839
100
AcDbArc
 50
292.9824135024093
 51
22.01758649759065
  0
ARC
  5
1085C
330
1090B
100
AcDbEntity
  8
SCHRAFF
100
AcDbCircle
 10
446.8351804405925
 20
969.3813446296799
 30
0.0
 40
5.705091079773839
100
AcDbArc
 50
292.9824135024093
 51
22.01758649759065
  0
ARC
  5
1085D
330
1090B
100
AcDbEntity
  8
SCHRAFF
100
AcDbCircle
 10
442.2157827780361
 20
971.2947617915054
 30
0.0
 40
5.705091079773839
100
AcDbArc
 50
292.9824135024093
 51
22.01758649759065
  0
ARC
  5
1085E
330
1090B
100
AcDbEntity
  8
SCHRAFF
100
AcDbCircle
 10
456.0739757657052
 20
965.5545103060291
 30
0.0
 40
5.705091079773839
100
AcDbArc
 50
292.9824135024093
 51
22.01758649759065
  0
ARC
  5
1085F
330
1090B
100
AcDbEntity
  8
SCHRAFF
100
AcDbCircle
 10
451.4545781031488
 20
967.4679274678545
 30
0.0
 40
5.705091079773839
100
AcDbArc
 50
292.9824135024093
 51
22.01758649759065
  0
ARC
  5
10860
330
1090B
100
AcDbEntity
  8
SCHRAFF
100
AcDbCircle
 10
469.9321687533747
 20
959.8142588205528
 30
0.0
 40
5.705091079773839
100
AcDbArc
 50
292.9824135024093
 51
22.01758649759065
  0
ARC
  5
10861
330
1090B
100
AcDbEntity
  8
SCHRAFF
100
AcDbCircle
 10
465.3127710908181
 20
961.7276759823781
 30
0.0
 40
5.705091079773839
100
AcDbArc
 50
292.9824135024093
 51
22.01758649759065
  0
ARC
  5
10862
330
1090B
100
AcDbEntity
  8
SCHRAFF
100
AcDbCircle
 10
474.5515664159311
 20
957.9008416587273
 30
0.0
 40
5.705091079773839
100
AcDbArc
 50
292.9824135024093
 51
22.01758649759065
  0
ARC
  5
10863
330
1090B
100
AcDbEntity
  8
SCHRAFF
100
AcDbCircle
 10
497.6485547287132
 20
948.3337558496
 30
0.0
 40
5.705091079773839
100
AcDbArc
 50
292.9824135024093
 51
22.01758649759065
  0
ARC
  5
10864
330
1090B
100
AcDbEntity
  8
SCHRAFF
100
AcDbCircle
 10
493.0291570661568
 20
950.2471730114253
 30
0.0
 40
5.705091079773839
100
AcDbArc
 50
292.9824135024093
 51
22.01758649759065
  0
ARC
  5
10865
330
1090B
100
AcDbEntity
  8
SCHRAFF
100
AcDbCircle
 10
488.4097594036002
 20
952.1605901732508
 30
0.0
 40
5.705091079773839
100
AcDbArc
 50
292.9824135024093
 51
22.01758649759065
  0
ARC
  5
10866
330
1090B
100
AcDbEntity
  8
SCHRAFF
100
AcDbCircle
 10
483.7903617410439
 20
954.0740073350763
 30
0.0
 40
5.705091079773839
100
AcDbArc
 50
292.9824135024093
 51
22.01758649759065
  0
ARC
  5
10867
330
1090B
100
AcDbEntity
  8
SCHRAFF
100
AcDbCircle
 10
506.8873500538261
 20
944.5069215259492
 30
0.0
 40
5.705091079773839
100
AcDbArc
 50
292.9824135024093
 51
22.01758649759065
  0
ARC
  5
10868
330
1090B
100
AcDbEntity
  8
SCHRAFF
100
AcDbCircle
 10
502.2679523912698
 20
946.4203386877745
 30
0.0
 40
5.705091079773839
100
AcDbArc
 50
292.9824135024093
 51
22.01758649759065
  0
ARC
  5
10869
330
1090B
100
AcDbEntity
  8
SCHRAFF
100
AcDbCircle
 10
511.5067477163825
 20
942.5935043641237
 30
0.0
 40
5.705091079773839
100
AcDbArc
 50
292.9824135024093
 51
22.01758649759065
  0
ARC
  5
1086A
330
1090B
100
AcDbEntity
  8
SCHRAFF
100
AcDbCircle
 10
516.1261453789388
 20
940.6800872022982
 30
0.0
 40
5.705091079773839
100
AcDbArc
 50
292.9824135024093
 51
22.01758649759065
  0
ARC
  5
1086B
330
1090B
100
AcDbEntity
  8
SCHRAFF
100
AcDbCircle
 10
419.7763593817303
 20
980.73280559256
 30
0.0
 40
5.705091079773839
100
AcDbArc
 50
292.9824135024093
 51
22.01758649759065
  0
INSERT
  5
1086C
330
1090B
100
AcDbEntity
  8
SCHRAFF
100
AcDbBlockReference
  2
*X2
 10
-18.06739087253982
 20
124.2845576025735
 30
0.0
1001
ACAD
1000
HATCH
1002
{
1070
    19
1000
ANSI31
1040
1.0
1040
0.0
1000
R14_HATCH_DATA
1000
2E3
1011
-17.06739087253982
1021
124.2845576025735
1031
0.0
1011
-18.06739087253982
1021
125.2845576025735
1031
0.0
1011
-18.06739087253982
1021
124.2845576025735
1031
1.0
1040
0.0
1010
0.0
1020
0.0
1030
1.0
1000
ANSI31
1070
     0
1070
     1
1071
        1
1071
        7
1070
     1
1070
     1
1071
        3
1040
433.8939670317564
1040
862.4138705703549
1040
1.125290079249607
1040
430.8324995728358
1040
855.0228343102643
1040
0.0
1040
430.8324995728357
1040
859.3524031114341
1040
0.0
1071
        3
1005
10868
1005
10859
1005
10866
1070
     0
1070
     1
1040
0.0
1040
1.0
1070
     0
1070
     1
1040
0.7853981633974483
1040
0.0
1040
0.0
1040
-0.0883883476483184
1040
0.0883883476483185
1070
     0
1040
0.044672939755949
1071
        1
1040
430.3186726784279
1040
860.5200117749818
1040
0.0
1002
}
  0
ARC
  5
1086D
330
1090B
100
AcDbEntity
  8
SCHRAFF
100
AcDbCircle
 10
413.8586065929994
 20
983.1840190564234
 30
0.0
 40
4.027899657604571
100
AcDbArc
 50
60.75240905835373
 51
254.2475909416476
  0
ARC
  5
1086E
330
1090B
100
AcDbEntity
  8
SCHRAFF
100
AcDbCircle
 10
415.1569617191738
 20
982.6462227543855
 30
0.0
 40
5.705091079773839
100
AcDbArc
 50
292.9824135024093
 51
22.01758649759065
  0
ARC
  5
1086F
330
1090B
100
AcDbEntity
  8
SCHRAFF
100
AcDbCircle
 10
410.5375640566173
 20
984.559639916211
 30
0.0
 40
5.705091079773839
100
AcDbArc
 50
292.9824135024093
 51
22.01758649759065
  0
LINE
  5
10871
330
1090B
100
AcDbEntity
  8
STEMPEL
100
AcDbLine
 10
1025.0
 20
25.0
 30
0.0
 11
1025.0
 21
1460.0
 31
0.0
  0
LINE
  5
10872
330
1090B
100
AcDbEntity
  8
HILF
100
AcDbLine
 10
1050.0
 20
-0.0000000000002842
 30
0.0
 11
1050.0
 21
1485.0
 31
0.0
  0
TEXT
  5
10874
330
1090B
100
AcDbEntity
  8
TEXT
 62
     1
100
AcDbText
 10
591.7846544748149
 20
321.64847138984
 30
0.0
 40
17.5
  1
feuerverzinkt und innen beschichtet
 41
0.8
  7
GREEKS
100
AcDbText
  0
LINE
  5
10875
330
1090B
100
AcDbEntity
  8
VOLL
100
AcDbLine
 10
830.0
 20
150.0
 30
0.0
 11
1025.0
 21
150.0
 31
0.0
  0
LINE
  5
10876
330
1090B
100
AcDbEntity
  8
HILF
100
AcDbLine
 10
841.8096540742482
 20
209.4495909238957
 30
0.0
 11
1012.147209831682
 21
209.4495909238957
 31
0.0
  0
TEXT
  5
10877
330
1090B
100
AcDbEntity
  8
TEXT
100
AcDbText
 10
840.4468873940851
 20
255.7830086342841
 30
0.0
 40
12.5
  1
Zeichnungs Nr.
 41
0.8
  7
GREEKS
100
AcDbText
  0
TEXT
  5
10878
330
1090B
100
AcDbEntity
  8
TEXT
100
AcDbText
 10
841.8096540742482
 20
182.9529559274992
 30
0.0
 40
12.5
  1
Ersatz für:
 41
0.8
  7
GREEKS
100
AcDbText
  0
TEXT
  5
10879
330
1090B
100
AcDbEntity
  8
TEXT
100
AcDbText
 10
843.1002153742515
 20
130.185404446965
 30
0.0
 40
12.5
  1
ersetzt durch:
 41
0.8
  7
GREEKS
100
AcDbText
  0
LINE
  5
1087A
330
1090B
100
AcDbEntity
  8
HILF
100
AcDbLine
 10
583.7274248224712
 20
37.23495645070784
 30
0.0
 11
1012.147209831682
 21
37.23495645070784
 31
0.0
  0
TEXT
  5
1087B
330
1090B
100
AcDbEntity
  8
TEXT
 62
     1
100
AcDbText
 10
587.207320850568
 20
218.5437197313445
 30
0.0
 40
17.5
  1
Bogen 45%%d DN300
 41
0.8
  7
GREEKS
100
AcDbText
  0
TEXT
  5
1087C
330
1090B
100
AcDbEntity
  8
TEXT
100
AcDbText
 10
587.8240977813288
 20
129.100298576054
 30
0.0
 40
12.5
  1
EDV-Art.Nr. 03006.300X
 41
0.8
  7
GREEKS
100
AcDbText
  0
LINE
  5
1087D
330
1090B
100
AcDbEntity
  8
HILF
100
AcDbLine
 10
586.9342002742369
 20
210.0939561891034
 30
0.0
 11
812.0884791390777
 21
210.0939561891034
 31
0.0
  0
LINE
  5
1087E
330
1090B
100
AcDbEntity
  8
HILF
100
AcDbLine
 10
586.9342002742369
 20
174.9999999999998
 30
0.0
 11
812.0884791390775
 21
174.9999999999998
 31
0.0
  0
LINE
  5
1087F
330
1090B
100
AcDbEntity
  8
HILF
100
AcDbLine
 10
586.9342002742369
 20
149.9999999999999
 30
0.0
 11
812.0884791390775
 21
149.9999999999999
 31
0.0
  0
LINE
  5
10880
330
1090B
100
AcDbEntity
  8
HILF
100
AcDbLine
 10
586.9342002742369
 20
124.9999999999999
 30
0.0
 11
812.0884791390775
 21
124.9999999999999
 31
0.0
  0
LINE
  5
10881
330
1090B
100
AcDbEntity
  8
STEMPEL
100
AcDbLine
 10
575.0
 20
275.0000000000001
 30
0.0
 11
575.0
 21
24.99999999999993
 31
0.0
  0
TEXT
  5
10882
330
1090B
100
AcDbEntity
  8
TEXT
100
AcDbText
 10
587.4593753944567
 20
106.5743538255658
 30
0.0
 40
10.0
  1
03006300W.DWG
 41
0.8
  7
GREEKS
100
AcDbText
  0
TEXT
  5
10883
330
1090B
100
AcDbEntity
  8
TEXT
100
AcDbText
 10
587.1948509522525
 20
256.3723320029449
 30
0.0
 40
12.5
  1
Benennung
 41
0.8
  7
GREEKS
100
AcDbText
  0
TEXT
  5
10884
330
1090B
100
AcDbEntity
  8
TEXT
100
AcDbText
 10
587.8240977813288
 20
181.1007260038562
 30
0.0
 40
12.5
  1
Muffenlos
 41
0.8
  7
GREEKS
100
AcDbText
  0
TEXT
  5
10885
330
1090B
100
AcDbEntity
  8
TEXT
100
AcDbText
 10
586.8555959778399
 20
77.11401425482641
 30
0.0
 40
12.5
  1
Bauvorhaben
 41
0.8
  7
GREEKS
100
AcDbText
  0
LINE
  5
10886
330
1090B
100
AcDbEntity
  8
STEMPEL
100
AcDbLine
 10
830.0
 20
274.9999999999994
 30
0.0
 11
830.0
 21
100.0
 31
0.0
  0
TEXT
  5
10887
330
1090B
100
AcDbEntity
  8
TEXT
 62
     1
100
AcDbText
 10
864.6737058066964
 20
220.372535722849
 30
0.0
 40
17.5
  1
03006300W
 41
0.8
  7
GREEKS
 72
     1
 11
924.6737058066965
 21
220.372535722849
 31
0.0
100
AcDbText
  0
DIMENSION
  5
10888
330
1090B
100
AcDbEntity
  8
BEM
100
AcDbDimension
  2
*D5
 10
574.715108700296
 20
751.5550742876844
 30
0.0
 11
685.4357228017472
 21
1173.976878613833
 31
0.0
 70
   130
 71
     5
 42
-1.0
 53
336.9078566792603
100
AcDb2LineAngularDimension
 13
574.715108700296
 23
916.5550742876847
 33
0.0
 14
691.3877275960767
 24
1033.227693183465
 34
0.0
 15
574.715108700296
 25
916.5550742876847
 35
0.0
 16
658.4805058511488
 26
1166.767285268915
 36
0.0
  0
LINE
  5
10889
330
1090B
100
AcDbEntity
  8
MITTEL
100
AcDbLine
 10
574.715108700296
 20
916.5550742876847
 30
0.0
 11
691.3877275960767
 21
1033.227693183465
 31
0.0
  0
LINE
  5
1088A
330
1090B
100
AcDbEntity
  8
STEMPEL
100
AcDbLine
 10
798.8326029973721
 20
911.6406821584378
 30
0.0
 11
569.8007165710499
 21
1140.672568584761
 31
0.0
  0
LINE
  5
1088B
330
1090B
100
AcDbEntity
  8
MITTEL
100
AcDbLine
 10
574.715108700296
 20
916.5550742876847
 30
0.0
 11
574.715108700296
 21
751.5550742876844
 31
0.0
  0
ARC
  5
1088C
330
1090B
100
AcDbEntity
  8
SCHRAFF
100
AcDbCircle
 10
562.3201220045034
 20
921.5459155840436
 30
0.0
 40
5.705091079773839
100
AcDbArc
 50
292.9824135024093
 51
22.01758649759065
  0
ARC
  5
1088D
330
1090B
100
AcDbEntity
  8
SCHRAFF
100
AcDbCircle
 10
539.2231336917212
 20
931.1130013931709
 30
0.0
 40
5.705091079773839
100
AcDbArc
 50
292.9824135024093
 51
22.01758649759065
  0
ARC
  5
1088E
330
1090B
100
AcDbEntity
  8
SCHRAFF
100
AcDbCircle
 10
529.9843383666084
 20
934.9398357168217
 30
0.0
 40
5.705091079773839
100
AcDbArc
 50
292.9824135024093
 51
22.01758649759065
  0
ARC
  5
1088F
330
1090B
100
AcDbEntity
  8
SCHRAFF
100
AcDbCircle
 10
525.3649407040518
 20
936.8532528786472
 30
0.0
 40
5.705091079773839
100
AcDbArc
 50
292.9824135024093
 51
22.01758649759065
  0
ARC
  5
10890
330
1090B
100
AcDbEntity
  8
SCHRAFF
100
AcDbCircle
 10
534.6037360291647
 20
933.0264185549962
 30
0.0
 40
5.705091079773839
100
AcDbArc
 50
292.9824135024093
 51
22.01758649759065
  0
ARC
  5
10891
330
1090B
100
AcDbEntity
  8
SCHRAFF
100
AcDbCircle
 10
553.0813266793905
 20
925.3727499076946
 30
0.0
 40
5.705091079773839
100
AcDbArc
 50
292.9824135024093
 51
22.01758649759065
  0
ARC
  5
10892
330
1090B
100
AcDbEntity
  8
SCHRAFF
100
AcDbCircle
 10
543.8425313542775
 20
929.1995842313454
 30
0.0
 40
5.705091079773839
100
AcDbArc
 50
292.9824135024093
 51
22.01758649759065
  0
ARC
  5
10893
330
1090B
100
AcDbEntity
  8
SCHRAFF
100
AcDbCircle
 10
548.4619290168341
 20
927.2861670695201
 30
0.0
 40
5.705091079773839
100
AcDbArc
 50
292.9824135024093
 51
22.01758649759065
  0
ARC
  5
10894
330
1090B
100
AcDbEntity
  8
SCHRAFF
100
AcDbCircle
 10
557.7007243419468
 20
923.4593327458691
 30
0.0
 40
5.705091079773839
100
AcDbArc
 50
292.9824135024093
 51
22.01758649759065
  0
LINE
  5
10895
330
1090B
100
AcDbEntity
  8
STEMPEL
100
AcDbLine
 10
576.1293222626693
 20
915.1408607253111
 30
0.0
 11
574.7151087002959
 21
916.5550742876845
 31
0.0
  0
ARC
  5
10896
330
1090B
100
AcDbEntity
  8
SCHRAFF
100
AcDbCircle
 10
566.9395196670598
 20
919.6324984222181
 30
0.0
 40
5.705091079773839
100
AcDbArc
 50
292.9824135024093
 51
22.01758649759065
  0
LINE
  5
10897
330
1090B
100
AcDbEntity
  8
STEMPEL
100
AcDbLine
 10
576.7151087002965
 20
916.5550742876845
 30
0.0
 11
574.715108700296
 21
916.5550742876845
 31
0.0
  0
LINE
  5
1089A
330
1090B
100
AcDbEntity
  8
STEMPEL
100
AcDbLine
 10
736.6651087002958
 20
849.4731878613619
 30
0.0
 11
798.8326029973721
 21
911.6406821584378
 31
0.0
  0
LINE
  5
1089C
330
1090B
100
AcDbEntity
  8
STEMPEL
100
AcDbLine
 10
736.6651087002958
 20
849.4731878613617
 30
0.0
 11
736.6651087002958
 21
761.5550742876846
 31
0.0
  0
INSERT
  5
1089E
330
1090B
100
AcDbEntity
  8
SCHRAFF
100
AcDbBlockReference
  2
*X1
 10
-18.06739087253982
 20
124.2845576025735
 30
0.0
1001
ACAD
1000
HATCH
1002
{
1070
    19
1000
ANSI31
1040
1.0
1040
0.0
1000
R14_HATCH_DATA
1000
2EA
1011
-17.06739087253982
1021
124.2845576025735
1031
0.0
1011
-18.06739087253982
1021
125.2845576025735
1031
0.0
1011
-18.06739087253982
1021
124.2845576025735
1031
1.0
1040
0.0
1010
0.0
1020
0.0
1030
1.0
1000
ANSI31
1070
     0
1070
     1
1071
        1
1071
        7
1070
     1
1070
     1
1071
        3
1040
757.7939670317564
1040
728.2500977177091
1040
0.0
1040
754.7324995728356
1040
725.1886302587883
1040
0.0
1040
754.7324995728356
1040
720.859061457619
1040
0.6681786379192857
1071
        3
1005
10864
1005
1089C
1005
1088F
1070
     0
1070
     1
1040
0.0
1040
1.0
1070
     0
1070
     1
1040
0.7853981633974483
1040
0.0
1040
0.0
1040
-0.0883883476483184
1040
0.0883883476483185
1070
     0
1040
0.1064155510595015
1071
        1
1040
756.7549141213476
1040
724.3156250757774
1040
0.0
1002
}
  0
ARC
  5
1089F
330
1090B
100
AcDbEntity
  8
SCHRAFF
100
AcDbCircle
 10
736.6651087002958
 20
849.473187861362
 30
0.0
 40
4.329568801169513
100
AcDbArc
 50
269.9999999999985
 51
44.99999999999784
  0
TEXT
  5
108EB
330
1090B
100
AcDbEntity
  8
TEXT
 62
     1
100
AcDbText
 10
567.0953502652698
 20
796.5411217759797
 30
0.0
 40
17.5
  1
DN300
 50
90.0
 41
0.8
  7
GREEKS
100
AcDbText
  0
TEXT
  5
10936
330
1090B
100
AcDbEntity
  8
BEM
100
AcDbText
 10
1043.255730964291
 20
25.41975269997152
 30
0.0
 40
10.0
  1
Diese Zeichnung ist urheberrechtlich geschützt und bleibt unser Eigentum. Sie darf weder ganz noch teilweise verfielfältigt und nicht an Dritte weitergegeben werden.
 50
90.0
 41
0.8
  7
GREEKS
100
AcDbText
  0
TEXT
  5
10938
330
1090B
100
AcDbEntity
  8
TEXT
100
AcDbText
 10
481.7206788119809
 20
223.2191474021863
 30
0.0
 40
10.0
  1
DIN EN1123-2
 41
0.8
  7
GREEKS
 72
     1
 11
524.1968692881714
 21
223.2191474021863
 31
0.0
100
AcDbText
  0
ARC
  5
109BF
330
1090B
100
AcDbEntity
  8
SCHRAFF
100
AcDbCircle
 10
718.7713325291515
 20
856.7417023350456
 30
0.0
 40
5.705091079773839
100
AcDbArc
 50
292.9824135024093
 51
22.01758649759065
  0
ARC
  5
109C0
330
1090B
100
AcDbEntity
  8
SCHRAFF
100
AcDbCircle
 10
709.5325372040385
 20
860.5685366586966
 30
0.0
 40
5.705091079773839
100
AcDbArc
 50
292.9824135024093
 51
22.01758649759065
  0
ARC
  5
109C1
330
1090B
100
AcDbEntity
  8
SCHRAFF
100
AcDbCircle
 10
700.2937418789258
 20
864.3953709823476
 30
0.0
 40
5.705091079773839
100
AcDbArc
 50
292.9824135024093
 51
22.01758649759065
  0
ARC
  5
109C2
330
1090B
100
AcDbEntity
  8
SCHRAFF
100
AcDbCircle
 10
695.6743442163692
 20
866.3087881441731
 30
0.0
 40
5.705091079773839
100
AcDbArc
 50
292.9824135024093
 51
22.01758649759065
  0
ARC
  5
109C3
330
1090B
100
AcDbEntity
  8
SCHRAFF
100
AcDbCircle
 10
704.9131395414822
 20
862.4819538205221
 30
0.0
 40
5.705091079773839
100
AcDbArc
 50
292.9824135024093
 51
22.01758649759065
  0
ARC
  5
109C4
330
1090B
100
AcDbEntity
  8
SCHRAFF
100
AcDbCircle
 10
686.4355488912565
 20
870.1356224678239
 30
0.0
 40
5.705091079773839
100
AcDbArc
 50
292.9824135024093
 51
22.01758649759065
  0
ARC
  5
109C5
330
1090B
100
AcDbEntity
  8
SCHRAFF
100
AcDbCircle
 10
677.1967535661436
 20
873.9624567914747
 30
0.0
 40
5.705091079773839
100
AcDbArc
 50
292.9824135024093
 51
22.01758649759065
  0
ARC
  5
109C6
330
1090B
100
AcDbEntity
  8
SCHRAFF
100
AcDbCircle
 10
681.8161512287002
 20
872.0490396296494
 30
0.0
 40
5.705091079773839
100
AcDbArc
 50
292.9824135024093
 51
22.01758649759065
  0
ARC
  5
109C7
330
1090B
100
AcDbEntity
  8
SCHRAFF
100
AcDbCircle
 10
691.0549465538129
 20
868.2222053059984
 30
0.0
 40
5.705091079773839
100
AcDbArc
 50
292.9824135024093
 51
22.01758649759065
  0
ARC
  5
109C8
330
1090B
100
AcDbEntity
  8
SCHRAFF
100
AcDbCircle
 10
714.1519348665951
 20
858.6551194968711
 30
0.0
 40
5.705091079773839
100
AcDbArc
 50
292.9824135024093
 51
22.01758649759065
  0
ARC
  5
109C9
330
1090B
100
AcDbEntity
  8
SCHRAFF
100
AcDbCircle
 10
571.6081722438221
 20
917.8420095053875
 30
0.0
 40
5.705091079773839
100
AcDbArc
 50
292.9824135024093
 51
22.01758649759065
  0
ARC
  5
109CA
330
1090B
100
AcDbEntity
  8
SCHRAFF
100
AcDbCircle
 10
667.9579582410306
 20
877.7892911151257
 30
0.0
 40
5.705091079773839
100
AcDbArc
 50
292.9824135024093
 51
22.01758649759065
  0
ARC
  5
109CB
330
1090B
100
AcDbEntity
  8
SCHRAFF
100
AcDbCircle
 10
663.3385605784742
 20
879.7027082769512
 30
0.0
 40
5.705091079773839
100
AcDbArc
 50
292.9824135024093
 51
22.01758649759065
  0
ARC
  5
109CC
330
1090B
100
AcDbEntity
  8
SCHRAFF
100
AcDbCircle
 10
654.0997652533615
 20
883.5295426006021
 30
0.0
 40
5.705091079773839
100
AcDbArc
 50
292.9824135024093
 51
22.01758649759065
  0
ARC
  5
109CD
330
1090B
100
AcDbEntity
  8
SCHRAFF
100
AcDbCircle
 10
658.7191629159178
 20
881.6161254387766
 30
0.0
 40
5.705091079773839
100
AcDbArc
 50
292.9824135024093
 51
22.01758649759065
  0
ARC
  5
109CE
330
1090B
100
AcDbEntity
  8
SCHRAFF
100
AcDbCircle
 10
635.6221746031356
 20
891.1832112479038
 30
0.0
 40
5.705091079773839
100
AcDbArc
 50
292.9824135024093
 51
22.01758649759065
  0
ARC
  5
109CF
330
1090B
100
AcDbEntity
  8
SCHRAFF
100
AcDbCircle
 10
640.2415722656919
 20
889.2697940860783
 30
0.0
 40
5.705091079773839
100
AcDbArc
 50
292.9824135024093
 51
22.01758649759065
  0
ARC
  5
109D0
330
1090B
100
AcDbEntity
  8
SCHRAFF
100
AcDbCircle
 10
644.8609699282485
 20
887.3563769242529
 30
0.0
 40
5.705091079773839
100
AcDbArc
 50
292.9824135024093
 51
22.01758649759065
  0
ARC
  5
109D1
330
1090B
100
AcDbEntity
  8
SCHRAFF
100
AcDbCircle
 10
649.4803675908049
 20
885.4429597624275
 30
0.0
 40
5.705091079773839
100
AcDbArc
 50
292.9824135024093
 51
22.01758649759065
  0
ARC
  5
109D2
330
1090B
100
AcDbEntity
  8
SCHRAFF
100
AcDbCircle
 10
626.3833792780229
 20
895.0100455715547
 30
0.0
 40
5.705091079773839
100
AcDbArc
 50
292.9824135024093
 51
22.01758649759065
  0
ARC
  5
109D3
330
1090B
100
AcDbEntity
  8
SCHRAFF
100
AcDbCircle
 10
617.1445839529098
 20
898.8368798952057
 30
0.0
 40
5.705091079773839
100
AcDbArc
 50
292.9824135024093
 51
22.01758649759065
  0
ARC
  5
109D4
330
1090B
100
AcDbEntity
  8
SCHRAFF
100
AcDbCircle
 10
621.7639816154664
 20
896.9234627333802
 30
0.0
 40
5.705091079773839
100
AcDbArc
 50
292.9824135024093
 51
22.01758649759065
  0
ARC
  5
109D5
330
1090B
100
AcDbEntity
  8
SCHRAFF
100
AcDbCircle
 10
603.2863909652405
 20
904.577131380682
 30
0.0
 40
5.705091079773839
100
AcDbArc
 50
292.9824135024093
 51
22.01758649759065
  0
ARC
  5
109D6
330
1090B
100
AcDbEntity
  8
SCHRAFF
100
AcDbCircle
 10
607.9057886277969
 20
902.6637142188565
 30
0.0
 40
5.705091079773839
100
AcDbArc
 50
292.9824135024093
 51
22.01758649759065
  0
ARC
  5
109D7
330
1090B
100
AcDbEntity
  8
SCHRAFF
100
AcDbCircle
 10
594.0475956401278
 20
908.4039657043328
 30
0.0
 40
5.705091079773839
100
AcDbArc
 50
292.9824135024093
 51
22.01758649759065
  0
ARC
  5
109D8
330
1090B
100
AcDbEntity
  8
SCHRAFF
100
AcDbCircle
 10
598.6669933026842
 20
906.4905485425073
 30
0.0
 40
5.705091079773839
100
AcDbArc
 50
292.9824135024093
 51
22.01758649759065
  0
ARC
  5
109D9
330
1090B
100
AcDbEntity
  8
SCHRAFF
100
AcDbCircle
 10
612.5251862903535
 20
900.7502970570312
 30
0.0
 40
5.705091079773839
100
AcDbArc
 50
292.9824135024093
 51
22.01758649759065
  0
ARC
  5
109DA
330
1090B
100
AcDbEntity
  8
SCHRAFF
100
AcDbCircle
 10
631.0027769405792
 20
893.0966284097292
 30
0.0
 40
5.705091079773839
100
AcDbArc
 50
292.9824135024093
 51
22.01758649759065
  0
ARC
  5
109DB
330
1090B
100
AcDbEntity
  8
SCHRAFF
100
AcDbCircle
 10
589.4281979775715
 20
910.3173828661583
 30
0.0
 40
5.705091079773839
100
AcDbArc
 50
292.9824135024093
 51
22.01758649759065
  0
ARC
  5
109DC
330
1090B
100
AcDbEntity
  8
SCHRAFF
100
AcDbCircle
 10
580.1894026524585
 20
914.1442171898093
 30
0.0
 40
5.705091079773839
100
AcDbArc
 50
292.9824135024093
 51
22.01758649759065
  0
ARC
  5
109DD
330
1090B
100
AcDbEntity
  8
SCHRAFF
100
AcDbCircle
 10
584.8088003150149
 20
912.2308000279838
 30
0.0
 40
5.705091079773839
100
AcDbArc
 50
292.9824135024093
 51
22.01758649759065
  0
ARC
  5
109DE
330
1090B
100
AcDbEntity
  8
SCHRAFF
100
AcDbCircle
 10
575.5700049899019
 20
916.0576343516348
 30
0.0
 40
5.705091079773839
100
AcDbArc
 50
292.9824135024093
 51
22.01758649759065
  0
ARC
  5
109DF
330
1090B
100
AcDbEntity
  8
SCHRAFF
100
AcDbCircle
 10
672.5773559035872
 20
875.8758739533002
 30
0.0
 40
5.705091079773839
100
AcDbArc
 50
292.9824135024093
 51
22.01758649759065
  0
ARC
  5
109E1
330
1090B
100
AcDbEntity
  8
SCHRAFF
100
AcDbCircle
 10
723.3907301917079
 20
854.8282851732201
 30
0.0
 40
5.705091079773839
100
AcDbArc
 50
292.9824135024093
 51
22.01758649759065
  0
ARC
  5
109E2
330
1090B
100
AcDbEntity
  8
SCHRAFF
100
AcDbCircle
 10
728.0101278542643
 20
852.9148680113946
 30
0.0
 40
5.705091079773839
100
AcDbArc
 50
292.9824135024093
 51
22.01758649759065
  0
ENDSEC
  0
SECTION
  2
OBJECTS
  0
DICTIONARY
  5
108F7
330
0
100
AcDbDictionary
281
     1
  3
ACAD_COLOR
350
10906
  3
ACAD_GROUP
350
108F8
  3
ACAD_LAYOUT
350
10904
  3
ACAD_MATERIAL
350
10905
  3
ACAD_MLINESTYLE
350
10901
  3
ACAD_PLOTSETTINGS
350
10903
  3
ACAD_PLOTSTYLENAME
350
108F9
  3
AcDbVariableDictionary
350
1094D
  0
DICTIONARY
  5
10906
102
{ACAD_REACTORS
330
108F7
102
}
330
108F7
100
AcDbDictionary
281
     1
  0
DICTIONARY
  5
108F8
102
{ACAD_REACTORS
330
108F7
102
}
330
108F7
100
AcDbDictionary
281
     1
  0
DICTIONARY
  5
10904
102
{ACAD_REACTORS
330
108F7
102
}
330
108F7
100
AcDbDictionary
281
     1
  3
Layout1
350
1090A
  3
Model
350
1090E
  0
DICTIONARY
  5
10905
102
{ACAD_REACTORS
330
108F7
102
}
330
108F7
100
AcDbDictionary
281
     1
  0
DICTIONARY
  5
10901
102
{ACAD_REACTORS
330
108F7
102
}
330
108F7
100
AcDbDictionary
281
     1
  3
Standard
350
10902
  0
DICTIONARY
  5
10903
102
{ACAD_REACTORS
330
108F7
102
}
330
108F7
100
AcDbDictionary
281
     1
  0
ACDBDICTIONARYWDFLT
  5
108F9
102
{ACAD_REACTORS
330
108F7
102
}
330
108F7
100
AcDbDictionary
281
     1
  3
Normal
350
108FA
100
AcDbDictionaryWithDefault
340
108FA
  0
DICTIONARY
  5
1094D
102
{ACAD_REACTORS
330
108F7
102
}
330
108F7
100
AcDbDictionary
281
     1
  3
DIMASSOC
350
1094F
  3
HIDETEXT
350
1094E
  3
PROJECTNAME
350
10950
  0
LAYOUT
  5
1090A
102
{ACAD_REACTORS
330
10904
102
}
330
10904
100
AcDbPlotSettings
  1

  2
RICOH Aficio 2027 PCL 6
  4

  6

 40
0.0
 41
0.0
 42
0.0
 43
0.0
 44
0.0
 45
0.0
 46
0.0
 47
0.0
 48
0.0
 49
0.0
140
0.0
141
0.0
142
1.0
143
1.0
 70
   688
 72
     0
 73
     0
 74
     5
  7
monochrome1.ctb
 75
    16
147
1.0
 76
     0
 77
     2
 78
   300
148
0.0
149
0.0
100
AcDbLayout
  1
Layout1
 70
     0
 71
     1
 10
0.0
 20
0.0
 11
12.0
 21
9.0
 12
724.0577753917799
 22
50.00000000000001
 32
-2.581055434984111
 14
1.000000000000000E+20
 24
1.000000000000000E+20
 34
1.000000000000000E+20
 15
-1.000000000000000E+20
 25
-1.000000000000000E+20
 35
-1.000000000000000E+20
146
0.0
 13
0.0
 23
0.0
 33
0.0
 16
1.0
 26
0.0
 36
0.0
 17
0.0
 27
1.0
 37
0.0
 76
     0
330
10907
  0
LAYOUT
  5
1090E
102
{ACAD_REACTORS
330
10904
102
}
330
10904
100
AcDbPlotSettings
  1

  2
RICOH Aficio 2027 PCL 6
  4
A4
  6

 40
5.027083396911621
 41
5.027085304260253
 42
5.027084350585937
 43
5.027069091796875
 44
209.9733276367187
 45
296.9259948730469
 46
0.0
 47
0.0
 48
0.0
 49
0.0
140
0.0
141
0.0
142
1.0
143
1.0
 70
 11952
 72
     0
 73
     1
 74
     0
  7
monochrome1.ctb
 75
     0
147
1.0
 76
     0
 77
     2
 78
   300
148
5749.737974108374
149
225.2379483828901
100
AcDbLayout
  1
Model
 70
     1
 71
     0
 10
0.0
 20
0.0
 11
12.0
 21
9.0
 12
0.0
 22
0.0
 32
0.0
 14
0.0
 24
0.0
 34
0.0
 15
0.0
 25
0.0
 35
0.0
146
0.0
 13
0.0
 23
0.0
 33
0.0
 16
1.0
 26
0.0
 36
0.0
 17
0.0
 27
1.0
 37
0.0
 76
     0
330
1090B
  0
MLINESTYLE
  5
10902
102
{ACAD_REACTORS
330
10901
102
}
330
10901
100
AcDbMlineStyle
  2
STANDARD
 70
     0
  3

 62
   256
 51
90.0
 52
90.0
 71
     2
 49
0.5
 62
   256
  6
BYLAYER
 49
-0.5
 62
   256
  6
BYLAYER
  0
ACDBPLACEHOLDER
  5
108FA
102
{ACAD_REACTORS
330
108F9
102
}
330
108F9
  0
DICTIONARYVAR
  5
1094F
102
{ACAD_REACTORS
330
1094D
102
}
330
1094D
100
DictionaryVariables
280
     0
  1
2
  0
DICTIONARYVAR
  5
1094E
102
{ACAD_REACTORS
330
1094D
102
}
330
1094D
100
DictionaryVariables
280
     0
  1
1
  0
DICTIONARYVAR
  5
10950
102
{ACAD_REACTORS
330
1094D
102
}
330
1094D
100
DictionaryVariables
280
     0
  1

  0
ENDSEC
  0
EOF
