  0
SECTION
  2
HEADER
  9
$ACADVER
  1
AC1018
  9
$ACADMAINTVER
 70
     2
  9
$DWGCODEPAGE
  3
ANSI_1252
  9
$INSBASE
 10
0.0
 20
0.0
 30
0.0
  9
$EXTMIN
 10
-0.0480524721101574
 20
-0.0679599248414888
 30
-0.0000000000000058
  9
$EXTMAX
 10
1050.048072030928
 20
1485.067987586599
 30
0.0000000000000104
  9
$LIMMIN
 10
0.0
 20
0.0
  9
$LIMMAX
 10
1050.0
 20
1485.0
  9
$ORTHOMODE
 70
     1
  9
$REGENMODE
 70
     1
  9
$FILLMODE
 70
     1
  9
$QTEXTMODE
 70
     0
  9
$MIRRTEXT
 70
     1
  9
$LTSCALE
 40
50.0
  9
$ATTMODE
 70
     1
  9
$TEXTSIZE
 40
2.5
  9
$TRACEWID
 40
0.5
  9
$TEXTSTYLE
  7
GREEKS
  9
$CLAYER
  8
VOLL
  9
$CELTYPE
  6
ByLayer
  9
$CECOLOR
 62
   256
  9
$CELTSCALE
 40
1.0
  9
$DISPSILH
 70
     0
  9
$DIMSCALE
 40
5.0
  9
$DIMASZ
 40
3.5
  9
$DIMEXO
 40
1.0
  9
$DIMDLI
 40
7.0
  9
$DIMRND
 40
0.0
  9
$DIMDLE
 40
0.0
  9
$DIMEXE
 40
1.0
  9
$DIMTP
 40
2.399999999999999
  9
$DIMTM
 40
2.399999999999999
  9
$DIMTXT
 40
3.5
  9
$DIMCEN
 40
1.5
  9
$DIMTSZ
 40
0.0
  9
$DIMTOL
 70
     0
  9
$DIMLIM
 70
     0
  9
$DIMTIH
 70
     0
  9
$DIMTOH
 70
     0
  9
$DIMSE1
 70
     0
  9
$DIMSE2
 70
     0
  9
$DIMTAD
 70
     1
  9
$DIMZIN
 70
     8
  9
$DIMBLK
  1

  9
$DIMASO
 70
     1
  9
$DIMSHO
 70
     0
  9
$DIMPOST
  1

  9
$DIMAPOST
  1

  9
$DIMALT
 70
     0
  9
$DIMALTD
 70
     2
  9
$DIMALTF
 40
25.4
  9
$DIMLFAC
 40
1.0
  9
$DIMTOFL
 70
     1
  9
$DIMTVP
 40
0.0
  9
$DIMTIX
 70
     0
  9
$DIMSOXD
 70
     0
  9
$DIMSAH
 70
     0
  9
$DIMBLK1
  1

  9
$DIMBLK2
  1

  9
$DIMSTYLE
  2
Standard
  9
$DIMCLRD
 70
     0
  9
$DIMCLRE
 70
     0
  9
$DIMCLRT
 70
     1
  9
$DIMTFAC
 40
0.5
  9
$DIMGAP
 40
1.5
  9
$DIMJUST
 70
     0
  9
$DIMSD1
 70
     0
  9
$DIMSD2
 70
     0
  9
$DIMTOLJ
 70
     1
  9
$DIMTZIN
 70
     8
  9
$DIMALTZ
 70
     8
  9
$DIMALTTZ
 70
     8
  9
$DIMUPT
 70
     0
  9
$DIMDEC
 70
     2
  9
$DIMTDEC
 70
     2
  9
$DIMALTU
 70
     2
  9
$DIMALTTD
 70
     2
  9
$DIMTXSTY
  7
GREEKS
  9
$DIMAUNIT
 70
     0
  9
$DIMADEC
 70
     2
  9
$DIMALTRND
 40
0.0
  9
$DIMAZIN
 70
     2
  9
$DIMDSEP
 70
    46
  9
$DIMATFIT
 70
     3
  9
$DIMFRAC
 70
     0
  9
$DIMLDRBLK
  1

  9
$DIMLUNIT
 70
     2
  9
$DIMLWD
 70
    -2
  9
$DIMLWE
 70
    -2
  9
$DIMTMOVE
 70
     0
  9
$LUNITS
 70
     2
  9
$LUPREC
 70
     2
  9
$SKETCHINC
 40
1.0
  9
$FILLETRAD
 40
0.0
  9
$AUNITS
 70
     0
  9
$AUPREC
 70
     2
  9
$MENU
  1
ACAD
  9
$ELEVATION
 40
0.0
  9
$PELEVATION
 40
0.0
  9
$THICKNESS
 40
0.0
  9
$LIMCHECK
 70
     0
  9
$CHAMFERA
 40
0.0
  9
$CHAMFERB
 40
0.0
  9
$CHAMFERC
 40
0.0
  9
$CHAMFERD
 40
0.0
  9
$SKPOLY
 70
     0
  9
$TDCREATE
 40
2452216.166557639
  9
$TDUCREATE
 40
2452216.083224306
  9
$TDUPDATE
 40
2455658.321009861
  9
$TDUUPDATE
 40
2455658.237676528
  9
$TDINDWG
 40
0.0699879861
  9
$TDUSRTIMER
 40
0.0699879861
  9
$USRTIMER
 70
     1
  9
$ANGBASE
 50
0.0
  9
$ANGDIR
 70
     0
  9
$PDMODE
 70
     0
  9
$PDSIZE
 40
0.0
  9
$PLINEWID
 40
0.0
  9
$SPLFRAME
 70
     0
  9
$SPLINETYPE
 70
     6
  9
$SPLINESEGS
 70
     8
  9
$HANDSEED
  5
118E3
  9
$SURFTAB1
 70
     6
  9
$SURFTAB2
 70
     6
  9
$SURFTYPE
 70
     6
  9
$SURFU
 70
     6
  9
$SURFV
 70
     6
  9
$UCSBASE
  2

  9
$UCSNAME
  2

  9
$UCSORG
 10
0.0
 20
0.0
 30
0.0
  9
$UCSXDIR
 10
1.0
 20
0.0
 30
0.0
  9
$UCSYDIR
 10
0.0
 20
1.0
 30
0.0
  9
$UCSORTHOREF
  2

  9
$UCSORTHOVIEW
 70
     0
  9
$UCSORGTOP
 10
0.0
 20
0.0
 30
0.0
  9
$UCSORGBOTTOM
 10
0.0
 20
0.0
 30
0.0
  9
$UCSORGLEFT
 10
0.0
 20
0.0
 30
0.0
  9
$UCSORGRIGHT
 10
0.0
 20
0.0
 30
0.0
  9
$UCSORGFRONT
 10
0.0
 20
0.0
 30
0.0
  9
$UCSORGBACK
 10
0.0
 20
0.0
 30
0.0
  9
$PUCSBASE
  2

  9
$PUCSNAME
  2

  9
$PUCSORG
 10
0.0
 20
0.0
 30
0.0
  9
$PUCSXDIR
 10
1.0
 20
0.0
 30
0.0
  9
$PUCSYDIR
 10
0.0
 20
1.0
 30
0.0
  9
$PUCSORTHOREF
  2

  9
$PUCSORTHOVIEW
 70
     0
  9
$PUCSORGTOP
 10
0.0
 20
0.0
 30
0.0
  9
$PUCSORGBOTTOM
 10
0.0
 20
0.0
 30
0.0
  9
$PUCSORGLEFT
 10
0.0
 20
0.0
 30
0.0
  9
$PUCSORGRIGHT
 10
0.0
 20
0.0
 30
0.0
  9
$PUCSORGFRONT
 10
0.0
 20
0.0
 30
0.0
  9
$PUCSORGBACK
 10
0.0
 20
0.0
 30
0.0
  9
$USERI1
 70
     0
  9
$USERI2
 70
     0
  9
$USERI3
 70
     0
  9
$USERI4
 70
     0
  9
$USERI5
 70
     0
  9
$USERR1
 40
0.0
  9
$USERR2
 40
0.0
  9
$USERR3
 40
0.0
  9
$USERR4
 40
0.0
  9
$USERR5
 40
0.0
  9
$WORLDVIEW
 70
     1
  9
$SHADEDGE
 70
     3
  9
$SHADEDIF
 70
    70
  9
$TILEMODE
 70
     1
  9
$MAXACTVP
 70
    16
  9
$PINSBASE
 10
347.1949246436728
 20
50.00000000000001
 30
-2.58105543498411
  9
$PLIMCHECK
 70
     0
  9
$PEXTMIN
 10
1.000000000000000E+20
 20
1.000000000000000E+20
 30
1.000000000000000E+20
  9
$PEXTMAX
 10
-1.000000000000000E+20
 20
-1.000000000000000E+20
 30
-1.000000000000000E+20
  9
$PLIMMIN
 10
0.0
 20
0.0
  9
$PLIMMAX
 10
12.0
 20
9.0
  9
$UNITMODE
 70
     0
  9
$VISRETAIN
 70
     0
  9
$PLINEGEN
 70
     0
  9
$PSLTSCALE
 70
     0
  9
$TREEDEPTH
 70
  3020
  9
$CMLSTYLE
  2
Standard
  9
$CMLJUST
 70
     0
  9
$CMLSCALE
 40
1.0
  9
$PROXYGRAPHICS
 70
     1
  9
$MEASUREMENT
 70
     0
  9
$CELWEIGHT
370
    -1
  9
$ENDCAPS
280
     0
  9
$JOINSTYLE
280
     0
  9
$LWDISPLAY
290
     0
  9
$INSUNITS
 70
     0
  9
$HYPERLINKBASE
  1

  9
$STYLESHEET
  1
monochrome 1.ctb
  9
$XEDIT
290
     1
  9
$CEPSNTYPE
380
     0
  9
$PSTYLEMODE
290
     1
  9
$FINGERPRINTGUID
  2
{0C2349A4-D90C-46C3-973F-AE735EE11759}
  9
$VERSIONGUID
  2
{2A6D624B-DB1E-407C-8123-9ED6411C8046}
  9
$EXTNAMES
290
     1
  9
$PSVPSCALE
 40
0.0
  9
$OLESTARTUP
290
     0
  9
$SORTENTS
280
   127
  9
$INDEXCTL
280
     0
  9
$HIDETEXT
280
     1
  9
$XCLIPFRAME
290
     0
  9
$HALOGAP
280
     0
  9
$OBSCOLOR
 70
   257
  9
$OBSLTYPE
280
     0
  9
$INTERSECTIONDISPLAY
280
     0
  9
$INTERSECTIONCOLOR
 70
   257
  9
$DIMASSOC
280
     2
  9
$PROJECTNAME
  1

  0
ENDSEC
  0
SECTION
  2
CLASSES
  0
CLASS
  1
ACDBDICTIONARYWDFLT
  2
AcDbDictionaryWithDefault
  3
ObjectDBX Classes
 90
        0
 91
        1
280
     0
281
     0
  0
CLASS
  1
DICTIONARYVAR
  2
AcDbDictionaryVar
  3
ObjectDBX Classes
 90
        0
 91
        3
280
     0
281
     0
  0
CLASS
  1
DIMASSOC
  2
AcDbDimAssoc
  3
"AcDbDimAssoc|Product Desc:     AcDim ARX App For Dimension|Company:          Autodesk, Inc.|WEB Address:      www.autodesk.com"
 90
        0
 91
        1
280
     0
281
     0
  0
ENDSEC
  0
SECTION
  2
TABLES
  0
TABLE
  2
VPORT
  5
117B7
330
0
100
AcDbSymbolTable
 70
     3
  0
VPORT
  5
118E2
330
117B7
100
AcDbSymbolTableRecord
100
AcDbViewportTableRecord
  2
*Active
 70
     0
 10
0.0
 20
0.0
 11
1.0
 21
1.0
 12
524.9999999999998
 22
742.4999999999999
 13
0.0
 23
0.0
 14
1.0
 24
1.0
 15
10.0
 25
10.0
 16
0.0
 26
0.0
 36
1.0
 17
0.0
 27
0.0
 37
0.0
 40
1485.0
 41
1.334231805929919
 42
50.0
 43
0.0
 44
0.0
 50
0.0
 51
0.0
 71
     0
 72
  1500
 73
     1
 74
     0
 75
     0
 76
     0
 77
     0
 78
     0
281
     0
 65
     1
110
0.0
120
0.0
130
0.0
111
1.0
121
0.0
131
0.0
112
0.0
122
1.0
132
0.0
 79
     0
146
0.0
  0
ENDTAB
  0
TABLE
  2
LTYPE
  5
117B4
330
0
100
AcDbSymbolTable
 70
     2
  0
LTYPE
  5
117C2
330
117B4
100
AcDbSymbolTableRecord
100
AcDbLinetypeTableRecord
  2
ByBlock
 70
     0
  3

 72
    65
 73
     0
 40
0.0
  0
LTYPE
  5
117C3
330
117B4
100
AcDbSymbolTableRecord
100
AcDbLinetypeTableRecord
  2
ByLayer
 70
     0
  3

 72
    65
 73
     0
 40
0.0
  0
LTYPE
  5
117C4
330
117B4
100
AcDbSymbolTableRecord
100
AcDbLinetypeTableRecord
  2
Continuous
 70
     0
  3
Solid line
 72
    65
 73
     0
 40
0.0
  0
LTYPE
  5
117E1
330
117B4
100
AcDbSymbolTableRecord
100
AcDbLinetypeTableRecord
  2
STRICHPUNKT
 70
     0
  3
__ . __ . __ . __ . __ . __ . __ . __ . __ . __
 72
    65
 73
     4
 40
1.0
 49
0.5
 74
     0
 49
-0.25
 74
     0
 49
0.0
 74
     0
 49
-0.25
 74
     0
  0
ENDTAB
  0
TABLE
  2
LAYER
  5
117B1
330
0
100
AcDbSymbolTable
 70
     9
  0
LAYER
  5
117BF
330
117B1
100
AcDbSymbolTableRecord
100
AcDbLayerTableRecord
  2
0
 70
     0
 62
     7
  6
Continuous
370
    -3
390
117BE
  0
LAYER
  5
117E4
330
117B1
100
AcDbSymbolTableRecord
100
AcDbLayerTableRecord
  2
VOLL
 70
     0
 62
     1
  6
Continuous
370
    -3
390
117BE
  0
LAYER
  5
117E5
330
117B1
100
AcDbSymbolTableRecord
100
AcDbLayerTableRecord
  2
HILF
 70
     0
 62
     2
  6
Continuous
370
    -3
390
117BE
  0
LAYER
  5
117E6
330
117B1
100
AcDbSymbolTableRecord
100
AcDbLayerTableRecord
  2
MITTEL
 70
     0
 62
     2
  6
STRICHPUNKT
370
    -3
390
117BE
  0
LAYER
  5
117E7
330
117B1
100
AcDbSymbolTableRecord
100
AcDbLayerTableRecord
  2
BEM
 70
     0
 62
     7
  6
Continuous
370
    -3
390
117BE
  0
LAYER
  5
117E8
330
117B1
100
AcDbSymbolTableRecord
100
AcDbLayerTableRecord
  2
STEMPEL
 70
     0
 62
     3
  6
Continuous
370
    -3
390
117BE
  0
LAYER
  5
117E9
330
117B1
100
AcDbSymbolTableRecord
100
AcDbLayerTableRecord
  2
TEXT
 70
     0
 62
     7
  6
Continuous
370
    -3
390
117BE
  0
LAYER
  5
117EA
330
117B1
100
AcDbSymbolTableRecord
100
AcDbLayerTableRecord
  2
DEFPOINTS
 70
     0
 62
     7
  6
Continuous
290
     0
370
    -3
390
117BE
  0
LAYER
  5
117EB
330
117B1
100
AcDbSymbolTableRecord
100
AcDbLayerTableRecord
  2
SCHRAFF
 70
     0
 62
     7
  6
Continuous
370
    -3
390
117BE
  0
ENDTAB
  0
TABLE
  2
STYLE
  5
117B2
330
0
100
AcDbSymbolTable
 70
     2
  0
STYLE
  5
117C0
330
117B2
100
AcDbSymbolTableRecord
100
AcDbTextStyleTableRecord
  2
STANDARD
 70
     0
 40
0.0
 41
1.0
 50
0.0
 71
     0
 42
3.5
  3
txt
  4

  0
STYLE
  5
117E0
330
117B2
100
AcDbSymbolTableRecord
100
AcDbTextStyleTableRecord
  2
GREEKS
 70
     0
 40
0.0
 41
0.8
 50
0.0
 71
     0
 42
2.5
  3
SIMPLEX.shx
  4

  0
ENDTAB
  0
TABLE
  2
VIEW
  5
117B5
330
0
100
AcDbSymbolTable
 70
     0
  0
ENDTAB
  0
TABLE
  2
UCS
  5
117B6
330
0
100
AcDbSymbolTable
 70
     0
  0
ENDTAB
  0
TABLE
  2
APPID
  5
117B8
330
0
100
AcDbSymbolTable
 70
     1
  0
APPID
  5
117C1
330
117B8
100
AcDbSymbolTableRecord
100
AcDbRegAppTableRecord
  2
ACAD
 70
     0
  0
ENDTAB
  0
TABLE
  2
DIMSTYLE
  5
117B9
330
0
100
AcDbSymbolTable
 70
     1
100
AcDbDimStyleTable
 71
     1
340
117F2
  0
DIMSTYLE
105
117F2
102
{ACAD_REACTORS
330
F536
330
F529
330
10DFC
330
118BA
102
}
330
117B9
100
AcDbSymbolTableRecord
100
AcDbDimStyleTableRecord
  2
Standard
 70
     0
340
117C0
  0
ENDTAB
  0
TABLE
  2
BLOCK_RECORD
  5
117B0
330
0
100
AcDbSymbolTable
 70
    15
  0
BLOCK_RECORD
  5
117CF
330
117B0
100
AcDbSymbolTableRecord
100
AcDbBlockTableRecord
  2
*Model_Space
340
117D2
  0
BLOCK_RECORD
  5
117CB
330
117B0
100
AcDbSymbolTableRecord
100
AcDbBlockTableRecord
  2
*Paper_Space
340
117CE
  0
BLOCK_RECORD
  5
117D3
330
117B0
100
AcDbSymbolTableRecord
100
AcDbBlockTableRecord
  2
LOGO
340
0
102
{BLKREFS
331
EA06
102
}
  0
BLOCK_RECORD
  5
117D7
330
117B0
100
AcDbSymbolTableRecord
100
AcDbBlockTableRecord
  2
*X3
340
0
102
{BLKREFS
331
10E0A
102
}
  0
BLOCK_RECORD
  5
117D8
330
117B0
100
AcDbSymbolTableRecord
100
AcDbBlockTableRecord
  2
*X4
340
0
102
{BLKREFS
331
10E51
102
}
  0
BLOCK_RECORD
  5
11814
330
117B0
100
AcDbSymbolTableRecord
100
AcDbBlockTableRecord
  2
*D10
340
0
  0
BLOCK_RECORD
  5
11820
330
117B0
100
AcDbSymbolTableRecord
100
AcDbBlockTableRecord
  2
*D11
340
0
  0
BLOCK_RECORD
  5
1186A
330
117B0
100
AcDbSymbolTableRecord
100
AcDbBlockTableRecord
  2
*D12
340
0
  0
BLOCK_RECORD
  5
118BB
330
117B0
100
AcDbSymbolTableRecord
100
AcDbBlockTableRecord
  2
*D14
340
0
  0
ENDTAB
  0
ENDSEC
  0
SECTION
  2
BLOCKS
  0
BLOCK
  5
117EF
330
117CF
100
AcDbEntity
  8
0
100
AcDbBlockBegin
  2
*Model_Space
 70
     0
 10
0.0
 20
0.0
 30
0.0
  3
*Model_Space
  1

  0
ENDBLK
  5
117F0
330
117CF
100
AcDbEntity
  8
0
100
AcDbBlockEnd
  0
BLOCK
  5
117ED
330
117CB
100
AcDbEntity
 67
     1
  8
0
100
AcDbBlockBegin
  2
*Paper_Space
 70
     0
 10
0.0
 20
0.0
 30
0.0
  3
*Paper_Space
  1

  0
ENDBLK
  5
117EE
330
117CB
100
AcDbEntity
 67
     1
  8
0
100
AcDbBlockEnd
  0
BLOCK
  5
44
330
117D3
100
AcDbEntity
  8
0
100
AcDbBlockBegin
  2
LOGO
 70
     0
 10
0.0
 20
0.0
 30
0.0
  3
LOGO
  1

  0
ARC
  5
45
330
117D3
100
AcDbEntity
  8
0
100
AcDbCircle
 10
11.59973089678112
 20
-9.271599258481501
 30
0.0
 40
4.5
100
AcDbArc
 50
270.0
 51
231.0575587310159
  0
LINE
  5
46
330
117D3
100
AcDbEntity
  8
0
100
AcDbLine
 10
3.599730896781125
 20
-4.771599258481529
 30
0.0
 11
3.599730896781153
 21
-11.77159925848133
 31
0.0
  0
LINE
  5
47
330
117D3
100
AcDbEntity
  8
0
100
AcDbLine
 10
2.599730896781125
 20
-4.771599258481529
 30
0.0
 11
2.599730896781153
 21
-11.77159925848133
 31
0.0
  0
CIRCLE
  5
48
330
117D3
100
AcDbEntity
  8
0
100
AcDbCircle
 10
11.59973089678112
 20
-9.271599258481501
 30
0.0
 40
3.5
  0
ARC
  5
49
330
117D3
100
AcDbEntity
  8
0
100
AcDbCircle
 10
31.59973089678115
 20
-9.271599258481472
 30
0.0
 40
4.5
100
AcDbArc
 50
270.0
 51
231.0575587310182
  0
LINE
  5
4A
330
117D3
100
AcDbEntity
  8
0
100
AcDbLine
 10
17.59973089678112
 20
-4.771599258481472
 30
0.0
 11
17.59973089678115
 21
-13.77159925848147
 31
0.0
  0
ARC
  5
4B
330
117D3
100
AcDbEntity
  8
0
100
AcDbCircle
 10
22.59973089678116
 20
-7.271599258481472
 30
0.0
 40
2.5
100
AcDbArc
 50
293.1161887722295
 51
90.0
  0
CIRCLE
  5
4C
330
117D3
100
AcDbEntity
  8
0
100
AcDbCircle
 10
31.59973089678115
 20
-9.271599258481472
 30
0.0
 40
3.5
  0
ARC
  5
4D
330
117D3
100
AcDbEntity
  8
0
100
AcDbCircle
 10
4.599730896781153
 20
-11.77159925848133
 30
0.0
 40
1.0
100
AcDbArc
 50
180.0
 51
270.0
  0
ARC
  5
4E
330
117D3
100
AcDbEntity
  8
0
100
AcDbCircle
 10
4.599730896781153
 20
-11.77159925848133
 30
0.0
 40
2.0
100
AcDbArc
 50
179.9999999999992
 51
270.0
  0
LINE
  5
4F
330
117D3
100
AcDbEntity
  8
0
100
AcDbLine
 10
11.59973089678115
 20
-13.77159925848144
 30
0.0
 11
4.599730896781153
 21
-13.77159925848147
 31
0.0
  0
LINE
  5
50
330
117D3
100
AcDbEntity
  8
0
100
AcDbLine
 10
8.771303772034769
 20
-12.77159925848136
 30
0.0
 11
4.599730896781153
 21
-12.77159925848133
 31
0.0
  0
LINE
  5
51
330
117D3
100
AcDbEntity
  8
0
100
AcDbLine
 10
31.59973089678115
 20
-13.77159925848147
 30
0.0
 11
23.6715276665056
 21
-13.77159925848144
 31
0.0
  0
LINE
  5
52
330
117D3
100
AcDbEntity
  8
0
100
AcDbLine
 10
23.56565672307022
 20
-9.51278021337896
 30
0.0
 11
24.4388546544846
 21
-12.77159925848144
 31
0.0
  0
LINE
  5
53
330
117D3
100
AcDbEntity
  8
0
100
AcDbLine
 10
22.59973089678116
 20
-9.771599258481472
 30
0.0
 11
18.59973089678112
 21
-9.771599258481472
 31
0.0
  0
LINE
  5
54
330
117D3
100
AcDbEntity
  8
0
100
AcDbLine
 10
18.59973089678115
 20
-13.77159925848144
 30
0.0
 11
17.59973089678115
 21
-13.77159925848144
 31
0.0
  0
LINE
  5
55
330
117D3
100
AcDbEntity
  8
0
100
AcDbLine
 10
18.59973089678115
 20
-9.771599258481472
 30
0.0
 11
18.59973089678115
 21
-13.77159925848144
 31
0.0
  0
LINE
  5
56
330
117D3
100
AcDbEntity
  8
0
100
AcDbLine
 10
22.59973089678116
 20
-9.771599258481472
 30
0.0
 11
23.67152766650562
 21
-13.77159925848147
 31
0.0
  0
ARC
  5
57
330
117D3
100
AcDbEntity
  8
0
100
AcDbCircle
 10
22.59973089678116
 20
-7.271599258481472
 30
0.0
 40
2.5
100
AcDbArc
 50
270.0
 51
270.0000000000007
  0
LINE
  5
58
330
117D3
100
AcDbEntity
  8
0
100
AcDbLine
 10
28.77130377203494
 20
-12.77159925848147
 30
0.0
 11
24.43885465448463
 21
-12.77159925848144
 31
0.0
  0
LINE
  5
59
330
117D3
100
AcDbEntity
  8
0
100
AcDbLine
 10
3.599730896781125
 20
-4.771599258481472
 30
0.0
 11
2.599730896781125
 21
-4.771599258481472
 31
0.0
  0
LINE
  5
5A
330
117D3
100
AcDbEntity
  8
0
100
AcDbLine
 10
22.59973089678116
 20
-8.771599258481472
 30
0.0
 11
18.59973089678115
 21
-8.771599258481472
 31
0.0
  0
LINE
  5
5B
330
117D3
100
AcDbEntity
  8
0
100
AcDbLine
 10
22.59973089678116
 20
-5.771599258481472
 30
0.0
 11
18.59973089678115
 21
-5.771599258481472
 31
0.0
  0
LINE
  5
5C
330
117D3
100
AcDbEntity
  8
0
100
AcDbLine
 10
22.59973089678116
 20
-4.771599258481472
 30
0.0
 11
17.59973089678115
 21
-4.771599258481472
 31
0.0
  0
LINE
  5
5D
330
117D3
100
AcDbEntity
  8
0
100
AcDbLine
 10
18.59973089678115
 20
-5.771599258481472
 30
0.0
 11
18.59973089678115
 21
-8.771599258481472
 31
0.0
  0
ARC
  5
5E
330
117D3
100
AcDbEntity
  8
0
100
AcDbCircle
 10
22.59973089678116
 20
-7.271599258481472
 30
0.0
 40
1.5
100
AcDbArc
 50
270.0
 51
90.0
  0
ENDBLK
  5
5F
330
117D3
100
AcDbEntity
  8
0
100
AcDbBlockEnd
  0
BLOCK
  5
10E09
330
117D7
100
AcDbEntity
  8
0
100
AcDbBlockBegin
  2
*X3
 70
     1
 10
0.0
 20
0.0
 30
0.0
  3
*X3
  1

  0
LINE
  5
10E0B
330
117D7
100
AcDbEntity
  8
0
 62
     0
100
AcDbLine
 10
1345.942648148799
 20
726.0
 30
0.0
 11
1347.607146725784
 21
726.0
 31
0.0
  0
LINE
  5
10E0C
330
117D7
100
AcDbEntity
  8
0
 62
     0
100
AcDbLine
 10
1345.946502027477
 20
726.1
 30
0.0
 11
1347.607146725784
 21
726.1
 31
0.0
  0
LINE
  5
10E0D
330
117D7
100
AcDbEntity
  8
0
 62
     0
100
AcDbLine
 10
1345.95369725606
 20
726.2
 30
0.0
 11
1347.607146725784
 21
726.2
 31
0.0
  0
LINE
  5
10E0E
330
117D7
100
AcDbEntity
  8
0
 62
     0
100
AcDbLine
 10
1345.964257996911
 20
726.3
 30
0.0
 11
1347.607146725784
 21
726.3
 31
0.0
  0
LINE
  5
10E0F
330
117D7
100
AcDbEntity
  8
0
 62
     0
100
AcDbLine
 10
1345.978220138394
 20
726.4000000000001
 30
0.0
 11
1347.607146725784
 21
726.4000000000001
 31
0.0
  0
LINE
  5
10E10
330
117D7
100
AcDbEntity
  8
0
 62
     0
100
AcDbLine
 10
1345.995631916329
 20
726.5
 30
0.0
 11
1347.61701685696
 21
726.5
 31
0.0
  0
LINE
  5
10E11
330
117D7
100
AcDbEntity
  8
0
 62
     0
100
AcDbLine
 10
1346.016554772338
 20
726.6
 30
0.0
 11
1347.71701685696
 21
726.6
 31
0.0
  0
LINE
  5
10E12
330
117D7
100
AcDbEntity
  8
0
 62
     0
100
AcDbLine
 10
1346.041064485853
 20
726.7
 30
0.0
 11
1347.81701685696
 21
726.7
 31
0.0
  0
LINE
  5
10E13
330
117D7
100
AcDbEntity
  8
0
 62
     0
100
AcDbLine
 10
1346.069252630626
 20
726.8
 30
0.0
 11
1347.91701685696
 21
726.8
 31
0.0
  0
LINE
  5
10E14
330
117D7
100
AcDbEntity
  8
0
 62
     0
100
AcDbLine
 10
1346.101228424886
 20
726.9000000000001
 30
0.0
 11
1348.01701685696
 21
726.9000000000001
 31
0.0
  0
LINE
  5
10E15
330
117D7
100
AcDbEntity
  8
0
 62
     0
100
AcDbLine
 10
1346.137121068916
 20
727.0
 30
0.0
 11
1348.11701685696
 21
727.0
 31
0.0
  0
LINE
  5
10E16
330
117D7
100
AcDbEntity
  8
0
 62
     0
100
AcDbLine
 10
1346.177082697495
 20
727.1
 30
0.0
 11
1348.21701685696
 21
727.1
 31
0.0
  0
LINE
  5
10E17
330
117D7
100
AcDbEntity
  8
0
 62
     0
100
AcDbLine
 10
1346.22129212184
 20
727.2
 30
0.0
 11
1348.31701685696
 21
727.2
 31
0.0
  0
LINE
  5
10E18
330
117D7
100
AcDbEntity
  8
0
 62
     0
100
AcDbLine
 10
1346.269959603096
 20
727.3
 30
0.0
 11
1348.41701685696
 21
727.3
 31
0.0
  0
LINE
  5
10E19
330
117D7
100
AcDbEntity
  8
0
 62
     0
100
AcDbLine
 10
1346.32333299774
 20
727.4
 30
0.0
 11
1348.51701685696
 21
727.4
 31
0.0
  0
LINE
  5
10E1A
330
117D7
100
AcDbEntity
  8
0
 62
     0
100
AcDbLine
 10
1346.381705761912
 20
727.5
 30
0.0
 11
1348.61701685696
 21
727.5
 31
0.0
  0
LINE
  5
10E1B
330
117D7
100
AcDbEntity
  8
0
 62
     0
100
AcDbLine
 10
1346.445427525646
 20
727.6
 30
0.0
 11
1348.71701685696
 21
727.6
 31
0.0
  0
LINE
  5
10E1C
330
117D7
100
AcDbEntity
  8
0
 62
     0
100
AcDbLine
 10
1346.514918299402
 20
727.7000000000001
 30
0.0
 11
1348.81701685696
 21
727.7000000000001
 31
0.0
  0
LINE
  5
10E1D
330
117D7
100
AcDbEntity
  8
0
 62
     0
100
AcDbLine
 10
1346.590687943283
 20
727.8
 30
0.0
 11
1348.91701685696
 21
727.8
 31
0.0
  0
LINE
  5
10E1E
330
117D7
100
AcDbEntity
  8
0
 62
     0
100
AcDbLine
 10
1346.673363479605
 20
727.9
 30
0.0
 11
1349.01701685696
 21
727.9
 31
0.0
  0
LINE
  5
10E1F
330
117D7
100
AcDbEntity
  8
0
 62
     0
100
AcDbLine
 10
1346.763728483027
 20
728.0
 30
0.0
 11
1349.11701685696
 21
728.0
 31
0.0
  0
LINE
  5
10E20
330
117D7
100
AcDbEntity
  8
0
 62
     0
100
AcDbLine
 10
1346.862781796162
 20
728.1
 30
0.0
 11
1349.21701685696
 21
728.1
 31
0.0
  0
LINE
  5
10E21
330
117D7
100
AcDbEntity
  8
0
 62
     0
100
AcDbLine
 10
1346.971828621083
 20
728.2
 30
0.0
 11
1349.31701685696
 21
728.2
 31
0.0
  0
LINE
  5
10E22
330
117D7
100
AcDbEntity
  8
0
 62
     0
100
AcDbLine
 10
1347.09262897832
 20
728.3000000000001
 30
0.0
 11
1349.41701685696
 21
728.3000000000001
 31
0.0
  0
LINE
  5
10E23
330
117D7
100
AcDbEntity
  8
0
 62
     0
100
AcDbLine
 10
1347.227655213373
 20
728.4
 30
0.0
 11
1349.51701685696
 21
728.4
 31
0.0
  0
LINE
  5
10E24
330
117D7
100
AcDbEntity
  8
0
 62
     0
100
AcDbLine
 10
1347.380576528715
 20
728.5
 30
0.0
 11
1349.61701685696
 21
728.5
 31
0.0
  0
LINE
  5
10E25
330
117D7
100
AcDbEntity
  8
0
 62
     0
100
AcDbLine
 10
1347.557278214668
 20
728.6
 30
0.0
 11
1349.71701685696
 21
728.6
 31
0.0
  0
LINE
  5
10E26
330
117D7
100
AcDbEntity
  8
0
 62
     0
100
AcDbLine
 10
1347.768387563307
 20
728.7
 30
0.0
 11
1349.81701685696
 21
728.7
 31
0.0
  0
LINE
  5
10E27
330
117D7
100
AcDbEntity
  8
0
 62
     0
100
AcDbLine
 10
1348.037499199743
 20
728.8000000000001
 30
0.0
 11
1349.861048800856
 21
728.8000000000001
 31
0.0
  0
LINE
  5
10E28
330
117D7
100
AcDbEntity
  8
0
 62
     0
100
AcDbLine
 10
1348.451103550767
 20
728.9000000000001
 30
0.0
 11
1349.447444449832
 21
728.9000000000001
 31
0.0
  0
LINE
  5
10E29
330
117D7
100
AcDbEntity
  8
0
 62
     0
100
AcDbLine
 10
1345.942122773465
 20
725.9000000000001
 30
0.0
 11
1347.607146725784
 21
725.9000000000001
 31
0.0
  0
LINE
  5
10E2A
330
117D7
100
AcDbEntity
  8
0
 62
     0
100
AcDbLine
 10
1345.944924155292
 20
725.8
 30
0.0
 11
1347.607146725784
 21
725.8
 31
0.0
  0
LINE
  5
10E2B
330
117D7
100
AcDbEntity
  8
0
 62
     0
100
AcDbLine
 10
1345.95106161934
 20
725.7
 30
0.0
 11
1347.607146725784
 21
725.7
 31
0.0
  0
LINE
  5
10E2C
330
117D7
100
AcDbEntity
  8
0
 62
     0
100
AcDbLine
 10
1345.960555717912
 20
725.6
 30
0.0
 11
1347.607146725784
 21
725.6
 31
0.0
  0
LINE
  5
10E2D
330
117D7
100
AcDbEntity
  8
0
 62
     0
100
AcDbLine
 10
1345.973438577831
 20
725.4999999999999
 30
0.0
 11
1347.607146725784
 21
725.4999999999999
 31
0.0
  0
LINE
  5
10E2E
330
117D7
100
AcDbEntity
  8
0
 62
     0
100
AcDbLine
 10
1345.989754452845
 20
725.4000000000001
 30
0.0
 11
1347.607146725784
 21
725.4000000000001
 31
0.0
  0
LINE
  5
10E2F
330
117D7
100
AcDbEntity
  8
0
 62
     0
100
AcDbLine
 10
1346.009560503731
 20
725.3000000000001
 30
0.0
 11
1347.607146725784
 21
725.3000000000001
 31
0.0
  0
LINE
  5
10E30
330
117D7
100
AcDbEntity
  8
0
 62
     0
100
AcDbLine
 10
1346.032927839082
 20
725.2
 30
0.0
 11
1347.607146725784
 21
725.2
 31
0.0
  0
LINE
  5
10E31
330
117D7
100
AcDbEntity
  8
0
 62
     0
100
AcDbLine
 10
1346.059942862789
 20
725.1
 30
0.0
 11
1347.607146725784
 21
725.1
 31
0.0
  0
LINE
  5
10E32
330
117D7
100
AcDbEntity
  8
0
 62
     0
100
AcDbLine
 10
1346.090708991011
 20
725.0
 30
0.0
 11
1347.607146725784
 21
725.0
 31
0.0
  0
LINE
  5
10E33
330
117D7
100
AcDbEntity
  8
0
 62
     0
100
AcDbLine
 10
1346.125348823799
 20
724.9000000000001
 30
0.0
 11
1347.607146725784
 21
724.9000000000001
 31
0.0
  0
LINE
  5
10E34
330
117D7
100
AcDbEntity
  8
0
 62
     0
100
AcDbLine
 10
1346.164006886966
 20
724.8000000000001
 30
0.0
 11
1347.607146725784
 21
724.8000000000001
 31
0.0
  0
LINE
  5
10E35
330
117D7
100
AcDbEntity
  8
0
 62
     0
100
AcDbLine
 10
1346.206853102122
 20
724.7
 30
0.0
 11
1347.607146725784
 21
724.7
 31
0.0
  0
LINE
  5
10E36
330
117D7
100
AcDbEntity
  8
0
 62
     0
100
AcDbLine
 10
1346.254087202896
 20
724.6
 30
0.0
 11
1347.607146725784
 21
724.6
 31
0.0
  0
LINE
  5
10E37
330
117D7
100
AcDbEntity
  8
0
 62
     0
100
AcDbLine
 10
1346.305944402417
 20
724.5
 30
0.0
 11
1347.607146725784
 21
724.5
 31
0.0
  0
LINE
  5
10E38
330
117D7
100
AcDbEntity
  8
0
 62
     0
100
AcDbLine
 10
1346.362702746074
 20
724.4
 30
0.0
 11
1347.607146725784
 21
724.4
 31
0.0
  0
LINE
  5
10E39
330
117D7
100
AcDbEntity
  8
0
 62
     0
100
AcDbLine
 10
1346.424692778923
 20
724.3000000000001
 30
0.0
 11
1347.607146725784
 21
724.3000000000001
 31
0.0
  0
LINE
  5
10E3A
330
117D7
100
AcDbEntity
  8
0
 62
     0
100
AcDbLine
 10
1346.492310460996
 20
724.2
 30
0.0
 11
1347.607146725784
 21
724.2
 31
0.0
  0
LINE
  5
10E3B
330
117D7
100
AcDbEntity
  8
0
 62
     0
100
AcDbLine
 10
1346.566034750117
 20
724.1
 30
0.0
 11
1347.607146725784
 21
724.1
 31
0.0
  0
LINE
  5
10E3C
330
117D7
100
AcDbEntity
  8
0
 62
     0
100
AcDbLine
 10
1346.646452076278
 20
724.0
 30
0.0
 11
1347.607146725784
 21
724.0
 31
0.0
  0
LINE
  5
10E3D
330
117D7
100
AcDbEntity
  8
0
 62
     0
100
AcDbLine
 10
1346.734291313258
 20
723.9
 30
0.0
 11
1347.607146725784
 21
723.9
 31
0.0
  0
LINE
  5
10E3E
330
117D7
100
AcDbEntity
  8
0
 62
     0
100
AcDbLine
 10
1346.830475332649
 20
723.8
 30
0.0
 11
1347.607146725784
 21
723.8
 31
0.0
  0
LINE
  5
10E3F
330
117D7
100
AcDbEntity
  8
0
 62
     0
100
AcDbLine
 10
1346.9361999122
 20
723.7
 30
0.0
 11
1347.607146725784
 21
723.7
 31
0.0
  0
LINE
  5
10E40
330
117D7
100
AcDbEntity
  8
0
 62
     0
100
AcDbLine
 10
1347.05306020056
 20
723.6
 30
0.0
 11
1347.607146725784
 21
723.6
 31
0.0
  0
LINE
  5
10E41
330
117D7
100
AcDbEntity
  8
0
 62
     0
100
AcDbLine
 10
1347.183265431673
 20
723.5
 30
0.0
 11
1347.607146725784
 21
723.5
 31
0.0
  0
LINE
  5
10E42
330
117D7
100
AcDbEntity
  8
0
 62
     0
100
AcDbLine
 10
1347.330031660622
 20
723.4
 30
0.0
 11
1347.607146725784
 21
723.4
 31
0.0
  0
LINE
  5
10E43
330
117D7
100
AcDbEntity
  8
0
 62
     0
100
AcDbLine
 10
1347.498375918163
 20
723.3
 30
0.0
 11
1347.607146725784
 21
723.3
 31
0.0
  0
ENDBLK
  5
10E44
330
117D7
100
AcDbEntity
  8
0
100
AcDbBlockEnd
  0
BLOCK
  5
10E50
330
117D8
100
AcDbEntity
  8
0
100
AcDbBlockBegin
  2
*X4
 70
     1
 10
0.0
 20
0.0
 30
0.0
  3
*X4
  1

  0
LINE
  5
10E52
330
117D8
100
AcDbEntity
  8
0
 62
     0
100
AcDbLine
 10
1620.607146725784
 20
612.8999999999999
 30
0.0
 11
1622.789269449152
 21
612.8999999999999
 31
0.0
  0
LINE
  5
10E53
330
117D8
100
AcDbEntity
  8
0
 62
     0
100
AcDbLine
 10
1620.607146725784
 20
613.0
 30
0.0
 11
1622.821364289455
 21
613.0
 31
0.0
  0
LINE
  5
10E54
330
117D8
100
AcDbEntity
  8
0
 62
     0
100
AcDbLine
 10
1620.607146725784
 20
613.1
 30
0.0
 11
1622.851198545595
 21
613.1
 31
0.0
  0
LINE
  5
10E55
330
117D8
100
AcDbEntity
  8
0
 62
     0
100
AcDbLine
 10
1620.607146725784
 20
613.2
 30
0.0
 11
1622.878813460555
 21
613.2
 31
0.0
  0
LINE
  5
10E56
330
117D8
100
AcDbEntity
  8
0
 62
     0
100
AcDbLine
 10
1620.607146725784
 20
613.3
 30
0.0
 11
1622.904246319504
 21
613.3
 31
0.0
  0
LINE
  5
10E57
330
117D8
100
AcDbEntity
  8
0
 62
     0
100
AcDbLine
 10
1620.607146725784
 20
613.4
 30
0.0
 11
1622.927530725857
 21
613.4
 31
0.0
  0
LINE
  5
10E58
330
117D8
100
AcDbEntity
  8
0
 62
     0
100
AcDbLine
 10
1620.697319384815
 20
613.4999999999999
 30
0.0
 11
1622.948696841723
 21
613.4999999999999
 31
0.0
  0
LINE
  5
10E59
330
117D8
100
AcDbEntity
  8
0
 62
     0
100
AcDbLine
 10
1620.797319384815
 20
613.6
 30
0.0
 11
1622.967771597055
 21
613.6
 31
0.0
  0
LINE
  5
10E5A
330
117D8
100
AcDbEntity
  8
0
 62
     0
100
AcDbLine
 10
1620.897319384815
 20
613.7
 30
0.0
 11
1622.984778871085
 21
613.7
 31
0.0
  0
LINE
  5
10E5B
330
117D8
100
AcDbEntity
  8
0
 62
     0
100
AcDbLine
 10
1620.997319384815
 20
613.8
 30
0.0
 11
1622.999739649064
 21
613.8
 31
0.0
  0
LINE
  5
10E5C
330
117D8
100
AcDbEntity
  8
0
 62
     0
100
AcDbLine
 10
1621.097319384815
 20
613.9000000000001
 30
0.0
 11
1623.012672156805
 21
613.9000000000001
 31
0.0
  0
LINE
  5
10E5D
330
117D8
100
AcDbEntity
  8
0
 62
     0
100
AcDbLine
 10
1621.197319384815
 20
614.0
 30
0.0
 11
1623.023591975129
 21
614.0
 31
0.0
  0
LINE
  5
10E5E
330
117D8
100
AcDbEntity
  8
0
 62
     0
100
AcDbLine
 10
1621.297319384815
 20
614.1
 30
0.0
 11
1623.032512135925
 21
614.1
 31
0.0
  0
LINE
  5
10E5F
330
117D8
100
AcDbEntity
  8
0
 62
     0
100
AcDbLine
 10
1621.397319384815
 20
614.2
 30
0.0
 11
1623.03944320126
 21
614.2
 31
0.0
  0
LINE
  5
10E60
330
117D8
100
AcDbEntity
  8
0
 62
     0
100
AcDbLine
 10
1621.497319384815
 20
614.3
 30
0.0
 11
1623.044393326661
 21
614.3
 31
0.0
  0
LINE
  5
10E61
330
117D8
100
AcDbEntity
  8
0
 62
     0
100
AcDbLine
 10
1621.597319384815
 20
614.4000000000001
 30
0.0
 11
1623.047368309472
 21
614.4000000000001
 31
0.0
  0
LINE
  5
10E62
330
117D8
100
AcDbEntity
  8
0
 62
     0
100
AcDbLine
 10
1621.697319384815
 20
614.5
 30
0.0
 11
1623.048371622963
 21
614.5
 31
0.0
  0
LINE
  5
10E63
330
117D8
100
AcDbEntity
  8
0
 62
     0
100
AcDbLine
 10
1621.797319384815
 20
614.6
 30
0.0
 11
1623.047404436659
 21
614.6
 31
0.0
  0
LINE
  5
10E64
330
117D8
100
AcDbEntity
  8
0
 62
     0
100
AcDbLine
 10
1621.897319384815
 20
614.7
 30
0.0
 11
1623.044465623162
 21
614.7
 31
0.0
  0
LINE
  5
10E65
330
117D8
100
AcDbEntity
  8
0
 62
     0
100
AcDbLine
 10
1621.997319384815
 20
614.8
 30
0.0
 11
1623.039551751578
 21
614.8
 31
0.0
  0
LINE
  5
10E66
330
117D8
100
AcDbEntity
  8
0
 62
     0
100
AcDbLine
 10
1622.097319384815
 20
614.9
 30
0.0
 11
1623.032657067432
 21
614.9
 31
0.0
  0
LINE
  5
10E67
330
117D8
100
AcDbEntity
  8
0
 62
     0
100
AcDbLine
 10
1622.197319384815
 20
615.0
 30
0.0
 11
1623.023773458818
 21
615.0
 31
0.0
  0
LINE
  5
10E68
330
117D8
100
AcDbEntity
  8
0
 62
     0
100
AcDbLine
 10
1622.297319384815
 20
615.1
 30
0.0
 11
1623.012890408311
 21
615.1
 31
0.0
  0
LINE
  5
10E69
330
117D8
100
AcDbEntity
  8
0
 62
     0
100
AcDbLine
 10
1622.397319384815
 20
615.2000000000001
 30
0.0
 11
1622.999994929958
 21
615.2000000000001
 31
0.0
  0
LINE
  5
10E6A
330
117D8
100
AcDbEntity
  8
0
 62
     0
100
AcDbLine
 10
1622.497319384815
 20
615.3
 30
0.0
 11
1622.985071490479
 21
615.3
 31
0.0
  0
LINE
  5
10E6B
330
117D8
100
AcDbEntity
  8
0
 62
     0
100
AcDbLine
 10
1622.597319384815
 20
615.4
 30
0.0
 11
1622.968101913519
 21
615.4
 31
0.0
  0
LINE
  5
10E6C
330
117D8
100
AcDbEntity
  8
0
 62
     0
100
AcDbLine
 10
1622.697319384815
 20
615.5
 30
0.0
 11
1622.949065265562
 21
615.5
 31
0.0
  0
LINE
  5
10E6D
330
117D8
100
AcDbEntity
  8
0
 62
     0
100
AcDbLine
 10
1622.797319384815
 20
615.6
 30
0.0
 11
1622.927937721767
 21
615.6
 31
0.0
  0
LINE
  5
10E6E
330
117D8
100
AcDbEntity
  8
0
 62
     0
100
AcDbLine
 10
1620.607146725784
 20
612.8000000000001
 30
0.0
 11
1622.754868507052
 21
612.8000000000001
 31
0.0
  0
LINE
  5
10E6F
330
117D8
100
AcDbEntity
  8
0
 62
     0
100
AcDbLine
 10
1620.607146725784
 20
612.7
 30
0.0
 11
1622.718111307078
 21
612.7
 31
0.0
  0
LINE
  5
10E70
330
117D8
100
AcDbEntity
  8
0
 62
     0
100
AcDbLine
 10
1620.607146725784
 20
612.6
 30
0.0
 11
1622.678942636457
 21
612.6
 31
0.0
  0
LINE
  5
10E71
330
117D8
100
AcDbEntity
  8
0
 62
     0
100
AcDbLine
 10
1620.607146725784
 20
612.5
 30
0.0
 11
1622.637301743989
 21
612.5
 31
0.0
  0
LINE
  5
10E72
330
117D8
100
AcDbEntity
  8
0
 62
     0
100
AcDbLine
 10
1620.607146725784
 20
612.3999999999999
 30
0.0
 11
1622.593121783827
 21
612.3999999999999
 31
0.0
  0
LINE
  5
10E73
330
117D8
100
AcDbEntity
  8
0
 62
     0
100
AcDbLine
 10
1620.607146725784
 20
612.3000000000001
 30
0.0
 11
1622.546329171327
 21
612.3000000000001
 31
0.0
  0
LINE
  5
10E74
330
117D8
100
AcDbEntity
  8
0
 62
     0
100
AcDbLine
 10
1620.607146725784
 20
612.2
 30
0.0
 11
1622.496842834449
 21
612.2
 31
0.0
  0
LINE
  5
10E75
330
117D8
100
AcDbEntity
  8
0
 62
     0
100
AcDbLine
 10
1620.607146725784
 20
612.1
 30
0.0
 11
1622.444573340282
 21
612.1
 31
0.0
  0
LINE
  5
10E76
330
117D8
100
AcDbEntity
  8
0
 62
     0
100
AcDbLine
 10
1620.607146725784
 20
612.0
 30
0.0
 11
1622.389421871233
 21
612.0
 31
0.0
  0
LINE
  5
10E77
330
117D8
100
AcDbEntity
  8
0
 62
     0
100
AcDbLine
 10
1620.607146725784
 20
611.8999999999999
 30
0.0
 11
1622.331279018954
 21
611.8999999999999
 31
0.0
  0
LINE
  5
10E78
330
117D8
100
AcDbEntity
  8
0
 62
     0
100
AcDbLine
 10
1620.607146725784
 20
611.8000000000001
 30
0.0
 11
1622.270023355613
 21
611.8000000000001
 31
0.0
  0
LINE
  5
10E79
330
117D8
100
AcDbEntity
  8
0
 62
     0
100
AcDbLine
 10
1620.607146725784
 20
611.7
 30
0.0
 11
1622.205519730969
 21
611.7
 31
0.0
  0
LINE
  5
10E7A
330
117D8
100
AcDbEntity
  8
0
 62
     0
100
AcDbLine
 10
1620.607146725784
 20
611.6
 30
0.0
 11
1622.13761722885
 21
611.6
 31
0.0
  0
LINE
  5
10E7B
330
117D8
100
AcDbEntity
  8
0
 62
     0
100
AcDbLine
 10
1620.607146725784
 20
611.5
 30
0.0
 11
1622.066146696597
 21
611.5
 31
0.0
  0
LINE
  5
10E7C
330
117D8
100
AcDbEntity
  8
0
 62
     0
100
AcDbLine
 10
1620.607146725784
 20
611.3999999999999
 30
0.0
 11
1621.990917733717
 21
611.3999999999999
 31
0.0
  0
LINE
  5
10E7D
330
117D8
100
AcDbEntity
  8
0
 62
     0
100
AcDbLine
 10
1620.607146725784
 20
611.3
 30
0.0
 11
1621.91171498811
 21
611.3
 31
0.0
  0
LINE
  5
10E7E
330
117D8
100
AcDbEntity
  8
0
 62
     0
100
AcDbLine
 10
1620.607146725784
 20
611.2
 30
0.0
 11
1621.828293555093
 21
611.2
 31
0.0
  0
LINE
  5
10E7F
330
117D8
100
AcDbEntity
  8
0
 62
     0
100
AcDbLine
 10
1620.607146725784
 20
611.1
 30
0.0
 11
1621.740373198462
 21
611.1
 31
0.0
  0
LINE
  5
10E80
330
117D8
100
AcDbEntity
  8
0
 62
     0
100
AcDbLine
 10
1620.607146725784
 20
611.0
 30
0.0
 11
1621.647631002368
 21
611.0
 31
0.0
  0
LINE
  5
10E81
330
117D8
100
AcDbEntity
  8
0
 62
     0
100
AcDbLine
 10
1620.607146725784
 20
610.8999999999999
 30
0.0
 11
1621.549691898809
 21
610.8999999999999
 31
0.0
  0
LINE
  5
10E82
330
117D8
100
AcDbEntity
  8
0
 62
     0
100
AcDbLine
 10
1620.607146725784
 20
610.8
 30
0.0
 11
1621.446116266631
 21
610.8
 31
0.0
  0
LINE
  5
10E83
330
117D8
100
AcDbEntity
  8
0
 62
     0
100
AcDbLine
 10
1620.607146725784
 20
610.7
 30
0.0
 11
1621.336383410487
 21
610.7
 31
0.0
  0
LINE
  5
10E84
330
117D8
100
AcDbEntity
  8
0
 62
     0
100
AcDbLine
 10
1620.607146725784
 20
610.6
 30
0.0
 11
1621.219869107616
 21
610.6
 31
0.0
  0
LINE
  5
10E85
330
117D8
100
AcDbEntity
  8
0
 62
     0
100
AcDbLine
 10
1620.607146725784
 20
610.5
 30
0.0
 11
1621.095814383364
 21
610.5
 31
0.0
  0
LINE
  5
10E86
330
117D8
100
AcDbEntity
  8
0
 62
     0
100
AcDbLine
 10
1620.607146725784
 20
610.4
 30
0.0
 11
1620.963280912115
 21
610.4
 31
0.0
  0
LINE
  5
10E87
330
117D8
100
AcDbEntity
  8
0
 62
     0
100
AcDbLine
 10
1620.607146725784
 20
610.3
 30
0.0
 11
1620.821085273643
 21
610.3
 31
0.0
  0
LINE
  5
10E88
330
117D8
100
AcDbEntity
  8
0
 62
     0
100
AcDbLine
 10
1620.607146725784
 20
610.2
 30
0.0
 11
1620.667698309023
 21
610.2
 31
0.0
  0
ENDBLK
  5
10E89
330
117D8
100
AcDbEntity
  8
0
100
AcDbBlockEnd
  0
BLOCK
  5
1181E
330
11814
100
AcDbEntity
  8
0
100
AcDbBlockBegin
  2
*D10
 70
     1
 10
0.0
 20
0.0
 30
0.0
  3
*D10
  1

  0
LINE
  5
11815
330
11814
100
AcDbEntity
  8
BEM
 62
     0
370
    -2
100
AcDbLine
 10
542.7879620504816
 20
918.8472834234259
 30
0.0
 11
425.0546829829216
 21
1036.580562490986
 31
0.0
  0
LINE
  5
11816
330
11814
100
AcDbEntity
  8
BEM
 62
     0
370
    -2
100
AcDbLine
 10
548.7983696905676
 20
1117.897842327439
 30
0.0
 11
527.5851662549707
 21
1139.111045763035
 31
0.0
  0
LINE
  5
11817
330
11814
100
AcDbEntity
  8
BEM
 62
     0
370
    -2
100
AcDbLine
 10
440.9645855596189
 20
1045.419397255818
 30
0.0
 11
518.746331490139
 21
1123.201143186338
 31
0.0
  0
SOLID
  5
11818
330
11814
100
AcDbEntity
  8
BEM
 62
     0
100
AcDbTrace
 10
438.9021907811581
 20
1047.481792034278
 30
0.0
 11
443.0269803380797
 21
1043.357002477357
 31
0.0
 12
428.5902168888543
 22
1033.045028585053
 32
0.0
 13
428.5902168888543
 23
1033.045028585053
 33
0.0
  0
SOLID
  5
11819
330
11814
100
AcDbEntity
  8
BEM
 62
     0
100
AcDbTrace
 10
516.6839367116782
 20
1125.263537964799
 30
0.0
 11
520.8087262685998
 21
1121.138748407877
 31
0.0
 12
531.1207001609035
 22
1135.575511857102
 32
0.0
 13
531.1207001609035
 23
1135.575511857102
 33
0.0
  0
MTEXT
  5
1181A
330
11814
100
AcDbEntity
  8
BEM
 62
     1
100
AcDbMText
 10
468.3649733305976
 20
1095.800755415359
 30
0.0
 40
17.5
 41
0.0
 71
     5
 72
     1
  1
\A1;145
  7
GREEKS
 11
0.7071067811865476
 21
0.7071067811865475
 31
0.0
 73
     1
 44
1.0
  0
POINT
  5
1181B
330
11814
100
AcDbEntity
  8
DEFPOINTS
 62
     0
100
AcDbPoint
 10
546.3234959564143
 20
915.3117495174933
 30
0.0
  0
POINT
  5
1181C
330
11814
100
AcDbEntity
  8
DEFPOINTS
 62
     0
100
AcDbPoint
 10
552.3339035965002
 20
1114.362308421505
 30
0.0
  0
POINT
  5
1181D
330
11814
100
AcDbEntity
  8
DEFPOINTS
 62
     0
100
AcDbPoint
 10
531.1207001609035
 20
1135.575511857102
 30
0.0
  0
ENDBLK
  5
1181F
330
11814
100
AcDbEntity
  8
0
100
AcDbBlockEnd
  0
BLOCK
  5
1182A
330
11820
100
AcDbEntity
  8
0
100
AcDbBlockBegin
  2
*D11
 70
     1
 10
0.0
 20
0.0
 30
0.0
  3
*D11
  1

  0
LINE
  5
11821
330
11820
100
AcDbEntity
  8
BEM
 62
     0
370
    -2
100
AcDbLine
 10
404.8234959564146
 20
770.3117495174932
 30
0.0
 11
374.8234959564145
 21
770.3117495174932
 31
0.0
  0
LINE
  5
11822
330
11820
100
AcDbEntity
  8
BEM
 62
     0
370
    -2
100
AcDbLine
 10
541.3234959564146
 20
915.3117495174932
 30
0.0
 11
374.8234959564146
 21
915.3117495174932
 31
0.0
  0
LINE
  5
11823
330
11820
100
AcDbEntity
  8
BEM
 62
     0
370
    -2
100
AcDbLine
 10
379.8234959564145
 20
787.8117495174932
 30
0.0
 11
379.8234959564146
 21
897.8117495174933
 31
0.0
  0
SOLID
  5
11824
330
11820
100
AcDbEntity
  8
BEM
 62
     0
100
AcDbTrace
 10
376.9068292897479
 20
787.8117495174932
 30
0.0
 11
382.7401626230813
 21
787.8117495174932
 31
0.0
 12
379.8234959564145
 22
770.3117495174932
 32
0.0
 13
379.8234959564145
 23
770.3117495174932
 33
0.0
  0
SOLID
  5
11825
330
11820
100
AcDbEntity
  8
BEM
 62
     0
100
AcDbTrace
 10
376.9068292897479
 20
897.8117495174933
 30
0.0
 11
382.7401626230813
 21
897.8117495174933
 31
0.0
 12
379.8234959564146
 22
915.3117495174932
 32
0.0
 13
379.8234959564146
 23
915.3117495174932
 33
0.0
  0
MTEXT
  5
11826
330
11820
100
AcDbEntity
  8
BEM
 62
     1
100
AcDbMText
 10
363.5734959564144
 20
842.8117495174934
 30
0.0
 40
17.5
 41
0.0
 71
     5
 72
     1
  1
\A1;145
  7
GREEKS
 11
0.0000000000000001
 21
1.0
 31
0.0
 73
     1
 44
1.0
  0
POINT
  5
11827
330
11820
100
AcDbEntity
  8
DEFPOINTS
 62
     0
100
AcDbPoint
 10
409.8234959564146
 20
770.3117495174932
 30
0.0
  0
POINT
  5
11828
330
11820
100
AcDbEntity
  8
DEFPOINTS
 62
     0
100
AcDbPoint
 10
546.3234959564146
 20
915.3117495174932
 30
0.0
  0
POINT
  5
11829
330
11820
100
AcDbEntity
  8
DEFPOINTS
 62
     0
100
AcDbPoint
 10
379.8234959564146
 20
915.3117495174932
 30
0.0
  0
ENDBLK
  5
1182B
330
11820
100
AcDbEntity
  8
0
100
AcDbBlockEnd
  0
BLOCK
  5
11874
330
1186A
100
AcDbEntity
  8
0
100
AcDbBlockBegin
  2
*D12
 70
     1
 10
0.0
 20
0.0
 30
0.0
  3
*D12
  1

  0
LINE
  5
11876
330
1186A
100
AcDbEntity
  8
BEM
 62
     0
370
    -2
100
AcDbLine
 10
682.8234959564143
 20
765.3117495174932
 30
0.0
 11
682.8234959564143
 21
721.0540790708721
 31
0.0
  0
LINE
  5
11877
330
1186A
100
AcDbEntity
  8
BEM
 62
     0
370
    -2
100
AcDbLine
 10
409.8234959564146
 20
765.3117495174932
 30
0.0
 11
409.8234959564146
 21
721.0540790708721
 31
0.0
  0
LINE
  5
11878
330
1186A
100
AcDbEntity
  8
BEM
 62
     0
370
    -2
100
AcDbLine
 10
665.3234959564144
 20
726.0540790708721
 30
0.0
 11
427.3234959564145
 21
726.0540790708721
 31
0.0
  0
SOLID
  5
11879
330
1186A
100
AcDbEntity
  8
BEM
 62
     0
100
AcDbTrace
 10
665.3234959564144
 20
728.9707457375388
 30
0.0
 11
665.3234959564144
 21
723.1374124042055
 31
0.0
 12
682.8234959564143
 22
726.0540790708721
 32
0.0
 13
682.8234959564143
 23
726.0540790708721
 33
0.0
  0
SOLID
  5
1187A
330
1186A
100
AcDbEntity
  8
BEM
 62
     0
100
AcDbTrace
 10
427.3234959564145
 20
728.9707457375388
 30
0.0
 11
427.3234959564145
 21
723.1374124042055
 31
0.0
 12
409.8234959564146
 22
726.0540790708721
 32
0.0
 13
409.8234959564146
 23
726.0540790708721
 33
0.0
  0
MTEXT
  5
1187B
330
1186A
100
AcDbEntity
  8
BEM
 62
     1
100
AcDbMText
 10
546.3234959564145
 20
742.3040790708721
 30
0.0
 40
17.5
 41
0.0
 71
     5
 72
     1
  1
\A1;%%c273
  7
GREEKS
 73
     1
 44
1.0
  0
POINT
  5
1187C
330
1186A
100
AcDbEntity
  8
DEFPOINTS
 62
     0
100
AcDbPoint
 10
682.8234959564143
 20
770.3117495174932
 30
0.0
  0
POINT
  5
1187D
330
1186A
100
AcDbEntity
  8
DEFPOINTS
 62
     0
100
AcDbPoint
 10
409.8234959564146
 20
770.3117495174932
 30
0.0
  0
POINT
  5
1187E
330
1186A
100
AcDbEntity
  8
DEFPOINTS
 62
     0
100
AcDbPoint
 10
409.8234959564146
 20
726.0540790708721
 30
0.0
  0
ENDBLK
  5
11875
330
1186A
100
AcDbEntity
  8
0
100
AcDbBlockEnd
  0
BLOCK
  5
118C7
330
118BB
100
AcDbEntity
  8
0
100
AcDbBlockBegin
  2
*D14
 70
     1
 10
0.0
 20
0.0
 30
0.0
  3
*D14
  1

  0
LINE
  5
118D6
330
118BB
100
AcDbEntity
  8
BEM
 62
     0
370
    -2
100
AcDbLine
 10
655.9250470403297
 20
1024.913300601407
 30
0.0
 11
709.8302321473968
 21
1078.818485708475
 31
0.0
  0
LINE
  5
118D7
330
118BB
100
AcDbEntity
  8
BEM
 62
     0
370
    -2
100
AcDbLine
 10
546.3234959564145
 20
920.3117495174934
 30
0.0
 11
546.3234959564147
 21
1146.545193378139
 31
0.0
  0
ARC
  5
118D8
330
118BB
100
AcDbEntity
  8
BEM
 62
     0
370
    -2
100
AcDbCircle
 10
546.3234959564146
 20
915.3117495174933
 30
0.0
 40
226.233443860646
100
AcDbArc
 50
49.43314779912862
 51
85.56685220087123
  0
SOLID
  5
118D9
330
118BB
100
AcDbEntity
  8
BEM
 62
     0
100
AcDbTrace
 10
695.4320713478048
 20
1089.310078429674
 30
0.0
 11
691.4699020035274
 21
1085.028841241074
 31
0.0
 12
706.294698241464
 22
1075.282951802542
 32
0.0
 13
706.294698241464
 23
1075.282951802542
 33
0.0
  0
SOLID
  5
118DA
330
118BB
100
AcDbEntity
  8
BEM
 62
     0
100
AcDbTrace
 10
563.6975944166493
 20
1137.953863939266
 30
0.0
 11
563.923209453028
 21
1143.782832598741
 31
0.0
 12
546.3234959564147
 22
1141.545193378139
 32
0.0
 13
546.3234959564147
 23
1141.545193378139
 33
0.0
  0
MTEXT
  5
118DB
330
118BB
100
AcDbEntity
  8
BEM
 62
     1
100
AcDbMText
 10
639.1178925447145
 20
1139.337240273194
 30
0.0
 40
17.5
 41
0.0
 71
     5
 72
     1
  1
\A1;45°
  7
GREEKS
 11
0.9238795325112862
 21
-0.382683432365091
 31
0.0
 73
     1
 44
1.0
  0
POINT
  5
118DC
330
118BB
100
AcDbEntity
  8
DEFPOINTS
 62
     0
100
AcDbPoint
 10
659.4402178867381
 20
1111.235659086453
 30
0.0
  0
POINT
  5
118DD
330
118BB
100
AcDbEntity
  8
DEFPOINTS
 62
     0
100
AcDbPoint
 10
546.3234959564146
 20
915.3117495174933
 30
0.0
  0
POINT
  5
118DE
330
118BB
100
AcDbEntity
  8
DEFPOINTS
 62
     0
100
AcDbPoint
 10
546.3234959564147
 20
915.3117495174933
 30
0.0
  0
POINT
  5
118DF
330
118BB
100
AcDbEntity
  8
DEFPOINTS
 62
     0
100
AcDbPoint
 10
652.3895131343969
 20
1021.377766695475
 30
0.0
  0
POINT
  5
118E0
330
118BB
100
AcDbEntity
  8
DEFPOINTS
 62
     0
100
AcDbPoint
 10
546.3234959564147
 20
765.3117495174933
 30
0.0
  0
ENDBLK
  5
118C8
330
118BB
100
AcDbEntity
  8
0
100
AcDbBlockEnd
  0
ENDSEC
  0
SECTION
  2
ENTITIES
  0
ARC
  5
E9F7
330
117CF
100
AcDbEntity
  8
SCHRAFF
100
AcDbCircle
 10
529.0137987164341
 20
922.4700471125913
 30
0.0
 40
3.811488253428933
100
AcDbArc
 50
285.585224108806
 51
29.4147758911909
  0
LINE
  5
E9FF
330
117CF
100
AcDbEntity
  8
HILF
100
AcDbLine
 10
1050.0
 20
1485.0
 30
0.0
 11
0.0
 21
1485.0
 31
0.0
  0
LINE
  5
EA00
330
117CF
100
AcDbEntity
  8
STEMPEL
100
AcDbLine
 10
1025.0
 20
1460.0
 30
0.0
 11
99.99999999999971
 21
1460.0
 31
0.0
  0
TEXT
  5
EA02
330
117CF
100
AcDbEntity
  8
TEXT
 62
     1
100
AcDbText
 10
471.7846544748148
 20
351.64847138984
 30
0.0
 40
17.5
  1
Werkstoff: EN 10219 S235
 41
0.8
  7
GREEKS
100
AcDbText
  0
TEXT
  5
EA03
330
117CF
100
AcDbEntity
  8
TEXT
100
AcDbText
 10
485.7147386835128
 20
256.0460421087048
 30
0.0
 40
12.5
  1
Zul. Abw.
 41
0.8
  7
GREEKS
100
AcDbText
  0
TEXT
  5
EA04
330
117CF
100
AcDbEntity
  8
TEXT
100
AcDbText
 10
506.1566460565737
 20
183.2740272978806
 30
0.0
 40
10.0
  1
Name
 41
0.8
  7
GREEKS
100
AcDbText
  0
TEXT
  5
EA05
330
117CF
100
AcDbEntity
  8
TEXT
100
AcDbText
 10
511.0540121453142
 20
157.7240979930877
 30
0.0
 40
10.0
  1
Koeh
 41
0.8
  7
GREEKS
 72
     1
 11
524.1968692881714
 21
157.7240979930877
 31
0.0
100
AcDbText
  0
INSERT
  5
EA06
330
117CF
100
AcDbEntity
  8
STEMPEL
100
AcDbBlockReference
  2
LOGO
 10
377.4888713644485
 20
112.552631911208
 30
0.0
 41
5.0
 42
5.0
 43
5.0
  0
LINE
  5
EA07
330
117CF
100
AcDbEntity
  8
HILF
100
AcDbLine
 10
1050.0
 20
0.0
 30
0.0
 11
0.0
 21
0.0
 31
0.0
  0
LINE
  5
EA08
330
117CF
100
AcDbEntity
  8
STEMPEL
100
AcDbLine
 10
1025.0
 20
25.0
 30
0.0
 11
99.99999999999971
 21
25.0
 31
0.0
  0
LINE
  5
EA09
330
117CF
100
AcDbEntity
  8
STEMPEL
100
AcDbLine
 10
124.9999999999997
 20
25.0
 30
0.0
 11
1025.0
 21
25.0
 31
0.0
  0
LINE
  5
EA0A
330
117CF
100
AcDbEntity
  8
HILF
100
AcDbLine
 10
365.0000000000003
 20
124.9999999999999
 30
0.0
 11
575.0
 21
124.9999999999999
 31
0.0
  0
LINE
  5
EA0B
330
117CF
100
AcDbEntity
  8
HILF
100
AcDbLine
 10
365.0000000000003
 20
149.9999999999999
 30
0.0
 11
575.0
 21
149.9999999999999
 31
0.0
  0
LINE
  5
EA0C
330
117CF
100
AcDbEntity
  8
HILF
100
AcDbLine
 10
365.0000000000003
 20
174.9999999999998
 30
0.0
 11
575.0
 21
174.9999999999998
 31
0.0
  0
LINE
  5
EA0D
330
117CF
100
AcDbEntity
  8
STEMPEL
100
AcDbLine
 10
1025.0
 20
200.0
 30
0.0
 11
365.0000000000003
 21
199.9999999999998
 31
0.0
  0
LINE
  5
EA0E
330
117CF
100
AcDbEntity
  8
STEMPEL
100
AcDbLine
 10
1025.0
 20
100.0
 30
0.0
 11
365.0000000000003
 21
99.99999999999992
 31
0.0
  0
LINE
  5
EA0F
330
117CF
100
AcDbEntity
  8
STEMPEL
100
AcDbLine
 10
1025.0
 20
275.0000000000001
 30
0.0
 11
99.99999999999992
 21
275.0
 31
0.0
  0
LINE
  5
EA11
330
117CF
100
AcDbEntity
  8
HILF
100
AcDbLine
 10
0.0
 20
0.0
 30
0.0
 11
-0.0000000000002842
 21
1485.0
 31
0.0
  0
LINE
  5
EA12
330
117CF
100
AcDbEntity
  8
STEMPEL
100
AcDbLine
 10
100.0
 20
25.0
 30
0.0
 11
99.99999999999971
 21
1460.0
 31
0.0
  0
LINE
  5
EA13
330
117CF
100
AcDbEntity
  8
HILF
100
AcDbLine
 10
100.0000000000002
 20
99.99999999999992
 30
0.0
 11
365.0000000000003
 21
99.99999999999992
 31
0.0
  0
LINE
  5
EA14
330
117CF
100
AcDbEntity
  8
HILF
100
AcDbLine
 10
100.0000000000002
 20
124.9999999999999
 30
0.0
 11
365.0000000000003
 21
124.9999999999999
 31
0.0
  0
LINE
  5
EA15
330
117CF
100
AcDbEntity
  8
HILF
100
AcDbLine
 10
100.0000000000002
 20
149.9999999999999
 30
0.0
 11
365.0000000000003
 21
149.9999999999999
 31
0.0
  0
LINE
  5
EA16
330
117CF
100
AcDbEntity
  8
HILF
100
AcDbLine
 10
100.0000000000002
 20
174.9999999999998
 30
0.0
 11
365.0000000000003
 21
174.9999999999998
 31
0.0
  0
LINE
  5
EA17
330
117CF
100
AcDbEntity
  8
HILF
100
AcDbLine
 10
100.0000000000002
 20
199.9999999999998
 30
0.0
 11
365.0000000000003
 21
199.9999999999998
 31
0.0
  0
LINE
  5
EA18
330
117CF
100
AcDbEntity
  8
HILF
100
AcDbLine
 10
100.0000000000002
 20
225.0000000000001
 30
0.0
 11
365.0000000000003
 21
225.0000000000001
 31
0.0
  0
LINE
  5
EA19
330
117CF
100
AcDbEntity
  8
HILF
100
AcDbLine
 10
100.0000000000002
 20
250.0000000000001
 30
0.0
 11
365.0000000000003
 21
250.0000000000001
 31
0.0
  0
LINE
  5
EA1A
330
117CF
100
AcDbEntity
  8
STEMPEL
100
AcDbLine
 10
364.9999999999997
 20
74.99999999999992
 30
0.0
 11
99.99999999999992
 21
74.99999999999992
 31
0.0
  0
TEXT
  5
EA1B
330
117CF
100
AcDbEntity
  8
TEXT
100
AcDbText
 10
164.5864391002692
 20
46.68454737460329
 30
0.0
 40
10.0
  1
Änderung
 41
0.8
  7
GREEKS
 72
     1
 11
191.4435819574121
 21
46.68454737460329
 31
0.0
100
AcDbText
  0
TEXT
  5
EA1C
330
117CF
100
AcDbEntity
  8
TEXT
100
AcDbText
 10
104.6377487744418
 20
279.1799999999999
 30
0.0
 40
12.5
  1
Erstellt mit AUTOCAD 2004
 41
0.8
  7
GREEKS
100
AcDbText
  0
TEXT
  5
EA1D
330
117CF
100
AcDbEntity
  8
TEXT
100
AcDbText
 10
120.6660276761439
 20
34.13664615067979
 30
0.0
 40
10.0
  1
Index
 50
90.0
 41
0.8
  7
GREEKS
100
AcDbText
  0
LINE
  5
EA1E
330
117CF
100
AcDbEntity
  8
VOLL
100
AcDbLine
 10
135.0000000000002
 20
275.0000000000001
 30
0.0
 11
134.9999999999999
 21
24.99999999999993
 31
0.0
  0
LINE
  5
EA1F
330
117CF
100
AcDbEntity
  8
HILF
100
AcDbLine
 10
77.7191783928464
 20
742.5000000000001
 30
0.0
 11
0.0000000000002842
 21
742.5000000000001
 31
0.0
  0
TEXT
  5
EA20
330
117CF
100
AcDbEntity
  8
TEXT
100
AcDbText
 10
274.2609029640008
 20
46.67890673349525
 30
0.0
 40
10.0
  1
Tag
 41
0.8
  7
GREEKS
 72
     1
 11
283.5942362973341
 21
46.67890673349525
 31
0.0
100
AcDbText
  0
LINE
  5
EA21
330
117CF
100
AcDbEntity
  8
VOLL
100
AcDbLine
 10
310.0000000000003
 20
274.9999999999999
 30
0.0
 11
310.0
 21
24.99999999999993
 31
0.0
  0
LINE
  5
EA22
330
117CF
100
AcDbEntity
  8
VOLL
100
AcDbLine
 10
260.0000000000003
 20
274.9999999999999
 30
0.0
 11
260.0
 21
24.99999999999993
 31
0.0
  0
TEXT
  5
EA23
330
117CF
100
AcDbEntity
  8
TEXT
100
AcDbText
 10
321.2631057832852
 20
46.4831054241602
 30
0.0
 40
10.0
  1
Name
 41
0.8
  7
GREEKS
 72
     1
 11
337.072629592809
 21
46.4831054241602
 31
0.0
100
AcDbText
  0
LINE
  5
EA24
330
117CF
100
AcDbEntity
  8
STEMPEL
100
AcDbLine
 10
365.0000000000003
 20
274.9999999999999
 30
0.0
 11
365.0
 21
24.99999999999993
 31
0.0
  0
TEXT
  5
EA25
330
117CF
100
AcDbEntity
  8
TEXT
100
AcDbText
 10
430.8279182884127
 20
183.2970125307481
 30
0.0
 40
10.0
  1
Tag
 41
0.8
  7
GREEKS
100
AcDbText
  0
TEXT
  5
EA26
330
117CF
100
AcDbEntity
  8
TEXT
100
AcDbText
 10
425.9974927705902
 20
157.7691260206433
 30
0.0
 40
10.0
  1
06.04.
 41
0.8
  7
GREEKS
 72
     1
 11
443.5213022943996
 21
157.7691260206433
 31
0.0
100
AcDbText
  0
LINE
  5
EA27
330
117CF
100
AcDbEntity
  8
VOLL
100
AcDbLine
 10
410.0000000000003
 20
199.9999999999998
 30
0.0
 11
410.0000000000003
 21
99.99999999999992
 31
0.0
  0
TEXT
  5
EA28
330
117CF
100
AcDbEntity
  8
TEXT
100
AcDbText
 10
368.9590317919039
 20
159.0747592404491
 30
0.0
 40
10.0
  1
Gez.
 41
0.8
  7
GREEKS
100
AcDbText
  0
TEXT
  5
EA29
330
117CF
100
AcDbEntity
  8
TEXT
100
AcDbText
 10
368.8787716429181
 20
134.2231572857094
 30
0.0
 40
10.0
  1
Gepr.
 41
0.8
  7
GREEKS
100
AcDbText
  0
TEXT
  5
EA2A
330
117CF
100
AcDbEntity
  8
TEXT
100
AcDbText
 10
369.0016943468259
 20
108.8236597412452
 30
0.0
 40
10.0
  1
Norm.
 41
0.8
  7
GREEKS
100
AcDbText
  0
TEXT
  5
EA2B
330
117CF
100
AcDbEntity
  8
TEXT
 62
     1
100
AcDbText
 10
401.2515766204717
 20
220.372535722849
 30
0.0
 40
17.5
  1
1:5
 41
0.8
  7
GREEKS
100
AcDbText
  0
TEXT
  5
EA2C
330
117CF
100
AcDbEntity
  8
TEXT
100
AcDbText
 10
383.7908930375943
 20
256.1552237717722
 30
0.0
 40
12.5
  1
Maßstab
 41
0.8
  7
GREEKS
100
AcDbText
  0
TEXT
  5
EA2D
330
117CF
100
AcDbEntity
  8
TEXT
100
AcDbText
 10
371.55527455526
 20
182.8506367787916
 30
0.0
 40
10.0
  1
2011
 41
0.8
  7
GREEKS
100
AcDbText
  0
LINE
  5
EA2E
330
117CF
100
AcDbEntity
  8
VOLL
100
AcDbLine
 10
475.0000000000002
 20
274.9999999999996
 30
0.0
 11
475.0
 21
99.99999999999992
 31
0.0
  0
TEXT
  5
EA2F
330
117CF
100
AcDbEntity
  8
TEXT
 62
     1
100
AcDbText
 10
273.9036994186759
 20
439.8504167589382
 30
0.0
 40
17.5
  1
Rohrenden leicht entgratet
 41
0.8
  7
GREEKS
100
AcDbText
  0
ARC
  5
EA30
330
117CF
100
AcDbEntity
  8
SCHRAFF
100
AcDbCircle
 10
445.8646407904183
 20
956.9115560254497
 30
0.0
 40
3.811488253428933
100
AcDbArc
 50
285.585224108806
 51
29.4147758911909
  0
ARC
  5
EA34
330
117CF
100
AcDbEntity
  8
SCHRAFF
100
AcDbCircle
 10
427.3870501401926
 20
964.5652246727513
 30
0.0
 40
3.811488253428933
100
AcDbArc
 50
285.585224108806
 51
29.4147758911909
  0
ARC
  5
EA36
330
117CF
100
AcDbEntity
  8
SCHRAFF
100
AcDbCircle
 10
418.1482548150796
 20
968.3920589964021
 30
0.0
 40
3.811488253428933
100
AcDbArc
 50
285.585224108806
 51
29.4147758911909
  0
ARC
  5
EA37
330
117CF
100
AcDbEntity
  8
SCHRAFF
100
AcDbCircle
 10
414.1342163703867
 20
970.1108130780518
 30
0.0
 40
3.811488253428933
100
AcDbArc
 50
285.585224108806
 51
29.4147758911909
  0
ARC
  5
EA38
330
117CF
100
AcDbEntity
  8
SCHRAFF
100
AcDbCircle
 10
422.767652477636
 20
966.4786418345768
 30
0.0
 40
3.811488253428933
100
AcDbArc
 50
285.585224108806
 51
29.4147758911909
  0
ARC
  5
EA39
330
117CF
100
AcDbEntity
  8
SCHRAFF
100
AcDbCircle
 10
436.6258454653055
 20
960.7383903491003
 30
0.0
 40
3.811488253428933
100
AcDbArc
 50
285.585224108806
 51
29.4147758911909
  0
ARC
  5
EA3A
330
117CF
100
AcDbEntity
  8
SCHRAFF
100
AcDbCircle
 10
432.0064478027489
 20
962.6518075109258
 30
0.0
 40
3.811488253428933
100
AcDbArc
 50
285.585224108806
 51
29.4147758911909
  0
ARC
  5
EA3B
330
117CF
100
AcDbEntity
  8
SCHRAFF
100
AcDbCircle
 10
441.2452431278619
 20
958.8249731872748
 30
0.0
 40
3.811488253428933
100
AcDbArc
 50
285.585224108806
 51
29.4147758911909
  0
ARC
  5
EA3C
330
117CF
100
AcDbEntity
  8
SCHRAFF
100
AcDbCircle
 10
487.4392197534265
 20
939.6908015690206
 30
0.0
 40
3.811488253428933
100
AcDbArc
 50
285.585224108806
 51
29.4147758911909
  0
ARC
  5
EA3D
330
117CF
100
AcDbEntity
  8
SCHRAFF
100
AcDbCircle
 10
478.2004244283133
 20
943.5176358926714
 30
0.0
 40
3.811488253428933
100
AcDbArc
 50
285.585224108806
 51
29.4147758911909
  0
ARC
  5
EA3E
330
117CF
100
AcDbEntity
  8
SCHRAFF
100
AcDbCircle
 10
473.5810267657569
 20
945.4310530544969
 30
0.0
 40
3.811488253428933
100
AcDbArc
 50
285.585224108806
 51
29.4147758911909
  0
ARC
  5
EA3F
330
117CF
100
AcDbEntity
  8
SCHRAFF
100
AcDbCircle
 10
468.9616291032006
 20
947.3444702163222
 30
0.0
 40
3.811488253428933
100
AcDbArc
 50
285.585224108806
 51
29.4147758911909
  0
ARC
  5
EA40
330
117CF
100
AcDbEntity
  8
SCHRAFF
100
AcDbCircle
 10
482.8198220908699
 20
941.6042187308459
 30
0.0
 40
3.811488253428933
100
AcDbArc
 50
285.585224108806
 51
29.4147758911909
  0
ARC
  5
EA41
330
117CF
100
AcDbEntity
  8
SCHRAFF
100
AcDbCircle
 10
455.1034361155313
 20
953.0847217017987
 30
0.0
 40
3.811488253428933
100
AcDbArc
 50
285.585224108806
 51
29.4147758911909
  0
ARC
  5
EA42
330
117CF
100
AcDbEntity
  8
SCHRAFF
100
AcDbCircle
 10
450.4840384529749
 20
954.998138863624
 30
0.0
 40
3.811488253428933
100
AcDbArc
 50
285.585224108806
 51
29.4147758911909
  0
ARC
  5
EA43
330
117CF
100
AcDbEntity
  8
SCHRAFF
100
AcDbCircle
 10
459.7228337780876
 20
951.1713045399732
 30
0.0
 40
3.811488253428933
100
AcDbArc
 50
285.585224108806
 51
29.4147758911909
  0
ARC
  5
EA44
330
117CF
100
AcDbEntity
  8
SCHRAFF
100
AcDbCircle
 10
464.3422314406442
 20
949.2578873781477
 30
0.0
 40
3.811488253428933
100
AcDbArc
 50
285.585224108806
 51
29.4147758911909
  0
ARC
  5
EA45
330
117CF
100
AcDbEntity
  8
SCHRAFF
100
AcDbCircle
 10
510.5362080662086
 20
930.1237157598931
 30
0.0
 40
3.811488253428933
100
AcDbArc
 50
285.585224108806
 51
29.4147758911909
  0
ARC
  5
EA46
330
117CF
100
AcDbEntity
  8
SCHRAFF
100
AcDbCircle
 10
496.6780150785393
 20
935.8639672453694
 30
0.0
 40
3.811488253428933
100
AcDbArc
 50
285.585224108806
 51
29.4147758911909
  0
ARC
  5
EA47
330
117CF
100
AcDbEntity
  8
SCHRAFF
100
AcDbCircle
 10
492.0586174159828
 20
937.7773844071951
 30
0.0
 40
3.811488253428933
100
AcDbArc
 50
285.585224108806
 51
29.4147758911909
  0
ARC
  5
EA48
330
117CF
100
AcDbEntity
  8
SCHRAFF
100
AcDbCircle
 10
501.2974127410956
 20
933.9505500835441
 30
0.0
 40
3.811488253428933
100
AcDbArc
 50
285.585224108806
 51
29.4147758911909
  0
ARC
  5
EA49
330
117CF
100
AcDbEntity
  8
SCHRAFF
100
AcDbCircle
 10
505.916810403652
 20
932.0371329217186
 30
0.0
 40
3.811488253428933
100
AcDbArc
 50
285.585224108806
 51
29.4147758911909
  0
ARC
  5
EA4A
330
117CF
100
AcDbEntity
  8
SCHRAFF
100
AcDbCircle
 10
519.7750033913213
 20
926.2968814362423
 30
0.0
 40
3.811488253428933
100
AcDbArc
 50
285.585224108806
 51
29.4147758911909
  0
ARC
  5
EA4B
330
117CF
100
AcDbEntity
  8
SCHRAFF
100
AcDbCircle
 10
515.1556057287649
 20
928.2102985980678
 30
0.0
 40
3.811488253428933
100
AcDbArc
 50
285.585224108806
 51
29.4147758911909
  0
ARC
  5
EA4C
330
117CF
100
AcDbEntity
  8
SCHRAFF
100
AcDbCircle
 10
524.3944010538776
 20
924.3834642744168
 30
0.0
 40
3.811488253428933
100
AcDbArc
 50
285.585224108806
 51
29.4147758911909
  0
LINE
  5
EA4F
330
117CF
100
AcDbEntity
  8
HILF
100
AcDbLine
 10
1050.0
 20
-0.0000000000002842
 30
0.0
 11
1050.0
 21
1485.0
 31
0.0
  0
LINE
  5
EA50
330
117CF
100
AcDbEntity
  8
STEMPEL
100
AcDbLine
 10
1025.0
 20
25.0
 30
0.0
 11
1025.0
 21
1460.0
 31
0.0
  0
TEXT
  5
EA51
330
117CF
100
AcDbEntity
  8
TEXT
 62
     1
100
AcDbText
 10
591.7846544748149
 20
321.64847138984
 30
0.0
 40
17.5
  1
feuerverzinkt und innen beschichtet
 41
0.8
  7
GREEKS
100
AcDbText
  0
TEXT
  5
EA52
330
117CF
100
AcDbEntity
  8
TEXT
100
AcDbText
 10
843.1002153742515
 20
130.185404446965
 30
0.0
 40
12.5
  1
ersetzt durch:
 41
0.8
  7
GREEKS
100
AcDbText
  0
TEXT
  5
EA53
330
117CF
100
AcDbEntity
  8
TEXT
100
AcDbText
 10
841.8096540742482
 20
182.9529559274992
 30
0.0
 40
12.5
  1
Ersatz für:
 41
0.8
  7
GREEKS
100
AcDbText
  0
TEXT
  5
EA54
330
117CF
100
AcDbEntity
  8
TEXT
100
AcDbText
 10
840.4468873940851
 20
255.7830086342841
 30
0.0
 40
12.5
  1
Zeichnungs Nr.
 41
0.8
  7
GREEKS
100
AcDbText
  0
LINE
  5
EA55
330
117CF
100
AcDbEntity
  8
HILF
100
AcDbLine
 10
841.8096540742482
 20
209.4495909238957
 30
0.0
 11
1012.147209831682
 21
209.4495909238957
 31
0.0
  0
LINE
  5
EA56
330
117CF
100
AcDbEntity
  8
VOLL
100
AcDbLine
 10
830.0
 20
150.0
 30
0.0
 11
1025.0
 21
150.0
 31
0.0
  0
LINE
  5
EA57
330
117CF
100
AcDbEntity
  8
HILF
100
AcDbLine
 10
583.7274248224712
 20
37.23495645070784
 30
0.0
 11
1012.147209831682
 21
37.23495645070784
 31
0.0
  0
TEXT
  5
EA58
330
117CF
100
AcDbEntity
  8
TEXT
100
AcDbText
 10
587.8240977813288
 20
129.100298576054
 30
0.0
 40
12.5
  1
EDV-Art.Nr. 03006.250X
 41
0.8
  7
GREEKS
100
AcDbText
  0
TEXT
  5
EA59
330
117CF
100
AcDbEntity
  8
TEXT
 62
     1
100
AcDbText
 10
587.207320850568
 20
218.5437197313445
 30
0.0
 40
17.5
  1
Bogen 45%%d DN250
 41
0.8
  7
GREEKS
100
AcDbText
  0
LINE
  5
EA5A
330
117CF
100
AcDbEntity
  8
HILF
100
AcDbLine
 10
586.9342002742369
 20
124.9999999999999
 30
0.0
 11
812.0884791390775
 21
124.9999999999999
 31
0.0
  0
LINE
  5
EA5B
330
117CF
100
AcDbEntity
  8
HILF
100
AcDbLine
 10
586.9342002742369
 20
149.9999999999999
 30
0.0
 11
812.0884791390775
 21
149.9999999999999
 31
0.0
  0
LINE
  5
EA5C
330
117CF
100
AcDbEntity
  8
HILF
100
AcDbLine
 10
586.9342002742369
 20
174.9999999999998
 30
0.0
 11
812.0884791390775
 21
174.9999999999998
 31
0.0
  0
LINE
  5
EA5D
330
117CF
100
AcDbEntity
  8
HILF
100
AcDbLine
 10
586.9342002742369
 20
210.0939561891034
 30
0.0
 11
812.0884791390777
 21
210.0939561891034
 31
0.0
  0
LINE
  5
EA5E
330
117CF
100
AcDbEntity
  8
STEMPEL
100
AcDbLine
 10
575.0
 20
275.0000000000001
 30
0.0
 11
575.0
 21
24.99999999999993
 31
0.0
  0
TEXT
  5
EA5F
330
117CF
100
AcDbEntity
  8
TEXT
100
AcDbText
 10
587.8240977813288
 20
181.1007260038562
 30
0.0
 40
12.5
  1
Muffenlos
 41
0.8
  7
GREEKS
100
AcDbText
  0
TEXT
  5
EA60
330
117CF
100
AcDbEntity
  8
TEXT
100
AcDbText
 10
587.1948509522525
 20
256.3723320029449
 30
0.0
 40
12.5
  1
Benennung
 41
0.8
  7
GREEKS
100
AcDbText
  0
TEXT
  5
EA61
330
117CF
100
AcDbEntity
  8
TEXT
100
AcDbText
 10
587.4593753944567
 20
106.5743538255658
 30
0.0
 40
10.0
  1
03006250W.DWG
 41
0.8
  7
GREEKS
100
AcDbText
  0
TEXT
  5
EA62
330
117CF
100
AcDbEntity
  8
TEXT
100
AcDbText
 10
586.8555959778399
 20
77.11401425482641
 30
0.0
 40
12.5
  1
Bauvorhaben
 41
0.8
  7
GREEKS
100
AcDbText
  0
LINE
  5
EA63
330
117CF
100
AcDbEntity
  8
STEMPEL
100
AcDbLine
 10
830.0
 20
274.9999999999994
 30
0.0
 11
830.0
 21
100.0
 31
0.0
  0
TEXT
  5
EA64
330
117CF
100
AcDbEntity
  8
TEXT
 62
     1
100
AcDbText
 10
864.3983079253066
 20
220.372535722849
 30
0.0
 40
17.5
  1
03006250W
 41
0.8
  7
GREEKS
 72
     1
 11
924.3983079253066
 21
220.372535722849
 31
0.0
100
AcDbText
  0
ARC
  5
EA6E
330
117CF
100
AcDbEntity
  8
SCHRAFF
100
AcDbCircle
 10
538.2525940415472
 20
918.6432127889405
 30
0.0
 40
3.811488253428933
100
AcDbArc
 50
285.585224108806
 51
29.4147758911909
  0
POINT
  5
EA6F
330
117CF
100
AcDbEntity
  8
SCHRAFF
100
AcDbPoint
 10
545.8248988175859
 20
914.1227302976766
 30
0.0
  0
POINT
  5
EA70
330
117CF
100
AcDbEntity
  8
SCHRAFF
100
AcDbPoint
 10
545.8248988175859
 20
914.1227302976766
 30
0.0
  0
ARC
  5
EA71
330
117CF
100
AcDbEntity
  8
SCHRAFF
100
AcDbCircle
 10
533.6331963789908
 20
920.556629950766
 30
0.0
 40
3.811488253428933
100
AcDbArc
 50
285.585224108806
 51
29.4147758911909
  0
TEXT
  5
EB5D
330
117CF
100
AcDbEntity
  8
TEXT
 62
     1
100
AcDbText
 10
539.09595833283
 20
807.8838559455304
 30
0.0
 40
17.5
  1
DN250
 50
90.0
 41
0.8
  7
GREEKS
100
AcDbText
  0
LINE
  5
F138
102
{ACAD_REACTORS
330
118D5
102
}
330
117CF
100
AcDbEntity
  8
MITTEL
100
AcDbLine
 10
546.3234959564146
 20
915.3117495174933
 30
0.0
 11
546.3234959564146
 21
765.3117495174932
 31
0.0
  0
LINE
  5
F139
330
117CF
100
AcDbEntity
  8
STEMPEL
100
AcDbLine
 10
682.8234959564143
 20
770.3117495174932
 30
0.0
 11
409.8234959564146
 21
770.3117495174932
 31
0.0
  0
LINE
  5
F13A
330
117CF
100
AcDbEntity
  8
STEMPEL
100
AcDbLine
 10
409.8234959564146
 20
971.8519007814208
 30
0.0
 11
409.8234959564146
 21
770.3117495174932
 31
0.0
  0
LINE
  5
F13B
330
117CF
100
AcDbEntity
  8
STEMPEL
100
AcDbLine
 10
682.8234959564142
 20
858.7715982535659
 30
0.0
 11
682.8234959564143
 21
770.3117495174932
 31
0.0
  0
LINE
  5
F13C
330
117CF
100
AcDbEntity
  8
STEMPEL
100
AcDbLine
 10
682.8234959564142
 20
858.7715982535659
 30
0.0
 11
409.8234959564146
 21
971.8519007814208
 31
0.0
  0
LINE
  5
F517
330
117CF
100
AcDbEntity
  8
STEMPEL
100
AcDbLine
 10
745.3740548604274
 20
921.3221571575788
 30
0.0
 11
552.3339035965006
 21
1114.362308421506
 31
0.0
  0
LINE
  5
F518
330
117CF
100
AcDbEntity
  8
STEMPEL
100
AcDbLine
 10
409.8234959564146
 20
971.8519007814208
 30
0.0
 11
552.3339035965006
 21
1114.362308421506
 31
0.0
  0
LINE
  5
F519
102
{ACAD_REACTORS
330
118D5
102
}
330
117CF
100
AcDbEntity
  8
MITTEL
100
AcDbLine
 10
546.3234959564146
 20
915.3117495174932
 30
0.0
 11
652.3895131343969
 21
1021.377766695475
 31
0.0
  0
LINE
  5
F51B
330
117CF
100
AcDbEntity
  8
STEMPEL
100
AcDbLine
 10
682.8234959564142
 20
858.7715982535657
 30
0.0
 11
745.3740548604274
 21
921.3221571575788
 31
0.0
  0
DIMENSION
  5
F529
330
117CF
100
AcDbEntity
  8
BEM
100
AcDbDimension
  2
*D11
 10
379.8234959564146
 20
915.3117495174932
 30
0.0
 11
363.5734959564144
 21
842.8117495174934
 31
0.0
 70
    32
 71
     5
 42
145.0
  3
Standard
100
AcDbAlignedDimension
 13
409.8234959564146
 23
770.3117495174932
 33
0.0
 14
546.3234959564146
 24
915.3117495174932
 34
0.0
 50
90.0
100
AcDbRotatedDimension
1001
ACAD
1000
DSTYLE
1002
{
1070
    40
1040
5.0
1070
    41
1040
3.5
1070
    42
1040
1.0
1070
    43
1040
7.0
1070
    44
1040
1.0
1070
    47
1040
2.399999999999999
1070
    48
1040
2.399999999999999
1070
    73
1070
     0
1070
    74
1070
     0
1070
    77
1070
     1
1070
    78
1070
     8
1070
    79
1070
     2
1070
   140
1040
3.5
1070
   141
1040
1.5
1070
   146
1040
0.5
1070
   147
1040
1.5
1070
   172
1070
     1
1070
   178
1070
     1
1070
   179
1070
     2
1070
   271
1070
     2
1070
   272
1070
     2
1070
   284
1070
     8
1070
   285
1070
     8
1070
   286
1070
     8
1070
   340
1005
117E0
1002
}
  0
DIMENSION
  5
F536
330
117CF
100
AcDbEntity
  8
BEM
100
AcDbDimension
  2
*D10
 10
531.1207001609035
 20
1135.575511857102
 30
0.0
 11
468.3649733305976
 21
1095.800755415359
 31
0.0
 70
    32
 71
     5
 42
144.9999999999997
  3
Standard
100
AcDbAlignedDimension
 13
546.3234959564143
 23
915.3117495174932
 33
0.0
 14
552.3339035965003
 24
1114.362308421506
 34
0.0
 50
45.0
100
AcDbRotatedDimension
1001
ACAD
1000
DSTYLE
1002
{
1070
    40
1040
5.0
1070
    41
1040
3.5
1070
    42
1040
1.0
1070
    43
1040
7.0
1070
    44
1040
1.0
1070
    47
1040
2.399999999999999
1070
    48
1040
2.399999999999999
1070
    73
1070
     0
1070
    74
1070
     0
1070
    77
1070
     1
1070
    78
1070
     8
1070
    79
1070
     2
1070
   140
1040
3.5
1070
   141
1040
1.5
1070
   146
1040
0.5
1070
   147
1040
1.5
1070
   172
1070
     1
1070
   178
1070
     1
1070
   179
1070
     2
1070
   271
1070
     2
1070
   272
1070
     2
1070
   284
1070
     8
1070
   285
1070
     8
1070
   286
1070
     8
1070
   340
1005
117E0
1002
}
  0
DIMENSION
  5
10DFC
330
117CF
100
AcDbEntity
  8
BEM
100
AcDbDimension
  2
*D12
 10
409.8234959564146
 20
726.0540790708721
 30
0.0
 11
546.3234959564145
 21
742.3040790708721
 31
0.0
 70
    32
  1
%%c<>
 71
     5
 42
272.9999999999998
  3
Standard
100
AcDbAlignedDimension
 13
682.8234959564143
 23
770.3117495174932
 33
0.0
 14
409.8234959564146
 24
770.3117495174932
 34
0.0
100
AcDbRotatedDimension
1001
ACAD
1000
DSTYLE
1002
{
1070
    40
1040
5.0
1070
    41
1040
3.5
1070
    42
1040
1.0
1070
    43
1040
7.0
1070
    44
1040
1.0
1070
    47
1040
2.399999999999999
1070
    48
1040
2.399999999999999
1070
    73
1070
     0
1070
    74
1070
     0
1070
    77
1070
     1
1070
    78
1070
     8
1070
    79
1070
     2
1070
   140
1040
3.5
1070
   141
1040
1.5
1070
   146
1040
0.5
1070
   147
1040
1.5
1070
   172
1070
     1
1070
   178
1070
     1
1070
   179
1070
     2
1070
   271
1070
     2
1070
   272
1070
     2
1070
   284
1070
     8
1070
   285
1070
     8
1070
   286
1070
     8
1070
   340
1005
117E0
1002
}
  0
ARC
  5
10DFF
330
117CF
100
AcDbEntity
  8
SCHRAFF
100
AcDbCircle
 10
411.1656232309295
 20
971.2959734618859
 30
0.0
 40
3.007345725938771
100
AcDbArc
 50
71.50545403286497
 51
243.4945459671332
  0
ARC
  5
10E00
330
117CF
100
AcDbEntity
  8
SCHRAFF
100
AcDbCircle
 10
410.1001582727396
 20
971.7817746534981
 30
0.0
 40
3.811488253428933
100
AcDbArc
 50
285.585224108806
 51
29.4147758911909
  0
INSERT
  5
10E0A
330
117CF
100
AcDbEntity
  8
SCHRAFF
100
AcDbBlockReference
  2
*X3
 10
-937.7836507693698
 20
245.3617709125966
 30
0.0
1001
ACAD
1000
HATCH
1002
{
1070
    16
1000
_U,I
1040
0.1
1040
0.0
1070
     0
1002
}
  0
ARC
  5
10E47
330
117CF
100
AcDbEntity
  8
SCHRAFF
100
AcDbCircle
 10
680.1893734401936
 20
859.862687524737
 30
0.0
 40
5.075347496185568
100
AcDbArc
 50
301.2654240598066
 51
13.73457594019278
  0
INSERT
  5
10E51
330
117CF
100
AcDbEntity
  8
SCHRAFF
100
AcDbBlockReference
  2
*X4
 10
-937.7836507693698
 20
245.3617709125966
 30
0.0
1001
ACAD
1000
HATCH
1002
{
1070
    16
1000
_U,I
1040
0.1
1040
0.0
1070
     0
1002
}
  0
TEXT
  5
117F4
330
117CF
100
AcDbEntity
  8
TEXT
100
AcDbText
 10
481.7206788119809
 20
225.4867095366265
 30
0.0
 40
10.0
  1
DIN EN1123-2
 41
0.8
  7
GREEKS
 72
     1
 11
524.1968692881714
 21
225.4867095366265
 31
0.0
100
AcDbText
  0
TEXT
  5
117F8
330
117CF
100
AcDbEntity
  8
BEM
100
AcDbText
 10
1043.255730964291
 20
25.41975269997124
 30
0.0
 40
10.0
  1
Diese Zeichnung ist urheberrechtlich geschützt und bleibt unser Eigentum. Sie darf weder ganz noch teilweise verfielfältigt und nicht an Dritte weitergegeben werden.
 50
90.0
 41
0.8
  7
GREEKS
100
AcDbText
  0
ARC
  5
1187F
330
117CF
100
AcDbEntity
  8
SCHRAFF
100
AcDbCircle
 10
657.7715937031054
 20
869.1368221678578
 30
0.0
 40
3.811488253428933
100
AcDbArc
 50
285.585224108806
 51
29.4147758911909
  0
ARC
  5
11880
330
117CF
100
AcDbEntity
  8
SCHRAFF
100
AcDbCircle
 10
662.3909913656618
 20
867.2234050060323
 30
0.0
 40
3.811488253428933
100
AcDbArc
 50
285.585224108806
 51
29.4147758911909
  0
ARC
  5
11881
330
117CF
100
AcDbEntity
  8
SCHRAFF
100
AcDbCircle
 10
648.5327983779922
 20
872.9636564915086
 30
0.0
 40
3.811488253428933
100
AcDbArc
 50
285.585224108806
 51
29.4147758911909
  0
ARC
  5
11882
330
117CF
100
AcDbEntity
  8
SCHRAFF
100
AcDbCircle
 10
639.2940030528794
 20
876.7904908151594
 30
0.0
 40
3.811488253428933
100
AcDbArc
 50
285.585224108806
 51
29.4147758911909
  0
ARC
  5
11883
330
117CF
100
AcDbEntity
  8
SCHRAFF
100
AcDbCircle
 10
643.9134007154358
 20
874.8770736533341
 30
0.0
 40
3.811488253428933
100
AcDbArc
 50
285.585224108806
 51
29.4147758911909
  0
ARC
  5
11884
330
117CF
100
AcDbEntity
  8
SCHRAFF
100
AcDbCircle
 10
630.0552077277664
 20
880.6173251388104
 30
0.0
 40
3.811488253428933
100
AcDbArc
 50
285.585224108806
 51
29.4147758911909
  0
ARC
  5
11885
330
117CF
100
AcDbEntity
  8
SCHRAFF
100
AcDbCircle
 10
625.4358100652101
 20
882.5307423006357
 30
0.0
 40
3.811488253428933
100
AcDbArc
 50
285.585224108806
 51
29.4147758911909
  0
ARC
  5
11886
330
117CF
100
AcDbEntity
  8
SCHRAFF
100
AcDbCircle
 10
616.1970147400974
 20
886.3575766242869
 30
0.0
 40
3.811488253428933
100
AcDbArc
 50
285.585224108806
 51
29.4147758911909
  0
ARC
  5
11887
330
117CF
100
AcDbEntity
  8
SCHRAFF
100
AcDbCircle
 10
620.8164124026538
 20
884.4441594624612
 30
0.0
 40
3.811488253428933
100
AcDbArc
 50
285.585224108806
 51
29.4147758911909
  0
ARC
  5
11888
330
117CF
100
AcDbEntity
  8
SCHRAFF
100
AcDbCircle
 10
634.6746053903231
 20
878.7039079769849
 30
0.0
 40
3.811488253428933
100
AcDbArc
 50
285.585224108806
 51
29.4147758911909
  0
ARC
  5
11889
330
117CF
100
AcDbEntity
  8
SCHRAFF
100
AcDbCircle
 10
588.4806287647587
 20
897.8380795952393
 30
0.0
 40
3.811488253428933
100
AcDbArc
 50
285.585224108806
 51
29.4147758911909
  0
ARC
  5
1188A
330
117CF
100
AcDbEntity
  8
SCHRAFF
100
AcDbCircle
 10
583.8612311022021
 20
899.751496757065
 30
0.0
 40
3.811488253428933
100
AcDbArc
 50
285.585224108806
 51
29.4147758911909
  0
ARC
  5
1188B
330
117CF
100
AcDbEntity
  8
SCHRAFF
100
AcDbCircle
 10
574.6224357770894
 20
903.5783310807158
 30
0.0
 40
3.811488253428933
100
AcDbArc
 50
285.585224108806
 51
29.4147758911909
  0
ARC
  5
1188C
330
117CF
100
AcDbEntity
  8
SCHRAFF
100
AcDbCircle
 10
579.2418334396457
 20
901.6649139188904
 30
0.0
 40
3.811488253428933
100
AcDbArc
 50
285.585224108806
 51
29.4147758911909
  0
ARC
  5
1188D
330
117CF
100
AcDbEntity
  8
SCHRAFF
100
AcDbCircle
 10
606.9582194149845
 20
890.1844109479377
 30
0.0
 40
3.811488253428933
100
AcDbArc
 50
285.585224108806
 51
29.4147758911909
  0
ARC
  5
1188E
330
117CF
100
AcDbEntity
  8
SCHRAFF
100
AcDbCircle
 10
593.100026427315
 20
895.924662433414
 30
0.0
 40
3.811488253428933
100
AcDbArc
 50
285.585224108806
 51
29.4147758911909
  0
ARC
  5
1188F
330
117CF
100
AcDbEntity
  8
SCHRAFF
100
AcDbCircle
 10
597.7194240898715
 20
894.0112452715885
 30
0.0
 40
3.811488253428933
100
AcDbArc
 50
285.585224108806
 51
29.4147758911909
  0
ARC
  5
11890
330
117CF
100
AcDbEntity
  8
SCHRAFF
100
AcDbCircle
 10
602.3388217524278
 20
892.097828109763
 30
0.0
 40
3.811488253428933
100
AcDbArc
 50
285.585224108806
 51
29.4147758911909
  0
ARC
  5
11891
330
117CF
100
AcDbEntity
  8
SCHRAFF
100
AcDbCircle
 10
611.5776170775411
 20
888.2709937861122
 30
0.0
 40
3.811488253428933
100
AcDbArc
 50
285.585224108806
 51
29.4147758911909
  0
ARC
  5
11892
330
117CF
100
AcDbEntity
  8
SCHRAFF
100
AcDbCircle
 10
565.3836404519764
 20
907.4051654043666
 30
0.0
 40
3.811488253428933
100
AcDbArc
 50
285.585224108806
 51
29.4147758911909
  0
ARC
  5
11893
330
117CF
100
AcDbEntity
  8
SCHRAFF
100
AcDbCircle
 10
556.1448451268635
 20
911.2319997280176
 30
0.0
 40
3.811488253428933
100
AcDbArc
 50
285.585224108806
 51
29.4147758911909
  0
ARC
  5
11894
330
117CF
100
AcDbEntity
  8
SCHRAFF
100
AcDbCircle
 10
560.7642427894201
 20
909.3185825661921
 30
0.0
 40
3.811488253428933
100
AcDbArc
 50
285.585224108806
 51
29.4147758911909
  0
ARC
  5
11895
330
117CF
100
AcDbEntity
  8
SCHRAFF
100
AcDbCircle
 10
546.9060498017505
 20
915.0588340516684
 30
0.0
 40
3.811488253428933
100
AcDbArc
 50
285.585224108806
 51
29.4147758911909
  0
ARC
  5
11896
330
117CF
100
AcDbEntity
  8
SCHRAFF
100
AcDbCircle
 10
542.2866521391942
 20
916.9722512134939
 30
0.0
 40
3.811488253428933
100
AcDbArc
 50
285.585224108806
 51
29.4147758911909
  0
ARC
  5
11897
330
117CF
100
AcDbEntity
  8
SCHRAFF
100
AcDbCircle
 10
551.5254474643071
 20
913.145416889843
 30
0.0
 40
3.811488253428933
100
AcDbArc
 50
285.585224108806
 51
29.4147758911909
  0
ARC
  5
11898
330
117CF
100
AcDbEntity
  8
SCHRAFF
100
AcDbCircle
 10
570.0030381145328
 20
905.4917482425413
 30
0.0
 40
3.811488253428933
100
AcDbArc
 50
285.585224108806
 51
29.4147758911909
  0
ARC
  5
11899
330
117CF
100
AcDbEntity
  8
SCHRAFF
100
AcDbCircle
 10
653.1521960405485
 20
871.0502393296831
 30
0.0
 40
3.811488253428933
100
AcDbArc
 50
285.585224108806
 51
29.4147758911909
  0
ARC
  5
1189A
330
117CF
100
AcDbEntity
  8
SCHRAFF
100
AcDbCircle
 10
676.2491843533308
 20
861.4831535205556
 30
0.0
 40
3.811488253428933
100
AcDbArc
 50
285.585224108806
 51
29.4147758911909
  0
ARC
  5
1189B
330
117CF
100
AcDbEntity
  8
SCHRAFF
100
AcDbCircle
 10
667.0103890282181
 20
865.3099878442066
 30
0.0
 40
3.811488253428933
100
AcDbArc
 50
285.585224108806
 51
29.4147758911909
  0
ARC
  5
1189C
330
117CF
100
AcDbEntity
  8
SCHRAFF
100
AcDbCircle
 10
671.6297866907744
 20
863.3965706823811
 30
0.0
 40
3.811488253428933
100
AcDbArc
 50
285.585224108806
 51
29.4147758911909
  0
DIMENSION
  5
118BA
102
{ACAD_XDICTIONARY
360
118C9
102
}
102
{ACAD_REACTORS
330
118D5
102
}
330
117CF
100
AcDbEntity
  8
BEM
100
AcDbDimension
  2
*D14
 10
546.3234959564146
 20
765.3117495174932
 30
0.0
 11
639.1178925447145
 21
1139.337240273194
 31
0.0
 70
    34
 71
     5
 42
0.785398163397451
  3
Standard
100
AcDb2LineAngularDimension
 13
546.3234959564146
 23
915.3117495174932
 33
0.0
 14
652.3895131343969
 24
1021.377766695475
 34
0.0
 15
546.3234959564146
 25
915.3117495174933
 35
0.0
 16
659.4402178867381
 26
1111.235659086453
 36
0.0
1001
ACAD
1000
DSTYLE
1002
{
1070
    40
1040
5.0
1070
    41
1040
3.5
1070
    42
1040
1.0
1070
    43
1040
7.0
1070
    44
1040
1.0
1070
    47
1040
2.399999999999999
1070
    48
1040
2.399999999999999
1070
    73
1070
     0
1070
    74
1070
     0
1070
    77
1070
     1
1070
    78
1070
     8
1070
    79
1070
     2
1070
   140
1040
3.5
1070
   141
1040
1.5
1070
   146
1040
0.5
1070
   147
1040
1.5
1070
   172
1070
     1
1070
   178
1070
     1
1070
   179
1070
     2
1070
   271
1070
     2
1070
   272
1070
     2
1070
   284
1070
     8
1070
   285
1070
     8
1070
   286
1070
     8
1070
   340
1005
117E0
1002
}
  0
ENDSEC
  0
SECTION
  2
OBJECTS
  0
DICTIONARY
  5
117BB
330
0
100
AcDbDictionary
281
     1
  3
ACAD_COLOR
350
117CA
  3
ACAD_GROUP
350
117BC
  3
ACAD_LAYOUT
350
117C8
  3
ACAD_MATERIAL
350
117C9
  3
ACAD_MLINESTYLE
350
117C5
  3
ACAD_PLOTSETTINGS
350
117C7
  3
ACAD_PLOTSTYLENAME
350
117BD
  3
AcDbVariableDictionary
350
1180D
  0
DICTIONARY
  5
118C9
330
118BA
100
AcDbDictionary
280
     1
281
     1
  3
ACAD_DIMASSOC
360
118D5
  0
DICTIONARY
  5
117CA
102
{ACAD_REACTORS
330
117BB
102
}
330
117BB
100
AcDbDictionary
281
     1
  0
DICTIONARY
  5
117BC
102
{ACAD_REACTORS
330
117BB
102
}
330
117BB
100
AcDbDictionary
281
     1
  0
DICTIONARY
  5
117C8
102
{ACAD_REACTORS
330
117BB
102
}
330
117BB
100
AcDbDictionary
281
     1
  3
Layout1
350
117CE
  3
Model
350
117D2
  0
DICTIONARY
  5
117C9
102
{ACAD_REACTORS
330
117BB
102
}
330
117BB
100
AcDbDictionary
281
     1
  0
DICTIONARY
  5
117C5
102
{ACAD_REACTORS
330
117BB
102
}
330
117BB
100
AcDbDictionary
281
     1
  3
Standard
350
117C6
  0
DICTIONARY
  5
117C7
102
{ACAD_REACTORS
330
117BB
102
}
330
117BB
100
AcDbDictionary
281
     1
  0
ACDBDICTIONARYWDFLT
  5
117BD
102
{ACAD_REACTORS
330
117BB
102
}
330
117BB
100
AcDbDictionary
281
     1
  3
Normal
350
117BE
100
AcDbDictionaryWithDefault
340
117BE
  0
DICTIONARY
  5
1180D
102
{ACAD_REACTORS
330
117BB
102
}
330
117BB
100
AcDbDictionary
281
     1
  3
DIMASSOC
350
1180F
  3
HIDETEXT
350
1180E
  3
PROJECTNAME
350
11810
  0
DIMASSOC
  5
118D5
102
{ACAD_REACTORS
330
118C9
102
}
330
118C9
100
AcDbDimAssoc
330
118BA
 90
       15
 70
     0
 71
     0
  1
AcDbOsnapPointRef
 72
    13
331
F519
 73
     2
 91
        0
 40
0.0
 10
0.0
 20
0.0
 30
2.000000000000000E+50
 75
     0
  1
AcDbOsnapPointRef
 72
     1
331
F519
 73
     2
 91
        0
 40
1.0
 10
0.0
 20
0.0
 30
2.000000000000000E+50
 75
     0
  1
AcDbOsnapPointRef
 72
    13
331
F138
 73
     2
 91
        0
 40
0.0
 10
0.0
 20
0.0
 30
2.000000000000000E+50
 75
     0
  1
AcDbOsnapPointRef
 72
     1
331
F138
 73
     2
 91
        0
 40
1.0
 10
0.0
 20
0.0
 30
2.000000000000000E+50
 75
     0
  0
LAYOUT
  5
117CE
102
{ACAD_REACTORS
330
117C8
102
}
330
117C8
100
AcDbPlotSettings
  1

  2
RICOH Aficio 2027 PCL 6
  4

  6

 40
0.0
 41
0.0
 42
0.0
 43
0.0
 44
0.0
 45
0.0
 46
0.0
 47
0.0
 48
0.0
 49
0.0
140
0.0
141
0.0
142
1.0
143
1.0
 70
   688
 72
     0
 73
     0
 74
     5
  7
monochrome1.ctb
 75
    16
147
1.0
 76
     0
 77
     2
 78
   300
148
0.0
149
0.0
100
AcDbLayout
  1
Layout1
 70
     0
 71
     1
 10
0.0
 20
0.0
 11
12.0
 21
9.0
 12
347.1949246436728
 22
50.00000000000001
 32
-2.58105543498411
 14
1.000000000000000E+20
 24
1.000000000000000E+20
 34
1.000000000000000E+20
 15
-1.000000000000000E+20
 25
-1.000000000000000E+20
 35
-1.000000000000000E+20
146
0.0
 13
0.0
 23
0.0
 33
0.0
 16
1.0
 26
0.0
 36
0.0
 17
0.0
 27
1.0
 37
0.0
 76
     0
330
117CB
  0
LAYOUT
  5
117D2
102
{ACAD_REACTORS
330
117C8
102
}
330
117C8
100
AcDbPlotSettings
  1

  2
RICOH Aficio 2027 PCL 6
  4
A4
  6

 40
5.027083396911621
 41
5.027085304260253
 42
5.027084350585937
 43
5.027069091796875
 44
209.9733276367187
 45
296.9259948730469
 46
0.0
 47
0.0
 48
0.0
 49
0.0
140
0.0
141
0.0
142
1.0
143
1.0
 70
 11952
 72
     0
 73
     1
 74
     0
  7
monochrome1.ctb
 75
     0
147
1.0
 76
     0
 77
     2
 78
   300
148
5756.851871210684
149
232.3518454851996
100
AcDbLayout
  1
Model
 70
     1
 71
     0
 10
0.0
 20
0.0
 11
12.0
 21
9.0
 12
0.0
 22
0.0
 32
0.0
 14
0.0
 24
0.0
 34
0.0
 15
0.0
 25
0.0
 35
0.0
146
0.0
 13
0.0
 23
0.0
 33
0.0
 16
1.0
 26
0.0
 36
0.0
 17
0.0
 27
1.0
 37
0.0
 76
     0
330
117CF
  0
MLINESTYLE
  5
117C6
102
{ACAD_REACTORS
330
117C5
102
}
330
117C5
100
AcDbMlineStyle
  2
STANDARD
 70
     0
  3

 62
   256
 51
90.0
 52
90.0
 71
     2
 49
0.5
 62
   256
  6
BYLAYER
 49
-0.5
 62
   256
  6
BYLAYER
  0
ACDBPLACEHOLDER
  5
117BE
102
{ACAD_REACTORS
330
117BD
102
}
330
117BD
  0
DICTIONARYVAR
  5
1180F
102
{ACAD_REACTORS
330
1180D
102
}
330
1180D
100
DictionaryVariables
280
     0
  1
2
  0
DICTIONARYVAR
  5
1180E
102
{ACAD_REACTORS
330
1180D
102
}
330
1180D
100
DictionaryVariables
280
     0
  1
1
  0
DICTIONARYVAR
  5
11810
102
{ACAD_REACTORS
330
1180D
102
}
330
1180D
100
DictionaryVariables
280
     0
  1

  0
ENDSEC
  0
EOF
