  0
SECTION
  2
HEADER
  9
$ACADVER
  1
AC1018
  9
$ACADMAINTVER
 70
     2
  9
$DWGCODEPAGE
  3
ANSI_1252
  9
$INSBASE
 10
0.0
 20
0.0
 30
0.0
  9
$EXTMIN
 10
-0.032025120463004
 20
-0.0452926703683261
 30
-0.0000000000000053
  9
$EXTMAX
 10
1050.032053236514
 20
1485.0453324345
 30
0.0000000000000099
  9
$LIMMIN
 10
0.0
 20
0.0
  9
$LIMMAX
 10
1050.0
 20
1485.0
  9
$ORTHOMODE
 70
     0
  9
$REGENMODE
 70
     1
  9
$FILLMODE
 70
     1
  9
$QTEXTMODE
 70
     0
  9
$MIRRTEXT
 70
     1
  9
$LTSCALE
 40
50.0
  9
$ATTMODE
 70
     1
  9
$TEXTSIZE
 40
2.5
  9
$TRACEWID
 40
0.5
  9
$TEXTSTYLE
  7
GREEKS
  9
$CLAYER
  8
BEM
  9
$CELTYPE
  6
ByLayer
  9
$CECOLOR
 62
   256
  9
$CELTSCALE
 40
1.0
  9
$DISPSILH
 70
     0
  9
$DIMSCALE
 40
5.0
  9
$DIMASZ
 40
3.5
  9
$DIMEXO
 40
1.0
  9
$DIMDLI
 40
7.0
  9
$DIMRND
 40
0.0
  9
$DIMDLE
 40
0.0
  9
$DIMEXE
 40
1.0
  9
$DIMTP
 40
5.0
  9
$DIMTM
 40
5.0
  9
$DIMTXT
 40
3.5
  9
$DIMCEN
 40
1.5
  9
$DIMTSZ
 40
0.0
  9
$DIMTOL
 70
     0
  9
$DIMLIM
 70
     0
  9
$DIMTIH
 70
     0
  9
$DIMTOH
 70
     0
  9
$DIMSE1
 70
     0
  9
$DIMSE2
 70
     0
  9
$DIMTAD
 70
     1
  9
$DIMZIN
 70
     8
  9
$DIMBLK
  1

  9
$DIMASO
 70
     1
  9
$DIMSHO
 70
     0
  9
$DIMPOST
  1

  9
$DIMAPOST
  1

  9
$DIMALT
 70
     0
  9
$DIMALTD
 70
     2
  9
$DIMALTF
 40
25.4
  9
$DIMLFAC
 40
1.0
  9
$DIMTOFL
 70
     1
  9
$DIMTVP
 40
0.0
  9
$DIMTIX
 70
     0
  9
$DIMSOXD
 70
     0
  9
$DIMSAH
 70
     0
  9
$DIMBLK1
  1

  9
$DIMBLK2
  1

  9
$DIMSTYLE
  2
Standard
  9
$DIMCLRD
 70
     0
  9
$DIMCLRE
 70
     0
  9
$DIMCLRT
 70
     1
  9
$DIMTFAC
 40
1.0
  9
$DIMGAP
 40
1.5
  9
$DIMJUST
 70
     0
  9
$DIMSD1
 70
     0
  9
$DIMSD2
 70
     0
  9
$DIMTOLJ
 70
     1
  9
$DIMTZIN
 70
     8
  9
$DIMALTZ
 70
     8
  9
$DIMALTTZ
 70
     8
  9
$DIMUPT
 70
     0
  9
$DIMDEC
 70
     2
  9
$DIMTDEC
 70
     2
  9
$DIMALTU
 70
     2
  9
$DIMALTTD
 70
     2
  9
$DIMTXSTY
  7
GREEKS
  9
$DIMAUNIT
 70
     0
  9
$DIMADEC
 70
     2
  9
$DIMALTRND
 40
0.0
  9
$DIMAZIN
 70
     2
  9
$DIMDSEP
 70
    46
  9
$DIMATFIT
 70
     3
  9
$DIMFRAC
 70
     0
  9
$DIMLDRBLK
  1

  9
$DIMLUNIT
 70
     2
  9
$DIMLWD
 70
    -2
  9
$DIMLWE
 70
    -2
  9
$DIMTMOVE
 70
     0
  9
$LUNITS
 70
     2
  9
$LUPREC
 70
     2
  9
$SKETCHINC
 40
1.0
  9
$FILLETRAD
 40
0.0
  9
$AUNITS
 70
     0
  9
$AUPREC
 70
     2
  9
$MENU
  1
ACAD
  9
$ELEVATION
 40
0.0
  9
$PELEVATION
 40
0.0
  9
$THICKNESS
 40
0.0
  9
$LIMCHECK
 70
     0
  9
$CHAMFERA
 40
0.0
  9
$CHAMFERB
 40
0.0
  9
$CHAMFERC
 40
0.0
  9
$CHAMFERD
 40
0.0
  9
$SKPOLY
 70
     0
  9
$TDCREATE
 40
2452283.552861922
  9
$TDUCREATE
 40
2452283.469528588
  9
$TDUPDATE
 40
2455658.318249398
  9
$TDUUPDATE
 40
2455658.234916065
  9
$TDINDWG
 40
0.0141002315
  9
$TDUSRTIMER
 40
0.0141002315
  9
$USRTIMER
 70
     1
  9
$ANGBASE
 50
0.0
  9
$ANGDIR
 70
     0
  9
$PDMODE
 70
     0
  9
$PDSIZE
 40
0.0
  9
$PLINEWID
 40
0.0
  9
$SPLFRAME
 70
     0
  9
$SPLINETYPE
 70
     6
  9
$SPLINESEGS
 70
     8
  9
$HANDSEED
  5
17185
  9
$SURFTAB1
 70
     6
  9
$SURFTAB2
 70
     6
  9
$SURFTYPE
 70
     6
  9
$SURFU
 70
     6
  9
$SURFV
 70
     6
  9
$UCSBASE
  2

  9
$UCSNAME
  2

  9
$UCSORG
 10
0.0
 20
0.0
 30
0.0
  9
$UCSXDIR
 10
1.0
 20
0.0
 30
0.0
  9
$UCSYDIR
 10
0.0
 20
1.0
 30
0.0
  9
$UCSORTHOREF
  2

  9
$UCSORTHOVIEW
 70
     0
  9
$UCSORGTOP
 10
0.0
 20
0.0
 30
0.0
  9
$UCSORGBOTTOM
 10
0.0
 20
0.0
 30
0.0
  9
$UCSORGLEFT
 10
0.0
 20
0.0
 30
0.0
  9
$UCSORGRIGHT
 10
0.0
 20
0.0
 30
0.0
  9
$UCSORGFRONT
 10
0.0
 20
0.0
 30
0.0
  9
$UCSORGBACK
 10
0.0
 20
0.0
 30
0.0
  9
$PUCSBASE
  2

  9
$PUCSNAME
  2

  9
$PUCSORG
 10
0.0
 20
0.0
 30
0.0
  9
$PUCSXDIR
 10
1.0
 20
0.0
 30
0.0
  9
$PUCSYDIR
 10
0.0
 20
1.0
 30
0.0
  9
$PUCSORTHOREF
  2

  9
$PUCSORTHOVIEW
 70
     0
  9
$PUCSORGTOP
 10
0.0
 20
0.0
 30
0.0
  9
$PUCSORGBOTTOM
 10
0.0
 20
0.0
 30
0.0
  9
$PUCSORGLEFT
 10
0.0
 20
0.0
 30
0.0
  9
$PUCSORGRIGHT
 10
0.0
 20
0.0
 30
0.0
  9
$PUCSORGFRONT
 10
0.0
 20
0.0
 30
0.0
  9
$PUCSORGBACK
 10
0.0
 20
0.0
 30
0.0
  9
$USERI1
 70
     0
  9
$USERI2
 70
     0
  9
$USERI3
 70
     0
  9
$USERI4
 70
     0
  9
$USERI5
 70
     0
  9
$USERR1
 40
0.0
  9
$USERR2
 40
0.0
  9
$USERR3
 40
0.0
  9
$USERR4
 40
0.0
  9
$USERR5
 40
0.0
  9
$WORLDVIEW
 70
     1
  9
$SHADEDGE
 70
     3
  9
$SHADEDIF
 70
    70
  9
$TILEMODE
 70
     1
  9
$MAXACTVP
 70
    16
  9
$PINSBASE
 10
5.612851412409735
 20
50.00000000000001
 30
-2.58105543498411
  9
$PLIMCHECK
 70
     0
  9
$PEXTMIN
 10
1.000000000000000E+20
 20
1.000000000000000E+20
 30
1.000000000000000E+20
  9
$PEXTMAX
 10
-1.000000000000000E+20
 20
-1.000000000000000E+20
 30
-1.000000000000000E+20
  9
$PLIMMIN
 10
0.0
 20
0.0
  9
$PLIMMAX
 10
12.0
 20
9.0
  9
$UNITMODE
 70
     0
  9
$VISRETAIN
 70
     0
  9
$PLINEGEN
 70
     0
  9
$PSLTSCALE
 70
     0
  9
$TREEDEPTH
 70
  3020
  9
$CMLSTYLE
  2
Standard
  9
$CMLJUST
 70
     0
  9
$CMLSCALE
 40
1.0
  9
$PROXYGRAPHICS
 70
     1
  9
$MEASUREMENT
 70
     0
  9
$CELWEIGHT
370
    -1
  9
$ENDCAPS
280
     0
  9
$JOINSTYLE
280
     0
  9
$LWDISPLAY
290
     0
  9
$INSUNITS
 70
     0
  9
$HYPERLINKBASE
  1

  9
$STYLESHEET
  1
monochrome 1.ctb
  9
$XEDIT
290
     1
  9
$CEPSNTYPE
380
     0
  9
$PSTYLEMODE
290
     1
  9
$FINGERPRINTGUID
  2
{3F951308-1689-4D70-A579-883FF263A565}
  9
$VERSIONGUID
  2
{2B6E58D5-027F-4075-8112-F21DC2484251}
  9
$EXTNAMES
290
     1
  9
$PSVPSCALE
 40
0.0
  9
$OLESTARTUP
290
     0
  9
$SORTENTS
280
   127
  9
$INDEXCTL
280
     0
  9
$HIDETEXT
280
     1
  9
$XCLIPFRAME
290
     0
  9
$HALOGAP
280
     0
  9
$OBSCOLOR
 70
   257
  9
$OBSLTYPE
280
     0
  9
$INTERSECTIONDISPLAY
280
     0
  9
$INTERSECTIONCOLOR
 70
   257
  9
$DIMASSOC
280
     2
  9
$PROJECTNAME
  1

  0
ENDSEC
  0
SECTION
  2
CLASSES
  0
CLASS
  1
ACDBDICTIONARYWDFLT
  2
AcDbDictionaryWithDefault
  3
ObjectDBX Classes
 90
        0
 91
        1
280
     0
281
     0
  0
CLASS
  1
DICTIONARYVAR
  2
AcDbDictionaryVar
  3
ObjectDBX Classes
 90
        0
 91
        3
280
     0
281
     0
  0
CLASS
  1
DIMASSOC
  2
AcDbDimAssoc
  3
"AcDbDimAssoc|Product Desc:     AcDim ARX App For Dimension|Company:          Autodesk, Inc.|WEB Address:      www.autodesk.com"
 90
        0
 91
        2
280
     0
281
     0
  0
ENDSEC
  0
SECTION
  2
TABLES
  0
TABLE
  2
VPORT
  5
16FBE
330
0
100
AcDbSymbolTable
 70
     3
  0
VPORT
  5
17184
330
16FBE
100
AcDbSymbolTableRecord
100
AcDbViewportTableRecord
  2
*Active
 70
     0
 10
0.0
 20
0.0
 11
1.0
 21
1.0
 12
524.9999999999998
 22
742.4999999999999
 13
0.0
 23
0.0
 14
1.0
 24
1.0
 15
10.0
 25
10.0
 16
0.0
 26
0.0
 36
1.0
 17
0.0
 27
0.0
 37
0.0
 40
1485.0
 41
1.334231805929919
 42
50.0
 43
0.0
 44
0.0
 50
0.0
 51
0.0
 71
     0
 72
  1500
 73
     1
 74
     0
 75
     0
 76
     0
 77
     0
 78
     0
281
     0
 65
     1
110
0.0
120
0.0
130
0.0
111
1.0
121
0.0
131
0.0
112
0.0
122
1.0
132
0.0
 79
     0
146
0.0
  0
ENDTAB
  0
TABLE
  2
LTYPE
  5
16FBB
330
0
100
AcDbSymbolTable
 70
     2
  0
LTYPE
  5
16FC9
330
16FBB
100
AcDbSymbolTableRecord
100
AcDbLinetypeTableRecord
  2
ByBlock
 70
     0
  3

 72
    65
 73
     0
 40
0.0
  0
LTYPE
  5
16FCA
330
16FBB
100
AcDbSymbolTableRecord
100
AcDbLinetypeTableRecord
  2
ByLayer
 70
     0
  3

 72
    65
 73
     0
 40
0.0
  0
LTYPE
  5
16FCB
330
16FBB
100
AcDbSymbolTableRecord
100
AcDbLinetypeTableRecord
  2
Continuous
 70
     0
  3
Solid line
 72
    65
 73
     0
 40
0.0
  0
LTYPE
  5
16FE5
330
16FBB
100
AcDbSymbolTableRecord
100
AcDbLinetypeTableRecord
  2
STRICHPUNKT
 70
     0
  3
__ . __ . __ . __ . __ . __ . __ . __ . __ . __
 72
    65
 73
     4
 40
1.0
 49
0.5
 74
     0
 49
-0.25
 74
     0
 49
0.0
 74
     0
 49
-0.25
 74
     0
  0
ENDTAB
  0
TABLE
  2
LAYER
  5
16FB8
330
0
100
AcDbSymbolTable
 70
     9
  0
LAYER
  5
16FC6
330
16FB8
100
AcDbSymbolTableRecord
100
AcDbLayerTableRecord
  2
0
 70
     0
 62
     7
  6
Continuous
370
    -3
390
16FC5
  0
LAYER
  5
16FE8
330
16FB8
100
AcDbSymbolTableRecord
100
AcDbLayerTableRecord
  2
VOLL
 70
     0
 62
     1
  6
Continuous
370
    -3
390
16FC5
  0
LAYER
  5
16FE9
330
16FB8
100
AcDbSymbolTableRecord
100
AcDbLayerTableRecord
  2
HILF
 70
     0
 62
     2
  6
Continuous
370
    -3
390
16FC5
  0
LAYER
  5
16FEA
330
16FB8
100
AcDbSymbolTableRecord
100
AcDbLayerTableRecord
  2
MITTEL
 70
     0
 62
     2
  6
STRICHPUNKT
370
    -3
390
16FC5
  0
LAYER
  5
16FEB
330
16FB8
100
AcDbSymbolTableRecord
100
AcDbLayerTableRecord
  2
BEM
 70
     0
 62
     7
  6
Continuous
370
    -3
390
16FC5
  0
LAYER
  5
16FEC
330
16FB8
100
AcDbSymbolTableRecord
100
AcDbLayerTableRecord
  2
STEMPEL
 70
     0
 62
     3
  6
Continuous
370
    -3
390
16FC5
  0
LAYER
  5
16FED
330
16FB8
100
AcDbSymbolTableRecord
100
AcDbLayerTableRecord
  2
TEXT
 70
     0
 62
     7
  6
Continuous
370
    -3
390
16FC5
  0
LAYER
  5
16FEE
330
16FB8
100
AcDbSymbolTableRecord
100
AcDbLayerTableRecord
  2
DEFPOINTS
 70
     0
 62
     7
  6
Continuous
290
     0
370
    -3
390
16FC5
  0
LAYER
  5
16FEF
330
16FB8
100
AcDbSymbolTableRecord
100
AcDbLayerTableRecord
  2
SCHRAFF
 70
     0
 62
     7
  6
Continuous
370
    -3
390
16FC5
  0
ENDTAB
  0
TABLE
  2
STYLE
  5
16FB9
330
0
100
AcDbSymbolTable
 70
     2
  0
STYLE
  5
16FC7
330
16FB9
100
AcDbSymbolTableRecord
100
AcDbTextStyleTableRecord
  2
STANDARD
 70
     0
 40
0.0
 41
1.0
 50
0.0
 71
     0
 42
3.5
  3
txt
  4

  0
STYLE
  5
16FE4
330
16FB9
100
AcDbSymbolTableRecord
100
AcDbTextStyleTableRecord
  2
GREEKS
 70
     0
 40
0.0
 41
0.8
 50
0.0
 71
     0
 42
2.5
  3
SIMPLEX.shx
  4

  0
ENDTAB
  0
TABLE
  2
VIEW
  5
16FBC
330
0
100
AcDbSymbolTable
 70
     0
  0
ENDTAB
  0
TABLE
  2
UCS
  5
16FBD
330
0
100
AcDbSymbolTable
 70
     0
  0
ENDTAB
  0
TABLE
  2
APPID
  5
16FBF
330
0
100
AcDbSymbolTable
 70
     1
  0
APPID
  5
16FC8
330
16FBF
100
AcDbSymbolTableRecord
100
AcDbRegAppTableRecord
  2
ACAD
 70
     0
  0
ENDTAB
  0
TABLE
  2
DIMSTYLE
  5
16FC0
330
0
100
AcDbSymbolTable
 70
     1
100
AcDbDimStyleTable
 71
     1
340
16FF6
  0
DIMSTYLE
105
16FF6
102
{ACAD_REACTORS
330
16F2B
330
16F2E
330
17151
330
17169
102
}
330
16FC0
100
AcDbSymbolTableRecord
100
AcDbDimStyleTableRecord
  2
Standard
 70
     0
340
16FC7
  0
ENDTAB
  0
TABLE
  2
BLOCK_RECORD
  5
16FB7
330
0
100
AcDbSymbolTable
 70
    12
  0
BLOCK_RECORD
  5
16FD6
330
16FB7
100
AcDbSymbolTableRecord
100
AcDbBlockTableRecord
  2
*Model_Space
340
16FD9
  0
BLOCK_RECORD
  5
16FD2
330
16FB7
100
AcDbSymbolTableRecord
100
AcDbBlockTableRecord
  2
*Paper_Space
340
16FD5
  0
BLOCK_RECORD
  5
16FDA
330
16FB7
100
AcDbSymbolTableRecord
100
AcDbBlockTableRecord
  2
LOGO
340
0
102
{BLKREFS
331
16F31
102
}
  0
BLOCK_RECORD
  5
16FDF
330
16FB7
100
AcDbSymbolTableRecord
100
AcDbBlockTableRecord
  2
*X3
340
0
102
{BLKREFS
331
16FB0
102
}
  0
BLOCK_RECORD
  5
16FE0
330
16FB7
100
AcDbSymbolTableRecord
100
AcDbBlockTableRecord
  2
*X4
340
0
102
{BLKREFS
331
16F68
102
}
  0
BLOCK_RECORD
  5
17004
330
16FB7
100
AcDbSymbolTableRecord
100
AcDbBlockTableRecord
  2
*D8
340
0
  0
BLOCK_RECORD
  5
1710F
330
16FB7
100
AcDbSymbolTableRecord
100
AcDbBlockTableRecord
  2
*D9
340
0
  0
BLOCK_RECORD
  5
17152
330
16FB7
100
AcDbSymbolTableRecord
100
AcDbBlockTableRecord
  2
*D10
340
0
  0
BLOCK_RECORD
  5
1716A
330
16FB7
100
AcDbSymbolTableRecord
100
AcDbBlockTableRecord
  2
*D11
340
0
  0
ENDTAB
  0
ENDSEC
  0
SECTION
  2
BLOCKS
  0
BLOCK
  5
16FF3
330
16FD6
100
AcDbEntity
  8
0
100
AcDbBlockBegin
  2
*Model_Space
 70
     0
 10
0.0
 20
0.0
 30
0.0
  3
*Model_Space
  1

  0
ENDBLK
  5
16FF4
330
16FD6
100
AcDbEntity
  8
0
100
AcDbBlockEnd
  0
BLOCK
  5
16FF1
330
16FD2
100
AcDbEntity
 67
     1
  8
0
100
AcDbBlockBegin
  2
*Paper_Space
 70
     0
 10
0.0
 20
0.0
 30
0.0
  3
*Paper_Space
  1

  0
ENDBLK
  5
16FF2
330
16FD2
100
AcDbEntity
 67
     1
  8
0
100
AcDbBlockEnd
  0
BLOCK
  5
44
330
16FDA
100
AcDbEntity
  8
0
100
AcDbBlockBegin
  2
LOGO
 70
     0
 10
0.0
 20
0.0
 30
0.0
  3
LOGO
  1

  0
ARC
  5
45
330
16FDA
100
AcDbEntity
  8
0
100
AcDbCircle
 10
11.59973089678112
 20
-9.271599258481501
 30
0.0
 40
4.5
100
AcDbArc
 50
270.0
 51
231.0575587310159
  0
LINE
  5
46
330
16FDA
100
AcDbEntity
  8
0
100
AcDbLine
 10
3.599730896781125
 20
-4.771599258481529
 30
0.0
 11
3.599730896781153
 21
-11.77159925848133
 31
0.0
  0
LINE
  5
47
330
16FDA
100
AcDbEntity
  8
0
100
AcDbLine
 10
2.599730896781125
 20
-4.771599258481529
 30
0.0
 11
2.599730896781153
 21
-11.77159925848133
 31
0.0
  0
CIRCLE
  5
48
330
16FDA
100
AcDbEntity
  8
0
100
AcDbCircle
 10
11.59973089678112
 20
-9.271599258481501
 30
0.0
 40
3.5
  0
ARC
  5
49
330
16FDA
100
AcDbEntity
  8
0
100
AcDbCircle
 10
31.59973089678115
 20
-9.271599258481472
 30
0.0
 40
4.5
100
AcDbArc
 50
270.0
 51
231.0575587310182
  0
LINE
  5
4A
330
16FDA
100
AcDbEntity
  8
0
100
AcDbLine
 10
17.59973089678112
 20
-4.771599258481472
 30
0.0
 11
17.59973089678115
 21
-13.77159925848147
 31
0.0
  0
ARC
  5
4B
330
16FDA
100
AcDbEntity
  8
0
100
AcDbCircle
 10
22.59973089678116
 20
-7.271599258481472
 30
0.0
 40
2.5
100
AcDbArc
 50
293.1161887722295
 51
90.0
  0
CIRCLE
  5
4C
330
16FDA
100
AcDbEntity
  8
0
100
AcDbCircle
 10
31.59973089678115
 20
-9.271599258481472
 30
0.0
 40
3.5
  0
ARC
  5
4D
330
16FDA
100
AcDbEntity
  8
0
100
AcDbCircle
 10
4.599730896781153
 20
-11.77159925848133
 30
0.0
 40
1.0
100
AcDbArc
 50
180.0
 51
270.0
  0
ARC
  5
4E
330
16FDA
100
AcDbEntity
  8
0
100
AcDbCircle
 10
4.599730896781153
 20
-11.77159925848133
 30
0.0
 40
2.0
100
AcDbArc
 50
179.9999999999992
 51
270.0
  0
LINE
  5
4F
330
16FDA
100
AcDbEntity
  8
0
100
AcDbLine
 10
11.59973089678115
 20
-13.77159925848144
 30
0.0
 11
4.599730896781153
 21
-13.77159925848147
 31
0.0
  0
LINE
  5
50
330
16FDA
100
AcDbEntity
  8
0
100
AcDbLine
 10
8.771303772034769
 20
-12.77159925848136
 30
0.0
 11
4.599730896781153
 21
-12.77159925848133
 31
0.0
  0
LINE
  5
51
330
16FDA
100
AcDbEntity
  8
0
100
AcDbLine
 10
31.59973089678115
 20
-13.77159925848147
 30
0.0
 11
23.6715276665056
 21
-13.77159925848144
 31
0.0
  0
LINE
  5
52
330
16FDA
100
AcDbEntity
  8
0
100
AcDbLine
 10
23.56565672307022
 20
-9.51278021337896
 30
0.0
 11
24.4388546544846
 21
-12.77159925848144
 31
0.0
  0
LINE
  5
53
330
16FDA
100
AcDbEntity
  8
0
100
AcDbLine
 10
22.59973089678116
 20
-9.771599258481472
 30
0.0
 11
18.59973089678112
 21
-9.771599258481472
 31
0.0
  0
LINE
  5
54
330
16FDA
100
AcDbEntity
  8
0
100
AcDbLine
 10
18.59973089678115
 20
-13.77159925848144
 30
0.0
 11
17.59973089678115
 21
-13.77159925848144
 31
0.0
  0
LINE
  5
55
330
16FDA
100
AcDbEntity
  8
0
100
AcDbLine
 10
18.59973089678115
 20
-9.771599258481472
 30
0.0
 11
18.59973089678115
 21
-13.77159925848144
 31
0.0
  0
LINE
  5
56
330
16FDA
100
AcDbEntity
  8
0
100
AcDbLine
 10
22.59973089678116
 20
-9.771599258481472
 30
0.0
 11
23.67152766650562
 21
-13.77159925848147
 31
0.0
  0
ARC
  5
57
330
16FDA
100
AcDbEntity
  8
0
100
AcDbCircle
 10
22.59973089678116
 20
-7.271599258481472
 30
0.0
 40
2.5
100
AcDbArc
 50
270.0
 51
270.0000000000007
  0
LINE
  5
58
330
16FDA
100
AcDbEntity
  8
0
100
AcDbLine
 10
28.77130377203494
 20
-12.77159925848147
 30
0.0
 11
24.43885465448463
 21
-12.77159925848144
 31
0.0
  0
LINE
  5
59
330
16FDA
100
AcDbEntity
  8
0
100
AcDbLine
 10
3.599730896781125
 20
-4.771599258481472
 30
0.0
 11
2.599730896781125
 21
-4.771599258481472
 31
0.0
  0
LINE
  5
5A
330
16FDA
100
AcDbEntity
  8
0
100
AcDbLine
 10
22.59973089678116
 20
-8.771599258481472
 30
0.0
 11
18.59973089678115
 21
-8.771599258481472
 31
0.0
  0
LINE
  5
5B
330
16FDA
100
AcDbEntity
  8
0
100
AcDbLine
 10
22.59973089678116
 20
-5.771599258481472
 30
0.0
 11
18.59973089678115
 21
-5.771599258481472
 31
0.0
  0
LINE
  5
5C
330
16FDA
100
AcDbEntity
  8
0
100
AcDbLine
 10
22.59973089678116
 20
-4.771599258481472
 30
0.0
 11
17.59973089678115
 21
-4.771599258481472
 31
0.0
  0
LINE
  5
5D
330
16FDA
100
AcDbEntity
  8
0
100
AcDbLine
 10
18.59973089678115
 20
-5.771599258481472
 30
0.0
 11
18.59973089678115
 21
-8.771599258481472
 31
0.0
  0
ARC
  5
5E
330
16FDA
100
AcDbEntity
  8
0
100
AcDbCircle
 10
22.59973089678116
 20
-7.271599258481472
 30
0.0
 40
1.5
100
AcDbArc
 50
270.0
 51
90.0
  0
ENDBLK
  5
5F
330
16FDA
100
AcDbEntity
  8
0
100
AcDbBlockEnd
  0
BLOCK
  5
15B0B
330
16FDF
100
AcDbEntity
  8
0
100
AcDbBlockBegin
  2
*X3
 70
     1
 10
0.0
 20
0.0
 30
0.0
  3
*X3
  1

  0
LINE
  5
15B0D
330
16FDF
100
AcDbEntity
  8
0
 62
     0
100
AcDbLine
 10
1625.042623245858
 20
712.2
 30
0.0
 11
1628.586632953296
 21
712.2
 31
0.0
  0
LINE
  5
15B0E
330
16FDF
100
AcDbEntity
  8
0
 62
     0
100
AcDbLine
 10
1625.042623245858
 20
712.3000000000001
 30
0.0
 11
1628.643782035693
 21
712.3000000000001
 31
0.0
  0
LINE
  5
15B0F
330
16FDF
100
AcDbEntity
  8
0
 62
     0
100
AcDbLine
 10
1625.042623245858
 20
712.4000000000001
 30
0.0
 11
1628.699020593805
 21
712.4000000000001
 31
0.0
  0
LINE
  5
15B10
330
16FDF
100
AcDbEntity
  8
0
 62
     0
100
AcDbLine
 10
1625.042623245858
 20
712.5
 30
0.0
 11
1628.752393882296
 21
712.5
 31
0.0
  0
LINE
  5
15B11
330
16FDF
100
AcDbEntity
  8
0
 62
     0
100
AcDbLine
 10
1625.042623245858
 20
712.6
 30
0.0
 11
1628.803944279664
 21
712.6
 31
0.0
  0
LINE
  5
15B12
330
16FDF
100
AcDbEntity
  8
0
 62
     0
100
AcDbLine
 10
1625.042623245858
 20
712.7
 30
0.0
 11
1628.853711506587
 21
712.7
 31
0.0
  0
LINE
  5
15B13
330
16FDF
100
AcDbEntity
  8
0
 62
     0
100
AcDbLine
 10
1625.042623245858
 20
712.8000000000001
 30
0.0
 11
1628.901732822093
 21
712.8000000000001
 31
0.0
  0
LINE
  5
15B14
330
16FDF
100
AcDbEntity
  8
0
 62
     0
100
AcDbLine
 10
1625.042623245858
 20
712.9000000000001
 30
0.0
 11
1628.948043200221
 21
712.9000000000001
 31
0.0
  0
LINE
  5
15B15
330
16FDF
100
AcDbEntity
  8
0
 62
     0
100
AcDbLine
 10
1625.042623245858
 20
713.0
 30
0.0
 11
1628.992675489427
 21
713.0
 31
0.0
  0
LINE
  5
15B16
330
16FDF
100
AcDbEntity
  8
0
 62
     0
100
AcDbLine
 10
1625.042623245858
 20
713.1
 30
0.0
 11
1629.035660556711
 21
713.1
 31
0.0
  0
LINE
  5
15B17
330
16FDF
100
AcDbEntity
  8
0
 62
     0
100
AcDbLine
 10
1625.042623245858
 20
713.2
 30
0.0
 11
1629.07702741817
 21
713.2
 31
0.0
  0
LINE
  5
15B18
330
16FDF
100
AcDbEntity
  8
0
 62
     0
100
AcDbLine
 10
1625.042623245858
 20
713.3
 30
0.0
 11
1629.116803357438
 21
713.3
 31
0.0
  0
LINE
  5
15B19
330
16FDF
100
AcDbEntity
  8
0
 62
     0
100
AcDbLine
 10
1625.042623245858
 20
713.4000000000001
 30
0.0
 11
1629.155014033323
 21
713.4000000000001
 31
0.0
  0
LINE
  5
15B1A
330
16FDF
100
AcDbEntity
  8
0
 62
     0
100
AcDbLine
 10
1625.042623245858
 20
713.4999999999999
 30
0.0
 11
1629.191683577757
 21
713.4999999999999
 31
0.0
  0
LINE
  5
15B1B
330
16FDF
100
AcDbEntity
  8
0
 62
     0
100
AcDbLine
 10
1625.042623245858
 20
713.6
 30
0.0
 11
1629.226834685037
 21
713.6
 31
0.0
  0
LINE
  5
15B1C
330
16FDF
100
AcDbEntity
  8
0
 62
     0
100
AcDbLine
 10
1625.042623245858
 20
713.7
 30
0.0
 11
1629.260488693241
 21
713.7
 31
0.0
  0
LINE
  5
15B1D
330
16FDF
100
AcDbEntity
  8
0
 62
     0
100
AcDbLine
 10
1625.042623245858
 20
713.8
 30
0.0
 11
1629.292665658562
 21
713.8
 31
0.0
  0
LINE
  5
15B1E
330
16FDF
100
AcDbEntity
  8
0
 62
     0
100
AcDbLine
 10
1625.12862661815
 20
713.9000000000001
 30
0.0
 11
1629.32338442325
 21
713.9000000000001
 31
0.0
  0
LINE
  5
15B1F
330
16FDF
100
AcDbEntity
  8
0
 62
     0
100
AcDbLine
 10
1625.403374360096
 20
714.0
 30
0.0
 11
1629.352662677734
 21
714.0
 31
0.0
  0
LINE
  5
15B20
330
16FDF
100
AcDbEntity
  8
0
 62
     0
100
AcDbLine
 10
1625.678122102041
 20
714.1
 30
0.0
 11
1629.380517017475
 21
714.1
 31
0.0
  0
LINE
  5
15B21
330
16FDF
100
AcDbEntity
  8
0
 62
     0
100
AcDbLine
 10
1625.952869843986
 20
714.2
 30
0.0
 11
1629.406962994994
 21
714.2
 31
0.0
  0
LINE
  5
15B22
330
16FDF
100
AcDbEntity
  8
0
 62
     0
100
AcDbLine
 10
1626.227617585932
 20
714.3
 30
0.0
 11
1629.432015167498
 21
714.3
 31
0.0
  0
LINE
  5
15B23
330
16FDF
100
AcDbEntity
  8
0
 62
     0
100
AcDbLine
 10
1626.502365327878
 20
714.4000000000001
 30
0.0
 11
1629.455687140478
 21
714.4000000000001
 31
0.0
  0
LINE
  5
15B24
330
16FDF
100
AcDbEntity
  8
0
 62
     0
100
AcDbLine
 10
1626.777113069823
 20
714.5
 30
0.0
 11
1629.477991607592
 21
714.5
 31
0.0
  0
LINE
  5
15B25
330
16FDF
100
AcDbEntity
  8
0
 62
     0
100
AcDbLine
 10
1627.051860811768
 20
714.6
 30
0.0
 11
1629.498940387133
 21
714.6
 31
0.0
  0
LINE
  5
15B26
330
16FDF
100
AcDbEntity
  8
0
 62
     0
100
AcDbLine
 10
1627.326608553714
 20
714.7
 30
0.0
 11
1629.518544455351
 21
714.7
 31
0.0
  0
LINE
  5
15B27
330
16FDF
100
AcDbEntity
  8
0
 62
     0
100
AcDbLine
 10
1627.601356295659
 20
714.8
 30
0.0
 11
1629.536813976832
 21
714.8
 31
0.0
  0
LINE
  5
15B28
330
16FDF
100
AcDbEntity
  8
0
 62
     0
100
AcDbLine
 10
1627.876104037605
 20
714.9
 30
0.0
 11
1629.553758332179
 21
714.9
 31
0.0
  0
LINE
  5
15B29
330
16FDF
100
AcDbEntity
  8
0
 62
     0
100
AcDbLine
 10
1628.15085177955
 20
715.0
 30
0.0
 11
1629.569386143143
 21
715.0
 31
0.0
  0
LINE
  5
15B2A
330
16FDF
100
AcDbEntity
  8
0
 62
     0
100
AcDbLine
 10
1628.425599521496
 20
715.1
 30
0.0
 11
1629.583705295394
 21
715.1
 31
0.0
  0
LINE
  5
15B2B
330
16FDF
100
AcDbEntity
  8
0
 62
     0
100
AcDbLine
 10
1628.700347263441
 20
715.2000000000001
 30
0.0
 11
1629.596722959061
 21
715.2000000000001
 31
0.0
  0
LINE
  5
15B2C
330
16FDF
100
AcDbEntity
  8
0
 62
     0
100
AcDbLine
 10
1628.975095005387
 20
715.3
 30
0.0
 11
1629.608445607175
 21
715.3
 31
0.0
  0
LINE
  5
15B2D
330
16FDF
100
AcDbEntity
  8
0
 62
     0
100
AcDbLine
 10
1629.249842747332
 20
715.4
 30
0.0
 11
1629.618879032135
 21
715.4
 31
0.0
  0
LINE
  5
15B2E
330
16FDF
100
AcDbEntity
  8
0
 62
     0
100
AcDbLine
 10
1629.524590489277
 20
715.5
 30
0.0
 11
1629.628028360281
 21
715.5
 31
0.0
  0
LINE
  5
15B2F
330
16FDF
100
AcDbEntity
  8
0
 62
     0
100
AcDbLine
 10
1625.042623245858
 20
712.1
 30
0.0
 11
1628.527524972195
 21
712.1
 31
0.0
  0
LINE
  5
15B30
330
16FDF
100
AcDbEntity
  8
0
 62
     0
100
AcDbLine
 10
1625.042623245858
 20
712.0
 30
0.0
 11
1628.466406325775
 21
712.0
 31
0.0
  0
LINE
  5
15B31
330
16FDF
100
AcDbEntity
  8
0
 62
     0
100
AcDbLine
 10
1625.042623245858
 20
711.9
 30
0.0
 11
1628.403221549691
 21
711.9
 31
0.0
  0
LINE
  5
15B32
330
16FDF
100
AcDbEntity
  8
0
 62
     0
100
AcDbLine
 10
1625.042623245858
 20
711.8000000000001
 30
0.0
 11
1628.337911138238
 21
711.8000000000001
 31
0.0
  0
LINE
  5
15B33
330
16FDF
100
AcDbEntity
  8
0
 62
     0
100
AcDbLine
 10
1625.042623245858
 20
711.7
 30
0.0
 11
1628.270411156708
 21
711.7
 31
0.0
  0
LINE
  5
15B34
330
16FDF
100
AcDbEntity
  8
0
 62
     0
100
AcDbLine
 10
1625.042623245858
 20
711.6
 30
0.0
 11
1628.200652802689
 21
711.6
 31
0.0
  0
LINE
  5
15B35
330
16FDF
100
AcDbEntity
  8
0
 62
     0
100
AcDbLine
 10
1625.042623245858
 20
711.5
 30
0.0
 11
1628.128561907856
 21
711.5
 31
0.0
  0
LINE
  5
15B36
330
16FDF
100
AcDbEntity
  8
0
 62
     0
100
AcDbLine
 10
1625.042623245858
 20
711.4
 30
0.0
 11
1628.054058370137
 21
711.4
 31
0.0
  0
LINE
  5
15B37
330
16FDF
100
AcDbEntity
  8
0
 62
     0
100
AcDbLine
 10
1625.042623245858
 20
711.3
 30
0.0
 11
1627.977055503998
 21
711.3
 31
0.0
  0
LINE
  5
15B38
330
16FDF
100
AcDbEntity
  8
0
 62
     0
100
AcDbLine
 10
1625.042623245858
 20
711.2
 30
0.0
 11
1627.897459293951
 21
711.2
 31
0.0
  0
LINE
  5
15B39
330
16FDF
100
AcDbEntity
  8
0
 62
     0
100
AcDbLine
 10
1625.042623245858
 20
711.1
 30
0.0
 11
1627.815167533082
 21
711.1
 31
0.0
  0
LINE
  5
15B3A
330
16FDF
100
AcDbEntity
  8
0
 62
     0
100
AcDbLine
 10
1625.042623245858
 20
711.0
 30
0.0
 11
1627.730068824173
 21
711.0
 31
0.0
  0
LINE
  5
15B3B
330
16FDF
100
AcDbEntity
  8
0
 62
     0
100
AcDbLine
 10
1625.042623245858
 20
710.9
 30
0.0
 11
1627.642041415643
 21
710.9
 31
0.0
  0
LINE
  5
15B3C
330
16FDF
100
AcDbEntity
  8
0
 62
     0
100
AcDbLine
 10
1625.042623245858
 20
710.8
 30
0.0
 11
1627.550951837579
 21
710.8
 31
0.0
  0
LINE
  5
15B3D
330
16FDF
100
AcDbEntity
  8
0
 62
     0
100
AcDbLine
 10
1625.042623245858
 20
710.7
 30
0.0
 11
1627.456653294208
 21
710.7
 31
0.0
  0
LINE
  5
15B3E
330
16FDF
100
AcDbEntity
  8
0
 62
     0
100
AcDbLine
 10
1625.042623245858
 20
710.6
 30
0.0
 11
1627.358983757314
 21
710.6
 31
0.0
  0
LINE
  5
15B3F
330
16FDF
100
AcDbEntity
  8
0
 62
     0
100
AcDbLine
 10
1625.042623245858
 20
710.5
 30
0.0
 11
1627.257763689566
 21
710.5
 31
0.0
  0
LINE
  5
15B40
330
16FDF
100
AcDbEntity
  8
0
 62
     0
100
AcDbLine
 10
1625.042623245858
 20
710.4
 30
0.0
 11
1627.152793305753
 21
710.4
 31
0.0
  0
LINE
  5
15B41
330
16FDF
100
AcDbEntity
  8
0
 62
     0
100
AcDbLine
 10
1625.042623245858
 20
710.3
 30
0.0
 11
1627.043849251641
 21
710.3
 31
0.0
  0
LINE
  5
15B42
330
16FDF
100
AcDbEntity
  8
0
 62
     0
100
AcDbLine
 10
1625.042623245858
 20
710.2
 30
0.0
 11
1626.930680541148
 21
710.2
 31
0.0
  0
LINE
  5
15B43
330
16FDF
100
AcDbEntity
  8
0
 62
     0
100
AcDbLine
 10
1625.042623245858
 20
710.0999999999999
 30
0.0
 11
1626.813003538302
 21
710.0999999999999
 31
0.0
  0
LINE
  5
15B44
330
16FDF
100
AcDbEntity
  8
0
 62
     0
100
AcDbLine
 10
1625.042623245858
 20
710.0
 30
0.0
 11
1626.690495693602
 21
710.0
 31
0.0
  0
LINE
  5
15B45
330
16FDF
100
AcDbEntity
  8
0
 62
     0
100
AcDbLine
 10
1625.042623245858
 20
709.9000000000001
 30
0.0
 11
1626.562787633727
 21
709.9000000000001
 31
0.0
  0
LINE
  5
15B46
330
16FDF
100
AcDbEntity
  8
0
 62
     0
100
AcDbLine
 10
1625.042623245858
 20
709.8
 30
0.0
 11
1626.429453041146
 21
709.8
 31
0.0
  0
LINE
  5
15B47
330
16FDF
100
AcDbEntity
  8
0
 62
     0
100
AcDbLine
 10
1625.042623245858
 20
709.7
 30
0.0
 11
1626.289995516732
 21
709.7
 31
0.0
  0
LINE
  5
15B48
330
16FDF
100
AcDbEntity
  8
0
 62
     0
100
AcDbLine
 10
1625.042623245858
 20
709.6
 30
0.0
 11
1626.14383124477
 21
709.6
 31
0.0
  0
LINE
  5
15B49
330
16FDF
100
AcDbEntity
  8
0
 62
     0
100
AcDbLine
 10
1625.042623245858
 20
709.4999999999999
 30
0.0
 11
1625.990265690742
 21
709.4999999999999
 31
0.0
  0
LINE
  5
15B4A
330
16FDF
100
AcDbEntity
  8
0
 62
     0
100
AcDbLine
 10
1625.042623245858
 20
709.4000000000001
 30
0.0
 11
1625.828461605306
 21
709.4000000000001
 31
0.0
  0
LINE
  5
15B4B
330
16FDF
100
AcDbEntity
  8
0
 62
     0
100
AcDbLine
 10
1625.042623245858
 20
709.3
 30
0.0
 11
1625.657393998478
 21
709.3
 31
0.0
  0
LINE
  5
15B4C
330
16FDF
100
AcDbEntity
  8
0
 62
     0
100
AcDbLine
 10
1625.042623245858
 20
709.2
 30
0.0
 11
1625.475784930411
 21
709.2
 31
0.0
  0
LINE
  5
15B4D
330
16FDF
100
AcDbEntity
  8
0
 62
     0
100
AcDbLine
 10
1625.042623245858
 20
709.1
 30
0.0
 11
1625.282005795008
 21
709.1
 31
0.0
  0
LINE
  5
15B4E
330
16FDF
100
AcDbEntity
  8
0
 62
     0
100
AcDbLine
 10
1625.042623245858
 20
709.0
 30
0.0
 11
1625.073924738206
 21
709.0
 31
0.0
  0
ENDBLK
  5
15B4F
330
16FDF
100
AcDbEntity
  8
0
100
AcDbBlockEnd
  0
BLOCK
  5
15B5C
330
16FE0
100
AcDbEntity
  8
0
100
AcDbBlockBegin
  2
*X4
 70
     1
 10
0.0
 20
0.0
 30
0.0
  3
*X4
  1

  0
LINE
  5
15B5E
330
16FE0
100
AcDbEntity
  8
0
 62
     0
100
AcDbLine
 10
1299.562064409386
 20
939.0
 30
0.0
 11
1301.142623245858
 21
939.0
 31
0.0
  0
LINE
  5
15B5F
330
16FE0
100
AcDbEntity
  8
0
 62
     0
100
AcDbLine
 10
1299.564069707306
 20
939.1
 30
0.0
 11
1301.142623245858
 21
939.1
 31
0.0
  0
LINE
  5
15B60
330
16FE0
100
AcDbEntity
  8
0
 62
     0
100
AcDbLine
 10
1299.568577462939
 20
939.2000000000001
 30
0.0
 11
1301.142623245858
 21
939.2000000000001
 31
0.0
  0
LINE
  5
15B61
330
16FE0
100
AcDbEntity
  8
0
 62
     0
100
AcDbLine
 10
1299.575596159087
 20
939.3
 30
0.0
 11
1301.142623245858
 21
939.3
 31
0.0
  0
LINE
  5
15B62
330
16FE0
100
AcDbEntity
  8
0
 62
     0
100
AcDbLine
 10
1299.585139080244
 20
939.4000000000001
 30
0.0
 11
1301.142623245858
 21
939.4000000000001
 31
0.0
  0
LINE
  5
15B63
330
16FE0
100
AcDbEntity
  8
0
 62
     0
100
AcDbLine
 10
1299.597224439432
 20
939.4999999999999
 30
0.0
 11
1301.142623245858
 21
939.4999999999999
 31
0.0
  0
LINE
  5
15B64
330
16FE0
100
AcDbEntity
  8
0
 62
     0
100
AcDbLine
 10
1299.611875554525
 20
939.6
 30
0.0
 11
1301.142623245858
 21
939.6
 31
0.0
  0
LINE
  5
15B65
330
16FE0
100
AcDbEntity
  8
0
 62
     0
100
AcDbLine
 10
1299.629121078083
 20
939.7
 30
0.0
 11
1301.142623245858
 21
939.7
 31
0.0
  0
LINE
  5
15B66
330
16FE0
100
AcDbEntity
  8
0
 62
     0
100
AcDbLine
 10
1299.648995286124
 20
939.8000000000001
 30
0.0
 11
1301.142623245858
 21
939.8000000000001
 31
0.0
  0
LINE
  5
15B67
330
16FE0
100
AcDbEntity
  8
0
 62
     0
100
AcDbLine
 10
1299.67153843282
 20
939.9
 30
0.0
 11
1301.142623245858
 21
939.9
 31
0.0
  0
LINE
  5
15B68
330
16FE0
100
AcDbEntity
  8
0
 62
     0
100
AcDbLine
 10
1299.696797180026
 20
940.0
 30
0.0
 11
1301.142623245858
 21
940.0
 31
0.0
  0
LINE
  5
15B69
330
16FE0
100
AcDbEntity
  8
0
 62
     0
100
AcDbLine
 10
1299.724825112884
 20
940.0999999999999
 30
0.0
 11
1301.142623245858
 21
940.0999999999999
 31
0.0
  0
LINE
  5
15B6A
330
16FE0
100
AcDbEntity
  8
0
 62
     0
100
AcDbLine
 10
1299.75568335561
 20
940.2000000000001
 30
0.0
 11
1301.142623245858
 21
940.2000000000001
 31
0.0
  0
LINE
  5
15B6B
330
16FE0
100
AcDbEntity
  8
0
 62
     0
100
AcDbLine
 10
1299.789441305201
 20
940.3
 30
0.0
 11
1301.142623245858
 21
940.3
 31
0.0
  0
LINE
  5
15B6C
330
16FE0
100
AcDbEntity
  8
0
 62
     0
100
AcDbLine
 10
1299.826177505376
 20
940.4000000000001
 30
0.0
 11
1301.142623245858
 21
940.4000000000001
 31
0.0
  0
LINE
  5
15B6D
330
16FE0
100
AcDbEntity
  8
0
 62
     0
100
AcDbLine
 10
1299.865980688972
 20
940.4999999999999
 30
0.0
 11
1301.142623245858
 21
940.4999999999999
 31
0.0
  0
LINE
  5
15B6E
330
16FE0
100
AcDbEntity
  8
0
 62
     0
100
AcDbLine
 10
1299.908951024678
 20
940.6
 30
0.0
 11
1301.142623245858
 21
940.6
 31
0.0
  0
LINE
  5
15B6F
330
16FE0
100
AcDbEntity
  8
0
 62
     0
100
AcDbLine
 10
1299.955201614056
 20
940.7
 30
0.0
 11
1301.236260137634
 21
940.7
 31
0.0
  0
LINE
  5
15B70
330
16FE0
100
AcDbEntity
  8
0
 62
     0
100
AcDbLine
 10
1300.004860298224
 20
940.8000000000001
 30
0.0
 11
1301.51100787958
 21
940.8000000000001
 31
0.0
  0
LINE
  5
15B71
330
16FE0
100
AcDbEntity
  8
0
 62
     0
100
AcDbLine
 10
1300.058071851561
 20
940.9
 30
0.0
 11
1301.785755621525
 21
940.9
 31
0.0
  0
LINE
  5
15B72
330
16FE0
100
AcDbEntity
  8
0
 62
     0
100
AcDbLine
 10
1300.115000664471
 20
941.0
 30
0.0
 11
1302.060503363471
 21
941.0
 31
0.0
  0
LINE
  5
15B73
330
16FE0
100
AcDbEntity
  8
0
 62
     0
100
AcDbLine
 10
1300.175834051213
 20
941.0999999999999
 30
0.0
 11
1302.335251105416
 21
941.0999999999999
 31
0.0
  0
LINE
  5
15B74
330
16FE0
100
AcDbEntity
  8
0
 62
     0
100
AcDbLine
 10
1300.240786366656
 20
941.2
 30
0.0
 11
1302.609998847361
 21
941.2
 31
0.0
  0
LINE
  5
15B75
330
16FE0
100
AcDbEntity
  8
0
 62
     0
100
AcDbLine
 10
1300.310104184073
 20
941.3
 30
0.0
 11
1302.884746589307
 21
941.3
 31
0.0
  0
LINE
  5
15B76
330
16FE0
100
AcDbEntity
  8
0
 62
     0
100
AcDbLine
 10
1300.384072885406
 20
941.4000000000001
 30
0.0
 11
1303.159494331252
 21
941.4000000000001
 31
0.0
  0
LINE
  5
15B77
330
16FE0
100
AcDbEntity
  8
0
 62
     0
100
AcDbLine
 10
1300.46302516279
 20
941.5
 30
0.0
 11
1303.434242073198
 21
941.5
 31
0.0
  0
LINE
  5
15B78
330
16FE0
100
AcDbEntity
  8
0
 62
     0
100
AcDbLine
 10
1300.547352153887
 20
941.6
 30
0.0
 11
1303.708989815143
 21
941.6
 31
0.0
  0
LINE
  5
15B79
330
16FE0
100
AcDbEntity
  8
0
 62
     0
100
AcDbLine
 10
1300.637518281851
 20
941.6999999999999
 30
0.0
 11
1303.983737557089
 21
941.6999999999999
 31
0.0
  0
LINE
  5
15B7A
330
16FE0
100
AcDbEntity
  8
0
 62
     0
100
AcDbLine
 10
1300.734081428807
 20
941.8000000000001
 30
0.0
 11
1304.258485299034
 21
941.8000000000001
 31
0.0
  0
LINE
  5
15B7B
330
16FE0
100
AcDbEntity
  8
0
 62
     0
100
AcDbLine
 10
1300.837720995317
 20
941.9
 30
0.0
 11
1304.53323304098
 21
941.9
 31
0.0
  0
LINE
  5
15B7C
330
16FE0
100
AcDbEntity
  8
0
 62
     0
100
AcDbLine
 10
1300.949277985734
 20
942.0
 30
0.0
 11
1304.807980782925
 21
942.0
 31
0.0
  0
LINE
  5
15B7D
330
16FE0
100
AcDbEntity
  8
0
 62
     0
100
AcDbLine
 10
1301.069814109887
 20
942.1000000000001
 30
0.0
 11
1305.082728524871
 21
942.1000000000001
 31
0.0
  0
LINE
  5
15B7E
330
16FE0
100
AcDbEntity
  8
0
 62
     0
100
AcDbLine
 10
1301.200702283317
 20
942.2
 30
0.0
 11
1305.357476266816
 21
942.2
 31
0.0
  0
LINE
  5
15B7F
330
16FE0
100
AcDbEntity
  8
0
 62
     0
100
AcDbLine
 10
1301.343771764617
 20
942.3
 30
0.0
 11
1305.632224008762
 21
942.3
 31
0.0
  0
LINE
  5
15B80
330
16FE0
100
AcDbEntity
  8
0
 62
     0
100
AcDbLine
 10
1301.501554776232
 20
942.4000000000001
 30
0.0
 11
1305.628454554005
 21
942.4000000000001
 31
0.0
  0
LINE
  5
15B81
330
16FE0
100
AcDbEntity
  8
0
 62
     0
100
AcDbLine
 10
1301.677738046534
 20
942.5
 30
0.0
 11
1305.452271283702
 21
942.5
 31
0.0
  0
LINE
  5
15B82
330
16FE0
100
AcDbEntity
  8
0
 62
     0
100
AcDbLine
 10
1301.878076944291
 20
942.6
 30
0.0
 11
1305.251932385946
 21
942.6
 31
0.0
  0
LINE
  5
15B83
330
16FE0
100
AcDbEntity
  8
0
 62
     0
100
AcDbLine
 10
1302.112532640957
 20
942.7000000000001
 30
0.0
 11
1305.01747668928
 21
942.7000000000001
 31
0.0
  0
LINE
  5
15B84
330
16FE0
100
AcDbEntity
  8
0
 62
     0
100
AcDbLine
 10
1302.401550829915
 20
942.8
 30
0.0
 11
1304.728458500321
 21
942.8
 31
0.0
  0
LINE
  5
15B85
330
16FE0
100
AcDbEntity
  8
0
 62
     0
100
AcDbLine
 10
1302.805021328246
 20
942.9
 30
0.0
 11
1304.324988001991
 21
942.9
 31
0.0
  0
LINE
  5
15B86
330
16FE0
100
AcDbEntity
  8
0
 62
     0
100
AcDbLine
 10
1299.562557807846
 20
938.9000000000001
 30
0.0
 11
1301.142623245858
 21
938.9000000000001
 31
0.0
  0
LINE
  5
15B87
330
16FE0
100
AcDbEntity
  8
0
 62
     0
100
AcDbLine
 10
1299.565550827453
 20
938.8000000000001
 30
0.0
 11
1301.142623245858
 21
938.8000000000001
 31
0.0
  0
LINE
  5
15B88
330
16FE0
100
AcDbEntity
  8
0
 62
     0
100
AcDbLine
 10
1299.571049087757
 20
938.7
 30
0.0
 11
1301.142623245858
 21
938.7
 31
0.0
  0
LINE
  5
15B89
330
16FE0
100
AcDbEntity
  8
0
 62
     0
100
AcDbLine
 10
1299.579062956028
 20
938.6000000000001
 30
0.0
 11
1301.142623245858
 21
938.6000000000001
 31
0.0
  0
LINE
  5
15B8A
330
16FE0
100
AcDbEntity
  8
0
 62
     0
100
AcDbLine
 10
1299.589607645626
 20
938.4999999999999
 30
0.0
 11
1301.142623245858
 21
938.4999999999999
 31
0.0
  0
LINE
  5
15B8B
330
16FE0
100
AcDbEntity
  8
0
 62
     0
100
AcDbLine
 10
1299.602703361973
 20
938.4
 30
0.0
 11
1301.142623245858
 21
938.4
 31
0.0
  0
LINE
  5
15B8C
330
16FE0
100
AcDbEntity
  8
0
 62
     0
100
AcDbLine
 10
1299.618375499459
 20
938.3
 30
0.0
 11
1301.142623245858
 21
938.3
 31
0.0
  0
LINE
  5
15B8D
330
16FE0
100
AcDbEntity
  8
0
 62
     0
100
AcDbLine
 10
1299.636654893833
 20
938.2000000000001
 30
0.0
 11
1301.142623245858
 21
938.2000000000001
 31
0.0
  0
LINE
  5
15B8E
330
16FE0
100
AcDbEntity
  8
0
 62
     0
100
AcDbLine
 10
1299.657578136073
 20
938.1
 30
0.0
 11
1301.142623245858
 21
938.1
 31
0.0
  0
LINE
  5
15B8F
330
16FE0
100
AcDbEntity
  8
0
 62
     0
100
AcDbLine
 10
1299.681187955462
 20
938.0
 30
0.0
 11
1301.142623245858
 21
938.0
 31
0.0
  0
LINE
  5
15B90
330
16FE0
100
AcDbEntity
  8
0
 62
     0
100
AcDbLine
 10
1299.70753368162
 20
937.9000000000001
 30
0.0
 11
1301.142623245858
 21
937.9000000000001
 31
0.0
  0
LINE
  5
15B91
330
16FE0
100
AcDbEntity
  8
0
 62
     0
100
AcDbLine
 10
1299.736671797818
 20
937.8
 30
0.0
 11
1301.142623245858
 21
937.8
 31
0.0
  0
LINE
  5
15B92
330
16FE0
100
AcDbEntity
  8
0
 62
     0
100
AcDbLine
 10
1299.768666600986
 20
937.7
 30
0.0
 11
1301.142623245858
 21
937.7
 31
0.0
  0
LINE
  5
15B93
330
16FE0
100
AcDbEntity
  8
0
 62
     0
100
AcDbLine
 10
1299.803590987855
 20
937.6000000000001
 30
0.0
 11
1301.142623245858
 21
937.6000000000001
 31
0.0
  0
LINE
  5
15B94
330
16FE0
100
AcDbEntity
  8
0
 62
     0
100
AcDbLine
 10
1299.841527391678
 20
937.5
 30
0.0
 11
1301.142623245858
 21
937.5
 31
0.0
  0
LINE
  5
15B95
330
16FE0
100
AcDbEntity
  8
0
 62
     0
100
AcDbLine
 10
1299.882568900553
 20
937.4
 30
0.0
 11
1301.142623245858
 21
937.4
 31
0.0
  0
LINE
  5
15B96
330
16FE0
100
AcDbEntity
  8
0
 62
     0
100
AcDbLine
 10
1299.926820596867
 20
937.3000000000001
 30
0.0
 11
1301.142623245858
 21
937.3000000000001
 31
0.0
  0
LINE
  5
15B97
330
16FE0
100
AcDbEntity
  8
0
 62
     0
100
AcDbLine
 10
1299.974401168657
 20
937.1999999999999
 30
0.0
 11
1301.142623245858
 21
937.1999999999999
 31
0.0
  0
LINE
  5
15B98
330
16FE0
100
AcDbEntity
  8
0
 62
     0
100
AcDbLine
 10
1300.025444858712
 20
937.1
 30
0.0
 11
1301.142623245858
 21
937.1
 31
0.0
  0
LINE
  5
15B99
330
16FE0
100
AcDbEntity
  8
0
 62
     0
100
AcDbLine
 10
1300.080103837627
 20
937.0
 30
0.0
 11
1301.142623245858
 21
937.0
 31
0.0
  0
LINE
  5
15B9A
330
16FE0
100
AcDbEntity
  8
0
 62
     0
100
AcDbLine
 10
1300.138551114905
 20
936.9000000000001
 30
0.0
 11
1301.142623245858
 21
936.9000000000001
 31
0.0
  0
LINE
  5
15B9B
330
16FE0
100
AcDbEntity
  8
0
 62
     0
100
AcDbLine
 10
1300.200984141088
 20
936.8
 30
0.0
 11
1301.142623245858
 21
936.8
 31
0.0
  0
LINE
  5
15B9C
330
16FE0
100
AcDbEntity
  8
0
 62
     0
100
AcDbLine
 10
1300.267629308805
 20
936.7
 30
0.0
 11
1301.142623245858
 21
936.7
 31
0.0
  0
LINE
  5
15B9D
330
16FE0
100
AcDbEntity
  8
0
 62
     0
100
AcDbLine
 10
1300.338747639594
 20
936.5999999999999
 30
0.0
 11
1301.142623245858
 21
936.5999999999999
 31
0.0
  0
LINE
  5
15B9E
330
16FE0
100
AcDbEntity
  8
0
 62
     0
100
AcDbLine
 10
1300.414642059152
 20
936.5
 30
0.0
 11
1301.142623245858
 21
936.5
 31
0.0
  0
LINE
  5
15B9F
330
16FE0
100
AcDbEntity
  8
0
 62
     0
100
AcDbLine
 10
1300.495666836955
 20
936.4
 30
0.0
 11
1301.142623245858
 21
936.4
 31
0.0
  0
LINE
  5
15BA0
330
16FE0
100
AcDbEntity
  8
0
 62
     0
100
AcDbLine
 10
1300.58224003181
 20
936.3000000000001
 30
0.0
 11
1301.142623245858
 21
936.3000000000001
 31
0.0
  0
LINE
  5
15BA1
330
16FE0
100
AcDbEntity
  8
0
 62
     0
100
AcDbLine
 10
1300.674860202978
 20
936.2
 30
0.0
 11
1301.142623245858
 21
936.2
 31
0.0
  0
LINE
  5
15BA2
330
16FE0
100
AcDbEntity
  8
0
 62
     0
100
AcDbLine
 10
1300.774129324591
 20
936.1
 30
0.0
 11
1301.142623245858
 21
936.1
 31
0.0
  0
LINE
  5
15BA3
330
16FE0
100
AcDbEntity
  8
0
 62
     0
100
AcDbLine
 10
1300.880784979495
 20
936.0
 30
0.0
 11
1301.142623245858
 21
936.0
 31
0.0
  0
LINE
  5
15BA4
330
16FE0
100
AcDbEntity
  8
0
 62
     0
100
AcDbLine
 10
1300.995746897783
 20
935.9000000000001
 30
0.0
 11
1301.142623245858
 21
935.9000000000001
 31
0.0
  0
LINE
  5
15BA5
330
16FE0
100
AcDbEntity
  8
0
 62
     0
100
AcDbLine
 10
1301.120186547274
 20
935.8
 30
0.0
 11
1301.142623245858
 21
935.8
 31
0.0
  0
ENDBLK
  5
15BA6
330
16FE0
100
AcDbEntity
  8
0
100
AcDbBlockEnd
  0
BLOCK
  5
1700E
330
17004
100
AcDbEntity
  8
0
100
AcDbBlockBegin
  2
*D8
 70
     1
 10
0.0
 20
0.0
 30
0.0
  3
*D8
  1

  0
LINE
  5
170BD
330
17004
100
AcDbEntity
  8
BEM
 62
     0
370
    -2
100
AcDbLine
 10
422.0250229022745
 20
719.488999651105
 30
0.0
 11
359.8228865986422
 21
719.488999651105
 31
0.0
  0
LINE
  5
170BE
330
17004
100
AcDbEntity
  8
BEM
 62
     0
370
    -2
100
AcDbLine
 10
583.9750229022744
 20
923.4876104641676
 30
0.0
 11
359.8228865986423
 21
923.4876104641676
 31
0.0
  0
LINE
  5
170BF
330
17004
100
AcDbEntity
  8
BEM
 62
     0
370
    -2
100
AcDbLine
 10
364.8228865986423
 20
736.988999651105
 30
0.0
 11
364.8228865986423
 21
905.9876104641675
 31
0.0
  0
SOLID
  5
170C0
330
17004
100
AcDbEntity
  8
BEM
 62
     0
100
AcDbTrace
 10
361.9062199319756
 20
736.988999651105
 30
0.0
 11
367.7395532653089
 21
736.988999651105
 31
0.0
 12
364.8228865986423
 22
719.488999651105
 32
0.0
 13
364.8228865986423
 23
719.488999651105
 33
0.0
  0
SOLID
  5
170C1
330
17004
100
AcDbEntity
  8
BEM
 62
     0
100
AcDbTrace
 10
361.9062199319756
 20
905.9876104641675
 30
0.0
 11
367.739553265309
 21
905.9876104641675
 31
0.0
 12
364.8228865986423
 22
923.4876104641676
 32
0.0
 13
364.8228865986423
 23
923.4876104641676
 33
0.0
  0
MTEXT
  5
170C2
330
17004
100
AcDbEntity
  8
BEM
 62
     1
100
AcDbMText
 10
348.5728865986421
 20
821.4883050576363
 30
0.0
 40
17.5
 41
0.0
 71
     5
 72
     1
  1
\A1;204
  7
GREEKS
 11
0.0000000000000001
 21
1.0
 31
0.0
 73
     1
 44
1.0
  0
POINT
  5
170C3
330
17004
100
AcDbEntity
  8
DEFPOINTS
 62
     0
100
AcDbPoint
 10
427.0250229022746
 20
719.488999651105
 30
0.0
  0
POINT
  5
170C4
330
17004
100
AcDbEntity
  8
DEFPOINTS
 62
     0
100
AcDbPoint
 10
588.9750229022744
 20
923.4876104641676
 30
0.0
  0
POINT
  5
170C5
330
17004
100
AcDbEntity
  8
DEFPOINTS
 62
     0
100
AcDbPoint
 10
364.8228865986423
 20
923.4876104641676
 30
0.0
  0
ENDBLK
  5
1700F
330
17004
100
AcDbEntity
  8
0
100
AcDbBlockEnd
  0
BLOCK
  5
17119
330
1710F
100
AcDbEntity
  8
0
100
AcDbBlockBegin
  2
*D9
 70
     1
 10
0.0
 20
0.0
 30
0.0
  3
*D9
  1

  0
LINE
  5
1711B
330
1710F
100
AcDbEntity
  8
BEM
 62
     0
370
    -2
100
AcDbLine
 10
427.0250229022746
 20
714.4889996511047
 30
0.0
 11
427.0250229022746
 21
665.5558095317186
 31
0.0
  0
LINE
  5
1711C
330
1710F
100
AcDbEntity
  8
BEM
 62
     0
370
    -2
100
AcDbLine
 10
750.9250229022742
 20
714.4889996511047
 30
0.0
 11
750.9250229022742
 21
665.5558095317186
 31
0.0
  0
LINE
  5
1711D
330
1710F
100
AcDbEntity
  8
BEM
 62
     0
370
    -2
100
AcDbLine
 10
444.5250229022746
 20
670.5558095317186
 30
0.0
 11
733.4250229022742
 21
670.5558095317186
 31
0.0
  0
SOLID
  5
1711E
330
1710F
100
AcDbEntity
  8
BEM
 62
     0
100
AcDbTrace
 10
444.5250229022746
 20
673.4724761983852
 30
0.0
 11
444.5250229022746
 21
667.639142865052
 31
0.0
 12
427.0250229022746
 22
670.5558095317186
 32
0.0
 13
427.0250229022746
 23
670.5558095317186
 33
0.0
  0
SOLID
  5
1711F
330
1710F
100
AcDbEntity
  8
BEM
 62
     0
100
AcDbTrace
 10
733.4250229022742
 20
673.4724761983852
 30
0.0
 11
733.4250229022742
 21
667.639142865052
 31
0.0
 12
750.9250229022742
 22
670.5558095317186
 32
0.0
 13
750.9250229022742
 23
670.5558095317186
 33
0.0
  0
MTEXT
  5
17120
330
1710F
100
AcDbEntity
  8
BEM
 62
     1
100
AcDbMText
 10
588.9750229022744
 20
686.8058095317186
 30
0.0
 40
17.5
 41
0.0
 71
     5
 72
     1
  1
\A1;%%c324
  7
GREEKS
 73
     1
 44
1.0
  0
POINT
  5
17121
330
1710F
100
AcDbEntity
  8
DEFPOINTS
 62
     0
100
AcDbPoint
 10
427.0250229022746
 20
719.4889996511047
 30
0.0
  0
POINT
  5
17122
330
1710F
100
AcDbEntity
  8
DEFPOINTS
 62
     0
100
AcDbPoint
 10
750.9250229022742
 20
719.4889996511047
 30
0.0
  0
POINT
  5
17123
330
1710F
100
AcDbEntity
  8
DEFPOINTS
 62
     0
100
AcDbPoint
 10
750.9250229022742
 20
670.5558095317186
 30
0.0
  0
ENDBLK
  5
1711A
330
1710F
100
AcDbEntity
  8
0
100
AcDbBlockEnd
  0
BLOCK
  5
1715C
330
17152
100
AcDbEntity
  8
0
100
AcDbBlockBegin
  2
*D10
 70
     1
 10
0.0
 20
0.0
 30
0.0
  3
*D10
  1

  0
LINE
  5
1715F
330
17152
100
AcDbEntity
  8
BEM
 62
     0
370
    -2
100
AcDbLine
 10
587.2649221856456
 20
928.1860735680968
 30
0.0
 11
518.9478569009236
 21
1115.885667801277
 31
0.0
  0
LINE
  5
17160
330
17152
100
AcDbEntity
  8
BEM
 62
     0
370
    -2
100
AcDbLine
 10
723.570749205665
 20
1150.140927612895
 30
0.0
 11
710.643846132535
 21
1185.657301909798
 31
0.0
  0
LINE
  5
17161
330
17152
100
AcDbEntity
  8
BEM
 62
     0
370
    -2
100
AcDbLine
 10
537.1025784813054
 20
1117.172557205547
 30
0.0
 11
695.9093259854098
 21
1174.97348629767
 31
0.0
  0
SOLID
  5
17162
330
17152
100
AcDbEntity
  8
BEM
 62
     0
100
AcDbTrace
 10
536.1050197299389
 20
1119.913327349506
 30
0.0
 11
538.100137232672
 21
1114.431787061588
 31
0.0
 12
520.657957617552
 22
1111.187204697348
 32
0.0
 13
520.657957617552
 23
1111.187204697348
 33
0.0
  0
SOLID
  5
17163
330
17152
100
AcDbEntity
  8
BEM
 62
     0
100
AcDbTrace
 10
694.9117672340434
 20
1177.714256441628
 30
0.0
 11
696.9068847367764
 21
1172.232716153711
 31
0.0
 12
712.3539468491633
 22
1180.958838805869
 32
0.0
 13
712.3539468491633
 23
1180.958838805869
 33
0.0
  0
MTEXT
  5
17164
330
17152
100
AcDbEntity
  8
BEM
 62
     1
100
AcDbMText
 10
610.9481249043156
 20
1161.343026839379
 30
0.0
 40
17.5
 41
0.0
 71
     5
 72
     1
  1
\A1;204
  7
GREEKS
 11
0.9396926207859081
 21
0.3420201433256694
 31
0.0
 73
     1
 44
1.0
  0
POINT
  5
17165
330
17152
100
AcDbEntity
  8
DEFPOINTS
 62
     0
100
AcDbPoint
 10
588.9750229022739
 20
923.4876104641672
 30
0.0
  0
POINT
  5
17166
330
17152
100
AcDbEntity
  8
DEFPOINTS
 62
     0
100
AcDbPoint
 10
725.2808499222933
 20
1145.442464508966
 30
0.0
  0
POINT
  5
17167
330
17152
100
AcDbEntity
  8
DEFPOINTS
 62
     0
100
AcDbPoint
 10
712.3539468491633
 20
1180.958838805869
 30
0.0
  0
ENDBLK
  5
1715D
330
17152
100
AcDbEntity
  8
0
100
AcDbBlockEnd
  0
BLOCK
  5
17175
330
1716A
100
AcDbEntity
  8
0
100
AcDbBlockBegin
  2
*D11
 70
     1
 10
0.0
 20
0.0
 30
0.0
  3
*D11
  1

  0
LINE
  5
17178
330
1716A
100
AcDbEntity
  8
BEM
 62
     0
370
    -2
100
AcDbLine
 10
588.9750229022744
 20
928.4876104641679
 30
0.0
 11
588.9750229022746
 21
1077.797803553169
 31
0.0
  0
ARC
  5
17179
330
1716A
100
AcDbEntity
  8
BEM
 62
     0
370
    -2
100
AcDbCircle
 10
588.9750229022745
 20
923.4876104641674
 30
0.0
 40
149.3101930890019
100
AcDbArc
 50
26.71923947873362
 51
83.28076052126638
  0
SOLID
  5
1717A
330
1716A
100
AcDbEntity
  8
BEM
 62
     0
100
AcDbTrace
 10
725.0195423020474
 20
991.7767654815683
 30
0.0
 11
719.6643422475273
 21
989.4638430544546
 31
0.0
 12
729.2807095561287
 22
974.5547041044513
 32
0.0
 13
729.2807095561287
 23
974.5547041044513
 33
0.0
  0
SOLID
  5
1717B
330
1716A
100
AcDbEntity
  8
BEM
 62
     0
100
AcDbTrace
 10
606.2740220810245
 20
1068.860599995052
 30
0.0
 11
606.615871928049
 21
1074.68390802914
 31
0.0
 12
588.9750229022745
 22
1072.797803553169
 32
0.0
 13
588.9750229022745
 23
1072.797803553169
 33
0.0
  0
MTEXT
  5
1717C
330
1716A
100
AcDbEntity
  8
BEM
 62
     1
100
AcDbMText
 10
683.9364484558553
 20
1059.106581085903
 30
0.0
 40
17.5
 41
0.0
 71
     5
 72
     1
  1
\A1;70°
  7
GREEKS
 11
0.8191520442889917
 21
-0.5735764363510463
 31
0.0
 73
     1
 44
1.0
  0
POINT
  5
1717D
330
1716A
100
AcDbEntity
  8
DEFPOINTS
 62
     0
100
AcDbPoint
 10
697.5793217733968
 20
1025.950481920061
 30
0.0
  0
POINT
  5
1717E
330
1716A
100
AcDbEntity
  8
DEFPOINTS
 62
     0
100
AcDbPoint
 10
588.9750229022744
 20
923.4876104641678
 30
0.0
  0
POINT
  5
1717F
330
1716A
100
AcDbEntity
  8
DEFPOINTS
 62
     0
100
AcDbPoint
 10
588.9750229022742
 20
923.4876104641672
 30
0.0
  0
POINT
  5
17180
330
1716A
100
AcDbEntity
  8
DEFPOINTS
 62
     0
100
AcDbPoint
 10
790.0679383417448
 20
996.6794460059453
 30
0.0
  0
POINT
  5
17181
330
1716A
100
AcDbEntity
  8
DEFPOINTS
 62
     0
100
AcDbPoint
 10
588.9750229022743
 20
709.4889996511048
 30
0.0
  0
ENDBLK
  5
17176
330
1716A
100
AcDbEntity
  8
0
100
AcDbBlockEnd
  0
ENDSEC
  0
SECTION
  2
ENTITIES
  0
LINE
  5
16F2A
330
16FD6
100
AcDbEntity
  8
STEMPEL
100
AcDbLine
 10
427.0250229022746
 20
1036.88622127723
 30
0.0
 11
725.2808499222936
 21
1145.442464508966
 31
0.0
  0
DIMENSION
  5
16F2B
330
16FD6
100
AcDbEntity
  8
BEM
100
AcDbDimension
  2
*D8
 10
364.8228865986423
 20
923.4876104641676
 30
0.0
 11
348.5728865986421
 21
821.4883050576363
 31
0.0
 70
    32
 71
     5
 42
203.9986108130626
  3
Standard
100
AcDbAlignedDimension
 13
427.0250229022746
 23
719.488999651105
 33
0.0
 14
588.9750229022744
 24
923.4876104641676
 34
0.0
 50
90.0
100
AcDbRotatedDimension
1001
ACAD
1000
DSTYLE
1002
{
1070
    40
1040
5.0
1070
    41
1040
3.5
1070
    42
1040
1.0
1070
    43
1040
7.0
1070
    44
1040
1.0
1070
    47
1040
5.0
1070
    48
1040
5.0
1070
    73
1070
     0
1070
    74
1070
     0
1070
    77
1070
     1
1070
    78
1070
     8
1070
    79
1070
     2
1070
   140
1040
3.5
1070
   141
1040
1.5
1070
   147
1040
1.5
1070
   172
1070
     1
1070
   178
1070
     1
1070
   179
1070
     2
1070
   271
1070
     2
1070
   272
1070
     2
1070
   284
1070
     8
1070
   285
1070
     8
1070
   286
1070
     8
1070
   340
1005
16FE4
1002
}
  0
LINE
  5
16F2C
330
16FD6
100
AcDbEntity
  8
STEMPEL
100
AcDbLine
 10
750.9250229022744
 20
810.088999651105
 30
0.0
 11
427.0250229022746
 21
1036.88622127723
 31
0.0
  0
LINE
  5
16F2D
330
16FD6
100
AcDbEntity
  8
STEMPEL
100
AcDbLine
 10
750.9250229022742
 20
719.488999651105
 30
0.0
 11
427.0250229022746
 21
719.488999651105
 31
0.0
  0
DIMENSION
  5
16F2E
330
16FD6
100
AcDbEntity
  8
BEM
100
AcDbDimension
  2
*D9
 10
750.9250229022742
 20
670.5558095317186
 30
0.0
 11
588.9750229022744
 21
686.8058095317186
 31
0.0
 70
    32
  1
%%c324
 71
     5
 42
323.8999999999996
  3
Standard
100
AcDbAlignedDimension
 13
427.0250229022746
 23
719.4889996511047
 33
0.0
 14
750.9250229022742
 24
719.4889996511047
 34
0.0
100
AcDbRotatedDimension
1001
ACAD
1000
DSTYLE
1002
{
1070
    40
1040
5.0
1070
    41
1040
3.5
1070
    42
1040
1.0
1070
    43
1040
7.0
1070
    44
1040
1.0
1070
    47
1040
5.0
1070
    48
1040
5.0
1070
    73
1070
     0
1070
    74
1070
     0
1070
    77
1070
     1
1070
    78
1070
     8
1070
    79
1070
     2
1070
   140
1040
3.5
1070
   141
1040
1.5
1070
   147
1040
1.5
1070
   172
1070
     1
1070
   178
1070
     1
1070
   179
1070
     2
1070
   271
1070
     2
1070
   272
1070
     2
1070
   284
1070
     8
1070
   285
1070
     8
1070
   286
1070
     8
1070
   340
1005
16FE4
1002
}
  0
ARC
  5
16F2F
330
16FD6
100
AcDbEntity
  8
SCHRAFF
100
AcDbCircle
 10
518.6384211845478
 20
972.5761743144241
 30
0.0
 40
5.705091079773839
100
AcDbArc
 50
280.4824135024093
 51
9.517586497590635
  0
TEXT
  5
16F30
330
16FD6
100
AcDbEntity
  8
TEXT
 62
     1
100
AcDbText
 10
273.9036994186759
 20
439.8504167589382
 30
0.0
 40
17.5
  1
Rohrenden leicht entgratet
 41
0.8
  7
GREEKS
100
AcDbText
  0
INSERT
  5
16F31
330
16FD6
100
AcDbEntity
  8
STEMPEL
100
AcDbBlockReference
  2
LOGO
 10
377.4888713644485
 20
112.552631911208
 30
0.0
 41
5.0
 42
5.0
 43
5.0
  0
LINE
  5
16F32
330
16FD6
100
AcDbEntity
  8
HILF
100
AcDbLine
 10
1050.0
 20
0.0
 30
0.0
 11
0.0
 21
0.0
 31
0.0
  0
LINE
  5
16F33
330
16FD6
100
AcDbEntity
  8
STEMPEL
100
AcDbLine
 10
1025.0
 20
25.0
 30
0.0
 11
99.99999999999971
 21
25.0
 31
0.0
  0
LINE
  5
16F34
330
16FD6
100
AcDbEntity
  8
STEMPEL
100
AcDbLine
 10
124.9999999999997
 20
25.0
 30
0.0
 11
1025.0
 21
25.0
 31
0.0
  0
LINE
  5
16F35
330
16FD6
100
AcDbEntity
  8
HILF
100
AcDbLine
 10
365.0000000000003
 20
124.9999999999999
 30
0.0
 11
575.0
 21
124.9999999999999
 31
0.0
  0
LINE
  5
16F36
330
16FD6
100
AcDbEntity
  8
HILF
100
AcDbLine
 10
365.0000000000003
 20
149.9999999999999
 30
0.0
 11
575.0
 21
149.9999999999999
 31
0.0
  0
LINE
  5
16F37
330
16FD6
100
AcDbEntity
  8
HILF
100
AcDbLine
 10
365.0000000000003
 20
174.9999999999998
 30
0.0
 11
575.0
 21
174.9999999999998
 31
0.0
  0
LINE
  5
16F38
330
16FD6
100
AcDbEntity
  8
STEMPEL
100
AcDbLine
 10
1025.0
 20
200.0
 30
0.0
 11
365.0000000000003
 21
199.9999999999998
 31
0.0
  0
LINE
  5
16F39
330
16FD6
100
AcDbEntity
  8
STEMPEL
100
AcDbLine
 10
1025.0
 20
100.0
 30
0.0
 11
365.0000000000003
 21
99.99999999999992
 31
0.0
  0
LINE
  5
16F3A
330
16FD6
100
AcDbEntity
  8
STEMPEL
100
AcDbLine
 10
1025.0
 20
275.0000000000001
 30
0.0
 11
99.99999999999992
 21
275.0
 31
0.0
  0
TEXT
  5
16F3B
330
16FD6
100
AcDbEntity
  8
TEXT
100
AcDbText
 10
511.0540121453142
 20
157.7240979930877
 30
0.0
 40
10.0
  1
Koeh
 41
0.8
  7
GREEKS
 72
     1
 11
524.1968692881714
 21
157.7240979930877
 31
0.0
100
AcDbText
  0
TEXT
  5
16F3C
330
16FD6
100
AcDbEntity
  8
TEXT
100
AcDbText
 10
485.7147386835128
 20
256.0460421087048
 30
0.0
 40
12.5
  1
Zul. Abw.
 41
0.8
  7
GREEKS
100
AcDbText
  0
TEXT
  5
16F3D
330
16FD6
100
AcDbEntity
  8
TEXT
100
AcDbText
 10
506.1566460565737
 20
183.2740272978806
 30
0.0
 40
10.0
  1
Name
 41
0.8
  7
GREEKS
100
AcDbText
  0
TEXT
  5
16F3F
330
16FD6
100
AcDbEntity
  8
TEXT
 62
     1
100
AcDbText
 10
471.7846544748148
 20
351.64847138984
 30
0.0
 40
17.5
  1
Werkstoff: EN 10219 S235
 41
0.8
  7
GREEKS
100
AcDbText
  0
LINE
  5
16F40
330
16FD6
100
AcDbEntity
  8
HILF
100
AcDbLine
 10
1050.0
 20
1485.0
 30
0.0
 11
0.0
 21
1485.0
 31
0.0
  0
LINE
  5
16F41
330
16FD6
100
AcDbEntity
  8
STEMPEL
100
AcDbLine
 10
1025.0
 20
1460.0
 30
0.0
 11
99.99999999999971
 21
1460.0
 31
0.0
  0
ARC
  5
16F42
330
16FD6
100
AcDbEntity
  8
SCHRAFF
100
AcDbCircle
 10
522.7341814059931
 20
969.7082921326691
 30
0.0
 40
5.705091079773839
100
AcDbArc
 50
280.4824135024093
 51
9.517586497590635
  0
LINE
  5
16F43
330
16FD6
100
AcDbEntity
  8
STEMPEL
100
AcDbLine
 10
427.0250229022746
 20
1036.88622127723
 30
0.0
 11
427.0250229022746
 21
719.488999651105
 31
0.0
  0
LINE
  5
16F44
330
16FD6
100
AcDbEntity
  8
HILF
100
AcDbLine
 10
0.0
 20
0.0
 30
0.0
 11
-0.0000000000002842
 21
1485.0
 31
0.0
  0
LINE
  5
16F45
330
16FD6
100
AcDbEntity
  8
STEMPEL
100
AcDbLine
 10
100.0
 20
25.0
 30
0.0
 11
99.99999999999971
 21
1460.0
 31
0.0
  0
TEXT
  5
16F46
330
16FD6
100
AcDbEntity
  8
TEXT
100
AcDbText
 10
104.6377487744418
 20
279.1799999999999
 30
0.0
 40
12.5
  1
Erstellt mit AUTOCAD 2004
 41
0.8
  7
GREEKS
100
AcDbText
  0
TEXT
  5
16F47
330
16FD6
100
AcDbEntity
  8
TEXT
100
AcDbText
 10
170.8791740339942
 20
46.68454737460329
 30
0.0
 40
10.0
  1
Änderung
 41
0.8
  7
GREEKS
 72
     1
 11
197.7363168911371
 21
46.68454737460329
 31
0.0
100
AcDbText
  0
LINE
  5
16F48
330
16FD6
100
AcDbEntity
  8
HILF
100
AcDbLine
 10
100.0000000000002
 20
99.99999999999992
 30
0.0
 11
365.0000000000003
 21
99.99999999999992
 31
0.0
  0
LINE
  5
16F49
330
16FD6
100
AcDbEntity
  8
HILF
100
AcDbLine
 10
100.0000000000002
 20
124.9999999999999
 30
0.0
 11
365.0000000000003
 21
124.9999999999999
 31
0.0
  0
LINE
  5
16F4A
330
16FD6
100
AcDbEntity
  8
HILF
100
AcDbLine
 10
100.0000000000002
 20
149.9999999999999
 30
0.0
 11
365.0000000000003
 21
149.9999999999999
 31
0.0
  0
LINE
  5
16F4B
330
16FD6
100
AcDbEntity
  8
HILF
100
AcDbLine
 10
100.0000000000002
 20
174.9999999999998
 30
0.0
 11
365.0000000000003
 21
174.9999999999998
 31
0.0
  0
LINE
  5
16F4C
330
16FD6
100
AcDbEntity
  8
HILF
100
AcDbLine
 10
100.0000000000002
 20
199.9999999999998
 30
0.0
 11
365.0000000000003
 21
199.9999999999998
 31
0.0
  0
LINE
  5
16F4D
330
16FD6
100
AcDbEntity
  8
HILF
100
AcDbLine
 10
100.0000000000002
 20
225.0000000000001
 30
0.0
 11
365.0000000000003
 21
225.0000000000001
 31
0.0
  0
LINE
  5
16F4E
330
16FD6
100
AcDbEntity
  8
HILF
100
AcDbLine
 10
100.0000000000002
 20
250.0000000000001
 30
0.0
 11
365.0000000000003
 21
250.0000000000001
 31
0.0
  0
LINE
  5
16F4F
330
16FD6
100
AcDbEntity
  8
STEMPEL
100
AcDbLine
 10
364.9999999999997
 20
74.99999999999992
 30
0.0
 11
99.99999999999992
 21
74.99999999999992
 31
0.0
  0
TEXT
  5
16F50
330
16FD6
100
AcDbEntity
  8
TEXT
100
AcDbText
 10
120.6660276761439
 20
34.13664615067979
 30
0.0
 40
10.0
  1
Index
 50
90.0
 41
0.8
  7
GREEKS
100
AcDbText
  0
LINE
  5
16F51
330
16FD6
100
AcDbEntity
  8
VOLL
100
AcDbLine
 10
135.0000000000002
 20
275.0000000000001
 30
0.0
 11
134.9999999999999
 21
24.99999999999993
 31
0.0
  0
LINE
  5
16F52
330
16FD6
100
AcDbEntity
  8
HILF
100
AcDbLine
 10
77.7191783928464
 20
742.5000000000001
 30
0.0
 11
0.0000000000002842
 21
742.5000000000001
 31
0.0
  0
TEXT
  5
16F53
330
16FD6
100
AcDbEntity
  8
TEXT
100
AcDbText
 10
275.2764282932893
 20
46.67890673349525
 30
0.0
 40
10.0
  1
Tag
 41
0.8
  7
GREEKS
 72
     1
 11
284.6097616266226
 21
46.67890673349525
 31
0.0
100
AcDbText
  0
LINE
  5
16F54
330
16FD6
100
AcDbEntity
  8
VOLL
100
AcDbLine
 10
310.0000000000003
 20
274.9999999999999
 30
0.0
 11
310.0
 21
24.99999999999993
 31
0.0
  0
LINE
  5
16F55
330
16FD6
100
AcDbEntity
  8
VOLL
100
AcDbLine
 10
260.0000000000003
 20
274.9999999999999
 30
0.0
 11
260.0
 21
24.99999999999993
 31
0.0
  0
TEXT
  5
16F56
330
16FD6
100
AcDbEntity
  8
TEXT
100
AcDbText
 10
323.235869436516
 20
46.4831054241602
 30
0.0
 40
10.0
  1
Name
 41
0.8
  7
GREEKS
 72
     1
 11
339.0453932460397
 21
46.4831054241602
 31
0.0
100
AcDbText
  0
LINE
  5
16F57
330
16FD6
100
AcDbEntity
  8
STEMPEL
100
AcDbLine
 10
365.0000000000003
 20
274.9999999999999
 30
0.0
 11
365.0
 21
24.99999999999993
 31
0.0
  0
TEXT
  5
16F58
330
16FD6
100
AcDbEntity
  8
TEXT
100
AcDbText
 10
425.9974927705902
 20
157.7691260206433
 30
0.0
 40
10.0
  1
06.04.
 41
0.8
  7
GREEKS
 72
     1
 11
443.5213022943996
 21
157.7691260206433
 31
0.0
100
AcDbText
  0
TEXT
  5
16F59
330
16FD6
100
AcDbEntity
  8
TEXT
100
AcDbText
 10
430.8279182884127
 20
183.2970125307481
 30
0.0
 40
10.0
  1
Tag
 41
0.8
  7
GREEKS
100
AcDbText
  0
TEXT
  5
16F5A
330
16FD6
100
AcDbEntity
  8
TEXT
100
AcDbText
 10
368.9590317919039
 20
159.0747592404491
 30
0.0
 40
10.0
  1
Gez.
 41
0.8
  7
GREEKS
100
AcDbText
  0
LINE
  5
16F5B
330
16FD6
100
AcDbEntity
  8
VOLL
100
AcDbLine
 10
410.0000000000003
 20
199.9999999999998
 30
0.0
 11
410.0000000000003
 21
99.99999999999992
 31
0.0
  0
TEXT
  5
16F5C
330
16FD6
100
AcDbEntity
  8
TEXT
100
AcDbText
 10
368.8787716429181
 20
134.2231572857094
 30
0.0
 40
10.0
  1
Gepr.
 41
0.8
  7
GREEKS
100
AcDbText
  0
TEXT
  5
16F5D
330
16FD6
100
AcDbEntity
  8
TEXT
100
AcDbText
 10
369.0016943468259
 20
108.8236597412452
 30
0.0
 40
10.0
  1
Norm.
 41
0.8
  7
GREEKS
100
AcDbText
  0
TEXT
  5
16F5E
330
16FD6
100
AcDbEntity
  8
TEXT
 62
     1
100
AcDbText
 10
401.2515766204717
 20
220.372535722849
 30
0.0
 40
17.5
  1
1:5
 41
0.8
  7
GREEKS
100
AcDbText
  0
TEXT
  5
16F5F
330
16FD6
100
AcDbEntity
  8
TEXT
100
AcDbText
 10
383.7908930375943
 20
256.1552237717722
 30
0.0
 40
12.5
  1
Maßstab
 41
0.8
  7
GREEKS
100
AcDbText
  0
TEXT
  5
16F60
330
16FD6
100
AcDbEntity
  8
TEXT
100
AcDbText
 10
371.55527455526
 20
182.8506367787916
 30
0.0
 40
10.0
  1
2011
 41
0.8
  7
GREEKS
100
AcDbText
  0
LINE
  5
16F61
330
16FD6
100
AcDbEntity
  8
VOLL
100
AcDbLine
 10
475.0000000000002
 20
274.9999999999996
 30
0.0
 11
475.0
 21
99.99999999999992
 31
0.0
  0
ARC
  5
16F62
330
16FD6
100
AcDbEntity
  8
SCHRAFF
100
AcDbCircle
 10
514.5426609631032
 20
975.4440564961793
 30
0.0
 40
5.705091079773839
100
AcDbArc
 50
280.4824135024093
 51
9.517586497590635
  0
ARC
  5
16F63
330
16FD6
100
AcDbEntity
  8
SCHRAFF
100
AcDbCircle
 10
510.4469007416583
 20
978.3119386779345
 30
0.0
 40
5.705091079773839
100
AcDbArc
 50
280.4824135024093
 51
9.517586497590635
  0
ARC
  5
16F64
330
16FD6
100
AcDbEntity
  8
SCHRAFF
100
AcDbCircle
 10
436.7232167556492
 20
1029.933817949528
 30
0.0
 40
5.705091079773839
100
AcDbArc
 50
280.4824135024093
 51
9.517586497590635
  0
ARC
  5
16F65
330
16FD6
100
AcDbEntity
  8
SCHRAFF
100
AcDbCircle
 10
440.8189769770944
 20
1027.065935767773
 30
0.0
 40
5.705091079773839
100
AcDbArc
 50
280.4824135024093
 51
9.517586497590635
  0
ARC
  5
16F66
330
16FD6
100
AcDbEntity
  8
SCHRAFF
100
AcDbCircle
 10
432.6274565342041
 20
1032.801700131284
 30
0.0
 40
5.705091079773839
100
AcDbArc
 50
280.4824135024093
 51
9.517586497590635
  0
ARC
  5
16F67
330
16FD6
100
AcDbEntity
  8
SCHRAFF
100
AcDbCircle
 10
428.5316963127595
 20
1035.669582313039
 30
0.0
 40
5.705091079773839
100
AcDbArc
 50
280.4824135024093
 51
9.517586497590635
  0
INSERT
  5
16F68
330
16FD6
100
AcDbEntity
  8
BEM
100
AcDbBlockReference
  2
*X4
 10
-874.1176003435837
 20
96.22030231866563
 30
0.0
1001
ACAD
1000
HATCH
1002
{
1070
    16
1000
_U,I
1040
0.1
1040
0.0
1070
     0
1002
}
  0
ARC
  5
16F69
330
16FD6
100
AcDbEntity
  8
BEM
100
AcDbCircle
 10
429.4474043215349
 20
1035.190051547044
 30
0.0
 40
4.003054558750602
100
AcDbArc
 50
57.23843112897107
 51
232.7615688710286
  0
ARC
  5
16F6A
330
16FD6
100
AcDbEntity
  8
SCHRAFF
100
AcDbCircle
 10
481.7765791915436
 20
998.3871139502218
 30
0.0
 40
5.705091079773839
100
AcDbArc
 50
280.4824135024093
 51
9.517586497590635
  0
ARC
  5
16F6B
330
16FD6
100
AcDbEntity
  8
SCHRAFF
100
AcDbCircle
 10
477.6808189700988
 20
1001.254996131976
 30
0.0
 40
5.705091079773839
100
AcDbArc
 50
280.4824135024093
 51
9.517586497590635
  0
ARC
  5
16F6C
330
16FD6
100
AcDbEntity
  8
SCHRAFF
100
AcDbCircle
 10
461.2977780843189
 20
1012.726524858997
 30
0.0
 40
5.705091079773839
100
AcDbArc
 50
280.4824135024093
 51
9.517586497590635
  0
ARC
  5
16F6D
330
16FD6
100
AcDbEntity
  8
SCHRAFF
100
AcDbCircle
 10
457.2020178628739
 20
1015.594407040753
 30
0.0
 40
5.705091079773839
100
AcDbArc
 50
280.4824135024093
 51
9.517586497590635
  0
ARC
  5
16F6E
330
16FD6
100
AcDbEntity
  8
SCHRAFF
100
AcDbCircle
 10
449.010497419984
 20
1021.330171404263
 30
0.0
 40
5.705091079773839
100
AcDbArc
 50
280.4824135024093
 51
9.517586497590635
  0
ARC
  5
16F6F
330
16FD6
100
AcDbEntity
  8
SCHRAFF
100
AcDbCircle
 10
444.914737198539
 20
1024.198053586018
 30
0.0
 40
5.705091079773839
100
AcDbArc
 50
280.4824135024093
 51
9.517586497590635
  0
ARC
  5
16F70
330
16FD6
100
AcDbEntity
  8
SCHRAFF
100
AcDbCircle
 10
453.1062576414291
 20
1018.462289222508
 30
0.0
 40
5.705091079773839
100
AcDbArc
 50
280.4824135024093
 51
9.517586497590635
  0
ARC
  5
16F71
330
16FD6
100
AcDbEntity
  8
SCHRAFF
100
AcDbCircle
 10
473.5850587486539
 20
1004.122878313732
 30
0.0
 40
5.705091079773839
100
AcDbArc
 50
280.4824135024093
 51
9.517586497590635
  0
ARC
  5
16F72
330
16FD6
100
AcDbEntity
  8
SCHRAFF
100
AcDbCircle
 10
465.3935383057638
 20
1009.858642677241
 30
0.0
 40
5.705091079773839
100
AcDbArc
 50
280.4824135024093
 51
9.517586497590635
  0
ARC
  5
16F73
330
16FD6
100
AcDbEntity
  8
SCHRAFF
100
AcDbCircle
 10
469.4892985272091
 20
1006.990760495487
 30
0.0
 40
5.705091079773839
100
AcDbArc
 50
280.4824135024093
 51
9.517586497590635
  0
ARC
  5
16F74
330
16FD6
100
AcDbEntity
  8
SCHRAFF
100
AcDbCircle
 10
498.1596200773238
 20
986.9155852232001
 30
0.0
 40
5.705091079773839
100
AcDbArc
 50
280.4824135024093
 51
9.517586497590635
  0
ARC
  5
16F75
330
16FD6
100
AcDbEntity
  8
SCHRAFF
100
AcDbCircle
 10
502.2553802987685
 20
984.0477030414447
 30
0.0
 40
5.705091079773839
100
AcDbArc
 50
280.4824135024093
 51
9.517586497590635
  0
ARC
  5
16F76
330
16FD6
100
AcDbEntity
  8
SCHRAFF
100
AcDbCircle
 10
489.9680996344335
 20
992.6513495867103
 30
0.0
 40
5.705091079773839
100
AcDbArc
 50
280.4824135024093
 51
9.517586497590635
  0
ARC
  5
16F77
330
16FD6
100
AcDbEntity
  8
SCHRAFF
100
AcDbCircle
 10
485.8723394129887
 20
995.5192317684662
 30
0.0
 40
5.705091079773839
100
AcDbArc
 50
280.4824135024093
 51
9.517586497590635
  0
ARC
  5
16F78
330
16FD6
100
AcDbEntity
  8
SCHRAFF
100
AcDbCircle
 10
494.0638598558786
 20
989.783467404956
 30
0.0
 40
5.705091079773839
100
AcDbArc
 50
280.4824135024093
 51
9.517586497590635
  0
ARC
  5
16F79
330
16FD6
100
AcDbEntity
  8
SCHRAFF
100
AcDbCircle
 10
506.3511405202135
 20
981.1798208596893
 30
0.0
 40
5.705091079773839
100
AcDbArc
 50
280.4824135024093
 51
9.517586497590635
  0
LINE
  5
16F7A
330
16FD6
100
AcDbEntity
  8
STEMPEL
100
AcDbLine
 10
750.9250229022744
 20
810.088999651105
 30
0.0
 11
750.9250229022742
 21
719.488999651105
 31
0.0
  0
LINE
  5
16F7C
102
{ACAD_REACTORS
330
17182
102
}
330
16FD6
100
AcDbEntity
  8
MITTEL
100
AcDbLine
 10
588.9750229022744
 20
923.4876104641676
 30
0.0
 11
588.9750229022744
 21
709.4889996511048
 31
0.0
  0
LINE
  5
16F7E
330
16FD6
100
AcDbEntity
  8
HILF
100
AcDbLine
 10
1050.0
 20
-0.0000000000002842
 30
0.0
 11
1050.0
 21
1485.0
 31
0.0
  0
LINE
  5
16F7F
330
16FD6
100
AcDbEntity
  8
STEMPEL
100
AcDbLine
 10
1025.0
 20
25.0
 30
0.0
 11
1025.0
 21
1460.0
 31
0.0
  0
LINE
  5
16F81
330
16FD6
100
AcDbEntity
  8
HILF
100
AcDbLine
 10
583.7274248224712
 20
37.23495645070784
 30
0.0
 11
1012.147209831682
 21
37.23495645070784
 31
0.0
  0
TEXT
  5
16F82
330
16FD6
100
AcDbEntity
  8
TEXT
100
AcDbText
 10
843.1002153742515
 20
130.185404446965
 30
0.0
 40
12.5
  1
ersetzt durch:
 41
0.8
  7
GREEKS
100
AcDbText
  0
TEXT
  5
16F83
330
16FD6
100
AcDbEntity
  8
TEXT
100
AcDbText
 10
841.8096540742482
 20
182.9529559274992
 30
0.0
 40
12.5
  1
Ersatz für:
 41
0.8
  7
GREEKS
100
AcDbText
  0
TEXT
  5
16F84
330
16FD6
100
AcDbEntity
  8
TEXT
100
AcDbText
 10
840.4468873940851
 20
255.7830086342841
 30
0.0
 40
12.5
  1
Zeichnungs Nr.
 41
0.8
  7
GREEKS
100
AcDbText
  0
LINE
  5
16F85
330
16FD6
100
AcDbEntity
  8
HILF
100
AcDbLine
 10
841.8096540742482
 20
209.4495909238957
 30
0.0
 11
1012.147209831682
 21
209.4495909238957
 31
0.0
  0
LINE
  5
16F86
330
16FD6
100
AcDbEntity
  8
VOLL
100
AcDbLine
 10
830.0
 20
150.0
 30
0.0
 11
1025.0
 21
150.0
 31
0.0
  0
TEXT
  5
16F87
330
16FD6
100
AcDbEntity
  8
TEXT
 62
     1
100
AcDbText
 10
591.7846544748149
 20
321.64847138984
 30
0.0
 40
17.5
  1
feuerverzinkt und innen beschichtet
 41
0.8
  7
GREEKS
100
AcDbText
  0
LINE
  5
16F88
330
16FD6
100
AcDbEntity
  8
HILF
100
AcDbLine
 10
586.9342002742369
 20
124.9999999999999
 30
0.0
 11
812.0884791390775
 21
124.9999999999999
 31
0.0
  0
LINE
  5
16F89
330
16FD6
100
AcDbEntity
  8
HILF
100
AcDbLine
 10
586.9342002742369
 20
149.9999999999999
 30
0.0
 11
812.0884791390775
 21
149.9999999999999
 31
0.0
  0
LINE
  5
16F8A
330
16FD6
100
AcDbEntity
  8
HILF
100
AcDbLine
 10
586.9342002742369
 20
174.9999999999998
 30
0.0
 11
812.0884791390775
 21
174.9999999999998
 31
0.0
  0
LINE
  5
16F8B
330
16FD6
100
AcDbEntity
  8
HILF
100
AcDbLine
 10
586.9342002742369
 20
210.0939561891034
 30
0.0
 11
812.0884791390777
 21
210.0939561891034
 31
0.0
  0
TEXT
  5
16F8C
330
16FD6
100
AcDbEntity
  8
TEXT
 62
     1
100
AcDbText
 10
587.207320850568
 20
218.5437197313445
 30
0.0
 40
17.5
  1
Bogen 70%%d DN300
 41
0.8
  7
GREEKS
100
AcDbText
  0
LINE
  5
16F8D
330
16FD6
100
AcDbEntity
  8
STEMPEL
100
AcDbLine
 10
575.0
 20
275.0000000000001
 30
0.0
 11
575.0
 21
24.99999999999993
 31
0.0
  0
TEXT
  5
16F8E
330
16FD6
100
AcDbEntity
  8
TEXT
100
AcDbText
 10
586.8555959778399
 20
77.11401425482641
 30
0.0
 40
12.5
  1
Bauvorhaben
 41
0.8
  7
GREEKS
100
AcDbText
  0
TEXT
  5
16F8F
330
16FD6
100
AcDbEntity
  8
TEXT
100
AcDbText
 10
587.8240977813288
 20
181.1007260038562
 30
0.0
 40
12.5
  1
Muffenlos
 41
0.8
  7
GREEKS
100
AcDbText
  0
TEXT
  5
16F90
330
16FD6
100
AcDbEntity
  8
TEXT
100
AcDbText
 10
587.1948509522525
 20
256.3723320029449
 30
0.0
 40
12.5
  1
Benennung
 41
0.8
  7
GREEKS
100
AcDbText
  0
TEXT
  5
16F91
330
16FD6
100
AcDbEntity
  8
TEXT
100
AcDbText
 10
587.4593753944567
 20
106.5743538255658
 30
0.0
 40
10.0
  1
03005300W.DWG
 41
0.8
  7
GREEKS
100
AcDbText
  0
TEXT
  5
16F92
330
16FD6
100
AcDbEntity
  8
TEXT
100
AcDbText
 10
587.8240977813288
 20
129.100298576054
 30
0.0
 40
12.5
  1
EDV-Art.Nr. 03005.300X
 41
0.8
  7
GREEKS
100
AcDbText
  0
LINE
  5
16F93
330
16FD6
100
AcDbEntity
  8
STEMPEL
100
AcDbLine
 10
830.0
 20
274.9999999999994
 30
0.0
 11
830.0
 21
100.0
 31
0.0
  0
POINT
  5
16F94
330
16FD6
100
AcDbEntity
  8
DEFPOINTS
  6
ByBlock
 62
     0
100
AcDbPoint
 10
588.9750229022744
 20
709.4889996511048
 30
0.0
  0
TEXT
  5
16F95
330
16FD6
100
AcDbEntity
  8
TEXT
 62
     1
100
AcDbText
 10
866.9099153836496
 20
220.372535722849
 30
0.0
 40
17.5
  1
03005300W
 41
0.8
  7
GREEKS
 72
     1
 11
926.9099153836496
 21
220.372535722849
 31
0.0
100
AcDbText
  0
LINE
  5
16F9A
102
{ACAD_REACTORS
330
17168
330
17182
102
}
330
16FD6
100
AcDbEntity
  8
MITTEL
100
AcDbLine
 10
588.9750229022742
 20
923.4876104641674
 30
0.0
 11
790.0679383417449
 21
996.6794460059453
 31
0.0
  0
TEXT
  5
16F9C
330
16FD6
100
AcDbEntity
  8
TEXT
 62
     1
100
AcDbText
 10
581.3552644672483
 20
755.7650471394
 30
0.0
 40
17.5
  1
DN300
 50
90.0
 41
0.8
  7
GREEKS
100
AcDbText
  0
ARC
  5
16F9D
330
16FD6
100
AcDbEntity
  8
SCHRAFF
100
AcDbCircle
 10
559.5960233989977
 20
943.8973524968719
 30
0.0
 40
5.705091079773839
100
AcDbArc
 50
280.4824135024093
 51
9.517586497590635
  0
ARC
  5
16F9E
330
16FD6
100
AcDbEntity
  8
SCHRAFF
100
AcDbCircle
 10
563.6917836204424
 20
941.0294703151167
 30
0.0
 40
5.705091079773839
100
AcDbArc
 50
280.4824135024093
 51
9.517586497590635
  0
ARC
  5
16F9F
330
16FD6
100
AcDbEntity
  8
SCHRAFF
100
AcDbCircle
 10
543.2129825132177
 20
955.3688812238927
 30
0.0
 40
5.705091079773839
100
AcDbArc
 50
280.4824135024093
 51
9.517586497590635
  0
ARC
  5
16FA0
330
16FD6
100
AcDbEntity
  8
SCHRAFF
100
AcDbCircle
 10
539.1172222917731
 20
958.2367634056479
 30
0.0
 40
5.705091079773839
100
AcDbArc
 50
280.4824135024093
 51
9.517586497590635
  0
ARC
  5
16FA1
330
16FD6
100
AcDbEntity
  8
SCHRAFF
100
AcDbCircle
 10
530.9257018488832
 20
963.972527769158
 30
0.0
 40
5.705091079773839
100
AcDbArc
 50
280.4824135024093
 51
9.517586497590635
  0
ARC
  5
16FA2
330
16FD6
100
AcDbEntity
  8
SCHRAFF
100
AcDbCircle
 10
526.8299416274381
 20
966.8404099509135
 30
0.0
 40
5.705091079773839
100
AcDbArc
 50
280.4824135024093
 51
9.517586497590635
  0
ARC
  5
16FA3
330
16FD6
100
AcDbEntity
  8
SCHRAFF
100
AcDbCircle
 10
535.0214620703285
 20
961.1046455874033
 30
0.0
 40
5.705091079773839
100
AcDbArc
 50
280.4824135024093
 51
9.517586497590635
  0
ARC
  5
16FA4
330
16FD6
100
AcDbEntity
  8
SCHRAFF
100
AcDbCircle
 10
555.5002631775531
 20
946.7652346786273
 30
0.0
 40
5.705091079773839
100
AcDbArc
 50
280.4824135024093
 51
9.517586497590635
  0
ARC
  5
16FA5
330
16FD6
100
AcDbEntity
  8
SCHRAFF
100
AcDbCircle
 10
551.4045029561079
 20
949.6331168603823
 30
0.0
 40
5.705091079773839
100
AcDbArc
 50
280.4824135024093
 51
9.517586497590635
  0
ARC
  5
16FA6
330
16FD6
100
AcDbEntity
  8
SCHRAFF
100
AcDbCircle
 10
547.3087427346635
 20
952.5009990421379
 30
0.0
 40
5.705091079773839
100
AcDbArc
 50
280.4824135024093
 51
9.517586497590635
  0
ARC
  5
16FA7
330
16FD6
100
AcDbEntity
  8
SCHRAFF
100
AcDbCircle
 10
580.0748245062228
 20
929.5579415880959
 30
0.0
 40
5.705091079773839
100
AcDbArc
 50
280.4824135024093
 51
9.517586497590635
  0
ARC
  5
16FA8
330
16FD6
100
AcDbEntity
  8
SCHRAFF
100
AcDbCircle
 10
571.8833040633325
 20
935.2937059516063
 30
0.0
 40
5.705091079773839
100
AcDbArc
 50
280.4824135024093
 51
9.517586497590635
  0
ARC
  5
16FA9
330
16FD6
100
AcDbEntity
  8
SCHRAFF
100
AcDbCircle
 10
567.787543841888
 20
938.1615881333619
 30
0.0
 40
5.705091079773839
100
AcDbArc
 50
280.4824135024093
 51
9.517586497590635
  0
ARC
  5
16FAA
330
16FD6
100
AcDbEntity
  8
SCHRAFF
100
AcDbCircle
 10
575.9790642847778
 20
932.4258237698513
 30
0.0
 40
5.705091079773839
100
AcDbArc
 50
280.4824135024093
 51
9.517586497590635
  0
POINT
  5
16FAB
330
16FD6
100
AcDbEntity
  8
DEFPOINTS
  6
ByBlock
 62
     0
100
AcDbPoint
 10
588.9750229022742
 20
923.4876104641674
 30
0.0
  0
POINT
  5
16FAC
330
16FD6
100
AcDbEntity
  8
DEFPOINTS
  6
ByBlock
 62
     0
100
AcDbPoint
 10
588.9750229022744
 20
923.4876104641676
 30
0.0
  0
LINE
  5
16FAD
102
{ACAD_REACTORS
330
17168
102
}
330
16FD6
100
AcDbEntity
  8
STEMPEL
100
AcDbLine
 10
836.0611743454775
 20
841.0760246364107
 30
0.0
 11
725.2808499222936
 21
1145.442464508966
 31
0.0
  0
LINE
  5
16FAF
330
16FD6
100
AcDbEntity
  8
STEMPEL
100
AcDbLine
 10
750.9250229022744
 20
810.088999651105
 30
0.0
 11
836.0611743454775
 21
841.0760246364107
 31
0.0
  0
INSERT
  5
16FB0
330
16FD6
100
AcDbEntity
  8
SCHRAFF
100
AcDbBlockReference
  2
*X3
 10
-874.1176003435837
 20
96.22030231866563
 30
0.0
1001
ACAD
1000
HATCH
1002
{
1070
    16
1000
_U,I
1040
0.1
1040
0.0
1070
     0
1002
}
  0
ARC
  5
16FB1
330
16FD6
100
AcDbEntity
  8
SCHRAFF
100
AcDbCircle
 10
747.6387225484471
 20
812.3900919316763
 30
0.0
 40
7.900149688736927
100
AcDbArc
 50
294.581015709825
 51
355.4189842901731
  0
POINT
  5
16FB3
330
16FD6
100
AcDbEntity
  8
BEM
100
AcDbPoint
 10
790.0679383417449
 20
996.6794460059453
 30
0.0
  0
TEXT
  5
1703A
330
16FD6
100
AcDbEntity
  8
BEM
100
AcDbText
 10
1043.255730964291
 20
25.41975269997152
 30
0.0
 40
10.0
  1
Diese Zeichnung ist urheberrechtlich geschützt und bleibt unser Eigentum. Sie darf weder ganz noch teilweise verfielfältigt und nicht an Dritte weitergegeben werden.
 50
90.0
 41
0.8
  7
GREEKS
100
AcDbText
  0
TEXT
  5
17084
330
16FD6
100
AcDbEntity
  8
TEXT
100
AcDbText
 10
481.7206788119809
 20
223.9154971537298
 30
0.0
 40
10.0
  1
DIN EN1123-2
 41
0.8
  7
GREEKS
 72
     1
 11
524.1968692881714
 21
223.9154971537298
 31
0.0
100
AcDbText
  0
POINT
  5
17124
330
16FD6
100
AcDbEntity
  8
DEFPOINTS
  6
ByBlock
 62
     0
100
AcDbPoint
 10
740.5181510957377
 20
817.3759697392242
 30
0.0
  0
POINT
  5
17125
330
16FD6
100
AcDbEntity
  8
DEFPOINTS
  6
ByBlock
 62
     0
100
AcDbPoint
 10
740.5181510957374
 20
817.375969739224
 30
0.0
  0
ARC
  5
17126
330
16FD6
100
AcDbEntity
  8
SCHRAFF
100
AcDbCircle
 10
727.522192478241
 20
826.3141830449079
 30
0.0
 40
5.705091079773839
100
AcDbArc
 50
280.4824135024093
 51
9.517586497590635
  0
ARC
  5
17127
330
16FD6
100
AcDbEntity
  8
SCHRAFF
100
AcDbCircle
 10
719.3306720353514
 20
832.0499474084185
 30
0.0
 40
5.705091079773839
100
AcDbArc
 50
280.4824135024093
 51
9.517586497590635
  0
ARC
  5
17128
330
16FD6
100
AcDbEntity
  8
SCHRAFF
100
AcDbCircle
 10
723.4264322567958
 20
829.1820652266629
 30
0.0
 40
5.705091079773839
100
AcDbArc
 50
280.4824135024093
 51
9.517586497590635
  0
ARC
  5
17129
330
16FD6
100
AcDbEntity
  8
SCHRAFF
100
AcDbCircle
 10
731.6179526996862
 20
823.4463008631525
 30
0.0
 40
5.705091079773839
100
AcDbArc
 50
280.4824135024093
 51
9.517586497590635
  0
ARC
  5
1712A
330
16FD6
100
AcDbEntity
  8
SCHRAFF
100
AcDbCircle
 10
698.8518709281268
 20
846.3893583171946
 30
0.0
 40
5.705091079773839
100
AcDbArc
 50
280.4824135024093
 51
9.517586497590635
  0
ARC
  5
1712B
330
16FD6
100
AcDbEntity
  8
SCHRAFF
100
AcDbCircle
 10
702.9476311495711
 20
843.5214761354389
 30
0.0
 40
5.705091079773839
100
AcDbArc
 50
280.4824135024093
 51
9.517586497590635
  0
ARC
  5
1712C
330
16FD6
100
AcDbEntity
  8
SCHRAFF
100
AcDbCircle
 10
707.0433913710164
 20
840.6535939536839
 30
0.0
 40
5.705091079773839
100
AcDbArc
 50
280.4824135024093
 51
9.517586497590635
  0
ARC
  5
1712D
330
16FD6
100
AcDbEntity
  8
SCHRAFF
100
AcDbCircle
 10
686.5645902637918
 20
854.9930048624599
 30
0.0
 40
5.705091079773839
100
AcDbArc
 50
280.4824135024093
 51
9.517586497590635
  0
ARC
  5
1712E
330
16FD6
100
AcDbEntity
  8
SCHRAFF
100
AcDbCircle
 10
678.3730698209015
 20
860.7287692259701
 30
0.0
 40
5.705091079773839
100
AcDbArc
 50
280.4824135024093
 51
9.517586497590635
  0
ARC
  5
1712F
330
16FD6
100
AcDbEntity
  8
SCHRAFF
100
AcDbCircle
 10
682.4688300423465
 20
857.8608870442147
 30
0.0
 40
5.705091079773839
100
AcDbArc
 50
280.4824135024093
 51
9.517586497590635
  0
ARC
  5
17130
330
16FD6
100
AcDbEntity
  8
SCHRAFF
100
AcDbCircle
 10
690.6603504852364
 20
852.1251226807047
 30
0.0
 40
5.705091079773839
100
AcDbArc
 50
280.4824135024093
 51
9.517586497590635
  0
ARC
  5
17131
330
16FD6
100
AcDbEntity
  8
SCHRAFF
100
AcDbCircle
 10
694.756110706681
 20
849.2572404989493
 30
0.0
 40
5.705091079773839
100
AcDbArc
 50
280.4824135024093
 51
9.517586497590635
  0
ARC
  5
17132
330
16FD6
100
AcDbEntity
  8
SCHRAFF
100
AcDbCircle
 10
715.2349118139056
 20
834.9178295901733
 30
0.0
 40
5.705091079773839
100
AcDbArc
 50
280.4824135024093
 51
9.517586497590635
  0
ARC
  5
17133
330
16FD6
100
AcDbEntity
  8
SCHRAFF
100
AcDbCircle
 10
711.139151592461
 20
837.7857117719285
 30
0.0
 40
5.705091079773839
100
AcDbArc
 50
280.4824135024093
 51
9.517586497590635
  0
ARC
  5
17134
330
16FD6
100
AcDbEntity
  8
SCHRAFF
100
AcDbCircle
 10
657.8942687136768
 20
875.0681801347459
 30
0.0
 40
5.705091079773839
100
AcDbArc
 50
280.4824135024093
 51
9.517586497590635
  0
ARC
  5
17135
330
16FD6
100
AcDbEntity
  8
SCHRAFF
100
AcDbCircle
 10
645.6069880493418
 20
883.6718266800126
 30
0.0
 40
5.705091079773839
100
AcDbArc
 50
280.4824135024093
 51
9.517586497590635
  0
ARC
  5
17136
330
16FD6
100
AcDbEntity
  8
SCHRAFF
100
AcDbCircle
 10
637.415467606452
 20
889.4075910435228
 30
0.0
 40
5.705091079773839
100
AcDbArc
 50
280.4824135024093
 51
9.517586497590635
  0
ARC
  5
17137
330
16FD6
100
AcDbEntity
  8
SCHRAFF
100
AcDbCircle
 10
641.5112278278968
 20
886.5397088617669
 30
0.0
 40
5.705091079773839
100
AcDbArc
 50
280.4824135024093
 51
9.517586497590635
  0
ARC
  5
17138
330
16FD6
100
AcDbEntity
  8
SCHRAFF
100
AcDbCircle
 10
653.7985084922318
 20
877.9360623165015
 30
0.0
 40
5.705091079773839
100
AcDbArc
 50
280.4824135024093
 51
9.517586497590635
  0
ARC
  5
17139
330
16FD6
100
AcDbEntity
  8
SCHRAFF
100
AcDbCircle
 10
649.7027482707872
 20
880.8039444982567
 30
0.0
 40
5.705091079773839
100
AcDbArc
 50
280.4824135024093
 51
9.517586497590635
  0
ARC
  5
1713A
330
16FD6
100
AcDbEntity
  8
SCHRAFF
100
AcDbCircle
 10
621.0324267206724
 20
900.8791197705436
 30
0.0
 40
5.705091079773839
100
AcDbArc
 50
280.4824135024093
 51
9.517586497590635
  0
ARC
  5
1713B
330
16FD6
100
AcDbEntity
  8
SCHRAFF
100
AcDbCircle
 10
616.9366664992272
 20
903.7470019522983
 30
0.0
 40
5.705091079773839
100
AcDbArc
 50
280.4824135024093
 51
9.517586497590635
  0
ARC
  5
1713C
330
16FD6
100
AcDbEntity
  8
SCHRAFF
100
AcDbCircle
 10
625.1281869421172
 20
898.0112375887884
 30
0.0
 40
5.705091079773839
100
AcDbArc
 50
280.4824135024093
 51
9.517586497590635
  0
ARC
  5
1713D
330
16FD6
100
AcDbEntity
  8
SCHRAFF
100
AcDbCircle
 10
604.6493858348924
 20
912.3506484975644
 30
0.0
 40
5.705091079773839
100
AcDbArc
 50
280.4824135024093
 51
9.517586497590635
  0
ARC
  5
1713E
330
16FD6
100
AcDbEntity
  8
SCHRAFF
100
AcDbCircle
 10
596.4578653920023
 20
918.086412861075
 30
0.0
 40
5.705091079773839
100
AcDbArc
 50
280.4824135024093
 51
9.517586497590635
  0
ARC
  5
1713F
330
16FD6
100
AcDbEntity
  8
SCHRAFF
100
AcDbCircle
 10
600.5536256134473
 20
915.2185306793196
 30
0.0
 40
5.705091079773839
100
AcDbArc
 50
280.4824135024093
 51
9.517586497590635
  0
ARC
  5
17140
330
16FD6
100
AcDbEntity
  8
SCHRAFF
100
AcDbCircle
 10
608.7451460563372
 20
909.4827663158095
 30
0.0
 40
5.705091079773839
100
AcDbArc
 50
280.4824135024093
 51
9.517586497590635
  0
ARC
  5
17141
330
16FD6
100
AcDbEntity
  8
SCHRAFF
100
AcDbCircle
 10
612.8409062777823
 20
906.6148841340542
 30
0.0
 40
5.705091079773839
100
AcDbArc
 50
280.4824135024093
 51
9.517586497590635
  0
ARC
  5
17142
330
16FD6
100
AcDbEntity
  8
SCHRAFF
100
AcDbCircle
 10
629.2239471635621
 20
895.1433554070332
 30
0.0
 40
5.705091079773839
100
AcDbArc
 50
280.4824135024093
 51
9.517586497590635
  0
ARC
  5
17143
330
16FD6
100
AcDbEntity
  8
SCHRAFF
100
AcDbCircle
 10
633.3197073850069
 20
892.2754732252784
 30
0.0
 40
5.705091079773839
100
AcDbArc
 50
280.4824135024093
 51
9.517586497590635
  0
ARC
  5
17144
330
16FD6
100
AcDbEntity
  8
SCHRAFF
100
AcDbCircle
 10
584.1705847276674
 20
926.6900594063407
 30
0.0
 40
5.705091079773839
100
AcDbArc
 50
280.4824135024093
 51
9.517586497590635
  0
ARC
  5
17145
330
16FD6
100
AcDbEntity
  8
SCHRAFF
100
AcDbCircle
 10
592.3621051705577
 20
920.9542950428302
 30
0.0
 40
5.705091079773839
100
AcDbArc
 50
280.4824135024093
 51
9.517586497590635
  0
ARC
  5
17146
330
16FD6
100
AcDbEntity
  8
SCHRAFF
100
AcDbCircle
 10
588.2663449491125
 20
923.8221772245852
 30
0.0
 40
5.705091079773839
100
AcDbArc
 50
280.4824135024093
 51
9.517586497590635
  0
ARC
  5
17147
330
16FD6
100
AcDbEntity
  8
SCHRAFF
100
AcDbCircle
 10
661.9900289351217
 20
872.2002979529911
 30
0.0
 40
5.705091079773839
100
AcDbArc
 50
280.4824135024093
 51
9.517586497590635
  0
ARC
  5
17148
330
16FD6
100
AcDbEntity
  8
SCHRAFF
100
AcDbCircle
 10
666.0857891565665
 20
869.3324157712359
 30
0.0
 40
5.705091079773839
100
AcDbArc
 50
280.4824135024093
 51
9.517586497590635
  0
ARC
  5
17149
330
16FD6
100
AcDbEntity
  8
SCHRAFF
100
AcDbCircle
 10
674.2773095994564
 20
863.5966514077257
 30
0.0
 40
5.705091079773839
100
AcDbArc
 50
280.4824135024093
 51
9.517586497590635
  0
ARC
  5
1714A
330
16FD6
100
AcDbEntity
  8
SCHRAFF
100
AcDbCircle
 10
670.1815493780111
 20
866.4645335894807
 30
0.0
 40
5.705091079773839
100
AcDbArc
 50
280.4824135024093
 51
9.517586497590635
  0
ARC
  5
1714C
330
16FD6
100
AcDbEntity
  8
SCHRAFF
100
AcDbCircle
 10
739.8094731425759
 20
817.7105364996416
 30
0.0
 40
5.705091079773839
100
AcDbArc
 50
280.4824135024093
 51
9.517586497590635
  0
ARC
  5
1714D
330
16FD6
100
AcDbEntity
  8
SCHRAFF
100
AcDbCircle
 10
735.7137129211316
 20
820.5784186813973
 30
0.0
 40
5.705091079773839
100
AcDbArc
 50
280.4824135024093
 51
9.517586497590635
  0
ARC
  5
1714E
330
16FD6
100
AcDbEntity
  8
SCHRAFF
100
AcDbCircle
 10
743.9052333640212
 20
814.8426543178866
 30
0.0
 40
5.705091079773839
100
AcDbArc
 50
280.4824135024093
 51
9.517586497590635
  0
DIMENSION
  5
17151
102
{ACAD_XDICTIONARY
360
1715E
102
}
102
{ACAD_REACTORS
330
17168
102
}
330
16FD6
100
AcDbEntity
  8
BEM
100
AcDbDimension
  2
*D10
 10
712.3539468491633
 20
1180.958838805869
 30
0.0
 11
610.9481249043156
 21
1161.343026839379
 31
0.0
 70
    32
 71
     5
 42
203.9986108130626
 51
339.9999999999999
  3
Standard
100
AcDbAlignedDimension
 13
588.9750229022742
 23
923.4876104641674
 33
0.0
 14
725.2808499222935
 24
1145.442464508966
 34
0.0
 50
20.00000000000003
100
AcDbRotatedDimension
1001
ACAD
1000
DSTYLE
1002
{
1070
    40
1040
5.0
1070
    41
1040
3.5
1070
    42
1040
1.0
1070
    43
1040
7.0
1070
    44
1040
1.0
1070
    47
1040
5.0
1070
    48
1040
5.0
1070
    73
1070
     0
1070
    74
1070
     0
1070
    77
1070
     1
1070
    78
1070
     8
1070
    79
1070
     2
1070
   140
1040
3.5
1070
   141
1040
1.5
1070
   147
1040
1.5
1070
   172
1070
     1
1070
   178
1070
     1
1070
   179
1070
     2
1070
   271
1070
     2
1070
   272
1070
     2
1070
   284
1070
     8
1070
   285
1070
     8
1070
   286
1070
     8
1070
   340
1005
16FE4
1002
}
  0
DIMENSION
  5
17169
102
{ACAD_XDICTIONARY
360
17177
102
}
102
{ACAD_REACTORS
330
17182
102
}
330
16FD6
100
AcDbEntity
  8
BEM
100
AcDbDimension
  2
*D11
 10
588.9750229022744
 20
709.4889996511048
 30
0.0
 11
683.9364484558553
 21
1059.106581085903
 31
0.0
 70
    34
 71
     5
 42
1.221730476396029
  3
Standard
100
AcDb2LineAngularDimension
 13
588.9750229022742
 23
923.4876104641674
 33
0.0
 14
790.0679383417449
 24
996.6794460059453
 34
0.0
 15
588.9750229022744
 25
923.4876104641676
 35
0.0
 16
697.5793217733968
 26
1025.950481920061
 36
0.0
1001
ACAD
1000
DSTYLE
1002
{
1070
    40
1040
5.0
1070
    41
1040
3.5
1070
    42
1040
1.0
1070
    43
1040
7.0
1070
    44
1040
1.0
1070
    47
1040
5.0
1070
    48
1040
5.0
1070
    73
1070
     0
1070
    74
1070
     0
1070
    77
1070
     1
1070
    78
1070
     8
1070
    79
1070
     2
1070
   140
1040
3.5
1070
   141
1040
1.5
1070
   147
1040
1.5
1070
   172
1070
     1
1070
   178
1070
     1
1070
   179
1070
     2
1070
   271
1070
     2
1070
   272
1070
     2
1070
   284
1070
     8
1070
   285
1070
     8
1070
   286
1070
     8
1070
   340
1005
16FE4
1002
}
  0
ENDSEC
  0
SECTION
  2
OBJECTS
  0
DICTIONARY
  5
16FC2
330
0
100
AcDbDictionary
281
     1
  3
ACAD_COLOR
350
16FD1
  3
ACAD_GROUP
350
16FC3
  3
ACAD_LAYOUT
350
16FCF
  3
ACAD_MATERIAL
350
16FD0
  3
ACAD_MLINESTYLE
350
16FCC
  3
ACAD_PLOTSETTINGS
350
16FCE
  3
ACAD_PLOTSTYLENAME
350
16FC4
  3
AcDbVariableDictionary
350
1707D
  0
DICTIONARY
  5
1715E
330
17151
100
AcDbDictionary
280
     1
281
     1
  3
ACAD_DIMASSOC
360
17168
  0
DICTIONARY
  5
17177
330
17169
100
AcDbDictionary
280
     1
281
     1
  3
ACAD_DIMASSOC
360
17182
  0
DICTIONARY
  5
16FD1
102
{ACAD_REACTORS
330
16FC2
102
}
330
16FC2
100
AcDbDictionary
281
     1
  0
DICTIONARY
  5
16FC3
102
{ACAD_REACTORS
330
16FC2
102
}
330
16FC2
100
AcDbDictionary
281
     1
  0
DICTIONARY
  5
16FCF
102
{ACAD_REACTORS
330
16FC2
102
}
330
16FC2
100
AcDbDictionary
281
     1
  3
Layout1
350
16FD5
  3
Model
350
16FD9
  0
DICTIONARY
  5
16FD0
102
{ACAD_REACTORS
330
16FC2
102
}
330
16FC2
100
AcDbDictionary
281
     1
  0
DICTIONARY
  5
16FCC
102
{ACAD_REACTORS
330
16FC2
102
}
330
16FC2
100
AcDbDictionary
281
     1
  3
Standard
350
16FCD
  0
DICTIONARY
  5
16FCE
102
{ACAD_REACTORS
330
16FC2
102
}
330
16FC2
100
AcDbDictionary
281
     1
  0
ACDBDICTIONARYWDFLT
  5
16FC4
102
{ACAD_REACTORS
330
16FC2
102
}
330
16FC2
100
AcDbDictionary
281
     1
  3
Normal
350
16FC5
100
AcDbDictionaryWithDefault
340
16FC5
  0
DICTIONARY
  5
1707D
102
{ACAD_REACTORS
330
16FC2
102
}
330
16FC2
100
AcDbDictionary
281
     1
  3
DIMASSOC
350
1707F
  3
HIDETEXT
350
1707E
  3
PROJECTNAME
350
17080
  0
DIMASSOC
  5
17168
102
{ACAD_REACTORS
330
1715E
102
}
330
1715E
100
AcDbDimAssoc
330
17151
 90
        3
 70
     0
 71
     0
  1
AcDbOsnapPointRef
 72
    13
331
16F9A
 73
     2
 91
        0
 40
0.0
 10
0.0
 20
0.0
 30
2.000000000000000E+50
 75
     0
  1
AcDbOsnapPointRef
 72
     1
331
16FAD
 73
     2
 91
        0
 40
0.9999999999999994
 10
0.0
 20
0.0
 30
2.000000000000000E+50
 75
     0
  0
DIMASSOC
  5
17182
102
{ACAD_REACTORS
330
17177
102
}
330
17177
100
AcDbDimAssoc
330
17169
 90
       15
 70
     0
 71
     0
  1
AcDbOsnapPointRef
 72
    13
331
16F9A
 73
     2
 91
        0
 40
0.0
 10
0.0
 20
0.0
 30
2.000000000000000E+50
 75
     0
  1
AcDbOsnapPointRef
 72
     1
331
16F9A
 73
     2
 91
        0
 40
1.0
 10
0.0
 20
0.0
 30
2.000000000000000E+50
 75
     0
  1
AcDbOsnapPointRef
 72
    13
331
16F7C
 73
     2
 91
        0
 40
0.0
 10
0.0
 20
0.0
 30
2.000000000000000E+50
 75
     0
  1
AcDbOsnapPointRef
 72
     1
331
16F7C
 73
     2
 91
        0
 40
0.9999999999999998
 10
0.0
 20
0.0
 30
2.000000000000000E+50
 75
     0
  0
LAYOUT
  5
16FD5
102
{ACAD_REACTORS
330
16FCF
102
}
330
16FCF
100
AcDbPlotSettings
  1

  2
RICOH Aficio 2027 PCL 6
  4

  6

 40
0.0
 41
0.0
 42
0.0
 43
0.0
 44
0.0
 45
0.0
 46
0.0
 47
0.0
 48
0.0
 49
0.0
140
0.0
141
0.0
142
1.0
143
1.0
 70
   688
 72
     0
 73
     0
 74
     5
  7
monochrome1.ctb
 75
    16
147
1.0
 76
     0
 77
     2
 78
   300
148
0.0
149
0.0
100
AcDbLayout
  1
Layout1
 70
     0
 71
     1
 10
0.0
 20
0.0
 11
12.0
 21
9.0
 12
5.612851412409735
 22
50.00000000000001
 32
-2.58105543498411
 14
1.000000000000000E+20
 24
1.000000000000000E+20
 34
1.000000000000000E+20
 15
-1.000000000000000E+20
 25
-1.000000000000000E+20
 35
-1.000000000000000E+20
146
0.0
 13
0.0
 23
0.0
 33
0.0
 16
1.0
 26
0.0
 36
0.0
 17
0.0
 27
1.0
 37
0.0
 76
     0
330
16FD2
  0
LAYOUT
  5
16FD9
102
{ACAD_REACTORS
330
16FCF
102
}
330
16FCF
100
AcDbPlotSettings
  1

  2
RICOH Aficio 2027 PCL 6
  4
A4
  6

 40
5.027083396911621
 41
5.027085304260253
 42
5.027084350585937
 43
5.027069091796875
 44
209.9733276367187
 45
296.9259948730469
 46
0.0
 47
0.0
 48
0.0
 49
0.0
140
0.0
141
0.0
142
1.0
143
1.0
 70
 11952
 72
     0
 73
     1
 74
     0
  7
monochrome1.ctb
 75
     0
147
1.0
 76
     0
 77
     2
 78
   300
148
5749.737974108374
149
225.2379483828901
100
AcDbLayout
  1
Model
 70
     1
 71
     0
 10
0.0
 20
0.0
 11
12.0
 21
9.0
 12
0.0
 22
0.0
 32
0.0
 14
0.0
 24
0.0
 34
0.0
 15
0.0
 25
0.0
 35
0.0
146
0.0
 13
0.0
 23
0.0
 33
0.0
 16
1.0
 26
0.0
 36
0.0
 17
0.0
 27
1.0
 37
0.0
 76
     0
330
16FD6
  0
MLINESTYLE
  5
16FCD
102
{ACAD_REACTORS
330
16FCC
102
}
330
16FCC
100
AcDbMlineStyle
  2
STANDARD
 70
     0
  3

 62
   256
 51
90.0
 52
90.0
 71
     2
 49
0.5
 62
   256
  6
BYLAYER
 49
-0.5
 62
   256
  6
BYLAYER
  0
ACDBPLACEHOLDER
  5
16FC5
102
{ACAD_REACTORS
330
16FC4
102
}
330
16FC4
  0
DICTIONARYVAR
  5
1707F
102
{ACAD_REACTORS
330
1707D
102
}
330
1707D
100
DictionaryVariables
280
     0
  1
2
  0
DICTIONARYVAR
  5
1707E
102
{ACAD_REACTORS
330
1707D
102
}
330
1707D
100
DictionaryVariables
280
     0
  1
1
  0
DICTIONARYVAR
  5
17080
102
{ACAD_REACTORS
330
1707D
102
}
330
1707D
100
DictionaryVariables
280
     0
  1

  0
ENDSEC
  0
EOF
