  0
SECTION
  2
HEADER
  9
$ACADVER
  1
AC1018
  9
$ACADMAINTVER
 70
     2
  9
$DWGCODEPAGE
  3
ANSI_1252
  9
$INSBASE
 10
0.0
 20
0.0
 30
0.0
  9
$EXTMIN
 10
-0.032025120463004
 20
-0.0452926703683261
 30
-0.0000000000000053
  9
$EXTMAX
 10
1050.032053236514
 20
1485.0453324345
 30
0.0000000000000099
  9
$LIMMIN
 10
0.0
 20
0.0
  9
$LIMMAX
 10
1050.0
 20
1485.0
  9
$ORTHOMODE
 70
     0
  9
$REGENMODE
 70
     1
  9
$FILLMODE
 70
     1
  9
$QTEXTMODE
 70
     0
  9
$MIRRTEXT
 70
     1
  9
$LTSCALE
 40
50.0
  9
$ATTMODE
 70
     1
  9
$TEXTSIZE
 40
2.5
  9
$TRACEWID
 40
0.5
  9
$TEXTSTYLE
  7
GREEKS
  9
$CLAYER
  8
BEM
  9
$CELTYPE
  6
ByLayer
  9
$CECOLOR
 62
   256
  9
$CELTSCALE
 40
1.0
  9
$DISPSILH
 70
     0
  9
$DIMSCALE
 40
5.0
  9
$DIMASZ
 40
3.5
  9
$DIMEXO
 40
1.0
  9
$DIMDLI
 40
7.0
  9
$DIMRND
 40
0.0
  9
$DIMDLE
 40
0.0
  9
$DIMEXE
 40
1.0
  9
$DIMTP
 40
2.0
  9
$DIMTM
 40
2.0
  9
$DIMTXT
 40
3.5
  9
$DIMCEN
 40
1.5
  9
$DIMTSZ
 40
0.0
  9
$DIMTOL
 70
     0
  9
$DIMLIM
 70
     0
  9
$DIMTIH
 70
     0
  9
$DIMTOH
 70
     0
  9
$DIMSE1
 70
     0
  9
$DIMSE2
 70
     0
  9
$DIMTAD
 70
     1
  9
$DIMZIN
 70
     8
  9
$DIMBLK
  1

  9
$DIMASO
 70
     1
  9
$DIMSHO
 70
     0
  9
$DIMPOST
  1

  9
$DIMAPOST
  1

  9
$DIMALT
 70
     0
  9
$DIMALTD
 70
     2
  9
$DIMALTF
 40
25.4
  9
$DIMLFAC
 40
1.0
  9
$DIMTOFL
 70
     1
  9
$DIMTVP
 40
0.0
  9
$DIMTIX
 70
     0
  9
$DIMSOXD
 70
     0
  9
$DIMSAH
 70
     0
  9
$DIMBLK1
  1

  9
$DIMBLK2
  1

  9
$DIMSTYLE
  2
Standard
  9
$DIMCLRD
 70
     0
  9
$DIMCLRE
 70
     0
  9
$DIMCLRT
 70
     1
  9
$DIMTFAC
 40
0.5
  9
$DIMGAP
 40
1.5
  9
$DIMJUST
 70
     0
  9
$DIMSD1
 70
     0
  9
$DIMSD2
 70
     0
  9
$DIMTOLJ
 70
     1
  9
$DIMTZIN
 70
     8
  9
$DIMALTZ
 70
     8
  9
$DIMALTTZ
 70
     8
  9
$DIMUPT
 70
     0
  9
$DIMDEC
 70
     2
  9
$DIMTDEC
 70
     2
  9
$DIMALTU
 70
     2
  9
$DIMALTTD
 70
     2
  9
$DIMTXSTY
  7
GREEKS
  9
$DIMAUNIT
 70
     0
  9
$DIMADEC
 70
     2
  9
$DIMALTRND
 40
0.0
  9
$DIMAZIN
 70
     2
  9
$DIMDSEP
 70
    46
  9
$DIMATFIT
 70
     3
  9
$DIMFRAC
 70
     0
  9
$DIMLDRBLK
  1

  9
$DIMLUNIT
 70
     2
  9
$DIMLWD
 70
    -2
  9
$DIMLWE
 70
    -2
  9
$DIMTMOVE
 70
     0
  9
$LUNITS
 70
     2
  9
$LUPREC
 70
     2
  9
$SKETCHINC
 40
1.0
  9
$FILLETRAD
 40
0.0
  9
$AUNITS
 70
     0
  9
$AUPREC
 70
     0
  9
$MENU
  1
ACAD
  9
$ELEVATION
 40
0.0
  9
$PELEVATION
 40
0.0
  9
$THICKNESS
 40
0.0
  9
$LIMCHECK
 70
     0
  9
$CHAMFERA
 40
0.0
  9
$CHAMFERB
 40
0.0
  9
$CHAMFERC
 40
0.0
  9
$CHAMFERD
 40
0.0
  9
$SKPOLY
 70
     0
  9
$TDCREATE
 40
2452283.550572107
  9
$TDUCREATE
 40
2452283.467238773
  9
$TDUPDATE
 40
2455658.314363565
  9
$TDUUPDATE
 40
2455658.231030231
  9
$TDINDWG
 40
0.0118812963
  9
$TDUSRTIMER
 40
0.0118812963
  9
$USRTIMER
 70
     1
  9
$ANGBASE
 50
0.0
  9
$ANGDIR
 70
     0
  9
$PDMODE
 70
     0
  9
$PDSIZE
 40
0.0
  9
$PLINEWID
 40
0.0
  9
$SPLFRAME
 70
     0
  9
$SPLINETYPE
 70
     6
  9
$SPLINESEGS
 70
     8
  9
$HANDSEED
  5
4C9
  9
$SURFTAB1
 70
     6
  9
$SURFTAB2
 70
     6
  9
$SURFTYPE
 70
     6
  9
$SURFU
 70
     6
  9
$SURFV
 70
     6
  9
$UCSBASE
  2

  9
$UCSNAME
  2

  9
$UCSORG
 10
0.0
 20
0.0
 30
0.0
  9
$UCSXDIR
 10
1.0
 20
0.0
 30
0.0
  9
$UCSYDIR
 10
0.0
 20
1.0
 30
0.0
  9
$UCSORTHOREF
  2

  9
$UCSORTHOVIEW
 70
     0
  9
$UCSORGTOP
 10
0.0
 20
0.0
 30
0.0
  9
$UCSORGBOTTOM
 10
0.0
 20
0.0
 30
0.0
  9
$UCSORGLEFT
 10
0.0
 20
0.0
 30
0.0
  9
$UCSORGRIGHT
 10
0.0
 20
0.0
 30
0.0
  9
$UCSORGFRONT
 10
0.0
 20
0.0
 30
0.0
  9
$UCSORGBACK
 10
0.0
 20
0.0
 30
0.0
  9
$PUCSBASE
  2

  9
$PUCSNAME
  2

  9
$PUCSORG
 10
0.0
 20
0.0
 30
0.0
  9
$PUCSXDIR
 10
1.0
 20
0.0
 30
0.0
  9
$PUCSYDIR
 10
0.0
 20
1.0
 30
0.0
  9
$PUCSORTHOREF
  2

  9
$PUCSORTHOVIEW
 70
     0
  9
$PUCSORGTOP
 10
0.0
 20
0.0
 30
0.0
  9
$PUCSORGBOTTOM
 10
0.0
 20
0.0
 30
0.0
  9
$PUCSORGLEFT
 10
0.0
 20
0.0
 30
0.0
  9
$PUCSORGRIGHT
 10
0.0
 20
0.0
 30
0.0
  9
$PUCSORGFRONT
 10
0.0
 20
0.0
 30
0.0
  9
$PUCSORGBACK
 10
0.0
 20
0.0
 30
0.0
  9
$USERI1
 70
     0
  9
$USERI2
 70
     0
  9
$USERI3
 70
     0
  9
$USERI4
 70
     0
  9
$USERI5
 70
     0
  9
$USERR1
 40
0.0
  9
$USERR2
 40
0.0
  9
$USERR3
 40
0.0
  9
$USERR4
 40
0.0
  9
$USERR5
 40
0.0
  9
$WORLDVIEW
 70
     1
  9
$SHADEDGE
 70
     3
  9
$SHADEDIF
 70
    70
  9
$TILEMODE
 70
     1
  9
$MAXACTVP
 70
    16
  9
$PINSBASE
 10
0.0
 20
0.0
 30
0.0
  9
$PLIMCHECK
 70
     0
  9
$PEXTMIN
 10
1.000000000000000E+20
 20
1.000000000000000E+20
 30
1.000000000000000E+20
  9
$PEXTMAX
 10
-1.000000000000000E+20
 20
-1.000000000000000E+20
 30
-1.000000000000000E+20
  9
$PLIMMIN
 10
0.0
 20
0.0
  9
$PLIMMAX
 10
12.0
 20
9.0
  9
$UNITMODE
 70
     0
  9
$VISRETAIN
 70
     0
  9
$PLINEGEN
 70
     0
  9
$PSLTSCALE
 70
     0
  9
$TREEDEPTH
 70
  3020
  9
$CMLSTYLE
  2
Standard
  9
$CMLJUST
 70
     0
  9
$CMLSCALE
 40
1.0
  9
$PROXYGRAPHICS
 70
     1
  9
$MEASUREMENT
 70
     0
  9
$CELWEIGHT
370
    -1
  9
$ENDCAPS
280
     0
  9
$JOINSTYLE
280
     0
  9
$LWDISPLAY
290
     0
  9
$INSUNITS
 70
     0
  9
$HYPERLINKBASE
  1

  9
$STYLESHEET
  1
monochrome 1.ctb
  9
$XEDIT
290
     1
  9
$CEPSNTYPE
380
     0
  9
$PSTYLEMODE
290
     1
  9
$FINGERPRINTGUID
  2
{1227CED8-8F9F-4999-A0BE-473BA4EC2974}
  9
$VERSIONGUID
  2
{40C20D41-4ABE-43A8-8A01-AB66575CB50C}
  9
$EXTNAMES
290
     1
  9
$PSVPSCALE
 40
0.0
  9
$OLESTARTUP
290
     0
  9
$SORTENTS
280
   127
  9
$INDEXCTL
280
     0
  9
$HIDETEXT
280
     1
  9
$XCLIPFRAME
290
     0
  9
$HALOGAP
280
     0
  9
$OBSCOLOR
 70
   257
  9
$OBSLTYPE
280
     0
  9
$INTERSECTIONDISPLAY
280
     0
  9
$INTERSECTIONCOLOR
 70
   257
  9
$DIMASSOC
280
     2
  9
$PROJECTNAME
  1

  0
ENDSEC
  0
SECTION
  2
CLASSES
  0
CLASS
  1
ACDBDICTIONARYWDFLT
  2
AcDbDictionaryWithDefault
  3
ObjectDBX Classes
 90
        0
 91
        1
280
     0
281
     0
  0
CLASS
  1
DICTIONARYVAR
  2
AcDbDictionaryVar
  3
ObjectDBX Classes
 90
        0
 91
        3
280
     0
281
     0
  0
CLASS
  1
DIMASSOC
  2
AcDbDimAssoc
  3
"AcDbDimAssoc|Product Desc:     AcDim ARX App For Dimension|Company:          Autodesk, Inc.|WEB Address:      www.autodesk.com"
 90
        0
 91
        4
280
     0
281
     0
  0
ENDSEC
  0
SECTION
  2
TABLES
  0
TABLE
  2
VPORT
  5
8
330
0
100
AcDbSymbolTable
 70
     3
  0
VPORT
  5
4C8
330
8
100
AcDbSymbolTableRecord
100
AcDbViewportTableRecord
  2
*Active
 70
     0
 10
0.0
 20
0.0
 11
1.0
 21
1.0
 12
524.9999999999998
 22
742.4999999999999
 13
0.0
 23
0.0
 14
1.0
 24
1.0
 15
10.0
 25
10.0
 16
0.0
 26
0.0
 36
1.0
 17
0.0
 27
0.0
 37
0.0
 40
1485.0
 41
1.334231805929919
 42
50.0
 43
0.0
 44
0.0
 50
0.0
 51
0.0
 71
     0
 72
  1500
 73
     1
 74
     0
 75
     0
 76
     0
 77
     0
 78
     0
281
     0
 65
     1
110
0.0
120
0.0
130
0.0
111
1.0
121
0.0
131
0.0
112
0.0
122
1.0
132
0.0
 79
     0
146
0.0
  0
ENDTAB
  0
TABLE
  2
LTYPE
  5
5
330
0
100
AcDbSymbolTable
 70
     3
  0
LTYPE
  5
13
330
5
100
AcDbSymbolTableRecord
100
AcDbLinetypeTableRecord
  2
ByBlock
 70
     0
  3

 72
    65
 73
     0
 40
0.0
  0
LTYPE
  5
14
330
5
100
AcDbSymbolTableRecord
100
AcDbLinetypeTableRecord
  2
ByLayer
 70
     0
  3

 72
    65
 73
     0
 40
0.0
  0
LTYPE
  5
15
330
5
100
AcDbSymbolTableRecord
100
AcDbLinetypeTableRecord
  2
AUSGEZOGEN
 70
     0
  3
Ausgezogene Linie
 72
    65
 73
     0
 40
0.0
  0
LTYPE
  5
38
330
5
100
AcDbSymbolTableRecord
100
AcDbLinetypeTableRecord
  2
STRICHPUNKT
 70
     0
  3
__ . __ . __ . __ . __ . __ . __ . __ . __ . __
 72
    65
 73
     4
 40
1.0
 49
0.5
 74
     0
 49
-0.25
 74
     0
 49
0.0
 74
     0
 49
-0.25
 74
     0
  0
LTYPE
  5
39
330
5
100
AcDbSymbolTableRecord
100
AcDbLinetypeTableRecord
  2
CONTINUOUS
 70
     0
  3
Solid line
 72
    65
 73
     0
 40
0.0
  0
ENDTAB
  0
TABLE
  2
LAYER
  5
2
330
0
100
AcDbSymbolTable
 70
     9
  0
LAYER
  5
10
330
2
100
AcDbSymbolTableRecord
100
AcDbLayerTableRecord
  2
0
 70
     0
 62
     7
  6
AUSGEZOGEN
370
    -3
390
F
  0
LAYER
  5
3C
330
2
100
AcDbSymbolTableRecord
100
AcDbLayerTableRecord
  2
VOLL
 70
     0
 62
     1
  6
AUSGEZOGEN
370
    -3
390
F
  0
LAYER
  5
3D
330
2
100
AcDbSymbolTableRecord
100
AcDbLayerTableRecord
  2
HILF
 70
     0
 62
     2
  6
AUSGEZOGEN
370
    -3
390
F
  0
LAYER
  5
3E
330
2
100
AcDbSymbolTableRecord
100
AcDbLayerTableRecord
  2
MITTEL
 70
     0
 62
     2
  6
STRICHPUNKT
370
    -3
390
F
  0
LAYER
  5
3F
330
2
100
AcDbSymbolTableRecord
100
AcDbLayerTableRecord
  2
BEM
 70
     0
 62
     7
  6
AUSGEZOGEN
370
    -3
390
F
  0
LAYER
  5
40
330
2
100
AcDbSymbolTableRecord
100
AcDbLayerTableRecord
  2
STEMPEL
 70
     0
 62
     3
  6
AUSGEZOGEN
370
    -3
390
F
  0
LAYER
  5
41
330
2
100
AcDbSymbolTableRecord
100
AcDbLayerTableRecord
  2
TEXT
 70
     0
 62
     7
  6
AUSGEZOGEN
370
    -3
390
F
  0
LAYER
  5
42
330
2
100
AcDbSymbolTableRecord
100
AcDbLayerTableRecord
  2
DEFPOINTS
 70
     0
 62
     7
  6
AUSGEZOGEN
290
     0
370
    -3
390
F
  0
LAYER
  5
43
330
2
100
AcDbSymbolTableRecord
100
AcDbLayerTableRecord
  2
SCHRAFF
 70
     0
 62
     7
  6
AUSGEZOGEN
370
    -3
390
F
  0
ENDTAB
  0
TABLE
  2
STYLE
  5
3
330
0
100
AcDbSymbolTable
 70
     2
  0
STYLE
  5
11
330
3
100
AcDbSymbolTableRecord
100
AcDbTextStyleTableRecord
  2
STANDARD
 70
     0
 40
0.0
 41
1.0
 50
0.0
 71
     0
 42
3.5
  3
txt
  4

  0
STYLE
  5
37
330
3
100
AcDbSymbolTableRecord
100
AcDbTextStyleTableRecord
  2
GREEKS
 70
     0
 40
0.0
 41
0.8
 50
0.0
 71
     0
 42
2.5
  3
SIMPLEX.shx
  4

  0
ENDTAB
  0
TABLE
  2
VIEW
  5
6
330
0
100
AcDbSymbolTable
 70
     0
  0
ENDTAB
  0
TABLE
  2
UCS
  5
7
330
0
100
AcDbSymbolTable
 70
     0
  0
ENDTAB
  0
TABLE
  2
APPID
  5
9
330
0
100
AcDbSymbolTable
 70
     1
  0
APPID
  5
12
330
9
100
AcDbSymbolTableRecord
100
AcDbRegAppTableRecord
  2
ACAD
 70
     0
  0
ENDTAB
  0
TABLE
  2
DIMSTYLE
  5
A
330
0
100
AcDbSymbolTable
 70
     1
100
AcDbDimStyleTable
 71
     1
340
2CC
  0
DIMSTYLE
105
2CC
102
{ACAD_REACTORS
330
3A1
330
3B9
330
3D1
330
3E9
330
20D
102
}
330
A
100
AcDbSymbolTableRecord
100
AcDbDimStyleTableRecord
  2
Standard
 70
     0
340
11
  0
ENDTAB
  0
TABLE
  2
BLOCK_RECORD
  5
1
330
0
100
AcDbSymbolTable
 70
    10
  0
BLOCK_RECORD
  5
20
330
1
100
AcDbSymbolTableRecord
100
AcDbBlockTableRecord
  2
*Model_Space
340
23
  0
BLOCK_RECORD
  5
1C
330
1
100
AcDbSymbolTableRecord
100
AcDbBlockTableRecord
  2
*Paper_Space
340
1F
  0
BLOCK_RECORD
  5
24
330
1
100
AcDbSymbolTableRecord
100
AcDbBlockTableRecord
  2
LOGO
340
0
102
{BLKREFS
331
210
102
}
  0
BLOCK_RECORD
  5
26
330
1
100
AcDbSymbolTableRecord
100
AcDbBlockTableRecord
  2
*X1
340
0
102
{BLKREFS
331
2BD
102
}
  0
BLOCK_RECORD
  5
27
330
1
100
AcDbSymbolTableRecord
100
AcDbBlockTableRecord
  2
*X2
340
0
102
{BLKREFS
331
2B5
102
}
  0
BLOCK_RECORD
  5
28
330
1
100
AcDbSymbolTableRecord
100
AcDbBlockTableRecord
  2
*X3
340
0
102
{BLKREFS
331
2AA
102
}
  0
BLOCK_RECORD
  5
29
330
1
100
AcDbSymbolTableRecord
100
AcDbBlockTableRecord
  2
*X4
340
0
102
{BLKREFS
331
247
102
}
  0
BLOCK_RECORD
  5
3A2
330
1
100
AcDbSymbolTableRecord
100
AcDbBlockTableRecord
  2
*D5
340
0
  0
BLOCK_RECORD
  5
3BA
330
1
100
AcDbSymbolTableRecord
100
AcDbBlockTableRecord
  2
*D6
340
0
  0
BLOCK_RECORD
  5
3D2
330
1
100
AcDbSymbolTableRecord
100
AcDbBlockTableRecord
  2
*D7
340
0
  0
BLOCK_RECORD
  5
3EA
330
1
100
AcDbSymbolTableRecord
100
AcDbBlockTableRecord
  2
*D8
340
0
  0
BLOCK_RECORD
  5
445
330
1
100
AcDbSymbolTableRecord
100
AcDbBlockTableRecord
  2
*D9
340
0
  0
ENDTAB
  0
ENDSEC
  0
SECTION
  2
BLOCKS
  0
BLOCK
  5
46
330
20
100
AcDbEntity
  8
0
100
AcDbBlockBegin
  2
*Model_Space
 70
     0
 10
0.0
 20
0.0
 30
0.0
  3
*Model_Space
  1

  0
ENDBLK
  5
47
330
20
100
AcDbEntity
  8
0
100
AcDbBlockEnd
  0
BLOCK
  5
44
330
1C
100
AcDbEntity
 67
     1
  8
0
100
AcDbBlockBegin
  2
*Paper_Space
 70
     0
 10
0.0
 20
0.0
 30
0.0
  3
*Paper_Space
  1

  0
ENDBLK
  5
45
330
1C
100
AcDbEntity
 67
     1
  8
0
100
AcDbBlockEnd
  0
BLOCK
  5
48
330
24
100
AcDbEntity
  8
0
100
AcDbBlockBegin
  2
LOGO
 70
     0
 10
0.0
 20
0.0
 30
0.0
  3
LOGO
  1

  0
ARC
  5
49
330
24
100
AcDbEntity
  8
0
100
AcDbCircle
 10
11.59973089678112
 20
-9.271599258481501
 30
0.0
 40
4.5
100
AcDbArc
 50
270.0
 51
231.0575587310159
  0
LINE
  5
4A
330
24
100
AcDbEntity
  8
0
100
AcDbLine
 10
3.599730896781125
 20
-4.771599258481529
 30
0.0
 11
3.599730896781153
 21
-11.77159925848133
 31
0.0
  0
LINE
  5
4B
330
24
100
AcDbEntity
  8
0
100
AcDbLine
 10
2.599730896781125
 20
-4.771599258481529
 30
0.0
 11
2.599730896781153
 21
-11.77159925848133
 31
0.0
  0
CIRCLE
  5
4C
330
24
100
AcDbEntity
  8
0
100
AcDbCircle
 10
11.59973089678112
 20
-9.271599258481501
 30
0.0
 40
3.5
  0
ARC
  5
4D
330
24
100
AcDbEntity
  8
0
100
AcDbCircle
 10
31.59973089678115
 20
-9.271599258481472
 30
0.0
 40
4.5
100
AcDbArc
 50
270.0
 51
231.0575587310182
  0
LINE
  5
4E
330
24
100
AcDbEntity
  8
0
100
AcDbLine
 10
17.59973089678112
 20
-4.771599258481472
 30
0.0
 11
17.59973089678115
 21
-13.77159925848147
 31
0.0
  0
ARC
  5
4F
330
24
100
AcDbEntity
  8
0
100
AcDbCircle
 10
22.59973089678116
 20
-7.271599258481472
 30
0.0
 40
2.5
100
AcDbArc
 50
293.1161887722295
 51
90.0
  0
CIRCLE
  5
50
330
24
100
AcDbEntity
  8
0
100
AcDbCircle
 10
31.59973089678115
 20
-9.271599258481472
 30
0.0
 40
3.5
  0
ARC
  5
51
330
24
100
AcDbEntity
  8
0
100
AcDbCircle
 10
4.599730896781153
 20
-11.77159925848133
 30
0.0
 40
1.0
100
AcDbArc
 50
180.0
 51
270.0
  0
ARC
  5
52
330
24
100
AcDbEntity
  8
0
100
AcDbCircle
 10
4.599730896781153
 20
-11.77159925848133
 30
0.0
 40
2.0
100
AcDbArc
 50
179.9999999999992
 51
270.0
  0
LINE
  5
53
330
24
100
AcDbEntity
  8
0
100
AcDbLine
 10
11.59973089678115
 20
-13.77159925848144
 30
0.0
 11
4.599730896781153
 21
-13.77159925848147
 31
0.0
  0
LINE
  5
54
330
24
100
AcDbEntity
  8
0
100
AcDbLine
 10
8.771303772034769
 20
-12.77159925848136
 30
0.0
 11
4.599730896781153
 21
-12.77159925848133
 31
0.0
  0
LINE
  5
55
330
24
100
AcDbEntity
  8
0
100
AcDbLine
 10
31.59973089678115
 20
-13.77159925848147
 30
0.0
 11
23.6715276665056
 21
-13.77159925848144
 31
0.0
  0
LINE
  5
56
330
24
100
AcDbEntity
  8
0
100
AcDbLine
 10
23.56565672307022
 20
-9.51278021337896
 30
0.0
 11
24.4388546544846
 21
-12.77159925848144
 31
0.0
  0
LINE
  5
57
330
24
100
AcDbEntity
  8
0
100
AcDbLine
 10
22.59973089678116
 20
-9.771599258481472
 30
0.0
 11
18.59973089678112
 21
-9.771599258481472
 31
0.0
  0
LINE
  5
58
330
24
100
AcDbEntity
  8
0
100
AcDbLine
 10
18.59973089678115
 20
-13.77159925848144
 30
0.0
 11
17.59973089678115
 21
-13.77159925848144
 31
0.0
  0
LINE
  5
59
330
24
100
AcDbEntity
  8
0
100
AcDbLine
 10
18.59973089678115
 20
-9.771599258481472
 30
0.0
 11
18.59973089678115
 21
-13.77159925848144
 31
0.0
  0
LINE
  5
5A
330
24
100
AcDbEntity
  8
0
100
AcDbLine
 10
22.59973089678116
 20
-9.771599258481472
 30
0.0
 11
23.67152766650562
 21
-13.77159925848147
 31
0.0
  0
ARC
  5
5B
330
24
100
AcDbEntity
  8
0
100
AcDbCircle
 10
22.59973089678116
 20
-7.271599258481472
 30
0.0
 40
2.5
100
AcDbArc
 50
270.0
 51
270.0000000000007
  0
LINE
  5
5C
330
24
100
AcDbEntity
  8
0
100
AcDbLine
 10
28.77130377203494
 20
-12.77159925848147
 30
0.0
 11
24.43885465448463
 21
-12.77159925848144
 31
0.0
  0
LINE
  5
5D
330
24
100
AcDbEntity
  8
0
100
AcDbLine
 10
3.599730896781125
 20
-4.771599258481472
 30
0.0
 11
2.599730896781125
 21
-4.771599258481472
 31
0.0
  0
LINE
  5
5E
330
24
100
AcDbEntity
  8
0
100
AcDbLine
 10
22.59973089678116
 20
-8.771599258481472
 30
0.0
 11
18.59973089678115
 21
-8.771599258481472
 31
0.0
  0
LINE
  5
5F
330
24
100
AcDbEntity
  8
0
100
AcDbLine
 10
22.59973089678116
 20
-5.771599258481472
 30
0.0
 11
18.59973089678115
 21
-5.771599258481472
 31
0.0
  0
LINE
  5
60
330
24
100
AcDbEntity
  8
0
100
AcDbLine
 10
22.59973089678116
 20
-4.771599258481472
 30
0.0
 11
17.59973089678115
 21
-4.771599258481472
 31
0.0
  0
LINE
  5
61
330
24
100
AcDbEntity
  8
0
100
AcDbLine
 10
18.59973089678115
 20
-5.771599258481472
 30
0.0
 11
18.59973089678115
 21
-8.771599258481472
 31
0.0
  0
ARC
  5
62
330
24
100
AcDbEntity
  8
0
100
AcDbCircle
 10
22.59973089678116
 20
-7.271599258481472
 30
0.0
 40
1.5
100
AcDbArc
 50
270.0
 51
90.0
  0
ENDBLK
  5
63
330
24
100
AcDbEntity
  8
0
100
AcDbBlockEnd
  0
BLOCK
  5
68
330
26
100
AcDbEntity
  8
0
100
AcDbBlockBegin
  2
*X1
 70
     1
 10
0.0
 20
0.0
 30
0.0
  3
*X1
  1

  0
LINE
  5
69
330
26
100
AcDbEntity
  8
SCHRAFF
 62
     0
100
AcDbLine
 10
785.8583195106063
 20
724.9843151690305
 30
0.0
 11
787.8625316341281
 21
725.0192988217766
 31
0.0
  0
LINE
  5
6A
330
26
100
AcDbEntity
  8
SCHRAFF
 62
     0
100
AcDbLine
 10
785.3705109502903
 20
725.1008194799433
 30
0.0
 11
788.3459770928348
 21
725.1527564346531
 31
0.0
  0
LINE
  5
6B
330
26
100
AcDbEntity
  8
SCHRAFF
 62
     0
100
AcDbLine
 10
785.0145298639262
 20
725.219624847973
 30
0.0
 11
788.6975950775896
 21
725.2839129904123
 31
0.0
  0
LINE
  5
6C
330
26
100
AcDbEntity
  8
SCHRAFF
 62
     0
100
AcDbLine
 10
784.7236474794544
 20
725.339566518071
 30
0.0
 11
788.9841143604519
 21
725.4139332441033
 31
0.0
  0
LINE
  5
6D
330
26
100
AcDbEntity
  8
SCHRAFF
 62
     0
100
AcDbLine
 10
784.4740311420106
 20
725.4602284896994
 30
0.0
 11
789.2293675962865
 21
725.5432331962643
 31
0.0
  0
LINE
  5
6E
330
26
100
AcDbEntity
  8
SCHRAFF
 62
     0
100
AcDbLine
 10
784.2538527004998
 20
725.5814043017124
 30
0.0
 11
789.445182936188
 21
725.6720193080402
 31
0.0
  0
LINE
  5
6F
330
26
100
AcDbEntity
  8
SCHRAFF
 62
     0
100
AcDbLine
 10
784.0562060075961
 20
725.7029734068604
 30
0.0
 11
789.6384665274824
 21
725.8004121266813
 31
0.0
  0
LINE
  5
70
330
26
100
AcDbEntity
  8
SCHRAFF
 62
     0
100
AcDbLine
 10
783.8766368423944
 20
725.8248580564282
 30
0.0
 11
789.8136725910746
 21
725.9284894009025
 31
0.0
  0
LINE
  5
71
330
26
100
AcDbEntity
  8
SCHRAFF
 62
     0
100
AcDbLine
 10
783.7120710386013
 20
725.9470045906436
 30
0.0
 11
789.9738752932585
 21
726.0563047904764
 31
0.0
  0
LINE
  5
72
330
26
100
AcDbEntity
  8
SCHRAFF
 62
     0
100
AcDbLine
 10
783.5602798547633
 20
726.0693741066795
 30
0.0
 11
790.1213033754871
 21
726.1838971982293
 31
0.0
  0
LINE
  5
73
330
26
100
AcDbEntity
  8
SCHRAFF
 62
     0
100
AcDbLine
 10
783.4195859042477
 20
726.1919373256438
 30
0.0
 11
790.2576342243935
 21
726.3112959030543
 31
0.0
  0
LINE
  5
74
330
26
100
AcDbEntity
  8
SCHRAFF
 62
     0
100
AcDbLine
 10
783.3114593445123
 20
726.3150690105286
 30
0.0
 11
790.3841678673552
 21
726.4385235970133
 31
0.0
  0
LINE
  5
75
330
26
100
AcDbEntity
  8
SCHRAFF
 62
     0
100
AcDbLine
 10
783.4342587556022
 20
726.4422315232279
 30
0.0
 11
790.5019359294483
 21
726.5655982871891
 31
0.0
  0
LINE
  5
76
330
26
100
AcDbEntity
  8
SCHRAFF
 62
     0
100
AcDbLine
 10
783.5570581666922
 20
726.5693940359271
 30
0.0
 11
790.6117730340645
 21
726.6925345419871
 31
0.0
  0
LINE
  5
77
330
26
100
AcDbEntity
  8
SCHRAFF
 62
     0
100
AcDbLine
 10
783.679857577782
 20
726.6965565486263
 30
0.0
 11
790.7143653682788
 21
726.8193443388475
 31
0.0
  0
LINE
  5
78
330
26
100
AcDbEntity
  8
SCHRAFF
 62
     0
100
AcDbLine
 10
783.8026569888719
 20
726.8237190613255
 30
0.0
 11
790.8102847599809
 21
726.946037659063
 31
0.0
  0
LINE
  5
79
330
26
100
AcDbEntity
  8
SCHRAFF
 62
     0
100
AcDbLine
 10
783.9254563999618
 20
726.9508815740246
 30
0.0
 11
790.9000132279828
 21
727.0726229163034
 31
0.0
  0
LINE
  5
7A
330
26
100
AcDbEntity
  8
SCHRAFF
 62
     0
100
AcDbLine
 10
784.0482558110516
 20
727.0780440867239
 30
0.0
 11
790.9839610734299
 21
727.1991072724017
 31
0.0
  0
LINE
  5
7B
330
26
100
AcDbEntity
  8
SCHRAFF
 62
     0
100
AcDbLine
 10
784.1710552221416
 20
727.2052065994231
 30
0.0
 11
791.062480475741
 21
727.3254968746726
 31
0.0
  0
LINE
  5
7C
330
26
100
AcDbEntity
  8
SCHRAFF
 62
     0
100
AcDbLine
 10
784.2938546332313
 20
727.3323691121223
 30
0.0
 11
791.1358758867262
 21
727.4517970373423
 31
0.0
  0
LINE
  5
7D
330
26
100
AcDbEntity
  8
SCHRAFF
 62
     0
100
AcDbLine
 10
784.4166540443211
 20
727.4595316248215
 30
0.0
 11
791.2044120975017
 21
727.5780123823568
 31
0.0
  0
LINE
  5
7E
330
26
100
AcDbEntity
  8
SCHRAFF
 62
     0
100
AcDbLine
 10
784.5394534554111
 20
727.5866941375207
 30
0.0
 11
791.2683205830932
 21
727.7041469501277
 31
0.0
  0
LINE
  5
7F
330
26
100
AcDbEntity
  8
SCHRAFF
 62
     0
100
AcDbLine
 10
784.6622528665011
 20
727.71385665022
 30
0.0
 11
791.3278045515647
 21
727.8302042876652
 31
0.0
  0
LINE
  5
80
330
26
100
AcDbEntity
  8
SCHRAFF
 62
     0
100
AcDbLine
 10
784.785052277591
 20
727.8410191629192
 30
0.0
 11
791.3830430043358
 21
727.9561875194502
 31
0.0
  0
LINE
  5
81
330
26
100
AcDbEntity
  8
SCHRAFF
 62
     0
100
AcDbLine
 10
784.9078516886809
 20
727.9681816756184
 30
0.0
 11
791.4341940315944
 21
728.0820994049578
 31
0.0
  0
LINE
  5
82
330
26
100
AcDbEntity
  8
SCHRAFF
 62
     0
100
AcDbLine
 10
785.0306510997707
 20
728.0953441883176
 30
0.0
 11
791.4813975086704
 21
728.2079423857204
 31
0.0
  0
LINE
  5
83
330
26
100
AcDbEntity
  8
SCHRAFF
 62
     0
100
AcDbLine
 10
785.1534505108605
 20
728.2225067010168
 30
0.0
 11
791.5247773178713
 21
728.3337186241121
 31
0.0
  0
LINE
  5
84
330
26
100
AcDbEntity
  8
SCHRAFF
 62
     0
100
AcDbLine
 10
785.2762499219505
 20
728.3496692137161
 30
0.0
 11
791.5644431903286
 21
728.4594300354967
 31
0.0
  0
LINE
  5
85
330
26
100
AcDbEntity
  8
SCHRAFF
 62
     0
100
AcDbLine
 10
785.3990493330403
 20
728.4768317264153
 30
0.0
 11
791.6004922404331
 21
728.5850783150124
 31
0.0
  0
LINE
  5
86
330
26
100
AcDbEntity
  8
SCHRAFF
 62
     0
100
AcDbLine
 10
785.5218487441302
 20
728.6039942391144
 30
0.0
 11
791.6330102490887
 21
728.7106649599703
 31
0.0
  0
LINE
  5
87
330
26
100
AcDbEntity
  8
SCHRAFF
 62
     0
100
AcDbLine
 10
785.6446481552201
 20
728.7311567518137
 30
0.0
 11
791.6620727397233
 21
728.8361912886369
 31
0.0
  0
LINE
  5
88
330
26
100
AcDbEntity
  8
SCHRAFF
 62
     0
100
AcDbLine
 10
785.76744756631
 20
728.8583192645128
 30
0.0
 11
791.6877458816217
 21
728.961658456001
 31
0.0
  0
LINE
  5
89
330
26
100
AcDbEntity
  8
SCHRAFF
 62
     0
100
AcDbLine
 10
785.8902469774
 20
728.9854817772122
 30
0.0
 11
791.7100872479343
 21
729.0870674670061
 31
0.0
  0
LINE
  5
8A
330
26
100
AcDbEntity
  8
SCHRAFF
 62
     0
100
AcDbLine
 10
786.01304638849
 20
729.1126442899113
 30
0.0
 11
791.7291464500928
 21
729.2124191876228
 31
0.0
  0
LINE
  5
8B
330
26
100
AcDbEntity
  8
SCHRAFF
 62
     0
100
AcDbLine
 10
786.1358457995796
 20
729.2398068026106
 30
0.0
 11
791.7449656659393
 21
729.337714354068
 31
0.0
  0
LINE
  5
8C
330
26
100
AcDbEntity
  8
SCHRAFF
 62
     0
100
AcDbLine
 10
786.2586452106695
 20
729.3669693153097
 30
0.0
 11
791.7575800753309
 21
729.4629535804084
 31
0.0
  0
LINE
  5
8D
330
26
100
AcDbEntity
  8
SCHRAFF
 62
     0
100
AcDbLine
 10
786.3814446217594
 20
729.4941318280089
 30
0.0
 11
791.7670182141371
 21
729.5881373647396
 31
0.0
  0
LINE
  5
8E
330
26
100
AcDbEntity
  8
SCHRAFF
 62
     0
100
AcDbLine
 10
786.5042440328493
 20
729.6212943407081
 30
0.0
 11
791.7733022551812
 21
729.7132660940895
 31
0.0
  0
LINE
  5
8F
330
26
100
AcDbEntity
  8
SCHRAFF
 62
     0
100
AcDbLine
 10
786.6270434439392
 20
729.7484568534073
 30
0.0
 11
791.7764482227283
 21
729.8383400481627
 31
0.0
  0
LINE
  5
90
330
26
100
AcDbEntity
  8
SCHRAFF
 62
     0
100
AcDbLine
 10
786.7498428550291
 20
729.8756193661065
 30
0.0
 11
791.7764661454257
 21
729.9633594020101
 31
0.0
  0
ENDBLK
  5
91
330
26
100
AcDbEntity
  8
0
100
AcDbBlockEnd
  0
BLOCK
  5
92
330
27
100
AcDbEntity
  8
0
100
AcDbBlockBegin
  2
*X2
 70
     1
 10
0.0
 20
0.0
 30
0.0
  3
*X2
  1

  0
LINE
  5
93
330
27
100
AcDbEntity
  8
SCHRAFF
 62
     0
100
AcDbLine
 10
751.9003601688113
 20
686.759622907171
 30
0.0
 11
753.3177680303723
 21
688.1770307687321
 31
0.0
  0
LINE
  5
94
330
27
100
AcDbEntity
  8
SCHRAFF
 62
     0
100
AcDbLine
 10
751.4685293616601
 20
686.5045687953163
 30
0.0
 11
753.5728221422268
 21
688.6088615758833
 31
0.0
  0
LINE
  5
95
330
27
100
AcDbEntity
  8
SCHRAFF
 62
     0
100
AcDbLine
 10
751.1299288547133
 20
686.3427449836661
 30
0.0
 11
753.7346459538772
 21
688.9474620828301
 31
0.0
  0
LINE
  5
96
330
27
100
AcDbEntity
  8
SCHRAFF
 62
     0
100
AcDbLine
 10
750.8373670932448
 20
686.2269599174943
 30
0.0
 11
753.8504310200489
 21
689.2400238442985
 31
0.0
  0
LINE
  5
97
330
27
100
AcDbEntity
  8
SCHRAFF
 62
     0
100
AcDbLine
 10
750.5739892783189
 20
686.1403587978652
 30
0.0
 11
753.9370321396781
 21
689.5034016592244
 31
0.0
  0
LINE
  5
98
330
27
100
AcDbEntity
  8
SCHRAFF
 62
     0
100
AcDbLine
 10
750.3314303700516
 20
686.0745765848945
 30
0.0
 11
754.0028143526487
 21
689.7459605674916
 31
0.0
  0
LINE
  5
99
330
27
100
AcDbEntity
  8
SCHRAFF
 62
     0
100
AcDbLine
 10
750.1048062409603
 20
686.0247291510999
 30
0.0
 11
754.0526617864434
 21
689.972584696583
 31
0.0
  0
LINE
  5
9A
330
27
100
AcDbEntity
  8
SCHRAFF
 62
     0
100
AcDbLine
 10
749.8909668014645
 20
685.9876664069007
 30
0.0
 11
754.0897245306426
 21
690.1864241360788
 31
0.0
  0
LINE
  5
9B
330
27
100
AcDbEntity
  8
SCHRAFF
 62
     0
100
AcDbLine
 10
749.6877379566061
 20
685.961214257339
 30
0.0
 11
754.1161766802042
 21
690.3896529809371
 31
0.0
  0
LINE
  5
9C
330
27
100
AcDbEntity
  8
SCHRAFF
 62
     0
100
AcDbLine
 10
749.4935435081276
 20
685.943796504157
 30
0.0
 11
754.1335944333862
 21
690.5838474294156
 31
0.0
  0
LINE
  5
9D
330
27
100
AcDbEntity
  8
SCHRAFF
 62
     0
100
AcDbLine
 10
749.3071971838909
 20
685.9342268752169
 30
0.0
 11
754.1431640623263
 21
690.7701937536524
 31
0.0
  0
LINE
  5
9E
330
27
100
AcDbEntity
  8
SCHRAFF
 62
     0
100
AcDbLine
 10
749.1438829904255
 20
685.9476893770481
 30
0.0
 11
754.1458049652277
 21
690.9496113518505
 31
0.0
  0
LINE
  5
9F
330
27
100
AcDbEntity
  8
SCHRAFF
 62
     0
100
AcDbLine
 10
749.1438829904255
 20
686.1244660723448
 30
0.0
 11
754.142246722296
 21
691.1228298042153
 31
0.0
  0
LINE
  5
A0
330
27
100
AcDbEntity
  8
SCHRAFF
 62
     0
100
AcDbLine
 10
749.1438829904255
 20
686.3012427676415
 30
0.0
 11
754.1330795912901
 21
691.290439368506
 31
0.0
  0
LINE
  5
A1
330
27
100
AcDbEntity
  8
SCHRAFF
 62
     0
100
AcDbLine
 10
749.1438829904255
 20
686.4780194629381
 30
0.0
 11
754.1187888536549
 21
691.4529253261676
 31
0.0
  0
LINE
  5
A2
330
27
100
AcDbEntity
  8
SCHRAFF
 62
     0
100
AcDbLine
 10
749.1438829904255
 20
686.6547961582348
 30
0.0
 11
754.0997789143615
 21
691.6106920821708
 31
0.0
  0
LINE
  5
A3
330
27
100
AcDbEntity
  8
SCHRAFF
 62
     0
100
AcDbLine
 10
749.1438829904255
 20
686.8315728535314
 30
0.0
 11
754.0763906641
 21
691.764080527206
 31
0.0
  0
LINE
  5
A4
330
27
100
AcDbEntity
  8
SCHRAFF
 62
     0
100
AcDbLine
 10
749.1438829904256
 20
687.008349548828
 30
0.0
 11
754.0489142737871
 21
691.9133808321895
 31
0.0
  0
LINE
  5
A5
330
27
100
AcDbEntity
  8
SCHRAFF
 62
     0
100
AcDbLine
 10
749.1438829904255
 20
687.1851262441246
 30
0.0
 11
754.0175988098117
 21
692.0588420635108
 31
0.0
  0
LINE
  5
A6
330
27
100
AcDbEntity
  8
SCHRAFF
 62
     0
100
AcDbLine
 10
749.1438829904255
 20
687.3619029394212
 30
0.0
 11
753.9826595849067
 21
692.2006795339025
 31
0.0
  0
LINE
  5
A7
330
27
100
AcDbEntity
  8
SCHRAFF
 62
     0
100
AcDbLine
 10
749.1438829904255
 20
687.5386796347179
 30
0.0
 11
753.9442838631872
 21
692.3390805074797
 31
0.0
  0
LINE
  5
A8
330
27
100
AcDbEntity
  8
SCHRAFF
 62
     0
100
AcDbLine
 10
749.1438829904255
 20
687.7154563300146
 30
0.0
 11
753.9026353471463
 21
692.4742086867354
 31
0.0
  0
LINE
  5
A9
330
27
100
AcDbEntity
  8
SCHRAFF
 62
     0
100
AcDbLine
 10
749.1438829904255
 20
687.8922330253113
 30
0.0
 11
753.8578577484718
 21
692.6062077833575
 31
0.0
  0
LINE
  5
AA
330
27
100
AcDbEntity
  8
SCHRAFF
 62
     0
100
AcDbLine
 10
749.1438829904255
 20
688.0690097206079
 30
0.0
 11
753.8100776595622
 21
692.7352043897447
 31
0.0
  0
LINE
  5
AB
330
27
100
AcDbEntity
  8
SCHRAFF
 62
     0
100
AcDbLine
 10
749.1438829904255
 20
688.2457864159046
 30
0.0
 11
753.7594068840895
 21
692.8613103095686
 31
0.0
  0
LINE
  5
AC
330
27
100
AcDbEntity
  8
SCHRAFF
 62
     0
100
AcDbLine
 10
749.1438829904256
 20
688.4225631112011
 30
0.0
 11
753.7059443439144
 21
692.98462446469
 31
0.0
  0
LINE
  5
AD
330
27
100
AcDbEntity
  8
SCHRAFF
 62
     0
100
AcDbLine
 10
749.1438829904255
 20
688.5993398064977
 30
0.0
 11
753.6497776503999
 21
693.1052344664721
 31
0.0
  0
LINE
  5
AE
330
27
100
AcDbEntity
  8
SCHRAFF
 62
     0
100
AcDbLine
 10
749.1438829904255
 20
688.7761165017943
 30
0.0
 11
753.5909844069931
 21
693.223217918362
 31
0.0
  0
LINE
  5
AF
330
27
100
AcDbEntity
  8
SCHRAFF
 62
     0
100
AcDbLine
 10
749.1438829904255
 20
688.952893197091
 30
0.0
 11
753.5296332943983
 21
693.3386435010638
 31
0.0
  0
LINE
  5
B0
330
27
100
AcDbEntity
  8
SCHRAFF
 62
     0
100
AcDbLine
 10
749.1438829904255
 20
689.1296698923877
 30
0.0
 11
753.4657849781141
 21
693.4515718800764
 31
0.0
  0
LINE
  5
B1
330
27
100
AcDbEntity
  8
SCHRAFF
 62
     0
100
AcDbLine
 10
749.1438829904255
 20
689.3064465876843
 30
0.0
 11
753.3994928694034
 21
693.5620564666622
 31
0.0
  0
LINE
  5
B2
330
27
100
AcDbEntity
  8
SCHRAFF
 62
     0
100
AcDbLine
 10
749.1438829904255
 20
689.483223282981
 30
0.0
 11
753.3308037641433
 21
693.670144056699
 31
0.0
  0
LINE
  5
B3
330
27
100
AcDbEntity
  8
SCHRAFF
 62
     0
100
AcDbLine
 10
749.1438829904256
 20
689.6599999782775
 30
0.0
 11
753.2597583789004
 21
693.7758753667524
 31
0.0
  0
LINE
  5
B4
330
27
100
AcDbEntity
  8
SCHRAFF
 62
     0
100
AcDbLine
 10
749.1438829904256
 20
689.8367766735742
 30
0.0
 11
753.186391799598
 21
693.8792854827466
 31
0.0
  0
LINE
  5
B5
330
27
100
AcDbEntity
  8
SCHRAFF
 62
     0
100
AcDbLine
 10
749.1438829904255
 20
690.0135533688708
 30
0.0
 11
753.1107338550172
 21
693.9804042334625
 31
0.0
  0
LINE
  5
B6
330
27
100
AcDbEntity
  8
SCHRAFF
 62
     0
100
AcDbLine
 10
749.1438829904255
 20
690.1903300641675
 30
0.0
 11
753.0328094248631
 21
694.0792564986052
 31
0.0
  0
LINE
  5
B7
330
27
100
AcDbEntity
  8
SCHRAFF
 62
     0
100
AcDbLine
 10
749.1438829904255
 20
690.3671067594641
 30
0.0
 11
752.9526386901162
 21
694.1758624591549
 31
0.0
  0
LINE
  5
B8
330
27
100
AcDbEntity
  8
SCHRAFF
 62
     0
100
AcDbLine
 10
749.1438829904255
 20
690.5438834547608
 30
0.0
 11
752.8702373317185
 21
694.2702377960538
 31
0.0
  0
LINE
  5
B9
330
27
100
AcDbEntity
  8
SCHRAFF
 62
     0
100
AcDbLine
 10
749.1438829904255
 20
690.7206601500575
 30
0.0
 11
752.7856166822621
 21
694.3623938418941
 31
0.0
  0
LINE
  5
BA
330
27
100
AcDbEntity
  8
SCHRAFF
 62
     0
100
AcDbLine
 10
749.1438829904255
 20
690.8974368453542
 30
0.0
 11
752.6987838341524
 21
694.452337689081
 31
0.0
  0
ENDBLK
  5
BB
330
27
100
AcDbEntity
  8
0
100
AcDbBlockEnd
  0
BLOCK
  5
BC
330
28
100
AcDbEntity
  8
0
100
AcDbBlockBegin
  2
*X3
 70
     1
 10
0.0
 20
0.0
 30
0.0
  3
*X3
  1

  0
LINE
  5
BD
330
28
100
AcDbEntity
  8
SCHRAFF
 62
     0
100
AcDbLine
 10
641.7819621943151
 20
1046.059827793049
 30
0.0
 11
641.8627641127311
 21
1046.061943665748
 31
0.0
  0
LINE
  5
BE
330
28
100
AcDbEntity
  8
SCHRAFF
 62
     0
100
AcDbLine
 10
641.7139194820966
 20
1046.183088880985
 30
0.0
 11
641.9844491598146
 21
1046.190172949908
 31
0.0
  0
LINE
  5
BF
330
28
100
AcDbEntity
  8
SCHRAFF
 62
     0
100
AcDbLine
 10
641.6512763312214
 20
1046.306491361411
 30
0.0
 11
642.1061342068981
 21
1046.318402234069
 31
0.0
  0
LINE
  5
C0
330
28
100
AcDbEntity
  8
SCHRAFF
 62
     0
100
AcDbLine
 10
641.593774220399
 20
1046.430028464708
 30
0.0
 11
642.2278192539815
 21
1046.446631518229
 31
0.0
  0
LINE
  5
C1
330
28
100
AcDbEntity
  8
SCHRAFF
 62
     0
100
AcDbLine
 10
641.5411912621284
 20
1046.553694380548
 30
0.0
 11
642.349504301065
 21
1046.574860802389
 31
0.0
  0
LINE
  5
C2
330
28
100
AcDbEntity
  8
SCHRAFF
 62
     0
100
AcDbLine
 10
641.4933366614757
 20
1046.67748411279
 30
0.0
 11
642.4711893481485
 21
1046.70309008655
 31
0.0
  0
LINE
  5
C3
330
28
100
AcDbEntity
  8
SCHRAFF
 62
     0
100
AcDbLine
 10
641.4500463314325
 20
1046.801393364665
 30
0.0
 11
642.592874395232
 21
1046.83131937071
 31
0.0
  0
LINE
  5
C4
330
28
100
AcDbEntity
  8
SCHRAFF
 62
     0
100
AcDbLine
 10
641.4111793967029
 20
1046.925418447222
 30
0.0
 11
642.7145594423154
 21
1046.959548654871
 31
0.0
  0
LINE
  5
C5
330
28
100
AcDbEntity
  8
SCHRAFF
 62
     0
100
AcDbLine
 10
641.3766153905031
 20
1047.049556205927
 30
0.0
 11
642.8362444893988
 21
1047.087777939031
 31
0.0
  0
LINE
  5
C6
330
28
100
AcDbEntity
  8
SCHRAFF
 62
     0
100
AcDbLine
 10
641.346252000177
 20
1047.173803961631
 30
0.0
 11
642.9579295364824
 21
1047.216007223192
 31
0.0
  0
LINE
  5
C7
330
28
100
AcDbEntity
  8
SCHRAFF
 62
     0
100
AcDbLine
 10
641.3200032541643
 20
1047.298159463088
 30
0.0
 11
643.0796145835659
 21
1047.344236507352
 31
0.0
  0
LINE
  5
C8
330
28
100
AcDbEntity
  8
SCHRAFF
 62
     0
100
AcDbLine
 10
641.2977980696632
 20
1047.42262084893
 30
0.0
 11
643.2012996306493
 21
1047.472465791512
 31
0.0
  0
LINE
  5
C9
330
28
100
AcDbEntity
  8
SCHRAFF
 62
     0
100
AcDbLine
 10
641.2795791002475
 20
1047.547186617487
 30
0.0
 11
643.3229846777329
 21
1047.600695075673
 31
0.0
  0
LINE
  5
CA
330
28
100
AcDbEntity
  8
SCHRAFF
 62
     0
100
AcDbLine
 10
641.2653018377871
 20
1047.671855603273
 30
0.0
 11
643.4446697248163
 21
1047.728924359833
 31
0.0
  0
LINE
  5
CB
330
28
100
AcDbEntity
  8
SCHRAFF
 62
     0
100
AcDbLine
 10
641.2549339347129
 20
1047.796626959238
 30
0.0
 11
643.5663547718998
 21
1047.857153643994
 31
0.0
  0
LINE
  5
CC
330
28
100
AcDbEntity
  8
SCHRAFF
 62
     0
100
AcDbLine
 10
641.2484547219564
 20
1047.921500144142
 30
0.0
 11
643.6880398189832
 21
1047.985382928154
 31
0.0
  0
LINE
  5
CD
330
28
100
AcDbEntity
  8
SCHRAFF
 62
     0
100
AcDbLine
 10
641.2458549055347
 20
1048.046474914615
 30
0.0
 11
643.8097248660668
 21
1048.113612212315
 31
0.0
  0
LINE
  5
CE
330
28
100
AcDbEntity
  8
SCHRAFF
 62
     0
100
AcDbLine
 10
641.2471364312842
 20
1048.171551321608
 30
0.0
 11
643.9314099131502
 21
1048.241841496475
 31
0.0
  0
LINE
  5
CF
330
28
100
AcDbEntity
  8
SCHRAFF
 62
     0
100
AcDbLine
 10
641.2523125131208
 20
1048.296729711143
 30
0.0
 11
644.0530949602336
 21
1048.370070780635
 31
0.0
  0
LINE
  5
D0
330
28
100
AcDbEntity
  8
SCHRAFF
 62
     0
100
AcDbLine
 10
641.2614078257907
 20
1048.422010729349
 30
0.0
 11
644.1747800073171
 21
1048.498300064796
 31
0.0
  0
LINE
  5
D1
330
28
100
AcDbEntity
  8
SCHRAFF
 62
     0
100
AcDbLine
 10
641.2744588687143
 20
1048.547395331996
 30
0.0
 11
644.2964650544006
 21
1048.626529348956
 31
0.0
  0
LINE
  5
D2
330
28
100
AcDbEntity
  8
SCHRAFF
 62
     0
100
AcDbLine
 10
641.2915145135992
 20
1048.672884798837
 30
0.0
 11
644.4181501014841
 21
1048.754758633116
 31
0.0
  0
LINE
  5
D3
330
28
100
AcDbEntity
  8
SCHRAFF
 62
     0
100
AcDbLine
 10
641.3126367553409
 20
1048.798480753264
 30
0.0
 11
644.5398351485676
 21
1048.882987917277
 31
0.0
  0
LINE
  5
D4
330
28
100
AcDbEntity
  8
SCHRAFF
 62
     0
100
AcDbLine
 10
641.3379016938858
 20
1048.924185188024
 30
0.0
 11
644.661520195651
 21
1049.011217201437
 31
0.0
  0
LINE
  5
D5
330
28
100
AcDbEntity
  8
SCHRAFF
 62
     0
100
AcDbLine
 10
641.3674007847522
 20
1049.050000497966
 30
0.0
 11
644.7832052427346
 21
1049.139446485598
 31
0.0
  0
LINE
  5
D6
330
28
100
AcDbEntity
  8
SCHRAFF
 62
     0
100
AcDbLine
 10
641.4012424086447
 20
1049.175929521136
 30
0.0
 11
649.0828496683376
 21
1049.377079486364
 31
0.0
  0
LINE
  5
D7
330
28
100
AcDbEntity
  8
SCHRAFF
 62
     0
100
AcDbLine
 10
641.4395538271717
 20
1049.301975589998
 30
0.0
 11
649.0379940127336
 21
1049.500947748745
 31
0.0
  0
LINE
  5
D8
330
28
100
AcDbEntity
  8
SCHRAFF
 62
     0
100
AcDbLine
 10
641.482483613707
 20
1049.428142595083
 30
0.0
 11
648.9885199891213
 21
1049.624695074905
 31
0.0
  0
LINE
  5
D9
330
28
100
AcDbEntity
  8
SCHRAFF
 62
     0
100
AcDbLine
 10
641.5302046782803
 20
1049.554435064198
 30
0.0
 11
648.9342546874711
 21
1049.748316937033
 31
0.0
  0
LINE
  5
DA
330
28
100
AcDbEntity
  8
SCHRAFF
 62
     0
100
AcDbLine
 10
641.58291804651
 20
1049.680858261386
 30
0.0
 11
648.8749970821643
 21
1049.87180807109
 31
0.0
  0
LINE
  5
DB
330
28
100
AcDbEntity
  8
SCHRAFF
 62
     0
100
AcDbLine
 10
641.6408576103253
 20
1049.807418311321
 30
0.0
 11
648.8105132812721
 21
1049.995162352398
 31
0.0
  0
LINE
  5
DC
330
28
100
AcDbEntity
  8
SCHRAFF
 62
     0
100
AcDbLine
 10
641.7042961507108
 20
1049.934122357025
 30
0.0
 11
648.7405305038095
 21
1050.118372637938
 31
0.0
  0
LINE
  5
DD
330
28
100
AcDbEntity
  8
SCHRAFF
 62
     0
100
AcDbLine
 10
641.7735530529205
 20
1050.060978761896
 30
0.0
 11
648.664729364523
 21
1050.241430564311
 31
0.0
  0
LINE
  5
DE
330
28
100
AcDbEntity
  8
SCHRAFF
 62
     0
100
AcDbLine
 10
641.8490043135127
 20
1050.187997371749
 30
0.0
 11
648.5827338668538
 21
1050.364326285701
 31
0.0
  0
LINE
  5
DF
330
28
100
AcDbEntity
  8
SCHRAFF
 62
     0
100
AcDbLine
 10
641.9310957111101
 20
1050.31518985971
 30
0.0
 11
648.4940982321793
 21
1050.487048128985
 31
0.0
  0
LINE
  5
E0
330
28
100
AcDbEntity
  8
SCHRAFF
 62
     0
100
AcDbLine
 10
642.0203604389249
 20
1050.442570187932
 30
0.0
 11
648.3982892672877
 21
1050.609582132006
 31
0.0
  0
LINE
  5
E1
330
28
100
AcDbEntity
  8
SCHRAFF
 62
     0
100
AcDbLine
 10
642.1174431832553
 20
1050.570155238123
 30
0.0
 11
648.2946622858803
 21
1050.73191141306
 31
0.0
  0
LINE
  5
E2
330
28
100
AcDbEntity
  8
SCHRAFF
 62
     0
100
AcDbLine
 10
642.2231337746195
 20
1050.69796569272
 30
0.0
 11
648.1824274574392
 21
1050.854015289706
 31
0.0
  0
LINE
  5
E3
330
28
100
AcDbEntity
  8
SCHRAFF
 62
     0
100
AcDbLine
 10
642.338415515411
 20
1050.826027300404
 30
0.0
 11
648.0606014795706
 21
1050.975868013266
 31
0.0
  0
LINE
  5
E4
330
28
100
AcDbEntity
  8
SCHRAFF
 62
     0
100
AcDbLine
 10
642.4645368679867
 20
1050.954372753312
 30
0.0
 11
647.9279358899179
 21
1051.097436891602
 31
0.0
  0
LINE
  5
E5
330
28
100
AcDbEntity
  8
SCHRAFF
 62
     0
100
AcDbLine
 10
642.6031220262553
 20
1051.083044582459
 30
0.0
 11
647.7828064945725
 21
1051.218679393699
 31
0.0
  0
LINE
  5
E6
330
28
100
AcDbEntity
  8
SCHRAFF
 62
     0
100
AcDbLine
 10
642.7563498332444
 20
1051.212099842856
 30
0.0
 11
647.6230344505063
 21
1051.339538464546
 31
0.0
  0
LINE
  5
E7
330
28
100
AcDbEntity
  8
SCHRAFF
 62
     0
100
AcDbLine
 10
642.9272612866309
 20
1051.341618165831
 30
0.0
 11
647.445578760043
 21
1051.459934472815
 31
0.0
  0
LINE
  5
E8
330
28
100
AcDbEntity
  8
SCHRAFF
 62
     0
100
AcDbLine
 10
643.1203311369261
 20
1051.47171672685
 30
0.0
 11
647.2459646726707
 21
1051.57975024304
 31
0.0
  0
LINE
  5
E9
330
28
100
AcDbEntity
  8
SCHRAFF
 62
     0
100
AcDbLine
 10
643.3426498198869
 20
1051.602581195506
 30
0.0
 11
647.017101752633
 21
1051.698800105627
 31
0.0
  0
LINE
  5
EA
330
28
100
AcDbEntity
  8
SCHRAFF
 62
     0
100
AcDbLine
 10
643.6067766394362
 20
1051.734540448749
 30
0.0
 11
646.7464306960067
 21
1051.816755183629
 31
0.0
  0
LINE
  5
EB
330
28
100
AcDbEntity
  8
SCHRAFF
 62
     0
100
AcDbLine
 10
643.9396030703537
 20
1051.868298664626
 30
0.0
 11
646.407060028012
 21
1051.932911298995
 31
0.0
  0
LINE
  5
EC
330
28
100
AcDbEntity
  8
SCHRAFF
 62
     0
100
AcDbLine
 10
644.4293932212542
 20
1052.006167120165
 30
0.0
 11
645.9107256400348
 21
1052.044957174701
 31
0.0
  0
ENDBLK
  5
ED
330
28
100
AcDbEntity
  8
0
100
AcDbBlockEnd
  0
BLOCK
  5
EE
330
29
100
AcDbEntity
  8
0
100
AcDbBlockBegin
  2
*X4
 70
     1
 10
0.0
 20
0.0
 30
0.0
  3
*X4
  1

  0
LINE
  5
EF
330
29
100
AcDbEntity
  8
SCHRAFF
 62
     0
100
AcDbLine
 10
425.2783221916899
 20
817.7972524260766
 30
0.0
 11
425.3349764188696
 21
817.8549041864977
 31
0.0
  0
LINE
  5
F0
330
29
100
AcDbEntity
  8
SCHRAFF
 62
     0
100
AcDbLine
 10
425.1437520141815
 20
817.8386525928704
 30
0.0
 11
425.3334337707627
 21
818.0316741506794
 31
0.0
  0
LINE
  5
F1
330
29
100
AcDbEntity
  8
SCHRAFF
 62
     0
100
AcDbLine
 10
425.0129677365752
 20
817.8839053193938
 30
0.0
 11
425.3318911226561
 21
818.2084441148614
 31
0.0
  0
LINE
  5
F2
330
29
100
AcDbEntity
  8
SCHRAFF
 62
     0
100
AcDbLine
 10
424.8857880967895
 20
817.9328261520122
 30
0.0
 11
425.3303484745491
 21
818.3852140790429
 31
0.0
  0
LINE
  5
F3
330
29
100
AcDbEntity
  8
SCHRAFF
 62
     0
100
AcDbLine
 10
424.762057518507
 20
817.9852567751151
 30
0.0
 11
425.3288058264423
 21
818.5619840432249
 31
0.0
  0
LINE
  5
F4
330
29
100
AcDbEntity
  8
SCHRAFF
 62
     0
100
AcDbLine
 10
424.6416422259494
 20
818.0410610574819
 30
0.0
 11
425.3272631783357
 21
818.7387540074066
 31
0.0
  0
LINE
  5
F5
330
29
100
AcDbEntity
  8
SCHRAFF
 62
     0
100
AcDbLine
 10
424.5244271695879
 20
818.1001219238606
 30
0.0
 11
425.3257205302288
 21
818.9155239715883
 31
0.0
  0
LINE
  5
F6
330
29
100
AcDbEntity
  8
SCHRAFF
 62
     0
100
AcDbLine
 10
424.4103135747748
 20
818.16233886044
 30
0.0
 11
425.3241778821219
 21
819.0922939357699
 31
0.0
  0
LINE
  5
F7
330
29
100
AcDbEntity
  8
SCHRAFF
 62
     0
100
AcDbLine
 10
424.2992169762811
 20
818.2276259147789
 30
0.0
 11
425.3226352340151
 21
819.2690638999517
 31
0.0
  0
LINE
  5
F8
330
29
100
AcDbEntity
  8
SCHRAFF
 62
     0
100
AcDbLine
 10
424.191065637636
 20
818.2959100873135
 30
0.0
 11
425.3210925859083
 21
819.4458338641334
 31
0.0
  0
LINE
  5
F9
330
29
100
AcDbEntity
  8
SCHRAFF
 62
     0
100
AcDbLine
 10
424.0857992799202
 20
818.3671300377708
 30
0.0
 11
425.3195499378017
 21
819.6226038283153
 31
0.0
  0
LINE
  5
FA
330
29
100
AcDbEntity
  8
SCHRAFF
 62
     0
100
AcDbLine
 10
423.9833680634609
 20
818.4412350489308
 30
0.0
 11
425.3180072896949
 21
819.7993737924971
 31
0.0
  0
LINE
  5
FB
330
29
100
AcDbEntity
  8
SCHRAFF
 62
     0
100
AcDbLine
 10
423.8837317798381
 20
818.518184204408
 30
0.0
 11
425.3164646415881
 21
819.9761437566788
 31
0.0
  0
LINE
  5
FC
330
29
100
AcDbEntity
  8
SCHRAFF
 62
     0
100
AcDbLine
 10
423.7868592221974
 20
818.5979457478767
 30
0.0
 11
425.3149219934813
 21
820.1529137208606
 31
0.0
  0
LINE
  5
FD
330
29
100
AcDbEntity
  8
SCHRAFF
 62
     0
100
AcDbLine
 10
423.6927277100558
 20
818.6804965995095
 30
0.0
 11
425.3133793453745
 21
820.3296836850423
 31
0.0
  0
LINE
  5
FE
330
29
100
AcDbEntity
  8
SCHRAFF
 62
     0
100
AcDbLine
 10
423.6013227513057
 20
818.765822012031
 30
0.0
 11
425.3118366972675
 21
820.5064536492239
 31
0.0
  0
LINE
  5
FF
330
29
100
AcDbEntity
  8
SCHRAFF
 62
     0
100
AcDbLine
 10
423.5126378294749
 20
818.8539153542309
 30
0.0
 11
425.3102940491608
 21
820.6832236134058
 31
0.0
  0
LINE
  5
100
330
29
100
AcDbEntity
  8
SCHRAFF
 62
     0
100
AcDbLine
 10
423.4266743088863
 20
818.944778014454
 30
0.0
 11
425.3087514010539
 21
820.8599935775874
 31
0.0
  0
LINE
  5
101
330
29
100
AcDbEntity
  8
SCHRAFF
 62
     0
100
AcDbLine
 10
423.3434414544706
 20
819.0384194207625
 30
0.0
 11
425.3072087529472
 21
821.0367635417693
 31
0.0
  0
LINE
  5
102
330
29
100
AcDbEntity
  8
SCHRAFF
 62
     0
100
AcDbLine
 10
423.2629565669144
 20
819.1348571784626
 30
0.0
 11
425.3056661048405
 21
821.2135335059508
 31
0.0
  0
LINE
  5
103
330
29
100
AcDbEntity
  8
SCHRAFF
 62
     0
100
AcDbLine
 10
423.1852452377693
 20
819.2341173297069
 30
0.0
 11
425.3041234567338
 21
821.3903034701328
 31
0.0
  0
LINE
  5
104
330
29
100
AcDbEntity
  8
SCHRAFF
 62
     0
100
AcDbLine
 10
423.1103417334102
 20
819.3362347442116
 30
0.0
 11
425.3025808086269
 21
821.5670734343147
 31
0.0
  0
LINE
  5
105
330
29
100
AcDbEntity
  8
SCHRAFF
 62
     0
100
AcDbLine
 10
423.0382895215289
 20
819.4412536550212
 30
0.0
 11
425.3010381605202
 21
821.7438433984964
 31
0.0
  0
LINE
  5
106
330
29
100
AcDbEntity
  8
SCHRAFF
 62
     0
100
AcDbLine
 10
422.9691419595671
 20
819.5492283590629
 30
0.0
 11
425.2994955124132
 21
821.920613362678
 31
0.0
  0
LINE
  5
107
330
29
100
AcDbEntity
  8
SCHRAFF
 62
     0
100
AcDbLine
 10
422.9029631715186
 20
819.6602241093867
 30
0.0
 11
425.2979528643065
 21
822.0973833268597
 31
0.0
  0
LINE
  5
108
330
29
100
AcDbEntity
  8
SCHRAFF
 62
     0
100
AcDbLine
 10
422.8398291484636
 20
819.774318235078
 30
0.0
 11
428.2257844738681
 21
825.255106192427
 31
0.0
  0
LINE
  5
109
330
29
100
AcDbEntity
  8
SCHRAFF
 62
     0
100
AcDbLine
 10
422.7798291198189
 20
819.8916015366505
 30
0.0
 11
428.1074718902242
 21
825.3130502069295
 31
0.0
  0
LINE
  5
10A
330
29
100
AcDbEntity
  8
SCHRAFF
 62
     0
100
AcDbLine
 10
422.7230672577362
 20
820.0121800204563
 30
0.0
 11
427.9859211400185
 21
825.3676990391987
 31
0.0
  0
LINE
  5
10B
330
29
100
AcDbEntity
  8
SCHRAFF
 62
     0
100
AcDbLine
 10
422.6696647980013
 20
820.136177056927
 30
0.0
 11
427.8610109874647
 21
825.4189293188026
 31
0.0
  0
LINE
  5
10C
330
29
100
AcDbEntity
  8
SCHRAFF
 62
     0
100
AcDbLine
 10
422.6197626896323
 20
820.263736076826
 30
0.0
 11
427.7326004835451
 21
825.4665976149787
 31
0.0
  0
LINE
  5
10D
330
29
100
AcDbEntity
  8
SCHRAFF
 62
     0
100
AcDbLine
 10
422.5735249258457
 20
820.3950239608621
 30
0.0
 11
427.6005256350432
 21
825.5105370470177
 31
0.0
  0
LINE
  5
10E
330
29
100
AcDbEntity
  8
SCHRAFF
 62
     0
100
AcDbLine
 10
422.5311427669009
 20
820.5302353368898
 30
0.0
 11
427.4645951816995
 21
825.5505529870651
 31
0.0
  0
LINE
  5
10F
330
29
100
AcDbEntity
  8
SCHRAFF
 62
     0
100
AcDbLine
 10
422.4928401496186
 20
820.6695980846729
 30
0.0
 11
427.3245851866933
 21
825.5864175553567
 31
0.0
  0
LINE
  5
110
330
29
100
AcDbEntity
  8
SCHRAFF
 62
     0
100
AcDbLine
 10
422.4588807038095
 20
820.8133804758565
 30
0.0
 11
427.1802320202137
 21
825.6178624802481
 31
0.0
  0
LINE
  5
111
330
29
100
AcDbEntity
  8
SCHRAFF
 62
     0
100
AcDbLine
 10
422.4295769869457
 20
820.9619005712342
 30
0.0
 11
427.031223124789
 21
825.6445697009453
 31
0.0
  0
LINE
  5
112
330
29
100
AcDbEntity
  8
SCHRAFF
 62
     0
100
AcDbLine
 10
422.4053028471973
 20
821.1155388014683
 30
0.0
 11
426.8771846522488
 21
825.6661587867863
 31
0.0
  0
LINE
  5
113
330
29
100
AcDbEntity
  8
SCHRAFF
 62
     0
100
AcDbLine
 10
422.3865103060602
 20
821.2747551469744
 30
0.0
 11
426.7176645810973
 21
825.6821697573551
 31
0.0
  0
LINE
  5
114
330
29
100
AcDbEntity
  8
SCHRAFF
 62
     0
100
AcDbLine
 10
422.3737531528317
 20
821.4401131478357
 30
0.0
 11
426.5521091220374
 21
825.6920390725689
 31
0.0
  0
LINE
  5
115
330
29
100
AcDbEntity
  8
SCHRAFF
 62
     0
100
AcDbLine
 10
422.3677208295232
 20
821.6123143853401
 30
0.0
 11
426.3798288330574
 21
825.6950651511392
 31
0.0
  0
LINE
  5
116
330
29
100
AcDbEntity
  8
SCHRAFF
 62
     0
100
AcDbLine
 10
422.3692886949304
 20
821.7922496310698
 30
0.0
 11
426.1999483553616
 21
825.6903572214847
 31
0.0
  0
LINE
  5
117
330
29
100
AcDbEntity
  8
SCHRAFF
 62
     0
100
AcDbLine
 10
422.3795955518504
 20
821.9810777391698
 30
0.0
 11
426.0113288861531
 21
825.6767564294596
 31
0.0
  0
LINE
  5
118
330
29
100
AcDbEntity
  8
SCHRAFF
 62
     0
100
AcDbLine
 10
422.4001690950494
 20
822.1803533031287
 30
0.0
 11
425.8124427306654
 21
825.6527081815756
 31
0.0
  0
LINE
  5
119
330
29
100
AcDbEntity
  8
SCHRAFF
 62
     0
100
AcDbLine
 10
422.4331415186218
 20
822.3922460594204
 30
0.0
 11
425.6011576948046
 21
825.616042741359
 31
0.0
  0
LINE
  5
11A
330
29
100
AcDbEntity
  8
SCHRAFF
 62
     0
100
AcDbLine
 10
422.4816502917882
 20
822.6199487199183
 30
0.0
 11
425.3743363093495
 21
825.563567396936
 31
0.0
  0
LINE
  5
11B
330
29
100
AcDbEntity
  8
SCHRAFF
 62
     0
100
AcDbLine
 10
422.5506668702528
 20
822.8685202747014
 30
0.0
 11
425.1270071185965
 21
825.4902231582278
 31
0.0
  0
LINE
  5
11C
330
29
100
AcDbEntity
  8
SCHRAFF
 62
     0
100
AcDbLine
 10
422.6489972040671
 20
823.1469217236444
 30
0.0
 11
424.8503641724936
 21
825.3870490253598
 31
0.0
  0
LINE
  5
11D
330
29
100
AcDbEntity
  8
SCHRAFF
 62
     0
100
AcDbLine
 10
422.7954962381538
 20
823.4743399980942
 30
0.0
 11
424.5255525261184
 21
825.2348580669849
 31
0.0
  0
LINE
  5
11E
330
29
100
AcDbEntity
  8
SCHRAFF
 62
     0
100
AcDbLine
 10
423.0520503108485
 20
823.9137510934655
 30
0.0
 11
424.0906858411351
 21
824.9706742876885
 31
0.0
  0
ENDBLK
  5
11F
330
29
100
AcDbEntity
  8
0
100
AcDbBlockEnd
  0
BLOCK
  5
3AC
330
3A2
100
AcDbEntity
  8
0
100
AcDbBlockBegin
  2
*D5
 70
     1
 10
0.0
 20
0.0
 30
0.0
  3
*D5
  1

  0
LINE
  5
451
330
3A2
100
AcDbEntity
  8
BEM
 62
     0
370
    -2
100
AcDbLine
 10
380.5337518624547
 20
665.9260188534998
 30
0.0
 11
329.3187065124929
 21
665.9260188534998
 31
0.0
  0
LINE
  5
452
330
3A2
100
AcDbEntity
  8
BEM
 62
     0
370
    -2
100
AcDbLine
 10
542.4837518624546
 20
950.9261510225426
 30
0.0
 11
329.3187065124929
 21
950.9261510225426
 31
0.0
  0
LINE
  5
453
330
3A2
100
AcDbEntity
  8
BEM
 62
     0
370
    -2
100
AcDbLine
 10
334.3187065124929
 20
683.4260188534998
 30
0.0
 11
334.318706512493
 21
933.4261510225426
 31
0.0
  0
SOLID
  5
454
330
3A2
100
AcDbEntity
  8
BEM
 62
     0
100
AcDbTrace
 10
331.4020398458262
 20
683.4260188534998
 30
0.0
 11
337.2353731791596
 21
683.4260188534998
 31
0.0
 12
334.3187065124929
 22
665.9260188534998
 32
0.0
 13
334.3187065124929
 23
665.9260188534998
 33
0.0
  0
SOLID
  5
455
330
3A2
100
AcDbEntity
  8
BEM
 62
     0
100
AcDbTrace
 10
331.4020398458263
 20
933.4261510225426
 30
0.0
 11
337.2353731791597
 21
933.4261510225426
 31
0.0
 12
334.318706512493
 22
950.9261510225426
 32
0.0
 13
334.318706512493
 23
950.9261510225426
 33
0.0
  0
MTEXT
  5
456
330
3A2
100
AcDbEntity
  8
BEM
 62
     1
100
AcDbMText
 10
318.0687065124928
 20
808.4260849380214
 30
0.0
 40
17.5
 41
0.0
 71
     5
 72
     1
  1
\A1;285
  7
GREEKS
 11
0.0000000000000001
 21
1.0
 31
0.0
 73
     1
 44
1.0
  0
POINT
  5
457
330
3A2
100
AcDbEntity
  8
DEFPOINTS
 62
     0
100
AcDbPoint
 10
385.5337518624547
 20
665.9260188534998
 30
0.0
  0
POINT
  5
458
330
3A2
100
AcDbEntity
  8
DEFPOINTS
 62
     0
100
AcDbPoint
 10
547.4837518624546
 20
950.9261510225426
 30
0.0
  0
POINT
  5
459
330
3A2
100
AcDbEntity
  8
DEFPOINTS
 62
     0
100
AcDbPoint
 10
334.318706512493
 20
950.9261510225426
 30
0.0
  0
ENDBLK
  5
3AD
330
3A2
100
AcDbEntity
  8
0
100
AcDbBlockEnd
  0
BLOCK
  5
3C4
330
3BA
100
AcDbEntity
  8
0
100
AcDbBlockBegin
  2
*D6
 70
     1
 10
0.0
 20
0.0
 30
0.0
  3
*D6
  1

  0
LINE
  5
433
330
3BA
100
AcDbEntity
  8
BEM
 62
     0
370
    -2
100
AcDbLine
 10
543.8870528607615
 20
825.8093107057948
 30
0.0
 11
358.2459685996239
 21
1005.080821919789
 31
0.0
  0
LINE
  5
434
330
3BA
100
AcDbEntity
  8
BEM
 62
     0
370
    -2
100
AcDbLine
 10
672.3988513956755
 20
958.8871737684451
 30
0.0
 11
486.7577671345379
 21
1138.158684982439
 31
0.0
  0
LINE
  5
435
330
3BA
100
AcDbEntity
  8
BEM
 62
     0
370
    -2
100
AcDbLine
 10
373.9991890843496
 20
1014.19597657342
 30
0.0
 11
478.1979446531987
 21
1122.096946624218
 31
0.0
  0
SOLID
  5
436
330
3BA
100
AcDbEntity
  8
BEM
 62
     0
100
AcDbTrace
 10
371.9011146666951
 20
1016.222063487259
 30
0.0
 11
376.097263502004
 21
1012.169889659582
 31
0.0
 12
361.8426676013172
 22
1001.607530067494
 32
0.0
 13
361.8426676013172
 23
1001.607530067494
 33
0.0
  0
SOLID
  5
437
330
3BA
100
AcDbEntity
  8
BEM
 62
     0
100
AcDbTrace
 10
476.0998702355442
 20
1124.123033538057
 30
0.0
 11
480.2960190708531
 21
1120.070859710379
 31
0.0
 12
490.3544661362312
 22
1134.685393130144
 32
0.0
 13
490.3544661362312
 23
1134.685393130144
 33
0.0
  0
MTEXT
  5
438
330
3BA
100
AcDbEntity
  8
BEM
 62
     1
100
AcDbMText
 10
414.409295113271
 20
1079.434660118778
 30
0.0
 40
17.5
 41
0.0
 71
     5
 72
     1
  1
\A1;185
  7
GREEKS
 11
0.6946583704589966
 21
0.7193398003386519
 31
0.0
 73
     1
 44
1.0
  0
POINT
  5
439
330
3BA
100
AcDbEntity
  8
DEFPOINTS
 62
     0
100
AcDbPoint
 10
547.4837518624548
 20
822.3360188534998
 30
0.0
  0
POINT
  5
43A
330
3BA
100
AcDbEntity
  8
DEFPOINTS
 62
     0
100
AcDbPoint
 10
675.9955503973689
 20
955.4138819161501
 30
0.0
  0
POINT
  5
43B
330
3BA
100
AcDbEntity
  8
DEFPOINTS
 62
     0
100
AcDbPoint
 10
490.3544661362312
 20
1134.685393130144
 30
0.0
  0
ENDBLK
  5
3C5
330
3BA
100
AcDbEntity
  8
0
100
AcDbBlockEnd
  0
BLOCK
  5
3DC
330
3D2
100
AcDbEntity
  8
0
100
AcDbBlockBegin
  2
*D7
 70
     1
 10
0.0
 20
0.0
 30
0.0
  3
*D7
  1

  0
LINE
  5
42A
330
3D2
100
AcDbEntity
  8
BEM
 62
     0
370
    -2
100
AcDbLine
 10
547.3092543789423
 20
955.923105157638
 30
0.0
 11
538.6278319553047
 21
1204.526516536915
 31
0.0
  0
LINE
  5
42B
330
3D2
100
AcDbEntity
  8
BEM
 62
     0
370
    -2
100
AcDbLine
 10
826.4837986769432
 20
1127.720810766227
 30
0.0
 11
823.4543497442754
 21
1214.47287770976
 31
0.0
  0
LINE
  5
42C
330
3D2
100
AcDbEntity
  8
BEM
 62
     0
370
    -2
100
AcDbLine
 10
556.2916689116514
 20
1200.140303594113
 30
0.0
 11
806.1395077549537
 21
1208.865182382371
 31
0.0
  0
SOLID
  5
42D
330
3D2
100
AcDbEntity
  8
BEM
 62
     0
100
AcDbTrace
 10
556.1898787129357
 20
1203.055193506252
 30
0.0
 11
556.393459110367
 21
1197.225413681974
 31
0.0
 12
538.8023294388172
 22
1199.529562401819
 32
0.0
 13
538.8023294388172
 23
1199.529562401819
 33
0.0
  0
SOLID
  5
42E
330
3D2
100
AcDbEntity
  8
BEM
 62
     0
100
AcDbTrace
 10
806.0377175562379
 20
1211.78007229451
 30
0.0
 11
806.2412979536693
 21
1205.950292470232
 31
0.0
 12
823.6288472277879
 22
1209.475923574665
 32
0.0
 13
823.6288472277879
 23
1209.475923574665
 33
0.0
  0
MTEXT
  5
42F
330
3D2
100
AcDbEntity
  8
BEM
 62
     1
100
AcDbMText
 10
680.6484715118869
 20
1220.742843927302
 30
0.0
 40
17.5
 41
0.0
 71
     5
 72
     1
  1
\A1;285
  7
GREEKS
 11
0.9993908270190956
 21
0.0348994967024999
 31
0.0
 73
     1
 44
1.0
  0
POINT
  5
430
330
3D2
100
AcDbEntity
  8
DEFPOINTS
 62
     0
100
AcDbPoint
 10
547.4837518624548
 20
950.9261510225424
 30
0.0
  0
POINT
  5
431
330
3D2
100
AcDbEntity
  8
DEFPOINTS
 62
     0
100
AcDbPoint
 10
826.6582961604555
 20
1122.723856631131
 30
0.0
  0
POINT
  5
432
330
3D2
100
AcDbEntity
  8
DEFPOINTS
 62
     0
100
AcDbPoint
 10
823.6288472277879
 20
1209.475923574665
 30
0.0
  0
ENDBLK
  5
3DD
330
3D2
100
AcDbEntity
  8
0
100
AcDbBlockEnd
  0
BLOCK
  5
3F5
330
3EA
100
AcDbEntity
  8
0
100
AcDbBlockBegin
  2
*D8
 70
     1
 10
0.0
 20
0.0
 30
0.0
  3
*D8
  1

  0
LINE
  5
420
330
3EA
100
AcDbEntity
  8
BEM
 62
     0
370
    -2
100
AcDbLine
 10
547.4837518624546
 20
955.9261510225425
 30
0.0
 11
547.4837518624546
 21
1164.595417378002
 31
0.0
  0
ARC
  5
421
330
3EA
100
AcDbEntity
  8
BEM
 62
     0
370
    -2
100
AcDbCircle
 10
547.4837518624546
 20
950.9261510225426
 30
0.0
 40
208.6692663554599
100
AcDbArc
 50
6.80650663197284
 51
85.19349336802701
  0
SOLID
  5
422
330
3EA
100
AcDbEntity
  8
BEM
 62
     0
100
AcDbTrace
 10
757.5903866257066
 20
975.8808792532132
 30
0.0
 11
751.7742709915276
 21
975.4330213431169
 31
0.0
 12
756.0259025389057
 22
958.2086033956278
 32
0.0
 13
756.0259025389057
 23
958.2086033956278
 33
0.0
  0
SOLID
  5
423
330
3EA
100
AcDbEntity
  8
BEM
 62
     0
100
AcDbTrace
 10
564.8460569610863
 20
1155.947499327048
 30
0.0
 11
565.090662539848
 21
1161.775701956386
 31
0.0
 12
547.4837518624546
 22
1159.595417378002
 32
0.0
 13
547.4837518624546
 23
1159.595417378002
 33
0.0
  0
MTEXT
  5
424
330
3EA
100
AcDbEntity
  8
BEM
 62
     1
100
AcDbMText
 10
725.6212365248144
 20
1088.242256909819
 30
0.0
 40
17.5
 41
0.0
 71
     5
 72
     1
  1
\A1;88°
  7
GREEKS
 11
0.6105128658487797
 21
-0.7920063387581631
 31
0.0
 73
     1
 44
1.0
  0
POINT
  5
425
330
3EA
100
AcDbEntity
  8
DEFPOINTS
 62
     0
100
AcDbPoint
 10
649.7086799622795
 20
1132.84076504877
 30
0.0
  0
POINT
  5
426
330
3EA
100
AcDbEntity
  8
DEFPOINTS
 62
     0
100
AcDbPoint
 10
547.4837518624546
 20
950.9261510225426
 30
0.0
  0
POINT
  5
427
330
3EA
100
AcDbEntity
  8
DEFPOINTS
 62
     0
100
AcDbPoint
 10
547.4837518624546
 20
950.9261510225426
 30
0.0
  0
POINT
  5
428
330
3EA
100
AcDbEntity
  8
DEFPOINTS
 62
     0
100
AcDbPoint
 10
842.3041779216166
 20
961.2215071624129
 30
0.0
  0
POINT
  5
429
330
3EA
100
AcDbEntity
  8
DEFPOINTS
 62
     0
100
AcDbPoint
 10
547.4837518624546
 20
655.9260188534994
 30
0.0
  0
ENDBLK
  5
3F6
330
3EA
100
AcDbEntity
  8
0
100
AcDbBlockEnd
  0
BLOCK
  5
44F
330
445
100
AcDbEntity
  8
0
100
AcDbBlockBegin
  2
*D9
 70
     1
 10
0.0
 20
0.0
 30
0.0
  3
*D9
  1

  0
LINE
  5
4BE
330
445
100
AcDbEntity
  8
BEM
 62
     0
370
    -2
100
AcDbLine
 10
385.5337518624547
 20
660.9260188534998
 30
0.0
 11
385.5337518624547
 21
609.3560506584585
 31
0.0
  0
LINE
  5
4BF
330
445
100
AcDbEntity
  8
BEM
 62
     0
370
    -2
100
AcDbLine
 10
709.4337518624542
 20
660.9260188534998
 30
0.0
 11
709.4337518624542
 21
609.3560506584585
 31
0.0
  0
LINE
  5
4C0
330
445
100
AcDbEntity
  8
BEM
 62
     0
370
    -2
100
AcDbLine
 10
403.0337518624547
 20
614.3560506584584
 30
0.0
 11
691.9337518624542
 21
614.3560506584584
 31
0.0
  0
SOLID
  5
4C1
330
445
100
AcDbEntity
  8
BEM
 62
     0
100
AcDbTrace
 10
403.0337518624547
 20
617.272717325125
 30
0.0
 11
403.0337518624547
 21
611.4393839917918
 31
0.0
 12
385.5337518624547
 22
614.3560506584584
 32
0.0
 13
385.5337518624547
 23
614.3560506584584
 33
0.0
  0
SOLID
  5
4C2
330
445
100
AcDbEntity
  8
BEM
 62
     0
100
AcDbTrace
 10
691.9337518624542
 20
617.272717325125
 30
0.0
 11
691.9337518624542
 21
611.4393839917918
 31
0.0
 12
709.4337518624542
 22
614.3560506584584
 32
0.0
 13
709.4337518624542
 23
614.3560506584584
 33
0.0
  0
MTEXT
  5
4C3
330
445
100
AcDbEntity
  8
BEM
 62
     1
100
AcDbMText
 10
547.4837518624545
 20
630.6060506584584
 30
0.0
 40
17.5
 41
0.0
 71
     5
 72
     1
  1
\A1;%%c324
  7
GREEKS
 73
     1
 44
1.0
  0
POINT
  5
4C4
330
445
100
AcDbEntity
  8
DEFPOINTS
 62
     0
100
AcDbPoint
 10
385.5337518624547
 20
665.9260188534998
 30
0.0
  0
POINT
  5
4C5
330
445
100
AcDbEntity
  8
DEFPOINTS
 62
     0
100
AcDbPoint
 10
709.4337518624542
 20
665.9260188534998
 30
0.0
  0
POINT
  5
4C6
330
445
100
AcDbEntity
  8
DEFPOINTS
 62
     0
100
AcDbPoint
 10
709.4337518624542
 20
614.3560506584584
 30
0.0
  0
ENDBLK
  5
450
330
445
100
AcDbEntity
  8
0
100
AcDbBlockEnd
  0
ENDSEC
  0
SECTION
  2
ENTITIES
  0
TEXT
  5
202
330
20
100
AcDbEntity
  8
TEXT
100
AcDbText
 10
511.0540121453142
 20
157.7240979930877
 30
0.0
 40
10.0
  1
Koeh
 41
0.8
  7
GREEKS
 72
     1
 11
524.1968692881714
 21
157.7240979930877
 31
0.0
100
AcDbText
  0
TEXT
  5
203
330
20
100
AcDbEntity
  8
TEXT
 62
     1
100
AcDbText
 10
480.0373920362803
 20
353.4720666920997
 30
0.0
 40
17.5
  1
Werkstoff: EN 10219 S235
 41
0.8
  7
GREEKS
100
AcDbText
  0
LINE
  5
205
330
20
100
AcDbEntity
  8
STEMPEL
100
AcDbLine
 10
709.4337518624542
 20
756.9039715794962
 30
0.0
 11
385.5337518624547
 21
887.7680661275034
 31
0.0
  0
LINE
  5
206
102
{ACAD_REACTORS
330
3B8
102
}
330
20
100
AcDbEntity
  8
STEMPEL
100
AcDbLine
 10
709.4337518624542
 20
665.9260188534998
 30
0.0
 11
385.5337518624547
 21
665.9260188534998
 31
0.0
  0
DIMENSION
  5
20D
330
20
100
AcDbEntity
  8
BEM
100
AcDbDimension
  2
*D9
 10
709.4337518624542
 20
614.3560506584584
 30
0.0
 11
547.4837518624545
 21
630.6060506584584
 31
0.0
 70
    32
  1
%%c324
 71
     5
 42
323.8999999999996
  3
Standard
100
AcDbAlignedDimension
 13
385.5337518624547
 23
665.9260188534998
 33
0.0
 14
709.4337518624542
 24
665.9260188534998
 34
0.0
100
AcDbRotatedDimension
1001
ACAD
1000
DSTYLE
1002
{
1070
    40
1040
5.0
1070
    41
1040
3.5
1070
    42
1040
1.0
1070
    43
1040
7.0
1070
    44
1040
1.0
1070
    47
1040
2.0
1070
    48
1040
2.0
1070
    73
1070
     0
1070
    74
1070
     0
1070
    77
1070
     1
1070
    78
1070
     8
1070
    79
1070
     2
1070
   140
1040
3.5
1070
   141
1040
1.5
1070
   146
1040
0.5
1070
   147
1040
1.5
1070
   172
1070
     1
1070
   178
1070
     1
1070
   179
1070
     2
1070
   271
1070
     2
1070
   272
1070
     2
1070
   284
1070
     8
1070
   285
1070
     8
1070
   286
1070
     8
1070
   340
1005
37
1002
}
  0
LINE
  5
20E
330
20
100
AcDbEntity
  8
STEMPEL
  6
CONTINUOUS
 62
     3
100
AcDbLine
 10
385.5337518624547
 20
887.7680661275032
 30
0.0
 11
604.9513890676796
 21
1114.981680833816
 31
0.0
  0
ARC
  5
20F
330
20
100
AcDbEntity
  8
SCHRAFF
100
AcDbCircle
 10
475.4119144673877
 20
851.6468854077666
 30
0.0
 40
5.705091079773839
100
AcDbArc
 50
293.4824135024093
 51
22.51758649759065
  0
INSERT
  5
210
330
20
100
AcDbEntity
  8
STEMPEL
100
AcDbBlockReference
  2
LOGO
 10
377.4888713644485
 20
112.552631911208
 30
0.0
 41
5.0
 42
5.0
 43
5.0
  0
LINE
  5
211
330
20
100
AcDbEntity
  8
HILF
100
AcDbLine
 10
1050.0
 20
0.0
 30
0.0
 11
0.0
 21
0.0
 31
0.0
  0
LINE
  5
212
330
20
100
AcDbEntity
  8
HILF
100
AcDbLine
 10
1050.0
 20
1485.0
 30
0.0
 11
0.0
 21
1485.0
 31
0.0
  0
LINE
  5
213
330
20
100
AcDbEntity
  8
STEMPEL
100
AcDbLine
 10
1025.0
 20
1460.0
 30
0.0
 11
99.99999999999971
 21
1460.0
 31
0.0
  0
LINE
  5
214
330
20
100
AcDbEntity
  8
STEMPEL
100
AcDbLine
 10
1025.0
 20
25.0
 30
0.0
 11
99.99999999999971
 21
25.0
 31
0.0
  0
LINE
  5
215
330
20
100
AcDbEntity
  8
STEMPEL
100
AcDbLine
 10
124.9999999999997
 20
25.0
 30
0.0
 11
1025.0
 21
25.0
 31
0.0
  0
TEXT
  5
216
330
20
100
AcDbEntity
  8
TEXT
100
AcDbText
 10
506.1566460565737
 20
183.2740272978806
 30
0.0
 40
10.0
  1
Name
 41
0.8
  7
GREEKS
100
AcDbText
  0
TEXT
  5
217
330
20
100
AcDbEntity
  8
TEXT
100
AcDbText
 10
485.7147386835128
 20
256.0460421087048
 30
0.0
 40
12.5
  1
Zul. Abw.
 41
0.8
  7
GREEKS
100
AcDbText
  0
LINE
  5
218
330
20
100
AcDbEntity
  8
HILF
100
AcDbLine
 10
365.0000000000003
 20
124.9999999999999
 30
0.0
 11
575.0
 21
124.9999999999999
 31
0.0
  0
LINE
  5
219
330
20
100
AcDbEntity
  8
HILF
100
AcDbLine
 10
365.0000000000003
 20
149.9999999999999
 30
0.0
 11
575.0
 21
149.9999999999999
 31
0.0
  0
LINE
  5
21A
330
20
100
AcDbEntity
  8
HILF
100
AcDbLine
 10
365.0000000000003
 20
174.9999999999998
 30
0.0
 11
575.0
 21
174.9999999999998
 31
0.0
  0
LINE
  5
21B
330
20
100
AcDbEntity
  8
STEMPEL
100
AcDbLine
 10
1025.0
 20
200.0
 30
0.0
 11
365.0000000000003
 21
199.9999999999998
 31
0.0
  0
LINE
  5
21C
330
20
100
AcDbEntity
  8
STEMPEL
100
AcDbLine
 10
1025.0
 20
100.0
 30
0.0
 11
365.0000000000003
 21
99.99999999999992
 31
0.0
  0
LINE
  5
21D
330
20
100
AcDbEntity
  8
STEMPEL
100
AcDbLine
 10
1025.0
 20
275.0000000000001
 30
0.0
 11
99.99999999999992
 21
275.0
 31
0.0
  0
LINE
  5
21F
330
20
100
AcDbEntity
  8
STEMPEL
100
AcDbLine
 10
385.5337518624547
 20
887.7680661275034
 30
0.0
 11
385.5337518624547
 21
665.9260188534998
 31
0.0
  0
LINE
  5
220
330
20
100
AcDbEntity
  8
HILF
100
AcDbLine
 10
0.0
 20
0.0
 30
0.0
 11
-0.0000000000002842
 21
1485.0
 31
0.0
  0
LINE
  5
221
330
20
100
AcDbEntity
  8
STEMPEL
100
AcDbLine
 10
100.0
 20
25.0
 30
0.0
 11
99.99999999999971
 21
1460.0
 31
0.0
  0
TEXT
  5
222
330
20
100
AcDbEntity
  8
TEXT
100
AcDbText
 10
104.6377487744418
 20
279.1799999999999
 30
0.0
 40
12.5
  1
Erstellt mit AUTOCAD 2004
 41
0.8
  7
GREEKS
100
AcDbText
  0
TEXT
  5
223
330
20
100
AcDbEntity
  8
TEXT
100
AcDbText
 10
167.1551080127216
 20
46.68454737460329
 30
0.0
 40
10.0
  1
Änderung
 41
0.8
  7
GREEKS
 72
     1
 11
194.0122508698645
 21
46.68454737460329
 31
0.0
100
AcDbText
  0
LINE
  5
224
330
20
100
AcDbEntity
  8
HILF
100
AcDbLine
 10
100.0000000000002
 20
99.99999999999992
 30
0.0
 11
365.0000000000003
 21
99.99999999999992
 31
0.0
  0
LINE
  5
225
330
20
100
AcDbEntity
  8
HILF
100
AcDbLine
 10
100.0000000000002
 20
124.9999999999999
 30
0.0
 11
365.0000000000003
 21
124.9999999999999
 31
0.0
  0
LINE
  5
226
330
20
100
AcDbEntity
  8
HILF
100
AcDbLine
 10
100.0000000000002
 20
149.9999999999999
 30
0.0
 11
365.0000000000003
 21
149.9999999999999
 31
0.0
  0
LINE
  5
227
330
20
100
AcDbEntity
  8
HILF
100
AcDbLine
 10
100.0000000000002
 20
174.9999999999998
 30
0.0
 11
365.0000000000003
 21
174.9999999999998
 31
0.0
  0
LINE
  5
228
330
20
100
AcDbEntity
  8
HILF
100
AcDbLine
 10
100.0000000000002
 20
199.9999999999998
 30
0.0
 11
365.0000000000003
 21
199.9999999999998
 31
0.0
  0
LINE
  5
229
330
20
100
AcDbEntity
  8
HILF
100
AcDbLine
 10
100.0000000000002
 20
225.0000000000001
 30
0.0
 11
365.0000000000003
 21
225.0000000000001
 31
0.0
  0
LINE
  5
22A
330
20
100
AcDbEntity
  8
HILF
100
AcDbLine
 10
100.0000000000002
 20
250.0000000000001
 30
0.0
 11
365.0000000000003
 21
250.0000000000001
 31
0.0
  0
LINE
  5
22B
330
20
100
AcDbEntity
  8
STEMPEL
100
AcDbLine
 10
364.9999999999997
 20
74.99999999999992
 30
0.0
 11
99.99999999999992
 21
74.99999999999992
 31
0.0
  0
TEXT
  5
22C
330
20
100
AcDbEntity
  8
TEXT
100
AcDbText
 10
120.6660276761439
 20
34.13664615067979
 30
0.0
 40
10.0
  1
Index
 50
90.0
 41
0.8
  7
GREEKS
100
AcDbText
  0
LINE
  5
22D
330
20
100
AcDbEntity
  8
VOLL
100
AcDbLine
 10
135.0000000000002
 20
275.0000000000001
 30
0.0
 11
134.9999999999999
 21
24.99999999999993
 31
0.0
  0
LINE
  5
22E
330
20
100
AcDbEntity
  8
HILF
100
AcDbLine
 10
77.7191783928464
 20
742.5000000000001
 30
0.0
 11
0.0000000000002842
 21
742.5000000000001
 31
0.0
  0
TEXT
  5
22F
330
20
100
AcDbEntity
  8
TEXT
100
AcDbText
 10
274.2958732746197
 20
46.67890673349525
 30
0.0
 40
10.0
  1
Tag
 41
0.8
  7
GREEKS
 72
     1
 11
283.6292066079531
 21
46.67890673349525
 31
0.0
100
AcDbText
  0
LINE
  5
230
330
20
100
AcDbEntity
  8
VOLL
100
AcDbLine
 10
310.0000000000003
 20
274.9999999999999
 30
0.0
 11
310.0
 21
24.99999999999993
 31
0.0
  0
LINE
  5
231
330
20
100
AcDbEntity
  8
VOLL
100
AcDbLine
 10
260.0000000000003
 20
274.9999999999999
 30
0.0
 11
260.0
 21
24.99999999999993
 31
0.0
  0
TEXT
  5
232
330
20
100
AcDbEntity
  8
TEXT
100
AcDbText
 10
320.492358433913
 20
46.48310542416021
 30
0.0
 40
10.0
  1
Name
 41
0.8
  7
GREEKS
 72
     1
 11
336.3018822434368
 21
46.48310542416021
 31
0.0
100
AcDbText
  0
LINE
  5
233
330
20
100
AcDbEntity
  8
STEMPEL
100
AcDbLine
 10
365.0000000000003
 20
274.9999999999999
 30
0.0
 11
365.0
 21
24.99999999999993
 31
0.0
  0
TEXT
  5
234
330
20
100
AcDbEntity
  8
TEXT
100
AcDbText
 10
425.9974927705902
 20
157.7691260206433
 30
0.0
 40
10.0
  1
06.04.
 41
0.8
  7
GREEKS
 72
     1
 11
443.5213022943996
 21
157.7691260206433
 31
0.0
100
AcDbText
  0
TEXT
  5
235
330
20
100
AcDbEntity
  8
TEXT
100
AcDbText
 10
430.8279182884127
 20
183.2970125307481
 30
0.0
 40
10.0
  1
Tag
 41
0.8
  7
GREEKS
100
AcDbText
  0
TEXT
  5
236
330
20
100
AcDbEntity
  8
TEXT
100
AcDbText
 10
368.9590317919039
 20
159.0747592404491
 30
0.0
 40
10.0
  1
Gez.
 41
0.8
  7
GREEKS
100
AcDbText
  0
LINE
  5
237
330
20
100
AcDbEntity
  8
VOLL
100
AcDbLine
 10
410.0000000000003
 20
199.9999999999998
 30
0.0
 11
410.0000000000003
 21
99.99999999999992
 31
0.0
  0
TEXT
  5
238
330
20
100
AcDbEntity
  8
TEXT
100
AcDbText
 10
369.0016943468259
 20
108.8236597412452
 30
0.0
 40
10.0
  1
Norm.
 41
0.8
  7
GREEKS
100
AcDbText
  0
TEXT
  5
239
330
20
100
AcDbEntity
  8
TEXT
100
AcDbText
 10
368.8787716429181
 20
134.2231572857094
 30
0.0
 40
10.0
  1
Gepr.
 41
0.8
  7
GREEKS
100
AcDbText
  0
TEXT
  5
23A
330
20
100
AcDbEntity
  8
TEXT
 62
     1
100
AcDbText
 10
401.2515766204717
 20
220.372535722849
 30
0.0
 40
17.5
  1
1:5
 41
0.8
  7
GREEKS
100
AcDbText
  0
TEXT
  5
23B
330
20
100
AcDbEntity
  8
TEXT
100
AcDbText
 10
383.7908930375943
 20
256.1552237717722
 30
0.0
 40
12.5
  1
Maßstab
 41
0.8
  7
GREEKS
100
AcDbText
  0
TEXT
  5
23C
330
20
100
AcDbEntity
  8
TEXT
100
AcDbText
 10
371.55527455526
 20
182.8506367787916
 30
0.0
 40
10.0
  1
2011
 41
0.8
  7
GREEKS
100
AcDbText
  0
LINE
  5
23D
330
20
100
AcDbEntity
  8
VOLL
100
AcDbLine
 10
475.0000000000002
 20
274.9999999999996
 30
0.0
 11
475.0
 21
99.99999999999992
 31
0.0
  0
TEXT
  5
23E
330
20
100
AcDbEntity
  8
TEXT
 62
     1
100
AcDbText
 10
292.4806628287003
 20
428.844636841721
 30
0.0
 40
17.5
  1
Rohrenden leicht entgratet
 41
0.8
  7
GREEKS
100
AcDbText
  0
ARC
  5
246
330
20
100
AcDbEntity
  8
SCHRAFF
100
AcDbCircle
 10
392.6240335244602
 20
885.2381799842365
 30
0.0
 40
5.705091079773839
100
AcDbArc
 50
293.4824135024093
 51
22.51758649759065
  0
INSERT
  5
247
330
20
100
AcDbEntity
  8
SCHRAFF
100
AcDbBlockReference
  2
*X4
 10
-39.71013112797118
 20
65.97046363237814
 30
0.0
1001
ACAD
1000
HATCH
1002
{
1070
    19
1000
ANSI31
1040
1.0
1040
0.0087266462599716
1000
R14_HATCH_DATA
1000
2E3
1011
-38.71013112797118
1021
65.97046363237814
1031
0.0
1011
-39.71013112797118
1021
66.97046363237814
1031
0.0
1011
-39.71013112797118
1021
65.97046363237814
1031
1.0
1040
0.0
1010
0.0
1020
0.0
1030
1.0
1000
ANSI31
1070
     0
1070
     0
1071
        1
1071
        7
1070
     1
1070
     1
1071
        3
1040
428.3324726083427
1040
825.1986438560962
1040
1.125290079249607
1040
425.3356198610154
1040
817.7811730195617
1040
0.0
1040
425.2978377251793
1040
822.1105769640184
1040
0.0
1071
        0
1070
     0
1070
     1
1040
0.0087266462599716
1040
1.0
1070
     0
1070
     1
1040
0.7941248096574199
1040
1.980912185147644
1040
-40.96877974248395
1040
-0.0891563061442727
1040
0.0876136580374814
1070
     0
1040
0.044672939755949
1071
        1
1040
424.7738412172745
1040
823.2736572399717
1040
0.0
1002
}
  0
ARC
  5
248
330
20
100
AcDbEntity
  8
SCHRAFF
100
AcDbCircle
 10
386.6851154643161
 20
887.6376586336206
 30
0.0
 40
4.027899657604571
100
AcDbArc
 50
61.25240905835372
 51
254.7475909416476
  0
ARC
  5
249
330
20
100
AcDbEntity
  8
SCHRAFF
100
AcDbCircle
 10
387.9881142516265
 20
887.1112129513161
 30
0.0
 40
5.705091079773839
100
AcDbArc
 50
293.4824135024093
 51
22.51758649759065
  0
ARC
  5
24A
330
20
100
AcDbEntity
  8
SCHRAFF
100
AcDbCircle
 10
383.3521949787924
 20
888.9842459183958
 30
0.0
 40
5.705091079773839
100
AcDbArc
 50
293.4824135024093
 51
22.51758649759065
  0
ARC
  5
24B
330
20
100
AcDbEntity
  8
SCHRAFF
100
AcDbCircle
 10
461.5041566488858
 20
857.2659843090052
 30
0.0
 40
5.705091079773839
100
AcDbArc
 50
293.4824135024093
 51
22.51758649759065
  0
ARC
  5
24C
330
20
100
AcDbEntity
  8
SCHRAFF
100
AcDbCircle
 10
456.8682373760521
 20
859.1390172760847
 30
0.0
 40
5.705091079773839
100
AcDbArc
 50
293.4824135024093
 51
22.51758649759065
  0
ARC
  5
24D
330
20
100
AcDbEntity
  8
SCHRAFF
100
AcDbCircle
 10
447.5963988303843
 20
862.885083210244
 30
0.0
 40
5.705091079773839
100
AcDbArc
 50
293.4824135024093
 51
22.51758649759065
  0
ARC
  5
24E
330
20
100
AcDbEntity
  8
SCHRAFF
100
AcDbCircle
 10
452.232318103218
 20
861.0120502431643
 30
0.0
 40
5.705091079773839
100
AcDbArc
 50
293.4824135024093
 51
22.51758649759065
  0
ARC
  5
24F
330
20
100
AcDbEntity
  8
SCHRAFF
100
AcDbCircle
 10
466.1400759217199
 20
855.3929513419257
 30
0.0
 40
5.705091079773839
100
AcDbArc
 50
293.4824135024093
 51
22.51758649759065
  0
ARC
  5
250
330
20
100
AcDbEntity
  8
SCHRAFF
100
AcDbCircle
 10
470.7759951945535
 20
853.5199183748463
 30
0.0
 40
5.705091079773839
100
AcDbArc
 50
293.4824135024093
 51
22.51758649759065
  0
ARC
  5
251
330
20
100
AcDbEntity
  8
SCHRAFF
100
AcDbCircle
 10
433.6886410118823
 20
868.5041821114827
 30
0.0
 40
5.705091079773839
100
AcDbArc
 50
293.4824135024093
 51
22.51758649759065
  0
ARC
  5
252
330
20
100
AcDbEntity
  8
SCHRAFF
100
AcDbCircle
 10
415.1449639205465
 20
875.9963139798008
 30
0.0
 40
5.705091079773839
100
AcDbArc
 50
293.4824135024093
 51
22.51758649759065
  0
ARC
  5
253
330
20
100
AcDbEntity
  8
SCHRAFF
100
AcDbCircle
 10
405.8731253748788
 20
879.74237991396
 30
0.0
 40
5.705091079773839
100
AcDbArc
 50
293.4824135024093
 51
22.51758649759065
  0
ARC
  5
254
330
20
100
AcDbEntity
  8
SCHRAFF
100
AcDbCircle
 10
401.2372061020446
 20
881.6154128810397
 30
0.0
 40
5.705091079773839
100
AcDbArc
 50
293.4824135024093
 51
22.51758649759065
  0
ARC
  5
255
330
20
100
AcDbEntity
  8
SCHRAFF
100
AcDbCircle
 10
396.6012868292109
 20
883.4884458481191
 30
0.0
 40
5.705091079773839
100
AcDbArc
 50
293.4824135024093
 51
22.51758649759065
  0
ARC
  5
256
330
20
100
AcDbEntity
  8
SCHRAFF
100
AcDbCircle
 10
410.5090446477125
 20
877.8693469468807
 30
0.0
 40
5.705091079773839
100
AcDbArc
 50
293.4824135024093
 51
22.51758649759065
  0
ARC
  5
257
330
20
100
AcDbEntity
  8
SCHRAFF
100
AcDbCircle
 10
424.4168024662144
 20
872.2502480456419
 30
0.0
 40
5.705091079773839
100
AcDbArc
 50
293.4824135024093
 51
22.51758649759065
  0
ARC
  5
258
330
20
100
AcDbEntity
  8
SCHRAFF
100
AcDbCircle
 10
419.7808831933802
 20
874.1232810127215
 30
0.0
 40
5.705091079773839
100
AcDbArc
 50
293.4824135024093
 51
22.51758649759065
  0
ARC
  5
259
330
20
100
AcDbEntity
  8
SCHRAFF
100
AcDbCircle
 10
429.0527217390481
 20
870.3772150785622
 30
0.0
 40
5.705091079773839
100
AcDbArc
 50
293.4824135024093
 51
22.51758649759065
  0
ARC
  5
25A
330
20
100
AcDbEntity
  8
SCHRAFF
100
AcDbCircle
 10
442.9604795575501
 20
864.7581161773235
 30
0.0
 40
5.705091079773839
100
AcDbArc
 50
293.4824135024093
 51
22.51758649759065
  0
ARC
  5
25B
330
20
100
AcDbEntity
  8
SCHRAFF
100
AcDbCircle
 10
438.3245602847162
 20
866.6311491444032
 30
0.0
 40
5.705091079773839
100
AcDbArc
 50
293.4824135024093
 51
22.51758649759065
  0
LINE
  5
25D
330
20
100
AcDbEntity
  8
STEMPEL
100
AcDbLine
 10
709.4337518624542
 20
756.9039715794961
 30
0.0
 11
709.4337518624542
 21
665.9260188534998
 31
0.0
  0
LINE
  5
25F
102
{ACAD_REACTORS
330
402
102
}
330
20
100
AcDbEntity
  8
MITTEL
100
AcDbLine
 10
547.4837518624546
 20
950.9261510225426
 30
0.0
 11
547.4837518624546
 21
655.9260188534996
 31
0.0
  0
LINE
  5
261
330
20
100
AcDbEntity
  8
HILF
100
AcDbLine
 10
1050.0
 20
-0.0000000000002842
 30
0.0
 11
1050.0
 21
1485.0
 31
0.0
  0
LINE
  5
262
330
20
100
AcDbEntity
  8
STEMPEL
100
AcDbLine
 10
1025.0
 20
25.0
 30
0.0
 11
1025.0
 21
1460.0
 31
0.0
  0
TEXT
  5
263
330
20
100
AcDbEntity
  8
TEXT
 62
     1
100
AcDbText
 10
600.0373920362804
 20
323.4720666920996
 30
0.0
 40
17.5
  1
feuerverzinkt und innen beschichtet
 41
0.8
  7
GREEKS
100
AcDbText
  0
TEXT
  5
264
330
20
100
AcDbEntity
  8
TEXT
100
AcDbText
 10
843.1002153742515
 20
130.185404446965
 30
0.0
 40
12.5
  1
ersetzt durch:
 41
0.8
  7
GREEKS
100
AcDbText
  0
TEXT
  5
265
330
20
100
AcDbEntity
  8
TEXT
100
AcDbText
 10
841.8096540742482
 20
182.9529559274992
 30
0.0
 40
12.5
  1
Ersatz für:
 41
0.8
  7
GREEKS
100
AcDbText
  0
TEXT
  5
266
330
20
100
AcDbEntity
  8
TEXT
100
AcDbText
 10
840.4468873940851
 20
255.7830086342841
 30
0.0
 40
12.5
  1
Zeichnungs Nr.
 41
0.8
  7
GREEKS
100
AcDbText
  0
LINE
  5
267
330
20
100
AcDbEntity
  8
HILF
100
AcDbLine
 10
583.7274248224712
 20
37.23495645070784
 30
0.0
 11
1012.147209831682
 21
37.23495645070784
 31
0.0
  0
LINE
  5
268
330
20
100
AcDbEntity
  8
HILF
100
AcDbLine
 10
841.8096540742482
 20
209.4495909238957
 30
0.0
 11
1012.147209831682
 21
209.4495909238957
 31
0.0
  0
LINE
  5
269
330
20
100
AcDbEntity
  8
VOLL
100
AcDbLine
 10
830.0
 20
150.0
 30
0.0
 11
1025.0
 21
150.0
 31
0.0
  0
TEXT
  5
26A
330
20
100
AcDbEntity
  8
TEXT
 62
     1
100
AcDbText
 10
588.9294820816727
 20
218.5437197313445
 30
0.0
 40
17.5
  1
Bogen 88%%d DN300
 41
0.8
  7
GREEKS
100
AcDbText
  0
TEXT
  5
26B
330
20
100
AcDbEntity
  8
TEXT
100
AcDbText
 10
587.8240977813288
 20
129.100298576054
 30
0.0
 40
12.5
  1
EDV-Art.Nr. 03004.300X
 41
0.8
  7
GREEKS
100
AcDbText
  0
LINE
  5
26C
330
20
100
AcDbEntity
  8
HILF
100
AcDbLine
 10
586.9342002742369
 20
124.9999999999999
 30
0.0
 11
812.0884791390775
 21
124.9999999999999
 31
0.0
  0
LINE
  5
26D
330
20
100
AcDbEntity
  8
HILF
100
AcDbLine
 10
586.9342002742369
 20
149.9999999999999
 30
0.0
 11
812.0884791390775
 21
149.9999999999999
 31
0.0
  0
LINE
  5
26E
330
20
100
AcDbEntity
  8
HILF
100
AcDbLine
 10
586.9342002742369
 20
174.9999999999998
 30
0.0
 11
812.0884791390775
 21
174.9999999999998
 31
0.0
  0
LINE
  5
26F
330
20
100
AcDbEntity
  8
HILF
100
AcDbLine
 10
586.9342002742369
 20
210.0939561891034
 30
0.0
 11
812.0884791390777
 21
210.0939561891034
 31
0.0
  0
LINE
  5
270
330
20
100
AcDbEntity
  8
STEMPEL
100
AcDbLine
 10
575.0
 20
275.0000000000001
 30
0.0
 11
575.0
 21
24.99999999999993
 31
0.0
  0
TEXT
  5
271
330
20
100
AcDbEntity
  8
TEXT
100
AcDbText
 10
587.8240977813288
 20
178.7583604396322
 30
0.0
 40
12.5
  1
Muffenlos
 41
0.8
  7
GREEKS
100
AcDbText
  0
TEXT
  5
272
330
20
100
AcDbEntity
  8
TEXT
100
AcDbText
 10
587.4593753944567
 20
106.5743538255658
 30
0.0
 40
10.0
  1
03004300W.DWG
 41
0.8
  7
GREEKS
100
AcDbText
  0
TEXT
  5
273
330
20
100
AcDbEntity
  8
TEXT
100
AcDbText
 10
586.8555959778399
 20
77.11401425482641
 30
0.0
 40
12.5
  1
Bauvorhaben
 41
0.8
  7
GREEKS
100
AcDbText
  0
TEXT
  5
274
330
20
100
AcDbEntity
  8
TEXT
100
AcDbText
 10
587.1948509522525
 20
256.3723320029449
 30
0.0
 40
12.5
  1
Benennung
 41
0.8
  7
GREEKS
100
AcDbText
  0
LINE
  5
275
330
20
100
AcDbEntity
  8
STEMPEL
100
AcDbLine
 10
830.0
 20
274.9999999999994
 30
0.0
 11
830.0
 21
100.0
 31
0.0
  0
TEXT
  5
277
330
20
100
AcDbEntity
  8
TEXT
 62
     1
100
AcDbText
 10
865.3897267425781
 20
220.372535722849
 30
0.0
 40
17.5
  1
03004300W
 41
0.8
  7
GREEKS
 72
     1
 11
925.3897267425783
 21
220.372535722849
 31
0.0
100
AcDbText
  0
LINE
  5
27A
330
20
100
AcDbEntity
  8
STEMPEL
100
AcDbLine
 10
747.0397117270577
 20
795.8460829984848
 30
0.0
 11
837.9622431423952
 21
799.0211677596457
 31
0.0
  0
LINE
  5
27D
102
{ACAD_REACTORS
330
3B8
330
3E8
330
402
102
}
330
20
100
AcDbEntity
  8
MITTEL
100
AcDbLine
 10
547.4837518624546
 20
950.9261510225426
 30
0.0
 11
842.3041779216166
 21
961.2215071624131
 31
0.0
  0
LINE
  5
27E
102
{ACAD_REACTORS
330
3E8
102
}
330
20
100
AcDbEntity
  8
STEMPEL
100
AcDbLine
 10
604.9513890676799
 20
1114.981680833816
 30
0.0
 11
826.6582961604555
 21
1122.723856631131
 31
0.0
  0
LINE
  5
281
330
20
100
AcDbEntity
  8
STEMPEL
100
AcDbLine
 10
747.0397117270577
 20
795.8460829984845
 30
0.0
 11
604.9513890676796
 21
1114.981680833816
 31
0.0
  0
ARC
  5
284
330
20
100
AcDbEntity
  8
SCHRAFF
100
AcDbCircle
 10
646.4206764590025
 20
1021.946077734675
 30
0.0
 40
5.705091079773839
100
AcDbArc
 50
249.4824135024093
 51
338.5175864975906
  0
ARC
  5
285
330
20
100
AcDbEntity
  8
SCHRAFF
100
AcDbCircle
 10
642.3533100282445
 20
1031.081532311102
 30
0.0
 40
5.705091079773839
100
AcDbArc
 50
249.4824135024093
 51
338.5175864975906
  0
ARC
  5
286
330
20
100
AcDbEntity
  8
SCHRAFF
100
AcDbCircle
 10
640.3196268128653
 20
1035.649259599314
 30
0.0
 40
5.705091079773839
100
AcDbArc
 50
249.4824135024093
 51
338.5175864975906
  0
ARC
  5
287
330
20
100
AcDbEntity
  8
SCHRAFF
100
AcDbCircle
 10
644.3869932436236
 20
1026.513805022888
 30
0.0
 40
5.705091079773839
100
AcDbArc
 50
249.4824135024093
 51
338.5175864975906
  0
LINE
  5
288
102
{ACAD_REACTORS
330
3D0
102
}
330
20
100
AcDbEntity
  8
MITTEL
100
AcDbLine
 10
547.4837518624546
 20
822.3360188534998
 30
0.0
 11
675.9955503973688
 21
955.4138819161501
 31
0.0
  0
ARC
  5
28A
330
20
100
AcDbEntity
  8
SCHRAFF
100
AcDbCircle
 10
517.1351879228932
 20
834.7895887040506
 30
0.0
 40
5.705091079773839
100
AcDbArc
 50
293.4824135024093
 51
22.51758649759065
  0
ARC
  5
28B
330
20
100
AcDbEntity
  8
SCHRAFF
100
AcDbCircle
 10
498.5915108315575
 20
842.2817205723688
 30
0.0
 40
5.705091079773839
100
AcDbArc
 50
293.4824135024093
 51
22.51758649759065
  0
ARC
  5
28C
330
20
100
AcDbEntity
  8
SCHRAFF
100
AcDbCircle
 10
484.6837530130556
 20
847.9008194736074
 30
0.0
 40
5.705091079773839
100
AcDbArc
 50
293.4824135024093
 51
22.51758649759065
  0
ARC
  5
28D
330
20
100
AcDbEntity
  8
SCHRAFF
100
AcDbCircle
 10
480.0478337402217
 20
849.7738524406873
 30
0.0
 40
5.705091079773839
100
AcDbArc
 50
293.4824135024093
 51
22.51758649759065
  0
ARC
  5
28E
330
20
100
AcDbEntity
  8
SCHRAFF
100
AcDbCircle
 10
493.9555915587233
 20
844.1547535394482
 30
0.0
 40
5.705091079773839
100
AcDbArc
 50
293.4824135024093
 51
22.51758649759065
  0
ARC
  5
28F
330
20
100
AcDbEntity
  8
SCHRAFF
100
AcDbCircle
 10
489.3196722858895
 20
846.0277865065281
 30
0.0
 40
5.705091079773839
100
AcDbArc
 50
293.4824135024093
 51
22.51758649759065
  0
ARC
  5
290
330
20
100
AcDbEntity
  8
SCHRAFF
100
AcDbCircle
 10
507.8633493772254
 20
838.5356546382096
 30
0.0
 40
5.705091079773839
100
AcDbArc
 50
293.4824135024093
 51
22.51758649759065
  0
ARC
  5
291
330
20
100
AcDbEntity
  8
SCHRAFF
100
AcDbCircle
 10
503.2274301043912
 20
840.408687605289
 30
0.0
 40
5.705091079773839
100
AcDbArc
 50
293.4824135024093
 51
22.51758649759065
  0
ARC
  5
292
330
20
100
AcDbEntity
  8
SCHRAFF
100
AcDbCircle
 10
512.4992686500591
 20
836.6626216711299
 30
0.0
 40
5.705091079773839
100
AcDbArc
 50
293.4824135024093
 51
22.51758649759065
  0
ARC
  5
293
330
20
100
AcDbEntity
  8
SCHRAFF
100
AcDbCircle
 10
535.6788650142289
 20
827.2974568357323
 30
0.0
 40
5.705091079773839
100
AcDbArc
 50
293.4824135024093
 51
22.51758649759065
  0
ARC
  5
294
330
20
100
AcDbEntity
  8
SCHRAFF
100
AcDbCircle
 10
531.0429457413947
 20
829.1704898028118
 30
0.0
 40
5.705091079773839
100
AcDbArc
 50
293.4824135024093
 51
22.51758649759065
  0
ARC
  5
295
330
20
100
AcDbEntity
  8
SCHRAFF
100
AcDbCircle
 10
521.7711071957271
 20
832.9165557369709
 30
0.0
 40
5.705091079773839
100
AcDbArc
 50
293.4824135024093
 51
22.51758649759065
  0
ARC
  5
296
330
20
100
AcDbEntity
  8
SCHRAFF
100
AcDbCircle
 10
526.407026468561
 20
831.0435227698913
 30
0.0
 40
5.705091079773839
100
AcDbArc
 50
293.4824135024093
 51
22.51758649759065
  0
ARC
  5
297
330
20
100
AcDbEntity
  8
SCHRAFF
100
AcDbCircle
 10
540.314784287063
 20
825.4244238686528
 30
0.0
 40
5.705091079773839
100
AcDbArc
 50
293.4824135024093
 51
22.51758649759065
  0
LINE
  5
29A
330
20
100
AcDbEntity
  8
STEMPEL
100
AcDbLine
 10
610.0058805984745
 20
887.0795784423656
 30
0.0
 11
610.0058805984745
 21
887.0795784423656
 31
0.0
  0
ARC
  5
29D
330
20
100
AcDbEntity
  8
SCHRAFF
100
AcDbCircle
 10
613.8817450129383
 20
1095.029714346083
 30
0.0
 40
5.705091079773839
100
AcDbArc
 50
249.4824135024093
 51
338.5175864975906
  0
ARC
  5
29E
330
20
100
AcDbEntity
  8
SCHRAFF
100
AcDbCircle
 10
619.9827946590753
 20
1081.326532481444
 30
0.0
 40
5.705091079773839
100
AcDbArc
 50
249.4824135024093
 51
338.5175864975906
  0
ARC
  5
29F
330
20
100
AcDbEntity
  8
SCHRAFF
100
AcDbCircle
 10
622.0164778744544
 20
1076.758805193231
 30
0.0
 40
5.705091079773839
100
AcDbArc
 50
249.4824135024093
 51
338.5175864975906
  0
ARC
  5
2A0
330
20
100
AcDbEntity
  8
SCHRAFF
100
AcDbCircle
 10
624.0501610898331
 20
1072.191077905018
 30
0.0
 40
5.705091079773839
100
AcDbArc
 50
249.4824135024093
 51
338.5175864975906
  0
ARC
  5
2A1
330
20
100
AcDbEntity
  8
SCHRAFF
100
AcDbCircle
 10
615.9154282283175
 20
1090.46198705787
 30
0.0
 40
5.705091079773839
100
AcDbArc
 50
249.4824135024093
 51
338.5175864975906
  0
ARC
  5
2A2
330
20
100
AcDbEntity
  8
SCHRAFF
100
AcDbCircle
 10
617.9491114436964
 20
1085.894259769657
 30
0.0
 40
5.705091079773839
100
AcDbArc
 50
249.4824135024093
 51
338.5175864975906
  0
ARC
  5
2A3
330
20
100
AcDbEntity
  8
SCHRAFF
100
AcDbCircle
 10
626.0838443052125
 20
1067.623350616805
 30
0.0
 40
5.705091079773839
100
AcDbArc
 50
249.4824135024093
 51
338.5175864975906
  0
ARC
  5
2A4
330
20
100
AcDbEntity
  8
SCHRAFF
100
AcDbCircle
 10
634.2185771667281
 20
1049.352441463953
 30
0.0
 40
5.705091079773839
100
AcDbArc
 50
249.4824135024093
 51
338.5175864975906
  0
ARC
  5
2A5
330
20
100
AcDbEntity
  8
SCHRAFF
100
AcDbCircle
 10
630.1512107359704
 20
1058.48789604038
 30
0.0
 40
5.705091079773839
100
AcDbArc
 50
249.4824135024093
 51
338.5175864975906
  0
ARC
  5
2A6
330
20
100
AcDbEntity
  8
SCHRAFF
100
AcDbCircle
 10
632.1848939513495
 20
1053.920168752166
 30
0.0
 40
5.705091079773839
100
AcDbArc
 50
249.4824135024093
 51
338.5175864975906
  0
ARC
  5
2A7
330
20
100
AcDbEntity
  8
SCHRAFF
100
AcDbCircle
 10
636.2522603821073
 20
1044.78471417574
 30
0.0
 40
5.705091079773839
100
AcDbArc
 50
249.4824135024093
 51
338.5175864975906
  0
ARC
  5
2A8
330
20
100
AcDbEntity
  8
SCHRAFF
100
AcDbCircle
 10
628.1175275205915
 20
1063.055623328592
 30
0.0
 40
5.705091079773839
100
AcDbArc
 50
249.4824135024093
 51
338.5175864975906
  0
ARC
  5
2A9
330
20
100
AcDbEntity
  8
SCHRAFF
100
AcDbCircle
 10
638.2859435974863
 20
1040.216986887527
 30
0.0
 40
5.705091079773839
100
AcDbArc
 50
249.4824135024093
 51
338.5175864975906
  0
INSERT
  5
2AA
330
20
100
AcDbEntity
  8
SCHRAFF
100
AcDbBlockReference
  2
*X3
 10
-39.71013112797118
 20
65.97046363237814
 30
0.0
1001
ACAD
1000
HATCH
1002
{
1070
    19
1000
ANSI31
1040
1.0
1040
-0.7592182246175338
1000
R14_HATCH_DATA
1000
99C
1011
-38.71013112797118
1021
65.97046363237814
1031
0.0
1011
-39.71013112797118
1021
66.97046363237814
1031
0.0
1011
-39.71013112797118
1021
65.97046363237814
1031
1.0
1040
0.0
1010
0.0
1020
0.0
1030
1.0
1000
ANSI31
1070
     0
1070
     0
1071
        1
1071
        7
1070
     1
1070
     1
1071
        3
1040
649.1203726551408
1040
1049.262352074979
1040
1.125290079249607
1040
641.8120089939998
1040
1046.008458930373
1040
0.0
1040
644.7922874890662
1040
1049.149017176276
1040
0.0
1071
        0
1070
     0
1070
     1
1040
-0.7592182246175338
1040
1.0
1070
     0
1070
     1
1040
0.0261799387799144
1040
-259.2617247154105
1040
722.3623307299606
1040
-0.0032721185384841
1040
0.1249571656219447
1070
     0
1040
0.044672939755949
1071
        1
1040
645.2232993948986
1040
1050.349665670065
1040
0.0
1002
}
  0
ARC
  5
2AB
330
20
100
AcDbEntity
  8
SCHRAFF
100
AcDbCircle
 10
605.5635672446974
 20
1114.038214260724
 30
0.0
 40
4.027899657604571
100
AcDbArc
 50
17.2524090583537
 51
210.7475909416476
  0
ARC
  5
2AC
330
20
100
AcDbEntity
  8
SCHRAFF
100
AcDbCircle
 10
604.1014830170188
 20
1117.322109202636
 30
0.0
 40
5.705091079773839
100
AcDbArc
 50
249.4824135024093
 51
338.5175864975906
  0
ARC
  5
2AD
330
20
100
AcDbEntity
  8
SCHRAFF
100
AcDbCircle
 10
611.8480617975596
 20
1099.597441634296
 30
0.0
 40
5.705091079773839
100
AcDbArc
 50
249.4824135024093
 51
338.5175864975906
  0
ARC
  5
2AE
330
20
100
AcDbEntity
  8
SCHRAFF
100
AcDbCircle
 10
609.8143785821803
 20
1104.165168922509
 30
0.0
 40
5.705091079773839
100
AcDbArc
 50
249.4824135024093
 51
338.5175864975906
  0
ARC
  5
2AF
330
20
100
AcDbEntity
  8
SCHRAFF
100
AcDbCircle
 10
608.1688494477766
 20
1108.18665462621
 30
0.0
 40
5.705091079773839
100
AcDbArc
 50
249.4824135024093
 51
338.5175864975906
  0
ARC
  5
2B0
330
20
100
AcDbEntity
  8
SCHRAFF
100
AcDbCircle
 10
606.1351662323978
 20
1112.754381914423
 30
0.0
 40
5.705091079773839
100
AcDbArc
 50
249.4824135024093
 51
338.5175864975906
  0
ARC
  5
2B1
330
20
100
AcDbEntity
  8
SCHRAFF
100
AcDbCircle
 10
664.7238253974135
 20
980.8365321407583
 30
0.0
 40
5.705091079773839
100
AcDbArc
 50
249.4824135024093
 51
338.5175864975906
  0
LINE
  5
2B3
330
20
100
AcDbEntity
  8
STEMPEL
  6
CONTINUOUS
 62
     3
100
AcDbLine
 10
709.4337518624542
 20
756.9039715794961
 30
0.0
 11
747.0397117270577
 21
795.8460829984845
 31
0.0
  0
INSERT
  5
2B5
330
20
100
AcDbEntity
  8
SCHRAFF
100
AcDbBlockReference
  2
*X2
 10
-39.71013112797118
 20
65.97046363237814
 30
0.0
1001
ACAD
1000
HATCH
1002
{
1070
    19
1000
ANSI31
1040
1.0
1040
0.0
1000
R14_HATCH_DATA
1000
9C2
1011
-38.71013112797118
1021
65.97046363237814
1031
0.0
1011
-39.71013112797118
1021
66.97046363237814
1031
0.0
1011
-39.71013112797118
1021
65.97046363237814
1031
1.0
1040
0.0
1010
0.0
1020
0.0
1030
1.0
1000
ANSI31
1070
     0
1070
     1
1071
        1
1071
        7
1070
     1
1070
     1
1071
        3
1040
752.6185279654924
1040
694.5316081484596
1040
0.0
1040
749.1438829904255
1040
690.9335079471178
1040
0.0
1040
749.1438829904255
1040
685.9315600503826
1040
0.6745085168424395
1071
        3
1005
70A
1005
1E1
1005
9BE
1070
     0
1070
     1
1040
0.0
1040
1.0
1070
     0
1070
     1
1040
0.7853981633974483
1040
76.62415385159625
1040
-30.76621358594014
1040
-0.0883883476483184
1040
0.0883883476483185
1070
     0
1040
0.043884910717149
1071
        1
1040
751.5251395914404
1040
688.9053577135863
1040
0.0
1002
}
  0
ARC
  5
2B6
330
20
100
AcDbEntity
  8
SCHRAFF
100
AcDbCircle
 10
709.4337518624542
 20
756.9039715794961
 30
0.0
 40
5.001947896735118
100
AcDbArc
 50
270.0
 51
46.00000000000073
  0
ARC
  5
2B7
330
20
100
AcDbEntity
  8
SCHRAFF
100
AcDbCircle
 10
666.7575086127924
 20
976.2688048525454
 30
0.0
 40
5.705091079773839
100
AcDbArc
 50
249.4824135024093
 51
338.5175864975906
  0
ARC
  5
2B8
330
20
100
AcDbEntity
  8
SCHRAFF
100
AcDbCircle
 10
672.8585582589293
 20
962.5656229879062
 30
0.0
 40
5.705091079773839
100
AcDbArc
 50
249.4824135024093
 51
338.5175864975906
  0
ARC
  5
2B9
330
20
100
AcDbEntity
  8
SCHRAFF
100
AcDbCircle
 10
670.8248750435505
 20
967.1333502761193
 30
0.0
 40
5.705091079773839
100
AcDbArc
 50
249.4824135024093
 51
338.5175864975906
  0
ARC
  5
2BA
330
20
100
AcDbEntity
  8
SCHRAFF
100
AcDbCircle
 10
668.7911918281713
 20
971.7010775643323
 30
0.0
 40
5.705091079773839
100
AcDbArc
 50
249.4824135024093
 51
338.5175864975906
  0
LINE
  5
2BB
330
20
100
AcDbEntity
  8
BEM
100
AcDbLine
 10
675.9955503973688
 20
955.4138819161501
 30
0.0
 11
677.4342299980461
 21
954.024565175232
 31
0.0
  0
LINE
  5
2BC
330
20
100
AcDbEntity
  8
STEMPEL
100
AcDbLine
 10
676.0653493907738
 20
953.4151002621117
 30
0.0
 11
675.9955503973688
 21
955.4138819161501
 31
0.0
  0
INSERT
  5
2BD
330
20
100
AcDbEntity
  8
SCHRAFF
100
AcDbBlockReference
  2
*X1
 10
-39.71013112797118
 20
65.97046363237814
 30
0.0
1001
ACAD
1000
HATCH
1002
{
1070
    19
1000
ANSI31
1040
1.0
1040
-0.7679448708775054
1000
R14_HATCH_DATA
1000
9C4
1011
-38.71013112797118
1021
65.97046363237814
1031
0.0
1011
-39.71013112797118
1021
66.97046363237814
1031
0.0
1011
-39.71013112797118
1021
65.97046363237814
1031
1.0
1040
0.0
1010
0.0
1020
0.0
1030
1.0
1000
ANSI31
1070
     0
1070
     0
1071
        1
1071
        7
1070
     1
1070
     1
1071
        3
1040
791.7738007930255
1040
730.0761322093753
1040
0.0
1040
786.7748999478009
1040
729.9015667452471
1040
0.0
1040
783.3002549727342
1040
726.3034665439054
1040
0.6745085168424313
1071
        0
1070
     0
1070
     1
1040
-0.7679448708775054
1040
1.0
1070
     0
1070
     1
1040
0.0174532925199428
1040
-198.3300602555945
1040
677.925692298303
1040
-0.0021815508046604
1040
0.1249809618945489
1070
     0
1040
0.043884910717149
1071
        1
1040
787.0789610594592
1040
726.7884777310962
1040
0.0
1002
}
  0
ARC
  5
2BE
330
20
100
AcDbEntity
  8
SCHRAFF
100
AcDbCircle
 10
747.0647688198298
 20
795.8720303776256
 30
0.0
 40
5.001947896735118
100
AcDbArc
 50
226.0
 51
2.000000000000708
  0
ARC
  5
2BF
330
20
100
AcDbEntity
  8
SCHRAFF
100
AcDbCircle
 10
660.6564589666549
 20
989.9719867171841
 30
0.0
 40
5.705091079773839
100
AcDbArc
 50
249.4824135024093
 51
338.5175864975906
  0
ARC
  5
2C0
330
20
100
AcDbEntity
  8
SCHRAFF
100
AcDbCircle
 10
662.6901421820344
 20
985.4042594289712
 30
0.0
 40
5.705091079773839
100
AcDbArc
 50
249.4824135024093
 51
338.5175864975906
  0
ARC
  5
2C1
330
20
100
AcDbEntity
  8
SCHRAFF
100
AcDbCircle
 10
652.5217261051393
 20
1008.242895870036
 30
0.0
 40
5.705091079773839
100
AcDbArc
 50
249.4824135024093
 51
338.5175864975906
  0
ARC
  5
2C2
330
20
100
AcDbEntity
  8
SCHRAFF
100
AcDbCircle
 10
654.5554093205184
 20
1003.675168581823
 30
0.0
 40
5.705091079773839
100
AcDbArc
 50
249.4824135024093
 51
338.5175864975906
  0
ARC
  5
2C3
330
20
100
AcDbEntity
  8
SCHRAFF
100
AcDbCircle
 10
656.5890925358972
 20
999.1074412936102
 30
0.0
 40
5.705091079773839
100
AcDbArc
 50
249.4824135024093
 51
338.5175864975906
  0
ARC
  5
2C4
330
20
100
AcDbEntity
  8
SCHRAFF
100
AcDbCircle
 10
658.6227757512765
 20
994.5397140053973
 30
0.0
 40
5.705091079773839
100
AcDbArc
 50
249.4824135024093
 51
338.5175864975906
  0
ARC
  5
2C5
330
20
100
AcDbEntity
  8
SCHRAFF
100
AcDbCircle
 10
650.4880428897604
 20
1012.810623158249
 30
0.0
 40
5.705091079773839
100
AcDbArc
 50
249.4824135024093
 51
338.5175864975906
  0
ARC
  5
2C6
330
20
100
AcDbEntity
  8
SCHRAFF
100
AcDbCircle
 10
648.4543596743815
 20
1017.378350446462
 30
0.0
 40
5.705091079773839
100
AcDbArc
 50
249.4824135024093
 51
338.5175864975906
  0
LINE
  5
2C9
330
20
100
AcDbEntity
  8
STEMPEL
100
AcDbLine
 10
837.9622431423952
 20
799.0211677596457
 30
0.0
 11
826.6582961604555
 21
1122.723856631131
 31
0.0
  0
TEXT
  5
2CB
330
20
100
AcDbEntity
  8
TEXT
 62
     1
100
AcDbText
 10
731.1683306963579
 20
919.590725900462
 30
0.0
 40
17.5
  1
DN300
 50
2.0
 41
0.8
  7
GREEKS
100
AcDbText
  0
TEXT
  5
2D3
330
20
100
AcDbEntity
  8
BEM
100
AcDbText
 10
1043.255730964291
 20
25.41975269997152
 30
0.0
 40
10.0
  1
Diese Zeichnung ist urheberrechtlich geschützt und bleibt unser Eigentum. Sie darf weder ganz noch teilweise verfielfältigt und nicht an Dritte weitergegeben werden.
 50
90.0
 41
0.8
  7
GREEKS
100
AcDbText
  0
TEXT
  5
2D4
330
20
100
AcDbEntity
  8
TEXT
100
AcDbText
 10
481.7206788119809
 20
223.1090698584337
 30
0.0
 40
10.0
  1
DIN EN1123-2
 41
0.8
  7
GREEKS
 72
     1
 11
524.1968692881714
 21
223.1090698584337
 31
0.0
100
AcDbText
  0
DIMENSION
  5
3A1
102
{ACAD_XDICTIONARY
360
3AE
102
}
102
{ACAD_REACTORS
330
3B8
102
}
330
20
100
AcDbEntity
  8
BEM
100
AcDbDimension
  2
*D5
 10
334.318706512493
 20
950.9261510225426
 30
0.0
 11
318.0687065124928
 21
808.4260849380214
 31
0.0
 70
    32
 71
     5
 42
285.0001321690428
  3
Standard
100
AcDbAlignedDimension
 13
385.5337518624547
 23
665.9260188534998
 33
0.0
 14
547.4837518624546
 24
950.9261510225426
 34
0.0
 50
90.0
100
AcDbRotatedDimension
1001
ACAD
1000
DSTYLE
1002
{
1070
    40
1040
5.0
1070
    41
1040
3.5
1070
    42
1040
1.0
1070
    43
1040
7.0
1070
    44
1040
1.0
1070
    47
1040
2.0
1070
    48
1040
2.0
1070
    73
1070
     0
1070
    74
1070
     0
1070
    77
1070
     1
1070
    78
1070
     8
1070
    79
1070
     2
1070
   140
1040
3.5
1070
   141
1040
1.5
1070
   146
1040
0.5
1070
   147
1040
1.5
1070
   172
1070
     1
1070
   178
1070
     1
1070
   179
1070
     2
1070
   271
1070
     2
1070
   272
1070
     2
1070
   284
1070
     8
1070
   285
1070
     8
1070
   286
1070
     8
1070
   340
1005
37
1002
}
  0
DIMENSION
  5
3B9
102
{ACAD_XDICTIONARY
360
3C6
102
}
102
{ACAD_REACTORS
330
3D0
102
}
330
20
100
AcDbEntity
  8
BEM
100
AcDbDimension
  2
*D6
 10
490.3544661362312
 20
1134.685393130144
 30
0.0
 11
414.409295113271
 21
1079.434660118778
 31
0.0
 70
    33
 71
     5
 42
184.9999999999995
  3
Standard
100
AcDbAlignedDimension
 13
547.4837518624546
 23
822.3360188534998
 33
0.0
 14
675.9955503973688
 24
955.4138819161501
 34
0.0
1001
ACAD
1000
DSTYLE
1002
{
1070
    40
1040
5.0
1070
    41
1040
3.5
1070
    42
1040
1.0
1070
    43
1040
7.0
1070
    44
1040
1.0
1070
    47
1040
2.0
1070
    48
1040
2.0
1070
    73
1070
     0
1070
    74
1070
     0
1070
    77
1070
     1
1070
    78
1070
     8
1070
    79
1070
     2
1070
   140
1040
3.5
1070
   141
1040
1.5
1070
   146
1040
0.5
1070
   147
1040
1.5
1070
   172
1070
     1
1070
   178
1070
     1
1070
   179
1070
     2
1070
   271
1070
     2
1070
   272
1070
     2
1070
   284
1070
     8
1070
   285
1070
     8
1070
   286
1070
     8
1070
   340
1005
37
1002
}
  0
DIMENSION
  5
3D1
102
{ACAD_XDICTIONARY
360
3DE
102
}
102
{ACAD_REACTORS
330
3E8
102
}
330
20
100
AcDbEntity
  8
BEM
100
AcDbDimension
  2
*D7
 10
823.6288472277879
 20
1209.475923574665
 30
0.0
 11
680.6484715118869
 21
1220.742843927302
 31
0.0
 70
    32
 71
     5
 42
285.0001321690422
 51
358.0
  3
Standard
100
AcDbAlignedDimension
 13
547.4837518624546
 23
950.9261510225426
 33
0.0
 14
826.6582961604555
 24
1122.723856631131
 34
0.0
 50
1.999999999999921
100
AcDbRotatedDimension
1001
ACAD
1000
DSTYLE
1002
{
1070
    40
1040
5.0
1070
    41
1040
3.5
1070
    42
1040
1.0
1070
    43
1040
7.0
1070
    44
1040
1.0
1070
    47
1040
2.0
1070
    48
1040
2.0
1070
    73
1070
     0
1070
    74
1070
     0
1070
    77
1070
     1
1070
    78
1070
     8
1070
    79
1070
     2
1070
   140
1040
3.5
1070
   141
1040
1.5
1070
   146
1040
0.5
1070
   147
1040
1.5
1070
   172
1070
     1
1070
   178
1070
     1
1070
   179
1070
     2
1070
   271
1070
     2
1070
   272
1070
     2
1070
   284
1070
     8
1070
   285
1070
     8
1070
   286
1070
     8
1070
   340
1005
37
1002
}
  0
DIMENSION
  5
3E9
102
{ACAD_XDICTIONARY
360
3F7
102
}
102
{ACAD_REACTORS
330
402
102
}
330
20
100
AcDbEntity
  8
BEM
100
AcDbDimension
  2
*D8
 10
547.4837518624546
 20
655.9260188534996
 30
0.0
 11
712.7511335199943
 21
1078.321422839777
 31
0.0
 70
   162
 71
     5
 42
1.535889741755012
  3
Standard
100
AcDb2LineAngularDimension
 13
547.4837518624546
 23
950.9261510225426
 33
0.0
 14
842.3041779216166
 24
961.2215071624131
 34
0.0
 15
547.4837518624546
 25
950.9261510225426
 35
0.0
 16
649.7086799622795
 26
1132.84076504877
 36
0.0
1001
ACAD
1000
DSTYLE
1002
{
1070
    40
1040
5.0
1070
    41
1040
3.5
1070
    42
1040
1.0
1070
    43
1040
7.0
1070
    44
1040
1.0
1070
    47
1040
2.0
1070
    48
1040
2.0
1070
    73
1070
     0
1070
    74
1070
     0
1070
    77
1070
     1
1070
    78
1070
     8
1070
    79
1070
     2
1070
   140
1040
3.5
1070
   141
1040
1.5
1070
   146
1040
0.5
1070
   147
1040
1.5
1070
   172
1070
     1
1070
   178
1070
     1
1070
   179
1070
     2
1070
   271
1070
     2
1070
   272
1070
     2
1070
   284
1070
     8
1070
   285
1070
     8
1070
   286
1070
     8
1070
   340
1005
37
1002
}
  0
ARC
  5
45A
330
20
100
AcDbEntity
  8
SCHRAFF
100
AcDbCircle
 10
709.4648561357514
 20
880.3465318000725
 30
0.0
 40
5.705091079773839
100
AcDbArc
 50
249.4824135024093
 51
338.5175864975906
  0
ARC
  5
45B
330
20
100
AcDbEntity
  8
SCHRAFF
100
AcDbCircle
 10
711.4985393511304
 20
875.7788045118594
 30
0.0
 40
5.705091079773839
100
AcDbArc
 50
249.4824135024093
 51
338.5175864975906
  0
ARC
  5
45C
330
20
100
AcDbEntity
  8
SCHRAFF
100
AcDbCircle
 10
719.6332722126465
 20
857.5078953590073
 30
0.0
 40
5.705091079773839
100
AcDbArc
 50
249.4824135024093
 51
338.5175864975906
  0
ARC
  5
45D
330
20
100
AcDbEntity
  8
SCHRAFF
100
AcDbCircle
 10
717.5995889972671
 20
862.0756226472202
 30
0.0
 40
5.705091079773839
100
AcDbArc
 50
249.4824135024093
 51
338.5175864975906
  0
ARC
  5
45E
330
20
100
AcDbEntity
  8
SCHRAFF
100
AcDbCircle
 10
715.5659057818884
 20
866.6433499354333
 30
0.0
 40
5.705091079773839
100
AcDbArc
 50
249.4824135024093
 51
338.5175864975906
  0
ARC
  5
45F
330
20
100
AcDbEntity
  8
SCHRAFF
100
AcDbCircle
 10
713.5322225665093
 20
871.2110772236464
 30
0.0
 40
5.705091079773839
100
AcDbArc
 50
249.4824135024093
 51
338.5175864975906
  0
ARC
  5
460
330
20
100
AcDbEntity
  8
SCHRAFF
100
AcDbCircle
 10
723.7006386434043
 20
848.3724407825812
 30
0.0
 40
5.705091079773839
100
AcDbArc
 50
249.4824135024093
 51
338.5175864975906
  0
ARC
  5
461
330
20
100
AcDbEntity
  8
SCHRAFF
100
AcDbCircle
 10
721.6669554280249
 20
852.9401680707941
 30
0.0
 40
5.705091079773839
100
AcDbArc
 50
249.4824135024093
 51
338.5175864975906
  0
ARC
  5
464
330
20
100
AcDbEntity
  8
SCHRAFF
100
AcDbCircle
 10
729.8016882895413
 20
834.6692589179422
 30
0.0
 40
5.705091079773839
100
AcDbArc
 50
249.4824135024093
 51
338.5175864975906
  0
ARC
  5
465
330
20
100
AcDbEntity
  8
SCHRAFF
100
AcDbCircle
 10
731.8353715049204
 20
830.1015316297293
 30
0.0
 40
5.705091079773839
100
AcDbArc
 50
249.4824135024093
 51
338.5175864975906
  0
ARC
  5
466
330
20
100
AcDbEntity
  8
SCHRAFF
100
AcDbCircle
 10
733.8690547202993
 20
825.5338043415163
 30
0.0
 40
5.705091079773839
100
AcDbArc
 50
249.4824135024093
 51
338.5175864975906
  0
ARC
  5
467
330
20
100
AcDbEntity
  8
SCHRAFF
100
AcDbCircle
 10
727.7680050741623
 20
839.2369862061553
 30
0.0
 40
5.705091079773839
100
AcDbArc
 50
249.4824135024093
 51
338.5175864975906
  0
ARC
  5
468
330
20
100
AcDbEntity
  8
SCHRAFF
100
AcDbCircle
 10
725.7343218587834
 20
843.8047134943683
 30
0.0
 40
5.705091079773839
100
AcDbArc
 50
249.4824135024093
 51
338.5175864975906
  0
ARC
  5
469
330
20
100
AcDbEntity
  8
SCHRAFF
100
AcDbCircle
 10
699.2964400588562
 20
903.1851682411373
 30
0.0
 40
5.705091079773839
100
AcDbArc
 50
249.4824135024093
 51
338.5175864975906
  0
ARC
  5
46A
330
20
100
AcDbEntity
  8
SCHRAFF
100
AcDbCircle
 10
689.1280239819614
 20
926.0238046822024
 30
0.0
 40
5.705091079773839
100
AcDbArc
 50
249.4824135024093
 51
338.5175864975906
  0
ARC
  5
46B
330
20
100
AcDbEntity
  8
SCHRAFF
100
AcDbCircle
 10
697.2627568434773
 20
907.7528955293503
 30
0.0
 40
5.705091079773839
100
AcDbArc
 50
249.4824135024093
 51
338.5175864975906
  0
ARC
  5
46C
330
20
100
AcDbEntity
  8
SCHRAFF
100
AcDbCircle
 10
693.1953904127194
 20
916.8883501057765
 30
0.0
 40
5.705091079773839
100
AcDbArc
 50
249.4824135024093
 51
338.5175864975906
  0
ARC
  5
46D
330
20
100
AcDbEntity
  8
SCHRAFF
100
AcDbCircle
 10
691.1617071973402
 20
921.4560773939895
 30
0.0
 40
5.705091079773839
100
AcDbArc
 50
249.4824135024093
 51
338.5175864975906
  0
ARC
  5
46E
330
20
100
AcDbEntity
  8
SCHRAFF
100
AcDbCircle
 10
695.2290736280981
 20
912.3206228175634
 30
0.0
 40
5.705091079773839
100
AcDbArc
 50
249.4824135024093
 51
338.5175864975906
  0
ARC
  5
46F
330
20
100
AcDbEntity
  8
SCHRAFF
100
AcDbCircle
 10
687.0943407665825
 20
930.5915319704153
 30
0.0
 40
5.705091079773839
100
AcDbArc
 50
249.4824135024093
 51
338.5175864975906
  0
ARC
  5
470
330
20
100
AcDbEntity
  8
SCHRAFF
100
AcDbCircle
 10
678.9596079050664
 20
948.8624411232674
 30
0.0
 40
5.705091079773839
100
AcDbArc
 50
249.4824135024093
 51
338.5175864975906
  0
ARC
  5
471
330
20
100
AcDbEntity
  8
SCHRAFF
100
AcDbCircle
 10
676.9259246896874
 20
953.4301684114804
 30
0.0
 40
5.705091079773839
100
AcDbArc
 50
249.4824135024093
 51
338.5175864975906
  0
ARC
  5
472
330
20
100
AcDbEntity
  8
SCHRAFF
100
AcDbCircle
 10
685.0606575512031
 20
935.1592592586284
 30
0.0
 40
5.705091079773839
100
AcDbArc
 50
249.4824135024093
 51
338.5175864975906
  0
ARC
  5
473
330
20
100
AcDbEntity
  8
SCHRAFF
100
AcDbCircle
 10
683.0269743358244
 20
939.7269865468414
 30
0.0
 40
5.705091079773839
100
AcDbArc
 50
249.4824135024093
 51
338.5175864975906
  0
ARC
  5
474
330
20
100
AcDbEntity
  8
SCHRAFF
100
AcDbCircle
 10
680.9932911204453
 20
944.2947138350543
 30
0.0
 40
5.705091079773839
100
AcDbArc
 50
249.4824135024093
 51
338.5175864975906
  0
ARC
  5
475
330
20
100
AcDbEntity
  8
SCHRAFF
100
AcDbCircle
 10
674.8922414743083
 20
957.9978956996935
 30
0.0
 40
5.705091079773839
100
AcDbArc
 50
249.4824135024093
 51
338.5175864975906
  0
ARC
  5
476
330
20
100
AcDbEntity
  8
SCHRAFF
100
AcDbCircle
 10
705.3974897049936
 20
889.4819863764984
 30
0.0
 40
5.705091079773839
100
AcDbArc
 50
249.4824135024093
 51
338.5175864975906
  0
ARC
  5
477
330
20
100
AcDbEntity
  8
SCHRAFF
100
AcDbCircle
 10
701.3301232742353
 20
898.6174409529246
 30
0.0
 40
5.705091079773839
100
AcDbArc
 50
249.4824135024093
 51
338.5175864975906
  0
ARC
  5
478
330
20
100
AcDbEntity
  8
SCHRAFF
100
AcDbCircle
 10
703.3638064896145
 20
894.0497136647117
 30
0.0
 40
5.705091079773839
100
AcDbArc
 50
249.4824135024093
 51
338.5175864975906
  0
ARC
  5
479
330
20
100
AcDbEntity
  8
SCHRAFF
100
AcDbCircle
 10
707.4311729203725
 20
884.9142590882856
 30
0.0
 40
5.705091079773839
100
AcDbArc
 50
249.4824135024093
 51
338.5175864975906
  0
ARC
  5
47A
330
20
100
AcDbEntity
  8
SCHRAFF
100
AcDbCircle
 10
742.0037875818155
 20
807.2628951886642
 30
0.0
 40
5.705091079773839
100
AcDbArc
 50
249.4824135024093
 51
338.5175864975906
  0
ARC
  5
47B
330
20
100
AcDbEntity
  8
SCHRAFF
100
AcDbCircle
 10
744.0374707971945
 20
802.6951679004513
 30
0.0
 40
5.705091079773839
100
AcDbArc
 50
249.4824135024093
 51
338.5175864975906
  0
ARC
  5
47F
330
20
100
AcDbEntity
  8
SCHRAFF
100
AcDbCircle
 10
737.936421151057
 20
816.39834976509
 30
0.0
 40
5.705091079773839
100
AcDbArc
 50
249.4824135024093
 51
338.5175864975906
  0
ARC
  5
480
330
20
100
AcDbEntity
  8
SCHRAFF
100
AcDbCircle
 10
739.9701043664364
 20
811.8306224768772
 30
0.0
 40
5.705091079773839
100
AcDbArc
 50
249.4824135024093
 51
338.5175864975906
  0
ARC
  5
481
330
20
100
AcDbEntity
  8
SCHRAFF
100
AcDbCircle
 10
735.9027379356786
 20
820.9660770533034
 30
0.0
 40
5.705091079773839
100
AcDbArc
 50
249.4824135024093
 51
338.5175864975906
  0
ARC
  5
482
330
20
100
AcDbEntity
  8
SCHRAFF
100
AcDbCircle
 10
684.0282817449151
 20
767.3604018891863
 30
0.0
 40
5.705091079773839
100
AcDbArc
 50
293.4824135024093
 51
22.51758649759065
  0
ARC
  5
483
330
20
100
AcDbEntity
  8
SCHRAFF
100
AcDbCircle
 10
670.1205239264131
 20
772.9795007904249
 30
0.0
 40
5.705091079773839
100
AcDbArc
 50
293.4824135024093
 51
22.51758649759065
  0
ARC
  5
484
330
20
100
AcDbEntity
  8
SCHRAFF
100
AcDbCircle
 10
665.4846046535793
 20
774.8525337575045
 30
0.0
 40
5.705091079773839
100
AcDbArc
 50
293.4824135024093
 51
22.51758649759065
  0
ARC
  5
485
330
20
100
AcDbEntity
  8
SCHRAFF
100
AcDbCircle
 10
674.7564431992469
 20
771.1064678233453
 30
0.0
 40
5.705091079773839
100
AcDbArc
 50
293.4824135024093
 51
22.51758649759065
  0
ARC
  5
486
330
20
100
AcDbEntity
  8
SCHRAFF
100
AcDbCircle
 10
679.392362472081
 20
769.2334348562658
 30
0.0
 40
5.705091079773839
100
AcDbArc
 50
293.4824135024093
 51
22.51758649759065
  0
ARC
  5
487
330
20
100
AcDbEntity
  8
SCHRAFF
100
AcDbCircle
 10
656.2127661079111
 20
778.5985996916634
 30
0.0
 40
5.705091079773839
100
AcDbArc
 50
293.4824135024093
 51
22.51758649759065
  0
ARC
  5
488
330
20
100
AcDbEntity
  8
SCHRAFF
100
AcDbCircle
 10
646.9409275622433
 20
782.3446656258226
 30
0.0
 40
5.705091079773839
100
AcDbArc
 50
293.4824135024093
 51
22.51758649759065
  0
ARC
  5
489
330
20
100
AcDbEntity
  8
SCHRAFF
100
AcDbCircle
 10
651.5768468350775
 20
780.4716326587432
 30
0.0
 40
5.705091079773839
100
AcDbArc
 50
293.4824135024093
 51
22.51758649759065
  0
ARC
  5
48A
330
20
100
AcDbEntity
  8
SCHRAFF
100
AcDbCircle
 10
633.0331697437416
 20
787.9637645270616
 30
0.0
 40
5.705091079773839
100
AcDbArc
 50
293.4824135024093
 51
22.51758649759065
  0
ARC
  5
48B
330
20
100
AcDbEntity
  8
SCHRAFF
100
AcDbCircle
 10
637.6690890165755
 20
786.0907315599818
 30
0.0
 40
5.705091079773839
100
AcDbArc
 50
293.4824135024093
 51
22.51758649759065
  0
ARC
  5
48C
330
20
100
AcDbEntity
  8
SCHRAFF
100
AcDbCircle
 10
623.7613311980737
 20
791.7098304612208
 30
0.0
 40
5.705091079773839
100
AcDbArc
 50
293.4824135024093
 51
22.51758649759065
  0
ARC
  5
48D
330
20
100
AcDbEntity
  8
SCHRAFF
100
AcDbCircle
 10
628.3972504709076
 20
789.836797494141
 30
0.0
 40
5.705091079773839
100
AcDbArc
 50
293.4824135024093
 51
22.51758649759065
  0
ARC
  5
48E
330
20
100
AcDbEntity
  8
SCHRAFF
100
AcDbCircle
 10
642.3050082894096
 20
784.2176985929024
 30
0.0
 40
5.705091079773839
100
AcDbArc
 50
293.4824135024093
 51
22.51758649759065
  0
ARC
  5
48F
330
20
100
AcDbEntity
  8
SCHRAFF
100
AcDbCircle
 10
660.8486853807453
 20
776.7255667245842
 30
0.0
 40
5.705091079773839
100
AcDbArc
 50
293.4824135024093
 51
22.51758649759065
  0
ARC
  5
490
330
20
100
AcDbEntity
  8
SCHRAFF
100
AcDbCircle
 10
582.0380577425683
 20
808.5671271649367
 30
0.0
 40
5.705091079773839
100
AcDbArc
 50
293.4824135024093
 51
22.51758649759065
  0
ARC
  5
491
330
20
100
AcDbEntity
  8
SCHRAFF
100
AcDbCircle
 10
586.6739770154022
 20
806.694094197857
 30
0.0
 40
5.705091079773839
100
AcDbArc
 50
293.4824135024093
 51
22.51758649759065
  0
ARC
  5
492
330
20
100
AcDbEntity
  8
SCHRAFF
100
AcDbCircle
 10
572.7662191969002
 20
812.3131930990957
 30
0.0
 40
5.705091079773839
100
AcDbArc
 50
293.4824135024093
 51
22.51758649759065
  0
ARC
  5
493
330
20
100
AcDbEntity
  8
SCHRAFF
100
AcDbCircle
 10
563.4943806512324
 20
816.059259033255
 30
0.0
 40
5.705091079773839
100
AcDbArc
 50
293.4824135024093
 51
22.51758649759065
  0
ARC
  5
494
330
20
100
AcDbEntity
  8
SCHRAFF
100
AcDbCircle
 10
568.1302999240665
 20
814.1862260661755
 30
0.0
 40
5.705091079773839
100
AcDbArc
 50
293.4824135024093
 51
22.51758649759065
  0
ARC
  5
495
330
20
100
AcDbEntity
  8
SCHRAFF
100
AcDbCircle
 10
554.2225421055645
 20
819.8053249674142
 30
0.0
 40
5.705091079773839
100
AcDbArc
 50
293.4824135024093
 51
22.51758649759065
  0
ARC
  5
496
330
20
100
AcDbEntity
  8
SCHRAFF
100
AcDbCircle
 10
544.9507035598967
 20
823.5513909015732
 30
0.0
 40
5.705091079773839
100
AcDbArc
 50
293.4824135024093
 51
22.51758649759065
  0
ARC
  5
497
330
20
100
AcDbEntity
  8
SCHRAFF
100
AcDbCircle
 10
549.5866228327308
 20
821.6783579344935
 30
0.0
 40
5.705091079773839
100
AcDbArc
 50
293.4824135024093
 51
22.51758649759065
  0
ARC
  5
498
330
20
100
AcDbEntity
  8
SCHRAFF
100
AcDbCircle
 10
558.8584613783987
 20
817.9322920003343
 30
0.0
 40
5.705091079773839
100
AcDbArc
 50
293.4824135024093
 51
22.51758649759065
  0
ARC
  5
499
330
20
100
AcDbEntity
  8
SCHRAFF
100
AcDbCircle
 10
577.4021384697343
 20
810.4401601320162
 30
0.0
 40
5.705091079773839
100
AcDbArc
 50
293.4824135024093
 51
22.51758649759065
  0
ARC
  5
49A
330
20
100
AcDbEntity
  8
SCHRAFF
100
AcDbCircle
 10
614.4894926524057
 20
795.4558963953799
 30
0.0
 40
5.705091079773839
100
AcDbArc
 50
293.4824135024093
 51
22.51758649759065
  0
ARC
  5
49B
330
20
100
AcDbEntity
  8
SCHRAFF
100
AcDbCircle
 10
609.853573379572
 20
797.3289293624592
 30
0.0
 40
5.705091079773839
100
AcDbArc
 50
293.4824135024093
 51
22.51758649759065
  0
ARC
  5
49C
330
20
100
AcDbEntity
  8
SCHRAFF
100
AcDbCircle
 10
595.94581556107
 20
802.9480282636978
 30
0.0
 40
5.705091079773839
100
AcDbArc
 50
293.4824135024093
 51
22.51758649759065
  0
ARC
  5
49D
330
20
100
AcDbEntity
  8
SCHRAFF
100
AcDbCircle
 10
591.3098962882363
 20
804.8210612307775
 30
0.0
 40
5.705091079773839
100
AcDbArc
 50
293.4824135024093
 51
22.51758649759065
  0
ARC
  5
49E
330
20
100
AcDbEntity
  8
SCHRAFF
100
AcDbCircle
 10
600.5817348339042
 20
801.0749952966182
 30
0.0
 40
5.705091079773839
100
AcDbArc
 50
293.4824135024093
 51
22.51758649759065
  0
ARC
  5
49F
330
20
100
AcDbEntity
  8
SCHRAFF
100
AcDbCircle
 10
605.2176541067378
 20
799.2019623295387
 30
0.0
 40
5.705091079773839
100
AcDbArc
 50
293.4824135024093
 51
22.51758649759065
  0
ARC
  5
4A0
330
20
100
AcDbEntity
  8
SCHRAFF
100
AcDbCircle
 10
619.1254119252398
 20
793.5828634283001
 30
0.0
 40
5.705091079773839
100
AcDbArc
 50
293.4824135024093
 51
22.51758649759065
  0
ARC
  5
4A1
330
20
100
AcDbEntity
  8
SCHRAFF
100
AcDbCircle
 10
688.6642010177491
 20
765.4873689221066
 30
0.0
 40
5.705091079773839
100
AcDbArc
 50
293.4824135024093
 51
22.51758649759065
  0
ARC
  5
4A3
330
20
100
AcDbEntity
  8
SCHRAFF
100
AcDbCircle
 10
702.5719588362506
 20
759.8682700208678
 30
0.0
 40
5.705091079773839
100
AcDbArc
 50
293.4824135024093
 51
22.51758649759065
  0
ARC
  5
4A4
330
20
100
AcDbEntity
  8
SCHRAFF
100
AcDbCircle
 10
693.300120290583
 20
763.6143359550269
 30
0.0
 40
5.705091079773839
100
AcDbArc
 50
293.4824135024093
 51
22.51758649759065
  0
ARC
  5
4A5
330
20
100
AcDbEntity
  8
SCHRAFF
100
AcDbCircle
 10
697.936039563417
 20
761.7413029879473
 30
0.0
 40
5.705091079773839
100
AcDbArc
 50
293.4824135024093
 51
22.51758649759065
  0
ENDSEC
  0
SECTION
  2
OBJECTS
  0
DICTIONARY
  5
C
330
0
100
AcDbDictionary
281
     1
  3
ACAD_COLOR
350
1B
  3
ACAD_GROUP
350
D
  3
ACAD_LAYOUT
350
19
  3
ACAD_MATERIAL
350
1A
  3
ACAD_MLINESTYLE
350
16
  3
ACAD_PLOTSETTINGS
350
18
  3
ACAD_PLOTSTYLENAME
350
E
  3
AcDbVariableDictionary
350
2EA
  0
DICTIONARY
  5
3AE
330
3A1
100
AcDbDictionary
280
     1
281
     1
  3
ACAD_DIMASSOC
360
3B8
  0
DICTIONARY
  5
3C6
330
3B9
100
AcDbDictionary
280
     1
281
     1
  3
ACAD_DIMASSOC
360
3D0
  0
DICTIONARY
  5
3DE
330
3D1
100
AcDbDictionary
280
     1
281
     1
  3
ACAD_DIMASSOC
360
3E8
  0
DICTIONARY
  5
3F7
330
3E9
100
AcDbDictionary
280
     1
281
     1
  3
ACAD_DIMASSOC
360
402
  0
DICTIONARY
  5
1B
102
{ACAD_REACTORS
330
C
102
}
330
C
100
AcDbDictionary
281
     1
  0
DICTIONARY
  5
D
102
{ACAD_REACTORS
330
C
102
}
330
C
100
AcDbDictionary
281
     1
  0
DICTIONARY
  5
19
102
{ACAD_REACTORS
330
C
102
}
330
C
100
AcDbDictionary
281
     1
  3
Layout1
350
1F
  3
Model
350
23
  0
DICTIONARY
  5
1A
102
{ACAD_REACTORS
330
C
102
}
330
C
100
AcDbDictionary
281
     1
  0
DICTIONARY
  5
16
102
{ACAD_REACTORS
330
C
102
}
330
C
100
AcDbDictionary
281
     1
  3
Standard
350
17
  0
DICTIONARY
  5
18
102
{ACAD_REACTORS
330
C
102
}
330
C
100
AcDbDictionary
281
     1
  0
ACDBDICTIONARYWDFLT
  5
E
102
{ACAD_REACTORS
330
C
102
}
330
C
100
AcDbDictionary
281
     1
  3
Normal
350
F
100
AcDbDictionaryWithDefault
340
F
  0
DICTIONARY
  5
2EA
102
{ACAD_REACTORS
330
C
102
}
330
C
100
AcDbDictionary
281
     1
  3
DIMASSOC
350
2EC
  3
HIDETEXT
350
2EB
  3
PROJECTNAME
350
2ED
  0
DIMASSOC
  5
3B8
102
{ACAD_REACTORS
330
3AE
102
}
330
3AE
100
AcDbDimAssoc
330
3A1
 90
        3
 70
     0
 71
     0
  1
AcDbOsnapPointRef
 72
     1
331
206
 73
     2
 91
        0
 40
1.0
 10
0.0
 20
0.0
 30
2.000000000000000E+50
 75
     0
  1
AcDbOsnapPointRef
 72
    13
331
27D
 73
     2
 91
        0
 40
0.0
 10
0.0
 20
0.0
 30
2.000000000000000E+50
 75
     0
  0
DIMASSOC
  5
3D0
102
{ACAD_REACTORS
330
3C6
102
}
330
3C6
100
AcDbDimAssoc
330
3B9
 90
        3
 70
     0
 71
     0
  1
AcDbOsnapPointRef
 72
    13
331
288
 73
     2
 91
        0
 40
0.0
 10
0.0
 20
0.0
 30
2.000000000000000E+50
 75
     0
  1
AcDbOsnapPointRef
 72
     1
331
288
 73
     2
 91
        0
 40
1.0
 10
0.0
 20
0.0
 30
2.000000000000000E+50
 75
     0
  0
DIMASSOC
  5
3E8
102
{ACAD_REACTORS
330
3DE
102
}
330
3DE
100
AcDbDimAssoc
330
3D1
 90
        3
 70
     0
 71
     0
  1
AcDbOsnapPointRef
 72
    13
331
27D
 73
     2
 91
        0
 40
0.0
 10
0.0
 20
0.0
 30
2.000000000000000E+50
 75
     0
  1
AcDbOsnapPointRef
 72
     1
331
27E
 73
     2
 91
        0
 40
1.0
 10
0.0
 20
0.0
 30
2.000000000000000E+50
 75
     0
  0
DIMASSOC
  5
402
102
{ACAD_REACTORS
330
3F7
102
}
330
3F7
100
AcDbDimAssoc
330
3E9
 90
       15
 70
     0
 71
     0
  1
AcDbOsnapPointRef
 72
    13
331
27D
 73
     2
 91
        0
 40
0.0
 10
0.0
 20
0.0
 30
2.000000000000000E+50
 75
     0
  1
AcDbOsnapPointRef
 72
     1
331
27D
 73
     2
 91
        0
 40
1.0
 10
0.0
 20
0.0
 30
2.000000000000000E+50
 75
     0
  1
AcDbOsnapPointRef
 72
    13
331
25F
 73
     2
 91
        0
 40
0.0
 10
0.0
 20
0.0
 30
2.000000000000000E+50
 75
     0
  1
AcDbOsnapPointRef
 72
     1
331
25F
 73
     2
 91
        0
 40
1.0
 10
0.0
 20
0.0
 30
2.000000000000000E+50
 75
     0
  0
LAYOUT
  5
1F
102
{ACAD_REACTORS
330
19
102
}
330
19
100
AcDbPlotSettings
  1

  2
RICOH Aficio 2027 PCL 6
  4

  6

 40
0.0
 41
0.0
 42
0.0
 43
0.0
 44
0.0
 45
0.0
 46
0.0
 47
0.0
 48
0.0
 49
0.0
140
0.0
141
0.0
142
1.0
143
1.0
 70
   688
 72
     0
 73
     0
 74
     5
  7
monochrome1.ctb
 75
    16
147
1.0
 76
     0
 77
     2
 78
   300
148
0.0
149
0.0
100
AcDbLayout
  1
Layout1
 70
     0
 71
     1
 10
0.0
 20
0.0
 11
12.0
 21
9.0
 12
0.0
 22
0.0
 32
0.0
 14
1.000000000000000E+20
 24
1.000000000000000E+20
 34
1.000000000000000E+20
 15
-1.000000000000000E+20
 25
-1.000000000000000E+20
 35
-1.000000000000000E+20
146
0.0
 13
0.0
 23
0.0
 33
0.0
 16
1.0
 26
0.0
 36
0.0
 17
0.0
 27
1.0
 37
0.0
 76
     0
330
1C
  0
LAYOUT
  5
23
102
{ACAD_REACTORS
330
19
102
}
330
19
100
AcDbPlotSettings
  1

  2
RICOH Aficio 2027 PCL 6
  4
A4
  6

 40
5.027083396911621
 41
5.027085304260253
 42
5.027084350585937
 43
5.027069091796875
 44
209.9733276367187
 45
296.9259948730469
 46
0.0
 47
0.0
 48
0.0
 49
0.0
140
0.0
141
0.0
142
1.0
143
1.0
 70
 11952
 72
     0
 73
     1
 74
     0
  7
monochrome1.ctb
 75
     0
147
1.0
 76
     0
 77
     2
 78
   300
148
5749.737974108374
149
225.2379483828901
100
AcDbLayout
  1
Model
 70
     1
 71
     0
 10
0.0
 20
0.0
 11
12.0
 21
9.0
 12
0.0
 22
0.0
 32
0.0
 14
0.0
 24
0.0
 34
0.0
 15
0.0
 25
0.0
 35
0.0
146
0.0
 13
0.0
 23
0.0
 33
0.0
 16
1.0
 26
0.0
 36
0.0
 17
0.0
 27
1.0
 37
0.0
 76
     0
330
20
  0
MLINESTYLE
  5
17
102
{ACAD_REACTORS
330
16
102
}
330
16
100
AcDbMlineStyle
  2
STANDARD
 70
     0
  3

 62
   256
 51
90.0
 52
90.0
 71
     2
 49
0.5
 62
   256
  6
BYLAYER
 49
-0.5
 62
   256
  6
BYLAYER
  0
ACDBPLACEHOLDER
  5
F
102
{ACAD_REACTORS
330
E
102
}
330
E
  0
DICTIONARYVAR
  5
2EC
102
{ACAD_REACTORS
330
2EA
102
}
330
2EA
100
DictionaryVariables
280
     0
  1
2
  0
DICTIONARYVAR
  5
2EB
102
{ACAD_REACTORS
330
2EA
102
}
330
2EA
100
DictionaryVariables
280
     0
  1
1
  0
DICTIONARYVAR
  5
2ED
102
{ACAD_REACTORS
330
2EA
102
}
330
2EA
100
DictionaryVariables
280
     0
  1

  0
ENDSEC
  0
EOF
