  0
SECTION
  2
HEADER
  9
$ACADVER
  1
AC1018
  9
$ACADMAINTVER
 70
     2
  9
$DWGCODEPAGE
  3
ANSI_1252
  9
$INSBASE
 10
0.0
 20
0.0
 30
0.0
  9
$EXTMIN
 10
-0.0160104821884488
 20
-0.022643396237072
 30
-0.0000000000112498
  9
$EXTMAX
 10
1050.016025151412
 20
1485.022664142714
 30
0.0000000000002956
  9
$LIMMIN
 10
0.0
 20
0.0
  9
$LIMMAX
 10
1050.0
 20
1485.0
  9
$ORTHOMODE
 70
     1
  9
$REGENMODE
 70
     1
  9
$FILLMODE
 70
     1
  9
$QTEXTMODE
 70
     0
  9
$MIRRTEXT
 70
     1
  9
$LTSCALE
 40
50.0
  9
$ATTMODE
 70
     1
  9
$TEXTSIZE
 40
2.5
  9
$TRACEWID
 40
0.5
  9
$TEXTSTYLE
  7
GREEKS
  9
$CLAYER
  8
BEM
  9
$CELTYPE
  6
ByLayer
  9
$CECOLOR
 62
   256
  9
$CELTSCALE
 40
1.0
  9
$DISPSILH
 70
     0
  9
$DIMSCALE
 40
5.0
  9
$DIMASZ
 40
3.5
  9
$DIMEXO
 40
1.0
  9
$DIMDLI
 40
7.0
  9
$DIMRND
 40
0.0
  9
$DIMDLE
 40
0.0
  9
$DIMEXE
 40
1.0
  9
$DIMTP
 40
5.0
  9
$DIMTM
 40
5.0
  9
$DIMTXT
 40
3.5
  9
$DIMCEN
 40
1.5
  9
$DIMTSZ
 40
0.0
  9
$DIMTOL
 70
     0
  9
$DIMLIM
 70
     0
  9
$DIMTIH
 70
     0
  9
$DIMTOH
 70
     0
  9
$DIMSE1
 70
     0
  9
$DIMSE2
 70
     0
  9
$DIMTAD
 70
     1
  9
$DIMZIN
 70
     8
  9
$DIMBLK
  1

  9
$DIMASO
 70
     1
  9
$DIMSHO
 70
     0
  9
$DIMPOST
  1

  9
$DIMAPOST
  1

  9
$DIMALT
 70
     0
  9
$DIMALTD
 70
     2
  9
$DIMALTF
 40
25.4
  9
$DIMLFAC
 40
1.0
  9
$DIMTOFL
 70
     1
  9
$DIMTVP
 40
0.0
  9
$DIMTIX
 70
     0
  9
$DIMSOXD
 70
     0
  9
$DIMSAH
 70
     0
  9
$DIMBLK1
  1

  9
$DIMBLK2
  1

  9
$DIMSTYLE
  2
Standard
  9
$DIMCLRD
 70
     0
  9
$DIMCLRE
 70
     0
  9
$DIMCLRT
 70
     1
  9
$DIMTFAC
 40
0.5
  9
$DIMGAP
 40
1.5
  9
$DIMJUST
 70
     0
  9
$DIMSD1
 70
     0
  9
$DIMSD2
 70
     0
  9
$DIMTOLJ
 70
     1
  9
$DIMTZIN
 70
     8
  9
$DIMALTZ
 70
     8
  9
$DIMALTTZ
 70
     8
  9
$DIMUPT
 70
     0
  9
$DIMDEC
 70
     2
  9
$DIMTDEC
 70
     2
  9
$DIMALTU
 70
     2
  9
$DIMALTTD
 70
     2
  9
$DIMTXSTY
  7
GREEKS
  9
$DIMAUNIT
 70
     0
  9
$DIMADEC
 70
     2
  9
$DIMALTRND
 40
0.0
  9
$DIMAZIN
 70
     2
  9
$DIMDSEP
 70
    46
  9
$DIMATFIT
 70
     3
  9
$DIMFRAC
 70
     0
  9
$DIMLDRBLK
  1

  9
$DIMLUNIT
 70
     2
  9
$DIMLWD
 70
    -2
  9
$DIMLWE
 70
    -2
  9
$DIMTMOVE
 70
     0
  9
$LUNITS
 70
     2
  9
$LUPREC
 70
     2
  9
$SKETCHINC
 40
1.0
  9
$FILLETRAD
 40
0.0
  9
$AUNITS
 70
     0
  9
$AUPREC
 70
     0
  9
$MENU
  1
ACAD
  9
$ELEVATION
 40
0.0
  9
$PELEVATION
 40
0.0
  9
$THICKNESS
 40
0.0
  9
$LIMCHECK
 70
     0
  9
$CHAMFERA
 40
0.0
  9
$CHAMFERB
 40
0.0
  9
$CHAMFERC
 40
0.0
  9
$CHAMFERD
 40
0.0
  9
$SKPOLY
 70
     0
  9
$TDCREATE
 40
2452066.403163195
  9
$TDUCREATE
 40
2452066.319829861
  9
$TDUPDATE
 40
2455657.586258229
  9
$TDUUPDATE
 40
2455657.502924896
  9
$TDINDWG
 40
0.1010238310
  9
$TDUSRTIMER
 40
0.1010238310
  9
$USRTIMER
 70
     1
  9
$ANGBASE
 50
0.0
  9
$ANGDIR
 70
     0
  9
$PDMODE
 70
     0
  9
$PDSIZE
 40
0.0
  9
$PLINEWID
 40
0.0
  9
$SPLFRAME
 70
     0
  9
$SPLINETYPE
 70
     6
  9
$SPLINESEGS
 70
     8
  9
$HANDSEED
  5
3C5
  9
$SURFTAB1
 70
     6
  9
$SURFTAB2
 70
     6
  9
$SURFTYPE
 70
     6
  9
$SURFU
 70
     6
  9
$SURFV
 70
     6
  9
$UCSBASE
  2

  9
$UCSNAME
  2

  9
$UCSORG
 10
0.0
 20
0.0
 30
0.0
  9
$UCSXDIR
 10
1.0
 20
0.0
 30
0.0
  9
$UCSYDIR
 10
0.0
 20
1.0
 30
0.0
  9
$UCSORTHOREF
  2

  9
$UCSORTHOVIEW
 70
     0
  9
$UCSORGTOP
 10
0.0
 20
0.0
 30
0.0
  9
$UCSORGBOTTOM
 10
0.0
 20
0.0
 30
0.0
  9
$UCSORGLEFT
 10
0.0
 20
0.0
 30
0.0
  9
$UCSORGRIGHT
 10
0.0
 20
0.0
 30
0.0
  9
$UCSORGFRONT
 10
0.0
 20
0.0
 30
0.0
  9
$UCSORGBACK
 10
0.0
 20
0.0
 30
0.0
  9
$PUCSBASE
  2

  9
$PUCSNAME
  2

  9
$PUCSORG
 10
0.0
 20
0.0
 30
0.0
  9
$PUCSXDIR
 10
1.0
 20
0.0
 30
0.0
  9
$PUCSYDIR
 10
0.0
 20
1.0
 30
0.0
  9
$PUCSORTHOREF
  2

  9
$PUCSORTHOVIEW
 70
     0
  9
$PUCSORGTOP
 10
0.0
 20
0.0
 30
0.0
  9
$PUCSORGBOTTOM
 10
0.0
 20
0.0
 30
0.0
  9
$PUCSORGLEFT
 10
0.0
 20
0.0
 30
0.0
  9
$PUCSORGRIGHT
 10
0.0
 20
0.0
 30
0.0
  9
$PUCSORGFRONT
 10
0.0
 20
0.0
 30
0.0
  9
$PUCSORGBACK
 10
0.0
 20
0.0
 30
0.0
  9
$USERI1
 70
     0
  9
$USERI2
 70
     0
  9
$USERI3
 70
     0
  9
$USERI4
 70
     0
  9
$USERI5
 70
     0
  9
$USERR1
 40
0.0
  9
$USERR2
 40
0.0
  9
$USERR3
 40
0.0
  9
$USERR4
 40
0.0
  9
$USERR5
 40
0.0
  9
$WORLDVIEW
 70
     1
  9
$SHADEDGE
 70
     3
  9
$SHADEDIF
 70
    70
  9
$TILEMODE
 70
     1
  9
$MAXACTVP
 70
    16
  9
$PINSBASE
 10
5.612848867200749
 20
50.00000000000001
 30
-2.581058165936445
  9
$PLIMCHECK
 70
     0
  9
$PEXTMIN
 10
1.000000000000000E+20
 20
1.000000000000000E+20
 30
1.000000000000000E+20
  9
$PEXTMAX
 10
-1.000000000000000E+20
 20
-1.000000000000000E+20
 30
-1.000000000000000E+20
  9
$PLIMMIN
 10
0.0
 20
0.0
  9
$PLIMMAX
 10
12.0
 20
9.0
  9
$UNITMODE
 70
     0
  9
$VISRETAIN
 70
     0
  9
$PLINEGEN
 70
     0
  9
$PSLTSCALE
 70
     0
  9
$TREEDEPTH
 70
  3020
  9
$CMLSTYLE
  2
Standard
  9
$CMLJUST
 70
     0
  9
$CMLSCALE
 40
1.0
  9
$PROXYGRAPHICS
 70
     1
  9
$MEASUREMENT
 70
     0
  9
$CELWEIGHT
370
    -1
  9
$ENDCAPS
280
     0
  9
$JOINSTYLE
280
     0
  9
$LWDISPLAY
290
     0
  9
$INSUNITS
 70
     0
  9
$HYPERLINKBASE
  1

  9
$STYLESHEET
  1
monochrome 1.ctb
  9
$XEDIT
290
     1
  9
$CEPSNTYPE
380
     0
  9
$PSTYLEMODE
290
     1
  9
$FINGERPRINTGUID
  2
{F66DA9F3-A8FB-4E11-931E-CD92B821B034}
  9
$VERSIONGUID
  2
{1996A1B3-D663-4B1A-9570-4A825370D0A6}
  9
$EXTNAMES
290
     1
  9
$PSVPSCALE
 40
0.0
  9
$OLESTARTUP
290
     0
  9
$SORTENTS
280
   127
  9
$INDEXCTL
280
     0
  9
$HIDETEXT
280
     1
  9
$XCLIPFRAME
290
     0
  9
$HALOGAP
280
     0
  9
$OBSCOLOR
 70
   257
  9
$OBSLTYPE
280
     0
  9
$INTERSECTIONDISPLAY
280
     0
  9
$INTERSECTIONCOLOR
 70
   257
  9
$DIMASSOC
280
     2
  9
$PROJECTNAME
  1

  0
ENDSEC
  0
SECTION
  2
CLASSES
  0
CLASS
  1
ACDBDICTIONARYWDFLT
  2
AcDbDictionaryWithDefault
  3
ObjectDBX Classes
 90
        0
 91
        1
280
     0
281
     0
  0
CLASS
  1
DICTIONARYVAR
  2
AcDbDictionaryVar
  3
ObjectDBX Classes
 90
        0
 91
        3
280
     0
281
     0
  0
CLASS
  1
DIMASSOC
  2
AcDbDimAssoc
  3
"AcDbDimAssoc|Product Desc:     AcDim ARX App For Dimension|Company:          Autodesk, Inc.|WEB Address:      www.autodesk.com"
 90
        0
 91
        1
280
     0
281
     0
  0
ENDSEC
  0
SECTION
  2
TABLES
  0
TABLE
  2
VPORT
  5
8
330
0
100
AcDbSymbolTable
 70
     3
  0
VPORT
  5
3C4
330
8
100
AcDbSymbolTableRecord
100
AcDbViewportTableRecord
  2
*Active
 70
     0
 10
0.0
 20
0.0
 11
1.0
 21
1.0
 12
524.9999999999999
 22
742.5000000000002
 13
0.0
 23
0.0
 14
1.0
 24
1.0
 15
10.0
 25
10.0
 16
0.0
 26
0.0
 36
1.0
 17
0.0
 27
0.0
 37
0.0
 40
1485.0
 41
1.334231805929919
 42
50.0
 43
0.0
 44
0.0
 50
0.0
 51
0.0
 71
     0
 72
  1500
 73
     1
 74
     0
 75
     0
 76
     0
 77
     0
 78
     0
281
     0
 65
     1
110
0.0
120
0.0
130
0.0
111
1.0
121
0.0
131
0.0
112
0.0
122
1.0
132
0.0
 79
     0
146
0.0
  0
ENDTAB
  0
TABLE
  2
LTYPE
  5
5
330
0
100
AcDbSymbolTable
 70
     2
  0
LTYPE
  5
13
330
5
100
AcDbSymbolTableRecord
100
AcDbLinetypeTableRecord
  2
ByBlock
 70
     0
  3

 72
    65
 73
     0
 40
0.0
  0
LTYPE
  5
14
330
5
100
AcDbSymbolTableRecord
100
AcDbLinetypeTableRecord
  2
ByLayer
 70
     0
  3

 72
    65
 73
     0
 40
0.0
  0
LTYPE
  5
15
330
5
100
AcDbSymbolTableRecord
100
AcDbLinetypeTableRecord
  2
Continuous
 70
     0
  3
Solid line
 72
    65
 73
     0
 40
0.0
  0
LTYPE
  5
3A
330
5
100
AcDbSymbolTableRecord
100
AcDbLinetypeTableRecord
  2
STRICHPUNKT
 70
     0
  3
__ . __ . __ . __ . __ . __ . __ . __ . __ . __
 72
    65
 73
     4
 40
1.0
 49
0.5
 74
     0
 49
-0.25
 74
     0
 49
0.0
 74
     0
 49
-0.25
 74
     0
  0
ENDTAB
  0
TABLE
  2
LAYER
  5
2
330
0
100
AcDbSymbolTable
 70
     9
  0
LAYER
  5
10
330
2
100
AcDbSymbolTableRecord
100
AcDbLayerTableRecord
  2
0
 70
     0
 62
     7
  6
Continuous
370
    -3
390
F
  0
LAYER
  5
3D
330
2
100
AcDbSymbolTableRecord
100
AcDbLayerTableRecord
  2
VOLL
 70
     0
 62
     1
  6
Continuous
370
    -3
390
F
  0
LAYER
  5
3E
330
2
100
AcDbSymbolTableRecord
100
AcDbLayerTableRecord
  2
HILF
 70
     0
 62
     2
  6
Continuous
370
    -3
390
F
  0
LAYER
  5
3F
330
2
100
AcDbSymbolTableRecord
100
AcDbLayerTableRecord
  2
MITTEL
 70
     0
 62
     2
  6
STRICHPUNKT
370
    -3
390
F
  0
LAYER
  5
40
330
2
100
AcDbSymbolTableRecord
100
AcDbLayerTableRecord
  2
BEM
 70
     0
 62
     7
  6
Continuous
370
    -3
390
F
  0
LAYER
  5
41
330
2
100
AcDbSymbolTableRecord
100
AcDbLayerTableRecord
  2
STEMPEL
 70
     0
 62
     3
  6
Continuous
370
    -3
390
F
  0
LAYER
  5
42
330
2
100
AcDbSymbolTableRecord
100
AcDbLayerTableRecord
  2
TEXT
 70
     0
 62
     7
  6
Continuous
370
    -3
390
F
  0
LAYER
  5
43
330
2
100
AcDbSymbolTableRecord
100
AcDbLayerTableRecord
  2
DEFPOINTS
 70
     0
 62
     7
  6
Continuous
290
     0
370
    -3
390
F
  0
LAYER
  5
44
330
2
100
AcDbSymbolTableRecord
100
AcDbLayerTableRecord
  2
SCHRAFF
 70
     0
 62
     7
  6
Continuous
370
    -3
390
F
  0
ENDTAB
  0
TABLE
  2
STYLE
  5
3
330
0
100
AcDbSymbolTable
 70
     2
  0
STYLE
  5
11
330
3
100
AcDbSymbolTableRecord
100
AcDbTextStyleTableRecord
  2
STANDARD
 70
     0
 40
0.0
 41
1.0
 50
0.0
 71
     0
 42
3.5
  3
txt
  4

  0
STYLE
  5
39
330
3
100
AcDbSymbolTableRecord
100
AcDbTextStyleTableRecord
  2
GREEKS
 70
     0
 40
0.0
 41
0.8
 50
0.0
 71
     0
 42
2.5
  3
SIMPLEX.shx
  4

  0
ENDTAB
  0
TABLE
  2
VIEW
  5
6
330
0
100
AcDbSymbolTable
 70
     0
  0
ENDTAB
  0
TABLE
  2
UCS
  5
7
330
0
100
AcDbSymbolTable
 70
     0
  0
ENDTAB
  0
TABLE
  2
APPID
  5
9
330
0
100
AcDbSymbolTable
 70
     1
  0
APPID
  5
12
330
9
100
AcDbSymbolTableRecord
100
AcDbRegAppTableRecord
  2
ACAD
 70
     0
  0
ENDTAB
  0
TABLE
  2
DIMSTYLE
  5
A
330
0
100
AcDbSymbolTable
 70
     1
100
AcDbDimStyleTable
 71
     1
340
272
  0
DIMSTYLE
105
272
102
{ACAD_REACTORS
330
17E
330
17D
330
18B
330
17C
330
32C
330
18A
102
}
330
A
100
AcDbSymbolTableRecord
100
AcDbDimStyleTableRecord
  2
Standard
 70
     0
340
11
  0
ENDTAB
  0
TABLE
  2
BLOCK_RECORD
  5
1
330
0
100
AcDbSymbolTable
 70
    17
  0
BLOCK_RECORD
  5
20
330
1
100
AcDbSymbolTableRecord
100
AcDbBlockTableRecord
  2
*Model_Space
340
23
  0
BLOCK_RECORD
  5
1C
330
1
100
AcDbSymbolTableRecord
100
AcDbBlockTableRecord
  2
*Paper_Space
340
1F
  0
BLOCK_RECORD
  5
24
330
1
100
AcDbSymbolTableRecord
100
AcDbBlockTableRecord
  2
LOGO
340
0
102
{BLKREFS
331
199
102
}
  0
BLOCK_RECORD
  5
28
330
1
100
AcDbSymbolTableRecord
100
AcDbBlockTableRecord
  2
*X3
340
0
102
{BLKREFS
331
252
102
}
  0
BLOCK_RECORD
  5
29
330
1
100
AcDbSymbolTableRecord
100
AcDbBlockTableRecord
  2
*X4
340
0
102
{BLKREFS
331
1ED
102
}
  0
BLOCK_RECORD
  5
280
330
1
100
AcDbSymbolTableRecord
100
AcDbBlockTableRecord
  2
*D8
340
0
  0
BLOCK_RECORD
  5
2C6
330
1
100
AcDbSymbolTableRecord
100
AcDbBlockTableRecord
  2
*D10
340
0
  0
BLOCK_RECORD
  5
2D2
330
1
100
AcDbSymbolTableRecord
100
AcDbBlockTableRecord
  2
*D11
340
0
  0
BLOCK_RECORD
  5
2EA
330
1
100
AcDbSymbolTableRecord
100
AcDbBlockTableRecord
  2
*D13
340
0
  0
BLOCK_RECORD
  5
32D
330
1
100
AcDbSymbolTableRecord
100
AcDbBlockTableRecord
  2
*D15
340
0
  0
BLOCK_RECORD
  5
37F
330
1
100
AcDbSymbolTableRecord
100
AcDbBlockTableRecord
  2
*D16
340
0
  0
ENDTAB
  0
ENDSEC
  0
SECTION
  2
BLOCKS
  0
BLOCK
  5
48
330
20
100
AcDbEntity
  8
0
100
AcDbBlockBegin
  2
*Model_Space
 70
     0
 10
0.0
 20
0.0
 30
0.0
  3
*Model_Space
  1

  0
ENDBLK
  5
49
330
20
100
AcDbEntity
  8
0
100
AcDbBlockEnd
  0
BLOCK
  5
46
330
1C
100
AcDbEntity
 67
     1
  8
0
100
AcDbBlockBegin
  2
*Paper_Space
 70
     0
 10
0.0
 20
0.0
 30
0.0
  3
*Paper_Space
  1

  0
ENDBLK
  5
47
330
1C
100
AcDbEntity
 67
     1
  8
0
100
AcDbBlockEnd
  0
BLOCK
  5
4A
330
24
100
AcDbEntity
  8
0
100
AcDbBlockBegin
  2
LOGO
 70
     0
 10
0.0
 20
0.0
 30
0.0
  3
LOGO
  1

  0
ARC
  5
4B
330
24
100
AcDbEntity
  8
0
100
AcDbCircle
 10
11.59973089678112
 20
-9.271599258481501
 30
0.0
 40
4.5
100
AcDbArc
 50
270.0
 51
231.0575587310159
  0
LINE
  5
4C
330
24
100
AcDbEntity
  8
0
100
AcDbLine
 10
3.599730896781125
 20
-4.771599258481529
 30
0.0
 11
3.599730896781153
 21
-11.77159925848133
 31
0.0
  0
LINE
  5
4D
330
24
100
AcDbEntity
  8
0
100
AcDbLine
 10
2.599730896781125
 20
-4.771599258481529
 30
0.0
 11
2.599730896781153
 21
-11.77159925848133
 31
0.0
  0
CIRCLE
  5
4E
330
24
100
AcDbEntity
  8
0
100
AcDbCircle
 10
11.59973089678112
 20
-9.271599258481501
 30
0.0
 40
3.5
  0
ARC
  5
4F
330
24
100
AcDbEntity
  8
0
100
AcDbCircle
 10
31.59973089678115
 20
-9.271599258481472
 30
0.0
 40
4.5
100
AcDbArc
 50
270.0
 51
231.0575587310182
  0
LINE
  5
50
330
24
100
AcDbEntity
  8
0
100
AcDbLine
 10
17.59973089678112
 20
-4.771599258481472
 30
0.0
 11
17.59973089678115
 21
-13.77159925848147
 31
0.0
  0
ARC
  5
51
330
24
100
AcDbEntity
  8
0
100
AcDbCircle
 10
22.59973089678116
 20
-7.271599258481472
 30
0.0
 40
2.5
100
AcDbArc
 50
293.1161887722295
 51
90.0
  0
CIRCLE
  5
52
330
24
100
AcDbEntity
  8
0
100
AcDbCircle
 10
31.59973089678115
 20
-9.271599258481472
 30
0.0
 40
3.5
  0
ARC
  5
53
330
24
100
AcDbEntity
  8
0
100
AcDbCircle
 10
4.599730896781153
 20
-11.77159925848133
 30
0.0
 40
1.0
100
AcDbArc
 50
180.0
 51
270.0
  0
ARC
  5
54
330
24
100
AcDbEntity
  8
0
100
AcDbCircle
 10
4.599730896781153
 20
-11.77159925848133
 30
0.0
 40
2.0
100
AcDbArc
 50
179.9999999999992
 51
270.0
  0
LINE
  5
55
330
24
100
AcDbEntity
  8
0
100
AcDbLine
 10
11.59973089678115
 20
-13.77159925848144
 30
0.0
 11
4.599730896781153
 21
-13.77159925848147
 31
0.0
  0
LINE
  5
56
330
24
100
AcDbEntity
  8
0
100
AcDbLine
 10
8.771303772034769
 20
-12.77159925848136
 30
0.0
 11
4.599730896781153
 21
-12.77159925848133
 31
0.0
  0
LINE
  5
57
330
24
100
AcDbEntity
  8
0
100
AcDbLine
 10
31.59973089678115
 20
-13.77159925848147
 30
0.0
 11
23.6715276665056
 21
-13.77159925848144
 31
0.0
  0
LINE
  5
58
330
24
100
AcDbEntity
  8
0
100
AcDbLine
 10
23.56565672307022
 20
-9.51278021337896
 30
0.0
 11
24.4388546544846
 21
-12.77159925848144
 31
0.0
  0
LINE
  5
59
330
24
100
AcDbEntity
  8
0
100
AcDbLine
 10
22.59973089678116
 20
-9.771599258481472
 30
0.0
 11
18.59973089678112
 21
-9.771599258481472
 31
0.0
  0
LINE
  5
5A
330
24
100
AcDbEntity
  8
0
100
AcDbLine
 10
18.59973089678115
 20
-13.77159925848144
 30
0.0
 11
17.59973089678115
 21
-13.77159925848144
 31
0.0
  0
LINE
  5
5B
330
24
100
AcDbEntity
  8
0
100
AcDbLine
 10
18.59973089678115
 20
-9.771599258481472
 30
0.0
 11
18.59973089678115
 21
-13.77159925848144
 31
0.0
  0
LINE
  5
5C
330
24
100
AcDbEntity
  8
0
100
AcDbLine
 10
22.59973089678116
 20
-9.771599258481472
 30
0.0
 11
23.67152766650562
 21
-13.77159925848147
 31
0.0
  0
ARC
  5
5D
330
24
100
AcDbEntity
  8
0
100
AcDbCircle
 10
22.59973089678116
 20
-7.271599258481472
 30
0.0
 40
2.5
100
AcDbArc
 50
270.0
 51
270.0000000000007
  0
LINE
  5
5E
330
24
100
AcDbEntity
  8
0
100
AcDbLine
 10
28.77130377203494
 20
-12.77159925848147
 30
0.0
 11
24.43885465448463
 21
-12.77159925848144
 31
0.0
  0
LINE
  5
5F
330
24
100
AcDbEntity
  8
0
100
AcDbLine
 10
3.599730896781125
 20
-4.771599258481472
 30
0.0
 11
2.599730896781125
 21
-4.771599258481472
 31
0.0
  0
LINE
  5
60
330
24
100
AcDbEntity
  8
0
100
AcDbLine
 10
22.59973089678116
 20
-8.771599258481472
 30
0.0
 11
18.59973089678115
 21
-8.771599258481472
 31
0.0
  0
LINE
  5
61
330
24
100
AcDbEntity
  8
0
100
AcDbLine
 10
22.59973089678116
 20
-5.771599258481472
 30
0.0
 11
18.59973089678115
 21
-5.771599258481472
 31
0.0
  0
LINE
  5
62
330
24
100
AcDbEntity
  8
0
100
AcDbLine
 10
22.59973089678116
 20
-4.771599258481472
 30
0.0
 11
17.59973089678115
 21
-4.771599258481472
 31
0.0
  0
LINE
  5
63
330
24
100
AcDbEntity
  8
0
100
AcDbLine
 10
18.59973089678115
 20
-5.771599258481472
 30
0.0
 11
18.59973089678115
 21
-8.771599258481472
 31
0.0
  0
ARC
  5
64
330
24
100
AcDbEntity
  8
0
100
AcDbCircle
 10
22.59973089678116
 20
-7.271599258481472
 30
0.0
 40
1.5
100
AcDbArc
 50
270.0
 51
90.0
  0
ENDBLK
  5
65
330
24
100
AcDbEntity
  8
0
100
AcDbBlockEnd
  0
BLOCK
  5
86
330
28
100
AcDbEntity
  8
0
100
AcDbBlockBegin
  2
*X3
 70
     1
 10
0.0
 20
0.0
 30
0.0
  3
*X3
  1

  0
LINE
  5
87
330
28
100
AcDbEntity
  8
0
 62
     0
100
AcDbLine
 10
565.4058927621491
 20
1067.3
 30
0.0
 11
568.4016677354831
 21
1067.3
 31
0.0
  0
LINE
  5
88
330
28
100
AcDbEntity
  8
0
 62
     0
100
AcDbLine
 10
565.4058927621491
 20
1067.4
 30
0.0
 11
568.5016677354832
 21
1067.4
 31
0.0
  0
LINE
  5
89
330
28
100
AcDbEntity
  8
0
 62
     0
100
AcDbLine
 10
565.4058927621491
 20
1067.5
 30
0.0
 11
568.6016677354831
 21
1067.5
 31
0.0
  0
LINE
  5
8A
330
28
100
AcDbEntity
  8
0
 62
     0
100
AcDbLine
 10
565.4058927621491
 20
1067.6
 30
0.0
 11
568.7016677354832
 21
1067.6
 31
0.0
  0
LINE
  5
8B
330
28
100
AcDbEntity
  8
0
 62
     0
100
AcDbLine
 10
565.4058927621491
 20
1067.7
 30
0.0
 11
568.8016677354831
 21
1067.7
 31
0.0
  0
LINE
  5
8C
330
28
100
AcDbEntity
  8
0
 62
     0
100
AcDbLine
 10
565.4058927621491
 20
1067.8
 30
0.0
 11
568.9016677354831
 21
1067.8
 31
0.0
  0
LINE
  5
8D
330
28
100
AcDbEntity
  8
0
 62
     0
100
AcDbLine
 10
565.4058927621491
 20
1067.9
 30
0.0
 11
569.0016677354832
 21
1067.9
 31
0.0
  0
LINE
  5
8E
330
28
100
AcDbEntity
  8
0
 62
     0
100
AcDbLine
 10
565.4058927621491
 20
1068.0
 30
0.0
 11
569.1016677354831
 21
1068.0
 31
0.0
  0
LINE
  5
8F
330
28
100
AcDbEntity
  8
0
 62
     0
100
AcDbLine
 10
565.4058927621491
 20
1068.1
 30
0.0
 11
569.2016677354833
 21
1068.1
 31
0.0
  0
LINE
  5
90
330
28
100
AcDbEntity
  8
0
 62
     0
100
AcDbLine
 10
565.4058927621491
 20
1068.2
 30
0.0
 11
569.3016677354831
 21
1068.2
 31
0.0
  0
LINE
  5
91
330
28
100
AcDbEntity
  8
0
 62
     0
100
AcDbLine
 10
565.4058927621491
 20
1068.3
 30
0.0
 11
569.4016677354831
 21
1068.3
 31
0.0
  0
LINE
  5
92
330
28
100
AcDbEntity
  8
0
 62
     0
100
AcDbLine
 10
565.4058927621491
 20
1068.4
 30
0.0
 11
569.5016677354832
 21
1068.4
 31
0.0
  0
LINE
  5
93
330
28
100
AcDbEntity
  8
0
 62
     0
100
AcDbLine
 10
565.4058927621491
 20
1068.5
 30
0.0
 11
569.6016677354831
 21
1068.5
 31
0.0
  0
LINE
  5
94
330
28
100
AcDbEntity
  8
0
 62
     0
100
AcDbLine
 10
565.4058927621491
 20
1068.6
 30
0.0
 11
569.5947252222108
 21
1068.6
 31
0.0
  0
LINE
  5
95
330
28
100
AcDbEntity
  8
0
 62
     0
100
AcDbLine
 10
565.4058927621491
 20
1068.7
 30
0.0
 11
569.4896609220476
 21
1068.7
 31
0.0
  0
LINE
  5
96
330
28
100
AcDbEntity
  8
0
 62
     0
100
AcDbLine
 10
565.4058927621491
 20
1068.8
 30
0.0
 11
569.3793053243096
 21
1068.8
 31
0.0
  0
LINE
  5
97
330
28
100
AcDbEntity
  8
0
 62
     0
100
AcDbLine
 10
565.4058927621491
 20
1068.9
 30
0.0
 11
569.2632043122403
 21
1068.9
 31
0.0
  0
LINE
  5
98
330
28
100
AcDbEntity
  8
0
 62
     0
100
AcDbLine
 10
565.4058927621491
 20
1069.0
 30
0.0
 11
569.1408221322712
 21
1069.0
 31
0.0
  0
LINE
  5
99
330
28
100
AcDbEntity
  8
0
 62
     0
100
AcDbLine
 10
565.4058927621491
 20
1069.1
 30
0.0
 11
569.0115192548869
 21
1069.1
 31
0.0
  0
LINE
  5
9A
330
28
100
AcDbEntity
  8
0
 62
     0
100
AcDbLine
 10
565.4058927621491
 20
1069.2
 30
0.0
 11
568.8745218011884
 21
1069.2
 31
0.0
  0
LINE
  5
9B
330
28
100
AcDbEntity
  8
0
 62
     0
100
AcDbLine
 10
565.4058927621491
 20
1069.3
 30
0.0
 11
568.728878229436
 21
1069.3
 31
0.0
  0
LINE
  5
9C
330
28
100
AcDbEntity
  8
0
 62
     0
100
AcDbLine
 10
565.4058927621491
 20
1069.4
 30
0.0
 11
568.5733961040782
 21
1069.4
 31
0.0
  0
LINE
  5
9D
330
28
100
AcDbEntity
  8
0
 62
     0
100
AcDbLine
 10
565.4058927621491
 20
1069.5
 30
0.0
 11
568.4065464286802
 21
1069.5
 31
0.0
  0
LINE
  5
9E
330
28
100
AcDbEntity
  8
0
 62
     0
100
AcDbLine
 10
565.4058927621491
 20
1069.6
 30
0.0
 11
568.2263124883243
 21
1069.6
 31
0.0
  0
LINE
  5
9F
330
28
100
AcDbEntity
  8
0
 62
     0
100
AcDbLine
 10
565.4058927621491
 20
1069.7
 30
0.0
 11
568.0299378145696
 21
1069.7
 31
0.0
  0
LINE
  5
A0
330
28
100
AcDbEntity
  8
0
 62
     0
100
AcDbLine
 10
565.4058927621491
 20
1069.8
 30
0.0
 11
567.8134760820918
 21
1069.8
 31
0.0
  0
LINE
  5
A1
330
28
100
AcDbEntity
  8
0
 62
     0
100
AcDbLine
 10
565.4058927621491
 20
1069.9
 30
0.0
 11
567.5709106484028
 21
1069.9
 31
0.0
  0
LINE
  5
A2
330
28
100
AcDbEntity
  8
0
 62
     0
100
AcDbLine
 10
565.4058927621491
 20
1070.0
 30
0.0
 11
567.2921980007392
 21
1070.0
 31
0.0
  0
LINE
  5
A3
330
28
100
AcDbEntity
  8
0
 62
     0
100
AcDbLine
 10
565.4058927621491
 20
1070.1
 30
0.0
 11
566.957985690573
 21
1070.1
 31
0.0
  0
LINE
  5
A4
330
28
100
AcDbEntity
  8
0
 62
     0
100
AcDbLine
 10
565.4058927621491
 20
1070.2
 30
0.0
 11
566.5193726514141
 21
1070.2
 31
0.0
  0
LINE
  5
A5
330
28
100
AcDbEntity
  8
0
 62
     0
100
AcDbLine
 10
565.4058927621491
 20
1067.2
 30
0.0
 11
568.3016677354832
 21
1067.2
 31
0.0
  0
LINE
  5
A6
330
28
100
AcDbEntity
  8
0
 62
     0
100
AcDbLine
 10
565.4058927621491
 20
1067.1
 30
0.0
 11
568.2016677354832
 21
1067.1
 31
0.0
  0
LINE
  5
A7
330
28
100
AcDbEntity
  8
0
 62
     0
100
AcDbLine
 10
565.4058927621491
 20
1067.0
 30
0.0
 11
568.1016677354831
 21
1067.0
 31
0.0
  0
LINE
  5
A8
330
28
100
AcDbEntity
  8
0
 62
     0
100
AcDbLine
 10
565.4058927621491
 20
1066.9
 30
0.0
 11
568.0016677354832
 21
1066.9
 31
0.0
  0
LINE
  5
A9
330
28
100
AcDbEntity
  8
0
 62
     0
100
AcDbLine
 10
565.4058927621491
 20
1066.8
 30
0.0
 11
567.901667735483
 21
1066.8
 31
0.0
  0
LINE
  5
AA
330
28
100
AcDbEntity
  8
0
 62
     0
100
AcDbLine
 10
565.4058927621491
 20
1066.7
 30
0.0
 11
567.8016677354832
 21
1066.7
 31
0.0
  0
LINE
  5
AB
330
28
100
AcDbEntity
  8
0
 62
     0
100
AcDbLine
 10
565.4058927621491
 20
1066.6
 30
0.0
 11
567.7016677354832
 21
1066.6
 31
0.0
  0
LINE
  5
AC
330
28
100
AcDbEntity
  8
0
 62
     0
100
AcDbLine
 10
565.4058927621491
 20
1066.5
 30
0.0
 11
567.6016677354831
 21
1066.5
 31
0.0
  0
LINE
  5
AD
330
28
100
AcDbEntity
  8
0
 62
     0
100
AcDbLine
 10
565.4058927621491
 20
1066.4
 30
0.0
 11
567.5016677354832
 21
1066.4
 31
0.0
  0
LINE
  5
AE
330
28
100
AcDbEntity
  8
0
 62
     0
100
AcDbLine
 10
565.4058927621491
 20
1066.3
 30
0.0
 11
567.401667735483
 21
1066.3
 31
0.0
  0
LINE
  5
AF
330
28
100
AcDbEntity
  8
0
 62
     0
100
AcDbLine
 10
565.4058927621491
 20
1066.2
 30
0.0
 11
567.3016677354832
 21
1066.2
 31
0.0
  0
LINE
  5
B0
330
28
100
AcDbEntity
  8
0
 62
     0
100
AcDbLine
 10
565.4058927621491
 20
1066.1
 30
0.0
 11
567.2016677354832
 21
1066.1
 31
0.0
  0
LINE
  5
B1
330
28
100
AcDbEntity
  8
0
 62
     0
100
AcDbLine
 10
565.4058927621491
 20
1066.0
 30
0.0
 11
567.1016677354831
 21
1066.0
 31
0.0
  0
LINE
  5
B2
330
28
100
AcDbEntity
  8
0
 62
     0
100
AcDbLine
 10
565.4058927621491
 20
1065.9
 30
0.0
 11
567.0016677354832
 21
1065.9
 31
0.0
  0
LINE
  5
B3
330
28
100
AcDbEntity
  8
0
 62
     0
100
AcDbLine
 10
565.4058927621491
 20
1065.8
 30
0.0
 11
566.901667735483
 21
1065.8
 31
0.0
  0
LINE
  5
B4
330
28
100
AcDbEntity
  8
0
 62
     0
100
AcDbLine
 10
565.4058927621491
 20
1065.7
 30
0.0
 11
566.8016677354832
 21
1065.7
 31
0.0
  0
LINE
  5
B5
330
28
100
AcDbEntity
  8
0
 62
     0
100
AcDbLine
 10
565.4058927621491
 20
1065.6
 30
0.0
 11
566.7016677354832
 21
1065.6
 31
0.0
  0
LINE
  5
B6
330
28
100
AcDbEntity
  8
0
 62
     0
100
AcDbLine
 10
565.4058927621491
 20
1065.5
 30
0.0
 11
566.6016677354831
 21
1065.5
 31
0.0
  0
LINE
  5
B7
330
28
100
AcDbEntity
  8
0
 62
     0
100
AcDbLine
 10
565.4058927621491
 20
1065.4
 30
0.0
 11
566.5016677354832
 21
1065.4
 31
0.0
  0
LINE
  5
B8
330
28
100
AcDbEntity
  8
0
 62
     0
100
AcDbLine
 10
565.4058927621491
 20
1065.3
 30
0.0
 11
566.4016677354831
 21
1065.3
 31
0.0
  0
LINE
  5
B9
330
28
100
AcDbEntity
  8
0
 62
     0
100
AcDbLine
 10
565.4058927621491
 20
1065.2
 30
0.0
 11
566.3016677354831
 21
1065.2
 31
0.0
  0
LINE
  5
BA
330
28
100
AcDbEntity
  8
0
 62
     0
100
AcDbLine
 10
565.4058927621491
 20
1065.1
 30
0.0
 11
566.2016677354833
 21
1065.1
 31
0.0
  0
LINE
  5
BB
330
28
100
AcDbEntity
  8
0
 62
     0
100
AcDbLine
 10
565.4058927621491
 20
1065.0
 30
0.0
 11
566.1016677354831
 21
1065.0
 31
0.0
  0
LINE
  5
BC
330
28
100
AcDbEntity
  8
0
 62
     0
100
AcDbLine
 10
565.4058927621491
 20
1064.9
 30
0.0
 11
566.0016677354832
 21
1064.9
 31
0.0
  0
LINE
  5
BD
330
28
100
AcDbEntity
  8
0
 62
     0
100
AcDbLine
 10
565.4058927621491
 20
1064.8
 30
0.0
 11
565.9016677354831
 21
1064.8
 31
0.0
  0
LINE
  5
BE
330
28
100
AcDbEntity
  8
0
 62
     0
100
AcDbLine
 10
565.4058927621491
 20
1064.7
 30
0.0
 11
565.8016677354831
 21
1064.7
 31
0.0
  0
LINE
  5
BF
330
28
100
AcDbEntity
  8
0
 62
     0
100
AcDbLine
 10
565.4058927621491
 20
1064.6
 30
0.0
 11
565.7016677354833
 21
1064.6
 31
0.0
  0
LINE
  5
C0
330
28
100
AcDbEntity
  8
0
 62
     0
100
AcDbLine
 10
565.4058927621491
 20
1064.5
 30
0.0
 11
565.6016677354831
 21
1064.5
 31
0.0
  0
LINE
  5
C1
330
28
100
AcDbEntity
  8
0
 62
     0
100
AcDbLine
 10
565.4058927621491
 20
1064.4
 30
0.0
 11
565.5016677354832
 21
1064.4
 31
0.0
  0
ENDBLK
  5
C2
330
28
100
AcDbEntity
  8
0
100
AcDbBlockEnd
  0
BLOCK
  5
C3
330
29
100
AcDbEntity
  8
0
100
AcDbBlockBegin
  2
*X4
 70
     1
 10
0.0
 20
0.0
 30
0.0
  3
*X4
  1

  0
LINE
  5
C4
330
29
100
AcDbEntity
  8
0
 62
     0
100
AcDbLine
 10
565.4058927621494
 20
754.1
 30
0.0
 11
567.2137279381435
 21
754.1
 31
0.0
  0
LINE
  5
C5
330
29
100
AcDbEntity
  8
0
 62
     0
100
AcDbLine
 10
565.4058927621494
 20
754.2
 30
0.0
 11
567.2493168249429
 21
754.2
 31
0.0
  0
LINE
  5
C6
330
29
100
AcDbEntity
  8
0
 62
     0
100
AcDbLine
 10
565.4058927621494
 20
754.3000000000001
 30
0.0
 11
567.2828379919165
 21
754.3000000000001
 31
0.0
  0
LINE
  5
C7
330
29
100
AcDbEntity
  8
0
 62
     0
100
AcDbLine
 10
565.4058927621494
 20
754.4000000000001
 30
0.0
 11
567.3143293891484
 21
754.4000000000001
 31
0.0
  0
LINE
  5
C8
330
29
100
AcDbEntity
  8
0
 62
     0
100
AcDbLine
 10
565.4058927621494
 20
754.4999999999999
 30
0.0
 11
567.3438258270238
 21
754.4999999999999
 31
0.0
  0
LINE
  5
C9
330
29
100
AcDbEntity
  8
0
 62
     0
100
AcDbLine
 10
565.4144378951911
 20
754.6
 30
0.0
 11
567.3713591921549
 21
754.6
 31
0.0
  0
LINE
  5
CA
330
29
100
AcDbEntity
  8
0
 62
     0
100
AcDbLine
 10
565.5144378951911
 20
754.7
 30
0.0
 11
567.396958638451
 21
754.7
 31
0.0
  0
LINE
  5
CB
330
29
100
AcDbEntity
  8
0
 62
     0
100
AcDbLine
 10
565.6144378951911
 20
754.8
 30
0.0
 11
567.4206507562449
 21
754.8
 31
0.0
  0
LINE
  5
CC
330
29
100
AcDbEntity
  8
0
 62
     0
100
AcDbLine
 10
565.7144378951911
 20
754.9000000000001
 30
0.0
 11
567.4424597219481
 21
754.9000000000001
 31
0.0
  0
LINE
  5
CD
330
29
100
AcDbEntity
  8
0
 62
     0
100
AcDbLine
 10
565.814437895191
 20
755.0
 30
0.0
 11
567.4624074303412
 21
755.0
 31
0.0
  0
LINE
  5
CE
330
29
100
AcDbEntity
  8
0
 62
     0
100
AcDbLine
 10
565.9144378951911
 20
755.1
 30
0.0
 11
567.480513611301
 21
755.1
 31
0.0
  0
LINE
  5
CF
330
29
100
AcDbEntity
  8
0
 62
     0
100
AcDbLine
 10
566.0144378951911
 20
755.2
 30
0.0
 11
567.4967959324911
 21
755.2
 31
0.0
  0
LINE
  5
D0
330
29
100
AcDbEntity
  8
0
 62
     0
100
AcDbLine
 10
566.1144378951911
 20
755.3
 30
0.0
 11
567.5112700893307
 21
755.3
 31
0.0
  0
LINE
  5
D1
330
29
100
AcDbEntity
  8
0
 62
     0
100
AcDbLine
 10
566.2144378951912
 20
755.4000000000001
 30
0.0
 11
567.5239498833479
 21
755.4000000000001
 31
0.0
  0
LINE
  5
D2
330
29
100
AcDbEntity
  8
0
 62
     0
100
AcDbLine
 10
566.314437895191
 20
755.4999999999999
 30
0.0
 11
567.534847289867
 21
755.4999999999999
 31
0.0
  0
LINE
  5
D3
330
29
100
AcDbEntity
  8
0
 62
     0
100
AcDbLine
 10
566.4144378951911
 20
755.6
 30
0.0
 11
567.5439725158209
 21
755.6
 31
0.0
  0
LINE
  5
D4
330
29
100
AcDbEntity
  8
0
 62
     0
100
AcDbLine
 10
566.5144378951911
 20
755.7
 30
0.0
 11
567.5513340483599
 21
755.7
 31
0.0
  0
LINE
  5
D5
330
29
100
AcDbEntity
  8
0
 62
     0
100
AcDbLine
 10
566.6144378951911
 20
755.8
 30
0.0
 11
567.5569386948002
 21
755.8
 31
0.0
  0
LINE
  5
D6
330
29
100
AcDbEntity
  8
0
 62
     0
100
AcDbLine
 10
566.7144378951912
 20
755.9000000000001
 30
0.0
 11
567.5607916143618
 21
755.9000000000001
 31
0.0
  0
LINE
  5
D7
330
29
100
AcDbEntity
  8
0
 62
     0
100
AcDbLine
 10
566.814437895191
 20
756.0
 30
0.0
 11
567.56289634204
 21
756.0
 31
0.0
  0
LINE
  5
D8
330
29
100
AcDbEntity
  8
0
 62
     0
100
AcDbLine
 10
566.914437895191
 20
756.0999999999999
 30
0.0
 11
567.5632548048731
 21
756.0999999999999
 31
0.0
  0
LINE
  5
D9
330
29
100
AcDbEntity
  8
0
 62
     0
100
AcDbLine
 10
567.0144378951911
 20
756.2
 30
0.0
 11
567.5618673307783
 21
756.2
 31
0.0
  0
LINE
  5
DA
330
29
100
AcDbEntity
  8
0
 62
     0
100
AcDbLine
 10
567.1144378951911
 20
756.3
 30
0.0
 11
567.5587326500545
 21
756.3
 31
0.0
  0
LINE
  5
DB
330
29
100
AcDbEntity
  8
0
 62
     0
100
AcDbLine
 10
567.2144378951911
 20
756.4
 30
0.0
 11
567.5538478895638
 21
756.4
 31
0.0
  0
LINE
  5
DC
330
29
100
AcDbEntity
  8
0
 62
     0
100
AcDbLine
 10
567.314437895191
 20
756.5
 30
0.0
 11
567.5472085595323
 21
756.5
 31
0.0
  0
LINE
  5
DD
330
29
100
AcDbEntity
  8
0
 62
     0
100
AcDbLine
 10
567.414437895191
 20
756.6
 30
0.0
 11
567.538808532828
 21
756.6
 31
0.0
  0
LINE
  5
DE
330
29
100
AcDbEntity
  8
0
 62
     0
100
AcDbLine
 10
567.5144378951911
 20
756.7
 30
0.0
 11
567.5286400164901
 21
756.7
 31
0.0
  0
LINE
  5
DF
330
29
100
AcDbEntity
  8
0
 62
     0
100
AcDbLine
 10
565.4058927621494
 20
754.0
 30
0.0
 11
567.1760299975217
 21
754.0
 31
0.0
  0
LINE
  5
E0
330
29
100
AcDbEntity
  8
0
 62
     0
100
AcDbLine
 10
565.4058927621494
 20
753.9000000000001
 30
0.0
 11
567.1361780086114
 21
753.9000000000001
 31
0.0
  0
LINE
  5
E1
330
29
100
AcDbEntity
  8
0
 62
     0
100
AcDbLine
 10
565.4058927621494
 20
753.8000000000001
 30
0.0
 11
567.0941230027557
 21
753.8000000000001
 31
0.0
  0
LINE
  5
E2
330
29
100
AcDbEntity
  8
0
 62
     0
100
AcDbLine
 10
565.4058927621494
 20
753.7
 30
0.0
 11
567.0498116804897
 21
753.7
 31
0.0
  0
LINE
  5
E3
330
29
100
AcDbEntity
  8
0
 62
     0
100
AcDbLine
 10
565.4058927621494
 20
753.6
 30
0.0
 11
567.0031860051603
 21
753.6
 31
0.0
  0
LINE
  5
E4
330
29
100
AcDbEntity
  8
0
 62
     0
100
AcDbLine
 10
565.4058927621494
 20
753.5
 30
0.0
 11
566.9541827385343
 21
753.5
 31
0.0
  0
LINE
  5
E5
330
29
100
AcDbEntity
  8
0
 62
     0
100
AcDbLine
 10
565.4058927621494
 20
753.4
 30
0.0
 11
566.9027329084372
 21
753.4
 31
0.0
  0
LINE
  5
E6
330
29
100
AcDbEntity
  8
0
 62
     0
100
AcDbLine
 10
565.4058927621494
 20
753.3000000000001
 30
0.0
 11
566.8487611963159
 21
753.3000000000001
 31
0.0
  0
LINE
  5
E7
330
29
100
AcDbEntity
  8
0
 62
     0
100
AcDbLine
 10
565.4058927621494
 20
753.2
 30
0.0
 11
566.7921852299592
 21
753.2
 31
0.0
  0
LINE
  5
E8
330
29
100
AcDbEntity
  8
0
 62
     0
100
AcDbLine
 10
565.4058927621494
 20
753.1
 30
0.0
 11
566.7329147632042
 21
753.1
 31
0.0
  0
LINE
  5
E9
330
29
100
AcDbEntity
  8
0
 62
     0
100
AcDbLine
 10
565.4058927621494
 20
753.0
 30
0.0
 11
566.6708507201642
 21
753.0
 31
0.0
  0
LINE
  5
EA
330
29
100
AcDbEntity
  8
0
 62
     0
100
AcDbLine
 10
565.4058927621494
 20
752.9
 30
0.0
 11
566.6058840759695
 21
752.9
 31
0.0
  0
LINE
  5
EB
330
29
100
AcDbEntity
  8
0
 62
     0
100
AcDbLine
 10
565.4058927621494
 20
752.8
 30
0.0
 11
566.5378945388493
 21
752.8
 31
0.0
  0
LINE
  5
EC
330
29
100
AcDbEntity
  8
0
 62
     0
100
AcDbLine
 10
565.4058927621494
 20
752.7000000000001
 30
0.0
 11
566.4667489890137
 21
752.7000000000001
 31
0.0
  0
LINE
  5
ED
330
29
100
AcDbEntity
  8
0
 62
     0
100
AcDbLine
 10
565.4058927621494
 20
752.6
 30
0.0
 11
566.3922996174152
 21
752.6
 31
0.0
  0
LINE
  5
EE
330
29
100
AcDbEntity
  8
0
 62
     0
100
AcDbLine
 10
565.4058927621494
 20
752.5
 30
0.0
 11
566.3143816909486
 21
752.5
 31
0.0
  0
LINE
  5
EF
330
29
100
AcDbEntity
  8
0
 62
     0
100
AcDbLine
 10
565.4058927621494
 20
752.4
 30
0.0
 11
566.2328108483182
 21
752.4
 31
0.0
  0
LINE
  5
F0
330
29
100
AcDbEntity
  8
0
 62
     0
100
AcDbLine
 10
565.4058927621494
 20
752.3
 30
0.0
 11
566.1473798002551
 21
752.3
 31
0.0
  0
LINE
  5
F1
330
29
100
AcDbEntity
  8
0
 62
     0
100
AcDbLine
 10
565.4058927621494
 20
752.2
 30
0.0
 11
566.0578542653674
 21
752.2
 31
0.0
  0
LINE
  5
F2
330
29
100
AcDbEntity
  8
0
 62
     0
100
AcDbLine
 10
565.4058927621494
 20
752.1
 30
0.0
 11
565.9639679131784
 21
752.1
 31
0.0
  0
LINE
  5
F3
330
29
100
AcDbEntity
  8
0
 62
     0
100
AcDbLine
 10
565.4058927621494
 20
752.0
 30
0.0
 11
565.865416000325
 21
752.0
 31
0.0
  0
LINE
  5
F4
330
29
100
AcDbEntity
  8
0
 62
     0
100
AcDbLine
 10
565.4058927621494
 20
751.9000000000001
 30
0.0
 11
565.7618472609872
 21
751.9000000000001
 31
0.0
  0
LINE
  5
F5
330
29
100
AcDbEntity
  8
0
 62
     0
100
AcDbLine
 10
565.4058927621494
 20
751.8
 30
0.0
 11
565.6528534265569
 21
751.8
 31
0.0
  0
LINE
  5
F6
330
29
100
AcDbEntity
  8
0
 62
     0
100
AcDbLine
 10
565.4058927621494
 20
751.7
 30
0.0
 11
565.5379554659576
 21
751.7
 31
0.0
  0
LINE
  5
F7
330
29
100
AcDbEntity
  8
0
 62
     0
100
AcDbLine
 10
565.4058927621494
 20
751.6
 30
0.0
 11
565.4165851944992
 21
751.6
 31
0.0
  0
ENDBLK
  5
F8
330
29
100
AcDbEntity
  8
0
100
AcDbBlockEnd
  0
BLOCK
  5
28A
330
280
100
AcDbEntity
  8
0
100
AcDbBlockBegin
  2
*D8
 70
     1
 10
0.0
 20
0.0
 30
0.0
  3
*D8
  1

  0
LINE
  5
3A8
330
280
100
AcDbEntity
  8
BEM
 62
     0
370
    -2
100
AcDbLine
 10
611.7855737113374
 20
731.4008404693161
 30
0.0
 11
575.6448081112504
 21
695.2600748692291
 31
0.0
  0
LINE
  5
3A9
330
280
100
AcDbEntity
  8
BEM
 62
     0
370
    -2
100
AcDbLine
 10
611.785573711337
 20
1041.113610629023
 30
0.0
 11
420.7884230313964
 21
850.1164599490833
 31
0.0
  0
LINE
  5
3AA
330
280
100
AcDbEntity
  8
BEM
 62
     0
370
    -2
100
AcDbLine
 10
566.8059733464186
 20
711.1699774459264
 30
0.0
 11
436.6983256080938
 21
841.2776251842515
 31
0.0
  0
SOLID
  5
3AB
330
280
100
AcDbEntity
  8
BEM
 62
     0
100
AcDbTrace
 10
568.8683681248794
 20
713.2323722243873
 30
0.0
 11
564.7435785679578
 21
709.1075826674657
 31
0.0
 12
579.1803420171832
 22
698.7956087751618
 32
0.0
 13
579.1803420171832
 23
698.7956087751618
 33
0.0
  0
SOLID
  5
3AC
330
280
100
AcDbEntity
  8
BEM
 62
     0
100
AcDbTrace
 10
438.7607203865545
 20
843.3400199627122
 30
0.0
 11
434.635930829633
 21
839.2152304057908
 31
0.0
 12
424.3239569373292
 22
853.6519938550162
 32
0.0
 13
424.3239569373292
 23
853.6519938550162
 33
0.0
  0
MTEXT
  5
3AD
330
280
100
AcDbEntity
  8
BEM
 62
     1
100
AcDbMText
 10
513.2426346715376
 20
787.7142865093703
 30
0.0
 40
17.5
 41
0.0
 71
     5
 72
     1
  1
\A1;%%c219
  7
GREEKS
 11
0.707106781186547
 21
-0.7071067811865481
 31
0.0
 73
     1
 44
1.0
  0
POINT
  5
3AE
330
280
100
AcDbEntity
  8
DEFPOINTS
 62
     0
100
AcDbPoint
 10
615.3211076172701
 20
734.9363743752487
 30
0.0
  0
POINT
  5
3AF
330
280
100
AcDbEntity
  8
DEFPOINTS
 62
     0
100
AcDbPoint
 10
615.3211076172699
 20
1044.649144534956
 30
0.0
  0
POINT
  5
3B0
330
280
100
AcDbEntity
  8
DEFPOINTS
 62
     0
100
AcDbPoint
 10
424.3239569373292
 20
853.6519938550162
 30
0.0
  0
ENDBLK
  5
28B
330
280
100
AcDbEntity
  8
0
100
AcDbBlockEnd
  0
BLOCK
  5
2D0
330
2C6
100
AcDbEntity
  8
0
100
AcDbBlockBegin
  2
*D10
 70
     1
 10
0.0
 20
0.0
 30
0.0
  3
*D10
  1

  0
LINE
  5
3B1
330
2C6
100
AcDbEntity
  8
BEM
 62
     0
370
    -2
100
AcDbLine
 10
456.906641523203
 20
724.3072255491701
 30
0.0
 11
592.1387453581042
 21
589.0751217142691
 31
0.0
  0
LINE
  5
3B2
330
2C6
100
AcDbEntity
  8
BEM
 62
     0
370
    -2
100
AcDbLine
 10
904.0910284691358
 20
1005.442823225381
 30
0.0
 11
956.2987376691756
 21
953.2351140253412
 31
0.0
  0
LINE
  5
3B3
330
2C6
100
AcDbEntity
  8
BEM
 62
     0
370
    -2
100
AcDbLine
 10
600.977580122936
 20
604.9850242909664
 30
0.0
 11
940.3888350924782
 21
944.3962792605093
 31
0.0
  0
SOLID
  5
3B4
330
2C6
100
AcDbEntity
  8
BEM
 62
     0
100
AcDbTrace
 10
598.9151853444752
 20
607.0474190694272
 30
0.0
 11
603.0399749013968
 21
602.9226295125057
 31
0.0
 12
588.6032114521714
 22
592.6106556202019
 32
0.0
 13
588.6032114521714
 23
592.6106556202019
 33
0.0
  0
SOLID
  5
3B5
330
2C6
100
AcDbEntity
  8
BEM
 62
     0
100
AcDbTrace
 10
938.3264403140175
 20
946.4586740389702
 30
0.0
 11
942.4512298709391
 21
942.3338844820486
 31
0.0
 12
952.7632037632427
 22
956.7706479312739
 32
0.0
 13
952.7632037632427
 23
956.7706479312739
 33
0.0
  0
MTEXT
  5
3B6
330
2C6
100
AcDbEntity
  8
BEM
 62
     1
100
AcDbMText
 10
759.1927224134257
 20
786.1811369700193
 30
0.0
 40
17.5
 41
0.0
 71
     5
 72
     1
  1
\A1;515
  7
GREEKS
 11
0.707106781186547
 21
0.7071067811865481
 31
0.0
 73
     1
 44
1.0
  0
POINT
  5
3B7
330
2C6
100
AcDbEntity
  8
DEFPOINTS
 62
     0
100
AcDbPoint
 10
453.3711076172702
 20
727.8427594551028
 30
0.0
  0
POINT
  5
3B8
330
2C6
100
AcDbEntity
  8
DEFPOINTS
 62
     0
100
AcDbPoint
 10
900.5554945632031
 20
1008.978357131313
 30
0.0
  0
POINT
  5
3B9
330
2C6
100
AcDbEntity
  8
DEFPOINTS
 62
     0
100
AcDbPoint
 10
952.7632037632427
 20
956.7706479312739
 30
0.0
  0
ENDBLK
  5
2D1
330
2C6
100
AcDbEntity
  8
0
100
AcDbBlockEnd
  0
BLOCK
  5
2DC
330
2D2
100
AcDbEntity
  8
0
100
AcDbBlockBegin
  2
*D11
 70
     1
 10
0.0
 20
0.0
 30
0.0
  3
*D11
  1

  0
LINE
  5
396
330
2D2
100
AcDbEntity
  8
BEM
 62
     0
370
    -2
100
AcDbLine
 10
286.4211076172703
 20
642.842759455103
 30
0.0
 11
254.0964451968005
 21
642.8427594551031
 31
0.0
  0
LINE
  5
397
330
2D2
100
AcDbEntity
  8
BEM
 62
     0
370
    -2
100
AcDbLine
 10
448.3711076172705
 20
727.8427594551029
 30
0.0
 11
254.0964451968006
 21
727.8427594551031
 31
0.0
  0
LINE
  5
398
330
2D2
100
AcDbEntity
  8
BEM
 62
     0
370
    -2
100
AcDbLine
 10
259.0964451968006
 20
660.342759455103
 30
0.0
 11
259.0964451968006
 21
710.3427594551029
 31
0.0
  0
SOLID
  5
399
330
2D2
100
AcDbEntity
  8
BEM
 62
     0
100
AcDbTrace
 10
256.1797785301339
 20
660.342759455103
 30
0.0
 11
262.0131118634672
 21
660.342759455103
 31
0.0
 12
259.0964451968006
 22
642.842759455103
 32
0.0
 13
259.0964451968006
 23
642.842759455103
 33
0.0
  0
SOLID
  5
39A
330
2D2
100
AcDbEntity
  8
BEM
 62
     0
100
AcDbTrace
 10
256.1797785301339
 20
710.3427594551029
 30
0.0
 11
262.0131118634672
 21
710.3427594551029
 31
0.0
 12
259.0964451968006
 22
727.8427594551029
 32
0.0
 13
259.0964451968006
 23
727.8427594551029
 33
0.0
  0
MTEXT
  5
39B
330
2D2
100
AcDbEntity
  8
BEM
 62
     1
100
AcDbMText
 10
242.8464451968004
 20
680.1916850455578
 30
0.0
 40
17.5
 41
0.0
 71
     5
 72
     1
  1
\A1;85
  7
GREEKS
 11
0.0000000000000001
 21
1.0
 31
0.0
 73
     1
 44
1.0
  0
POINT
  5
39C
330
2D2
100
AcDbEntity
  8
DEFPOINTS
 62
     0
100
AcDbPoint
 10
291.4211076172703
 20
642.842759455103
 30
0.0
  0
POINT
  5
39D
330
2D2
100
AcDbEntity
  8
DEFPOINTS
 62
     0
100
AcDbPoint
 10
453.3711076172705
 20
727.8427594551029
 30
0.0
  0
POINT
  5
39E
330
2D2
100
AcDbEntity
  8
DEFPOINTS
 62
     0
100
AcDbPoint
 10
259.0964451968006
 20
727.8427594551029
 30
0.0
  0
ENDBLK
  5
2DD
330
2D2
100
AcDbEntity
  8
0
100
AcDbBlockEnd
  0
BLOCK
  5
2F4
330
2EA
100
AcDbEntity
  8
0
100
AcDbBlockBegin
  2
*D13
 70
     1
 10
0.0
 20
0.0
 30
0.0
  3
*D13
  1

  0
LINE
  5
3BA
330
2EA
100
AcDbEntity
  8
BEM
 62
     0
370
    -2
100
AcDbLine
 10
286.4211076172703
 20
642.842759455103
 30
0.0
 11
214.9102241549835
 21
642.8427594551031
 31
0.0
  0
LINE
  5
3BB
330
2EA
100
AcDbEntity
  8
BEM
 62
     0
370
    -2
100
AcDbLine
 10
286.4211076172703
 20
1192.842759455103
 30
0.0
 11
214.9102241549836
 21
1192.842759455103
 31
0.0
  0
LINE
  5
3BC
330
2EA
100
AcDbEntity
  8
BEM
 62
     0
370
    -2
100
AcDbLine
 10
219.9102241549835
 20
660.3427594551032
 30
0.0
 11
219.9102241549836
 21
1175.342759455103
 31
0.0
  0
SOLID
  5
3BD
330
2EA
100
AcDbEntity
  8
BEM
 62
     0
100
AcDbTrace
 10
216.9935574883168
 20
660.3427594551032
 30
0.0
 11
222.8268908216501
 21
660.3427594551032
 31
0.0
 12
219.9102241549835
 22
642.8427594551031
 32
0.0
 13
219.9102241549835
 23
642.8427594551031
 33
0.0
  0
SOLID
  5
3BE
330
2EA
100
AcDbEntity
  8
BEM
 62
     0
100
AcDbTrace
 10
216.9935574883169
 20
1175.342759455103
 30
0.0
 11
222.8268908216502
 21
1175.342759455103
 31
0.0
 12
219.9102241549836
 22
1192.842759455103
 32
0.0
 13
219.9102241549836
 23
1192.842759455103
 33
0.0
  0
MTEXT
  5
3BF
330
2EA
100
AcDbEntity
  8
BEM
 62
     1
100
AcDbMText
 10
203.6602241549834
 20
917.8427594551031
 30
0.0
 40
17.5
 41
0.0
 71
     5
 72
     1
  1
\A1;550
  7
GREEKS
 11
0.0000000000000001
 21
1.0
 31
0.0
 73
     1
 44
1.0
  0
POINT
  5
3C0
330
2EA
100
AcDbEntity
  8
DEFPOINTS
 62
     0
100
AcDbPoint
 10
291.4211076172703
 20
642.842759455103
 30
0.0
  0
POINT
  5
3C1
330
2EA
100
AcDbEntity
  8
DEFPOINTS
 62
     0
100
AcDbPoint
 10
291.4211076172703
 20
1192.842759455103
 30
0.0
  0
POINT
  5
3C2
330
2EA
100
AcDbEntity
  8
DEFPOINTS
 62
     0
100
AcDbPoint
 10
219.9102241549836
 20
1192.842759455103
 30
0.0
  0
ENDBLK
  5
2F5
330
2EA
100
AcDbEntity
  8
0
100
AcDbBlockEnd
  0
BLOCK
  5
339
330
32D
100
AcDbEntity
  8
0
100
AcDbBlockBegin
  2
*D15
 70
     1
 10
0.0
 20
0.0
 30
0.0
  3
*D15
  1

  0
LINE
  5
38B
330
32D
100
AcDbEntity
  8
BEM
 62
     0
370
    -2
100
AcDbLine
 10
824.6021677402078
 20
1099.07381957804
 30
0.0
 11
855.4620228696585
 21
1129.933674707491
 31
0.0
  0
LINE
  5
38C
330
32D
100
AcDbEntity
  8
BEM
 62
     0
370
    -2
100
AcDbLine
 10
453.3711076172702
 20
1207.842759455103
 30
0.0
 11
453.3711076172704
 21
1296.485185112041
 31
0.0
  0
ARC
  5
38D
330
32D
100
AcDbEntity
  8
BEM
 62
     0
370
    -2
100
AcDbCircle
 10
453.3711076172704
 20
727.8427594551031
 30
0.0
 40
563.6424256569378
100
AcDbArc
 50
46.77899386844116
 51
88.22100613155884
  0
SOLID
  5
38E
330
32D
100
AcDbEntity
  8
BEM
 62
     0
100
AcDbTrace
 10
841.3916410158593
 20
1140.673081192319
 30
0.0
 11
837.331381859281
 21
1136.484755350267
 31
0.0
 12
851.9264889637259
 22
1126.398140801558
 32
0.0
 13
851.9264889637259
 23
1126.398140801558
 33
0.0
  0
SOLID
  5
38F
330
32D
100
AcDbEntity
  8
BEM
 62
     0
100
AcDbTrace
 10
470.8237203695744
 20
1288.297199452951
 30
0.0
 11
470.9142771913168
 21
1294.129829840676
 31
0.0
 12
453.3711076172705
 22
1291.485185112041
 32
0.0
 13
453.3711076172705
 23
1291.485185112041
 33
0.0
  0
MTEXT
  5
390
330
32D
100
AcDbEntity
  8
BEM
 62
     1
100
AcDbMText
 10
675.2863314701852
 20
1263.593502577871
 30
0.0
 40
17.5
 41
0.0
 71
     5
 72
     1
  1
\A1;45°
  7
GREEKS
 11
0.9238795325112867
 21
-0.3826834323650898
 31
0.0
 73
     1
 44
1.0
  0
POINT
  5
391
330
32D
100
AcDbEntity
  8
DEFPOINTS
 62
     0
100
AcDbPoint
 10
735.1923204457395
 20
1215.971418724693
 30
0.0
  0
POINT
  5
392
330
32D
100
AcDbEntity
  8
DEFPOINTS
 62
     0
100
AcDbPoint
 10
453.3711076172702
 20
1202.842759455103
 30
0.0
  0
POINT
  5
393
330
32D
100
AcDbEntity
  8
DEFPOINTS
 62
     0
100
AcDbPoint
 10
821.066633834275
 20
1095.538285672107
 30
0.0
  0
POINT
  5
394
330
32D
100
AcDbEntity
  8
DEFPOINTS
 62
     0
100
AcDbPoint
 10
526.1774145808374
 20
800.6490664186699
 30
0.0
  0
POINT
  5
395
330
32D
100
AcDbEntity
  8
DEFPOINTS
 62
     0
100
AcDbPoint
 10
453.3711076172704
 20
632.842759455103
 30
0.0
  0
ENDBLK
  5
33A
330
32D
100
AcDbEntity
  8
0
100
AcDbBlockEnd
  0
BLOCK
  5
389
330
37F
100
AcDbEntity
  8
0
100
AcDbBlockBegin
  2
*D16
 70
     1
 10
0.0
 20
0.0
 30
0.0
  3
*D16
  1

  0
LINE
  5
39F
330
37F
100
AcDbEntity
  8
SCHRAFF
 62
     0
370
    -2
100
AcDbLine
 10
615.3211076172704
 20
637.842759455103
 30
0.0
 11
615.3211076172704
 21
546.6791047089383
 31
0.0
  0
LINE
  5
3A0
330
37F
100
AcDbEntity
  8
SCHRAFF
 62
     0
370
    -2
100
AcDbLine
 10
291.4211076172703
 20
637.842759455103
 30
0.0
 11
291.4211076172703
 21
546.6791047089383
 31
0.0
  0
LINE
  5
3A1
330
37F
100
AcDbEntity
  8
SCHRAFF
 62
     0
370
    -2
100
AcDbLine
 10
597.8211076172704
 20
551.6791047089383
 30
0.0
 11
308.9211076172703
 21
551.6791047089383
 31
0.0
  0
SOLID
  5
3A2
330
37F
100
AcDbEntity
  8
SCHRAFF
 62
     0
100
AcDbTrace
 10
597.8211076172704
 20
554.5957713756049
 30
0.0
 11
597.8211076172704
 21
548.7624380422716
 31
0.0
 12
615.3211076172704
 22
551.6791047089383
 32
0.0
 13
615.3211076172704
 23
551.6791047089383
 33
0.0
  0
SOLID
  5
3A3
330
37F
100
AcDbEntity
  8
SCHRAFF
 62
     0
100
AcDbTrace
 10
308.9211076172703
 20
554.5957713756049
 30
0.0
 11
308.9211076172703
 21
548.7624380422716
 31
0.0
 12
291.4211076172703
 22
551.6791047089383
 32
0.0
 13
291.4211076172703
 23
551.6791047089383
 33
0.0
  0
MTEXT
  5
3A4
330
37F
100
AcDbEntity
  8
SCHRAFF
 62
     1
100
AcDbMText
 10
453.3711076172703
 20
567.9291047089383
 30
0.0
 40
17.5
 41
0.0
 71
     5
 72
     1
  1
\A1;%%c324
  7
GREEKS
 73
     1
 44
1.0
  0
POINT
  5
3A5
330
37F
100
AcDbEntity
  8
DEFPOINTS
 62
     0
100
AcDbPoint
 10
615.3211076172704
 20
642.842759455103
 30
0.0
  0
POINT
  5
3A6
330
37F
100
AcDbEntity
  8
DEFPOINTS
 62
     0
100
AcDbPoint
 10
291.4211076172703
 20
642.842759455103
 30
0.0
  0
POINT
  5
3A7
330
37F
100
AcDbEntity
  8
DEFPOINTS
 62
     0
100
AcDbPoint
 10
291.4211076172703
 20
551.6791047089383
 30
0.0
  0
ENDBLK
  5
38A
330
37F
100
AcDbEntity
  8
0
100
AcDbBlockEnd
  0
ENDSEC
  0
SECTION
  2
ENTITIES
  0
DIMENSION
  5
17C
330
20
100
AcDbEntity
  8
BEM
100
AcDbDimension
  2
*D13
 10
219.9102241549836
 20
1192.842759455103
 30
0.0
 11
203.6602241549834
 21
917.8427594551031
 31
0.0
 70
    32
 71
     5
 42
549.9999999999999
  3
Standard
100
AcDbAlignedDimension
 13
291.4211076172703
 23
642.842759455103
 33
0.0
 14
291.4211076172703
 24
1192.842759455103
 34
0.0
 50
90.0
100
AcDbRotatedDimension
1001
ACAD
1000
DSTYLE
1002
{
1070
    40
1040
5.0
1070
    41
1040
3.5
1070
    42
1040
1.0
1070
    43
1040
7.0
1070
    44
1040
1.0
1070
    47
1040
5.0
1070
    48
1040
5.0
1070
    73
1070
     0
1070
    74
1070
     0
1070
    77
1070
     1
1070
    78
1070
     8
1070
    79
1070
     2
1070
   140
1040
3.5
1070
   141
1040
1.5
1070
   146
1040
0.5
1070
   147
1040
1.5
1070
   172
1070
     1
1070
   178
1070
     1
1070
   179
1070
     2
1070
   271
1070
     2
1070
   272
1070
     2
1070
   284
1070
     8
1070
   285
1070
     8
1070
   286
1070
     8
1070
   340
1005
39
1002
}
  0
DIMENSION
  5
17D
330
20
100
AcDbEntity
  8
BEM
100
AcDbDimension
  2
*D10
 10
952.7632037632427
 20
956.7706479312739
 30
0.0
 11
759.1927224134257
 21
786.1811369700193
 31
0.0
 70
    32
 71
     5
 42
514.9999999999996
  3
Standard
100
AcDbAlignedDimension
 13
453.3711076172703
 23
727.8427594551028
 33
0.0
 14
900.5554945632031
 24
1008.978357131313
 34
0.0
 50
45.00000000000005
100
AcDbRotatedDimension
1001
ACAD
1000
DSTYLE
1002
{
1070
    40
1040
5.0
1070
    41
1040
3.5
1070
    42
1040
1.0
1070
    43
1040
7.0
1070
    44
1040
1.0
1070
    47
1040
5.0
1070
    48
1040
5.0
1070
    73
1070
     0
1070
    74
1070
     0
1070
    77
1070
     1
1070
    78
1070
     8
1070
    79
1070
     2
1070
   140
1040
3.5
1070
   141
1040
1.5
1070
   146
1040
0.5
1070
   147
1040
1.5
1070
   172
1070
     1
1070
   178
1070
     1
1070
   179
1070
     2
1070
   271
1070
     2
1070
   272
1070
     2
1070
   284
1070
     8
1070
   285
1070
     8
1070
   286
1070
     8
1070
   340
1005
39
1002
}
  0
DIMENSION
  5
17E
330
20
100
AcDbEntity
  8
BEM
100
AcDbDimension
  2
*D8
 10
424.3239569373292
 20
853.6519938550162
 30
0.0
 11
513.2426346715376
 21
787.7142865093703
 31
0.0
 70
    32
  1
%%c<>
 71
     5
 42
219.0000000000003
  3
Standard
100
AcDbAlignedDimension
 13
615.3211076172701
 23
734.9363743752487
 33
0.0
 14
615.3211076172699
 24
1044.649144534956
 34
0.0
 50
314.9999999999999
100
AcDbRotatedDimension
1001
ACAD
1000
DSTYLE
1002
{
1070
    40
1040
5.0
1070
    41
1040
3.5
1070
    42
1040
1.0
1070
    43
1040
7.0
1070
    44
1040
1.0
1070
    47
1040
5.0
1070
    48
1040
5.0
1070
    73
1070
     0
1070
    74
1070
     0
1070
    77
1070
     1
1070
    78
1070
     8
1070
    79
1070
     2
1070
   140
1040
3.5
1070
   141
1040
1.5
1070
   146
1040
0.5
1070
   147
1040
1.5
1070
   172
1070
     1
1070
   178
1070
     1
1070
   179
1070
     2
1070
   271
1070
     2
1070
   272
1070
     2
1070
   284
1070
     8
1070
   285
1070
     8
1070
   286
1070
     8
1070
   340
1005
39
1002
}
  0
ARC
  5
17F
330
20
100
AcDbEntity
  8
STEMPEL
100
AcDbCircle
 10
741.7359381698422
 20
847.1639750875292
 30
0.0
 40
169.0436149201456
100
AcDbArc
 50
180.0
 51
221.5977853072145
  0
LINE
  5
180
330
20
100
AcDbEntity
  8
STEMPEL
  6
Continuous
100
AcDbLine
 10
804.2373899979345
 20
923.852656755913
 30
0.0
 11
615.3211076172704
 21
734.9363743752489
 31
0.0
  0
LINE
  5
181
330
20
100
AcDbEntity
  8
STEMPEL
100
AcDbLine
 10
1025.0
 20
25.0
 30
0.0
 11
1025.0
 21
1460.0
 31
0.0
  0
LINE
  5
182
330
20
100
AcDbEntity
  8
HILF
100
AcDbLine
 10
1050.0
 20
-0.0000000000002842
 30
0.0
 11
1050.0
 21
1485.0
 31
0.0
  0
LINE
  5
184
330
20
100
AcDbEntity
  8
MITTEL
100
AcDbLine
 10
495.137055677108
 20
769.6087075149404
 30
0.0
 11
453.3711076172705
 21
727.8427594551029
 31
0.0
  0
LINE
  5
185
330
20
100
AcDbEntity
  8
STEMPEL
100
AcDbLine
 10
291.4211076172703
 20
1192.842759455103
 30
0.0
 11
291.4211076172703
 21
642.842759455103
 31
0.0
  0
LINE
  5
186
102
{ACAD_REACTORS
330
347
102
}
330
20
100
AcDbEntity
  8
MITTEL
100
AcDbLine
 10
453.3711076172703
 20
1202.842759455103
 30
0.0
 11
453.3711076172705
 21
632.8427594551031
 31
0.0
  0
LINE
  5
187
330
20
100
AcDbEntity
  8
STEMPEL
100
AcDbLine
 10
100.0
 20
25.0
 30
0.0
 11
99.99999999999971
 21
1460.0
 31
0.0
  0
LINE
  5
188
330
20
100
AcDbEntity
  8
HILF
100
AcDbLine
 10
0.0
 20
0.0
 30
0.0
 11
-0.0000000000002842
 21
1485.0
 31
0.0
  0
DIMENSION
  5
18A
330
20
100
AcDbEntity
  8
SCHRAFF
100
AcDbDimension
  2
*D16
 10
291.4211076172703
 20
551.6791047089383
 30
0.0
 11
453.3711076172703
 21
567.9291047089383
 31
0.0
 70
    32
  1
%%c324
 71
     5
 42
323.9000000000001
  3
Standard
100
AcDbAlignedDimension
 13
615.3211076172704
 23
642.842759455103
 33
0.0
 14
291.4211076172703
 24
642.842759455103
 34
0.0
100
AcDbRotatedDimension
1001
ACAD
1000
DSTYLE
1002
{
1070
    40
1040
5.0
1070
    41
1040
3.5
1070
    42
1040
1.0
1070
    43
1040
7.0
1070
    44
1040
1.0
1070
    47
1040
5.0
1070
    48
1040
5.0
1070
    73
1070
     0
1070
    74
1070
     0
1070
    77
1070
     1
1070
    78
1070
     8
1070
    79
1070
     2
1070
   140
1040
3.5
1070
   141
1040
1.5
1070
   146
1040
0.5
1070
   147
1040
1.5
1070
   172
1070
     1
1070
   178
1070
     1
1070
   179
1070
     2
1070
   271
1070
     2
1070
   272
1070
     2
1070
   284
1070
     8
1070
   285
1070
     8
1070
   286
1070
     8
1070
   340
1005
39
1002
}
  0
DIMENSION
  5
18B
330
20
100
AcDbEntity
  8
BEM
100
AcDbDimension
  2
*D11
 10
259.0964451968006
 20
727.8427594551029
 30
0.0
 11
259.0964451968005
 21
680.1916850455578
 31
0.0
 70
   160
 71
     5
 42
84.99999999999989
  3
Standard
100
AcDbAlignedDimension
 13
291.4211076172703
 23
642.842759455103
 33
0.0
 14
453.3711076172705
 24
727.8427594551029
 34
0.0
 50
90.0
100
AcDbRotatedDimension
1001
ACAD
1000
DSTYLE
1002
{
1070
    40
1040
5.0
1070
    41
1040
3.5
1070
    42
1040
1.0
1070
    43
1040
7.0
1070
    44
1040
1.0
1070
    47
1040
5.0
1070
    48
1040
5.0
1070
    73
1070
     0
1070
    74
1070
     0
1070
    77
1070
     1
1070
    78
1070
     8
1070
    79
1070
     2
1070
   140
1040
3.5
1070
   141
1040
1.5
1070
   146
1040
0.5
1070
   147
1040
1.5
1070
   172
1070
     1
1070
   178
1070
     1
1070
   179
1070
     2
1070
   271
1070
     2
1070
   272
1070
     2
1070
   284
1070
     8
1070
   285
1070
     8
1070
   286
1070
     8
1070
   340
1005
39
1002
}
  0
TEXT
  5
18C
330
20
100
AcDbEntity
  8
TEXT
 62
     1
100
AcDbText
 10
292.4806628287003
 20
428.844636841721
 30
0.0
 40
17.5
  1
Rohrenden leicht entgratet
 41
0.8
  7
GREEKS
100
AcDbText
  0
TEXT
  5
18D
330
20
100
AcDbEntity
  8
TEXT
100
AcDbText
 10
383.7908930375943
 20
256.1552237717722
 30
0.0
 40
12.5
  1
Maßstab
 41
0.8
  7
GREEKS
100
AcDbText
  0
TEXT
  5
18E
330
20
100
AcDbEntity
  8
TEXT
 62
     1
100
AcDbText
 10
401.2515766204717
 20
220.372535722849
 30
0.0
 40
17.5
  1
1:5
 41
0.8
  7
GREEKS
100
AcDbText
  0
LINE
  5
18F
330
20
100
AcDbEntity
  8
STEMPEL
100
AcDbLine
 10
615.3211076172704
 20
642.842759455103
 30
0.0
 11
291.4211076172703
 21
642.842759455103
 31
0.0
  0
LINE
  5
190
330
20
100
AcDbEntity
  8
STEMPEL
100
AcDbLine
 10
1025.0
 20
275.0000000000001
 30
0.0
 11
99.99999999999992
 21
275.0
 31
0.0
  0
LINE
  5
191
330
20
100
AcDbEntity
  8
STEMPEL
100
AcDbLine
 10
1025.0
 20
100.0
 30
0.0
 11
365.0000000000003
 21
99.99999999999992
 31
0.0
  0
LINE
  5
192
330
20
100
AcDbEntity
  8
STEMPEL
100
AcDbLine
 10
1025.0
 20
200.0
 30
0.0
 11
365.0000000000003
 21
199.9999999999998
 31
0.0
  0
LINE
  5
193
330
20
100
AcDbEntity
  8
HILF
100
AcDbLine
 10
365.0000000000003
 20
174.9999999999998
 30
0.0
 11
575.0
 21
174.9999999999998
 31
0.0
  0
LINE
  5
194
330
20
100
AcDbEntity
  8
HILF
100
AcDbLine
 10
365.0000000000003
 20
149.9999999999999
 30
0.0
 11
575.0
 21
149.9999999999999
 31
0.0
  0
LINE
  5
195
330
20
100
AcDbEntity
  8
HILF
100
AcDbLine
 10
365.0000000000003
 20
124.9999999999999
 30
0.0
 11
575.0
 21
124.9999999999999
 31
0.0
  0
LINE
  5
196
330
20
100
AcDbEntity
  8
STEMPEL
100
AcDbLine
 10
124.9999999999997
 20
25.0
 30
0.0
 11
1025.0
 21
25.0
 31
0.0
  0
LINE
  5
197
330
20
100
AcDbEntity
  8
STEMPEL
100
AcDbLine
 10
1025.0
 20
25.0
 30
0.0
 11
99.99999999999971
 21
25.0
 31
0.0
  0
LINE
  5
198
330
20
100
AcDbEntity
  8
HILF
100
AcDbLine
 10
1050.0
 20
0.0
 30
0.0
 11
0.0
 21
0.0
 31
0.0
  0
INSERT
  5
199
330
20
100
AcDbEntity
  8
STEMPEL
100
AcDbBlockReference
  2
LOGO
 10
377.4888713644485
 20
112.552631911208
 30
0.0
 41
5.0
 42
5.0
 43
5.0
  0
TEXT
  5
19A
330
20
100
AcDbEntity
  8
TEXT
100
AcDbText
 10
104.6377487744418
 20
279.1799999999999
 30
0.0
 40
12.5
  1
Erstellt mit AUTOCAD 2004
 41
0.8
  7
GREEKS
100
AcDbText
  0
LINE
  5
19B
330
20
100
AcDbEntity
  8
STEMPEL
100
AcDbLine
 10
365.0000000000003
 20
274.9999999999999
 30
0.0
 11
365.0
 21
24.99999999999993
 31
0.0
  0
TEXT
  5
19C
330
20
100
AcDbEntity
  8
TEXT
100
AcDbText
 10
323.5068739665285
 20
46.4831054241602
 30
0.0
 40
10.0
  1
Name
 41
0.8
  7
GREEKS
 72
     1
 11
339.3163977760523
 21
46.4831054241602
 31
0.0
100
AcDbText
  0
LINE
  5
19D
330
20
100
AcDbEntity
  8
VOLL
100
AcDbLine
 10
260.0000000000003
 20
274.9999999999999
 30
0.0
 11
260.0
 21
24.99999999999993
 31
0.0
  0
LINE
  5
19E
330
20
100
AcDbEntity
  8
VOLL
100
AcDbLine
 10
310.0000000000003
 20
274.9999999999999
 30
0.0
 11
310.0
 21
24.99999999999993
 31
0.0
  0
TEXT
  5
19F
330
20
100
AcDbEntity
  8
TEXT
100
AcDbText
 10
275.7703419389671
 20
46.67890673349525
 30
0.0
 40
10.0
  1
Tag
 41
0.8
  7
GREEKS
 72
     1
 11
285.1036752723004
 21
46.67890673349525
 31
0.0
100
AcDbText
  0
LINE
  5
1A0
330
20
100
AcDbEntity
  8
VOLL
100
AcDbLine
 10
135.0000000000002
 20
275.0000000000001
 30
0.0
 11
134.9999999999999
 21
24.99999999999993
 31
0.0
  0
TEXT
  5
1A1
330
20
100
AcDbEntity
  8
TEXT
100
AcDbText
 10
120.6660276761439
 20
34.13664615067979
 30
0.0
 40
10.0
  1
Index
 50
90.0
 41
0.8
  7
GREEKS
100
AcDbText
  0
TEXT
  5
1A2
330
20
100
AcDbEntity
  8
TEXT
100
AcDbText
 10
167.5645222973732
 20
46.68454737460329
 30
0.0
 40
10.0
  1
Änderung
 41
0.8
  7
GREEKS
 72
     1
 11
194.4216651545161
 21
46.68454737460329
 31
0.0
100
AcDbText
  0
LINE
  5
1A3
330
20
100
AcDbEntity
  8
STEMPEL
100
AcDbLine
 10
364.9999999999997
 20
74.99999999999992
 30
0.0
 11
99.99999999999992
 21
74.99999999999992
 31
0.0
  0
LINE
  5
1A4
330
20
100
AcDbEntity
  8
HILF
100
AcDbLine
 10
100.0000000000002
 20
250.0000000000001
 30
0.0
 11
365.0000000000003
 21
250.0000000000001
 31
0.0
  0
LINE
  5
1A5
330
20
100
AcDbEntity
  8
HILF
100
AcDbLine
 10
100.0000000000002
 20
225.0000000000001
 30
0.0
 11
365.0000000000003
 21
225.0000000000001
 31
0.0
  0
LINE
  5
1A6
330
20
100
AcDbEntity
  8
HILF
100
AcDbLine
 10
100.0000000000002
 20
199.9999999999998
 30
0.0
 11
365.0000000000003
 21
199.9999999999998
 31
0.0
  0
LINE
  5
1A7
330
20
100
AcDbEntity
  8
HILF
100
AcDbLine
 10
100.0000000000002
 20
174.9999999999998
 30
0.0
 11
365.0000000000003
 21
174.9999999999998
 31
0.0
  0
LINE
  5
1A8
330
20
100
AcDbEntity
  8
HILF
100
AcDbLine
 10
100.0000000000002
 20
149.9999999999999
 30
0.0
 11
365.0000000000003
 21
149.9999999999999
 31
0.0
  0
LINE
  5
1A9
330
20
100
AcDbEntity
  8
HILF
100
AcDbLine
 10
100.0000000000002
 20
124.9999999999999
 30
0.0
 11
365.0000000000003
 21
124.9999999999999
 31
0.0
  0
LINE
  5
1AA
330
20
100
AcDbEntity
  8
HILF
100
AcDbLine
 10
100.0000000000002
 20
99.99999999999992
 30
0.0
 11
365.0000000000003
 21
99.99999999999992
 31
0.0
  0
TEXT
  5
1AB
330
20
100
AcDbEntity
  8
TEXT
100
AcDbText
 10
368.9590317919039
 20
159.0747592404491
 30
0.0
 40
10.0
  1
Gez.
 41
0.8
  7
GREEKS
100
AcDbText
  0
TEXT
  5
1AC
330
20
100
AcDbEntity
  8
TEXT
100
AcDbText
 10
368.8787716429181
 20
134.2231572857094
 30
0.0
 40
10.0
  1
Gepr.
 41
0.8
  7
GREEKS
100
AcDbText
  0
TEXT
  5
1AD
330
20
100
AcDbEntity
  8
TEXT
100
AcDbText
 10
369.0016943468259
 20
108.8236597412452
 30
0.0
 40
10.0
  1
Norm.
 41
0.8
  7
GREEKS
100
AcDbText
  0
TEXT
  5
1AE
330
20
100
AcDbEntity
  8
TEXT
100
AcDbText
 10
371.55527455526
 20
182.8506367787916
 30
0.0
 40
10.0
  1
2011
 41
0.8
  7
GREEKS
100
AcDbText
  0
LINE
  5
1AF
330
20
100
AcDbEntity
  8
HILF
100
AcDbLine
 10
77.7191783928464
 20
742.5000000000001
 30
0.0
 11
0.0000000000002842
 21
742.5000000000001
 31
0.0
  0
TEXT
  5
1CB
330
20
100
AcDbEntity
  8
TEXT
100
AcDbText
 10
587.8240977813288
 20
181.8582405213435
 30
0.0
 40
12.5
  1
Muffenlos / Muffe
 41
0.8
  7
GREEKS
100
AcDbText
  0
TEXT
  5
1CC
330
20
100
AcDbEntity
  8
TEXT
100
AcDbText
 10
587.8240977813288
 20
129.100298576054
 30
0.0
 40
12.5
  1
EDV-Art.Nr. 02260.KG0X
 41
0.8
  7
GREEKS
100
AcDbText
  0
LINE
  5
1CD
330
20
100
AcDbEntity
  8
HILF
100
AcDbLine
 10
586.9342002742369
 20
210.0939561891034
 30
0.0
 11
812.0884791390777
 21
210.0939561891034
 31
0.0
  0
LINE
  5
1CE
330
20
100
AcDbEntity
  8
HILF
100
AcDbLine
 10
586.9342002742369
 20
174.9999999999998
 30
0.0
 11
812.0884791390775
 21
174.9999999999998
 31
0.0
  0
LINE
  5
1CF
330
20
100
AcDbEntity
  8
HILF
100
AcDbLine
 10
586.9342002742369
 20
149.9999999999999
 30
0.0
 11
812.0884791390775
 21
149.9999999999999
 31
0.0
  0
LINE
  5
1D0
330
20
100
AcDbEntity
  8
HILF
100
AcDbLine
 10
586.9342002742369
 20
124.9999999999999
 30
0.0
 11
812.0884791390775
 21
124.9999999999999
 31
0.0
  0
TEXT
  5
1D1
330
20
100
AcDbEntity
  8
TEXT
 62
     1
100
AcDbText
 10
588.9294820816727
 20
218.5437197313445
 30
0.0
 40
17.5
  1
Abzweig 45%%d DN300/200
 41
0.7
  7
GREEKS
100
AcDbText
  0
LINE
  5
1D2
330
20
100
AcDbEntity
  8
HILF
100
AcDbLine
 10
583.7274248224712
 20
37.23495645070784
 30
0.0
 11
1012.147209831682
 21
37.23495645070784
 31
0.0
  0
LINE
  5
1D3
330
20
100
AcDbEntity
  8
STEMPEL
100
AcDbLine
 10
575.0
 20
275.0000000000001
 30
0.0
 11
575.0
 21
24.99999999999993
 31
0.0
  0
LINE
  5
1D4
330
20
100
AcDbEntity
  8
VOLL
100
AcDbLine
 10
475.0000000000002
 20
274.9999999999996
 30
0.0
 11
475.0
 21
99.99999999999992
 31
0.0
  0
LINE
  5
1D5
330
20
100
AcDbEntity
  8
VOLL
100
AcDbLine
 10
410.0000000000003
 20
199.9999999999998
 30
0.0
 11
410.0000000000003
 21
99.99999999999992
 31
0.0
  0
TEXT
  5
1D6
330
20
100
AcDbEntity
  8
TEXT
100
AcDbText
 10
425.9974927705902
 20
157.7691260206433
 30
0.0
 40
10.0
  1
05.04.
 41
0.8
  7
GREEKS
 72
     1
 11
443.5213022943996
 21
157.7691260206433
 31
0.0
100
AcDbText
  0
TEXT
  5
1D7
330
20
100
AcDbEntity
  8
TEXT
100
AcDbText
 10
511.0540121453142
 20
157.7240979930877
 30
0.0
 40
10.0
  1
Koeh
 41
0.8
  7
GREEKS
 72
     1
 11
524.1968692881714
 21
157.7240979930877
 31
0.0
100
AcDbText
  0
TEXT
  5
1D8
330
20
100
AcDbEntity
  8
TEXT
100
AcDbText
 10
430.8279182884127
 20
183.2970125307481
 30
0.0
 40
10.0
  1
Tag
 41
0.8
  7
GREEKS
100
AcDbText
  0
TEXT
  5
1D9
330
20
100
AcDbEntity
  8
TEXT
100
AcDbText
 10
506.1566460565737
 20
183.2740272978806
 30
0.0
 40
10.0
  1
Name
 41
0.8
  7
GREEKS
100
AcDbText
  0
TEXT
  5
1DA
330
20
100
AcDbEntity
  8
TEXT
100
AcDbText
 10
485.7147386835128
 20
256.0460421087048
 30
0.0
 40
12.5
  1
Zul. Abw.
 41
0.8
  7
GREEKS
100
AcDbText
  0
TEXT
  5
1DB
330
20
100
AcDbEntity
  8
TEXT
100
AcDbText
 10
587.4593753944567
 20
106.5743538255658
 30
0.0
 40
10.0
  1
02260KG0W.DWG
 41
0.8
  7
GREEKS
100
AcDbText
  0
TEXT
  5
1DC
330
20
100
AcDbEntity
  8
TEXT
100
AcDbText
 10
586.8555959778399
 20
77.11401425482641
 30
0.0
 40
12.5
  1
Bauvorhaben
 41
0.8
  7
GREEKS
100
AcDbText
  0
TEXT
  5
1DD
330
20
100
AcDbEntity
  8
TEXT
100
AcDbText
 10
587.1948509522525
 20
256.3723320029449
 30
0.0
 40
12.5
  1
Benennung
 41
0.8
  7
GREEKS
100
AcDbText
  0
TEXT
  5
1DE
330
20
100
AcDbEntity
  8
TEXT
 62
     1
100
AcDbText
 10
867.8515563435979
 20
220.372535722849
 30
0.0
 40
17.5
  1
02260KG0W
 41
0.8
  7
GREEKS
 72
     1
 11
928.5182230102646
 21
220.372535722849
 31
0.0
100
AcDbText
  0
LINE
  5
1DF
330
20
100
AcDbEntity
  8
VOLL
100
AcDbLine
 10
830.0
 20
150.0
 30
0.0
 11
1025.0
 21
150.0
 31
0.0
  0
LINE
  5
1E0
330
20
100
AcDbEntity
  8
HILF
100
AcDbLine
 10
841.8096540742482
 20
209.4495909238957
 30
0.0
 11
1012.147209831682
 21
209.4495909238957
 31
0.0
  0
TEXT
  5
1E1
330
20
100
AcDbEntity
  8
TEXT
100
AcDbText
 10
840.4468873940851
 20
255.7830086342841
 30
0.0
 40
12.5
  1
Zeichnungs Nr.
 41
0.8
  7
GREEKS
100
AcDbText
  0
TEXT
  5
1E2
330
20
100
AcDbEntity
  8
TEXT
100
AcDbText
 10
841.8096540742482
 20
182.9529559274992
 30
0.0
 40
12.5
  1
Ersatz für:
 41
0.8
  7
GREEKS
100
AcDbText
  0
TEXT
  5
1E3
330
20
100
AcDbEntity
  8
TEXT
100
AcDbText
 10
843.1002153742515
 20
130.185404446965
 30
0.0
 40
12.5
  1
ersetzt durch:
 41
0.8
  7
GREEKS
100
AcDbText
  0
LINE
  5
1E4
330
20
100
AcDbEntity
  8
STEMPEL
100
AcDbLine
 10
830.0
 20
274.9999999999994
 30
0.0
 11
830.0
 21
100.0
 31
0.0
  0
TEXT
  5
1E5
330
20
100
AcDbEntity
  8
TEXT
 62
     1
100
AcDbText
 10
600.0373920362804
 20
323.4720666920996
 30
0.0
 40
17.5
  1
feuerverzinkt und innen beschichtet
 41
0.8
  7
GREEKS
100
AcDbText
  0
TEXT
  5
1E7
330
20
100
AcDbEntity
  8
TEXT
 62
     1
100
AcDbText
 10
480.0373920362803
 20
353.4720666920997
 30
0.0
 40
17.5
  1
Werkstoff: EN 10219 S235, RSt34-2 DIN2394
 41
0.8
  7
GREEKS
100
AcDbText
  0
LINE
  5
1E8
330
20
100
AcDbEntity
  8
STEMPEL
100
AcDbLine
 10
615.3211076172704
 20
734.9363743752489
 30
0.0
 11
615.3211076172704
 21
642.842759455103
 31
0.0
  0
ARC
  5
1E9
330
20
100
AcDbEntity
  8
SCHRAFF
100
AcDbCircle
 10
607.246431384407
 20
744.7514938663378
 30
0.0
 40
10.0
100
AcDbArc
 50
122.2040736903697
 51
125.5939761840914
  0
ARC
  5
1EA
330
20
100
AcDbEntity
  8
SCHRAFF
100
AcDbCircle
 10
596.0966921871768
 20
761.3446662178396
 30
0.0
 40
10.0
100
AcDbArc
 50
284.6612646578193
 51
319.5908261057857
  0
ARC
  5
1EB
330
20
100
AcDbEntity
  8
SCHRAFF
100
AcDbCircle
 10
601.4260565719143
 20
752.8831134493052
 30
0.0
 40
10.0
100
AcDbArc
 50
288.0511671515421
 51
322.9807285995087
  0
ARC
  5
1EC
330
20
100
AcDbEntity
  8
SCHRAFF
100
AcDbCircle
 10
611.7502977933697
 20
736.4154522329637
 30
0.0
 40
5.728247659968576
100
AcDbArc
 50
308.5625482317112
 51
6.437451768287463
  0
INSERT
  5
1ED
330
20
100
AcDbEntity
  8
SCHRAFF
100
AcDbBlockReference
  2
*X4
 10
49.91521485512089
 20
-19.65508049170944
 30
0.0
1001
ACAD
1000
HATCH
1002
{
1070
    16
1000
_U,I
1040
0.1
1040
0.0
1070
     0
1002
}
  0
ARC
  5
1EE
330
20
100
AcDbEntity
  8
SCHRAFF
100
AcDbCircle
 10
607.246431384407
 20
744.7514938663378
 30
0.0
 40
10.0
100
AcDbArc
 50
291.4410696452654
 51
326.370631093232
  0
LINE
  5
1EF
330
20
100
AcDbEntity
  8
STEMPEL
100
AcDbLine
 10
615.3211076172704
 20
1192.842759455103
 30
0.0
 11
291.4211076172703
 21
1192.842759455103
 31
0.0
  0
LINE
  5
1F0
330
20
100
AcDbEntity
  8
STEMPEL
100
AcDbLine
 10
1025.0
 20
1460.0
 30
0.0
 11
99.99999999999971
 21
1460.0
 31
0.0
  0
LINE
  5
1F1
330
20
100
AcDbEntity
  8
HILF
100
AcDbLine
 10
1050.0
 20
1485.0
 30
0.0
 11
0.0
 21
1485.0
 31
0.0
  0
LINE
  5
1F2
330
20
100
AcDbEntity
  8
HILF
  6
Continuous
100
AcDbLine
 10
681.4859979664063
 20
1115.399561418517
 30
0.0
 11
840.9279095806848
 21
955.9576498042389
 31
0.0
  0
LINE
  5
1F3
330
20
100
AcDbEntity
  8
HILF
  6
Continuous
100
AcDbLine
 10
656.7598410722577
 20
1088.485845688683
 30
0.0
 11
814.0141938508506
 21
931.2314929100899
 31
0.0
  0
LINE
  5
1F4
330
20
100
AcDbEntity
  8
HILF
  6
Continuous
100
AcDbLine
 10
653.7203434579212
 20
1079.762416826542
 30
0.0
 11
805.2907649887108
 21
928.1919952957524
 31
0.0
  0
LINE
  5
1F5
330
20
100
AcDbEntity
  8
STEMPEL
  6
Continuous
100
AcDbLine
 10
734.5067052934812
 20
1175.027146401036
 30
0.0
 11
900.5554945632031
 21
1008.978357131314
 31
0.0
  0
LINE
  5
1F6
102
{ACAD_REACTORS
330
347
102
}
330
20
100
AcDbEntity
  8
MITTEL
100
AcDbLine
 10
821.066633834275
 20
1095.538285672107
 30
0.0
 11
526.1774145808374
 21
800.6490664186699
 31
0.0
  0
ARC
  5
1F7
330
20
100
AcDbEntity
  8
STEMPEL
100
AcDbCircle
 10
1051.448708329552
 20
847.1639750875292
 30
0.0
 40
478.7563850798554
100
AcDbArc
 50
155.6382637091252
 51
180.0
  0
ARC
  5
1F8
330
20
100
AcDbEntity
  8
SCHRAFF
100
AcDbCircle
 10
599.1812950665201
 20
1004.204935206526
 30
0.0
 40
10.0
100
AcDbArc
 50
233.9637825858603
 51
268.880777432761
  0
ARC
  5
1F9
330
20
100
AcDbEntity
  8
SCHRAFF
100
AcDbCircle
 10
591.2769881888177
 20
770.1065412094269
 30
0.0
 40
10.0
100
AcDbArc
 50
281.2713621640961
 51
316.2009236120623
  0
ARC
  5
1FA
330
20
100
AcDbEntity
  8
SCHRAFF
100
AcDbCircle
 10
580.0352372752542
 20
797.8828724672593
 30
0.0
 40
10.0
100
AcDbArc
 50
271.1016546829276
 51
306.031216130894
  0
ARC
  5
1FB
330
20
100
AcDbEntity
  8
SCHRAFF
100
AcDbCircle
 10
601.4260565719143
 20
752.8831134493052
 30
0.0
 40
10.0
100
AcDbArc
 50
118.8141711966465
 51
122.2040736903683
  0
ARC
  5
1FC
330
20
100
AcDbEntity
  8
SCHRAFF
100
AcDbCircle
 10
583.2321844522737
 20
788.4076664670001
 30
0.0
 40
10.0
100
AcDbArc
 50
274.49155717665
 51
309.4211186246164
  0
ARC
  5
1FD
330
20
100
AcDbEntity
  8
SCHRAFF
100
AcDbCircle
 10
596.0966921871768
 20
761.3446662178396
 30
0.0
 40
10.0
100
AcDbArc
 50
115.4242687029273
 51
118.8141711966413
  0
ARC
  5
1FE
330
20
100
AcDbEntity
  8
SCHRAFF
100
AcDbCircle
 10
586.9838109934782
 20
779.1380764925013
 30
0.0
 40
10.0
100
AcDbArc
 50
277.8814596703729
 51
312.8110211183397
  0
ARC
  5
1FF
330
20
100
AcDbEntity
  8
SCHRAFF
100
AcDbCircle
 10
575.3481512801477
 20
817.316896181544
 30
0.0
 40
10.0
100
AcDbArc
 50
264.3218496954815
 51
299.2514111434475
  0
ARC
  5
200
330
20
100
AcDbEntity
  8
SCHRAFF
100
AcDbCircle
 10
573.8744147857824
 20
827.2077050840136
 30
0.0
 40
10.0
100
AcDbArc
 50
260.9319472017578
 51
295.8615086497239
  0
ARC
  5
201
330
20
100
AcDbEntity
  8
SCHRAFF
100
AcDbCircle
 10
577.4041570878612
 20
807.5305362801991
 30
0.0
 40
10.0
100
AcDbArc
 50
98.47475623430636
 51
101.8646587280315
  0
ARC
  5
202
330
20
100
AcDbEntity
  8
SCHRAFF
100
AcDbCircle
 10
580.0352372752542
 20
797.8828724672593
 30
0.0
 40
10.0
100
AcDbArc
 50
101.8646587280355
 51
105.2545612217488
  0
ARC
  5
203
330
20
100
AcDbEntity
  8
SCHRAFF
100
AcDbCircle
 10
583.2321844522737
 20
788.4076664670001
 30
0.0
 40
10.0
100
AcDbArc
 50
105.2545612217562
 51
108.6444637154741
  0
ARC
  5
204
330
20
100
AcDbEntity
  8
SCHRAFF
100
AcDbCircle
 10
577.4041570878612
 20
807.5305362801991
 30
0.0
 40
10.0
100
AcDbArc
 50
267.7117521892045
 51
302.6413136371705
  0
ARC
  5
205
330
20
100
AcDbEntity
  8
SCHRAFF
100
AcDbCircle
 10
572.9881049035827
 20
837.1683503840289
 30
0.0
 40
10.0
100
AcDbArc
 50
257.5420447080347
 51
292.4716061560011
  0
ARC
  5
206
330
20
100
AcDbEntity
  8
SCHRAFF
100
AcDbCircle
 10
575.3481512801477
 20
817.316896181544
 30
0.0
 40
10.0
100
AcDbArc
 50
95.08485374058208
 51
98.47475623430968
  0
ARC
  5
207
330
20
100
AcDbEntity
  8
SCHRAFF
100
AcDbCircle
 10
573.8744147857824
 20
827.2077050840136
 30
0.0
 40
10.0
100
AcDbArc
 50
91.69495124685928
 51
95.08485374058725
  0
ARC
  5
208
330
20
100
AcDbEntity
  8
SCHRAFF
100
AcDbCircle
 10
572.9881049035827
 20
837.1683503840289
 30
0.0
 40
10.0
100
AcDbArc
 50
89.40160776017345
 51
91.69495124686775
  0
ARC
  5
209
330
20
100
AcDbEntity
  8
SCHRAFF
100
AcDbCircle
 10
572.6923232496964
 20
847.1639750875292
 30
0.0
 40
10.0
100
AcDbArc
 50
254.1521422143124
 51
289.0817036622787
  0
ARC
  5
20A
330
20
100
AcDbEntity
  8
SCHRAFF
100
AcDbCircle
 10
572.7967604991165
 20
857.1634297157043
 30
0.0
 40
10.0
100
AcDbArc
 50
251.9155497804768
 51
286.8325446273777
  0
ARC
  5
20B
330
20
100
AcDbEntity
  8
SCHRAFF
100
AcDbCircle
 10
572.7967604991165
 20
857.1634297157043
 30
0.0
 40
10.0
100
AcDbArc
 50
87.00803880091992
 51
88.20482328051518
  0
ARC
  5
20C
330
20
100
AcDbEntity
  8
SCHRAFF
100
AcDbCircle
 10
573.1100266829123
 20
867.1585217261908
 30
0.0
 40
10.0
100
AcDbArc
 50
85.81125432128615
 51
87.00803880086709
  0
ARC
  5
20D
330
20
100
AcDbEntity
  8
SCHRAFF
100
AcDbCircle
 10
573.6319851275709
 20
877.1448904046469
 30
0.0
 40
10.0
100
AcDbArc
 50
249.5219808211941
 51
284.4389756680953
  0
ARC
  5
20E
330
20
100
AcDbEntity
  8
SCHRAFF
100
AcDbCircle
 10
574.3624081101581
 20
887.118178842595
 30
0.0
 40
10.0
100
AcDbArc
 50
248.3251963415533
 51
283.2421911884542
  0
ARC
  5
20F
330
20
100
AcDbEntity
  8
SCHRAFF
100
AcDbCircle
 10
572.6923232496964
 20
847.1639750875292
 30
0.0
 40
10.0
100
AcDbArc
 50
88.20482328054646
 51
89.40160776017085
  0
ARC
  5
210
330
20
100
AcDbEntity
  8
SCHRAFF
100
AcDbCircle
 10
573.1100266829123
 20
867.1585217261908
 30
0.0
 40
10.0
100
AcDbArc
 50
250.7187653008354
 51
285.6357601477366
  0
ARC
  5
211
330
20
100
AcDbEntity
  8
SCHRAFF
100
AcDbCircle
 10
576.4472821860761
 20
907.0081177950228
 30
0.0
 40
10.0
100
AcDbArc
 50
245.9316273822715
 51
280.8486222291728
  0
ARC
  5
212
330
20
100
AcDbEntity
  8
SCHRAFF
100
AcDbCircle
 10
577.8008236789474
 20
916.9160906162954
 30
0.0
 40
10.0
100
AcDbArc
 50
244.7348429026297
 51
279.6518377495313
  0
ARC
  5
213
330
20
100
AcDbEntity
  8
SCHRAFF
100
AcDbCircle
 10
575.3009769576727
 20
897.0740358382773
 30
0.0
 40
10.0
100
AcDbArc
 50
247.1284118619123
 51
282.0454067088132
  0
ARC
  5
214
330
20
100
AcDbEntity
  8
SCHRAFF
100
AcDbCircle
 10
575.3009769576727
 20
897.0740358382773
 30
0.0
 40
10.0
100
AcDbArc
 50
82.22090088233899
 51
83.41768536196731
  0
ARC
  5
215
330
20
100
AcDbEntity
  8
SCHRAFF
100
AcDbCircle
 10
581.1271631790953
 20
936.6364313074063
 30
0.0
 40
10.0
100
AcDbArc
 50
242.3412739433477
 51
277.2582687902491
  0
ARC
  5
216
330
20
100
AcDbEntity
  8
SCHRAFF
100
AcDbCircle
 10
579.3610109056744
 20
926.7936315965979
 30
0.0
 40
10.0
100
AcDbArc
 50
243.5380584229892
 51
278.4550532698899
  0
ARC
  5
217
330
20
100
AcDbEntity
  8
SCHRAFF
100
AcDbCircle
 10
577.8008236789474
 20
916.9160906162954
 30
0.0
 40
10.0
100
AcDbArc
 50
79.82733192304556
 51
81.02411640269652
  0
ARC
  5
218
330
20
100
AcDbEntity
  8
SCHRAFF
100
AcDbCircle
 10
579.3610109056744
 20
926.7936315965979
 30
0.0
 40
10.0
100
AcDbArc
 50
78.63054744342822
 51
79.82733192303175
  0
ARC
  5
219
330
20
100
AcDbEntity
  8
SCHRAFF
100
AcDbCircle
 10
576.4472821860761
 20
907.0081177950228
 30
0.0
 40
10.0
100
AcDbArc
 50
81.02411640267403
 51
82.22090088235022
  0
ARC
  5
21A
330
20
100
AcDbEntity
  8
SCHRAFF
100
AcDbCircle
 10
583.0985099524716
 20
946.4401954773107
 30
0.0
 40
10.0
100
AcDbArc
 50
241.1444894637068
 51
276.0614843106083
  0
ARC
  5
21B
330
20
100
AcDbEntity
  8
SCHRAFF
100
AcDbCircle
 10
583.0985099524716
 20
946.4401954773107
 30
0.0
 40
10.0
100
AcDbArc
 50
76.23697848413373
 51
77.43376296376123
  0
ARC
  5
21C
330
20
100
AcDbEntity
  8
SCHRAFF
100
AcDbCircle
 10
585.2741911556675
 20
956.2006468655438
 30
0.0
 40
10.0
100
AcDbArc
 50
75.04019400449113
 51
76.23697848412174
  0
ARC
  5
21D
330
20
100
AcDbEntity
  8
SCHRAFF
100
AcDbCircle
 10
590.2346712442936
 20
975.574598675489
 30
0.0
 40
10.0
100
AcDbArc
 50
237.5541360247829
 51
272.4711308716837
  0
ARC
  5
21E
330
20
100
AcDbEntity
  8
SCHRAFF
100
AcDbCircle
 10
581.1271631790953
 20
936.6364313074063
 30
0.0
 40
10.0
100
AcDbArc
 50
77.43376296376928
 51
78.6305474434083
  0
ARC
  5
21F
330
20
100
AcDbEntity
  8
SCHRAFF
100
AcDbCircle
 10
587.6532575703845
 20
965.9135271280799
 30
0.0
 40
10.0
100
AcDbArc
 50
238.7509205044243
 51
273.6679153513255
  0
ARC
  5
220
330
20
100
AcDbEntity
  8
SCHRAFF
100
AcDbCircle
 10
585.2741911556675
 20
956.2006468655438
 30
0.0
 40
10.0
100
AcDbArc
 50
239.9477049840656
 51
274.8646998309666
  0
ARC
  5
221
330
20
100
AcDbEntity
  8
SCHRAFF
100
AcDbCircle
 10
593.0173059438772
 20
985.1796465217347
 30
0.0
 40
10.0
100
AcDbArc
 50
71.44984056556984
 51
72.64662504519638
  0
ARC
  5
222
330
20
100
AcDbEntity
  8
SCHRAFF
100
AcDbCircle
 10
590.2346712442936
 20
975.574598675489
 30
0.0
 40
10.0
100
AcDbArc
 50
72.64662504520114
 51
73.84340952484809
  0
ARC
  5
223
330
20
100
AcDbEntity
  8
SCHRAFF
100
AcDbCircle
 10
587.6532575703845
 20
965.9135271280799
 30
0.0
 40
10.0
100
AcDbArc
 50
73.84340952483118
 51
75.04019400449998
  0
ARC
  5
224
330
20
100
AcDbEntity
  8
SCHRAFF
100
AcDbCircle
 10
593.0173059438772
 20
985.1796465217347
 30
0.0
 40
10.0
100
AcDbArc
 50
236.3573515451426
 51
271.2743463920436
  0
ARC
  5
225
330
20
100
AcDbEntity
  8
SCHRAFF
100
AcDbCircle
 10
595.9999476457905
 20
994.7244801231134
 30
0.0
 40
10.0
100
AcDbArc
 50
235.1605670655017
 51
270.0775619124025
  0
ARC
  5
249
330
20
100
AcDbEntity
  8
SCHRAFF
100
AcDbCircle
 10
602.559960230116
 20
1013.616875586294
 30
0.0
 40
10.0
100
AcDbArc
 50
232.7669981062192
 51
267.6839929531201
  0
ARC
  5
24A
330
20
100
AcDbEntity
  8
STEMPEL
  6
Continuous
100
AcDbCircle
 10
663.3283969495098
 20
1125.749031226726
 30
0.0
 40
18.0
100
AcDbArc
 50
314.9999999999999
 51
345.6354476581463
  0
LINE
  5
24B
330
20
100
AcDbEntity
  8
STEMPEL
100
AcDbLine
 10
615.3211076172701
 20
1192.842759455103
 30
0.0
 11
615.3211076172699
 21
1044.649144534956
 31
0.0
  0
LINE
  5
24C
330
20
100
AcDbEntity
  8
STEMPEL
  6
Continuous
100
AcDbLine
 10
649.3810049180799
 20
1078.709041835766
 30
0.0
 11
615.3211076172699
 21
1044.649144534956
 31
0.0
  0
ARC
  5
24D
330
20
100
AcDbEntity
  8
SCHRAFF
100
AcDbCircle
 10
602.559960230116
 20
1013.616875586294
 30
0.0
 40
10.0
100
AcDbArc
 50
67.85948712667056
 51
69.0562716062493
  0
ARC
  5
24E
330
20
100
AcDbEntity
  8
SCHRAFF
100
AcDbCircle
 10
599.1812950665201
 20
1004.204935206526
 30
0.0
 40
10.0
100
AcDbArc
 50
69.05627160627796
 51
70.25305608592373
  0
ARC
  5
24F
330
20
100
AcDbEntity
  8
SCHRAFF
100
AcDbCircle
 10
595.9999476457905
 20
994.7244801231134
 30
0.0
 40
10.0
100
AcDbArc
 50
70.25305608590169
 51
71.44984056558242
  0
ARC
  5
250
330
20
100
AcDbEntity
  8
SCHRAFF
100
AcDbCircle
 10
606.1344690737467
 20
1022.956194968712
 30
0.0
 40
10.0
100
AcDbArc
 50
231.5702136265777
 51
266.4872084734784
  0
ARC
  5
251
330
20
100
AcDbEntity
  8
SCHRAFF
100
AcDbCircle
 10
609.9032620908103
 20
1032.218818743569
 30
0.0
 40
10.0
100
AcDbArc
 50
230.3734291469365
 51
265.2904239938376
  0
INSERT
  5
252
330
20
100
AcDbEntity
  8
SCHRAFF
100
AcDbBlockReference
  2
*X3
 10
49.91521485512089
 20
-19.65508049170944
 30
0.0
1001
ACAD
1000
HATCH
1002
{
1070
    16
1000
_U,I
1040
0.1
1040
0.0
1070
     0
1002
}
  0
ARC
  5
253
330
20
100
AcDbEntity
  8
SCHRAFF
100
AcDbCircle
 10
615.3211076172699
 20
1044.649144534956
 30
0.0
 40
6.0
100
AcDbArc
 50
45.0
 51
90.0
  0
ARC
  5
254
330
20
100
AcDbEntity
  8
SCHRAFF
100
AcDbCircle
 10
618.0170395192861
 20
1050.49785009875
 30
0.0
 40
10.0
100
AcDbArc
 50
227.9798601876577
 51
262.8968550345591
  0
ARC
  5
255
330
20
100
AcDbEntity
  8
SCHRAFF
100
AcDbCircle
 10
613.8646950113245
 20
1041.400705761838
 30
0.0
 40
10.0
100
AcDbArc
 50
229.1766446672951
 51
264.0936395141963
  0
ARC
  5
256
330
20
100
AcDbEntity
  8
STEMPEL
  6
Continuous
100
AcDbCircle
 10
672.6813383071934
 20
1080.089065008097
 30
0.0
 40
20.9
100
AcDbArc
 50
134.9999999999999
 51
169.3868930268838
  0
ARC
  5
257
330
20
100
AcDbEntity
  8
STEMPEL
  6
Continuous
100
AcDbCircle
 10
642.3099371062146
 20
1085.780109647632
 30
0.0
 40
10.0
100
AcDbArc
 50
315.0
 51
349.3868930268837
  0
LINE
  5
258
330
20
100
AcDbEntity
  8
STEMPEL
  6
Continuous
100
AcDbLine
 10
676.0563190108671
 20
1113.021109165369
 30
0.0
 11
657.9028065803948
 21
1094.867596734896
 31
0.0
  0
ARC
  5
259
330
20
100
AcDbEntity
  8
STEMPEL
  6
Continuous
100
AcDbCircle
 10
722.3244701887213
 20
1110.640313797588
 30
0.0
 40
42.9
100
AcDbArc
 50
135.0
 51
165.6354476581464
  0
ARC
  5
25A
330
20
100
AcDbEntity
  8
STEMPEL
  6
Continuous
100
AcDbCircle
 10
745.1534225267517
 20
1133.469266135618
 30
0.0
 40
42.9
100
AcDbArc
 50
104.3695577484716
 51
135.0
  0
LINE
  5
25B
330
20
100
AcDbEntity
  8
STEMPEL
  6
Continuous
100
AcDbLine
 10
714.8185416138487
 20
1163.804147048521
 30
0.0
 11
691.9895892758184
 21
1140.975194710491
 31
0.0
  0
ARC
  5
25C
330
20
100
AcDbEntity
  8
STEMPEL
  6
Continuous
100
AcDbCircle
 10
858.9976142977857
 20
1019.625074364584
 30
0.0
 40
42.9
100
AcDbArc
 50
315.0
 51
345.6304422515284
  0
ARC
  5
25D
330
20
100
AcDbEntity
  8
STEMPEL
  6
Continuous
100
AcDbCircle
 10
836.1686619597556
 20
996.7961220265536
 30
0.0
 40
42.9
100
AcDbArc
 50
284.3645523418534
 51
315.0
  0
LINE
  5
25E
330
20
100
AcDbEntity
  8
STEMPEL
  6
Continuous
100
AcDbLine
 10
838.5494573275357
 20
950.5279708486996
 30
0.0
 11
820.3959448970634
 21
932.3744584182271
 31
0.0
  0
ARC
  5
25F
330
20
100
AcDbEntity
  8
STEMPEL
  6
Continuous
100
AcDbCircle
 10
811.3084578098003
 20
916.7815889440474
 30
0.0
 40
10.0
100
AcDbArc
 50
100.6131069731177
 51
135.0
  0
ARC
  5
260
330
20
100
AcDbEntity
  8
STEMPEL
  6
Continuous
100
AcDbCircle
 10
805.6174131702643
 20
947.1529901450256
 30
0.0
 40
20.9
100
AcDbArc
 50
280.6131069731178
 51
315.0
  0
ARC
  5
261
330
20
100
AcDbEntity
  8
STEMPEL
  6
Continuous
100
AcDbCircle
 10
851.2773793888939
 20
937.8000487873418
 30
0.0
 40
18.0
100
AcDbArc
 50
104.3645523418536
 51
135.0
  0
LINE
  5
262
330
20
100
AcDbEntity
  8
STEMPEL
  6
Continuous
100
AcDbLine
 10
889.3324952106883
 20
989.2901934516808
 30
0.0
 11
866.5035428726584
 21
966.4612411136507
 31
0.0
  0
LINE
  5
264
330
20
100
AcDbEntity
  8
MITTEL
100
AcDbLine
 10
615.32110761727
 20
896.8638272669679
 30
0.0
 11
615.32110761727
 21
882.7216916432369
 31
0.0
  0
TEXT
  5
26C
330
20
100
AcDbEntity
  8
TEXT
 62
     1
100
AcDbText
 10
443.4350933198373
 20
920.4575092591312
 30
0.0
 40
17.5
  1
DN300
 50
90.0
 41
0.8
  7
GREEKS
100
AcDbText
  0
TEXT
  5
26D
330
20
100
AcDbEntity
  8
TEXT
 62
     1
100
AcDbText
 10
659.0336423926393
 20
950.4043706722752
 30
0.0
 40
17.5
  1
DN200
 50
45.0
 41
0.8
  7
GREEKS
100
AcDbText
  0
TEXT
  5
29E
330
20
100
AcDbEntity
  8
BEM
100
AcDbText
 10
1043.255730964291
 20
25.41975269997152
 30
0.0
 40
10.0
  1
Diese Zeichnung ist urheberrechtlich geschützt und bleibt unser Eigentum. Sie darf weder ganz noch teilweise verfielfältigt und nicht an Dritte weitergegeben werden.
 50
90.0
 41
0.8
  7
GREEKS
100
AcDbText
  0
DIMENSION
  5
32C
102
{ACAD_XDICTIONARY
360
33B
102
}
102
{ACAD_REACTORS
330
347
102
}
330
20
100
AcDbEntity
  8
BEM
100
AcDbDimension
  2
*D15
 10
453.3711076172705
 20
632.8427594551031
 30
0.0
 11
675.2863314701851
 21
1263.593502577871
 31
0.0
 70
    34
 71
     5
 42
0.7853981633974483
  3
Standard
100
AcDb2LineAngularDimension
 13
821.066633834275
 23
1095.538285672107
 33
0.0
 14
526.1774145808374
 24
800.6490664186699
 34
0.0
 15
453.3711076172703
 25
1202.842759455103
 35
0.0
 16
735.1923204457395
 26
1215.971418724693
 36
0.0
1001
ACAD
1000
DSTYLE
1002
{
1070
    40
1040
5.0
1070
    41
1040
3.5
1070
    42
1040
1.0
1070
    43
1040
7.0
1070
    44
1040
1.0
1070
    47
1040
5.0
1070
    48
1040
5.0
1070
    73
1070
     0
1070
    74
1070
     0
1070
    77
1070
     1
1070
    78
1070
     8
1070
    79
1070
     2
1070
   140
1040
3.5
1070
   141
1040
1.5
1070
   146
1040
0.5
1070
   147
1040
1.5
1070
   172
1070
     1
1070
   178
1070
     1
1070
   179
1070
     2
1070
   271
1070
     2
1070
   272
1070
     2
1070
   284
1070
     8
1070
   285
1070
     8
1070
   286
1070
     8
1070
   340
1005
39
1002
}
  0
ENDSEC
  0
SECTION
  2
OBJECTS
  0
DICTIONARY
  5
C
330
0
100
AcDbDictionary
281
     1
  3
ACAD_COLOR
350
1B
  3
ACAD_GROUP
350
D
  3
ACAD_LAYOUT
350
19
  3
ACAD_MATERIAL
350
1A
  3
ACAD_MLINESTYLE
350
16
  3
ACAD_PLOTSETTINGS
350
18
  3
ACAD_PLOTSTYLENAME
350
E
  3
AcDbVariableDictionary
350
2BF
  0
DICTIONARY
  5
33B
330
32C
100
AcDbDictionary
280
     1
281
     1
  3
ACAD_DIMASSOC
360
347
  0
DICTIONARY
  5
1B
102
{ACAD_REACTORS
330
C
102
}
330
C
100
AcDbDictionary
281
     1
  0
DICTIONARY
  5
D
102
{ACAD_REACTORS
330
C
102
}
330
C
100
AcDbDictionary
281
     1
  0
DICTIONARY
  5
19
102
{ACAD_REACTORS
330
C
102
}
330
C
100
AcDbDictionary
281
     1
  3
Layout1
350
1F
  3
Model
350
23
  0
DICTIONARY
  5
1A
102
{ACAD_REACTORS
330
C
102
}
330
C
100
AcDbDictionary
281
     1
  0
DICTIONARY
  5
16
102
{ACAD_REACTORS
330
C
102
}
330
C
100
AcDbDictionary
281
     1
  3
Standard
350
17
  0
DICTIONARY
  5
18
102
{ACAD_REACTORS
330
C
102
}
330
C
100
AcDbDictionary
281
     1
  0
ACDBDICTIONARYWDFLT
  5
E
102
{ACAD_REACTORS
330
C
102
}
330
C
100
AcDbDictionary
281
     1
  3
Normal
350
F
100
AcDbDictionaryWithDefault
340
F
  0
DICTIONARY
  5
2BF
102
{ACAD_REACTORS
330
C
102
}
330
C
100
AcDbDictionary
281
     1
  3
DIMASSOC
350
2C1
  3
HIDETEXT
350
2C0
  3
PROJECTNAME
350
2C2
  0
DIMASSOC
  5
347
102
{ACAD_REACTORS
330
33B
102
}
330
33B
100
AcDbDimAssoc
330
32C
 90
       15
 70
     0
 71
     0
  1
AcDbOsnapPointRef
 72
    13
331
1F6
 73
     2
 91
        0
 40
0.0
 10
0.0
 20
0.0
 30
2.000000000000000E+50
 75
     0
  1
AcDbOsnapPointRef
 72
     1
331
1F6
 73
     2
 91
        0
 40
0.9999999999999998
 10
0.0
 20
0.0
 30
2.000000000000000E+50
 75
     0
  1
AcDbOsnapPointRef
 72
    13
331
186
 73
     2
 91
        0
 40
0.0
 10
0.0
 20
0.0
 30
2.000000000000000E+50
 75
     0
  1
AcDbOsnapPointRef
 72
     1
331
186
 73
     2
 91
        0
 40
1.0
 10
0.0
 20
0.0
 30
2.000000000000000E+50
 75
     0
  0
LAYOUT
  5
1F
102
{ACAD_REACTORS
330
19
102
}
330
19
100
AcDbPlotSettings
  1

  2
RICOH Aficio 2027 PCL 6
  4

  6

 40
0.0
 41
0.0
 42
0.0
 43
0.0
 44
0.0
 45
0.0
 46
0.0
 47
0.0
 48
0.0
 49
0.0
140
0.0
141
0.0
142
1.0
143
1.0
 70
   688
 72
     0
 73
     0
 74
     5
  7
monochrome1.ctb
 75
    16
147
1.0
 76
     0
 77
     2
 78
   300
148
0.0
149
0.0
100
AcDbLayout
  1
Layout1
 70
     0
 71
     1
 10
0.0
 20
0.0
 11
12.0
 21
9.0
 12
5.612848867200749
 22
50.00000000000001
 32
-2.581058165936445
 14
1.000000000000000E+20
 24
1.000000000000000E+20
 34
1.000000000000000E+20
 15
-1.000000000000000E+20
 25
-1.000000000000000E+20
 35
-1.000000000000000E+20
146
0.0
 13
0.0
 23
0.0
 33
0.0
 16
1.0
 26
0.0
 36
0.0
 17
0.0
 27
1.0
 37
0.0
 76
     0
330
1C
  0
LAYOUT
  5
23
102
{ACAD_REACTORS
330
19
102
}
330
19
100
AcDbPlotSettings
  1

  2
RICOH Aficio 2027 PCL 6
  4
A4
  6

 40
5.027083396911621
 41
5.027085304260253
 42
5.027084350585937
 43
5.027069091796875
 44
209.9733276367187
 45
296.9259948730469
 46
0.0
 47
0.0
 48
0.0
 49
0.0
140
0.0
141
0.0
142
1.0
143
1.0
 70
 11952
 72
     0
 73
     1
 74
     0
  7
monochrome1.ctb
 75
     0
147
1.0
 76
     0
 77
     2
 78
   300
148
5749.737974108374
149
225.2379483828901
100
AcDbLayout
  1
Model
 70
     1
 71
     0
 10
0.0
 20
0.0
 11
12.0
 21
9.0
 12
0.0
 22
0.0
 32
0.0
 14
0.0
 24
0.0
 34
0.0
 15
0.0
 25
0.0
 35
0.0
146
0.0
 13
0.0
 23
0.0
 33
0.0
 16
1.0
 26
0.0
 36
0.0
 17
0.0
 27
1.0
 37
0.0
 76
     0
330
20
  0
MLINESTYLE
  5
17
102
{ACAD_REACTORS
330
16
102
}
330
16
100
AcDbMlineStyle
  2
STANDARD
 70
     0
  3

 62
   256
 51
90.0
 52
90.0
 71
     2
 49
0.5
 62
   256
  6
BYLAYER
 49
-0.5
 62
   256
  6
BYLAYER
  0
ACDBPLACEHOLDER
  5
F
102
{ACAD_REACTORS
330
E
102
}
330
E
  0
DICTIONARYVAR
  5
2C1
102
{ACAD_REACTORS
330
2BF
102
}
330
2BF
100
DictionaryVariables
280
     0
  1
2
  0
DICTIONARYVAR
  5
2C0
102
{ACAD_REACTORS
330
2BF
102
}
330
2BF
100
DictionaryVariables
280
     0
  1
1
  0
DICTIONARYVAR
  5
2C2
102
{ACAD_REACTORS
330
2BF
102
}
330
2BF
100
DictionaryVariables
280
     0
  1

  0
ENDSEC
  0
EOF
