  0
SECTION
  2
HEADER
  9
$ACADVER
  1
AC1018
  9
$ACADMAINTVER
 70
     2
  9
$DWGCODEPAGE
  3
ANSI_1252
  9
$INSBASE
 10
0.0
 20
0.0
 30
0.0
  9
$EXTMIN
 10
-0.0160104821884488
 20
-0.022643396237072
 30
-0.0000000000112498
  9
$EXTMAX
 10
1050.016025151412
 20
1485.022664142714
 30
0.0000000000002956
  9
$LIMMIN
 10
0.0
 20
0.0
  9
$LIMMAX
 10
1050.0
 20
1485.0
  9
$ORTHOMODE
 70
     0
  9
$REGENMODE
 70
     1
  9
$FILLMODE
 70
     1
  9
$QTEXTMODE
 70
     0
  9
$MIRRTEXT
 70
     1
  9
$LTSCALE
 40
50.0
  9
$ATTMODE
 70
     1
  9
$TEXTSIZE
 40
2.5
  9
$TRACEWID
 40
0.5
  9
$TEXTSTYLE
  7
GREEKS
  9
$CLAYER
  8
BEM
  9
$CELTYPE
  6
ByLayer
  9
$CECOLOR
 62
   256
  9
$CELTSCALE
 40
1.0
  9
$DISPSILH
 70
     0
  9
$DIMSCALE
 40
5.0
  9
$DIMASZ
 40
3.5
  9
$DIMEXO
 40
1.0
  9
$DIMDLI
 40
7.0
  9
$DIMRND
 40
0.0
  9
$DIMDLE
 40
0.0
  9
$DIMEXE
 40
1.0
  9
$DIMTP
 40
4.0
  9
$DIMTM
 40
4.0
  9
$DIMTXT
 40
3.5
  9
$DIMCEN
 40
1.5
  9
$DIMTSZ
 40
0.0
  9
$DIMTOL
 70
     0
  9
$DIMLIM
 70
     0
  9
$DIMTIH
 70
     0
  9
$DIMTOH
 70
     0
  9
$DIMSE1
 70
     0
  9
$DIMSE2
 70
     0
  9
$DIMTAD
 70
     1
  9
$DIMZIN
 70
     8
  9
$DIMBLK
  1

  9
$DIMASO
 70
     1
  9
$DIMSHO
 70
     0
  9
$DIMPOST
  1

  9
$DIMAPOST
  1

  9
$DIMALT
 70
     0
  9
$DIMALTD
 70
     2
  9
$DIMALTF
 40
25.4
  9
$DIMLFAC
 40
1.0
  9
$DIMTOFL
 70
     1
  9
$DIMTVP
 40
0.0
  9
$DIMTIX
 70
     0
  9
$DIMSOXD
 70
     0
  9
$DIMSAH
 70
     0
  9
$DIMBLK1
  1

  9
$DIMBLK2
  1

  9
$DIMSTYLE
  2
Standard
  9
$DIMCLRD
 70
     0
  9
$DIMCLRE
 70
     0
  9
$DIMCLRT
 70
     1
  9
$DIMTFAC
 40
0.5
  9
$DIMGAP
 40
1.5
  9
$DIMJUST
 70
     0
  9
$DIMSD1
 70
     0
  9
$DIMSD2
 70
     0
  9
$DIMTOLJ
 70
     1
  9
$DIMTZIN
 70
     8
  9
$DIMALTZ
 70
     8
  9
$DIMALTTZ
 70
     8
  9
$DIMUPT
 70
     0
  9
$DIMDEC
 70
     2
  9
$DIMTDEC
 70
     2
  9
$DIMALTU
 70
     2
  9
$DIMALTTD
 70
     2
  9
$DIMTXSTY
  7
GREEKS
  9
$DIMAUNIT
 70
     0
  9
$DIMADEC
 70
     2
  9
$DIMALTRND
 40
0.0
  9
$DIMAZIN
 70
     2
  9
$DIMDSEP
 70
    46
  9
$DIMATFIT
 70
     3
  9
$DIMFRAC
 70
     0
  9
$DIMLDRBLK
  1

  9
$DIMLUNIT
 70
     2
  9
$DIMLWD
 70
    -2
  9
$DIMLWE
 70
    -2
  9
$DIMTMOVE
 70
     0
  9
$LUNITS
 70
     2
  9
$LUPREC
 70
     2
  9
$SKETCHINC
 40
1.0
  9
$FILLETRAD
 40
0.0
  9
$AUNITS
 70
     0
  9
$AUPREC
 70
     0
  9
$MENU
  1
ACAD
  9
$ELEVATION
 40
0.0
  9
$PELEVATION
 40
0.0
  9
$THICKNESS
 40
0.0
  9
$LIMCHECK
 70
     0
  9
$CHAMFERA
 40
0.0
  9
$CHAMFERB
 40
0.0
  9
$CHAMFERC
 40
0.0
  9
$CHAMFERD
 40
0.0
  9
$SKPOLY
 70
     0
  9
$TDCREATE
 40
2452216.000410648
  9
$TDUCREATE
 40
2452215.917077315
  9
$TDUPDATE
 40
2455657.578949514
  9
$TDUUPDATE
 40
2455657.495616180
  9
$TDINDWG
 40
0.0629007986
  9
$TDUSRTIMER
 40
0.0629007986
  9
$USRTIMER
 70
     1
  9
$ANGBASE
 50
0.0
  9
$ANGDIR
 70
     0
  9
$PDMODE
 70
     0
  9
$PDSIZE
 40
0.0
  9
$PLINEWID
 40
0.0
  9
$SPLFRAME
 70
     0
  9
$SPLINETYPE
 70
     6
  9
$SPLINESEGS
 70
     8
  9
$HANDSEED
  5
3E4
  9
$SURFTAB1
 70
     6
  9
$SURFTAB2
 70
     6
  9
$SURFTYPE
 70
     6
  9
$SURFU
 70
     6
  9
$SURFV
 70
     6
  9
$UCSBASE
  2

  9
$UCSNAME
  2

  9
$UCSORG
 10
0.0
 20
0.0
 30
0.0
  9
$UCSXDIR
 10
1.0
 20
0.0
 30
0.0
  9
$UCSYDIR
 10
0.0
 20
1.0
 30
0.0
  9
$UCSORTHOREF
  2

  9
$UCSORTHOVIEW
 70
     0
  9
$UCSORGTOP
 10
0.0
 20
0.0
 30
0.0
  9
$UCSORGBOTTOM
 10
0.0
 20
0.0
 30
0.0
  9
$UCSORGLEFT
 10
0.0
 20
0.0
 30
0.0
  9
$UCSORGRIGHT
 10
0.0
 20
0.0
 30
0.0
  9
$UCSORGFRONT
 10
0.0
 20
0.0
 30
0.0
  9
$UCSORGBACK
 10
0.0
 20
0.0
 30
0.0
  9
$PUCSBASE
  2

  9
$PUCSNAME
  2

  9
$PUCSORG
 10
0.0
 20
0.0
 30
0.0
  9
$PUCSXDIR
 10
1.0
 20
0.0
 30
0.0
  9
$PUCSYDIR
 10
0.0
 20
1.0
 30
0.0
  9
$PUCSORTHOREF
  2

  9
$PUCSORTHOVIEW
 70
     0
  9
$PUCSORGTOP
 10
0.0
 20
0.0
 30
0.0
  9
$PUCSORGBOTTOM
 10
0.0
 20
0.0
 30
0.0
  9
$PUCSORGLEFT
 10
0.0
 20
0.0
 30
0.0
  9
$PUCSORGRIGHT
 10
0.0
 20
0.0
 30
0.0
  9
$PUCSORGFRONT
 10
0.0
 20
0.0
 30
0.0
  9
$PUCSORGBACK
 10
0.0
 20
0.0
 30
0.0
  9
$USERI1
 70
     0
  9
$USERI2
 70
     0
  9
$USERI3
 70
     0
  9
$USERI4
 70
     0
  9
$USERI5
 70
     0
  9
$USERR1
 40
0.0
  9
$USERR2
 40
0.0
  9
$USERR3
 40
0.0
  9
$USERR4
 40
0.0
  9
$USERR5
 40
0.0
  9
$WORLDVIEW
 70
     1
  9
$SHADEDGE
 70
     3
  9
$SHADEDIF
 70
    70
  9
$TILEMODE
 70
     1
  9
$MAXACTVP
 70
    16
  9
$PINSBASE
 10
5.612851412409735
 20
50.00000000000001
 30
-2.58105543498411
  9
$PLIMCHECK
 70
     0
  9
$PEXTMIN
 10
1.000000000000000E+20
 20
1.000000000000000E+20
 30
1.000000000000000E+20
  9
$PEXTMAX
 10
-1.000000000000000E+20
 20
-1.000000000000000E+20
 30
-1.000000000000000E+20
  9
$PLIMMIN
 10
0.0
 20
0.0
  9
$PLIMMAX
 10
12.0
 20
9.0
  9
$UNITMODE
 70
     0
  9
$VISRETAIN
 70
     0
  9
$PLINEGEN
 70
     0
  9
$PSLTSCALE
 70
     0
  9
$TREEDEPTH
 70
  3020
  9
$CMLSTYLE
  2
Standard
  9
$CMLJUST
 70
     0
  9
$CMLSCALE
 40
1.0
  9
$PROXYGRAPHICS
 70
     1
  9
$MEASUREMENT
 70
     0
  9
$CELWEIGHT
370
    -1
  9
$ENDCAPS
280
     0
  9
$JOINSTYLE
280
     0
  9
$LWDISPLAY
290
     0
  9
$INSUNITS
 70
     0
  9
$HYPERLINKBASE
  1

  9
$STYLESHEET
  1
monochrome 1.ctb
  9
$XEDIT
290
     1
  9
$CEPSNTYPE
380
     0
  9
$PSTYLEMODE
290
     1
  9
$FINGERPRINTGUID
  2
{8B826E4C-2EAD-486B-BAE8-F5292775BDF6}
  9
$VERSIONGUID
  2
{6F87206C-B69A-4DC2-994A-B5FB25FCD4E1}
  9
$EXTNAMES
290
     1
  9
$PSVPSCALE
 40
0.0
  9
$OLESTARTUP
290
     0
  9
$SORTENTS
280
   127
  9
$INDEXCTL
280
     0
  9
$HIDETEXT
280
     1
  9
$XCLIPFRAME
290
     0
  9
$HALOGAP
280
     0
  9
$OBSCOLOR
 70
   257
  9
$OBSLTYPE
280
     0
  9
$INTERSECTIONDISPLAY
280
     0
  9
$INTERSECTIONCOLOR
 70
   257
  9
$DIMASSOC
280
     2
  9
$PROJECTNAME
  1

  0
ENDSEC
  0
SECTION
  2
CLASSES
  0
CLASS
  1
ACDBDICTIONARYWDFLT
  2
AcDbDictionaryWithDefault
  3
ObjectDBX Classes
 90
        0
 91
        1
280
     0
281
     0
  0
CLASS
  1
DIMASSOC
  2
AcDbDimAssoc
  3
"AcDbDimAssoc|Product Desc:     AcDim ARX App For Dimension|Company:          Autodesk, Inc.|WEB Address:      www.autodesk.com"
 90
        0
 91
        2
280
     0
281
     0
  0
CLASS
  1
DICTIONARYVAR
  2
AcDbDictionaryVar
  3
ObjectDBX Classes
 90
        0
 91
        3
280
     0
281
     0
  0
ENDSEC
  0
SECTION
  2
TABLES
  0
TABLE
  2
VPORT
  5
8
330
0
100
AcDbSymbolTable
 70
     3
  0
VPORT
  5
3E3
330
8
100
AcDbSymbolTableRecord
100
AcDbViewportTableRecord
  2
*Active
 70
     0
 10
0.0
 20
0.0
 11
1.0
 21
1.0
 12
524.9999999999998
 22
742.4999999999999
 13
0.0
 23
0.0
 14
1.0
 24
1.0
 15
10.0
 25
10.0
 16
0.0
 26
0.0
 36
1.0
 17
0.0
 27
0.0
 37
0.0
 40
1485.0
 41
1.334231805929919
 42
50.0
 43
0.0
 44
0.0
 50
0.0
 51
0.0
 71
     0
 72
  1500
 73
     1
 74
     0
 75
     0
 76
     0
 77
     0
 78
     0
281
     0
 65
     1
110
0.0
120
0.0
130
0.0
111
1.0
121
0.0
131
0.0
112
0.0
122
1.0
132
0.0
 79
     0
146
0.0
  0
ENDTAB
  0
TABLE
  2
LTYPE
  5
5
330
0
100
AcDbSymbolTable
 70
     2
  0
LTYPE
  5
13
330
5
100
AcDbSymbolTableRecord
100
AcDbLinetypeTableRecord
  2
ByBlock
 70
     0
  3

 72
    65
 73
     0
 40
0.0
  0
LTYPE
  5
14
330
5
100
AcDbSymbolTableRecord
100
AcDbLinetypeTableRecord
  2
ByLayer
 70
     0
  3

 72
    65
 73
     0
 40
0.0
  0
LTYPE
  5
15
330
5
100
AcDbSymbolTableRecord
100
AcDbLinetypeTableRecord
  2
Continuous
 70
     0
  3
Solid line
 72
    65
 73
     0
 40
0.0
  0
LTYPE
  5
35
330
5
100
AcDbSymbolTableRecord
100
AcDbLinetypeTableRecord
  2
STRICHPUNKT
 70
     0
  3
__ . __ . __ . __ . __ . __ . __ . __ . __ . __
 72
    65
 73
     4
 40
1.0
 49
0.5
 74
     0
 49
-0.25
 74
     0
 49
0.0
 74
     0
 49
-0.25
 74
     0
  0
ENDTAB
  0
TABLE
  2
LAYER
  5
2
330
0
100
AcDbSymbolTable
 70
     9
  0
LAYER
  5
10
330
2
100
AcDbSymbolTableRecord
100
AcDbLayerTableRecord
  2
0
 70
     0
 62
     7
  6
Continuous
370
    -3
390
F
  0
LAYER
  5
38
330
2
100
AcDbSymbolTableRecord
100
AcDbLayerTableRecord
  2
VOLL
 70
     0
 62
     1
  6
Continuous
370
    -3
390
F
  0
LAYER
  5
39
330
2
100
AcDbSymbolTableRecord
100
AcDbLayerTableRecord
  2
HILF
 70
     0
 62
     2
  6
Continuous
370
    -3
390
F
  0
LAYER
  5
3A
330
2
100
AcDbSymbolTableRecord
100
AcDbLayerTableRecord
  2
MITTEL
 70
     0
 62
     2
  6
STRICHPUNKT
370
    -3
390
F
  0
LAYER
  5
3B
330
2
100
AcDbSymbolTableRecord
100
AcDbLayerTableRecord
  2
BEM
 70
     0
 62
     7
  6
Continuous
370
    -3
390
F
  0
LAYER
  5
3C
330
2
100
AcDbSymbolTableRecord
100
AcDbLayerTableRecord
  2
STEMPEL
 70
     0
 62
     3
  6
Continuous
370
    -3
390
F
  0
LAYER
  5
3D
330
2
100
AcDbSymbolTableRecord
100
AcDbLayerTableRecord
  2
TEXT
 70
     0
 62
     7
  6
Continuous
370
    -3
390
F
  0
LAYER
  5
3E
330
2
100
AcDbSymbolTableRecord
100
AcDbLayerTableRecord
  2
DEFPOINTS
 70
     0
 62
     7
  6
Continuous
290
     0
370
    -3
390
F
  0
LAYER
  5
3F
330
2
100
AcDbSymbolTableRecord
100
AcDbLayerTableRecord
  2
SCHRAFF
 70
     0
 62
     7
  6
Continuous
370
    -3
390
F
  0
ENDTAB
  0
TABLE
  2
STYLE
  5
3
330
0
100
AcDbSymbolTable
 70
     2
  0
STYLE
  5
11
330
3
100
AcDbSymbolTableRecord
100
AcDbTextStyleTableRecord
  2
STANDARD
 70
     0
 40
0.0
 41
1.0
 50
0.0
 71
     0
 42
3.5
  3
txt
  4

  0
STYLE
  5
34
330
3
100
AcDbSymbolTableRecord
100
AcDbTextStyleTableRecord
  2
GREEKS
 70
     0
 40
0.0
 41
0.8
 50
0.0
 71
     0
 42
2.5
  3
SIMPLEX.shx
  4

  0
ENDTAB
  0
TABLE
  2
VIEW
  5
6
330
0
100
AcDbSymbolTable
 70
     0
  0
ENDTAB
  0
TABLE
  2
UCS
  5
7
330
0
100
AcDbSymbolTable
 70
     0
  0
ENDTAB
  0
TABLE
  2
APPID
  5
9
330
0
100
AcDbSymbolTable
 70
     1
  0
APPID
  5
12
330
9
100
AcDbSymbolTableRecord
100
AcDbRegAppTableRecord
  2
ACAD
 70
     0
  0
ENDTAB
  0
TABLE
  2
DIMSTYLE
  5
A
330
0
100
AcDbSymbolTable
 70
     1
100
AcDbDimStyleTable
 71
     1
340
261
  0
DIMSTYLE
105
261
102
{ACAD_REACTORS
330
27E
330
1DD
330
16D
330
1BA
330
16C
330
3CA
102
}
330
A
100
AcDbSymbolTableRecord
100
AcDbDimStyleTableRecord
  2
Standard
 70
     0
340
11
  0
ENDTAB
  0
TABLE
  2
BLOCK_RECORD
  5
1
330
0
100
AcDbSymbolTable
 70
    16
  0
BLOCK_RECORD
  5
20
330
1
100
AcDbSymbolTableRecord
100
AcDbBlockTableRecord
  2
*Model_Space
340
23
  0
BLOCK_RECORD
  5
1C
330
1
100
AcDbSymbolTableRecord
100
AcDbBlockTableRecord
  2
*Paper_Space
340
1F
  0
BLOCK_RECORD
  5
24
330
1
100
AcDbSymbolTableRecord
100
AcDbBlockTableRecord
  2
LOGO
340
0
102
{BLKREFS
331
182
102
}
  0
BLOCK_RECORD
  5
28
330
1
100
AcDbSymbolTableRecord
100
AcDbBlockTableRecord
  2
*X3
340
0
102
{BLKREFS
331
239
102
}
  0
BLOCK_RECORD
  5
29
330
1
100
AcDbSymbolTableRecord
100
AcDbBlockTableRecord
  2
*X4
340
0
102
{BLKREFS
331
211
102
}
  0
BLOCK_RECORD
  5
27F
330
1
100
AcDbSymbolTableRecord
100
AcDbBlockTableRecord
  2
*D7
340
0
  0
BLOCK_RECORD
  5
2F8
330
1
100
AcDbSymbolTableRecord
100
AcDbBlockTableRecord
  2
*D9
340
0
  0
BLOCK_RECORD
  5
310
330
1
100
AcDbSymbolTableRecord
100
AcDbBlockTableRecord
  2
*D11
340
0
  0
BLOCK_RECORD
  5
351
330
1
100
AcDbSymbolTableRecord
100
AcDbBlockTableRecord
  2
*D12
340
0
  0
BLOCK_RECORD
  5
3AC
330
1
100
AcDbSymbolTableRecord
100
AcDbBlockTableRecord
  2
*D14
340
0
  0
BLOCK_RECORD
  5
3CB
330
1
100
AcDbSymbolTableRecord
100
AcDbBlockTableRecord
  2
*D15
340
0
  0
ENDTAB
  0
ENDSEC
  0
SECTION
  2
BLOCKS
  0
BLOCK
  5
43
330
20
100
AcDbEntity
  8
0
100
AcDbBlockBegin
  2
*Model_Space
 70
     0
 10
0.0
 20
0.0
 30
0.0
  3
*Model_Space
  1

  0
ENDBLK
  5
44
330
20
100
AcDbEntity
  8
0
100
AcDbBlockEnd
  0
BLOCK
  5
41
330
1C
100
AcDbEntity
 67
     1
  8
0
100
AcDbBlockBegin
  2
*Paper_Space
 70
     0
 10
0.0
 20
0.0
 30
0.0
  3
*Paper_Space
  1

  0
ENDBLK
  5
42
330
1C
100
AcDbEntity
 67
     1
  8
0
100
AcDbBlockEnd
  0
BLOCK
  5
45
330
24
100
AcDbEntity
  8
0
100
AcDbBlockBegin
  2
LOGO
 70
     0
 10
0.0
 20
0.0
 30
0.0
  3
LOGO
  1

  0
ARC
  5
46
330
24
100
AcDbEntity
  8
0
100
AcDbCircle
 10
11.59973089678112
 20
-9.271599258481501
 30
0.0
 40
4.5
100
AcDbArc
 50
270.0
 51
231.0575587310159
  0
LINE
  5
47
330
24
100
AcDbEntity
  8
0
100
AcDbLine
 10
3.599730896781125
 20
-4.771599258481529
 30
0.0
 11
3.599730896781153
 21
-11.77159925848133
 31
0.0
  0
LINE
  5
48
330
24
100
AcDbEntity
  8
0
100
AcDbLine
 10
2.599730896781125
 20
-4.771599258481529
 30
0.0
 11
2.599730896781153
 21
-11.77159925848133
 31
0.0
  0
CIRCLE
  5
49
330
24
100
AcDbEntity
  8
0
100
AcDbCircle
 10
11.59973089678112
 20
-9.271599258481501
 30
0.0
 40
3.5
  0
ARC
  5
4A
330
24
100
AcDbEntity
  8
0
100
AcDbCircle
 10
31.59973089678115
 20
-9.271599258481472
 30
0.0
 40
4.5
100
AcDbArc
 50
270.0
 51
231.0575587310182
  0
LINE
  5
4B
330
24
100
AcDbEntity
  8
0
100
AcDbLine
 10
17.59973089678112
 20
-4.771599258481472
 30
0.0
 11
17.59973089678115
 21
-13.77159925848147
 31
0.0
  0
ARC
  5
4C
330
24
100
AcDbEntity
  8
0
100
AcDbCircle
 10
22.59973089678116
 20
-7.271599258481472
 30
0.0
 40
2.5
100
AcDbArc
 50
293.1161887722295
 51
90.0
  0
CIRCLE
  5
4D
330
24
100
AcDbEntity
  8
0
100
AcDbCircle
 10
31.59973089678115
 20
-9.271599258481472
 30
0.0
 40
3.5
  0
ARC
  5
4E
330
24
100
AcDbEntity
  8
0
100
AcDbCircle
 10
4.599730896781153
 20
-11.77159925848133
 30
0.0
 40
1.0
100
AcDbArc
 50
180.0
 51
270.0
  0
ARC
  5
4F
330
24
100
AcDbEntity
  8
0
100
AcDbCircle
 10
4.599730896781153
 20
-11.77159925848133
 30
0.0
 40
2.0
100
AcDbArc
 50
179.9999999999992
 51
270.0
  0
LINE
  5
50
330
24
100
AcDbEntity
  8
0
100
AcDbLine
 10
11.59973089678115
 20
-13.77159925848144
 30
0.0
 11
4.599730896781153
 21
-13.77159925848147
 31
0.0
  0
LINE
  5
51
330
24
100
AcDbEntity
  8
0
100
AcDbLine
 10
8.771303772034769
 20
-12.77159925848136
 30
0.0
 11
4.599730896781153
 21
-12.77159925848133
 31
0.0
  0
LINE
  5
52
330
24
100
AcDbEntity
  8
0
100
AcDbLine
 10
31.59973089678115
 20
-13.77159925848147
 30
0.0
 11
23.6715276665056
 21
-13.77159925848144
 31
0.0
  0
LINE
  5
53
330
24
100
AcDbEntity
  8
0
100
AcDbLine
 10
23.56565672307022
 20
-9.51278021337896
 30
0.0
 11
24.4388546544846
 21
-12.77159925848144
 31
0.0
  0
LINE
  5
54
330
24
100
AcDbEntity
  8
0
100
AcDbLine
 10
22.59973089678116
 20
-9.771599258481472
 30
0.0
 11
18.59973089678112
 21
-9.771599258481472
 31
0.0
  0
LINE
  5
55
330
24
100
AcDbEntity
  8
0
100
AcDbLine
 10
18.59973089678115
 20
-13.77159925848144
 30
0.0
 11
17.59973089678115
 21
-13.77159925848144
 31
0.0
  0
LINE
  5
56
330
24
100
AcDbEntity
  8
0
100
AcDbLine
 10
18.59973089678115
 20
-9.771599258481472
 30
0.0
 11
18.59973089678115
 21
-13.77159925848144
 31
0.0
  0
LINE
  5
57
330
24
100
AcDbEntity
  8
0
100
AcDbLine
 10
22.59973089678116
 20
-9.771599258481472
 30
0.0
 11
23.67152766650562
 21
-13.77159925848147
 31
0.0
  0
ARC
  5
58
330
24
100
AcDbEntity
  8
0
100
AcDbCircle
 10
22.59973089678116
 20
-7.271599258481472
 30
0.0
 40
2.5
100
AcDbArc
 50
270.0
 51
270.0000000000007
  0
LINE
  5
59
330
24
100
AcDbEntity
  8
0
100
AcDbLine
 10
28.77130377203494
 20
-12.77159925848147
 30
0.0
 11
24.43885465448463
 21
-12.77159925848144
 31
0.0
  0
LINE
  5
5A
330
24
100
AcDbEntity
  8
0
100
AcDbLine
 10
3.599730896781125
 20
-4.771599258481472
 30
0.0
 11
2.599730896781125
 21
-4.771599258481472
 31
0.0
  0
LINE
  5
5B
330
24
100
AcDbEntity
  8
0
100
AcDbLine
 10
22.59973089678116
 20
-8.771599258481472
 30
0.0
 11
18.59973089678115
 21
-8.771599258481472
 31
0.0
  0
LINE
  5
5C
330
24
100
AcDbEntity
  8
0
100
AcDbLine
 10
22.59973089678116
 20
-5.771599258481472
 30
0.0
 11
18.59973089678115
 21
-5.771599258481472
 31
0.0
  0
LINE
  5
5D
330
24
100
AcDbEntity
  8
0
100
AcDbLine
 10
22.59973089678116
 20
-4.771599258481472
 30
0.0
 11
17.59973089678115
 21
-4.771599258481472
 31
0.0
  0
LINE
  5
5E
330
24
100
AcDbEntity
  8
0
100
AcDbLine
 10
18.59973089678115
 20
-5.771599258481472
 30
0.0
 11
18.59973089678115
 21
-8.771599258481472
 31
0.0
  0
ARC
  5
5F
330
24
100
AcDbEntity
  8
0
100
AcDbCircle
 10
22.59973089678116
 20
-7.271599258481472
 30
0.0
 40
1.5
100
AcDbArc
 50
270.0
 51
90.0
  0
ENDBLK
  5
60
330
24
100
AcDbEntity
  8
0
100
AcDbBlockEnd
  0
BLOCK
  5
7F
330
28
100
AcDbEntity
  8
0
100
AcDbBlockBegin
  2
*X3
 70
     1
 10
0.0
 20
0.0
 30
0.0
  3
*X3
  1

  0
LINE
  5
80
330
28
100
AcDbEntity
  8
0
 62
     0
100
AcDbLine
 10
673.810240836255
 20
962.7
 30
0.0
 11
676.7914970544548
 21
962.7
 31
0.0
  0
LINE
  5
81
330
28
100
AcDbEntity
  8
0
 62
     0
100
AcDbLine
 10
673.810240836255
 20
962.8
 30
0.0
 11
676.8914970544548
 21
962.8
 31
0.0
  0
LINE
  5
82
330
28
100
AcDbEntity
  8
0
 62
     0
100
AcDbLine
 10
673.810240836255
 20
962.9000000000001
 30
0.0
 11
676.9914970544548
 21
962.9000000000001
 31
0.0
  0
LINE
  5
83
330
28
100
AcDbEntity
  8
0
 62
     0
100
AcDbLine
 10
673.810240836255
 20
963.0
 30
0.0
 11
677.0914970544547
 21
963.0
 31
0.0
  0
LINE
  5
84
330
28
100
AcDbEntity
  8
0
 62
     0
100
AcDbLine
 10
673.810240836255
 20
963.1
 30
0.0
 11
677.1914970544547
 21
963.1
 31
0.0
  0
LINE
  5
85
330
28
100
AcDbEntity
  8
0
 62
     0
100
AcDbLine
 10
673.810240836255
 20
963.2000000000001
 30
0.0
 11
677.2914970544547
 21
963.2000000000001
 31
0.0
  0
LINE
  5
86
330
28
100
AcDbEntity
  8
0
 62
     0
100
AcDbLine
 10
673.810240836255
 20
963.3
 30
0.0
 11
677.3914970544548
 21
963.3
 31
0.0
  0
LINE
  5
87
330
28
100
AcDbEntity
  8
0
 62
     0
100
AcDbLine
 10
673.810240836255
 20
963.4
 30
0.0
 11
677.4914970544548
 21
963.4
 31
0.0
  0
LINE
  5
88
330
28
100
AcDbEntity
  8
0
 62
     0
100
AcDbLine
 10
673.810240836255
 20
963.4999999999999
 30
0.0
 11
677.5914970544548
 21
963.4999999999999
 31
0.0
  0
LINE
  5
89
330
28
100
AcDbEntity
  8
0
 62
     0
100
AcDbLine
 10
673.810240836255
 20
963.6000000000001
 30
0.0
 11
677.6914970544547
 21
963.6000000000001
 31
0.0
  0
LINE
  5
8A
330
28
100
AcDbEntity
  8
0
 62
     0
100
AcDbLine
 10
673.810240836255
 20
963.7
 30
0.0
 11
677.7914970544547
 21
963.7
 31
0.0
  0
LINE
  5
8B
330
28
100
AcDbEntity
  8
0
 62
     0
100
AcDbLine
 10
673.810240836255
 20
963.8000000000001
 30
0.0
 11
677.8914970544548
 21
963.8000000000001
 31
0.0
  0
LINE
  5
8C
330
28
100
AcDbEntity
  8
0
 62
     0
100
AcDbLine
 10
673.810240836255
 20
963.9000000000001
 30
0.0
 11
677.9914970544548
 21
963.9000000000001
 31
0.0
  0
LINE
  5
8D
330
28
100
AcDbEntity
  8
0
 62
     0
100
AcDbLine
 10
673.810240836255
 20
964.0
 30
0.0
 11
678.0139112793524
 21
964.0
 31
0.0
  0
LINE
  5
8E
330
28
100
AcDbEntity
  8
0
 62
     0
100
AcDbLine
 10
673.810240836255
 20
964.1
 30
0.0
 11
677.9095815089158
 21
964.1
 31
0.0
  0
LINE
  5
8F
330
28
100
AcDbEntity
  8
0
 62
     0
100
AcDbLine
 10
673.810240836255
 20
964.2000000000001
 30
0.0
 11
677.8000206180087
 21
964.2000000000001
 31
0.0
  0
LINE
  5
90
330
28
100
AcDbEntity
  8
0
 62
     0
100
AcDbLine
 10
673.810240836255
 20
964.3
 30
0.0
 11
677.6847848692027
 21
964.3
 31
0.0
  0
LINE
  5
91
330
28
100
AcDbEntity
  8
0
 62
     0
100
AcDbLine
 10
673.810240836255
 20
964.4000000000001
 30
0.0
 11
677.56335157531
 21
964.4000000000001
 31
0.0
  0
LINE
  5
92
330
28
100
AcDbEntity
  8
0
 62
     0
100
AcDbLine
 10
673.810240836255
 20
964.4999999999999
 30
0.0
 11
677.4350979335722
 21
964.4999999999999
 31
0.0
  0
LINE
  5
93
330
28
100
AcDbEntity
  8
0
 62
     0
100
AcDbLine
 10
673.810240836255
 20
964.6
 30
0.0
 11
677.2992718954935
 21
964.6
 31
0.0
  0
LINE
  5
94
330
28
100
AcDbEntity
  8
0
 62
     0
100
AcDbLine
 10
673.810240836255
 20
964.7
 30
0.0
 11
677.154951061176
 21
964.7
 31
0.0
  0
LINE
  5
95
330
28
100
AcDbEntity
  8
0
 62
     0
100
AcDbLine
 10
673.810240836255
 20
964.8000000000001
 30
0.0
 11
677.0009829513516
 21
964.8000000000001
 31
0.0
  0
LINE
  5
96
330
28
100
AcDbEntity
  8
0
 62
     0
100
AcDbLine
 10
673.810240836255
 20
964.9
 30
0.0
 11
676.8358951458895
 21
964.9
 31
0.0
  0
LINE
  5
97
330
28
100
AcDbEntity
  8
0
 62
     0
100
AcDbLine
 10
673.810240836255
 20
965.0
 30
0.0
 11
676.6577542704237
 21
965.0
 31
0.0
  0
LINE
  5
98
330
28
100
AcDbEntity
  8
0
 62
     0
100
AcDbLine
 10
673.810240836255
 20
965.0999999999999
 30
0.0
 11
676.4639328896273
 21
965.0999999999999
 31
0.0
  0
LINE
  5
99
330
28
100
AcDbEntity
  8
0
 62
     0
100
AcDbLine
 10
673.810240836255
 20
965.2000000000001
 30
0.0
 11
676.2506978161034
 21
965.2000000000001
 31
0.0
  0
LINE
  5
9A
330
28
100
AcDbEntity
  8
0
 62
     0
100
AcDbLine
 10
673.810240836255
 20
965.3
 30
0.0
 11
676.0124168117053
 21
965.3
 31
0.0
  0
LINE
  5
9B
330
28
100
AcDbEntity
  8
0
 62
     0
100
AcDbLine
 10
673.810240836255
 20
965.4000000000001
 30
0.0
 11
675.7398334832172
 21
965.4000000000001
 31
0.0
  0
LINE
  5
9C
330
28
100
AcDbEntity
  8
0
 62
     0
100
AcDbLine
 10
673.810240836255
 20
965.4999999999999
 30
0.0
 11
675.4155683852529
 21
965.4999999999999
 31
0.0
  0
LINE
  5
9D
330
28
100
AcDbEntity
  8
0
 62
     0
100
AcDbLine
 10
673.810240836255
 20
965.6
 30
0.0
 11
674.9980225063994
 21
965.6
 31
0.0
  0
LINE
  5
9E
330
28
100
AcDbEntity
  8
0
 62
     0
100
AcDbLine
 10
673.810240836255
 20
965.7
 30
0.0
 11
674.2841332842754
 21
965.7
 31
0.0
  0
LINE
  5
9F
330
28
100
AcDbEntity
  8
0
 62
     0
100
AcDbLine
 10
673.810240836255
 20
962.6000000000001
 30
0.0
 11
676.6914970544547
 21
962.6000000000001
 31
0.0
  0
LINE
  5
A0
330
28
100
AcDbEntity
  8
0
 62
     0
100
AcDbLine
 10
673.810240836255
 20
962.5
 30
0.0
 11
676.5914970544547
 21
962.5
 31
0.0
  0
LINE
  5
A1
330
28
100
AcDbEntity
  8
0
 62
     0
100
AcDbLine
 10
673.810240836255
 20
962.4
 30
0.0
 11
676.4914970544548
 21
962.4
 31
0.0
  0
LINE
  5
A2
330
28
100
AcDbEntity
  8
0
 62
     0
100
AcDbLine
 10
673.810240836255
 20
962.3000000000001
 30
0.0
 11
676.3914970544548
 21
962.3000000000001
 31
0.0
  0
LINE
  5
A3
330
28
100
AcDbEntity
  8
0
 62
     0
100
AcDbLine
 10
673.810240836255
 20
962.1999999999999
 30
0.0
 11
676.2914970544548
 21
962.1999999999999
 31
0.0
  0
LINE
  5
A4
330
28
100
AcDbEntity
  8
0
 62
     0
100
AcDbLine
 10
673.810240836255
 20
962.1
 30
0.0
 11
676.1914970544547
 21
962.1
 31
0.0
  0
LINE
  5
A5
330
28
100
AcDbEntity
  8
0
 62
     0
100
AcDbLine
 10
673.810240836255
 20
962.0
 30
0.0
 11
676.0914970544547
 21
962.0
 31
0.0
  0
LINE
  5
A6
330
28
100
AcDbEntity
  8
0
 62
     0
100
AcDbLine
 10
673.810240836255
 20
961.9000000000001
 30
0.0
 11
675.9914970544548
 21
961.9000000000001
 31
0.0
  0
LINE
  5
A7
330
28
100
AcDbEntity
  8
0
 62
     0
100
AcDbLine
 10
673.810240836255
 20
961.8
 30
0.0
 11
675.8914970544548
 21
961.8
 31
0.0
  0
LINE
  5
A8
330
28
100
AcDbEntity
  8
0
 62
     0
100
AcDbLine
 10
673.810240836255
 20
961.7
 30
0.0
 11
675.7914970544548
 21
961.7
 31
0.0
  0
LINE
  5
A9
330
28
100
AcDbEntity
  8
0
 62
     0
100
AcDbLine
 10
673.810240836255
 20
961.5999999999999
 30
0.0
 11
675.6914970544547
 21
961.5999999999999
 31
0.0
  0
LINE
  5
AA
330
28
100
AcDbEntity
  8
0
 62
     0
100
AcDbLine
 10
673.810240836255
 20
961.5
 30
0.0
 11
675.5914970544547
 21
961.5
 31
0.0
  0
LINE
  5
AB
330
28
100
AcDbEntity
  8
0
 62
     0
100
AcDbLine
 10
673.810240836255
 20
961.4
 30
0.0
 11
675.4914970544548
 21
961.4
 31
0.0
  0
LINE
  5
AC
330
28
100
AcDbEntity
  8
0
 62
     0
100
AcDbLine
 10
673.810240836255
 20
961.3000000000001
 30
0.0
 11
675.3914970544548
 21
961.3000000000001
 31
0.0
  0
LINE
  5
AD
330
28
100
AcDbEntity
  8
0
 62
     0
100
AcDbLine
 10
673.810240836255
 20
961.2
 30
0.0
 11
675.2914970544548
 21
961.2
 31
0.0
  0
LINE
  5
AE
330
28
100
AcDbEntity
  8
0
 62
     0
100
AcDbLine
 10
673.810240836255
 20
961.1
 30
0.0
 11
675.1914970544548
 21
961.1
 31
0.0
  0
LINE
  5
AF
330
28
100
AcDbEntity
  8
0
 62
     0
100
AcDbLine
 10
673.810240836255
 20
961.0
 30
0.0
 11
675.0914970544547
 21
961.0
 31
0.0
  0
LINE
  5
B0
330
28
100
AcDbEntity
  8
0
 62
     0
100
AcDbLine
 10
673.810240836255
 20
960.9000000000001
 30
0.0
 11
674.9914970544548
 21
960.9000000000001
 31
0.0
  0
LINE
  5
B1
330
28
100
AcDbEntity
  8
0
 62
     0
100
AcDbLine
 10
673.810240836255
 20
960.8
 30
0.0
 11
674.8914970544547
 21
960.8
 31
0.0
  0
LINE
  5
B2
330
28
100
AcDbEntity
  8
0
 62
     0
100
AcDbLine
 10
673.810240836255
 20
960.7000000000001
 30
0.0
 11
674.7914970544548
 21
960.7000000000001
 31
0.0
  0
LINE
  5
B3
330
28
100
AcDbEntity
  8
0
 62
     0
100
AcDbLine
 10
673.810240836255
 20
960.5999999999999
 30
0.0
 11
674.6914970544548
 21
960.5999999999999
 31
0.0
  0
LINE
  5
B4
330
28
100
AcDbEntity
  8
0
 62
     0
100
AcDbLine
 10
673.810240836255
 20
960.5
 30
0.0
 11
674.5914970544547
 21
960.5
 31
0.0
  0
LINE
  5
B5
330
28
100
AcDbEntity
  8
0
 62
     0
100
AcDbLine
 10
673.810240836255
 20
960.4
 30
0.0
 11
674.4914970544548
 21
960.4
 31
0.0
  0
LINE
  5
B6
330
28
100
AcDbEntity
  8
0
 62
     0
100
AcDbLine
 10
673.810240836255
 20
960.3000000000001
 30
0.0
 11
674.3914970544548
 21
960.3000000000001
 31
0.0
  0
LINE
  5
B7
330
28
100
AcDbEntity
  8
0
 62
     0
100
AcDbLine
 10
673.810240836255
 20
960.2
 30
0.0
 11
674.2914970544547
 21
960.2
 31
0.0
  0
LINE
  5
B8
330
28
100
AcDbEntity
  8
0
 62
     0
100
AcDbLine
 10
673.810240836255
 20
960.1
 30
0.0
 11
674.1914970544548
 21
960.1
 31
0.0
  0
LINE
  5
B9
330
28
100
AcDbEntity
  8
0
 62
     0
100
AcDbLine
 10
673.810240836255
 20
960.0
 30
0.0
 11
674.0914970544547
 21
960.0
 31
0.0
  0
LINE
  5
BA
330
28
100
AcDbEntity
  8
0
 62
     0
100
AcDbLine
 10
673.810240836255
 20
959.9000000000001
 30
0.0
 11
673.9914970544548
 21
959.9000000000001
 31
0.0
  0
LINE
  5
BB
330
28
100
AcDbEntity
  8
0
 62
     0
100
AcDbLine
 10
673.810240836255
 20
959.8
 30
0.0
 11
673.8914970544548
 21
959.8
 31
0.0
  0
ENDBLK
  5
BC
330
28
100
AcDbEntity
  8
0
100
AcDbBlockEnd
  0
BLOCK
  5
BD
330
29
100
AcDbEntity
  8
0
100
AcDbBlockBegin
  2
*X4
 70
     1
 10
0.0
 20
0.0
 30
0.0
  3
*X4
  1

  0
LINE
  5
BE
330
29
100
AcDbEntity
  8
0
 62
     0
100
AcDbLine
 10
673.8102408362553
 20
771.1
 30
0.0
 11
675.7504420105115
 21
771.1
 31
0.0
  0
LINE
  5
BF
330
29
100
AcDbEntity
  8
0
 62
     0
100
AcDbLine
 10
673.8102408362553
 20
771.2
 30
0.0
 11
675.7847324239043
 21
771.2
 31
0.0
  0
LINE
  5
C0
330
29
100
AcDbEntity
  8
0
 62
     0
100
AcDbLine
 10
673.8102408362553
 20
771.3
 30
0.0
 11
675.8166510045595
 21
771.3
 31
0.0
  0
LINE
  5
C1
330
29
100
AcDbEntity
  8
0
 62
     0
100
AcDbLine
 10
673.8102408362553
 20
771.4000000000001
 30
0.0
 11
675.8462456645203
 21
771.4000000000001
 31
0.0
  0
LINE
  5
C2
330
29
100
AcDbEntity
  8
0
 62
     0
100
AcDbLine
 10
673.8102408362553
 20
771.4999999999999
 30
0.0
 11
675.873559680696
 21
771.4999999999999
 31
0.0
  0
LINE
  5
C3
330
29
100
AcDbEntity
  8
0
 62
     0
100
AcDbLine
 10
673.8102408362553
 20
771.6
 30
0.0
 11
675.8986320460713
 21
771.6
 31
0.0
  0
LINE
  5
C4
330
29
100
AcDbEntity
  8
0
 62
     0
100
AcDbLine
 10
673.8819008500764
 20
771.7
 30
0.0
 11
675.9214977744634
 21
771.7
 31
0.0
  0
LINE
  5
C5
330
29
100
AcDbEntity
  8
0
 62
     0
100
AcDbLine
 10
673.9819008500765
 20
771.8
 30
0.0
 11
675.9421881648372
 21
771.8
 31
0.0
  0
LINE
  5
C6
330
29
100
AcDbEntity
  8
0
 62
     0
100
AcDbLine
 10
674.0819008500765
 20
771.9000000000001
 30
0.0
 11
675.9607310301618
 21
771.9000000000001
 31
0.0
  0
LINE
  5
C7
330
29
100
AcDbEntity
  8
0
 62
     0
100
AcDbLine
 10
674.1819008500764
 20
772.0
 30
0.0
 11
675.9771508949537
 21
772.0
 31
0.0
  0
LINE
  5
C8
330
29
100
AcDbEntity
  8
0
 62
     0
100
AcDbLine
 10
674.2819008500764
 20
772.1
 30
0.0
 11
675.9914691649526
 21
772.1
 31
0.0
  0
LINE
  5
C9
330
29
100
AcDbEntity
  8
0
 62
     0
100
AcDbLine
 10
674.3819008500764
 20
772.2
 30
0.0
 11
676.0037042717859
 21
772.2
 31
0.0
  0
LINE
  5
CA
330
29
100
AcDbEntity
  8
0
 62
     0
100
AcDbLine
 10
674.4819008500765
 20
772.3
 30
0.0
 11
676.0138717949866
 21
772.3
 31
0.0
  0
LINE
  5
CB
330
29
100
AcDbEntity
  8
0
 62
     0
100
AcDbLine
 10
674.5819008500765
 20
772.4000000000001
 30
0.0
 11
676.0219845633014
 21
772.4000000000001
 31
0.0
  0
LINE
  5
CC
330
29
100
AcDbEntity
  8
0
 62
     0
100
AcDbLine
 10
674.6819008500764
 20
772.5
 30
0.0
 11
676.0280527368588
 21
772.5
 31
0.0
  0
LINE
  5
CD
330
29
100
AcDbEntity
  8
0
 62
     0
100
AcDbLine
 10
674.7819008500764
 20
772.5999999999999
 30
0.0
 11
676.0320838714457
 21
772.5999999999999
 31
0.0
  0
LINE
  5
CE
330
29
100
AcDbEntity
  8
0
 62
     0
100
AcDbLine
 10
674.8819008500764
 20
772.7
 30
0.0
 11
676.0340829658506
 21
772.7
 31
0.0
  0
LINE
  5
CF
330
29
100
AcDbEntity
  8
0
 62
     0
100
AcDbLine
 10
674.9819008500764
 20
772.8
 30
0.0
 11
676.0340524929723
 21
772.8
 31
0.0
  0
LINE
  5
D0
330
29
100
AcDbEntity
  8
0
 62
     0
100
AcDbLine
 10
675.0819008500765
 20
772.9
 30
0.0
 11
676.0319924151452
 21
772.9
 31
0.0
  0
LINE
  5
D1
330
29
100
AcDbEntity
  8
0
 62
     0
100
AcDbLine
 10
675.1819008500764
 20
773.0
 30
0.0
 11
676.0279001839078
 21
773.0
 31
0.0
  0
LINE
  5
D2
330
29
100
AcDbEntity
  8
0
 62
     0
100
AcDbLine
 10
675.2819008500765
 20
773.1
 30
0.0
 11
676.0217707242053
 21
773.1
 31
0.0
  0
LINE
  5
D3
330
29
100
AcDbEntity
  8
0
 62
     0
100
AcDbLine
 10
675.3819008500764
 20
773.2
 30
0.0
 11
676.0135964028022
 21
773.2
 31
0.0
  0
LINE
  5
D4
330
29
100
AcDbEntity
  8
0
 62
     0
100
AcDbLine
 10
675.4819008500764
 20
773.3
 30
0.0
 11
676.0033669804417
 21
773.3
 31
0.0
  0
LINE
  5
D5
330
29
100
AcDbEntity
  8
0
 62
     0
100
AcDbLine
 10
675.5819008500765
 20
773.4
 30
0.0
 11
675.9910695470469
 21
773.4
 31
0.0
  0
LINE
  5
D6
330
29
100
AcDbEntity
  8
0
 62
     0
100
AcDbLine
 10
675.6819008500764
 20
773.5
 30
0.0
 11
675.9766884389973
 21
773.5
 31
0.0
  0
LINE
  5
D7
330
29
100
AcDbEntity
  8
0
 62
     0
100
AcDbLine
 10
675.7819008500765
 20
773.6
 30
0.0
 11
675.9602051372241
 21
773.6
 31
0.0
  0
LINE
  5
D8
330
29
100
AcDbEntity
  8
0
 62
     0
100
AcDbLine
 10
675.8819008500765
 20
773.7
 30
0.0
 11
675.941598144542
 21
773.7
 31
0.0
  0
LINE
  5
D9
330
29
100
AcDbEntity
  8
0
 62
     0
100
AcDbLine
 10
673.8102408362553
 20
771.0
 30
0.0
 11
675.7137268122898
 21
771.0
 31
0.0
  0
LINE
  5
DA
330
29
100
AcDbEntity
  8
0
 62
     0
100
AcDbLine
 10
673.8102408362553
 20
770.9000000000001
 30
0.0
 11
675.6745283696862
 21
770.9000000000001
 31
0.0
  0
LINE
  5
DB
330
29
100
AcDbEntity
  8
0
 62
     0
100
AcDbLine
 10
673.8102408362553
 20
770.8000000000001
 30
0.0
 11
675.6327821750785
 21
770.8000000000001
 31
0.0
  0
LINE
  5
DC
330
29
100
AcDbEntity
  8
0
 62
     0
100
AcDbLine
 10
673.8102408362553
 20
770.7
 30
0.0
 11
675.588417045885
 21
770.7
 31
0.0
  0
LINE
  5
DD
330
29
100
AcDbEntity
  8
0
 62
     0
100
AcDbLine
 10
673.8102408362553
 20
770.6
 30
0.0
 11
675.5413543953133
 21
770.6
 31
0.0
  0
LINE
  5
DE
330
29
100
AcDbEntity
  8
0
 62
     0
100
AcDbLine
 10
673.8102408362553
 20
770.5
 30
0.0
 11
675.4915073808472
 21
770.5
 31
0.0
  0
LINE
  5
DF
330
29
100
AcDbEntity
  8
0
 62
     0
100
AcDbLine
 10
673.8102408362553
 20
770.4000000000001
 30
0.0
 11
675.4387799056932
 21
770.4000000000001
 31
0.0
  0
LINE
  5
E0
330
29
100
AcDbEntity
  8
0
 62
     0
100
AcDbLine
 10
673.8102408362553
 20
770.3000000000001
 30
0.0
 11
675.3830654421043
 21
770.3000000000001
 31
0.0
  0
LINE
  5
E1
330
29
100
AcDbEntity
  8
0
 62
     0
100
AcDbLine
 10
673.8102408362553
 20
770.2
 30
0.0
 11
675.3242456372728
 21
770.2
 31
0.0
  0
LINE
  5
E2
330
29
100
AcDbEntity
  8
0
 62
     0
100
AcDbLine
 10
673.8102408362553
 20
770.1
 30
0.0
 11
675.2621886516497
 21
770.1
 31
0.0
  0
LINE
  5
E3
330
29
100
AcDbEntity
  8
0
 62
     0
100
AcDbLine
 10
673.8102408362553
 20
770.0
 30
0.0
 11
675.1967471651336
 21
770.0
 31
0.0
  0
LINE
  5
E4
330
29
100
AcDbEntity
  8
0
 62
     0
100
AcDbLine
 10
673.8102408362553
 20
769.9
 30
0.0
 11
675.1277559671351
 21
769.9
 31
0.0
  0
LINE
  5
E5
330
29
100
AcDbEntity
  8
0
 62
     0
100
AcDbLine
 10
673.8102408362553
 20
769.8000000000001
 30
0.0
 11
675.0550290200261
 21
769.8000000000001
 31
0.0
  0
LINE
  5
E6
330
29
100
AcDbEntity
  8
0
 62
     0
100
AcDbLine
 10
673.8102408362553
 20
769.7
 30
0.0
 11
674.9783558488293
 21
769.7
 31
0.0
  0
LINE
  5
E7
330
29
100
AcDbEntity
  8
0
 62
     0
100
AcDbLine
 10
673.8102408362553
 20
769.6
 30
0.0
 11
674.8974970585502
 21
769.6
 31
0.0
  0
LINE
  5
E8
330
29
100
AcDbEntity
  8
0
 62
     0
100
AcDbLine
 10
673.8102408362553
 20
769.5
 30
0.0
 11
674.8121787071359
 21
769.5
 31
0.0
  0
LINE
  5
E9
330
29
100
AcDbEntity
  8
0
 62
     0
100
AcDbLine
 10
673.8102408362553
 20
769.4
 30
0.0
 11
674.7220851553611
 21
769.4
 31
0.0
  0
LINE
  5
EA
330
29
100
AcDbEntity
  8
0
 62
     0
100
AcDbLine
 10
673.8102408362553
 20
769.3
 30
0.0
 11
674.6268498567959
 21
769.3
 31
0.0
  0
LINE
  5
EB
330
29
100
AcDbEntity
  8
0
 62
     0
100
AcDbLine
 10
673.8102408362553
 20
769.2000000000001
 30
0.0
 11
674.5260433112738
 21
769.2000000000001
 31
0.0
  0
LINE
  5
EC
330
29
100
AcDbEntity
  8
0
 62
     0
100
AcDbLine
 10
673.8102408362553
 20
769.1
 30
0.0
 11
674.4191570326457
 21
769.1
 31
0.0
  0
LINE
  5
ED
330
29
100
AcDbEntity
  8
0
 62
     0
100
AcDbLine
 10
673.8102408362553
 20
769.0
 30
0.0
 11
674.3055817857505
 21
769.0
 31
0.0
  0
LINE
  5
EE
330
29
100
AcDbEntity
  8
0
 62
     0
100
AcDbLine
 10
673.8102408362553
 20
768.9
 30
0.0
 11
674.1845773634415
 21
768.9
 31
0.0
  0
LINE
  5
EF
330
29
100
AcDbEntity
  8
0
 62
     0
100
AcDbLine
 10
673.8102408362553
 20
768.8
 30
0.0
 11
674.0552294875914
 21
768.8
 31
0.0
  0
LINE
  5
F0
330
29
100
AcDbEntity
  8
0
 62
     0
100
AcDbLine
 10
673.8102408362553
 20
768.7
 30
0.0
 11
673.9163863980449
 21
768.7
 31
0.0
  0
ENDBLK
  5
F1
330
29
100
AcDbEntity
  8
0
100
AcDbBlockEnd
  0
BLOCK
  5
28B
330
27F
100
AcDbEntity
  8
0
100
AcDbBlockBegin
  2
*D7
 70
     1
 10
0.0
 20
0.0
 30
0.0
  3
*D7
  1

  0
LINE
  5
386
330
27F
100
AcDbEntity
  8
BEM
 62
     0
370
    -2
100
AcDbLine
 10
763.0311479048007
 20
1073.215453888967
 30
0.0
 11
782.1592706045359
 21
1092.343576588703
 31
0.0
  0
LINE
  5
387
330
27F
100
AcDbEntity
  8
BEM
 62
     0
370
    -2
100
AcDbLine
 10
455.4396980886521
 20
1140.624004072819
 30
0.0
 11
455.4396980886522
 21
1227.675254617522
 31
0.0
  0
ARC
  5
388
330
27F
100
AcDbEntity
  8
BEM
 62
     0
370
    -2
100
AcDbCircle
 10
455.4396980886521
 20
765.6240040728189
 30
0.0
 40
457.0512505447028
100
AcDbArc
 50
47.19392770269593
 51
87.80607229730406
  0
SOLID
  5
389
330
27F
100
AcDbEntity
  8
BEM
 62
     0
100
AcDbTrace
 10
768.0372686424809
 20
1103.044743091964
 30
0.0
 11
763.9922019182086
 21
1098.841742619211
 31
0.0
 12
778.6237366986033
 22
1088.80804268277
 32
0.0
 13
778.6237366986033
 23
1088.80804268277
 33
0.0
  0
SOLID
  5
38A
330
27F
100
AcDbEntity
  8
BEM
 62
     0
100
AcDbTrace
 10
472.8806528164849
 20
1219.424094420586
 30
0.0
 11
472.9923288410135
 21
1225.256358667285
 31
0.0
 12
455.4396980886521
 22
1222.675254617522
 32
0.0
 13
455.4396980886521
 23
1222.675254617522
 33
0.0
  0
MTEXT
  5
38B
330
27F
100
AcDbEntity
  8
BEM
 62
     1
100
AcDbMText
 10
655.8180257085841
 20
1194.416027771276
 30
0.0
 40
17.5
 41
0.0
 71
     5
 72
     1
  1
\A1;45°
  7
GREEKS
 11
0.9059600480771575
 21
-0.4233631907571022
 31
0.0
 73
     1
 44
1.0
  0
POINT
  5
38C
330
27F
100
AcDbEntity
  8
DEFPOINTS
 62
     0
100
AcDbPoint
 10
573.7332663175451
 20
1207.101610911663
 30
0.0
  0
POINT
  5
38D
330
27F
100
AcDbEntity
  8
DEFPOINTS
 62
     0
100
AcDbPoint
 10
455.4396980886521
 20
1135.624004072819
 30
0.0
  0
POINT
  5
38E
330
27F
100
AcDbEntity
  8
DEFPOINTS
 62
     0
100
AcDbPoint
 10
759.495613998868
 20
1069.679919983035
 30
0.0
  0
POINT
  5
38F
330
27F
100
AcDbEntity
  8
DEFPOINTS
 62
     0
100
AcDbPoint
 10
560.8803597448114
 20
871.0646657289784
 30
0.0
  0
POINT
  5
390
330
27F
100
AcDbEntity
  8
DEFPOINTS
 62
     0
100
AcDbPoint
 10
455.4396980886521
 20
730.6240040728194
 30
0.0
  0
ENDBLK
  5
28C
330
27F
100
AcDbEntity
  8
0
100
AcDbBlockEnd
  0
BLOCK
  5
302
330
2F8
100
AcDbEntity
  8
0
100
AcDbBlockBegin
  2
*D9
 70
     1
 10
0.0
 20
0.0
 30
0.0
  3
*D9
  1

  0
LINE
  5
2F9
330
2F8
100
AcDbEntity
  8
BEM
 62
     0
370
    -2
100
AcDbLine
 10
613.8541641827193
 20
829.9932682690755
 30
0.0
 11
577.0117488183261
 21
793.1508529046824
 31
0.0
  0
LINE
  5
2FA
330
2F8
100
AcDbEntity
  8
BEM
 62
     0
370
    -2
100
AcDbLine
 10
613.854164182719
 20
1018.083672064697
 30
0.0
 11
482.9665469205155
 21
887.1960548024931
 31
0.0
  0
LINE
  5
2FB
330
2F8
100
AcDbEntity
  8
BEM
 62
     0
370
    -2
100
AcDbLine
 10
568.1729140534944
 20
809.0607554813798
 30
0.0
 11
498.8764494972127
 21
878.3572200376614
 31
0.0
  0
SOLID
  5
2FC
330
2F8
100
AcDbEntity
  8
BEM
 62
     0
100
AcDbTrace
 10
570.2353088319551
 20
811.1231502598405
 30
0.0
 11
566.1105192750336
 21
806.998360702919
 31
0.0
 12
580.5472827242589
 22
796.6863868106152
 32
0.0
 13
580.5472827242589
 23
796.6863868106152
 33
0.0
  0
SOLID
  5
2FD
330
2F8
100
AcDbEntity
  8
BEM
 62
     0
100
AcDbTrace
 10
500.9388442756734
 20
880.4196148161221
 30
0.0
 11
496.814054718752
 21
876.2948252592005
 31
0.0
 12
486.5020808264482
 22
890.731588708426
 32
0.0
 13
486.5020808264482
 23
890.731588708426
 33
0.0
  0
MTEXT
  5
2FE
330
2F8
100
AcDbEntity
  8
BEM
 62
     1
100
AcDbMText
 10
545.0151669696348
 20
855.1994729538021
 30
0.0
 40
17.5
 41
0.0
 71
     5
 72
     1
  1
\A1;%%c133
  7
GREEKS
 11
0.7071067811865476
 21
-0.7071067811865475
 31
0.0
 73
     1
 44
1.0
  0
POINT
  5
2FF
330
2F8
100
AcDbEntity
  8
DEFPOINTS
 62
     0
100
AcDbPoint
 10
617.3896980886519
 20
833.5288021750082
 30
0.0
  0
POINT
  5
300
330
2F8
100
AcDbEntity
  8
DEFPOINTS
 62
     0
100
AcDbPoint
 10
617.3896980886517
 20
1021.619205970629
 30
0.0
  0
POINT
  5
301
330
2F8
100
AcDbEntity
  8
DEFPOINTS
 62
     0
100
AcDbPoint
 10
486.5020808264482
 20
890.731588708426
 30
0.0
  0
ENDBLK
  5
303
330
2F8
100
AcDbEntity
  8
0
100
AcDbBlockEnd
  0
BLOCK
  5
31A
330
310
100
AcDbEntity
  8
0
100
AcDbBlockBegin
  2
*D11
 70
     1
 10
0.0
 20
0.0
 30
0.0
  3
*D11
  1

  0
LINE
  5
3C1
330
310
100
AcDbEntity
  8
BEM
 62
     0
370
    -2
100
AcDbLine
 10
288.4896980886524
 20
740.6240040728196
 30
0.0
 11
218.7403516930742
 21
740.6240040728197
 31
0.0
  0
LINE
  5
3C2
330
310
100
AcDbEntity
  8
BEM
 62
     0
370
    -2
100
AcDbLine
 10
288.4896980886524
 20
1125.624004072819
 30
0.0
 11
218.7403516930743
 21
1125.624004072819
 31
0.0
  0
LINE
  5
3C3
330
310
100
AcDbEntity
  8
BEM
 62
     0
370
    -2
100
AcDbLine
 10
223.7403516930743
 20
758.1240040728197
 30
0.0
 11
223.7403516930744
 21
1108.124004072819
 31
0.0
  0
SOLID
  5
3C4
330
310
100
AcDbEntity
  8
BEM
 62
     0
100
AcDbTrace
 10
220.8236850264076
 20
758.1240040728197
 30
0.0
 11
226.6570183597409
 21
758.1240040728197
 31
0.0
 12
223.7403516930743
 22
740.6240040728197
 32
0.0
 13
223.7403516930743
 23
740.6240040728197
 33
0.0
  0
SOLID
  5
3C5
330
310
100
AcDbEntity
  8
BEM
 62
     0
100
AcDbTrace
 10
220.8236850264077
 20
1108.124004072819
 30
0.0
 11
226.657018359741
 21
1108.124004072819
 31
0.0
 12
223.7403516930744
 22
1125.624004072819
 32
0.0
 13
223.7403516930744
 23
1125.624004072819
 33
0.0
  0
MTEXT
  5
3C6
330
310
100
AcDbEntity
  8
BEM
 62
     1
100
AcDbMText
 10
207.4903516930741
 20
933.1240040728197
 30
0.0
 40
17.5
 41
0.0
 71
     5
 72
     1
  1
\A1;385
  7
GREEKS
 11
0.0000000000000001
 21
1.0
 31
0.0
 73
     1
 44
1.0
  0
POINT
  5
3C7
330
310
100
AcDbEntity
  8
DEFPOINTS
 62
     0
100
AcDbPoint
 10
293.4896980886524
 20
740.6240040728196
 30
0.0
  0
POINT
  5
3C8
330
310
100
AcDbEntity
  8
DEFPOINTS
 62
     0
100
AcDbPoint
 10
293.4896980886524
 20
1125.624004072819
 30
0.0
  0
POINT
  5
3C9
330
310
100
AcDbEntity
  8
DEFPOINTS
 62
     0
100
AcDbPoint
 10
223.7403516930744
 20
1125.624004072819
 30
0.0
  0
ENDBLK
  5
31B
330
310
100
AcDbEntity
  8
0
100
AcDbBlockEnd
  0
BLOCK
  5
35D
330
351
100
AcDbEntity
  8
0
100
AcDbBlockBegin
  2
*D12
 70
     1
 10
0.0
 20
0.0
 30
0.0
  3
*D12
  1

  0
LINE
  5
352
330
351
100
AcDbEntity
  8
BEM
 62
     0
370
    -2
100
AcDbLine
 10
288.4896980886524
 20
740.6240040728196
 30
0.0
 11
253.4273936709544
 21
740.6240040728197
 31
0.0
  0
LINE
  5
353
330
351
100
AcDbEntity
  8
BEM
 62
     0
370
    -2
100
AcDbLine
 10
450.4396980886522
 20
765.6240040728197
 30
0.0
 11
253.4273936709544
 21
765.6240040728198
 31
0.0
  0
LINE
  5
354
330
351
100
AcDbEntity
  8
BEM
 62
     0
370
    -2
100
AcDbLine
 10
258.4273936709544
 20
723.1240040728196
 30
0.0
 11
258.4273936709544
 21
705.6240040728196
 31
0.0
  0
LINE
  5
355
330
351
100
AcDbEntity
  8
BEM
 62
     0
370
    -2
100
AcDbLine
 10
258.4273936709544
 20
783.1240040728197
 30
0.0
 11
258.4273936709544
 21
838.2906707394862
 31
0.0
  0
LINE
  5
356
330
351
100
AcDbEntity
  8
BEM
 62
     0
370
    -2
100
AcDbLine
 10
258.4273936709544
 20
740.6240040728196
 30
0.0
 11
258.4273936709544
 21
765.6240040728197
 31
0.0
  0
SOLID
  5
357
330
351
100
AcDbEntity
  8
BEM
 62
     0
100
AcDbTrace
 10
255.5107270042878
 20
723.1240040728197
 30
0.0
 11
261.3440603376211
 21
723.1240040728196
 31
0.0
 12
258.4273936709544
 22
740.6240040728196
 32
0.0
 13
258.4273936709544
 23
740.6240040728196
 33
0.0
  0
SOLID
  5
358
330
351
100
AcDbEntity
  8
BEM
 62
     0
100
AcDbTrace
 10
255.5107270042878
 20
783.1240040728198
 30
0.0
 11
261.3440603376211
 21
783.1240040728197
 31
0.0
 12
258.4273936709544
 22
765.6240040728197
 32
0.0
 13
258.4273936709544
 23
765.6240040728197
 33
0.0
  0
MTEXT
  5
359
330
351
100
AcDbEntity
  8
BEM
 62
     1
100
AcDbMText
 10
242.1773936709543
 20
819.4573374061532
 30
0.0
 40
17.5
 41
0.0
 71
     5
 72
     1
  1
\A1;25
  7
GREEKS
 11
0.0000000000000001
 21
1.0
 31
0.0
 73
     1
 44
1.0
  0
POINT
  5
35A
330
351
100
AcDbEntity
  8
DEFPOINTS
 62
     0
100
AcDbPoint
 10
293.4896980886524
 20
740.6240040728196
 30
0.0
  0
POINT
  5
35B
330
351
100
AcDbEntity
  8
DEFPOINTS
 62
     0
100
AcDbPoint
 10
455.4396980886521
 20
765.6240040728197
 30
0.0
  0
POINT
  5
35C
330
351
100
AcDbEntity
  8
DEFPOINTS
 62
     0
100
AcDbPoint
 10
258.4273936709544
 20
765.6240040728197
 30
0.0
  0
ENDBLK
  5
35E
330
351
100
AcDbEntity
  8
0
100
AcDbBlockEnd
  0
BLOCK
  5
3B6
330
3AC
100
AcDbEntity
  8
0
100
AcDbBlockBegin
  2
*D14
 70
     1
 10
0.0
 20
0.0
 30
0.0
  3
*D14
  1

  0
LINE
  5
3B8
330
3AC
100
AcDbEntity
  8
SCHRAFF
 62
     0
370
    -2
100
AcDbLine
 10
617.389698088652
 20
735.6240040728196
 30
0.0
 11
617.389698088652
 21
652.2897237209084
 31
0.0
  0
LINE
  5
3B9
330
3AC
100
AcDbEntity
  8
SCHRAFF
 62
     0
370
    -2
100
AcDbLine
 10
293.4896980886524
 20
735.6240040728196
 30
0.0
 11
293.4896980886524
 21
652.2897237209084
 31
0.0
  0
LINE
  5
3BA
330
3AC
100
AcDbEntity
  8
SCHRAFF
 62
     0
370
    -2
100
AcDbLine
 10
599.889698088652
 20
657.2897237209084
 30
0.0
 11
310.9896980886524
 21
657.2897237209084
 31
0.0
  0
SOLID
  5
3BB
330
3AC
100
AcDbEntity
  8
SCHRAFF
 62
     0
100
AcDbTrace
 10
599.889698088652
 20
660.2063903875751
 30
0.0
 11
599.889698088652
 21
654.3730570542418
 31
0.0
 12
617.389698088652
 22
657.2897237209084
 32
0.0
 13
617.389698088652
 23
657.2897237209084
 33
0.0
  0
SOLID
  5
3BC
330
3AC
100
AcDbEntity
  8
SCHRAFF
 62
     0
100
AcDbTrace
 10
310.9896980886524
 20
660.2063903875751
 30
0.0
 11
310.9896980886524
 21
654.3730570542418
 31
0.0
 12
293.4896980886524
 22
657.2897237209084
 32
0.0
 13
293.4896980886524
 23
657.2897237209084
 33
0.0
  0
MTEXT
  5
3BD
330
3AC
100
AcDbEntity
  8
SCHRAFF
 62
     1
100
AcDbMText
 10
455.4396980886521
 20
673.5397237209085
 30
0.0
 40
17.5
 41
0.0
 71
     5
 72
     1
  1
\A1;%%c324
  7
GREEKS
 73
     1
 44
1.0
  0
POINT
  5
3BE
330
3AC
100
AcDbEntity
  8
DEFPOINTS
 62
     0
100
AcDbPoint
 10
617.389698088652
 20
740.6240040728196
 30
0.0
  0
POINT
  5
3BF
330
3AC
100
AcDbEntity
  8
DEFPOINTS
 62
     0
100
AcDbPoint
 10
293.4896980886524
 20
740.6240040728196
 30
0.0
  0
POINT
  5
3C0
330
3AC
100
AcDbEntity
  8
DEFPOINTS
 62
     0
100
AcDbPoint
 10
293.4896980886524
 20
657.2897237209084
 30
0.0
  0
ENDBLK
  5
3B7
330
3AC
100
AcDbEntity
  8
0
100
AcDbBlockEnd
  0
BLOCK
  5
3D5
330
3CB
100
AcDbEntity
  8
0
100
AcDbBlockBegin
  2
*D15
 70
     1
 10
0.0
 20
0.0
 30
0.0
  3
*D15
  1

  0
LINE
  5
3D8
330
3CB
100
AcDbEntity
  8
BEM
 62
     0
370
    -2
100
AcDbLine
 10
458.975231994585
 20
762.0884701668867
 30
0.0
 11
535.3771430090973
 21
685.6865591523742
 31
0.0
  0
LINE
  5
3D9
330
3CB
100
AcDbEntity
  8
BEM
 62
     0
370
    -2
100
AcDbLine
 10
810.943603703701
 20
1011.160862466336
 30
0.0
 11
835.8975250133804
 21
986.2069411566569
 31
0.0
  0
LINE
  5
3DA
330
3CB
100
AcDbEntity
  8
BEM
 62
     0
370
    -2
100
AcDbLine
 10
544.2159777739292
 20
701.5964617290714
 30
0.0
 11
819.987622436683
 21
977.368106391825
 31
0.0
  0
SOLID
  5
3DB
330
3CB
100
AcDbEntity
  8
BEM
 62
     0
100
AcDbTrace
 10
542.1535829954684
 20
703.6588565075322
 30
0.0
 11
546.27837255239
 21
699.5340669506107
 31
0.0
 12
531.8416091031646
 22
689.222093058307
 32
0.0
 13
531.8416091031646
 23
689.222093058307
 33
0.0
  0
SOLID
  5
3DC
330
3CB
100
AcDbEntity
  8
BEM
 62
     0
100
AcDbTrace
 10
817.9252276582223
 20
979.4305011702858
 30
0.0
 11
822.0500172151439
 21
975.3057116133643
 31
0.0
 12
832.3619911074477
 22
989.7424750625896
 32
0.0
 13
832.3619911074477
 23
989.7424750625896
 33
0.0
  0
MTEXT
  5
3DD
330
3CB
100
AcDbEntity
  8
BEM
 62
     1
100
AcDbMText
 10
670.6113149110247
 20
850.9727692547297
 30
0.0
 40
17.5
 41
0.0
 71
     5
 72
     1
  1
\A1;425
  7
GREEKS
 11
0.707106781186548
 21
0.7071067811865471
 31
0.0
 73
     1
 44
1.0
  0
POINT
  5
3DE
330
3CB
100
AcDbEntity
  8
DEFPOINTS
 62
     0
100
AcDbPoint
 10
455.4396980886521
 20
765.6240040728195
 30
0.0
  0
POINT
  5
3DF
330
3CB
100
AcDbEntity
  8
DEFPOINTS
 62
     0
100
AcDbPoint
 10
807.4080697977683
 20
1014.696396372269
 30
0.0
  0
POINT
  5
3E0
330
3CB
100
AcDbEntity
  8
DEFPOINTS
 62
     0
100
AcDbPoint
 10
832.3619911074477
 20
989.7424750625896
 30
0.0
  0
ENDBLK
  5
3D6
330
3CB
100
AcDbEntity
  8
0
100
AcDbBlockEnd
  0
ENDSEC
  0
SECTION
  2
ENTITIES
  0
DIMENSION
  5
16C
330
20
100
AcDbEntity
  8
SCHRAFF
100
AcDbDimension
  2
*D14
 10
293.4896980886524
 20
657.2897237209084
 30
0.0
 11
455.4396980886521
 21
673.5397237209085
 31
0.0
 70
    32
  1
%%c324
 71
     5
 42
323.8999999999996
  3
Standard
100
AcDbAlignedDimension
 13
617.389698088652
 23
740.6240040728196
 33
0.0
 14
293.4896980886524
 24
740.6240040728196
 34
0.0
100
AcDbRotatedDimension
1001
ACAD
1000
DSTYLE
1002
{
1070
    40
1040
5.0
1070
    41
1040
3.5
1070
    42
1040
1.0
1070
    43
1040
7.0
1070
    44
1040
1.0
1070
    47
1040
4.0
1070
    48
1040
4.0
1070
    73
1070
     0
1070
    74
1070
     0
1070
    77
1070
     1
1070
    78
1070
     8
1070
    79
1070
     2
1070
   140
1040
3.5
1070
   141
1040
1.5
1070
   146
1040
0.5
1070
   147
1040
1.5
1070
   172
1070
     1
1070
   178
1070
     1
1070
   179
1070
     2
1070
   271
1070
     2
1070
   272
1070
     2
1070
   284
1070
     8
1070
   285
1070
     8
1070
   286
1070
     8
1070
   340
1005
34
1002
}
  0
DIMENSION
  5
16D
330
20
100
AcDbEntity
  8
BEM
100
AcDbDimension
  2
*D12
 10
258.4273936709544
 20
765.6240040728197
 30
0.0
 11
242.1773936709543
 21
819.4573374061532
 31
0.0
 70
    32
 71
     5
 42
25.00000000000011
  3
Standard
100
AcDbAlignedDimension
 13
293.4896980886524
 23
740.6240040728196
 33
0.0
 14
455.4396980886521
 24
765.6240040728197
 34
0.0
 50
90.0
100
AcDbRotatedDimension
1001
ACAD
1000
DSTYLE
1002
{
1070
    40
1040
5.0
1070
    41
1040
3.5
1070
    42
1040
1.0
1070
    43
1040
7.0
1070
    44
1040
1.0
1070
    47
1040
4.0
1070
    48
1040
4.0
1070
    73
1070
     0
1070
    74
1070
     0
1070
    77
1070
     1
1070
    78
1070
     8
1070
    79
1070
     2
1070
   140
1040
3.5
1070
   141
1040
1.5
1070
   146
1040
0.5
1070
   147
1040
1.5
1070
   172
1070
     1
1070
   178
1070
     1
1070
   179
1070
     2
1070
   271
1070
     2
1070
   272
1070
     2
1070
   284
1070
     8
1070
   285
1070
     8
1070
   286
1070
     8
1070
   340
1005
34
1002
}
  0
LINE
  5
16F
330
20
100
AcDbEntity
  8
STEMPEL
100
AcDbLine
 10
1025.0
 20
25.0
 30
0.0
 11
1025.0
 21
1460.0
 31
0.0
  0
LINE
  5
170
330
20
100
AcDbEntity
  8
HILF
100
AcDbLine
 10
1050.0
 20
-0.0000000000002842
 30
0.0
 11
1050.0
 21
1485.0
 31
0.0
  0
LINE
  5
172
102
{ACAD_REACTORS
330
299
102
}
330
20
100
AcDbEntity
  8
MITTEL
100
AcDbLine
 10
455.4396980886521
 20
1135.624004072819
 30
0.0
 11
455.4396980886521
 21
730.6240040728196
 31
0.0
  0
LINE
  5
173
330
20
100
AcDbEntity
  8
STEMPEL
100
AcDbLine
 10
100.0
 20
25.0
 30
0.0
 11
99.99999999999971
 21
1460.0
 31
0.0
  0
LINE
  5
174
330
20
100
AcDbEntity
  8
HILF
100
AcDbLine
 10
0.0
 20
0.0
 30
0.0
 11
-0.0000000000002842
 21
1485.0
 31
0.0
  0
TEXT
  5
176
330
20
100
AcDbEntity
  8
TEXT
 62
     1
100
AcDbText
 10
292.4806628287003
 20
428.844636841721
 30
0.0
 40
17.5
  1
Rohrenden leicht entgratet
 41
0.8
  7
GREEKS
100
AcDbText
  0
TEXT
  5
177
330
20
100
AcDbEntity
  8
TEXT
100
AcDbText
 10
383.7908930375943
 20
256.1552237717722
 30
0.0
 40
12.5
  1
Maßstab
 41
0.8
  7
GREEKS
100
AcDbText
  0
TEXT
  5
178
330
20
100
AcDbEntity
  8
TEXT
100
AcDbText
 10
369.0016943468259
 20
108.8236597412452
 30
0.0
 40
10.0
  1
Norm.
 41
0.8
  7
GREEKS
100
AcDbText
  0
LINE
  5
179
330
20
100
AcDbEntity
  8
STEMPEL
100
AcDbLine
 10
1025.0
 20
275.0000000000001
 30
0.0
 11
99.99999999999992
 21
275.0
 31
0.0
  0
LINE
  5
17A
330
20
100
AcDbEntity
  8
STEMPEL
100
AcDbLine
 10
1025.0
 20
100.0
 30
0.0
 11
365.0000000000003
 21
99.99999999999992
 31
0.0
  0
LINE
  5
17B
330
20
100
AcDbEntity
  8
STEMPEL
100
AcDbLine
 10
1025.0
 20
200.0
 30
0.0
 11
365.0000000000003
 21
199.9999999999998
 31
0.0
  0
LINE
  5
17C
330
20
100
AcDbEntity
  8
HILF
100
AcDbLine
 10
365.0000000000003
 20
174.9999999999998
 30
0.0
 11
575.0
 21
174.9999999999998
 31
0.0
  0
LINE
  5
17D
330
20
100
AcDbEntity
  8
HILF
100
AcDbLine
 10
365.0000000000003
 20
149.9999999999999
 30
0.0
 11
575.0
 21
149.9999999999999
 31
0.0
  0
LINE
  5
17E
330
20
100
AcDbEntity
  8
HILF
100
AcDbLine
 10
365.0000000000003
 20
124.9999999999999
 30
0.0
 11
575.0
 21
124.9999999999999
 31
0.0
  0
LINE
  5
17F
330
20
100
AcDbEntity
  8
STEMPEL
100
AcDbLine
 10
124.9999999999997
 20
25.0
 30
0.0
 11
1025.0
 21
25.0
 31
0.0
  0
LINE
  5
180
330
20
100
AcDbEntity
  8
STEMPEL
100
AcDbLine
 10
1025.0
 20
25.0
 30
0.0
 11
99.99999999999971
 21
25.0
 31
0.0
  0
LINE
  5
181
330
20
100
AcDbEntity
  8
HILF
100
AcDbLine
 10
1050.0
 20
0.0
 30
0.0
 11
0.0
 21
0.0
 31
0.0
  0
INSERT
  5
182
330
20
100
AcDbEntity
  8
STEMPEL
100
AcDbBlockReference
  2
LOGO
 10
377.4888713644485
 20
112.552631911208
 30
0.0
 41
5.0
 42
5.0
 43
5.0
  0
TEXT
  5
183
330
20
100
AcDbEntity
  8
TEXT
100
AcDbText
 10
104.6377487744418
 20
279.1799999999999
 30
0.0
 40
12.5
  1
Erstellt mit AUTOCAD 2004
 41
0.8
  7
GREEKS
100
AcDbText
  0
LINE
  5
184
330
20
100
AcDbEntity
  8
STEMPEL
100
AcDbLine
 10
365.0000000000003
 20
274.9999999999999
 30
0.0
 11
365.0
 21
24.99999999999993
 31
0.0
  0
TEXT
  5
185
330
20
100
AcDbEntity
  8
TEXT
100
AcDbText
 10
322.6093657469367
 20
46.4831054241602
 30
0.0
 40
10.0
  1
Name
 41
0.8
  7
GREEKS
 72
     1
 11
338.4188895564606
 21
46.4831054241602
 31
0.0
100
AcDbText
  0
LINE
  5
186
330
20
100
AcDbEntity
  8
VOLL
100
AcDbLine
 10
260.0000000000003
 20
274.9999999999999
 30
0.0
 11
260.0
 21
24.99999999999993
 31
0.0
  0
LINE
  5
187
330
20
100
AcDbEntity
  8
VOLL
100
AcDbLine
 10
310.0000000000003
 20
274.9999999999999
 30
0.0
 11
310.0
 21
24.99999999999993
 31
0.0
  0
TEXT
  5
188
330
20
100
AcDbEntity
  8
TEXT
100
AcDbText
 10
273.7072497510283
 20
46.67890673349525
 30
0.0
 40
10.0
  1
Tag
 41
0.8
  7
GREEKS
 72
     1
 11
283.0405830843616
 21
46.67890673349525
 31
0.0
100
AcDbText
  0
LINE
  5
189
330
20
100
AcDbEntity
  8
VOLL
100
AcDbLine
 10
135.0000000000002
 20
275.0000000000001
 30
0.0
 11
134.9999999999999
 21
24.99999999999993
 31
0.0
  0
TEXT
  5
18A
330
20
100
AcDbEntity
  8
TEXT
100
AcDbText
 10
120.6660276761439
 20
34.13664615067979
 30
0.0
 40
10.0
  1
Index
 50
90.0
 41
0.8
  7
GREEKS
100
AcDbText
  0
TEXT
  5
18B
330
20
100
AcDbEntity
  8
TEXT
100
AcDbText
 10
172.0870147800625
 20
46.68454737460329
 30
0.0
 40
10.0
  1
Änderung
 41
0.8
  7
GREEKS
 72
     1
 11
198.9441576372054
 21
46.68454737460329
 31
0.0
100
AcDbText
  0
LINE
  5
18C
330
20
100
AcDbEntity
  8
STEMPEL
100
AcDbLine
 10
364.9999999999997
 20
74.99999999999992
 30
0.0
 11
99.99999999999992
 21
74.99999999999992
 31
0.0
  0
LINE
  5
18D
330
20
100
AcDbEntity
  8
HILF
100
AcDbLine
 10
100.0000000000002
 20
250.0000000000001
 30
0.0
 11
365.0000000000003
 21
250.0000000000001
 31
0.0
  0
LINE
  5
18E
330
20
100
AcDbEntity
  8
HILF
100
AcDbLine
 10
100.0000000000002
 20
225.0000000000001
 30
0.0
 11
365.0000000000003
 21
225.0000000000001
 31
0.0
  0
LINE
  5
18F
330
20
100
AcDbEntity
  8
HILF
100
AcDbLine
 10
100.0000000000002
 20
199.9999999999998
 30
0.0
 11
365.0000000000003
 21
199.9999999999998
 31
0.0
  0
LINE
  5
190
330
20
100
AcDbEntity
  8
HILF
100
AcDbLine
 10
100.0000000000002
 20
174.9999999999998
 30
0.0
 11
365.0000000000003
 21
174.9999999999998
 31
0.0
  0
LINE
  5
191
330
20
100
AcDbEntity
  8
HILF
100
AcDbLine
 10
100.0000000000002
 20
149.9999999999999
 30
0.0
 11
365.0000000000003
 21
149.9999999999999
 31
0.0
  0
LINE
  5
192
330
20
100
AcDbEntity
  8
HILF
100
AcDbLine
 10
100.0000000000002
 20
124.9999999999999
 30
0.0
 11
365.0000000000003
 21
124.9999999999999
 31
0.0
  0
LINE
  5
193
330
20
100
AcDbEntity
  8
HILF
100
AcDbLine
 10
100.0000000000002
 20
99.99999999999992
 30
0.0
 11
365.0000000000003
 21
99.99999999999992
 31
0.0
  0
TEXT
  5
194
330
20
100
AcDbEntity
  8
TEXT
100
AcDbText
 10
368.9590317919039
 20
159.0747592404491
 30
0.0
 40
10.0
  1
Gez.
 41
0.8
  7
GREEKS
100
AcDbText
  0
TEXT
  5
195
330
20
100
AcDbEntity
  8
TEXT
100
AcDbText
 10
368.8787716429181
 20
134.2231572857094
 30
0.0
 40
10.0
  1
Gepr.
 41
0.8
  7
GREEKS
100
AcDbText
  0
TEXT
  5
196
330
20
100
AcDbEntity
  8
TEXT
100
AcDbText
 10
371.55527455526
 20
182.8506367787916
 30
0.0
 40
10.0
  1
2011
 41
0.8
  7
GREEKS
100
AcDbText
  0
LINE
  5
197
330
20
100
AcDbEntity
  8
HILF
100
AcDbLine
 10
77.7191783928464
 20
742.5000000000001
 30
0.0
 11
0.0000000000002842
 21
742.5000000000001
 31
0.0
  0
TEXT
  5
198
330
20
100
AcDbEntity
  8
TEXT
100
AcDbText
 10
587.8240977813288
 20
129.100298576054
 30
0.0
 40
12.5
  1
EDV-Art.Nr. 02260.KE0X
 41
0.8
  7
GREEKS
100
AcDbText
  0
TEXT
  5
199
330
20
100
AcDbEntity
  8
TEXT
100
AcDbText
 10
587.8240977813288
 20
181.8582405213435
 30
0.0
 40
12.5
  1
Muffenlos / Muffe
 41
0.8
  7
GREEKS
100
AcDbText
  0
LINE
  5
19A
330
20
100
AcDbEntity
  8
HILF
100
AcDbLine
 10
586.9342002742369
 20
210.0939561891034
 30
0.0
 11
812.0884791390777
 21
210.0939561891034
 31
0.0
  0
LINE
  5
19B
330
20
100
AcDbEntity
  8
HILF
100
AcDbLine
 10
586.9342002742369
 20
174.9999999999998
 30
0.0
 11
812.0884791390775
 21
174.9999999999998
 31
0.0
  0
LINE
  5
19C
330
20
100
AcDbEntity
  8
HILF
100
AcDbLine
 10
586.9342002742369
 20
149.9999999999999
 30
0.0
 11
812.0884791390775
 21
149.9999999999999
 31
0.0
  0
LINE
  5
19D
330
20
100
AcDbEntity
  8
HILF
100
AcDbLine
 10
586.9342002742369
 20
124.9999999999999
 30
0.0
 11
812.0884791390775
 21
124.9999999999999
 31
0.0
  0
TEXT
  5
19E
330
20
100
AcDbEntity
  8
TEXT
 62
     1
100
AcDbText
 10
588.9294820816727
 20
218.5437197313445
 30
0.0
 40
17.5
  1
Abzweig 45%%d DN300/125
 41
0.7
  7
GREEKS
100
AcDbText
  0
LINE
  5
19F
330
20
100
AcDbEntity
  8
HILF
100
AcDbLine
 10
583.7274248224712
 20
37.23495645070784
 30
0.0
 11
1012.147209831682
 21
37.23495645070784
 31
0.0
  0
LINE
  5
1A0
330
20
100
AcDbEntity
  8
STEMPEL
100
AcDbLine
 10
575.0
 20
275.0000000000001
 30
0.0
 11
575.0
 21
24.99999999999993
 31
0.0
  0
LINE
  5
1A1
330
20
100
AcDbEntity
  8
VOLL
100
AcDbLine
 10
475.0000000000002
 20
274.9999999999996
 30
0.0
 11
475.0
 21
99.99999999999992
 31
0.0
  0
LINE
  5
1A2
330
20
100
AcDbEntity
  8
VOLL
100
AcDbLine
 10
410.0000000000003
 20
199.9999999999998
 30
0.0
 11
410.0000000000003
 21
99.99999999999992
 31
0.0
  0
TEXT
  5
1A3
330
20
100
AcDbEntity
  8
TEXT
100
AcDbText
 10
425.9974927705902
 20
157.7691260206433
 30
0.0
 40
10.0
  1
05.04.
 41
0.8
  7
GREEKS
 72
     1
 11
443.5213022943996
 21
157.7691260206433
 31
0.0
100
AcDbText
  0
TEXT
  5
1A4
330
20
100
AcDbEntity
  8
TEXT
100
AcDbText
 10
511.0540121453142
 20
157.7240979930877
 30
0.0
 40
10.0
  1
Koeh
 41
0.8
  7
GREEKS
 72
     1
 11
524.1968692881714
 21
157.7240979930877
 31
0.0
100
AcDbText
  0
TEXT
  5
1A5
330
20
100
AcDbEntity
  8
TEXT
 62
     1
100
AcDbText
 10
401.2515766204717
 20
220.372535722849
 30
0.0
 40
17.5
  1
1:5
 41
0.8
  7
GREEKS
100
AcDbText
  0
TEXT
  5
1A6
330
20
100
AcDbEntity
  8
TEXT
100
AcDbText
 10
430.8279182884127
 20
183.2970125307481
 30
0.0
 40
10.0
  1
Tag
 41
0.8
  7
GREEKS
100
AcDbText
  0
TEXT
  5
1A7
330
20
100
AcDbEntity
  8
TEXT
100
AcDbText
 10
506.1566460565737
 20
183.2740272978806
 30
0.0
 40
10.0
  1
Name
 41
0.8
  7
GREEKS
100
AcDbText
  0
TEXT
  5
1A8
330
20
100
AcDbEntity
  8
TEXT
100
AcDbText
 10
485.7147386835128
 20
256.0460421087048
 30
0.0
 40
12.5
  1
Zul. Abw.
 41
0.8
  7
GREEKS
100
AcDbText
  0
TEXT
  5
1A9
330
20
100
AcDbEntity
  8
TEXT
100
AcDbText
 10
587.4593753944567
 20
106.5743538255658
 30
0.0
 40
10.0
  1
02260KE0W.DWG
 41
0.8
  7
GREEKS
100
AcDbText
  0
TEXT
  5
1AA
330
20
100
AcDbEntity
  8
TEXT
100
AcDbText
 10
586.8555959778399
 20
77.11401425482641
 30
0.0
 40
12.5
  1
Bauvorhaben
 41
0.8
  7
GREEKS
100
AcDbText
  0
TEXT
  5
1AB
330
20
100
AcDbEntity
  8
TEXT
100
AcDbText
 10
587.1948509522525
 20
256.3723320029449
 30
0.0
 40
12.5
  1
Benennung
 41
0.8
  7
GREEKS
100
AcDbText
  0
TEXT
  5
1AC
330
20
100
AcDbEntity
  8
TEXT
 62
     1
100
AcDbText
 10
868.0188363484457
 20
220.372535722849
 30
0.0
 40
17.5
  1
02260KE0W
 41
0.8
  7
GREEKS
 72
     1
 11
928.0188363484457
 21
220.372535722849
 31
0.0
100
AcDbText
  0
LINE
  5
1AD
330
20
100
AcDbEntity
  8
VOLL
100
AcDbLine
 10
830.0
 20
150.0
 30
0.0
 11
1025.0
 21
150.0
 31
0.0
  0
LINE
  5
1AE
330
20
100
AcDbEntity
  8
HILF
100
AcDbLine
 10
841.8096540742482
 20
209.4495909238957
 30
0.0
 11
1012.147209831682
 21
209.4495909238957
 31
0.0
  0
TEXT
  5
1AF
330
20
100
AcDbEntity
  8
TEXT
100
AcDbText
 10
840.4468873940851
 20
255.7830086342841
 30
0.0
 40
12.5
  1
Zeichnungs Nr.
 41
0.8
  7
GREEKS
100
AcDbText
  0
TEXT
  5
1B0
330
20
100
AcDbEntity
  8
TEXT
100
AcDbText
 10
841.8096540742482
 20
182.9529559274992
 30
0.0
 40
12.5
  1
Ersatz für:
 41
0.8
  7
GREEKS
100
AcDbText
  0
TEXT
  5
1B1
330
20
100
AcDbEntity
  8
TEXT
100
AcDbText
 10
843.1002153742515
 20
130.185404446965
 30
0.0
 40
12.5
  1
ersetzt durch:
 41
0.8
  7
GREEKS
100
AcDbText
  0
LINE
  5
1B2
330
20
100
AcDbEntity
  8
STEMPEL
100
AcDbLine
 10
830.0
 20
274.9999999999994
 30
0.0
 11
830.0
 21
100.0
 31
0.0
  0
TEXT
  5
1B3
330
20
100
AcDbEntity
  8
TEXT
 62
     1
100
AcDbText
 10
600.0373920362804
 20
323.4720666920996
 30
0.0
 40
17.5
  1
feuerverzinkt und innen beschichtet
 41
0.8
  7
GREEKS
100
AcDbText
  0
TEXT
  5
1B5
330
20
100
AcDbEntity
  8
TEXT
 62
     1
100
AcDbText
 10
480.0373920362803
 20
353.4720666920997
 30
0.0
 40
17.5
  1
Werkstoff: EN 10219 S235,RSt34-2 DIN 2394
 41
0.8
  7
GREEKS
100
AcDbText
  0
LINE
  5
1B6
330
20
100
AcDbEntity
  8
STEMPEL
100
AcDbLine
 10
617.389698088652
 20
1125.624004072819
 30
0.0
 11
293.4896980886524
 21
1125.624004072819
 31
0.0
  0
LINE
  5
1B7
330
20
100
AcDbEntity
  8
STEMPEL
100
AcDbLine
 10
617.389698088652
 20
740.6240040728196
 30
0.0
 11
293.4896980886524
 21
740.6240040728196
 31
0.0
  0
LINE
  5
1B8
330
20
100
AcDbEntity
  8
STEMPEL
100
AcDbLine
 10
1025.0
 20
1460.0
 30
0.0
 11
99.99999999999971
 21
1460.0
 31
0.0
  0
LINE
  5
1B9
330
20
100
AcDbEntity
  8
HILF
100
AcDbLine
 10
1050.0
 20
1485.0
 30
0.0
 11
0.0
 21
1485.0
 31
0.0
  0
DIMENSION
  5
1BA
330
20
100
AcDbEntity
  8
BEM
100
AcDbDimension
  2
*D11
 10
223.7403516930744
 20
1125.624004072819
 30
0.0
 11
207.4903516930741
 21
933.1240040728197
 31
0.0
 70
    32
 71
     5
 42
384.9999999999999
  3
Standard
100
AcDbAlignedDimension
 13
293.4896980886524
 23
740.6240040728196
 33
0.0
 14
293.4896980886524
 24
1125.624004072819
 34
0.0
 50
90.0
100
AcDbRotatedDimension
1001
ACAD
1000
DSTYLE
1002
{
1070
    40
1040
5.0
1070
    41
1040
3.5
1070
    42
1040
1.0
1070
    43
1040
7.0
1070
    44
1040
1.0
1070
    47
1040
4.0
1070
    48
1040
4.0
1070
    73
1070
     0
1070
    74
1070
     0
1070
    77
1070
     1
1070
    78
1070
     8
1070
    79
1070
     2
1070
   140
1040
3.5
1070
   141
1040
1.5
1070
   146
1040
0.5
1070
   147
1040
1.5
1070
   172
1070
     1
1070
   178
1070
     1
1070
   179
1070
     2
1070
   271
1070
     2
1070
   272
1070
     2
1070
   284
1070
     8
1070
   285
1070
     8
1070
   286
1070
     8
1070
   340
1005
34
1002
}
  0
LINE
  5
1BB
330
20
100
AcDbEntity
  8
STEMPEL
100
AcDbLine
 10
293.4896980886524
 20
1125.62400407282
 30
0.0
 11
293.4896980886524
 21
740.6240040728196
 31
0.0
  0
LINE
  5
1D7
102
{ACAD_REACTORS
330
3E1
102
}
330
20
100
AcDbEntity
  8
STEMPEL
100
AcDbLine
 10
807.4080697977683
 20
1014.696396372269
 30
0.0
 11
704.5120903881019
 21
1117.592375781935
 31
0.0
  0
LINE
  5
1D8
102
{ACAD_REACTORS
330
299
102
}
330
20
100
AcDbEntity
  8
MITTEL
100
AcDbLine
 10
759.495613998868
 20
1069.679919983035
 30
0.0
 11
560.8803597448114
 21
871.0646657289784
 31
0.0
  0
LINE
  5
1D9
330
20
100
AcDbEntity
  8
HILF
100
AcDbLine
 10
657.3507507540852
 20
1064.114330627298
 30
0.0
 11
753.9300246431329
 21
967.5350567382505
 31
0.0
  0
LINE
  5
1DA
330
20
100
AcDbEntity
  8
HILF
100
AcDbLine
 10
654.6062284069429
 20
1056.107832959367
 30
0.0
 11
745.9235269751896
 21
964.7905343911201
 31
0.0
  0
LINE
  5
1DB
330
20
100
AcDbEntity
  8
HILF
100
AcDbLine
 10
672.508687749439
 20
1080.973434679186
 30
0.0
 11
770.7891286950196
 21
982.6929937336053
 31
0.0
  0
LINE
  5
1DC
330
20
100
AcDbEntity
  8
STEMPEL
100
AcDbLine
 10
744.6463715939501
 20
960.7854756803064
 30
0.0
 11
617.389698088652
 21
833.5288021750082
 31
0.0
  0
DIMENSION
  5
1DD
330
20
100
AcDbEntity
  8
BEM
100
AcDbDimension
  2
*D9
 10
486.5020808264482
 20
890.731588708426
 30
0.0
 11
545.0151669696348
 21
855.1994729538021
 31
0.0
 70
    32
  1
%%c<>
 71
     5
 42
132.9999999999999
  3
Standard
100
AcDbAlignedDimension
 13
617.389698088652
 23
833.5288021750082
 33
0.0
 14
617.3896980886517
 24
1021.619205970629
 34
0.0
 50
315.0
100
AcDbRotatedDimension
1001
ACAD
1000
DSTYLE
1002
{
1070
    40
1040
5.0
1070
    41
1040
3.5
1070
    42
1040
1.0
1070
    43
1040
7.0
1070
    44
1040
1.0
1070
    47
1040
4.0
1070
    48
1040
4.0
1070
    73
1070
     0
1070
    74
1070
     0
1070
    77
1070
     1
1070
    78
1070
     8
1070
    79
1070
     2
1070
   140
1040
3.5
1070
   141
1040
1.5
1070
   146
1040
0.5
1070
   147
1040
1.5
1070
   172
1070
     1
1070
   178
1070
     1
1070
   179
1070
     2
1070
   271
1070
     2
1070
   272
1070
     2
1070
   284
1070
     8
1070
   285
1070
     8
1070
   286
1070
     8
1070
   340
1005
34
1002
}
  0
ARC
  5
1DE
330
20
100
AcDbEntity
  8
STEMPEL
100
AcDbCircle
 10
1021.051932529271
 20
913.291036615632
 30
0.0
 40
417.9452018978069
100
AcDbArc
 50
164.919826655904
 51
180.0
  0
LINE
  5
1DF
102
{ACAD_REACTORS
330
3E1
102
}
330
20
100
AcDbEntity
  8
MITTEL
100
AcDbLine
 10
527.4441564651731
 20
837.6284624493402
 30
0.0
 11
455.4396980886521
 21
765.6240040728195
 31
0.0
  0
POINT
  5
1E0
330
20
100
AcDbEntity
  8
BEM
100
AcDbPoint
 10
455.4396980886521
 20
765.6240040728195
 30
0.0
  0
POINT
  5
1E1
330
20
100
AcDbEntity
  8
BEM
100
AcDbPoint
 10
455.4396980886521
 20
765.6240040728195
 30
0.0
  0
ARC
  5
1E2
330
20
100
AcDbEntity
  8
STEMPEL
100
AcDbCircle
 10
832.9615287336487
 20
913.2910366156314
 30
0.0
 40
229.8547981021846
100
AcDbArc
 50
180.0
 51
200.3046273274619
  0
LINE
  5
20E
330
20
100
AcDbEntity
  8
STEMPEL
100
AcDbLine
 10
617.389698088652
 20
833.5288021750082
 30
0.0
 11
617.389698088652
 21
740.6240040728196
 31
0.0
  0
ARC
  5
20F
330
20
100
AcDbEntity
  8
SCHRAFF
100
AcDbCircle
 10
608.5243873680042
 20
863.6805761640927
 30
0.0
 40
10.0
100
AcDbArc
 50
266.1920219012156
 51
301.1149899203442
  0
ARC
  5
210
330
20
100
AcDbEntity
  8
SCHRAFF
100
AcDbCircle
 10
606.5789604522183
 20
873.4895166836052
 30
0.0
 40
10.0
100
AcDbArc
 50
263.6991307563617
 51
298.6220987754905
  0
INSERT
  5
211
330
20
100
AcDbEntity
  8
SCHRAFF
100
AcDbBlockReference
  2
*X4
 10
-56.42054274760312
 20
61.90046218882947
 30
0.0
1001
ACAD
1000
HATCH
1002
{
1070
    16
1000
_U,I
1040
0.1
1040
0.0
1070
     0
1002
}
  0
ARC
  5
212
330
20
100
AcDbEntity
  8
SCHRAFF
100
AcDbCircle
 10
614.6853967980564
 20
834.6489604463158
 30
0.0
 40
4.928382052047529
100
AcDbArc
 50
303.2792367877571
 51
11.72076321224584
  0
ARC
  5
213
330
20
100
AcDbEntity
  8
SCHRAFF
100
AcDbCircle
 10
613.6851639676892
 20
844.3627835866889
 30
0.0
 40
10.0
100
AcDbArc
 50
271.1778041909226
 51
306.1007722100521
  0
ARC
  5
214
330
20
100
AcDbEntity
  8
SCHRAFF
100
AcDbCircle
 10
610.8946172893361
 20
853.9655357565585
 30
0.0
 40
10.0
100
AcDbArc
 50
101.2180101518395
 51
103.710901296698
  0
ARC
  5
215
330
20
100
AcDbEntity
  8
SCHRAFF
100
AcDbCircle
 10
613.6851639676892
 20
844.3627835866889
 30
0.0
 40
10.0
100
AcDbArc
 50
103.7109012966999
 51
106.203792441545
  0
ARC
  5
216
330
20
100
AcDbEntity
  8
SCHRAFF
100
AcDbCircle
 10
610.8946172893361
 20
853.9655357565585
 30
0.0
 40
10.0
100
AcDbArc
 50
268.6849130460688
 51
303.6078810651978
  0
ARC
  5
218
330
20
100
AcDbEntity
  8
SCHRAFF
100
AcDbCircle
 10
605.0620187453601
 20
883.3737914601377
 30
0.0
 40
10.0
100
AcDbArc
 50
261.2062396115082
 51
296.1292076306372
  0
ARC
  5
219
330
20
100
AcDbEntity
  8
SCHRAFF
100
AcDbCircle
 10
605.0620187453601
 20
883.3737914601377
 30
0.0
 40
10.0
100
AcDbArc
 50
93.73933671727519
 51
96.23222786213942
  0
ARC
  5
21A
330
20
100
AcDbEntity
  8
SCHRAFF
100
AcDbCircle
 10
603.3242592643787
 20
903.2934028308876
 30
0.0
 40
10.0
100
AcDbArc
 50
256.2204573218001
 51
291.1434253409291
  0
ARC
  5
21B
330
20
100
AcDbEntity
  8
SCHRAFF
100
AcDbCircle
 10
606.5789604522183
 20
873.4895166836052
 30
0.0
 40
10.0
100
AcDbArc
 50
96.23222786213286
 51
98.72511900698945
  0
ARC
  5
21C
330
20
100
AcDbEntity
  8
SCHRAFF
100
AcDbCircle
 10
608.5243873680042
 20
863.6805761640927
 30
0.0
 40
10.0
100
AcDbArc
 50
98.72511900699016
 51
101.2180101518395
  0
ARC
  5
21D
330
20
100
AcDbEntity
  8
SCHRAFF
100
AcDbCircle
 10
603.9764334361836
 20
893.3146920499485
 30
0.0
 40
10.0
100
AcDbArc
 50
258.7133484666541
 51
293.6363164857835
  0
ARC
  5
21E
330
20
100
AcDbEntity
  8
SCHRAFF
100
AcDbCircle
 10
603.1067306314644
 20
913.291036615632
 30
0.0
 40
10.0
100
AcDbArc
 50
87.94361272581856
 51
89.31453757525476
  0
ARC
  5
21F
330
20
100
AcDbEntity
  8
SCHRAFF
100
AcDbCircle
 10
603.5851937769352
 20
933.2838809577324
 30
0.0
 40
10.0
100
AcDbArc
 50
250.453265957591
 51
285.370819217104
  0
ARC
  5
220
330
20
100
AcDbEntity
  8
SCHRAFF
100
AcDbCircle
 10
603.3242592643787
 20
903.2934028308876
 30
0.0
 40
10.0
100
AcDbArc
 50
89.31453757526714
 51
91.24644557242724
  0
ARC
  5
221
330
20
100
AcDbEntity
  8
SCHRAFF
100
AcDbCircle
 10
603.226363539733
 20
923.2903209883888
 30
0.0
 40
10.0
100
AcDbArc
 50
251.8241908070549
 51
286.7417440665672
  0
ARC
  5
222
330
20
100
AcDbEntity
  8
SCHRAFF
100
AcDbCircle
 10
603.9764334361836
 20
893.3146920499485
 30
0.0
 40
10.0
100
AcDbArc
 50
91.24644557242138
 51
93.73933671728499
  0
ARC
  5
223
330
20
100
AcDbEntity
  8
SCHRAFF
100
AcDbCircle
 10
603.1067306314644
 20
913.291036615632
 30
0.0
 40
10.0
100
AcDbArc
 50
253.7275661769455
 51
288.6505341960747
  0
ARC
  5
224
330
20
100
AcDbEntity
  8
SCHRAFF
100
AcDbCircle
 10
610.7402512586004
 20
992.8052869248316
 30
0.0
 40
10.0
100
AcDbArc
 50
242.2277168608118
 51
277.1452701203243
  0
ARC
  5
225
330
20
100
AcDbEntity
  8
SCHRAFF
100
AcDbCircle
 10
608.9553310886503
 20
982.9658733250836
 30
0.0
 40
10.0
100
AcDbArc
 50
243.5986417102749
 51
278.5161949697875
  0
ARC
  5
226
330
20
100
AcDbEntity
  8
SCHRAFF
100
AcDbCircle
 10
607.4063285207887
 20
973.0865721835677
 30
0.0
 40
10.0
100
AcDbArc
 50
244.9695665597381
 51
279.8871198192507
  0
ARC
  5
227
330
20
100
AcDbEntity
  8
SCHRAFF
100
AcDbCircle
 10
604.1830159194669
 20
943.265995397364
 30
0.0
 40
10.0
100
AcDbArc
 50
83.83083817742971
 51
85.20176302686403
  0
ARC
  5
228
330
20
100
AcDbEntity
  8
SCHRAFF
100
AcDbCircle
 10
603.5851937769352
 20
933.2838809577324
 30
0.0
 40
10.0
100
AcDbArc
 50
85.20176302688561
 51
86.57268787633483
  0
ARC
  5
229
330
20
100
AcDbEntity
  8
SCHRAFF
100
AcDbCircle
 10
603.226363539733
 20
923.2903209883888
 30
0.0
 40
10.0
100
AcDbArc
 50
86.57268787635313
 51
87.94361272579379
  0
ARC
  5
22A
330
20
100
AcDbEntity
  8
SCHRAFF
100
AcDbCircle
 10
604.1830159194669
 20
943.265995397364
 30
0.0
 40
10.0
100
AcDbArc
 50
249.0823411081281
 51
283.999894367641
  0
ARC
  5
22B
330
20
100
AcDbEntity
  8
SCHRAFF
100
AcDbCircle
 10
605.0194877253248
 20
953.2309497333359
 30
0.0
 40
10.0
100
AcDbArc
 50
247.7114162586648
 51
282.6289695181773
  0
ARC
  5
22C
330
20
100
AcDbEntity
  8
SCHRAFF
100
AcDbCircle
 10
606.0941303300337
 20
963.1730392155395
 30
0.0
 40
10.0
100
AcDbArc
 50
246.3404914092017
 51
281.258044668714
  0
ARC
  5
22D
330
20
100
AcDbEntity
  8
SCHRAFF
100
AcDbCircle
 10
606.0941303300337
 20
963.1730392155395
 30
0.0
 40
10.0
100
AcDbArc
 50
81.08898847850451
 51
82.45991332793606
  0
ARC
  5
22E
330
20
100
AcDbEntity
  8
SCHRAFF
100
AcDbCircle
 10
605.0194877253248
 20
953.2309497333359
 30
0.0
 40
10.0
100
AcDbArc
 50
82.45991332796425
 51
83.83083817740287
  0
ARC
  5
22F
330
20
100
AcDbEntity
  8
VOLL
100
AcDbCircle
 10
607.4063285207887
 20
973.0865721835677
 30
0.0
 40
10.0
100
AcDbArc
 50
79.71806362903818
 51
81.08898847847623
  0
LINE
  5
230
330
20
100
AcDbEntity
  8
STEMPEL
100
AcDbLine
 10
617.389698088652
 20
1125.62400407282
 30
0.0
 11
617.389698088652
 21
1021.61920597063
 31
0.0
  0
LINE
  5
231
330
20
100
AcDbEntity
  8
STEMPEL
100
AcDbLine
 10
692.6016313915178
 20
1110.26616811604
 30
0.0
 11
679.0912090169266
 21
1096.755745741449
 31
0.0
  0
ARC
  5
232
330
20
100
AcDbEntity
  8
STEMPEL
100
AcDbCircle
 10
643.5301018842741
 20
1061.901745389982
 30
0.0
 40
10.0
100
AcDbArc
 50
315.0
 51
349.7719440319482
  0
LINE
  5
233
330
20
100
AcDbEntity
  8
STEMPEL
100
AcDbLine
 10
650.6011696961394
 20
1054.830677578117
 30
0.0
 11
617.389698088652
 21
1021.61920597063
 31
0.0
  0
ARC
  5
234
330
20
100
AcDbEntity
  8
SCHRAFF
100
AcDbCircle
 10
612.7600671972023
 20
1002.599180102428
 30
0.0
 40
10.0
100
AcDbArc
 50
240.8567920113488
 51
275.7743452708611
  0
ARC
  5
235
330
20
100
AcDbEntity
  8
SCHRAFF
100
AcDbCircle
 10
617.4996273413926
 20
1022.028007177387
 30
0.0
 40
10.0
100
AcDbArc
 50
238.1149423124218
 51
273.0324955719339
  0
ARC
  5
236
330
20
100
AcDbEntity
  8
VOLL
100
AcDbCircle
 10
608.9553310886503
 20
982.9658733250836
 30
0.0
 40
10.0
100
AcDbArc
 50
78.34713877957222
 51
79.71806362901569
  0
ARC
  5
237
330
20
100
AcDbEntity
  8
VOLL
100
AcDbCircle
 10
610.7402512586004
 20
992.8052869248316
 30
0.0
 40
10.0
100
AcDbArc
 50
76.97621393010291
 51
78.34713877955827
  0
ARC
  5
238
330
20
100
AcDbEntity
  8
SCHRAFF
100
AcDbCircle
 10
615.0136225975818
 20
1012.34194603708
 30
0.0
 40
10.0
100
AcDbArc
 50
239.4858671618854
 51
274.4034204213981
  0
INSERT
  5
239
330
20
100
AcDbEntity
  8
SCHRAFF
100
AcDbBlockReference
  2
*X3
 10
-56.42054274760312
 20
61.90046218882947
 30
0.0
1001
ACAD
1000
HATCH
1002
{
1070
    16
1000
_U,I
1040
0.1
1040
0.0
1070
     0
1002
}
  0
ARC
  5
23A
330
20
100
AcDbEntity
  8
SCHRAFF
100
AcDbCircle
 10
617.389698088652
 20
1021.61920597063
 30
0.0
 40
6.0
100
AcDbArc
 50
45.0
 51
90.0
  0
LINE
  5
23B
330
20
100
AcDbEntity
  8
STEMPEL
100
AcDbLine
 10
667.92528583521
 20
1079.225861529053
 30
0.0
 11
658.3572255808429
 21
1069.657801274686
 31
0.0
  0
ARC
  5
23C
330
20
100
AcDbEntity
  8
STEMPEL
100
AcDbCircle
 10
671.0851476422009
 20
1056.929879213328
 30
0.0
 40
18.0
100
AcDbArc
 50
134.9999999999999
 51
169.7719440319484
  0
ARC
  5
23D
330
20
100
AcDbEntity
  8
STEMPEL
100
AcDbCircle
 10
655.1973637738523
 20
1091.953783590411
 30
0.0
 40
18.0
100
AcDbArc
 50
314.9999999999999
 51
340.0071583365459
  0
LINE
  5
23E
330
20
100
AcDbEntity
  8
STEMPEL
100
AcDbLine
 10
679.0913955094869
 20
1096.755559248889
 30
0.0
 11
679.0912090169266
 21
1096.755745741449
 31
0.0
  0
ARC
  5
23F
330
20
100
AcDbEntity
  8
STEMPEL
100
AcDbCircle
 10
700.304412452523
 20
1075.542542305852
 30
0.0
 40
29.99973625969209
100
AcDbArc
 50
135.0
 51
160.0071583365459
  0
ARC
  5
240
330
20
100
AcDbEntity
  8
STEMPEL
100
AcDbCircle
 10
713.8148348271144
 20
1089.052964680443
 30
0.0
 40
30.0
100
AcDbArc
 50
110.0000000000059
 51
135.0
  0
LINE
  5
241
330
20
100
AcDbEntity
  8
STEMPEL
100
AcDbLine
 10
704.5120903881019
 20
1117.592375781935
 30
0.0
 11
703.5542305273446
 21
1117.243743304021
 31
0.0
  0
ARC
  5
242
330
20
100
AcDbEntity
  8
STEMPEL
100
AcDbCircle
 10
765.3582363216854
 20
1010.48871843669
 30
0.0
 40
29.99973625969209
100
AcDbArc
 50
289.9928416634573
 51
314.9999999999999
  0
ARC
  5
243
330
20
100
AcDbEntity
  8
STEMPEL
100
AcDbCircle
 10
746.7455732291613
 20
981.2694536263677
 30
0.0
 40
18.0
100
AcDbArc
 50
280.2280559680515
 51
315.0000000000001
  0
ARC
  5
244
330
20
100
AcDbEntity
  8
STEMPEL
100
AcDbCircle
 10
751.717439405816
 20
953.7144078684407
 30
0.0
 40
10.0
100
AcDbArc
 50
100.2280559680516
 51
134.9999999999999
  0
ARC
  5
245
330
20
100
AcDbEntity
  8
STEMPEL
100
AcDbCircle
 10
781.7694776062443
 20
965.381669758019
 30
0.0
 40
18.0
100
AcDbArc
 50
109.9928416634573
 51
135.0
  0
LINE
  5
246
330
20
100
AcDbEntity
  8
STEMPEL
100
AcDbLine
 10
769.0415555448861
 20
978.1095918193768
 30
0.0
 11
759.4734952905191
 21
968.54153156501
 31
0.0
  0
LINE
  5
247
330
20
100
AcDbEntity
  8
STEMPEL
100
AcDbLine
 10
800.081862131873
 20
1002.785937375685
 30
0.0
 11
786.5714397572818
 21
989.2755150010938
 31
0.0
  0
LINE
  5
248
330
20
100
AcDbEntity
  8
STEMPEL
100
AcDbLine
 10
786.5712532647216
 20
989.2757014936536
 30
0.0
 11
786.5714397572818
 21
989.2755150010938
 31
0.0
  0
ARC
  5
249
330
20
100
AcDbEntity
  8
STEMPEL
100
AcDbCircle
 10
778.8686586962766
 20
1023.999140811281
 30
0.0
 40
30.0
100
AcDbArc
 50
314.9999999999999
 51
339.9999999999908
  0
POINT
  5
24A
330
20
100
AcDbEntity
  8
BEM
100
AcDbPoint
 10
807.4080697977679
 20
1014.696396372269
 30
0.0
  0
LINE
  5
24B
330
20
100
AcDbEntity
  8
STEMPEL
100
AcDbLine
 10
807.4080697977686
 20
1014.696396372269
 30
0.0
 11
807.059437319854
 21
1013.738536511511
 31
0.0
  0
LINE
  5
24D
330
20
100
AcDbEntity
  8
BEM
100
AcDbLine
 10
617.389698088652
 20
937.5740040728189
 30
0.0
 11
617.389698088652
 21
917.5740040728189
 31
0.0
  0
POINT
  5
255
330
20
100
AcDbEntity
  8
DEFPOINTS
  6
ByBlock
 62
     0
100
AcDbPoint
 10
807.4080697977679
 20
1014.696396372269
 30
0.0
  0
POINT
  5
256
330
20
100
AcDbEntity
  8
DEFPOINTS
  6
ByBlock
 62
     0
100
AcDbPoint
 10
455.4396980886521
 20
765.6240040728195
 30
0.0
  0
TEXT
  5
25F
330
20
100
AcDbEntity
  8
TEXT
 62
     1
100
AcDbText
 10
444.4713842049836
 20
945.2147782330364
 30
0.0
 40
17.5
  1
DN300
 50
90.0
 41
0.8
  7
GREEKS
100
AcDbText
  0
TEXT
  5
260
330
20
100
AcDbEntity
  8
TEXT
 62
     1
100
AcDbText
 10
641.6514269095393
 20
966.1658785929665
 30
0.0
 40
17.5
  1
DN125
 50
45.0
 41
0.8
  7
GREEKS
100
AcDbText
  0
DIMENSION
  5
27E
102
{ACAD_XDICTIONARY
360
28D
102
}
102
{ACAD_REACTORS
330
299
102
}
330
20
100
AcDbEntity
  8
BEM
100
AcDbDimension
  2
*D7
 10
455.4396980886521
 20
730.6240040728196
 30
0.0
 11
648.9383738587812
 21
1179.694176990023
 31
0.0
 70
   162
 71
     5
 42
0.7853981633974483
  3
Standard
100
AcDb2LineAngularDimension
 13
759.495613998868
 23
1069.679919983035
 33
0.0
 14
560.8803597448114
 24
871.0646657289784
 34
0.0
 15
455.4396980886521
 25
1135.624004072819
 35
0.0
 16
573.7332663175451
 26
1207.101610911663
 36
0.0
1001
ACAD
1000
DSTYLE
1002
{
1070
    40
1040
5.0
1070
    41
1040
3.5
1070
    42
1040
1.0
1070
    43
1040
7.0
1070
    44
1040
1.0
1070
    47
1040
4.0
1070
    48
1040
4.0
1070
    73
1070
     0
1070
    74
1070
     0
1070
    77
1070
     1
1070
    78
1070
     8
1070
    79
1070
     2
1070
   140
1040
3.5
1070
   141
1040
1.5
1070
   146
1040
0.5
1070
   147
1040
1.5
1070
   172
1070
     1
1070
   178
1070
     1
1070
   179
1070
     2
1070
   271
1070
     2
1070
   272
1070
     2
1070
   284
1070
     8
1070
   285
1070
     8
1070
   286
1070
     8
1070
   340
1005
34
1002
}
  0
TEXT
  5
328
330
20
100
AcDbEntity
  8
BEM
100
AcDbText
 10
1043.255730964291
 20
25.41975269997152
 30
0.0
 40
10.0
  1
Diese Zeichnung ist urheberrechtlich geschützt und bleibt unser Eigentum. Sie darf weder ganz noch teilweise verfielfältigt und nicht an Dritte weitergegeben werden.
 50
90.0
 41
0.8
  7
GREEKS
100
AcDbText
  0
TEXT
  5
335
330
20
100
AcDbEntity
  8
TEXT
100
AcDbText
 10
481.7206788119809
 20
223.8135564573506
 30
0.0
 40
10.0
  1
DIN EN1123-2
 41
0.8
  7
GREEKS
 72
     1
 11
524.1968692881714
 21
223.8135564573506
 31
0.0
100
AcDbText
  0
DIMENSION
  5
3CA
102
{ACAD_XDICTIONARY
360
3D7
102
}
102
{ACAD_REACTORS
330
3E1
102
}
330
20
100
AcDbEntity
  8
BEM
100
AcDbDimension
  2
*D15
 10
832.3619911074477
 20
989.7424750625896
 30
0.0
 11
670.6113149110247
 21
850.9727692547297
 31
0.0
 70
    32
 71
     5
 42
425.0000000000002
 51
315.0000000000001
  3
Standard
100
AcDbAlignedDimension
 13
455.4396980886521
 23
765.6240040728195
 33
0.0
 14
807.4080697977683
 24
1014.696396372269
 34
0.0
 50
44.99999999999996
100
AcDbRotatedDimension
1001
ACAD
1000
DSTYLE
1002
{
1070
    40
1040
5.0
1070
    41
1040
3.5
1070
    42
1040
1.0
1070
    43
1040
7.0
1070
    44
1040
1.0
1070
    47
1040
4.0
1070
    48
1040
4.0
1070
    73
1070
     0
1070
    74
1070
     0
1070
    77
1070
     1
1070
    78
1070
     8
1070
    79
1070
     2
1070
   140
1040
3.5
1070
   141
1040
1.5
1070
   146
1040
0.5
1070
   147
1040
1.5
1070
   172
1070
     1
1070
   178
1070
     1
1070
   179
1070
     2
1070
   271
1070
     2
1070
   272
1070
     2
1070
   284
1070
     8
1070
   285
1070
     8
1070
   286
1070
     8
1070
   340
1005
34
1002
}
  0
ENDSEC
  0
SECTION
  2
OBJECTS
  0
DICTIONARY
  5
C
330
0
100
AcDbDictionary
281
     1
  3
ACAD_COLOR
350
1B
  3
ACAD_GROUP
350
D
  3
ACAD_LAYOUT
350
19
  3
ACAD_MATERIAL
350
1A
  3
ACAD_MLINESTYLE
350
16
  3
ACAD_PLOTSETTINGS
350
18
  3
ACAD_PLOTSTYLENAME
350
E
  3
AcDbVariableDictionary
350
34A
  0
DICTIONARY
  5
28D
330
27E
100
AcDbDictionary
280
     1
281
     1
  3
ACAD_DIMASSOC
360
299
  0
DICTIONARY
  5
3D7
330
3CA
100
AcDbDictionary
280
     1
281
     1
  3
ACAD_DIMASSOC
360
3E1
  0
DICTIONARY
  5
1B
102
{ACAD_REACTORS
330
C
102
}
330
C
100
AcDbDictionary
281
     1
  0
DICTIONARY
  5
D
102
{ACAD_REACTORS
330
C
102
}
330
C
100
AcDbDictionary
281
     1
  0
DICTIONARY
  5
19
102
{ACAD_REACTORS
330
C
102
}
330
C
100
AcDbDictionary
281
     1
  3
Layout1
350
1F
  3
Model
350
23
  0
DICTIONARY
  5
1A
102
{ACAD_REACTORS
330
C
102
}
330
C
100
AcDbDictionary
281
     1
  0
DICTIONARY
  5
16
102
{ACAD_REACTORS
330
C
102
}
330
C
100
AcDbDictionary
281
     1
  3
Standard
350
17
  0
DICTIONARY
  5
18
102
{ACAD_REACTORS
330
C
102
}
330
C
100
AcDbDictionary
281
     1
  0
ACDBDICTIONARYWDFLT
  5
E
102
{ACAD_REACTORS
330
C
102
}
330
C
100
AcDbDictionary
281
     1
  3
Normal
350
F
100
AcDbDictionaryWithDefault
340
F
  0
DICTIONARY
  5
34A
102
{ACAD_REACTORS
330
C
102
}
330
C
100
AcDbDictionary
281
     1
  3
DIMASSOC
350
34C
  3
HIDETEXT
350
34B
  3
PROJECTNAME
350
34D
  0
DIMASSOC
  5
299
102
{ACAD_REACTORS
330
28D
102
}
330
28D
100
AcDbDimAssoc
330
27E
 90
       15
 70
     0
 71
     0
  1
AcDbOsnapPointRef
 72
    13
331
1D8
 73
     2
 91
        0
 40
0.0
 10
0.0
 20
0.0
 30
2.000000000000000E+50
 75
     0
  1
AcDbOsnapPointRef
 72
     1
331
1D8
 73
     2
 91
        0
 40
1.0
 10
0.0
 20
0.0
 30
2.000000000000000E+50
 75
     0
  1
AcDbOsnapPointRef
 72
    13
331
172
 73
     2
 91
        0
 40
0.0
 10
0.0
 20
0.0
 30
2.000000000000000E+50
 75
     0
  1
AcDbOsnapPointRef
 72
     1
331
172
 73
     2
 91
        0
 40
1.0
 10
0.0
 20
0.0
 30
2.000000000000000E+50
 75
     0
  0
DIMASSOC
  5
3E1
102
{ACAD_REACTORS
330
3D7
102
}
330
3D7
100
AcDbDimAssoc
330
3CA
 90
        3
 70
     0
 71
     0
  1
AcDbOsnapPointRef
 72
     1
331
1DF
 73
     2
 91
        0
 40
1.0
 10
0.0
 20
0.0
 30
2.000000000000000E+50
 75
     0
  1
AcDbOsnapPointRef
 72
    13
331
1D7
 73
     2
 91
        0
 40
0.0000000000000006
 10
0.0
 20
0.0
 30
2.000000000000000E+50
 75
     0
  0
LAYOUT
  5
1F
102
{ACAD_REACTORS
330
19
102
}
330
19
100
AcDbPlotSettings
  1

  2
RICOH Aficio 2027 PCL 6
  4

  6

 40
0.0
 41
0.0
 42
0.0
 43
0.0
 44
0.0
 45
0.0
 46
0.0
 47
0.0
 48
0.0
 49
0.0
140
0.0
141
0.0
142
1.0
143
1.0
 70
   688
 72
     0
 73
     0
 74
     5
  7
monochrome1.ctb
 75
    16
147
1.0
 76
     0
 77
     2
 78
   300
148
0.0
149
0.0
100
AcDbLayout
  1
Layout1
 70
     0
 71
     1
 10
0.0
 20
0.0
 11
12.0
 21
9.0
 12
5.612851412409735
 22
50.00000000000001
 32
-2.58105543498411
 14
1.000000000000000E+20
 24
1.000000000000000E+20
 34
1.000000000000000E+20
 15
-1.000000000000000E+20
 25
-1.000000000000000E+20
 35
-1.000000000000000E+20
146
0.0
 13
0.0
 23
0.0
 33
0.0
 16
1.0
 26
0.0
 36
0.0
 17
0.0
 27
1.0
 37
0.0
 76
     0
330
1C
  0
LAYOUT
  5
23
102
{ACAD_REACTORS
330
19
102
}
330
19
100
AcDbPlotSettings
  1

  2
RICOH Aficio 2027 PCL 6
  4
A4
  6

 40
5.027083396911621
 41
5.027085304260253
 42
5.027084350585937
 43
5.027069091796875
 44
209.9733276367187
 45
296.9259948730469
 46
0.0
 47
0.0
 48
0.0
 49
0.0
140
0.0
141
0.0
142
1.0
143
1.0
 70
 11952
 72
     0
 73
     1
 74
     0
  7
monochrome1.ctb
 75
     0
147
1.0
 76
     0
 77
     2
 78
   300
148
5749.737974108374
149
225.2379483828901
100
AcDbLayout
  1
Model
 70
     1
 71
     0
 10
0.0
 20
0.0
 11
12.0
 21
9.0
 12
0.0
 22
0.0
 32
0.0
 14
0.0
 24
0.0
 34
0.0
 15
0.0
 25
0.0
 35
0.0
146
0.0
 13
0.0
 23
0.0
 33
0.0
 16
1.0
 26
0.0
 36
0.0
 17
0.0
 27
1.0
 37
0.0
 76
     0
330
20
  0
MLINESTYLE
  5
17
102
{ACAD_REACTORS
330
16
102
}
330
16
100
AcDbMlineStyle
  2
STANDARD
 70
     0
  3

 62
   256
 51
90.0
 52
90.0
 71
     2
 49
0.5
 62
   256
  6
BYLAYER
 49
-0.5
 62
   256
  6
BYLAYER
  0
ACDBPLACEHOLDER
  5
F
102
{ACAD_REACTORS
330
E
102
}
330
E
  0
DICTIONARYVAR
  5
34C
102
{ACAD_REACTORS
330
34A
102
}
330
34A
100
DictionaryVariables
280
     0
  1
2
  0
DICTIONARYVAR
  5
34B
102
{ACAD_REACTORS
330
34A
102
}
330
34A
100
DictionaryVariables
280
     0
  1
1
  0
DICTIONARYVAR
  5
34D
102
{ACAD_REACTORS
330
34A
102
}
330
34A
100
DictionaryVariables
280
     0
  1

  0
ENDSEC
  0
EOF
