  0
SECTION
  2
HEADER
  9
$ACADVER
  1
AC1018
  9
$ACADMAINTVER
 70
     2
  9
$DWGCODEPAGE
  3
ANSI_1252
  9
$INSBASE
 10
0.0
 20
0.0
 30
0.0
  9
$EXTMIN
 10
-0.080096417720597
 20
-0.1132792193470777
 30
-0.000000000000013
  9
$EXTMAX
 10
1050.000004890039
 20
1485.000006915915
 30
0.0000000000000023
  9
$LIMMIN
 10
0.0
 20
0.0
  9
$LIMMAX
 10
1050.0
 20
1485.0
  9
$ORTHOMODE
 70
     0
  9
$REGENMODE
 70
     1
  9
$FILLMODE
 70
     1
  9
$QTEXTMODE
 70
     0
  9
$MIRRTEXT
 70
     1
  9
$LTSCALE
 40
50.0
  9
$ATTMODE
 70
     1
  9
$TEXTSIZE
 40
2.5
  9
$TRACEWID
 40
0.5
  9
$TEXTSTYLE
  7
GREEKS
  9
$CLAYER
  8
BEM
  9
$CELTYPE
  6
ByLayer
  9
$CECOLOR
 62
   256
  9
$CELTSCALE
 40
1.0
  9
$DISPSILH
 70
     0
  9
$DIMSCALE
 40
5.0
  9
$DIMASZ
 40
3.5
  9
$DIMEXO
 40
1.0
  9
$DIMDLI
 40
7.0
  9
$DIMRND
 40
0.0
  9
$DIMDLE
 40
0.0
  9
$DIMEXE
 40
1.0
  9
$DIMTP
 40
4.0
  9
$DIMTM
 40
4.0
  9
$DIMTXT
 40
3.5
  9
$DIMCEN
 40
1.5
  9
$DIMTSZ
 40
0.0
  9
$DIMTOL
 70
     0
  9
$DIMLIM
 70
     0
  9
$DIMTIH
 70
     0
  9
$DIMTOH
 70
     0
  9
$DIMSE1
 70
     0
  9
$DIMSE2
 70
     0
  9
$DIMTAD
 70
     1
  9
$DIMZIN
 70
     8
  9
$DIMBLK
  1

  9
$DIMASO
 70
     1
  9
$DIMSHO
 70
     0
  9
$DIMPOST
  1

  9
$DIMAPOST
  1

  9
$DIMALT
 70
     0
  9
$DIMALTD
 70
     2
  9
$DIMALTF
 40
25.4
  9
$DIMLFAC
 40
1.0
  9
$DIMTOFL
 70
     1
  9
$DIMTVP
 40
0.0
  9
$DIMTIX
 70
     0
  9
$DIMSOXD
 70
     0
  9
$DIMSAH
 70
     0
  9
$DIMBLK1
  1

  9
$DIMBLK2
  1

  9
$DIMSTYLE
  2
Standard
  9
$DIMCLRD
 70
     0
  9
$DIMCLRE
 70
     0
  9
$DIMCLRT
 70
     1
  9
$DIMTFAC
 40
0.5
  9
$DIMGAP
 40
1.5
  9
$DIMJUST
 70
     0
  9
$DIMSD1
 70
     0
  9
$DIMSD2
 70
     0
  9
$DIMTOLJ
 70
     1
  9
$DIMTZIN
 70
     8
  9
$DIMALTZ
 70
     8
  9
$DIMALTTZ
 70
     8
  9
$DIMUPT
 70
     0
  9
$DIMDEC
 70
     2
  9
$DIMTDEC
 70
     2
  9
$DIMALTU
 70
     2
  9
$DIMALTTD
 70
     2
  9
$DIMTXSTY
  7
GREEKS
  9
$DIMAUNIT
 70
     0
  9
$DIMADEC
 70
     2
  9
$DIMALTRND
 40
0.0
  9
$DIMAZIN
 70
     2
  9
$DIMDSEP
 70
    46
  9
$DIMATFIT
 70
     3
  9
$DIMFRAC
 70
     0
  9
$DIMLDRBLK
  1

  9
$DIMLUNIT
 70
     2
  9
$DIMLWD
 70
    -2
  9
$DIMLWE
 70
    -2
  9
$DIMTMOVE
 70
     0
  9
$LUNITS
 70
     2
  9
$LUPREC
 70
     2
  9
$SKETCHINC
 40
1.0
  9
$FILLETRAD
 40
0.0
  9
$AUNITS
 70
     0
  9
$AUPREC
 70
     0
  9
$MENU
  1
ACAD
  9
$ELEVATION
 40
0.0
  9
$PELEVATION
 40
0.0
  9
$THICKNESS
 40
0.0
  9
$LIMCHECK
 70
     0
  9
$CHAMFERA
 40
0.0
  9
$CHAMFERB
 40
0.0
  9
$CHAMFERC
 40
0.0
  9
$CHAMFERD
 40
0.0
  9
$SKPOLY
 70
     0
  9
$TDCREATE
 40
2452215.982672917
  9
$TDUCREATE
 40
2452215.899339583
  9
$TDUPDATE
 40
2455657.576152095
  9
$TDUUPDATE
 40
2455657.492818762
  9
$TDINDWG
 40
0.0740631134
  9
$TDUSRTIMER
 40
0.0740631134
  9
$USRTIMER
 70
     1
  9
$ANGBASE
 50
0.0
  9
$ANGDIR
 70
     0
  9
$PDMODE
 70
     0
  9
$PDSIZE
 40
0.0
  9
$PLINEWID
 40
0.0
  9
$SPLFRAME
 70
     0
  9
$SPLINETYPE
 70
     6
  9
$SPLINESEGS
 70
     8
  9
$HANDSEED
  5
3EF
  9
$SURFTAB1
 70
     6
  9
$SURFTAB2
 70
     6
  9
$SURFTYPE
 70
     6
  9
$SURFU
 70
     6
  9
$SURFV
 70
     6
  9
$UCSBASE
  2

  9
$UCSNAME
  2

  9
$UCSORG
 10
0.0
 20
0.0
 30
0.0
  9
$UCSXDIR
 10
1.0
 20
0.0
 30
0.0
  9
$UCSYDIR
 10
0.0
 20
1.0
 30
0.0
  9
$UCSORTHOREF
  2

  9
$UCSORTHOVIEW
 70
     0
  9
$UCSORGTOP
 10
0.0
 20
0.0
 30
0.0
  9
$UCSORGBOTTOM
 10
0.0
 20
0.0
 30
0.0
  9
$UCSORGLEFT
 10
0.0
 20
0.0
 30
0.0
  9
$UCSORGRIGHT
 10
0.0
 20
0.0
 30
0.0
  9
$UCSORGFRONT
 10
0.0
 20
0.0
 30
0.0
  9
$UCSORGBACK
 10
0.0
 20
0.0
 30
0.0
  9
$PUCSBASE
  2

  9
$PUCSNAME
  2

  9
$PUCSORG
 10
0.0
 20
0.0
 30
0.0
  9
$PUCSXDIR
 10
1.0
 20
0.0
 30
0.0
  9
$PUCSYDIR
 10
0.0
 20
1.0
 30
0.0
  9
$PUCSORTHOREF
  2

  9
$PUCSORTHOVIEW
 70
     0
  9
$PUCSORGTOP
 10
0.0
 20
0.0
 30
0.0
  9
$PUCSORGBOTTOM
 10
0.0
 20
0.0
 30
0.0
  9
$PUCSORGLEFT
 10
0.0
 20
0.0
 30
0.0
  9
$PUCSORGRIGHT
 10
0.0
 20
0.0
 30
0.0
  9
$PUCSORGFRONT
 10
0.0
 20
0.0
 30
0.0
  9
$PUCSORGBACK
 10
0.0
 20
0.0
 30
0.0
  9
$USERI1
 70
     0
  9
$USERI2
 70
     0
  9
$USERI3
 70
     0
  9
$USERI4
 70
     0
  9
$USERI5
 70
     0
  9
$USERR1
 40
0.0
  9
$USERR2
 40
0.0
  9
$USERR3
 40
0.0
  9
$USERR4
 40
0.0
  9
$USERR5
 40
0.0
  9
$WORLDVIEW
 70
     1
  9
$SHADEDGE
 70
     3
  9
$SHADEDIF
 70
    70
  9
$TILEMODE
 70
     1
  9
$MAXACTVP
 70
    16
  9
$PINSBASE
 10
5.612851412409735
 20
50.00000000000001
 30
-2.58105543498411
  9
$PLIMCHECK
 70
     0
  9
$PEXTMIN
 10
1.000000000000000E+20
 20
1.000000000000000E+20
 30
1.000000000000000E+20
  9
$PEXTMAX
 10
-1.000000000000000E+20
 20
-1.000000000000000E+20
 30
-1.000000000000000E+20
  9
$PLIMMIN
 10
0.0
 20
0.0
  9
$PLIMMAX
 10
12.0
 20
9.0
  9
$UNITMODE
 70
     0
  9
$VISRETAIN
 70
     0
  9
$PLINEGEN
 70
     0
  9
$PSLTSCALE
 70
     0
  9
$TREEDEPTH
 70
  3020
  9
$CMLSTYLE
  2
Standard
  9
$CMLJUST
 70
     0
  9
$CMLSCALE
 40
1.0
  9
$PROXYGRAPHICS
 70
     1
  9
$MEASUREMENT
 70
     0
  9
$CELWEIGHT
370
    -1
  9
$ENDCAPS
280
     0
  9
$JOINSTYLE
280
     0
  9
$LWDISPLAY
290
     0
  9
$INSUNITS
 70
     0
  9
$HYPERLINKBASE
  1

  9
$STYLESHEET
  1
monochrome 1.ctb
  9
$XEDIT
290
     1
  9
$CEPSNTYPE
380
     0
  9
$PSTYLEMODE
290
     1
  9
$FINGERPRINTGUID
  2
{B482107E-B8A0-48E0-BB5C-8228FE0174F0}
  9
$VERSIONGUID
  2
{11D30454-27B6-4E8A-87ED-A3C348660228}
  9
$EXTNAMES
290
     1
  9
$PSVPSCALE
 40
0.0
  9
$OLESTARTUP
290
     0
  9
$SORTENTS
280
   127
  9
$INDEXCTL
280
     0
  9
$HIDETEXT
280
     1
  9
$XCLIPFRAME
290
     0
  9
$HALOGAP
280
     0
  9
$OBSCOLOR
 70
   257
  9
$OBSLTYPE
280
     0
  9
$INTERSECTIONDISPLAY
280
     0
  9
$INTERSECTIONCOLOR
 70
   257
  9
$DIMASSOC
280
     2
  9
$PROJECTNAME
  1

  0
ENDSEC
  0
SECTION
  2
CLASSES
  0
CLASS
  1
ACDBDICTIONARYWDFLT
  2
AcDbDictionaryWithDefault
  3
ObjectDBX Classes
 90
        0
 91
        1
280
     0
281
     0
  0
CLASS
  1
DICTIONARYVAR
  2
AcDbDictionaryVar
  3
ObjectDBX Classes
 90
        0
 91
        3
280
     0
281
     0
  0
CLASS
  1
DIMASSOC
  2
AcDbDimAssoc
  3
"AcDbDimAssoc|Product Desc:     AcDim ARX App For Dimension|Company:          Autodesk, Inc.|WEB Address:      www.autodesk.com"
 90
        0
 91
        3
280
     0
281
     0
  0
ENDSEC
  0
SECTION
  2
TABLES
  0
TABLE
  2
VPORT
  5
8
330
0
100
AcDbSymbolTable
 70
     3
  0
VPORT
  5
3EE
330
8
100
AcDbSymbolTableRecord
100
AcDbViewportTableRecord
  2
*Active
 70
     0
 10
0.0
 20
0.0
 11
1.0
 21
1.0
 12
524.9999999999998
 22
742.4999999999999
 13
0.0
 23
0.0
 14
1.0
 24
1.0
 15
10.0
 25
10.0
 16
0.0
 26
0.0
 36
1.0
 17
0.0
 27
0.0
 37
0.0
 40
1485.0
 41
1.334231805929919
 42
50.0
 43
0.0
 44
0.0
 50
0.0
 51
0.0
 71
     0
 72
  1500
 73
     1
 74
     0
 75
     0
 76
     0
 77
     0
 78
     0
281
     0
 65
     1
110
0.0
120
0.0
130
0.0
111
1.0
121
0.0
131
0.0
112
0.0
122
1.0
132
0.0
 79
     0
146
0.0
  0
ENDTAB
  0
TABLE
  2
LTYPE
  5
5
330
0
100
AcDbSymbolTable
 70
     2
  0
LTYPE
  5
13
330
5
100
AcDbSymbolTableRecord
100
AcDbLinetypeTableRecord
  2
ByBlock
 70
     0
  3

 72
    65
 73
     0
 40
0.0
  0
LTYPE
  5
14
330
5
100
AcDbSymbolTableRecord
100
AcDbLinetypeTableRecord
  2
ByLayer
 70
     0
  3

 72
    65
 73
     0
 40
0.0
  0
LTYPE
  5
15
330
5
100
AcDbSymbolTableRecord
100
AcDbLinetypeTableRecord
  2
Continuous
 70
     0
  3
Solid line
 72
    65
 73
     0
 40
0.0
  0
LTYPE
  5
34
330
5
100
AcDbSymbolTableRecord
100
AcDbLinetypeTableRecord
  2
STRICHPUNKT
 70
     0
  3
__ . __ . __ . __ . __ . __ . __ . __ . __ . __
 72
    65
 73
     4
 40
1.0
 49
0.5
 74
     0
 49
-0.25
 74
     0
 49
0.0
 74
     0
 49
-0.25
 74
     0
  0
ENDTAB
  0
TABLE
  2
LAYER
  5
2
330
0
100
AcDbSymbolTable
 70
     9
  0
LAYER
  5
10
330
2
100
AcDbSymbolTableRecord
100
AcDbLayerTableRecord
  2
0
 70
     0
 62
     7
  6
Continuous
370
    -3
390
F
  0
LAYER
  5
37
330
2
100
AcDbSymbolTableRecord
100
AcDbLayerTableRecord
  2
VOLL
 70
     0
 62
     1
  6
Continuous
370
    -3
390
F
  0
LAYER
  5
38
330
2
100
AcDbSymbolTableRecord
100
AcDbLayerTableRecord
  2
HILF
 70
     0
 62
     2
  6
Continuous
370
    -3
390
F
  0
LAYER
  5
39
330
2
100
AcDbSymbolTableRecord
100
AcDbLayerTableRecord
  2
MITTEL
 70
     0
 62
     2
  6
STRICHPUNKT
370
    -3
390
F
  0
LAYER
  5
3A
330
2
100
AcDbSymbolTableRecord
100
AcDbLayerTableRecord
  2
BEM
 70
     0
 62
     7
  6
Continuous
370
    -3
390
F
  0
LAYER
  5
3B
330
2
100
AcDbSymbolTableRecord
100
AcDbLayerTableRecord
  2
STEMPEL
 70
     0
 62
     3
  6
Continuous
370
    -3
390
F
  0
LAYER
  5
3C
330
2
100
AcDbSymbolTableRecord
100
AcDbLayerTableRecord
  2
TEXT
 70
     0
 62
     7
  6
Continuous
370
    -3
390
F
  0
LAYER
  5
3D
330
2
100
AcDbSymbolTableRecord
100
AcDbLayerTableRecord
  2
DEFPOINTS
 70
     0
 62
     7
  6
Continuous
290
     0
370
    -3
390
F
  0
LAYER
  5
3E
330
2
100
AcDbSymbolTableRecord
100
AcDbLayerTableRecord
  2
SCHRAFF
 70
     0
 62
     7
  6
Continuous
370
    -3
390
F
  0
ENDTAB
  0
TABLE
  2
STYLE
  5
3
330
0
100
AcDbSymbolTable
 70
     2
  0
STYLE
  5
11
330
3
100
AcDbSymbolTableRecord
100
AcDbTextStyleTableRecord
  2
STANDARD
 70
     0
 40
0.0
 41
1.0
 50
0.0
 71
     0
 42
3.5
  3
txt
  4

  0
STYLE
  5
33
330
3
100
AcDbSymbolTableRecord
100
AcDbTextStyleTableRecord
  2
GREEKS
 70
     0
 40
0.0
 41
0.8
 50
0.0
 71
     0
 42
2.5
  3
SIMPLEX.shx
  4

  0
ENDTAB
  0
TABLE
  2
VIEW
  5
6
330
0
100
AcDbSymbolTable
 70
     0
  0
ENDTAB
  0
TABLE
  2
UCS
  5
7
330
0
100
AcDbSymbolTable
 70
     0
  0
ENDTAB
  0
TABLE
  2
APPID
  5
9
330
0
100
AcDbSymbolTable
 70
     1
  0
APPID
  5
12
330
9
100
AcDbSymbolTableRecord
100
AcDbRegAppTableRecord
  2
ACAD
 70
     0
  0
ENDTAB
  0
TABLE
  2
DIMSTYLE
  5
A
330
0
100
AcDbSymbolTable
 70
     1
100
AcDbDimStyleTable
 71
     1
340
25E
  0
DIMSTYLE
105
25E
102
{ACAD_REACTORS
330
1C9
330
2D7
330
16F
330
16E
330
158
330
3CC
102
}
330
A
100
AcDbSymbolTableRecord
100
AcDbDimStyleTableRecord
  2
Standard
 70
     0
340
11
  0
ENDTAB
  0
TABLE
  2
BLOCK_RECORD
  5
1
330
0
100
AcDbSymbolTable
 70
    17
  0
BLOCK_RECORD
  5
20
330
1
100
AcDbSymbolTableRecord
100
AcDbBlockTableRecord
  2
*Model_Space
340
23
  0
BLOCK_RECORD
  5
1C
330
1
100
AcDbSymbolTableRecord
100
AcDbBlockTableRecord
  2
*Paper_Space
340
1F
  0
BLOCK_RECORD
  5
24
330
1
100
AcDbSymbolTableRecord
100
AcDbBlockTableRecord
  2
LOGO
340
0
102
{BLKREFS
331
15D
102
}
  0
BLOCK_RECORD
  5
28
330
1
100
AcDbSymbolTableRecord
100
AcDbBlockTableRecord
  2
*X3
340
0
102
{BLKREFS
331
1E7
102
}
  0
BLOCK_RECORD
  5
29
330
1
100
AcDbSymbolTableRecord
100
AcDbBlockTableRecord
  2
*X4
340
0
102
{BLKREFS
331
1CC
102
}
  0
BLOCK_RECORD
  5
260
330
1
100
AcDbSymbolTableRecord
100
AcDbBlockTableRecord
  2
*D7
340
0
  0
BLOCK_RECORD
  5
278
330
1
100
AcDbSymbolTableRecord
100
AcDbBlockTableRecord
  2
*D9
340
0
  0
BLOCK_RECORD
  5
2D8
330
1
100
AcDbSymbolTableRecord
100
AcDbBlockTableRecord
  2
*D11
340
0
  0
BLOCK_RECORD
  5
36C
330
1
100
AcDbSymbolTableRecord
100
AcDbBlockTableRecord
  2
*D13
340
0
  0
BLOCK_RECORD
  5
38D
330
1
100
AcDbSymbolTableRecord
100
AcDbBlockTableRecord
  2
*D14
340
0
  0
BLOCK_RECORD
  5
3CD
330
1
100
AcDbSymbolTableRecord
100
AcDbBlockTableRecord
  2
*D16
340
0
  0
ENDTAB
  0
ENDSEC
  0
SECTION
  2
BLOCKS
  0
BLOCK
  5
42
330
20
100
AcDbEntity
  8
0
100
AcDbBlockBegin
  2
*Model_Space
 70
     0
 10
0.0
 20
0.0
 30
0.0
  3
*Model_Space
  1

  0
ENDBLK
  5
43
330
20
100
AcDbEntity
  8
0
100
AcDbBlockEnd
  0
BLOCK
  5
40
330
1C
100
AcDbEntity
 67
     1
  8
0
100
AcDbBlockBegin
  2
*Paper_Space
 70
     0
 10
0.0
 20
0.0
 30
0.0
  3
*Paper_Space
  1

  0
ENDBLK
  5
41
330
1C
100
AcDbEntity
 67
     1
  8
0
100
AcDbBlockEnd
  0
BLOCK
  5
44
330
24
100
AcDbEntity
  8
0
100
AcDbBlockBegin
  2
LOGO
 70
     0
 10
0.0
 20
0.0
 30
0.0
  3
LOGO
  1

  0
ARC
  5
45
330
24
100
AcDbEntity
  8
0
100
AcDbCircle
 10
11.59973089678112
 20
-9.271599258481501
 30
0.0
 40
4.5
100
AcDbArc
 50
270.0
 51
231.0575587310159
  0
LINE
  5
46
330
24
100
AcDbEntity
  8
0
100
AcDbLine
 10
3.599730896781125
 20
-4.771599258481529
 30
0.0
 11
3.599730896781153
 21
-11.77159925848133
 31
0.0
  0
LINE
  5
47
330
24
100
AcDbEntity
  8
0
100
AcDbLine
 10
2.599730896781125
 20
-4.771599258481529
 30
0.0
 11
2.599730896781153
 21
-11.77159925848133
 31
0.0
  0
CIRCLE
  5
48
330
24
100
AcDbEntity
  8
0
100
AcDbCircle
 10
11.59973089678112
 20
-9.271599258481501
 30
0.0
 40
3.5
  0
ARC
  5
49
330
24
100
AcDbEntity
  8
0
100
AcDbCircle
 10
31.59973089678115
 20
-9.271599258481472
 30
0.0
 40
4.5
100
AcDbArc
 50
270.0
 51
231.0575587310182
  0
LINE
  5
4A
330
24
100
AcDbEntity
  8
0
100
AcDbLine
 10
17.59973089678112
 20
-4.771599258481472
 30
0.0
 11
17.59973089678115
 21
-13.77159925848147
 31
0.0
  0
ARC
  5
4B
330
24
100
AcDbEntity
  8
0
100
AcDbCircle
 10
22.59973089678116
 20
-7.271599258481472
 30
0.0
 40
2.5
100
AcDbArc
 50
293.1161887722295
 51
90.0
  0
CIRCLE
  5
4C
330
24
100
AcDbEntity
  8
0
100
AcDbCircle
 10
31.59973089678115
 20
-9.271599258481472
 30
0.0
 40
3.5
  0
ARC
  5
4D
330
24
100
AcDbEntity
  8
0
100
AcDbCircle
 10
4.599730896781153
 20
-11.77159925848133
 30
0.0
 40
1.0
100
AcDbArc
 50
180.0
 51
270.0
  0
ARC
  5
4E
330
24
100
AcDbEntity
  8
0
100
AcDbCircle
 10
4.599730896781153
 20
-11.77159925848133
 30
0.0
 40
2.0
100
AcDbArc
 50
179.9999999999992
 51
270.0
  0
LINE
  5
4F
330
24
100
AcDbEntity
  8
0
100
AcDbLine
 10
11.59973089678115
 20
-13.77159925848144
 30
0.0
 11
4.599730896781153
 21
-13.77159925848147
 31
0.0
  0
LINE
  5
50
330
24
100
AcDbEntity
  8
0
100
AcDbLine
 10
8.771303772034769
 20
-12.77159925848136
 30
0.0
 11
4.599730896781153
 21
-12.77159925848133
 31
0.0
  0
LINE
  5
51
330
24
100
AcDbEntity
  8
0
100
AcDbLine
 10
31.59973089678115
 20
-13.77159925848147
 30
0.0
 11
23.6715276665056
 21
-13.77159925848144
 31
0.0
  0
LINE
  5
52
330
24
100
AcDbEntity
  8
0
100
AcDbLine
 10
23.56565672307022
 20
-9.51278021337896
 30
0.0
 11
24.4388546544846
 21
-12.77159925848144
 31
0.0
  0
LINE
  5
53
330
24
100
AcDbEntity
  8
0
100
AcDbLine
 10
22.59973089678116
 20
-9.771599258481472
 30
0.0
 11
18.59973089678112
 21
-9.771599258481472
 31
0.0
  0
LINE
  5
54
330
24
100
AcDbEntity
  8
0
100
AcDbLine
 10
18.59973089678115
 20
-13.77159925848144
 30
0.0
 11
17.59973089678115
 21
-13.77159925848144
 31
0.0
  0
LINE
  5
55
330
24
100
AcDbEntity
  8
0
100
AcDbLine
 10
18.59973089678115
 20
-9.771599258481472
 30
0.0
 11
18.59973089678115
 21
-13.77159925848144
 31
0.0
  0
LINE
  5
56
330
24
100
AcDbEntity
  8
0
100
AcDbLine
 10
22.59973089678116
 20
-9.771599258481472
 30
0.0
 11
23.67152766650562
 21
-13.77159925848147
 31
0.0
  0
ARC
  5
57
330
24
100
AcDbEntity
  8
0
100
AcDbCircle
 10
22.59973089678116
 20
-7.271599258481472
 30
0.0
 40
2.5
100
AcDbArc
 50
270.0
 51
270.0000000000007
  0
LINE
  5
58
330
24
100
AcDbEntity
  8
0
100
AcDbLine
 10
28.77130377203494
 20
-12.77159925848147
 30
0.0
 11
24.43885465448463
 21
-12.77159925848144
 31
0.0
  0
LINE
  5
59
330
24
100
AcDbEntity
  8
0
100
AcDbLine
 10
3.599730896781125
 20
-4.771599258481472
 30
0.0
 11
2.599730896781125
 21
-4.771599258481472
 31
0.0
  0
LINE
  5
5A
330
24
100
AcDbEntity
  8
0
100
AcDbLine
 10
22.59973089678116
 20
-8.771599258481472
 30
0.0
 11
18.59973089678115
 21
-8.771599258481472
 31
0.0
  0
LINE
  5
5B
330
24
100
AcDbEntity
  8
0
100
AcDbLine
 10
22.59973089678116
 20
-5.771599258481472
 30
0.0
 11
18.59973089678115
 21
-5.771599258481472
 31
0.0
  0
LINE
  5
5C
330
24
100
AcDbEntity
  8
0
100
AcDbLine
 10
22.59973089678116
 20
-4.771599258481472
 30
0.0
 11
17.59973089678115
 21
-4.771599258481472
 31
0.0
  0
LINE
  5
5D
330
24
100
AcDbEntity
  8
0
100
AcDbLine
 10
18.59973089678115
 20
-5.771599258481472
 30
0.0
 11
18.59973089678115
 21
-8.771599258481472
 31
0.0
  0
ARC
  5
5E
330
24
100
AcDbEntity
  8
0
100
AcDbCircle
 10
22.59973089678116
 20
-7.271599258481472
 30
0.0
 40
1.5
100
AcDbArc
 50
270.0
 51
90.0
  0
ENDBLK
  5
5F
330
24
100
AcDbEntity
  8
0
100
AcDbBlockEnd
  0
BLOCK
  5
7B
330
28
100
AcDbEntity
  8
0
100
AcDbBlockBegin
  2
*X3
 70
     1
 10
0.0
 20
0.0
 30
0.0
  3
*X3
  1

  0
LINE
  5
7C
330
28
100
AcDbEntity
  8
0
 62
     0
100
AcDbLine
 10
666.9274250855182
 20
876.0
 30
0.0
 11
669.6538295010778
 21
876.0
 31
0.0
  0
LINE
  5
7D
330
28
100
AcDbEntity
  8
0
 62
     0
100
AcDbLine
 10
666.9274250855182
 20
876.1000000000001
 30
0.0
 11
669.7538295010779
 21
876.1000000000001
 31
0.0
  0
LINE
  5
7E
330
28
100
AcDbEntity
  8
0
 62
     0
100
AcDbLine
 10
666.9274250855182
 20
876.2
 30
0.0
 11
669.8538295010779
 21
876.2
 31
0.0
  0
LINE
  5
7F
330
28
100
AcDbEntity
  8
0
 62
     0
100
AcDbLine
 10
666.9274250855182
 20
876.3000000000001
 30
0.0
 11
669.9538295010779
 21
876.3000000000001
 31
0.0
  0
LINE
  5
80
330
28
100
AcDbEntity
  8
0
 62
     0
100
AcDbLine
 10
666.9274250855182
 20
876.4000000000001
 30
0.0
 11
670.053829501078
 21
876.4000000000001
 31
0.0
  0
LINE
  5
81
330
28
100
AcDbEntity
  8
0
 62
     0
100
AcDbLine
 10
666.9274250855182
 20
876.5
 30
0.0
 11
670.1538295010778
 21
876.5
 31
0.0
  0
LINE
  5
82
330
28
100
AcDbEntity
  8
0
 62
     0
100
AcDbLine
 10
666.9274250855182
 20
876.6
 30
0.0
 11
670.2538295010779
 21
876.6
 31
0.0
  0
LINE
  5
83
330
28
100
AcDbEntity
  8
0
 62
     0
100
AcDbLine
 10
666.9274250855182
 20
876.7000000000001
 30
0.0
 11
670.3538295010779
 21
876.7000000000001
 31
0.0
  0
LINE
  5
84
330
28
100
AcDbEntity
  8
0
 62
     0
100
AcDbLine
 10
666.9274250855182
 20
876.8
 30
0.0
 11
670.4538295010779
 21
876.8
 31
0.0
  0
LINE
  5
85
330
28
100
AcDbEntity
  8
0
 62
     0
100
AcDbLine
 10
666.9274250855182
 20
876.9000000000001
 30
0.0
 11
670.553829501078
 21
876.9000000000001
 31
0.0
  0
LINE
  5
86
330
28
100
AcDbEntity
  8
0
 62
     0
100
AcDbLine
 10
666.9274250855182
 20
877.0
 30
0.0
 11
670.6538295010779
 21
877.0
 31
0.0
  0
LINE
  5
87
330
28
100
AcDbEntity
  8
0
 62
     0
100
AcDbLine
 10
666.9274250855182
 20
877.1
 30
0.0
 11
670.7538295010778
 21
877.1
 31
0.0
  0
LINE
  5
88
330
28
100
AcDbEntity
  8
0
 62
     0
100
AcDbLine
 10
666.9274250855182
 20
877.2
 30
0.0
 11
670.7998035766894
 21
877.2
 31
0.0
  0
LINE
  5
89
330
28
100
AcDbEntity
  8
0
 62
     0
100
AcDbLine
 10
666.9274250855182
 20
877.3000000000001
 30
0.0
 11
670.6957183723755
 21
877.3000000000001
 31
0.0
  0
LINE
  5
8A
330
28
100
AcDbEntity
  8
0
 62
     0
100
AcDbLine
 10
666.9274250855182
 20
877.4
 30
0.0
 11
670.5859430112172
 21
877.4
 31
0.0
  0
LINE
  5
8B
330
28
100
AcDbEntity
  8
0
 62
     0
100
AcDbLine
 10
666.9274250855182
 20
877.5
 30
0.0
 11
670.4699485546783
 21
877.5
 31
0.0
  0
LINE
  5
8C
330
28
100
AcDbEntity
  8
0
 62
     0
100
AcDbLine
 10
666.9274250855182
 20
877.5999999999999
 30
0.0
 11
670.3471022115694
 21
877.5999999999999
 31
0.0
  0
LINE
  5
8D
330
28
100
AcDbEntity
  8
0
 62
     0
100
AcDbLine
 10
666.9274250855182
 20
877.7000000000001
 30
0.0
 11
670.2166363531818
 21
877.7000000000001
 31
0.0
  0
LINE
  5
8E
330
28
100
AcDbEntity
  8
0
 62
     0
100
AcDbLine
 10
666.9274250855182
 20
877.8
 30
0.0
 11
670.0776044264785
 21
877.8
 31
0.0
  0
LINE
  5
8F
330
28
100
AcDbEntity
  8
0
 62
     0
100
AcDbLine
 10
666.9274250855182
 20
877.9000000000001
 30
0.0
 11
669.9288162624728
 21
877.9000000000001
 31
0.0
  0
LINE
  5
90
330
28
100
AcDbEntity
  8
0
 62
     0
100
AcDbLine
 10
666.9274250855182
 20
878.0
 30
0.0
 11
669.7687395901075
 21
878.0
 31
0.0
  0
LINE
  5
91
330
28
100
AcDbEntity
  8
0
 62
     0
100
AcDbLine
 10
666.9274250855182
 20
878.1
 30
0.0
 11
669.5953432309787
 21
878.1
 31
0.0
  0
LINE
  5
92
330
28
100
AcDbEntity
  8
0
 62
     0
100
AcDbLine
 10
666.9274250855182
 20
878.2
 30
0.0
 11
669.4058331124107
 21
878.2
 31
0.0
  0
LINE
  5
93
330
28
100
AcDbEntity
  8
0
 62
     0
100
AcDbLine
 10
666.9274250855182
 20
878.3000000000001
 30
0.0
 11
669.1961748435684
 21
878.3000000000001
 31
0.0
  0
LINE
  5
94
330
28
100
AcDbEntity
  8
0
 62
     0
100
AcDbLine
 10
666.9274250855182
 20
878.4
 30
0.0
 11
668.9601436055157
 21
878.4
 31
0.0
  0
LINE
  5
95
330
28
100
AcDbEntity
  8
0
 62
     0
100
AcDbLine
 10
666.9274250855182
 20
878.5
 30
0.0
 11
668.6871590706505
 21
878.5
 31
0.0
  0
LINE
  5
96
330
28
100
AcDbEntity
  8
0
 62
     0
100
AcDbLine
 10
666.9274250855182
 20
878.5999999999999
 30
0.0
 11
668.3561947714078
 21
878.5999999999999
 31
0.0
  0
LINE
  5
97
330
28
100
AcDbEntity
  8
0
 62
     0
100
AcDbLine
 10
666.9274250855182
 20
878.7
 30
0.0
 11
667.9103299294399
 21
878.7
 31
0.0
  0
LINE
  5
98
330
28
100
AcDbEntity
  8
0
 62
     0
100
AcDbLine
 10
666.9274250855182
 20
875.9
 30
0.0
 11
669.553829501078
 21
875.9
 31
0.0
  0
LINE
  5
99
330
28
100
AcDbEntity
  8
0
 62
     0
100
AcDbLine
 10
666.9274250855182
 20
875.8
 30
0.0
 11
669.4538295010779
 21
875.8
 31
0.0
  0
LINE
  5
9A
330
28
100
AcDbEntity
  8
0
 62
     0
100
AcDbLine
 10
666.9274250855182
 20
875.7000000000001
 30
0.0
 11
669.3538295010779
 21
875.7000000000001
 31
0.0
  0
LINE
  5
9B
330
28
100
AcDbEntity
  8
0
 62
     0
100
AcDbLine
 10
666.9274250855182
 20
875.6
 30
0.0
 11
669.2538295010779
 21
875.6
 31
0.0
  0
LINE
  5
9C
330
28
100
AcDbEntity
  8
0
 62
     0
100
AcDbLine
 10
666.9274250855182
 20
875.5
 30
0.0
 11
669.1538295010778
 21
875.5
 31
0.0
  0
LINE
  5
9D
330
28
100
AcDbEntity
  8
0
 62
     0
100
AcDbLine
 10
666.9274250855182
 20
875.4000000000001
 30
0.0
 11
669.053829501078
 21
875.4000000000001
 31
0.0
  0
LINE
  5
9E
330
28
100
AcDbEntity
  8
0
 62
     0
100
AcDbLine
 10
666.9274250855182
 20
875.3
 30
0.0
 11
668.953829501078
 21
875.3
 31
0.0
  0
LINE
  5
9F
330
28
100
AcDbEntity
  8
0
 62
     0
100
AcDbLine
 10
666.9274250855182
 20
875.2
 30
0.0
 11
668.8538295010779
 21
875.2
 31
0.0
  0
LINE
  5
A0
330
28
100
AcDbEntity
  8
0
 62
     0
100
AcDbLine
 10
666.9274250855182
 20
875.1000000000001
 30
0.0
 11
668.7538295010779
 21
875.1000000000001
 31
0.0
  0
LINE
  5
A1
330
28
100
AcDbEntity
  8
0
 62
     0
100
AcDbLine
 10
666.9274250855182
 20
875.0
 30
0.0
 11
668.6538295010779
 21
875.0
 31
0.0
  0
LINE
  5
A2
330
28
100
AcDbEntity
  8
0
 62
     0
100
AcDbLine
 10
666.9274250855182
 20
874.9
 30
0.0
 11
668.5538295010779
 21
874.9
 31
0.0
  0
LINE
  5
A3
330
28
100
AcDbEntity
  8
0
 62
     0
100
AcDbLine
 10
666.9274250855182
 20
874.8000000000001
 30
0.0
 11
668.453829501078
 21
874.8000000000001
 31
0.0
  0
LINE
  5
A4
330
28
100
AcDbEntity
  8
0
 62
     0
100
AcDbLine
 10
666.9274250855182
 20
874.6999999999999
 30
0.0
 11
668.3538295010779
 21
874.6999999999999
 31
0.0
  0
LINE
  5
A5
330
28
100
AcDbEntity
  8
0
 62
     0
100
AcDbLine
 10
666.9274250855182
 20
874.6
 30
0.0
 11
668.2538295010779
 21
874.6
 31
0.0
  0
LINE
  5
A6
330
28
100
AcDbEntity
  8
0
 62
     0
100
AcDbLine
 10
666.9274250855182
 20
874.5
 30
0.0
 11
668.1538295010779
 21
874.5
 31
0.0
  0
LINE
  5
A7
330
28
100
AcDbEntity
  8
0
 62
     0
100
AcDbLine
 10
666.9274250855182
 20
874.4000000000001
 30
0.0
 11
668.0538295010779
 21
874.4000000000001
 31
0.0
  0
LINE
  5
A8
330
28
100
AcDbEntity
  8
0
 62
     0
100
AcDbLine
 10
666.9274250855182
 20
874.3
 30
0.0
 11
667.9538295010779
 21
874.3
 31
0.0
  0
LINE
  5
A9
330
28
100
AcDbEntity
  8
0
 62
     0
100
AcDbLine
 10
666.9274250855182
 20
874.2
 30
0.0
 11
667.8538295010779
 21
874.2
 31
0.0
  0
LINE
  5
AA
330
28
100
AcDbEntity
  8
0
 62
     0
100
AcDbLine
 10
666.9274250855182
 20
874.0999999999999
 30
0.0
 11
667.7538295010779
 21
874.0999999999999
 31
0.0
  0
LINE
  5
AB
330
28
100
AcDbEntity
  8
0
 62
     0
100
AcDbLine
 10
666.9274250855182
 20
874.0
 30
0.0
 11
667.6538295010779
 21
874.0
 31
0.0
  0
LINE
  5
AC
330
28
100
AcDbEntity
  8
0
 62
     0
100
AcDbLine
 10
666.9274250855182
 20
873.9
 30
0.0
 11
667.5538295010779
 21
873.9
 31
0.0
  0
LINE
  5
AD
330
28
100
AcDbEntity
  8
0
 62
     0
100
AcDbLine
 10
666.9274250855182
 20
873.8000000000001
 30
0.0
 11
667.4538295010779
 21
873.8000000000001
 31
0.0
  0
LINE
  5
AE
330
28
100
AcDbEntity
  8
0
 62
     0
100
AcDbLine
 10
666.9274250855182
 20
873.7
 30
0.0
 11
667.3538295010779
 21
873.7
 31
0.0
  0
LINE
  5
AF
330
28
100
AcDbEntity
  8
0
 62
     0
100
AcDbLine
 10
666.9274250855182
 20
873.6
 30
0.0
 11
667.2538295010779
 21
873.6
 31
0.0
  0
LINE
  5
B0
330
28
100
AcDbEntity
  8
0
 62
     0
100
AcDbLine
 10
666.9274250855182
 20
873.4999999999999
 30
0.0
 11
667.1538295010779
 21
873.4999999999999
 31
0.0
  0
LINE
  5
B1
330
28
100
AcDbEntity
  8
0
 62
     0
100
AcDbLine
 10
666.9274250855182
 20
873.4000000000001
 30
0.0
 11
667.0538295010779
 21
873.4000000000001
 31
0.0
  0
LINE
  5
B2
330
28
100
AcDbEntity
  8
0
 62
     0
100
AcDbLine
 10
666.9274250855182
 20
873.3
 30
0.0
 11
666.9538295010779
 21
873.3
 31
0.0
  0
ENDBLK
  5
B3
330
28
100
AcDbEntity
  8
0
100
AcDbBlockEnd
  0
BLOCK
  5
B4
330
29
100
AcDbEntity
  8
0
100
AcDbBlockBegin
  2
*X4
 70
     1
 10
0.0
 20
0.0
 30
0.0
  3
*X4
  1

  0
LINE
  5
B5
330
29
100
AcDbEntity
  8
0
 62
     0
100
AcDbLine
 10
666.9274250855184
 20
728.5
 30
0.0
 11
668.791983624591
 21
728.5
 31
0.0
  0
LINE
  5
B6
330
29
100
AcDbEntity
  8
0
 62
     0
100
AcDbLine
 10
666.9274250855184
 20
728.6
 30
0.0
 11
668.8273015947963
 21
728.6
 31
0.0
  0
LINE
  5
B7
330
29
100
AcDbEntity
  8
0
 62
     0
100
AcDbLine
 10
666.9274250855184
 20
728.7
 30
0.0
 11
668.8603979325903
 21
728.7
 31
0.0
  0
LINE
  5
B8
330
29
100
AcDbEntity
  8
0
 62
     0
100
AcDbLine
 10
666.9274250855184
 20
728.8000000000001
 30
0.0
 11
668.8913159538794
 21
728.8000000000001
 31
0.0
  0
LINE
  5
B9
330
29
100
AcDbEntity
  8
0
 62
     0
100
AcDbLine
 10
666.9274250855184
 20
728.9000000000001
 30
0.0
 11
668.9200951116911
 21
728.9000000000001
 31
0.0
  0
LINE
  5
BA
330
29
100
AcDbEntity
  8
0
 62
     0
100
AcDbLine
 10
666.9274250855184
 20
729.0
 30
0.0
 11
668.9467712777545
 21
729.0
 31
0.0
  0
LINE
  5
BB
330
29
100
AcDbEntity
  8
0
 62
     0
100
AcDbLine
 10
667.0036128631336
 20
729.1
 30
0.0
 11
668.9713769893408
 21
729.1
 31
0.0
  0
LINE
  5
BC
330
29
100
AcDbEntity
  8
0
 62
     0
100
AcDbLine
 10
667.1036128631336
 20
729.2
 30
0.0
 11
668.9939416656717
 21
729.2
 31
0.0
  0
LINE
  5
BD
330
29
100
AcDbEntity
  8
0
 62
     0
100
AcDbLine
 10
667.2036128631336
 20
729.3000000000001
 30
0.0
 11
669.0144917975124
 21
729.3000000000001
 31
0.0
  0
LINE
  5
BE
330
29
100
AcDbEntity
  8
0
 62
     0
100
AcDbLine
 10
667.3036128631337
 20
729.4000000000001
 30
0.0
 11
669.0330511129976
 21
729.4000000000001
 31
0.0
  0
LINE
  5
BF
330
29
100
AcDbEntity
  8
0
 62
     0
100
AcDbLine
 10
667.4036128631335
 20
729.4999999999999
 30
0.0
 11
669.0496407222548
 21
729.4999999999999
 31
0.0
  0
LINE
  5
C0
330
29
100
AcDbEntity
  8
0
 62
     0
100
AcDbLine
 10
667.5036128631336
 20
729.6
 30
0.0
 11
669.0642792429894
 21
729.6
 31
0.0
  0
LINE
  5
C1
330
29
100
AcDbEntity
  8
0
 62
     0
100
AcDbLine
 10
667.6036128631336
 20
729.7
 30
0.0
 11
669.0769829088464
 21
729.7
 31
0.0
  0
LINE
  5
C2
330
29
100
AcDbEntity
  8
0
 62
     0
100
AcDbLine
 10
667.7036128631336
 20
729.8
 30
0.0
 11
669.0877656620781
 21
729.8
 31
0.0
  0
LINE
  5
C3
330
29
100
AcDbEntity
  8
0
 62
     0
100
AcDbLine
 10
667.8036128631337
 20
729.9000000000001
 30
0.0
 11
669.0966392317825
 21
729.9000000000001
 31
0.0
  0
LINE
  5
C4
330
29
100
AcDbEntity
  8
0
 62
     0
100
AcDbLine
 10
667.9036128631336
 20
730.0
 30
0.0
 11
669.1036131987642
 21
730.0
 31
0.0
  0
LINE
  5
C5
330
29
100
AcDbEntity
  8
0
 62
     0
100
AcDbLine
 10
668.0036128631336
 20
730.1
 30
0.0
 11
669.1086950478656
 21
730.1
 31
0.0
  0
LINE
  5
C6
330
29
100
AcDbEntity
  8
0
 62
     0
100
AcDbLine
 10
668.1036128631336
 20
730.2
 30
0.0
 11
669.1118902084467
 21
730.2
 31
0.0
  0
LINE
  5
C7
330
29
100
AcDbEntity
  8
0
 62
     0
100
AcDbLine
 10
668.2036128631336
 20
730.3
 30
0.0
 11
669.113202083525
 21
730.3
 31
0.0
  0
LINE
  5
C8
330
29
100
AcDbEntity
  8
0
 62
     0
100
AcDbLine
 10
668.3036128631337
 20
730.4000000000001
 30
0.0
 11
669.1126320679476
 21
730.4000000000001
 31
0.0
  0
LINE
  5
C9
330
29
100
AcDbEntity
  8
0
 62
     0
100
AcDbLine
 10
668.4036128631336
 20
730.4999999999999
 30
0.0
 11
669.1101795558166
 21
730.4999999999999
 31
0.0
  0
LINE
  5
CA
330
29
100
AcDbEntity
  8
0
 62
     0
100
AcDbLine
 10
668.5036128631336
 20
730.6
 30
0.0
 11
669.1058419372652
 21
730.6
 31
0.0
  0
LINE
  5
CB
330
29
100
AcDbEntity
  8
0
 62
     0
100
AcDbLine
 10
668.6036128631336
 20
730.7
 30
0.0
 11
669.0996145845416
 21
730.7
 31
0.0
  0
LINE
  5
CC
330
29
100
AcDbEntity
  8
0
 62
     0
100
AcDbLine
 10
668.7036128631336
 20
730.8
 30
0.0
 11
669.0914908272279
 21
730.8
 31
0.0
  0
LINE
  5
CD
330
29
100
AcDbEntity
  8
0
 62
     0
100
AcDbLine
 10
668.8036128631337
 20
730.9000000000001
 30
0.0
 11
669.0814619162842
 21
730.9000000000001
 31
0.0
  0
LINE
  5
CE
330
29
100
AcDbEntity
  8
0
 62
     0
100
AcDbLine
 10
668.9036128631336
 20
731.0
 30
0.0
 11
669.0695169764591
 21
731.0
 31
0.0
  0
LINE
  5
CF
330
29
100
AcDbEntity
  8
0
 62
     0
100
AcDbLine
 10
669.0036128631336
 20
731.0999999999999
 30
0.0
 11
669.0556429464603
 21
731.0999999999999
 31
0.0
  0
LINE
  5
D0
330
29
100
AcDbEntity
  8
0
 62
     0
100
AcDbLine
 10
666.9274250855184
 20
728.4
 30
0.0
 11
668.7543965217281
 21
728.4
 31
0.0
  0
LINE
  5
D1
330
29
100
AcDbEntity
  8
0
 62
     0
100
AcDbLine
 10
666.9274250855184
 20
728.3000000000001
 30
0.0
 11
668.7144882341279
 21
728.3000000000001
 31
0.0
  0
LINE
  5
D2
330
29
100
AcDbEntity
  8
0
 62
     0
100
AcDbLine
 10
666.9274250855184
 20
728.2
 30
0.0
 11
668.6722017369512
 21
728.2
 31
0.0
  0
LINE
  5
D3
330
29
100
AcDbEntity
  8
0
 62
     0
100
AcDbLine
 10
666.9274250855184
 20
728.1
 30
0.0
 11
668.6274745493157
 21
728.1
 31
0.0
  0
LINE
  5
D4
330
29
100
AcDbEntity
  8
0
 62
     0
100
AcDbLine
 10
666.9274250855184
 20
728.0
 30
0.0
 11
668.5802381778172
 21
728.0
 31
0.0
  0
LINE
  5
D5
330
29
100
AcDbEntity
  8
0
 62
     0
100
AcDbLine
 10
666.9274250855184
 20
727.9
 30
0.0
 11
668.5304174736463
 21
727.9
 31
0.0
  0
LINE
  5
D6
330
29
100
AcDbEntity
  8
0
 62
     0
100
AcDbLine
 10
666.9274250855184
 20
727.8
 30
0.0
 11
668.4779298870902
 21
727.8
 31
0.0
  0
LINE
  5
D7
330
29
100
AcDbEntity
  8
0
 62
     0
100
AcDbLine
 10
666.9274250855184
 20
727.7000000000001
 30
0.0
 11
668.4226845994043
 21
727.7000000000001
 31
0.0
  0
LINE
  5
D8
330
29
100
AcDbEntity
  8
0
 62
     0
100
AcDbLine
 10
666.9274250855184
 20
727.6
 30
0.0
 11
668.364581507174
 21
727.6
 31
0.0
  0
LINE
  5
D9
330
29
100
AcDbEntity
  8
0
 62
     0
100
AcDbLine
 10
666.9274250855184
 20
727.5
 30
0.0
 11
668.3035100279995
 21
727.5
 31
0.0
  0
LINE
  5
DA
330
29
100
AcDbEntity
  8
0
 62
     0
100
AcDbLine
 10
666.9274250855184
 20
727.4
 30
0.0
 11
668.239347688161
 21
727.4
 31
0.0
  0
LINE
  5
DB
330
29
100
AcDbEntity
  8
0
 62
     0
100
AcDbLine
 10
666.9274250855184
 20
727.3
 30
0.0
 11
668.1719584421464
 21
727.3
 31
0.0
  0
LINE
  5
DC
330
29
100
AcDbEntity
  8
0
 62
     0
100
AcDbLine
 10
666.9274250855184
 20
727.2
 30
0.0
 11
668.1011906596205
 21
727.2
 31
0.0
  0
LINE
  5
DD
330
29
100
AcDbEntity
  8
0
 62
     0
100
AcDbLine
 10
666.9274250855184
 20
727.1
 30
0.0
 11
668.02687469616
 21
727.1
 31
0.0
  0
LINE
  5
DE
330
29
100
AcDbEntity
  8
0
 62
     0
100
AcDbLine
 10
666.9274250855184
 20
727.0
 30
0.0
 11
667.9488199378654
 21
727.0
 31
0.0
  0
LINE
  5
DF
330
29
100
AcDbEntity
  8
0
 62
     0
100
AcDbLine
 10
666.9274250855184
 20
726.9000000000001
 30
0.0
 11
667.8668111737906
 21
726.9000000000001
 31
0.0
  0
LINE
  5
E0
330
29
100
AcDbEntity
  8
0
 62
     0
100
AcDbLine
 10
666.9274250855184
 20
726.8
 30
0.0
 11
667.7806040994486
 21
726.8
 31
0.0
  0
LINE
  5
E1
330
29
100
AcDbEntity
  8
0
 62
     0
100
AcDbLine
 10
666.9274250855184
 20
726.7
 30
0.0
 11
667.6899196825254
 21
726.7
 31
0.0
  0
LINE
  5
E2
330
29
100
AcDbEntity
  8
0
 62
     0
100
AcDbLine
 10
666.9274250855184
 20
726.6
 30
0.0
 11
667.5944370173937
 21
726.6
 31
0.0
  0
LINE
  5
E3
330
29
100
AcDbEntity
  8
0
 62
     0
100
AcDbLine
 10
666.9274250855184
 20
726.5
 30
0.0
 11
667.4937841405361
 21
726.5
 31
0.0
  0
LINE
  5
E4
330
29
100
AcDbEntity
  8
0
 62
     0
100
AcDbLine
 10
666.9274250855184
 20
726.4000000000001
 30
0.0
 11
667.387526045579
 21
726.4000000000001
 31
0.0
  0
LINE
  5
E5
330
29
100
AcDbEntity
  8
0
 62
     0
100
AcDbLine
 10
666.9274250855184
 20
726.3
 30
0.0
 11
667.2751487752293
 21
726.3
 31
0.0
  0
LINE
  5
E6
330
29
100
AcDbEntity
  8
0
 62
     0
100
AcDbLine
 10
666.9274250855184
 20
726.2
 30
0.0
 11
667.1560378920105
 21
726.2
 31
0.0
  0
LINE
  5
E7
330
29
100
AcDbEntity
  8
0
 62
     0
100
AcDbLine
 10
666.9274250855184
 20
726.1
 30
0.0
 11
667.0294486841024
 21
726.1
 31
0.0
  0
ENDBLK
  5
E8
330
29
100
AcDbEntity
  8
0
100
AcDbBlockEnd
  0
BLOCK
  5
26A
330
260
100
AcDbEntity
  8
0
100
AcDbBlockBegin
  2
*D7
 70
     1
 10
0.0
 20
0.0
 30
0.0
  3
*D7
  1

  0
LINE
  5
3AB
330
260
100
AcDbEntity
  8
BEM
 62
     0
370
    -2
100
AcDbLine
 10
354.3741129666632
 20
700.7510801147871
 30
0.0
 11
277.6201063316548
 21
700.7510801147871
 31
0.0
  0
LINE
  5
3AC
330
260
100
AcDbEntity
  8
BEM
 62
     0
370
    -2
100
AcDbLine
 10
354.3741129666632
 20
1050.751080114787
 30
0.0
 11
277.6201063316548
 21
1050.751080114787
 31
0.0
  0
LINE
  5
3AD
330
260
100
AcDbEntity
  8
BEM
 62
     0
370
    -2
100
AcDbLine
 10
282.6201063316548
 20
718.2510801147871
 30
0.0
 11
282.6201063316548
 21
1033.251080114787
 31
0.0
  0
SOLID
  5
3AE
330
260
100
AcDbEntity
  8
BEM
 62
     0
100
AcDbTrace
 10
279.7034396649881
 20
718.2510801147871
 30
0.0
 11
285.5367729983214
 21
718.2510801147871
 31
0.0
 12
282.6201063316548
 22
700.7510801147871
 32
0.0
 13
282.6201063316548
 23
700.7510801147871
 33
0.0
  0
SOLID
  5
3AF
330
260
100
AcDbEntity
  8
BEM
 62
     0
100
AcDbTrace
 10
279.7034396649881
 20
1033.251080114787
 30
0.0
 11
285.5367729983215
 21
1033.251080114787
 31
0.0
 12
282.6201063316548
 22
1050.751080114787
 32
0.0
 13
282.6201063316548
 23
1050.751080114787
 33
0.0
  0
MTEXT
  5
3B0
330
260
100
AcDbEntity
  8
BEM
 62
     1
100
AcDbMText
 10
266.3701063316547
 20
875.7510801147871
 30
0.0
 40
17.5
 41
0.0
 71
     5
 72
     1
  1
\A1;350
  7
GREEKS
 11
0.0000000000000001
 21
1.0
 31
0.0
 73
     1
 44
1.0
  0
POINT
  5
3B1
330
260
100
AcDbEntity
  8
DEFPOINTS
 62
     0
100
AcDbPoint
 10
359.3741129666633
 20
700.7510801147871
 30
0.0
  0
POINT
  5
3B2
330
260
100
AcDbEntity
  8
DEFPOINTS
 62
     0
100
AcDbPoint
 10
359.3741129666633
 20
1050.751080114787
 30
0.0
  0
POINT
  5
3B3
330
260
100
AcDbEntity
  8
DEFPOINTS
 62
     0
100
AcDbPoint
 10
282.6201063316548
 20
1050.751080114787
 30
0.0
  0
ENDBLK
  5
26B
330
260
100
AcDbEntity
  8
0
100
AcDbBlockEnd
  0
BLOCK
  5
282
330
278
100
AcDbEntity
  8
0
100
AcDbBlockBegin
  2
*D9
 70
     1
 10
0.0
 20
0.0
 30
0.0
  3
*D9
  1

  0
LINE
  5
284
330
278
100
AcDbEntity
  8
BEM
 62
     0
370
    -2
100
AcDbLine
 10
679.73857906073
 20
792.040654527826
 30
0.0
 11
641.3272750517729
 21
753.6293505188689
 31
0.0
  0
LINE
  5
285
330
278
100
AcDbEntity
  8
BEM
 62
     0
370
    -2
100
AcDbLine
 10
679.73857906073
 20
936.2904378898816
 30
0.0
 11
569.2023833707452
 21
825.7542421998966
 31
0.0
  0
LINE
  5
286
330
278
100
AcDbEntity
  8
BEM
 62
     0
370
    -2
100
AcDbLine
 10
632.4884402869409
 20
769.5392530955662
 30
0.0
 11
585.1122859474424
 21
816.9154074350648
 31
0.0
  0
SOLID
  5
287
330
278
100
AcDbEntity
  8
BEM
 62
     0
100
AcDbTrace
 10
634.5508350654017
 20
771.601647874027
 30
0.0
 11
630.4260455084803
 21
767.4768583171055
 31
0.0
 12
644.8628089577056
 22
757.1648844248016
 32
0.0
 13
644.8628089577056
 23
757.1648844248016
 33
0.0
  0
SOLID
  5
288
330
278
100
AcDbEntity
  8
BEM
 62
     0
100
AcDbTrace
 10
587.1746807259031
 20
818.9778022135255
 30
0.0
 11
583.0498911689817
 21
814.8530126566042
 31
0.0
 12
572.7379172766778
 22
829.2897761058293
 32
0.0
 13
572.7379172766778
 23
829.2897761058293
 33
0.0
  0
MTEXT
  5
289
330
278
100
AcDbEntity
  8
BEM
 62
     1
100
AcDbMText
 10
620.3418511727421
 20
804.6668125983279
 30
0.0
 40
17.5
 41
0.0
 71
     5
 72
     1
  1
\A1;%%c102
  7
GREEKS
 11
0.7071067811865476
 21
-0.7071067811865475
 31
0.0
 73
     1
 44
1.0
  0
POINT
  5
28A
330
278
100
AcDbEntity
  8
DEFPOINTS
 62
     0
100
AcDbPoint
 10
683.2741129666628
 20
795.5761884337588
 30
0.0
  0
POINT
  5
28B
330
278
100
AcDbEntity
  8
DEFPOINTS
 62
     0
100
AcDbPoint
 10
683.2741129666628
 20
939.8259717958142
 30
0.0
  0
POINT
  5
28C
330
278
100
AcDbEntity
  8
DEFPOINTS
 62
     0
100
AcDbPoint
 10
572.7379172766778
 20
829.2897761058293
 30
0.0
  0
ENDBLK
  5
283
330
278
100
AcDbEntity
  8
0
100
AcDbBlockEnd
  0
BLOCK
  5
2E4
330
2D8
100
AcDbEntity
  8
0
100
AcDbBlockBegin
  2
*D11
 70
     1
 10
0.0
 20
0.0
 30
0.0
  3
*D11
  1

  0
LINE
  5
34E
330
2D8
100
AcDbEntity
  8
BEM
 62
     0
370
    -2
100
AcDbLine
 10
800.6312915353493
 20
985.0582586834731
 30
0.0
 11
825.5233685549281
 21
1009.950335703052
 31
0.0
  0
LINE
  5
34F
330
2D8
100
AcDbEntity
  8
BEM
 62
     0
370
    -2
100
AcDbLine
 10
521.324112966663
 20
1065.751080114787
 30
0.0
 11
521.3241129666625
 21
1135.953793031511
 31
0.0
  0
ARC
  5
350
330
2D8
100
AcDbEntity
  8
BEM
 62
     0
370
    -2
100
AcDbCircle
 10
521.324112966663
 20
705.751080114787
 30
0.0
 40
425.2027129167238
100
AcDbArc
 50
47.35827969094817
 51
87.64172030905189
  0
SOLID
  5
351
330
2D8
100
AcDbEntity
  8
BEM
 62
     0
100
AcDbTrace
 10
811.3809586194351
 20
1020.636304015168
 30
0.0
 11
807.341924171936
 21
1016.427506264065
 31
0.0
 12
821.9878346489954
 22
1006.414801797119
 32
0.0
 13
821.9878346489954
 23
1006.414801797119
 33
0.0
  0
SOLID
  5
352
330
2D8
100
AcDbEntity
  8
BEM
 62
     0
100
AcDbTrace
 10
538.7603868082368
 20
1127.677621643125
 30
0.0
 11
538.8804275914118
 21
1133.509719720846
 31
0.0
 12
521.3241129666625
 22
1130.953793031511
 32
0.0
 13
521.3241129666625
 23
1130.953793031511
 33
0.0
  0
MTEXT
  5
353
330
2D8
100
AcDbEntity
  8
BEM
 62
     1
100
AcDbMText
 10
720.5818966694196
 20
1099.675988410011
 30
0.0
 40
17.5
 41
0.0
 71
     5
 72
     1
  1
\A1;45°
  7
GREEKS
 11
0.8923377221821144
 21
-0.4513683524249739
 31
0.0
 73
     1
 44
1.0
  0
POINT
  5
354
330
2D8
100
AcDbEntity
  8
DEFPOINTS
 62
     0
100
AcDbPoint
 10
631.3746730987706
 20
1116.465361929227
 30
0.0
  0
POINT
  5
355
330
2D8
100
AcDbEntity
  8
DEFPOINTS
 62
     0
100
AcDbPoint
 10
797.0957576294168
 20
981.5227247775403
 30
0.0
  0
POINT
  5
356
330
2D8
100
AcDbEntity
  8
DEFPOINTS
 62
     0
100
AcDbPoint
 10
521.324112966663
 20
1060.751080114787
 30
0.0
  0
POINT
  5
357
330
2D8
100
AcDbEntity
  8
DEFPOINTS
 62
     0
100
AcDbPoint
 10
521.324112966663
 20
690.751080114787
 30
0.0
  0
POINT
  5
358
330
2D8
100
AcDbEntity
  8
DEFPOINTS
 62
     0
100
AcDbPoint
 10
633.3397238008794
 20
817.7666909490033
 30
0.0
  0
ENDBLK
  5
2E5
330
2D8
100
AcDbEntity
  8
0
100
AcDbBlockEnd
  0
BLOCK
  5
378
330
36C
100
AcDbEntity
  8
0
100
AcDbBlockBegin
  2
*D13
 70
     1
 10
0.0
 20
0.0
 30
0.0
  3
*D13
  1

  0
LINE
  5
36D
330
36C
100
AcDbEntity
  8
BEM
 62
     0
370
    -2
100
AcDbLine
 10
354.3741129666632
 20
700.7510801147871
 30
0.0
 11
319.3118085489652
 21
700.7510801147871
 31
0.0
  0
LINE
  5
36E
330
36C
100
AcDbEntity
  8
BEM
 62
     0
370
    -2
100
AcDbLine
 10
516.324112966663
 20
705.751080114787
 30
0.0
 11
319.3118085489652
 21
705.751080114787
 31
0.0
  0
LINE
  5
36F
330
36C
100
AcDbEntity
  8
BEM
 62
     0
370
    -2
100
AcDbLine
 10
324.3118085489653
 20
683.251080114787
 30
0.0
 11
324.3118085489653
 21
665.751080114787
 31
0.0
  0
LINE
  5
370
330
36C
100
AcDbEntity
  8
BEM
 62
     0
370
    -2
100
AcDbLine
 10
324.3118085489653
 20
723.251080114787
 30
0.0
 11
324.3118085489653
 21
765.0844134481204
 31
0.0
  0
LINE
  5
371
330
36C
100
AcDbEntity
  8
BEM
 62
     0
370
    -2
100
AcDbLine
 10
324.3118085489653
 20
700.7510801147871
 30
0.0
 11
324.3118085489653
 21
705.751080114787
 31
0.0
  0
SOLID
  5
372
330
36C
100
AcDbEntity
  8
BEM
 62
     0
100
AcDbTrace
 10
321.3951418822986
 20
683.251080114787
 30
0.0
 11
327.2284752156319
 21
683.251080114787
 31
0.0
 12
324.3118085489653
 22
700.7510801147871
 32
0.0
 13
324.3118085489653
 23
700.7510801147871
 33
0.0
  0
SOLID
  5
373
330
36C
100
AcDbEntity
  8
BEM
 62
     0
100
AcDbTrace
 10
321.3951418822986
 20
723.251080114787
 30
0.0
 11
327.2284752156319
 21
723.251080114787
 31
0.0
 12
324.3118085489653
 22
705.751080114787
 32
0.0
 13
324.3118085489653
 23
705.751080114787
 33
0.0
  0
MTEXT
  5
374
330
36C
100
AcDbEntity
  8
BEM
 62
     1
100
AcDbMText
 10
308.0618085489651
 20
752.9177467814537
 30
0.0
 40
17.5
 41
0.0
 71
     5
 72
     1
  1
\A1;5
  7
GREEKS
 11
0.0000000000000001
 21
1.0
 31
0.0
 73
     1
 44
1.0
  0
POINT
  5
375
330
36C
100
AcDbEntity
  8
DEFPOINTS
 62
     0
100
AcDbPoint
 10
359.3741129666633
 20
700.7510801147871
 30
0.0
  0
POINT
  5
376
330
36C
100
AcDbEntity
  8
DEFPOINTS
 62
     0
100
AcDbPoint
 10
521.324112966663
 20
705.751080114787
 30
0.0
  0
POINT
  5
377
330
36C
100
AcDbEntity
  8
DEFPOINTS
 62
     0
100
AcDbPoint
 10
324.3118085489653
 20
705.751080114787
 30
0.0
  0
ENDBLK
  5
379
330
36C
100
AcDbEntity
  8
0
100
AcDbBlockEnd
  0
BLOCK
  5
397
330
38D
100
AcDbEntity
  8
0
100
AcDbBlockBegin
  2
*D14
 70
     1
 10
0.0
 20
0.0
 30
0.0
  3
*D14
  1

  0
LINE
  5
3E4
330
38D
100
AcDbEntity
  8
SCHRAFF
 62
     0
370
    -2
100
AcDbLine
 10
683.2741129666628
 20
695.751080114787
 30
0.0
 11
683.2741129666628
 21
601.4783609102608
 31
0.0
  0
LINE
  5
3E5
330
38D
100
AcDbEntity
  8
SCHRAFF
 62
     0
370
    -2
100
AcDbLine
 10
359.3741129666633
 20
695.751080114787
 30
0.0
 11
359.3741129666633
 21
601.4783609102608
 31
0.0
  0
LINE
  5
3E6
330
38D
100
AcDbEntity
  8
SCHRAFF
 62
     0
370
    -2
100
AcDbLine
 10
665.7741129666629
 20
606.4783609102609
 30
0.0
 11
376.8741129666632
 21
606.4783609102609
 31
0.0
  0
SOLID
  5
3E7
330
38D
100
AcDbEntity
  8
SCHRAFF
 62
     0
100
AcDbTrace
 10
665.7741129666629
 20
609.3950275769275
 30
0.0
 11
665.7741129666629
 21
603.5616942435942
 31
0.0
 12
683.2741129666628
 22
606.4783609102609
 32
0.0
 13
683.2741129666628
 23
606.4783609102609
 33
0.0
  0
SOLID
  5
3E8
330
38D
100
AcDbEntity
  8
SCHRAFF
 62
     0
100
AcDbTrace
 10
376.8741129666632
 20
609.3950275769275
 30
0.0
 11
376.8741129666632
 21
603.5616942435942
 31
0.0
 12
359.3741129666633
 22
606.4783609102609
 32
0.0
 13
359.3741129666633
 23
606.4783609102609
 33
0.0
  0
MTEXT
  5
3E9
330
38D
100
AcDbEntity
  8
SCHRAFF
 62
     1
100
AcDbMText
 10
521.324112966663
 20
622.7283609102609
 30
0.0
 40
17.5
 41
0.0
 71
     5
 72
     1
  1
\A1;%%c324
  7
GREEKS
 73
     1
 44
1.0
  0
POINT
  5
3EA
330
38D
100
AcDbEntity
  8
DEFPOINTS
 62
     0
100
AcDbPoint
 10
683.2741129666628
 20
700.7510801147871
 30
0.0
  0
POINT
  5
3EB
330
38D
100
AcDbEntity
  8
DEFPOINTS
 62
     0
100
AcDbPoint
 10
359.3741129666633
 20
700.7510801147871
 30
0.0
  0
POINT
  5
3EC
330
38D
100
AcDbEntity
  8
DEFPOINTS
 62
     0
100
AcDbPoint
 10
359.3741129666633
 20
606.4783609102609
 30
0.0
  0
ENDBLK
  5
398
330
38D
100
AcDbEntity
  8
0
100
AcDbBlockEnd
  0
BLOCK
  5
3D7
330
3CD
100
AcDbEntity
  8
0
100
AcDbBlockBegin
  2
*D16
 70
     1
 10
0.0
 20
0.0
 30
0.0
  3
*D16
  1

  0
LINE
  5
3DA
330
3CD
100
AcDbEntity
  8
BEM
 62
     0
370
    -2
100
AcDbLine
 10
524.8596468725958
 20
702.2155462088542
 30
0.0
 11
595.9280767287923
 21
631.1471163526576
 31
0.0
  0
LINE
  5
3DB
330
3CD
100
AcDbEntity
  8
BEM
 62
     0
370
    -2
100
AcDbLine
 10
836.4863824403169
 20
935.0610321547749
 30
0.0
 11
868.1641874856135
 21
903.3832271094784
 31
0.0
  0
LINE
  5
3DC
330
3CD
100
AcDbEntity
  8
BEM
 62
     0
370
    -2
100
AcDbLine
 10
604.7669114936241
 20
647.057018929355
 30
0.0
 11
852.2542849089161
 21
894.5443923446465
 31
0.0
  0
SOLID
  5
3DD
330
3CD
100
AcDbEntity
  8
BEM
 62
     0
100
AcDbTrace
 10
602.7045167151634
 20
649.1194137078157
 30
0.0
 11
606.8293062720849
 21
644.9946241508942
 31
0.0
 12
592.3925428228596
 22
634.6826502585903
 32
0.0
 13
592.3925428228596
 23
634.6826502585903
 33
0.0
  0
SOLID
  5
3DE
330
3CD
100
AcDbEntity
  8
BEM
 62
     0
100
AcDbTrace
 10
850.1918901304554
 20
896.6067871231073
 30
0.0
 11
854.3166796873769
 21
892.4819975661858
 31
0.0
 12
864.6286535796807
 22
906.9187610154111
 32
0.0
 13
864.6286535796807
 23
906.9187610154111
 33
0.0
  0
MTEXT
  5
3DF
330
3CD
100
AcDbEntity
  8
BEM
 62
     1
100
AcDbMText
 10
717.0201130069888
 20
782.2911908312822
 30
0.0
 40
17.5
 41
0.0
 71
     5
 72
     1
  1
\A1;385
  7
GREEKS
 11
0.707106781186548
 21
0.7071067811865471
 31
0.0
 73
     1
 44
1.0
  0
POINT
  5
3E0
330
3CD
100
AcDbEntity
  8
DEFPOINTS
 62
     0
100
AcDbPoint
 10
521.324112966663
 20
705.751080114787
 30
0.0
  0
POINT
  5
3E1
330
3CD
100
AcDbEntity
  8
DEFPOINTS
 62
     0
100
AcDbPoint
 10
832.9508485343842
 20
938.5965660607078
 30
0.0
  0
POINT
  5
3E2
330
3CD
100
AcDbEntity
  8
DEFPOINTS
 62
     0
100
AcDbPoint
 10
864.6286535796807
 20
906.9187610154111
 30
0.0
  0
ENDBLK
  5
3D8
330
3CD
100
AcDbEntity
  8
0
100
AcDbBlockEnd
  0
ENDSEC
  0
SECTION
  2
ENTITIES
  0
DIMENSION
  5
158
330
20
100
AcDbEntity
  8
SCHRAFF
100
AcDbDimension
  2
*D14
 10
359.3741129666633
 20
606.4783609102609
 30
0.0
 11
521.324112966663
 21
622.7283609102609
 31
0.0
 70
    32
  1
%%c324
 71
     5
 42
323.8999999999996
  3
Standard
100
AcDbAlignedDimension
 13
683.2741129666628
 23
700.7510801147871
 33
0.0
 14
359.3741129666633
 24
700.7510801147871
 34
0.0
100
AcDbRotatedDimension
1001
ACAD
1000
DSTYLE
1002
{
1070
    40
1040
5.0
1070
    41
1040
3.5
1070
    42
1040
1.0
1070
    43
1040
7.0
1070
    44
1040
1.0
1070
    47
1040
4.0
1070
    48
1040
4.0
1070
    73
1070
     0
1070
    74
1070
     0
1070
    77
1070
     1
1070
    78
1070
     8
1070
    79
1070
     2
1070
   140
1040
3.5
1070
   141
1040
1.5
1070
   146
1040
0.5
1070
   147
1040
1.5
1070
   172
1070
     1
1070
   178
1070
     1
1070
   179
1070
     2
1070
   271
1070
     2
1070
   272
1070
     2
1070
   284
1070
     8
1070
   285
1070
     8
1070
   286
1070
     8
1070
   340
1005
33
1002
}
  0
LINE
  5
159
330
20
100
AcDbEntity
  8
STEMPEL
100
AcDbLine
 10
683.2741129666628
 20
1050.751080114787
 30
0.0
 11
359.3741129666633
 21
1050.751080114787
 31
0.0
  0
LINE
  5
15A
330
20
100
AcDbEntity
  8
STEMPEL
100
AcDbLine
 10
683.2741129666628
 20
700.7510801147871
 30
0.0
 11
359.3741129666633
 21
700.7510801147871
 31
0.0
  0
LINE
  5
15C
102
{ACAD_REACTORS
330
3E3
102
}
330
20
100
AcDbEntity
  8
MITTEL
100
AcDbLine
 10
603.1274318286075
 20
787.5543989767313
 30
0.0
 11
521.324112966663
 21
705.751080114787
 31
0.0
  0
INSERT
  5
15D
330
20
100
AcDbEntity
  8
STEMPEL
100
AcDbBlockReference
  2
LOGO
 10
377.4888713644485
 20
112.552631911208
 30
0.0
 41
5.0
 42
5.0
 43
5.0
  0
LINE
  5
15E
330
20
100
AcDbEntity
  8
HILF
100
AcDbLine
 10
1050.0
 20
0.0
 30
0.0
 11
0.0
 21
0.0
 31
0.0
  0
LINE
  5
15F
330
20
100
AcDbEntity
  8
STEMPEL
100
AcDbLine
 10
1025.0
 20
25.0
 30
0.0
 11
99.99999999999971
 21
25.0
 31
0.0
  0
LINE
  5
160
330
20
100
AcDbEntity
  8
STEMPEL
100
AcDbLine
 10
124.9999999999997
 20
25.0
 30
0.0
 11
1025.0
 21
25.0
 31
0.0
  0
LINE
  5
161
330
20
100
AcDbEntity
  8
HILF
100
AcDbLine
 10
365.0000000000003
 20
124.9999999999999
 30
0.0
 11
575.0
 21
124.9999999999999
 31
0.0
  0
LINE
  5
162
330
20
100
AcDbEntity
  8
HILF
100
AcDbLine
 10
365.0000000000003
 20
149.9999999999999
 30
0.0
 11
575.0
 21
149.9999999999999
 31
0.0
  0
LINE
  5
163
330
20
100
AcDbEntity
  8
HILF
100
AcDbLine
 10
365.0000000000003
 20
174.9999999999998
 30
0.0
 11
575.0
 21
174.9999999999998
 31
0.0
  0
LINE
  5
164
330
20
100
AcDbEntity
  8
STEMPEL
100
AcDbLine
 10
1025.0
 20
200.0
 30
0.0
 11
365.0000000000003
 21
199.9999999999998
 31
0.0
  0
LINE
  5
165
330
20
100
AcDbEntity
  8
STEMPEL
100
AcDbLine
 10
1025.0
 20
100.0
 30
0.0
 11
365.0000000000003
 21
99.99999999999992
 31
0.0
  0
LINE
  5
166
330
20
100
AcDbEntity
  8
STEMPEL
100
AcDbLine
 10
1025.0
 20
275.0000000000001
 30
0.0
 11
99.99999999999992
 21
275.0
 31
0.0
  0
TEXT
  5
167
330
20
100
AcDbEntity
  8
TEXT
100
AcDbText
 10
511.0540121453142
 20
157.7240979930877
 30
0.0
 40
10.0
  1
Koeh
 41
0.8
  7
GREEKS
 72
     1
 11
524.1968692881714
 21
157.7240979930877
 31
0.0
100
AcDbText
  0
TEXT
  5
168
330
20
100
AcDbEntity
  8
TEXT
100
AcDbText
 10
485.7147386835128
 20
256.0460421087048
 30
0.0
 40
12.5
  1
Zul. Abw.
 41
0.8
  7
GREEKS
100
AcDbText
  0
TEXT
  5
169
330
20
100
AcDbEntity
  8
TEXT
100
AcDbText
 10
506.1566460565737
 20
183.2740272978806
 30
0.0
 40
10.0
  1
Name
 41
0.8
  7
GREEKS
100
AcDbText
  0
TEXT
  5
16A
330
20
100
AcDbEntity
  8
TEXT
 62
     1
100
AcDbText
 10
480.0373920362803
 20
353.4720666920997
 30
0.0
 40
17.5
  1
Werkstoff: EN 10219 S235, RSt34-2 DIN 2394
 41
0.8
  7
GREEKS
100
AcDbText
  0
LINE
  5
16C
330
20
100
AcDbEntity
  8
HILF
100
AcDbLine
 10
1050.0
 20
1485.0
 30
0.0
 11
0.0
 21
1485.0
 31
0.0
  0
LINE
  5
16D
330
20
100
AcDbEntity
  8
STEMPEL
100
AcDbLine
 10
1025.0
 20
1460.0
 30
0.0
 11
99.99999999999971
 21
1460.0
 31
0.0
  0
DIMENSION
  5
16E
330
20
100
AcDbEntity
  8
BEM
100
AcDbDimension
  2
*D13
 10
324.3118085489653
 20
705.751080114787
 30
0.0
 11
308.0618085489651
 21
752.9177467814537
 31
0.0
 70
    32
 71
     5
 42
4.999999999999886
  3
Standard
100
AcDbAlignedDimension
 13
359.3741129666633
 23
700.7510801147871
 33
0.0
 14
521.324112966663
 24
705.751080114787
 34
0.0
 50
90.0
100
AcDbRotatedDimension
1001
ACAD
1000
DSTYLE
1002
{
1070
    40
1040
5.0
1070
    41
1040
3.5
1070
    42
1040
1.0
1070
    43
1040
7.0
1070
    44
1040
1.0
1070
    47
1040
4.0
1070
    48
1040
4.0
1070
    73
1070
     0
1070
    74
1070
     0
1070
    77
1070
     1
1070
    78
1070
     8
1070
    79
1070
     2
1070
   140
1040
3.5
1070
   141
1040
1.5
1070
   146
1040
0.5
1070
   147
1040
1.5
1070
   172
1070
     1
1070
   178
1070
     1
1070
   179
1070
     2
1070
   271
1070
     2
1070
   272
1070
     2
1070
   284
1070
     8
1070
   285
1070
     8
1070
   286
1070
     8
1070
   340
1005
33
1002
}
  0
DIMENSION
  5
16F
330
20
100
AcDbEntity
  8
BEM
100
AcDbDimension
  2
*D7
 10
282.6201063316548
 20
1050.751080114787
 30
0.0
 11
266.3701063316547
 21
875.7510801147871
 31
0.0
 70
    32
 71
     5
 42
349.9999999999996
  3
Standard
100
AcDbAlignedDimension
 13
359.3741129666633
 23
700.7510801147871
 33
0.0
 14
359.3741129666633
 24
1050.751080114787
 34
0.0
 50
90.0
100
AcDbRotatedDimension
1001
ACAD
1000
DSTYLE
1002
{
1070
    40
1040
5.0
1070
    41
1040
3.5
1070
    42
1040
1.0
1070
    43
1040
7.0
1070
    44
1040
1.0
1070
    47
1040
4.0
1070
    48
1040
4.0
1070
    73
1070
     0
1070
    74
1070
     0
1070
    77
1070
     1
1070
    78
1070
     8
1070
    79
1070
     2
1070
   140
1040
3.5
1070
   141
1040
1.5
1070
   146
1040
0.5
1070
   147
1040
1.5
1070
   172
1070
     1
1070
   178
1070
     1
1070
   179
1070
     2
1070
   271
1070
     2
1070
   272
1070
     2
1070
   284
1070
     8
1070
   285
1070
     8
1070
   286
1070
     8
1070
   340
1005
33
1002
}
  0
LINE
  5
170
330
20
100
AcDbEntity
  8
STEMPEL
100
AcDbLine
 10
359.3741129666633
 20
1050.751080114787
 30
0.0
 11
359.3741129666633
 21
700.7510801147871
 31
0.0
  0
LINE
  5
171
102
{ACAD_REACTORS
330
2F2
102
}
330
20
100
AcDbEntity
  8
MITTEL
100
AcDbLine
 10
521.324112966663
 20
1060.751080114787
 30
0.0
 11
521.324112966663
 21
690.751080114787
 31
0.0
  0
LINE
  5
18C
330
20
100
AcDbEntity
  8
HILF
100
AcDbLine
 10
0.0
 20
0.0
 30
0.0
 11
-0.0000000000002842
 21
1485.0
 31
0.0
  0
LINE
  5
18D
330
20
100
AcDbEntity
  8
STEMPEL
100
AcDbLine
 10
100.0
 20
25.0
 30
0.0
 11
99.99999999999971
 21
1460.0
 31
0.0
  0
TEXT
  5
18E
330
20
100
AcDbEntity
  8
TEXT
100
AcDbText
 10
104.6377487744418
 20
279.1799999999999
 30
0.0
 40
12.5
  1
Erstellt mit AUTOCAD 2004
 41
0.8
  7
GREEKS
100
AcDbText
  0
TEXT
  5
18F
330
20
100
AcDbEntity
  8
TEXT
100
AcDbText
 10
164.7719364656889
 20
46.68454737460329
 30
0.0
 40
10.0
  1
Änderung
 41
0.8
  7
GREEKS
 72
     1
 11
191.6290793228318
 21
46.68454737460329
 31
0.0
100
AcDbText
  0
LINE
  5
190
330
20
100
AcDbEntity
  8
HILF
100
AcDbLine
 10
100.0000000000002
 20
99.99999999999992
 30
0.0
 11
365.0000000000003
 21
99.99999999999992
 31
0.0
  0
LINE
  5
191
330
20
100
AcDbEntity
  8
HILF
100
AcDbLine
 10
100.0000000000002
 20
124.9999999999999
 30
0.0
 11
365.0000000000003
 21
124.9999999999999
 31
0.0
  0
LINE
  5
192
330
20
100
AcDbEntity
  8
HILF
100
AcDbLine
 10
100.0000000000002
 20
149.9999999999999
 30
0.0
 11
365.0000000000003
 21
149.9999999999999
 31
0.0
  0
LINE
  5
193
330
20
100
AcDbEntity
  8
HILF
100
AcDbLine
 10
100.0000000000002
 20
174.9999999999998
 30
0.0
 11
365.0000000000003
 21
174.9999999999998
 31
0.0
  0
LINE
  5
194
330
20
100
AcDbEntity
  8
HILF
100
AcDbLine
 10
100.0000000000002
 20
199.9999999999998
 30
0.0
 11
365.0000000000003
 21
199.9999999999998
 31
0.0
  0
LINE
  5
195
330
20
100
AcDbEntity
  8
HILF
100
AcDbLine
 10
100.0000000000002
 20
225.0000000000001
 30
0.0
 11
365.0000000000003
 21
225.0000000000001
 31
0.0
  0
LINE
  5
196
330
20
100
AcDbEntity
  8
HILF
100
AcDbLine
 10
100.0000000000002
 20
250.0000000000001
 30
0.0
 11
365.0000000000003
 21
250.0000000000001
 31
0.0
  0
LINE
  5
197
330
20
100
AcDbEntity
  8
STEMPEL
100
AcDbLine
 10
364.9999999999997
 20
74.99999999999992
 30
0.0
 11
99.99999999999992
 21
74.99999999999992
 31
0.0
  0
TEXT
  5
198
330
20
100
AcDbEntity
  8
TEXT
100
AcDbText
 10
120.6660276761439
 20
34.13664615067979
 30
0.0
 40
10.0
  1
Index
 50
90.0
 41
0.8
  7
GREEKS
100
AcDbText
  0
LINE
  5
199
330
20
100
AcDbEntity
  8
VOLL
100
AcDbLine
 10
135.0000000000002
 20
275.0000000000001
 30
0.0
 11
134.9999999999999
 21
24.99999999999993
 31
0.0
  0
LINE
  5
19A
330
20
100
AcDbEntity
  8
HILF
100
AcDbLine
 10
77.7191783928464
 20
742.5000000000001
 30
0.0
 11
0.0000000000002842
 21
742.5000000000001
 31
0.0
  0
TEXT
  5
19B
330
20
100
AcDbEntity
  8
TEXT
100
AcDbText
 10
274.7105111045187
 20
46.67890673349525
 30
0.0
 40
10.0
  1
Tag
 41
0.8
  7
GREEKS
 72
     1
 11
284.043844437852
 21
46.67890673349525
 31
0.0
100
AcDbText
  0
LINE
  5
19C
330
20
100
AcDbEntity
  8
VOLL
100
AcDbLine
 10
310.0000000000003
 20
274.9999999999999
 30
0.0
 11
310.0
 21
24.99999999999993
 31
0.0
  0
LINE
  5
19D
330
20
100
AcDbEntity
  8
VOLL
100
AcDbLine
 10
260.0000000000003
 20
274.9999999999999
 30
0.0
 11
260.0
 21
24.99999999999993
 31
0.0
  0
TEXT
  5
19E
330
20
100
AcDbEntity
  8
TEXT
100
AcDbText
 10
321.1488691198317
 20
46.4831054241602
 30
0.0
 40
10.0
  1
Name
 41
0.8
  7
GREEKS
 72
     1
 11
336.9583929293555
 21
46.4831054241602
 31
0.0
100
AcDbText
  0
LINE
  5
19F
330
20
100
AcDbEntity
  8
STEMPEL
100
AcDbLine
 10
365.0000000000003
 20
274.9999999999999
 30
0.0
 11
365.0
 21
24.99999999999993
 31
0.0
  0
TEXT
  5
1A0
330
20
100
AcDbEntity
  8
TEXT
100
AcDbText
 10
425.9974927705902
 20
157.7691260206433
 30
0.0
 40
10.0
  1
05.04.
 41
0.8
  7
GREEKS
 72
     1
 11
443.5213022943996
 21
157.7691260206433
 31
0.0
100
AcDbText
  0
TEXT
  5
1A1
330
20
100
AcDbEntity
  8
TEXT
100
AcDbText
 10
430.8279182884127
 20
183.2970125307481
 30
0.0
 40
10.0
  1
Tag
 41
0.8
  7
GREEKS
100
AcDbText
  0
TEXT
  5
1A2
330
20
100
AcDbEntity
  8
TEXT
100
AcDbText
 10
368.9590317919039
 20
159.0747592404491
 30
0.0
 40
10.0
  1
Gez.
 41
0.8
  7
GREEKS
100
AcDbText
  0
LINE
  5
1A3
330
20
100
AcDbEntity
  8
VOLL
100
AcDbLine
 10
410.0000000000003
 20
199.9999999999998
 30
0.0
 11
410.0000000000003
 21
99.99999999999992
 31
0.0
  0
TEXT
  5
1A4
330
20
100
AcDbEntity
  8
TEXT
100
AcDbText
 10
368.8787716429181
 20
134.2231572857094
 30
0.0
 40
10.0
  1
Gepr.
 41
0.8
  7
GREEKS
100
AcDbText
  0
TEXT
  5
1A5
330
20
100
AcDbEntity
  8
TEXT
100
AcDbText
 10
369.0016943468259
 20
108.8236597412452
 30
0.0
 40
10.0
  1
Norm.
 41
0.8
  7
GREEKS
100
AcDbText
  0
TEXT
  5
1A6
330
20
100
AcDbEntity
  8
TEXT
100
AcDbText
 10
383.7908930375943
 20
256.1552237717722
 30
0.0
 40
12.5
  1
Maßstab
 41
0.8
  7
GREEKS
100
AcDbText
  0
TEXT
  5
1A7
330
20
100
AcDbEntity
  8
TEXT
 62
     1
100
AcDbText
 10
401.2515766204717
 20
220.372535722849
 30
0.0
 40
17.5
  1
1:5
 41
0.8
  7
GREEKS
100
AcDbText
  0
TEXT
  5
1A8
330
20
100
AcDbEntity
  8
TEXT
100
AcDbText
 10
371.55527455526
 20
182.8506367787916
 30
0.0
 40
10.0
  1
2011
 41
0.8
  7
GREEKS
100
AcDbText
  0
LINE
  5
1A9
330
20
100
AcDbEntity
  8
VOLL
100
AcDbLine
 10
475.0000000000002
 20
274.9999999999996
 30
0.0
 11
475.0
 21
99.99999999999992
 31
0.0
  0
TEXT
  5
1AB
330
20
100
AcDbEntity
  8
TEXT
 62
     1
100
AcDbText
 10
292.4806628287003
 20
428.844636841721
 30
0.0
 40
17.5
  1
Rohrenden leicht entgratet
 41
0.8
  7
GREEKS
100
AcDbText
  0
POINT
  5
1AC
330
20
100
AcDbEntity
  8
BEM
100
AcDbPoint
 10
521.324112966663
 20
705.7510801147867
 30
0.0
  0
LINE
  5
1AD
330
20
100
AcDbEntity
  8
STEMPEL
100
AcDbLine
 10
683.2741129666628
 20
795.5761884337589
 30
0.0
 11
683.2741129666628
 21
700.7510801147871
 31
0.0
  0
LINE
  5
1AF
330
20
100
AcDbEntity
  8
HILF
100
AcDbLine
 10
1050.0
 20
-0.0000000000002842
 30
0.0
 11
1050.0
 21
1485.0
 31
0.0
  0
LINE
  5
1B0
330
20
100
AcDbEntity
  8
STEMPEL
100
AcDbLine
 10
1025.0
 20
25.0
 30
0.0
 11
1025.0
 21
1460.0
 31
0.0
  0
LINE
  5
1B1
330
20
100
AcDbEntity
  8
HILF
100
AcDbLine
 10
583.7274248224712
 20
37.23495645070784
 30
0.0
 11
1012.147209831682
 21
37.23495645070784
 31
0.0
  0
TEXT
  5
1B2
330
20
100
AcDbEntity
  8
TEXT
100
AcDbText
 10
843.1002153742515
 20
130.185404446965
 30
0.0
 40
12.5
  1
ersetzt durch:
 41
0.8
  7
GREEKS
100
AcDbText
  0
TEXT
  5
1B3
330
20
100
AcDbEntity
  8
TEXT
100
AcDbText
 10
841.8096540742482
 20
182.9529559274992
 30
0.0
 40
12.5
  1
Ersatz für:
 41
0.8
  7
GREEKS
100
AcDbText
  0
TEXT
  5
1B4
330
20
100
AcDbEntity
  8
TEXT
100
AcDbText
 10
840.4468873940851
 20
255.7830086342841
 30
0.0
 40
12.5
  1
Zeichnungs Nr.
 41
0.8
  7
GREEKS
100
AcDbText
  0
LINE
  5
1B5
330
20
100
AcDbEntity
  8
HILF
100
AcDbLine
 10
841.8096540742482
 20
209.4495909238957
 30
0.0
 11
1012.147209831682
 21
209.4495909238957
 31
0.0
  0
LINE
  5
1B6
330
20
100
AcDbEntity
  8
VOLL
100
AcDbLine
 10
830.0
 20
150.0
 30
0.0
 11
1025.0
 21
150.0
 31
0.0
  0
TEXT
  5
1B7
330
20
100
AcDbEntity
  8
TEXT
 62
     1
100
AcDbText
 10
600.0373920362804
 20
323.4720666920996
 30
0.0
 40
17.5
  1
feuerverzinkt und innen beschichtet
 41
0.8
  7
GREEKS
100
AcDbText
  0
TEXT
  5
1B8
330
20
100
AcDbEntity
  8
TEXT
100
AcDbText
 10
587.8240977813288
 20
129.100298576054
 30
0.0
 40
12.5
  1
EDV-Art.Nr. 02260.KD0X
 41
0.8
  7
GREEKS
100
AcDbText
  0
TEXT
  5
1B9
330
20
100
AcDbEntity
  8
TEXT
100
AcDbText
 10
587.8240977813288
 20
181.8582405213435
 30
0.0
 40
12.5
  1
Muffenlos / Muffe
 41
0.8
  7
GREEKS
100
AcDbText
  0
TEXT
  5
1BA
330
20
100
AcDbEntity
  8
TEXT
 62
     1
100
AcDbText
 10
588.9294820816727
 20
218.5437197313445
 30
0.0
 40
17.5
  1
Abzweig 45%%d DN300/100
 41
0.7
  7
GREEKS
100
AcDbText
  0
LINE
  5
1BB
330
20
100
AcDbEntity
  8
HILF
100
AcDbLine
 10
586.9342002742369
 20
124.9999999999999
 30
0.0
 11
812.0884791390775
 21
124.9999999999999
 31
0.0
  0
LINE
  5
1BC
330
20
100
AcDbEntity
  8
HILF
100
AcDbLine
 10
586.9342002742369
 20
149.9999999999999
 30
0.0
 11
812.0884791390775
 21
149.9999999999999
 31
0.0
  0
LINE
  5
1BD
330
20
100
AcDbEntity
  8
HILF
100
AcDbLine
 10
586.9342002742369
 20
174.9999999999998
 30
0.0
 11
812.0884791390775
 21
174.9999999999998
 31
0.0
  0
LINE
  5
1BE
330
20
100
AcDbEntity
  8
HILF
100
AcDbLine
 10
586.9342002742369
 20
210.0939561891034
 30
0.0
 11
812.0884791390777
 21
210.0939561891034
 31
0.0
  0
LINE
  5
1BF
330
20
100
AcDbEntity
  8
STEMPEL
100
AcDbLine
 10
575.0
 20
275.0000000000001
 30
0.0
 11
575.0
 21
24.99999999999993
 31
0.0
  0
TEXT
  5
1C0
330
20
100
AcDbEntity
  8
TEXT
100
AcDbText
 10
587.4593753944567
 20
106.5743538255658
 30
0.0
 40
10.0
  1
02260KD0W.DWG
 41
0.8
  7
GREEKS
100
AcDbText
  0
TEXT
  5
1C1
330
20
100
AcDbEntity
  8
TEXT
100
AcDbText
 10
586.8555959778399
 20
77.11401425482641
 30
0.0
 40
12.5
  1
Bauvorhaben
 41
0.8
  7
GREEKS
100
AcDbText
  0
TEXT
  5
1C2
330
20
100
AcDbEntity
  8
TEXT
100
AcDbText
 10
587.1948509522525
 20
256.3723320029449
 30
0.0
 40
12.5
  1
Benennung
 41
0.8
  7
GREEKS
100
AcDbText
  0
LINE
  5
1C3
330
20
100
AcDbEntity
  8
STEMPEL
100
AcDbLine
 10
830.0
 20
274.9999999999994
 30
0.0
 11
830.0
 21
100.0
 31
0.0
  0
TEXT
  5
1C4
330
20
100
AcDbEntity
  8
TEXT
 62
     1
100
AcDbText
 10
866.0408138945598
 20
221.5985015898785
 30
0.0
 40
17.5
  1
02260KD0W
 41
0.8
  7
GREEKS
 72
     1
 11
926.7074805612265
 21
221.5985015898785
 31
0.0
100
AcDbText
  0
LINE
  5
1C5
330
20
100
AcDbEntity
  8
STEMPEL
100
AcDbLine
 10
703.733626171484
 20
960.2854850006355
 30
0.0
 11
683.2741129666628
 21
939.8259717958145
 31
0.0
  0
LINE
  5
1C6
330
20
100
AcDbEntity
  8
STEMPEL
100
AcDbLine
 10
775.8585178525118
 20
888.1605933196077
 30
0.0
 11
683.2741129666628
 21
795.5761884337589
 31
0.0
  0
LINE
  5
1C7
102
{ACAD_REACTORS
330
2F2
102
}
330
20
100
AcDbEntity
  8
MITTEL
100
AcDbLine
 10
797.0957576294168
 20
981.5227247775405
 30
0.0
 11
633.3397238008794
 21
817.7666909490033
 31
0.0
  0
LINE
  5
1C8
330
20
100
AcDbEntity
  8
STEMPEL
100
AcDbLine
 10
683.2741129666628
 20
1050.751080114787
 30
0.0
 11
683.2741129666628
 21
939.8259717958145
 31
0.0
  0
DIMENSION
  5
1C9
330
20
100
AcDbEntity
  8
BEM
100
AcDbDimension
  2
*D9
 10
572.7379172766778
 20
829.2897761058293
 30
0.0
 11
608.8513659784608
 21
793.1763274040464
 31
0.0
 70
   160
  1
%%c<>
 71
     5
 42
101.9999999999999
  3
Standard
100
AcDbAlignedDimension
 13
683.2741129666628
 23
795.5761884337588
 33
0.0
 14
683.2741129666628
 24
939.8259717958143
 34
0.0
 50
315.0
100
AcDbRotatedDimension
1001
ACAD
1000
DSTYLE
1002
{
1070
    40
1040
5.0
1070
    41
1040
3.5
1070
    42
1040
1.0
1070
    43
1040
7.0
1070
    44
1040
1.0
1070
    47
1040
4.0
1070
    48
1040
4.0
1070
    73
1070
     0
1070
    74
1070
     0
1070
    77
1070
     1
1070
    78
1070
     8
1070
    79
1070
     2
1070
   140
1040
3.5
1070
   141
1040
1.5
1070
   146
1040
0.5
1070
   147
1040
1.5
1070
   172
1070
     1
1070
   178
1070
     1
1070
   179
1070
     2
1070
   271
1070
     2
1070
   272
1070
     2
1070
   284
1070
     8
1070
   285
1070
     8
1070
   286
1070
     8
1070
   340
1005
33
1002
}
  0
ARC
  5
1CA
330
20
100
AcDbEntity
  8
STEMPEL
100
AcDbCircle
 10
926.8093461961294
 20
859.4612050252818
 30
0.0
 40
251.7751083189714
100
AcDbArc
 50
180.0
 51
194.6988430970984
  0
ARC
  5
1CB
330
20
100
AcDbEntity
  8
SCHRAFF
100
AcDbCircle
 10
679.9833393411345
 20
809.7859847535234
 30
0.0
 40
10.0
100
AcDbArc
 50
265.0037861673692
 51
299.9254610879293
  0
INSERT
  5
1CC
330
20
100
AcDbEntity
  8
SCHRAFF
100
AcDbBlockReference
  2
*X4
 10
16.34668788114459
 20
66.55237621137411
 30
0.0
1001
ACAD
1000
HATCH
1002
{
1070
    16
1000
_U,I
1040
0.1
1040
0.0
1070
     0
1002
}
  0
ARC
  5
1CD
330
20
100
AcDbEntity
  8
SCHRAFF
100
AcDbCircle
 10
680.1455413671783
 20
796.872085221121
 30
0.0
 40
5.314385144188236
100
AcDbArc
 50
306.0647179373303
 51
8.935282062667724
  0
ARC
  5
1CE
330
20
100
AcDbEntity
  8
SCHRAFF
100
AcDbCircle
 10
675.8282842998478
 20
839.4809212824368
 30
0.0
 40
10.0
100
AcDbArc
 50
258.1763185977831
 51
293.0979935183433
  0
ARC
  5
1CF
330
20
100
AcDbEntity
  8
SCHRAFF
100
AcDbCircle
 10
676.8196680252276
 20
829.5301847112551
 30
0.0
 40
10.0
100
AcDbArc
 50
260.4521411209782
 51
295.3738160415387
  0
ARC
  5
1D0
330
20
100
AcDbEntity
  8
SCHRAFF
100
AcDbCircle
 10
678.2054150527733
 20
819.6266648735585
 30
0.0
 40
10.0
100
AcDbArc
 50
262.7279636441739
 51
297.6496385647341
  0
ARC
  5
1D1
330
20
100
AcDbEntity
  8
SCHRAFF
100
AcDbCircle
 10
679.9833393411345
 20
809.7859847535234
 30
0.0
 40
10.0
100
AcDbArc
 50
97.96537883119761
 51
100.2412013543657
  0
ARC
  5
1D2
330
20
100
AcDbEntity
  8
SCHRAFF
100
AcDbCircle
 10
675.2328278026429
 20
849.4631771176644
 30
0.0
 40
10.0
100
AcDbArc
 50
255.9004960745875
 51
290.8221709951476
  0
ARC
  5
1D3
330
20
100
AcDbEntity
  8
SCHRAFF
100
AcDbCircle
 10
678.2054150527733
 20
819.6266648735585
 30
0.0
 40
10.0
100
AcDbArc
 50
95.68955630799642
 51
97.96537883117593
  0
ARC
  5
1D4
330
20
100
AcDbEntity
  8
SCHRAFF
100
AcDbCircle
 10
675.8282842998478
 20
839.4809212824368
 30
0.0
 40
10.0
100
AcDbArc
 50
91.13791126159645
 51
93.41373378479428
  0
ARC
  5
1D5
330
20
100
AcDbEntity
  8
SCHRAFF
100
AcDbCircle
 10
676.8196680252276
 20
829.5301847112551
 30
0.0
 40
10.0
100
AcDbArc
 50
93.41373378479364
 51
95.68955630798795
  0
ARC
  5
1D6
330
20
100
AcDbEntity
  8
SCHRAFF
100
AcDbCircle
 10
675.0342378771579
 20
859.4612050252818
 30
0.0
 40
10.0
100
AcDbArc
 50
253.6246735513926
 51
288.5463484719527
  0
ARC
  5
1D7
330
20
100
AcDbEntity
  8
STEMPEL
100
AcDbCircle
 10
1071.059129558189
 20
859.461205025282
 30
0.0
 40
396.0248916810315
100
AcDbArc
 50
168.2917334189752
 51
180.0
  0
ARC
  5
1D8
330
20
100
AcDbEntity
  8
SCHRAFF
100
AcDbCircle
 10
675.1604925673311
 20
869.4604079811783
 30
0.0
 40
10.0
100
AcDbArc
 50
86.3829734565129
 51
87.82978407390338
  0
ARC
  5
1D9
330
20
100
AcDbEntity
  8
SCHRAFF
100
AcDbCircle
 10
676.170047132623
 20
889.4333155960584
 30
0.0
 40
10.0
100
AcDbArc
 50
248.8907459801617
 51
283.808566282271
  0
ARC
  5
1DA
330
20
100
AcDbEntity
  8
SCHRAFF
100
AcDbCircle
 10
675.0342378771579
 20
859.4612050252818
 30
0.0
 40
10.0
100
AcDbArc
 50
87.82978407390599
 51
89.27659469130139
  0
ARC
  5
1DB
330
20
100
AcDbEntity
  8
SCHRAFF
100
AcDbCircle
 10
675.2328278026429
 20
849.4631771176644
 30
0.0
 40
10.0
100
AcDbArc
 50
89.276594691304
 51
91.13791126159513
  0
ARC
  5
1DC
330
20
100
AcDbEntity
  8
SCHRAFF
100
AcDbCircle
 10
675.1604925673311
 20
869.4604079811783
 30
0.0
 40
10.0
100
AcDbArc
 50
251.7843672149529
 51
286.7021875170624
  0
ARC
  5
1DD
330
20
100
AcDbEntity
  8
SCHRAFF
100
AcDbCircle
 10
675.5391761366135
 20
879.4532353465617
 30
0.0
 40
10.0
100
AcDbArc
 50
250.3375565975573
 51
285.2553768996665
  0
ARC
  5
1DE
330
20
100
AcDbEntity
  8
SCHRAFF
100
AcDbCircle
 10
677.0527033057851
 20
899.3942853319817
 30
0.0
 40
10.0
100
AcDbArc
 50
247.4439353627654
 51
282.3617556648748
  0
ARC
  5
1DF
330
20
100
AcDbEntity
  8
SCHRAFF
100
AcDbCircle
 10
678.1865818658107
 20
909.329793341697
 30
0.0
 40
10.0
100
AcDbArc
 50
245.9971247453689
 51
280.9149450474785
  0
ARC
  5
1E0
330
20
100
AcDbEntity
  8
SCHRAFF
100
AcDbCircle
 10
679.570959840536
 20
919.2335046472175
 30
0.0
 40
10.0
100
AcDbArc
 50
244.550314127973
 51
279.4681344300827
  0
ARC
  5
1E1
330
20
100
AcDbEntity
  8
SCHRAFF
100
AcDbCircle
 10
677.0527033057851
 20
899.3942853319817
 30
0.0
 40
10.0
100
AcDbArc
 50
82.04254160434718
 51
83.48935222169252
  0
ARC
  5
1E2
330
20
100
AcDbEntity
  8
SCHRAFF
100
AcDbCircle
 10
676.170047132623
 20
889.4333155960584
 30
0.0
 40
10.0
100
AcDbArc
 50
83.48935222171812
 51
84.93616283911329
  0
ARC
  5
1E3
330
20
100
AcDbEntity
  8
SCHRAFF
100
AcDbCircle
 10
675.5391761366135
 20
879.4532353465617
 30
0.0
 40
10.0
100
AcDbArc
 50
84.9361628391081
 51
86.38297345651613
  0
ARC
  5
1E4
330
20
100
AcDbEntity
  8
SCHRAFF
100
AcDbCircle
 10
683.2741129666628
 20
939.825971795814
 30
0.0
 40
5.514704598924701
100
AcDbArc
 50
45.00000000000418
 51
90.00000000000119
  0
ARC
  5
1E5
330
20
100
AcDbEntity
  8
SCHRAFF
100
AcDbCircle
 10
681.204954536899
 20
929.0991045444492
 30
0.0
 40
10.0
100
AcDbArc
 50
243.103503510577
 51
278.0213238126862
  0
ARC
  5
1E6
330
20
100
AcDbEntity
  8
SCHRAFF
100
AcDbCircle
 10
683.0875241037506
 20
938.9203026295081
 30
0.0
 40
10.0
100
AcDbArc
 50
241.6566928931807
 51
276.5745131952902
  0
INSERT
  5
1E7
330
20
100
AcDbEntity
  8
SCHRAFF
100
AcDbBlockReference
  2
*X3
 10
16.34668788114459
 20
66.55237621137411
 30
0.0
1001
ACAD
1000
HATCH
1002
{
1070
    16
1000
_U,I
1040
0.1
1040
0.0
1070
     0
1002
}
  0
ARC
  5
1E8
330
20
100
AcDbEntity
  8
SCHRAFF
100
AcDbCircle
 10
681.204954536899
 20
929.0991045444492
 30
0.0
 40
10.0
100
AcDbArc
 50
77.70210975215028
 51
79.14892036951354
  0
ARC
  5
1E9
330
20
100
AcDbEntity
  8
SCHRAFF
100
AcDbCircle
 10
679.570959840536
 20
919.2335046472175
 30
0.0
 40
10.0
100
AcDbArc
 50
79.14892036954933
 51
80.59573098690583
  0
ARC
  5
1EA
330
20
100
AcDbEntity
  8
SCHRAFF
100
AcDbCircle
 10
685.2174681961514
 20
948.690836809544
 30
0.0
 40
10.0
100
AcDbArc
 50
240.2098822757856
 51
275.1277025778945
  0
ARC
  5
1EB
330
20
100
AcDbEntity
  8
SCHRAFF
100
AcDbCircle
 10
678.1865818658107
 20
909.329793341697
 30
0.0
 40
10.0
100
AcDbArc
 50
80.59573098694801
 51
82.04254160429982
  0
LINE
  5
1EC
330
20
100
AcDbEntity
  8
STEMPEL
100
AcDbLine
 10
721.0817786518628
 20
983.2904917305068
 30
0.0
 11
710.0703504366492
 21
972.2790635152934
 31
0.0
  0
LINE
  5
1ED
330
20
100
AcDbEntity
  8
HILF
100
AcDbLine
 10
724.5366737147828
 20
984.4660407806804
 30
0.0
 11
800.039073632557
 21
908.9636408629061
 31
0.0
  0
LINE
  5
1EE
102
{ACAD_REACTORS
330
3E3
102
}
330
20
100
AcDbEntity
  8
STEMPEL
100
AcDbLine
 10
754.1695989125837
 20
1017.377815682507
 30
0.0
 11
832.950848534384
 21
938.5965660607078
 31
0.0
  0
LINE
  5
1F0
330
20
100
AcDbEntity
  8
HILF
100
AcDbLine
 10
783.3184382876279
 20
893.6096008988309
 30
0.0
 11
709.1826337507105
 21
967.7454054357486
 31
0.0
  0
LINE
  5
1F1
330
20
100
AcDbEntity
  8
HILF
100
AcDbLine
 10
706.9185553094808
 20
961.2708441437805
 30
0.0
 11
776.8438769956528
 21
891.3455224576082
 31
0.0
  0
ARC
  5
230
330
20
100
AcDbEntity
  8
STEMPEL
100
AcDbCircle
 10
720.6769521544474
 20
961.672461797495
 30
0.0
 40
15.0
100
AcDbArc
 50
134.9999999999999
 51
169.3011527567915
  0
ARC
  5
231
330
20
100
AcDbEntity
  8
STEMPEL
100
AcDbCircle
 10
698.0767719219916
 20
965.9423392501279
 30
0.0
 40
8.0
100
AcDbArc
 50
315.0
 51
349.3011527567914
  0
ARC
  5
232
330
20
100
AcDbEntity
  8
STEMPEL
100
AcDbCircle
 10
795.84629994706
 20
932.1900059744985
 30
0.0
 40
24.99990931069965
100
AcDbArc
 50
288.11222934098
 51
315.0
  0
LINE
  5
233
330
20
100
AcDbEntity
  8
STEMPEL
100
AcDbLine
 10
798.863524582383
 20
905.5087457999865
 30
0.0
 11
787.8520963671698
 21
894.4973175847733
 31
0.0
  0
ARC
  5
234
330
20
100
AcDbEntity
  8
STEMPEL
100
AcDbCircle
 10
777.2454946493712
 20
905.1039193025713
 30
0.0
 40
15.0
100
AcDbArc
 50
280.6988472432085
 51
315.0000000000001
  0
ARC
  5
235
330
20
100
AcDbEntity
  8
STEMPEL
100
AcDbCircle
 10
781.5153721020042
 20
882.5037390701153
 30
0.0
 40
8.0
100
AcDbArc
 50
100.6988472432086
 51
135.0
  0
ARC
  5
236
330
20
100
AcDbEntity
  8
STEMPEL
100
AcDbCircle
 10
807.3488059566216
 20
897.0234644257477
 30
0.0
 40
12.0
100
AcDbArc
 50
108.1122293409799
 51
135.0000000000001
  0
LINE
  5
237
330
20
100
AcDbEntity
  8
STEMPEL
100
AcDbLine
 10
826.3666185791352
 20
927.3549855472463
 30
0.0
 11
813.5239694767237
 21
914.5123364448348
 31
0.0
  0
LINE
  5
238
330
20
100
AcDbEntity
  8
STEMPEL
100
AcDbLine
 10
832.950848534384
 20
938.5965660607077
 30
0.0
 11
832.1812645691192
 21
936.4821514937681
 31
0.0
  0
ARC
  5
239
330
20
100
AcDbEntity
  8
STEMPEL
100
AcDbCircle
 10
808.6889490494714
 20
945.03265507691
 30
0.0
 40
25.0
100
AcDbArc
 50
315.0
 51
339.9999999999902
  0
POINT
  5
23A
330
20
100
AcDbEntity
  8
BEM
100
AcDbPoint
 10
832.9508485343835
 20
938.5965660607075
 30
0.0
  0
ARC
  5
23B
330
20
100
AcDbEntity
  8
STEMPEL
100
AcDbCircle
 10
747.7630388263748
 20
980.2732670951838
 30
0.0
 40
24.99990931069965
100
AcDbArc
 50
135.0
 51
161.8877706590199
  0
ARC
  5
23C
330
20
100
AcDbEntity
  8
STEMPEL
100
AcDbCircle
 10
712.5964972776241
 20
991.7757731047451
 30
0.0
 40
12.0
100
AcDbArc
 50
314.9999999999999
 51
341.8877706590201
  0
ARC
  5
23D
330
20
100
AcDbEntity
  8
STEMPEL
100
AcDbCircle
 10
760.6056879287862
 20
993.1159161975951
 30
0.0
 40
25.0
100
AcDbArc
 50
110.0000000000066
 51
135.0
  0
LINE
  5
23E
330
20
100
AcDbEntity
  8
STEMPEL
100
AcDbLine
 10
742.9280183991227
 20
1010.793585727259
 30
0.0
 11
730.0853692967112
 21
997.9509366248475
 31
0.0
  0
LINE
  5
23F
330
20
100
AcDbEntity
  8
STEMPEL
100
AcDbLine
 10
754.1695989125837
 20
1017.377815682507
 30
0.0
 11
752.0551843456441
 21
1016.608231717243
 31
0.0
  0
POINT
  5
247
330
20
100
AcDbEntity
  8
BEM
100
AcDbPoint
 10
832.9508485343836
 20
938.5965660607075
 30
0.0
  0
POINT
  5
248
330
20
100
AcDbEntity
  8
DEFPOINTS
  6
ByBlock
 62
     0
100
AcDbPoint
 10
521.3241129666628
 20
705.7510801147867
 30
0.0
  0
LINE
  5
24A
330
20
100
AcDbEntity
  8
MITTEL
100
AcDbLine
 10
683.2741129666628
 20
877.7010801147866
 30
0.0
 11
683.2741129666628
 21
857.7010801147867
 31
0.0
  0
POINT
  5
258
330
20
100
AcDbEntity
  8
BEM
100
AcDbPoint
 10
683.2741129666628
 20
1050.751080114787
 30
0.0
  0
POINT
  5
259
330
20
100
AcDbEntity
  8
DEFPOINTS
  6
ByBlock
 62
     0
100
AcDbPoint
 10
832.950848534384
 20
938.5965660607078
 30
0.0
  0
TEXT
  5
25C
330
20
100
AcDbEntity
  8
TEXT
 62
     1
100
AcDbText
 10
511.6958700070413
 20
885.6448606717794
 30
0.0
 40
17.5
  1
DN300
 50
90.0
 41
0.8
  7
GREEKS
100
AcDbText
  0
TEXT
  5
25D
330
20
100
AcDbEntity
  8
TEXT
 62
     1
100
AcDbText
 10
706.0464363019859
 20
849.3005435072085
 30
0.0
 40
17.5
  1
DN100
 50
45.0
 41
0.8
  7
GREEKS
100
AcDbText
  0
TEXT
  5
299
330
20
100
AcDbEntity
  8
TEXT
100
AcDbText
 10
480.4937940089665
 20
221.474350738901
 30
0.0
 40
10.0
  1
DIN EN1123-2
 41
0.8
  7
GREEKS
 72
     1
 11
522.9699844851571
 21
221.474350738901
 31
0.0
100
AcDbText
  0
TEXT
  5
2A0
330
20
100
AcDbEntity
  8
BEM
100
AcDbText
 10
1043.255730964291
 20
25.41975269997124
 30
0.0
 40
10.0
  1
Diese Zeichnung ist urheberrechtlich geschützt und bleibt unser Eigentum. Sie darf weder ganz noch teilweise verfielfältigt und nicht an Dritte weitergegeben werden.
 50
90.0
 41
0.8
  7
GREEKS
100
AcDbText
  0
DIMENSION
  5
2D7
102
{ACAD_XDICTIONARY
360
2E6
102
}
102
{ACAD_REACTORS
330
2F2
102
}
330
20
100
AcDbEntity
  8
BEM
100
AcDbDimension
  2
*D11
 10
633.3397238008794
 20
817.7666909490033
 30
0.0
 11
713.2471609425138
 21
1085.175500424552
 31
0.0
 70
   162
 71
     5
 42
0.7853981633974499
  3
Standard
100
AcDb2LineAngularDimension
 13
521.324112966663
 23
1060.751080114787
 33
0.0
 14
521.324112966663
 24
690.751080114787
 34
0.0
 15
797.0957576294168
 25
981.5227247775405
 35
0.0
 16
631.3746730987706
 26
1116.465361929227
 36
0.0
1001
ACAD
1000
DSTYLE
1002
{
1070
    40
1040
5.0
1070
    41
1040
3.5
1070
    42
1040
1.0
1070
    43
1040
7.0
1070
    44
1040
1.0
1070
    47
1040
4.0
1070
    48
1040
4.0
1070
    73
1070
     0
1070
    74
1070
     0
1070
    77
1070
     1
1070
    78
1070
     8
1070
    79
1070
     2
1070
   140
1040
3.5
1070
   141
1040
1.5
1070
   146
1040
0.5
1070
   147
1040
1.5
1070
   172
1070
     1
1070
   178
1070
     1
1070
   179
1070
     2
1070
   271
1070
     2
1070
   272
1070
     2
1070
   284
1070
     8
1070
   285
1070
     8
1070
   286
1070
     8
1070
   340
1005
33
1002
}
  0
DIMENSION
  5
3CC
102
{ACAD_XDICTIONARY
360
3D9
102
}
102
{ACAD_REACTORS
330
3E3
102
}
330
20
100
AcDbEntity
  8
BEM
100
AcDbDimension
  2
*D16
 10
864.6286535796807
 20
906.9187610154111
 30
0.0
 11
717.0201130069888
 21
782.2911908312822
 31
0.0
 70
    32
 71
     5
 42
385.0000000000002
 51
315.0000000000001
  3
Standard
100
AcDbAlignedDimension
 13
521.324112966663
 23
705.751080114787
 33
0.0
 14
832.9508485343842
 24
938.5965660607078
 34
0.0
 50
44.99999999999997
100
AcDbRotatedDimension
1001
ACAD
1000
DSTYLE
1002
{
1070
    40
1040
5.0
1070
    41
1040
3.5
1070
    42
1040
1.0
1070
    43
1040
7.0
1070
    44
1040
1.0
1070
    47
1040
4.0
1070
    48
1040
4.0
1070
    73
1070
     0
1070
    74
1070
     0
1070
    77
1070
     1
1070
    78
1070
     8
1070
    79
1070
     2
1070
   140
1040
3.5
1070
   141
1040
1.5
1070
   146
1040
0.5
1070
   147
1040
1.5
1070
   172
1070
     1
1070
   178
1070
     1
1070
   179
1070
     2
1070
   271
1070
     2
1070
   272
1070
     2
1070
   284
1070
     8
1070
   285
1070
     8
1070
   286
1070
     8
1070
   340
1005
33
1002
}
  0
ENDSEC
  0
SECTION
  2
OBJECTS
  0
DICTIONARY
  5
C
330
0
100
AcDbDictionary
281
     1
  3
ACAD_COLOR
350
1B
  3
ACAD_GROUP
350
D
  3
ACAD_LAYOUT
350
19
  3
ACAD_MATERIAL
350
1A
  3
ACAD_MLINESTYLE
350
16
  3
ACAD_PLOTSETTINGS
350
18
  3
ACAD_PLOTSTYLENAME
350
E
  3
AcDbVariableDictionary
350
2C1
  0
DICTIONARY
  5
2E6
330
2D7
100
AcDbDictionary
280
     1
281
     1
  3
ACAD_DIMASSOC
360
2F2
  0
DICTIONARY
  5
3D9
330
3CC
100
AcDbDictionary
280
     1
281
     1
  3
ACAD_DIMASSOC
360
3E3
  0
DICTIONARY
  5
1B
102
{ACAD_REACTORS
330
C
102
}
330
C
100
AcDbDictionary
281
     1
  0
DICTIONARY
  5
D
102
{ACAD_REACTORS
330
C
102
}
330
C
100
AcDbDictionary
281
     1
  0
DICTIONARY
  5
19
102
{ACAD_REACTORS
330
C
102
}
330
C
100
AcDbDictionary
281
     1
  3
Layout1
350
1F
  3
Model
350
23
  0
DICTIONARY
  5
1A
102
{ACAD_REACTORS
330
C
102
}
330
C
100
AcDbDictionary
281
     1
  0
DICTIONARY
  5
16
102
{ACAD_REACTORS
330
C
102
}
330
C
100
AcDbDictionary
281
     1
  3
Standard
350
17
  0
DICTIONARY
  5
18
102
{ACAD_REACTORS
330
C
102
}
330
C
100
AcDbDictionary
281
     1
  0
ACDBDICTIONARYWDFLT
  5
E
102
{ACAD_REACTORS
330
C
102
}
330
C
100
AcDbDictionary
281
     1
  3
Normal
350
F
100
AcDbDictionaryWithDefault
340
F
  0
DICTIONARY
  5
2C1
102
{ACAD_REACTORS
330
C
102
}
330
C
100
AcDbDictionary
281
     1
  3
DIMASSOC
350
2C3
  3
HIDETEXT
350
2C2
  3
PROJECTNAME
350
2C4
  0
DIMASSOC
  5
2F2
102
{ACAD_REACTORS
330
2E6
102
}
330
2E6
100
AcDbDimAssoc
330
2D7
 90
       15
 70
     0
 71
     0
  1
AcDbOsnapPointRef
 72
    13
331
171
 73
     2
 91
        0
 40
0.0
 10
0.0
 20
0.0
 30
2.000000000000000E+50
 75
     0
  1
AcDbOsnapPointRef
 72
     1
331
171
 73
     2
 91
        0
 40
0.9999999999999998
 10
0.0
 20
0.0
 30
2.000000000000000E+50
 75
     0
  1
AcDbOsnapPointRef
 72
    13
331
1C7
 73
     2
 91
        0
 40
0.0
 10
0.0
 20
0.0
 30
2.000000000000000E+50
 75
     0
  1
AcDbOsnapPointRef
 72
     1
331
1C7
 73
     2
 91
        0
 40
1.0
 10
0.0
 20
0.0
 30
2.000000000000000E+50
 75
     0
  0
DIMASSOC
  5
3E3
102
{ACAD_REACTORS
330
3D9
102
}
330
3D9
100
AcDbDimAssoc
330
3CC
 90
        3
 70
     0
 71
     0
  1
AcDbOsnapPointRef
 72
     1
331
15C
 73
     2
 91
        0
 40
1.0
 10
0.0
 20
0.0
 30
2.000000000000000E+50
 75
     0
  1
AcDbOsnapPointRef
 72
     1
331
1EE
 73
     2
 91
        0
 40
1.0
 10
0.0
 20
0.0
 30
2.000000000000000E+50
 75
     0
  0
LAYOUT
  5
1F
102
{ACAD_REACTORS
330
19
102
}
330
19
100
AcDbPlotSettings
  1

  2
RICOH Aficio 2027 PCL 6
  4

  6

 40
0.0
 41
0.0
 42
0.0
 43
0.0
 44
0.0
 45
0.0
 46
0.0
 47
0.0
 48
0.0
 49
0.0
140
0.0
141
0.0
142
1.0
143
1.0
 70
   688
 72
     0
 73
     0
 74
     5
  7
monochrome1.ctb
 75
    16
147
1.0
 76
     0
 77
     2
 78
   300
148
0.0
149
0.0
100
AcDbLayout
  1
Layout1
 70
     0
 71
     1
 10
0.0
 20
0.0
 11
12.0
 21
9.0
 12
5.612851412409735
 22
50.00000000000001
 32
-2.58105543498411
 14
1.000000000000000E+20
 24
1.000000000000000E+20
 34
1.000000000000000E+20
 15
-1.000000000000000E+20
 25
-1.000000000000000E+20
 35
-1.000000000000000E+20
146
0.0
 13
0.0
 23
0.0
 33
0.0
 16
1.0
 26
0.0
 36
0.0
 17
0.0
 27
1.0
 37
0.0
 76
     0
330
1C
  0
LAYOUT
  5
23
102
{ACAD_REACTORS
330
19
102
}
330
19
100
AcDbPlotSettings
  1

  2
RICOH Aficio 2027 PCL 6
  4
A4
  6

 40
5.027083396911621
 41
5.027085304260253
 42
5.027084350585937
 43
5.027069091796875
 44
209.9733276367187
 45
296.9259948730469
 46
0.0
 47
0.0
 48
0.0
 49
0.0
140
0.0
141
0.0
142
1.0
143
1.0
 70
 11952
 72
     0
 73
     1
 74
     0
  7
monochrome1.ctb
 75
     0
147
1.0
 76
     0
 77
     2
 78
   300
148
5749.737974108374
149
225.2379483828901
100
AcDbLayout
  1
Model
 70
     1
 71
     0
 10
0.0
 20
0.0
 11
12.0
 21
9.0
 12
0.0
 22
0.0
 32
0.0
 14
0.0
 24
0.0
 34
0.0
 15
0.0
 25
0.0
 35
0.0
146
0.0
 13
0.0
 23
0.0
 33
0.0
 16
1.0
 26
0.0
 36
0.0
 17
0.0
 27
1.0
 37
0.0
 76
     0
330
20
  0
MLINESTYLE
  5
17
102
{ACAD_REACTORS
330
16
102
}
330
16
100
AcDbMlineStyle
  2
STANDARD
 70
     0
  3

 62
   256
 51
90.0
 52
90.0
 71
     2
 49
0.5
 62
   256
  6
BYLAYER
 49
-0.5
 62
   256
  6
BYLAYER
  0
ACDBPLACEHOLDER
  5
F
102
{ACAD_REACTORS
330
E
102
}
330
E
  0
DICTIONARYVAR
  5
2C3
102
{ACAD_REACTORS
330
2C1
102
}
330
2C1
100
DictionaryVariables
280
     0
  1
2
  0
DICTIONARYVAR
  5
2C2
102
{ACAD_REACTORS
330
2C1
102
}
330
2C1
100
DictionaryVariables
280
     0
  1
1
  0
DICTIONARYVAR
  5
2C4
102
{ACAD_REACTORS
330
2C1
102
}
330
2C1
100
DictionaryVariables
280
     0
  1

  0
ENDSEC
  0
EOF
