  0
SECTION
  2
HEADER
  9
$ACADVER
  1
AC1018
  9
$ACADMAINTVER
 70
     2
  9
$DWGCODEPAGE
  3
ANSI_1252
  9
$INSBASE
 10
0.0
 20
0.0
 30
0.0
  9
$EXTMIN
 10
-0.0480524721101574
 20
-0.0679599248414888
 30
-0.0000000000000058
  9
$EXTMAX
 10
1050.048072030928
 20
1485.067987586599
 30
0.0000000000000104
  9
$LIMMIN
 10
0.0
 20
0.0
  9
$LIMMAX
 10
1050.0
 20
1485.0
  9
$ORTHOMODE
 70
     0
  9
$REGENMODE
 70
     1
  9
$FILLMODE
 70
     1
  9
$QTEXTMODE
 70
     0
  9
$MIRRTEXT
 70
     1
  9
$LTSCALE
 40
50.0
  9
$ATTMODE
 70
     1
  9
$TEXTSIZE
 40
2.5
  9
$TRACEWID
 40
0.5
  9
$TEXTSTYLE
  7
GREEKS
  9
$CLAYER
  8
BEM
  9
$CELTYPE
  6
ByLayer
  9
$CECOLOR
 62
   256
  9
$CELTSCALE
 40
1.0
  9
$DISPSILH
 70
     0
  9
$DIMSCALE
 40
5.0
  9
$DIMASZ
 40
3.5
  9
$DIMEXO
 40
1.0
  9
$DIMDLI
 40
7.0
  9
$DIMRND
 40
0.0
  9
$DIMDLE
 40
0.0
  9
$DIMEXE
 40
1.0
  9
$DIMTP
 40
2.399999999999999
  9
$DIMTM
 40
2.399999999999999
  9
$DIMTXT
 40
3.5
  9
$DIMCEN
 40
1.5
  9
$DIMTSZ
 40
0.0
  9
$DIMTOL
 70
     0
  9
$DIMLIM
 70
     0
  9
$DIMTIH
 70
     0
  9
$DIMTOH
 70
     0
  9
$DIMSE1
 70
     0
  9
$DIMSE2
 70
     0
  9
$DIMTAD
 70
     1
  9
$DIMZIN
 70
     8
  9
$DIMBLK
  1

  9
$DIMASO
 70
     1
  9
$DIMSHO
 70
     0
  9
$DIMPOST
  1

  9
$DIMAPOST
  1

  9
$DIMALT
 70
     0
  9
$DIMALTD
 70
     2
  9
$DIMALTF
 40
25.4
  9
$DIMLFAC
 40
1.0
  9
$DIMTOFL
 70
     1
  9
$DIMTVP
 40
0.0
  9
$DIMTIX
 70
     0
  9
$DIMSOXD
 70
     0
  9
$DIMSAH
 70
     0
  9
$DIMBLK1
  1

  9
$DIMBLK2
  1

  9
$DIMSTYLE
  2
Standard
  9
$DIMCLRD
 70
     0
  9
$DIMCLRE
 70
     0
  9
$DIMCLRT
 70
     1
  9
$DIMTFAC
 40
0.5
  9
$DIMGAP
 40
1.5
  9
$DIMJUST
 70
     0
  9
$DIMSD1
 70
     0
  9
$DIMSD2
 70
     0
  9
$DIMTOLJ
 70
     1
  9
$DIMTZIN
 70
     8
  9
$DIMALTZ
 70
     8
  9
$DIMALTTZ
 70
     8
  9
$DIMUPT
 70
     0
  9
$DIMDEC
 70
     2
  9
$DIMTDEC
 70
     2
  9
$DIMALTU
 70
     2
  9
$DIMALTTD
 70
     2
  9
$DIMTXSTY
  7
GREEKS
  9
$DIMAUNIT
 70
     0
  9
$DIMADEC
 70
     2
  9
$DIMALTRND
 40
0.0
  9
$DIMAZIN
 70
     2
  9
$DIMDSEP
 70
    46
  9
$DIMATFIT
 70
     3
  9
$DIMFRAC
 70
     0
  9
$DIMLDRBLK
  1

  9
$DIMLUNIT
 70
     2
  9
$DIMLWD
 70
    -2
  9
$DIMLWE
 70
    -2
  9
$DIMTMOVE
 70
     0
  9
$LUNITS
 70
     2
  9
$LUPREC
 70
     2
  9
$SKETCHINC
 40
1.0
  9
$FILLETRAD
 40
0.0
  9
$AUNITS
 70
     0
  9
$AUPREC
 70
     0
  9
$MENU
  1
ACAD
  9
$ELEVATION
 40
0.0
  9
$PELEVATION
 40
0.0
  9
$THICKNESS
 40
0.0
  9
$LIMCHECK
 70
     0
  9
$CHAMFERA
 40
0.0
  9
$CHAMFERB
 40
0.0
  9
$CHAMFERC
 40
0.0
  9
$CHAMFERD
 40
0.0
  9
$SKPOLY
 70
     0
  9
$TDCREATE
 40
2452215.877335532
  9
$TDUCREATE
 40
2452215.794002199
  9
$TDUPDATE
 40
2455657.565212928
  9
$TDUUPDATE
 40
2455657.481879595
  9
$TDINDWG
 40
0.0744334606
  9
$TDUSRTIMER
 40
0.0744334606
  9
$USRTIMER
 70
     1
  9
$ANGBASE
 50
0.0
  9
$ANGDIR
 70
     0
  9
$PDMODE
 70
     0
  9
$PDSIZE
 40
0.0
  9
$PLINEWID
 40
0.0
  9
$SPLFRAME
 70
     0
  9
$SPLINETYPE
 70
     6
  9
$SPLINESEGS
 70
     8
  9
$HANDSEED
  5
347
  9
$SURFTAB1
 70
     6
  9
$SURFTAB2
 70
     6
  9
$SURFTYPE
 70
     6
  9
$SURFU
 70
     6
  9
$SURFV
 70
     6
  9
$UCSBASE
  2

  9
$UCSNAME
  2

  9
$UCSORG
 10
0.0
 20
0.0
 30
0.0
  9
$UCSXDIR
 10
1.0
 20
0.0
 30
0.0
  9
$UCSYDIR
 10
0.0
 20
1.0
 30
0.0
  9
$UCSORTHOREF
  2

  9
$UCSORTHOVIEW
 70
     0
  9
$UCSORGTOP
 10
0.0
 20
0.0
 30
0.0
  9
$UCSORGBOTTOM
 10
0.0
 20
0.0
 30
0.0
  9
$UCSORGLEFT
 10
0.0
 20
0.0
 30
0.0
  9
$UCSORGRIGHT
 10
0.0
 20
0.0
 30
0.0
  9
$UCSORGFRONT
 10
0.0
 20
0.0
 30
0.0
  9
$UCSORGBACK
 10
0.0
 20
0.0
 30
0.0
  9
$PUCSBASE
  2

  9
$PUCSNAME
  2

  9
$PUCSORG
 10
0.0
 20
0.0
 30
0.0
  9
$PUCSXDIR
 10
1.0
 20
0.0
 30
0.0
  9
$PUCSYDIR
 10
0.0
 20
1.0
 30
0.0
  9
$PUCSORTHOREF
  2

  9
$PUCSORTHOVIEW
 70
     0
  9
$PUCSORGTOP
 10
0.0
 20
0.0
 30
0.0
  9
$PUCSORGBOTTOM
 10
0.0
 20
0.0
 30
0.0
  9
$PUCSORGLEFT
 10
0.0
 20
0.0
 30
0.0
  9
$PUCSORGRIGHT
 10
0.0
 20
0.0
 30
0.0
  9
$PUCSORGFRONT
 10
0.0
 20
0.0
 30
0.0
  9
$PUCSORGBACK
 10
0.0
 20
0.0
 30
0.0
  9
$USERI1
 70
     0
  9
$USERI2
 70
     0
  9
$USERI3
 70
     0
  9
$USERI4
 70
     0
  9
$USERI5
 70
     0
  9
$USERR1
 40
0.0
  9
$USERR2
 40
0.0
  9
$USERR3
 40
0.0
  9
$USERR4
 40
0.0
  9
$USERR5
 40
0.0
  9
$WORLDVIEW
 70
     1
  9
$SHADEDGE
 70
     3
  9
$SHADEDIF
 70
    70
  9
$TILEMODE
 70
     1
  9
$MAXACTVP
 70
    16
  9
$PINSBASE
 10
5.612851412409735
 20
50.00000000000001
 30
-2.58105543498411
  9
$PLIMCHECK
 70
     0
  9
$PEXTMIN
 10
1.000000000000000E+20
 20
1.000000000000000E+20
 30
1.000000000000000E+20
  9
$PEXTMAX
 10
-1.000000000000000E+20
 20
-1.000000000000000E+20
 30
-1.000000000000000E+20
  9
$PLIMMIN
 10
0.0
 20
0.0
  9
$PLIMMAX
 10
12.0
 20
9.0
  9
$UNITMODE
 70
     0
  9
$VISRETAIN
 70
     0
  9
$PLINEGEN
 70
     0
  9
$PSLTSCALE
 70
     0
  9
$TREEDEPTH
 70
  3020
  9
$CMLSTYLE
  2
Standard
  9
$CMLJUST
 70
     0
  9
$CMLSCALE
 40
1.0
  9
$PROXYGRAPHICS
 70
     1
  9
$MEASUREMENT
 70
     0
  9
$CELWEIGHT
370
    -1
  9
$ENDCAPS
280
     0
  9
$JOINSTYLE
280
     0
  9
$LWDISPLAY
290
     0
  9
$INSUNITS
 70
     0
  9
$HYPERLINKBASE
  1

  9
$STYLESHEET
  1
monochrome 1.ctb
  9
$XEDIT
290
     1
  9
$CEPSNTYPE
380
     0
  9
$PSTYLEMODE
290
     1
  9
$FINGERPRINTGUID
  2
{114C674D-F0F2-432F-97C6-20600323CC87}
  9
$VERSIONGUID
  2
{69D8E10C-BDC2-4AE5-AF72-67A62D1565A9}
  9
$EXTNAMES
290
     1
  9
$PSVPSCALE
 40
0.0
  9
$OLESTARTUP
290
     0
  9
$SORTENTS
280
   127
  9
$INDEXCTL
280
     0
  9
$HIDETEXT
280
     1
  9
$XCLIPFRAME
290
     0
  9
$HALOGAP
280
     0
  9
$OBSCOLOR
 70
   257
  9
$OBSLTYPE
280
     0
  9
$INTERSECTIONDISPLAY
280
     0
  9
$INTERSECTIONCOLOR
 70
   257
  9
$DIMASSOC
280
     2
  9
$PROJECTNAME
  1

  0
ENDSEC
  0
SECTION
  2
CLASSES
  0
CLASS
  1
ACDBDICTIONARYWDFLT
  2
AcDbDictionaryWithDefault
  3
ObjectDBX Classes
 90
        0
 91
        1
280
     0
281
     0
  0
CLASS
  1
DICTIONARYVAR
  2
AcDbDictionaryVar
  3
ObjectDBX Classes
 90
        0
 91
        3
280
     0
281
     0
  0
ENDSEC
  0
SECTION
  2
TABLES
  0
TABLE
  2
VPORT
  5
8
330
0
100
AcDbSymbolTable
 70
     3
  0
VPORT
  5
346
330
8
100
AcDbSymbolTableRecord
100
AcDbViewportTableRecord
  2
*Active
 70
     0
 10
0.0
 20
0.0
 11
1.0
 21
1.0
 12
524.9999999999998
 22
742.4999999999999
 13
0.0
 23
0.0
 14
1.0
 24
1.0
 15
10.0
 25
10.0
 16
0.0
 26
0.0
 36
1.0
 17
0.0
 27
0.0
 37
0.0
 40
1485.0
 41
1.334231805929919
 42
50.0
 43
0.0
 44
0.0
 50
0.0
 51
0.0
 71
     0
 72
  1500
 73
     1
 74
     0
 75
     0
 76
     0
 77
     0
 78
     0
281
     0
 65
     1
110
0.0
120
0.0
130
0.0
111
1.0
121
0.0
131
0.0
112
0.0
122
1.0
132
0.0
 79
     0
146
0.0
  0
ENDTAB
  0
TABLE
  2
LTYPE
  5
5
330
0
100
AcDbSymbolTable
 70
     2
  0
LTYPE
  5
13
330
5
100
AcDbSymbolTableRecord
100
AcDbLinetypeTableRecord
  2
ByBlock
 70
     0
  3

 72
    65
 73
     0
 40
0.0
  0
LTYPE
  5
14
330
5
100
AcDbSymbolTableRecord
100
AcDbLinetypeTableRecord
  2
ByLayer
 70
     0
  3

 72
    65
 73
     0
 40
0.0
  0
LTYPE
  5
15
330
5
100
AcDbSymbolTableRecord
100
AcDbLinetypeTableRecord
  2
Continuous
 70
     0
  3
Solid line
 72
    65
 73
     0
 40
0.0
  0
LTYPE
  5
36
330
5
100
AcDbSymbolTableRecord
100
AcDbLinetypeTableRecord
  2
STRICHPUNKT
 70
     0
  3
__ . __ . __ . __ . __ . __ . __ . __ . __ . __
 72
    65
 73
     4
 40
1.0
 49
0.5
 74
     0
 49
-0.25
 74
     0
 49
0.0
 74
     0
 49
-0.25
 74
     0
  0
ENDTAB
  0
TABLE
  2
LAYER
  5
2
330
0
100
AcDbSymbolTable
 70
     9
  0
LAYER
  5
10
330
2
100
AcDbSymbolTableRecord
100
AcDbLayerTableRecord
  2
0
 70
     0
 62
     7
  6
Continuous
370
    -3
390
F
  0
LAYER
  5
39
330
2
100
AcDbSymbolTableRecord
100
AcDbLayerTableRecord
  2
VOLL
 70
     0
 62
     1
  6
Continuous
370
    -3
390
F
  0
LAYER
  5
3A
330
2
100
AcDbSymbolTableRecord
100
AcDbLayerTableRecord
  2
HILF
 70
     0
 62
     2
  6
Continuous
370
    -3
390
F
  0
LAYER
  5
3B
330
2
100
AcDbSymbolTableRecord
100
AcDbLayerTableRecord
  2
MITTEL
 70
     0
 62
     2
  6
STRICHPUNKT
370
    -3
390
F
  0
LAYER
  5
3C
330
2
100
AcDbSymbolTableRecord
100
AcDbLayerTableRecord
  2
BEM
 70
     0
 62
     7
  6
Continuous
370
    -3
390
F
  0
LAYER
  5
3D
330
2
100
AcDbSymbolTableRecord
100
AcDbLayerTableRecord
  2
STEMPEL
 70
     0
 62
     3
  6
Continuous
370
    -3
390
F
  0
LAYER
  5
3E
330
2
100
AcDbSymbolTableRecord
100
AcDbLayerTableRecord
  2
TEXT
 70
     0
 62
     7
  6
Continuous
370
    -3
390
F
  0
LAYER
  5
3F
330
2
100
AcDbSymbolTableRecord
100
AcDbLayerTableRecord
  2
DEFPOINTS
 70
     0
 62
     7
  6
Continuous
290
     0
370
    -3
390
F
  0
LAYER
  5
40
330
2
100
AcDbSymbolTableRecord
100
AcDbLayerTableRecord
  2
SCHRAFF
 70
     0
 62
     7
  6
Continuous
370
    -3
390
F
  0
ENDTAB
  0
TABLE
  2
STYLE
  5
3
330
0
100
AcDbSymbolTable
 70
     2
  0
STYLE
  5
11
330
3
100
AcDbSymbolTableRecord
100
AcDbTextStyleTableRecord
  2
STANDARD
 70
     0
 40
0.0
 41
1.0
 50
0.0
 71
     0
 42
3.5
  3
txt
  4

  0
STYLE
  5
35
330
3
100
AcDbSymbolTableRecord
100
AcDbTextStyleTableRecord
  2
GREEKS
 70
     0
 40
0.0
 41
0.8
 50
0.0
 71
     0
 42
2.5
  3
SIMPLEX.shx
  4

  0
ENDTAB
  0
TABLE
  2
VIEW
  5
6
330
0
100
AcDbSymbolTable
 70
     0
  0
ENDTAB
  0
TABLE
  2
UCS
  5
7
330
0
100
AcDbSymbolTable
 70
     0
  0
ENDTAB
  0
TABLE
  2
APPID
  5
9
330
0
100
AcDbSymbolTable
 70
     1
  0
APPID
  5
12
330
9
100
AcDbSymbolTableRecord
100
AcDbRegAppTableRecord
  2
ACAD
 70
     0
  0
ENDTAB
  0
TABLE
  2
DIMSTYLE
  5
A
330
0
100
AcDbSymbolTable
 70
     1
100
AcDbDimStyleTable
 71
     1
340
225
  0
DIMSTYLE
105
225
102
{ACAD_REACTORS
330
1E2
330
152
330
166
330
186
330
151
102
}
330
A
100
AcDbSymbolTableRecord
100
AcDbDimStyleTableRecord
  2
Standard
 70
     0
340
11
  0
ENDTAB
  0
TABLE
  2
BLOCK_RECORD
  5
1
330
0
100
AcDbSymbolTable
 70
    16
  0
BLOCK_RECORD
  5
20
330
1
100
AcDbSymbolTableRecord
100
AcDbBlockTableRecord
  2
*Model_Space
340
23
  0
BLOCK_RECORD
  5
1C
330
1
100
AcDbSymbolTableRecord
100
AcDbBlockTableRecord
  2
*Paper_Space
340
1F
  0
BLOCK_RECORD
  5
24
330
1
100
AcDbSymbolTableRecord
100
AcDbBlockTableRecord
  2
LOGO
340
0
102
{BLKREFS
331
161
102
}
  0
BLOCK_RECORD
  5
26
330
1
100
AcDbSymbolTableRecord
100
AcDbBlockTableRecord
  2
*X1
340
0
102
{BLKREFS
331
1FF
102
}
  0
BLOCK_RECORD
  5
27
330
1
100
AcDbSymbolTableRecord
100
AcDbBlockTableRecord
  2
*X2
340
0
102
{BLKREFS
331
1ED
102
}
  0
BLOCK_RECORD
  5
2A
330
1
100
AcDbSymbolTableRecord
100
AcDbBlockTableRecord
  2
*D5
340
0
  0
BLOCK_RECORD
  5
26B
330
1
100
AcDbSymbolTableRecord
100
AcDbBlockTableRecord
  2
*D10
340
0
  0
BLOCK_RECORD
  5
28B
330
1
100
AcDbSymbolTableRecord
100
AcDbBlockTableRecord
  2
*D11
340
0
  0
BLOCK_RECORD
  5
297
330
1
100
AcDbSymbolTableRecord
100
AcDbBlockTableRecord
  2
*D12
340
0
  0
BLOCK_RECORD
  5
2D9
330
1
100
AcDbSymbolTableRecord
100
AcDbBlockTableRecord
  2
*D14
340
0
  0
BLOCK_RECORD
  5
31E
330
1
100
AcDbSymbolTableRecord
100
AcDbBlockTableRecord
  2
*D15
340
0
  0
ENDTAB
  0
ENDSEC
  0
SECTION
  2
BLOCKS
  0
BLOCK
  5
44
330
20
100
AcDbEntity
  8
0
100
AcDbBlockBegin
  2
*Model_Space
 70
     0
 10
0.0
 20
0.0
 30
0.0
  3
*Model_Space
  1

  0
ENDBLK
  5
45
330
20
100
AcDbEntity
  8
0
100
AcDbBlockEnd
  0
BLOCK
  5
42
330
1C
100
AcDbEntity
 67
     1
  8
0
100
AcDbBlockBegin
  2
*Paper_Space
 70
     0
 10
0.0
 20
0.0
 30
0.0
  3
*Paper_Space
  1

  0
ENDBLK
  5
43
330
1C
100
AcDbEntity
 67
     1
  8
0
100
AcDbBlockEnd
  0
BLOCK
  5
46
330
24
100
AcDbEntity
  8
0
100
AcDbBlockBegin
  2
LOGO
 70
     0
 10
0.0
 20
0.0
 30
0.0
  3
LOGO
  1

  0
ARC
  5
47
330
24
100
AcDbEntity
  8
0
100
AcDbCircle
 10
11.59973089678112
 20
-9.271599258481501
 30
0.0
 40
4.5
100
AcDbArc
 50
270.0
 51
231.0575587310159
  0
LINE
  5
48
330
24
100
AcDbEntity
  8
0
100
AcDbLine
 10
3.599730896781125
 20
-4.771599258481529
 30
0.0
 11
3.599730896781153
 21
-11.77159925848133
 31
0.0
  0
LINE
  5
49
330
24
100
AcDbEntity
  8
0
100
AcDbLine
 10
2.599730896781125
 20
-4.771599258481529
 30
0.0
 11
2.599730896781153
 21
-11.77159925848133
 31
0.0
  0
CIRCLE
  5
4A
330
24
100
AcDbEntity
  8
0
100
AcDbCircle
 10
11.59973089678112
 20
-9.271599258481501
 30
0.0
 40
3.5
  0
ARC
  5
4B
330
24
100
AcDbEntity
  8
0
100
AcDbCircle
 10
31.59973089678115
 20
-9.271599258481472
 30
0.0
 40
4.5
100
AcDbArc
 50
270.0
 51
231.0575587310182
  0
LINE
  5
4C
330
24
100
AcDbEntity
  8
0
100
AcDbLine
 10
17.59973089678112
 20
-4.771599258481472
 30
0.0
 11
17.59973089678115
 21
-13.77159925848147
 31
0.0
  0
ARC
  5
4D
330
24
100
AcDbEntity
  8
0
100
AcDbCircle
 10
22.59973089678116
 20
-7.271599258481472
 30
0.0
 40
2.5
100
AcDbArc
 50
293.1161887722295
 51
90.0
  0
CIRCLE
  5
4E
330
24
100
AcDbEntity
  8
0
100
AcDbCircle
 10
31.59973089678115
 20
-9.271599258481472
 30
0.0
 40
3.5
  0
ARC
  5
4F
330
24
100
AcDbEntity
  8
0
100
AcDbCircle
 10
4.599730896781153
 20
-11.77159925848133
 30
0.0
 40
1.0
100
AcDbArc
 50
180.0
 51
270.0
  0
ARC
  5
50
330
24
100
AcDbEntity
  8
0
100
AcDbCircle
 10
4.599730896781153
 20
-11.77159925848133
 30
0.0
 40
2.0
100
AcDbArc
 50
179.9999999999992
 51
270.0
  0
LINE
  5
51
330
24
100
AcDbEntity
  8
0
100
AcDbLine
 10
11.59973089678115
 20
-13.77159925848144
 30
0.0
 11
4.599730896781153
 21
-13.77159925848147
 31
0.0
  0
LINE
  5
52
330
24
100
AcDbEntity
  8
0
100
AcDbLine
 10
8.771303772034769
 20
-12.77159925848136
 30
0.0
 11
4.599730896781153
 21
-12.77159925848133
 31
0.0
  0
LINE
  5
53
330
24
100
AcDbEntity
  8
0
100
AcDbLine
 10
31.59973089678115
 20
-13.77159925848147
 30
0.0
 11
23.6715276665056
 21
-13.77159925848144
 31
0.0
  0
LINE
  5
54
330
24
100
AcDbEntity
  8
0
100
AcDbLine
 10
23.56565672307022
 20
-9.51278021337896
 30
0.0
 11
24.4388546544846
 21
-12.77159925848144
 31
0.0
  0
LINE
  5
55
330
24
100
AcDbEntity
  8
0
100
AcDbLine
 10
22.59973089678116
 20
-9.771599258481472
 30
0.0
 11
18.59973089678112
 21
-9.771599258481472
 31
0.0
  0
LINE
  5
56
330
24
100
AcDbEntity
  8
0
100
AcDbLine
 10
18.59973089678115
 20
-13.77159925848144
 30
0.0
 11
17.59973089678115
 21
-13.77159925848144
 31
0.0
  0
LINE
  5
57
330
24
100
AcDbEntity
  8
0
100
AcDbLine
 10
18.59973089678115
 20
-9.771599258481472
 30
0.0
 11
18.59973089678115
 21
-13.77159925848144
 31
0.0
  0
LINE
  5
58
330
24
100
AcDbEntity
  8
0
100
AcDbLine
 10
22.59973089678116
 20
-9.771599258481472
 30
0.0
 11
23.67152766650562
 21
-13.77159925848147
 31
0.0
  0
ARC
  5
59
330
24
100
AcDbEntity
  8
0
100
AcDbCircle
 10
22.59973089678116
 20
-7.271599258481472
 30
0.0
 40
2.5
100
AcDbArc
 50
270.0
 51
270.0000000000007
  0
LINE
  5
5A
330
24
100
AcDbEntity
  8
0
100
AcDbLine
 10
28.77130377203494
 20
-12.77159925848147
 30
0.0
 11
24.43885465448463
 21
-12.77159925848144
 31
0.0
  0
LINE
  5
5B
330
24
100
AcDbEntity
  8
0
100
AcDbLine
 10
3.599730896781125
 20
-4.771599258481472
 30
0.0
 11
2.599730896781125
 21
-4.771599258481472
 31
0.0
  0
LINE
  5
5C
330
24
100
AcDbEntity
  8
0
100
AcDbLine
 10
22.59973089678116
 20
-8.771599258481472
 30
0.0
 11
18.59973089678115
 21
-8.771599258481472
 31
0.0
  0
LINE
  5
5D
330
24
100
AcDbEntity
  8
0
100
AcDbLine
 10
22.59973089678116
 20
-5.771599258481472
 30
0.0
 11
18.59973089678115
 21
-5.771599258481472
 31
0.0
  0
LINE
  5
5E
330
24
100
AcDbEntity
  8
0
100
AcDbLine
 10
22.59973089678116
 20
-4.771599258481472
 30
0.0
 11
17.59973089678115
 21
-4.771599258481472
 31
0.0
  0
LINE
  5
5F
330
24
100
AcDbEntity
  8
0
100
AcDbLine
 10
18.59973089678115
 20
-5.771599258481472
 30
0.0
 11
18.59973089678115
 21
-8.771599258481472
 31
0.0
  0
ARC
  5
60
330
24
100
AcDbEntity
  8
0
100
AcDbCircle
 10
22.59973089678116
 20
-7.271599258481472
 30
0.0
 40
1.5
100
AcDbArc
 50
270.0
 51
90.0
  0
ENDBLK
  5
61
330
24
100
AcDbEntity
  8
0
100
AcDbBlockEnd
  0
BLOCK
  5
66
330
26
100
AcDbEntity
  8
0
100
AcDbBlockBegin
  2
*X1
 70
     1
 10
0.0
 20
0.0
 30
0.0
  3
*X1
  1

  0
LINE
  5
67
330
26
100
AcDbEntity
  8
0
 62
     0
100
AcDbLine
 10
701.7020629044663
 20
933.0
 30
0.0
 11
703.1095688757155
 21
933.0
 31
0.0
  0
LINE
  5
68
330
26
100
AcDbEntity
  8
0
 62
     0
100
AcDbLine
 10
701.7020629044663
 20
933.1000000000001
 30
0.0
 11
703.2095688757156
 21
933.1000000000001
 31
0.0
  0
LINE
  5
69
330
26
100
AcDbEntity
  8
0
 62
     0
100
AcDbLine
 10
701.7020629044663
 20
933.2
 30
0.0
 11
703.3095688757156
 21
933.2
 31
0.0
  0
LINE
  5
6A
330
26
100
AcDbEntity
  8
0
 62
     0
100
AcDbLine
 10
701.7020629044663
 20
933.3
 30
0.0
 11
703.4095688757156
 21
933.3
 31
0.0
  0
LINE
  5
6B
330
26
100
AcDbEntity
  8
0
 62
     0
100
AcDbLine
 10
701.7020629044663
 20
933.4000000000001
 30
0.0
 11
703.5095688757157
 21
933.4000000000001
 31
0.0
  0
LINE
  5
6C
330
26
100
AcDbEntity
  8
0
 62
     0
100
AcDbLine
 10
701.7020629044663
 20
933.5
 30
0.0
 11
703.6095688757155
 21
933.5
 31
0.0
  0
LINE
  5
6D
330
26
100
AcDbEntity
  8
0
 62
     0
100
AcDbLine
 10
701.7020629044663
 20
933.6
 30
0.0
 11
703.7095688757156
 21
933.6
 31
0.0
  0
LINE
  5
6E
330
26
100
AcDbEntity
  8
0
 62
     0
100
AcDbLine
 10
701.7020629044663
 20
933.7000000000001
 30
0.0
 11
703.8095688757156
 21
933.7000000000001
 31
0.0
  0
LINE
  5
6F
330
26
100
AcDbEntity
  8
0
 62
     0
100
AcDbLine
 10
701.7020629044663
 20
933.8
 30
0.0
 11
703.7335444787869
 21
933.8
 31
0.0
  0
LINE
  5
70
330
26
100
AcDbEntity
  8
0
 62
     0
100
AcDbLine
 10
701.7020629044663
 20
933.9
 30
0.0
 11
703.6192004041136
 21
933.9
 31
0.0
  0
LINE
  5
71
330
26
100
AcDbEntity
  8
0
 62
     0
100
AcDbLine
 10
701.7020629044663
 20
934.0
 30
0.0
 11
703.4920112272691
 21
934.0
 31
0.0
  0
LINE
  5
72
330
26
100
AcDbEntity
  8
0
 62
     0
100
AcDbLine
 10
701.7020629044663
 20
934.1000000000001
 30
0.0
 11
703.3490036453719
 21
934.1000000000001
 31
0.0
  0
LINE
  5
73
330
26
100
AcDbEntity
  8
0
 62
     0
100
AcDbLine
 10
701.7020629044663
 20
934.2
 30
0.0
 11
703.1856102106904
 21
934.2
 31
0.0
  0
LINE
  5
74
330
26
100
AcDbEntity
  8
0
 62
     0
100
AcDbLine
 10
701.7020629044663
 20
934.3000000000001
 30
0.0
 11
702.9941199525701
 21
934.3000000000001
 31
0.0
  0
LINE
  5
75
330
26
100
AcDbEntity
  8
0
 62
     0
100
AcDbLine
 10
701.7020629044663
 20
934.4000000000001
 30
0.0
 11
702.7593756402757
 21
934.4000000000001
 31
0.0
  0
LINE
  5
76
330
26
100
AcDbEntity
  8
0
 62
     0
100
AcDbLine
 10
701.7020629044663
 20
934.5
 30
0.0
 11
702.4412577549999
 21
934.5
 31
0.0
  0
LINE
  5
77
330
26
100
AcDbEntity
  8
0
 62
     0
100
AcDbLine
 10
701.7020629044663
 20
932.9
 30
0.0
 11
703.0095688757157
 21
932.9
 31
0.0
  0
LINE
  5
78
330
26
100
AcDbEntity
  8
0
 62
     0
100
AcDbLine
 10
701.7020629044663
 20
932.8000000000001
 30
0.0
 11
702.9095688757156
 21
932.8000000000001
 31
0.0
  0
LINE
  5
79
330
26
100
AcDbEntity
  8
0
 62
     0
100
AcDbLine
 10
701.7020629044663
 20
932.6999999999999
 30
0.0
 11
702.8095688757156
 21
932.6999999999999
 31
0.0
  0
LINE
  5
7A
330
26
100
AcDbEntity
  8
0
 62
     0
100
AcDbLine
 10
701.7020629044663
 20
932.6
 30
0.0
 11
702.7095688757156
 21
932.6
 31
0.0
  0
LINE
  5
7B
330
26
100
AcDbEntity
  8
0
 62
     0
100
AcDbLine
 10
701.7020629044663
 20
932.5000000000001
 30
0.0
 11
702.6095688757155
 21
932.5000000000001
 31
0.0
  0
LINE
  5
7C
330
26
100
AcDbEntity
  8
0
 62
     0
100
AcDbLine
 10
701.7020629044663
 20
932.4000000000001
 30
0.0
 11
702.5095688757156
 21
932.4000000000001
 31
0.0
  0
LINE
  5
7D
330
26
100
AcDbEntity
  8
0
 62
     0
100
AcDbLine
 10
701.7020629044663
 20
932.3
 30
0.0
 11
702.4095688757157
 21
932.3
 31
0.0
  0
LINE
  5
7E
330
26
100
AcDbEntity
  8
0
 62
     0
100
AcDbLine
 10
701.7020629044663
 20
932.2
 30
0.0
 11
702.3095688757156
 21
932.2
 31
0.0
  0
LINE
  5
7F
330
26
100
AcDbEntity
  8
0
 62
     0
100
AcDbLine
 10
701.7020629044663
 20
932.0999999999999
 30
0.0
 11
702.2095688757156
 21
932.0999999999999
 31
0.0
  0
LINE
  5
80
330
26
100
AcDbEntity
  8
0
 62
     0
100
AcDbLine
 10
701.7020629044663
 20
932.0
 30
0.0
 11
702.1095688757156
 21
932.0
 31
0.0
  0
LINE
  5
81
330
26
100
AcDbEntity
  8
0
 62
     0
100
AcDbLine
 10
701.7020629044663
 20
931.9
 30
0.0
 11
702.0095688757156
 21
931.9
 31
0.0
  0
LINE
  5
82
330
26
100
AcDbEntity
  8
0
 62
     0
100
AcDbLine
 10
701.7020629044663
 20
931.8000000000001
 30
0.0
 11
701.9095688757156
 21
931.8000000000001
 31
0.0
  0
LINE
  5
83
330
26
100
AcDbEntity
  8
0
 62
     0
100
AcDbLine
 10
701.7020629044663
 20
931.7
 30
0.0
 11
701.8095688757156
 21
931.7
 31
0.0
  0
LINE
  5
84
330
26
100
AcDbEntity
  8
0
 62
     0
100
AcDbLine
 10
701.7020629044663
 20
931.6
 30
0.0
 11
701.7095688757156
 21
931.6
 31
0.0
  0
ENDBLK
  5
85
330
26
100
AcDbEntity
  8
0
100
AcDbBlockEnd
  0
BLOCK
  5
86
330
27
100
AcDbEntity
  8
0
100
AcDbBlockBegin
  2
*X2
 70
     1
 10
0.0
 20
0.0
 30
0.0
  3
*X2
  1

  0
LINE
  5
87
330
27
100
AcDbEntity
  8
0
 62
     0
100
AcDbLine
 10
701.7020629044663
 20
786.9
 30
0.0
 11
703.5318604205378
 21
786.9
 31
0.0
  0
LINE
  5
88
330
27
100
AcDbEntity
  8
0
 62
     0
100
AcDbLine
 10
701.7020629044663
 20
787.0
 30
0.0
 11
703.5663699756334
 21
787.0
 31
0.0
  0
LINE
  5
89
330
27
100
AcDbEntity
  8
0
 62
     0
100
AcDbLine
 10
701.7020629044663
 20
787.1
 30
0.0
 11
703.5988216568727
 21
787.1
 31
0.0
  0
LINE
  5
8A
330
27
100
AcDbEntity
  8
0
 62
     0
100
AcDbLine
 10
701.7020629044663
 20
787.2
 30
0.0
 11
703.6292521071954
 21
787.2
 31
0.0
  0
LINE
  5
8B
330
27
100
AcDbEntity
  8
0
 62
     0
100
AcDbLine
 10
701.7020629044663
 20
787.3000000000001
 30
0.0
 11
703.6576949007588
 21
787.3000000000001
 31
0.0
  0
LINE
  5
8C
330
27
100
AcDbEntity
  8
0
 62
     0
100
AcDbLine
 10
701.759352237771
 20
787.4000000000001
 30
0.0
 11
703.6841807494444
 21
787.4000000000001
 31
0.0
  0
LINE
  5
8D
330
27
100
AcDbEntity
  8
0
 62
     0
100
AcDbLine
 10
701.859352237771
 20
787.5
 30
0.0
 11
703.7087376855197
 21
787.5
 31
0.0
  0
LINE
  5
8E
330
27
100
AcDbEntity
  8
0
 62
     0
100
AcDbLine
 10
701.959352237771
 20
787.6
 30
0.0
 11
703.7313912232083
 21
787.6
 31
0.0
  0
LINE
  5
8F
330
27
100
AcDbEntity
  8
0
 62
     0
100
AcDbLine
 10
702.0593522377709
 20
787.7
 30
0.0
 11
703.7521645015036
 21
787.7
 31
0.0
  0
LINE
  5
90
330
27
100
AcDbEntity
  8
0
 62
     0
100
AcDbLine
 10
702.159352237771
 20
787.8000000000001
 30
0.0
 11
703.7710784102207
 21
787.8000000000001
 31
0.0
  0
LINE
  5
91
330
27
100
AcDbEntity
  8
0
 62
     0
100
AcDbLine
 10
702.259352237771
 20
787.9000000000001
 30
0.0
 11
703.7881517009813
 21
787.9000000000001
 31
0.0
  0
LINE
  5
92
330
27
100
AcDbEntity
  8
0
 62
     0
100
AcDbLine
 10
702.3593522377709
 20
788.0
 30
0.0
 11
703.8034010845819
 21
788.0
 31
0.0
  0
LINE
  5
93
330
27
100
AcDbEntity
  8
0
 62
     0
100
AcDbLine
 10
702.459352237771
 20
788.1
 30
0.0
 11
703.8168413159748
 21
788.1
 31
0.0
  0
LINE
  5
94
330
27
100
AcDbEntity
  8
0
 62
     0
100
AcDbLine
 10
702.559352237771
 20
788.2
 30
0.0
 11
703.8284852679075
 21
788.2
 31
0.0
  0
LINE
  5
95
330
27
100
AcDbEntity
  8
0
 62
     0
100
AcDbLine
 10
702.659352237771
 20
788.3
 30
0.0
 11
703.838343994107
 21
788.3
 31
0.0
  0
LINE
  5
96
330
27
100
AcDbEntity
  8
0
 62
     0
100
AcDbLine
 10
702.759352237771
 20
788.4000000000001
 30
0.0
 11
703.8464267827476
 21
788.4000000000001
 31
0.0
  0
LINE
  5
97
330
27
100
AcDbEntity
  8
0
 62
     0
100
AcDbLine
 10
702.8593522377709
 20
788.4999999999999
 30
0.0
 11
703.8527412008188
 21
788.4999999999999
 31
0.0
  0
LINE
  5
98
330
27
100
AcDbEntity
  8
0
 62
     0
100
AcDbLine
 10
702.959352237771
 20
788.6
 30
0.0
 11
703.857293129894
 21
788.6
 31
0.0
  0
LINE
  5
99
330
27
100
AcDbEntity
  8
0
 62
     0
100
AcDbLine
 10
703.059352237771
 20
788.7
 30
0.0
 11
703.8600867936996
 21
788.7
 31
0.0
  0
LINE
  5
9A
330
27
100
AcDbEntity
  8
0
 62
     0
100
AcDbLine
 10
703.159352237771
 20
788.8
 30
0.0
 11
703.8611247777875
 21
788.8
 31
0.0
  0
LINE
  5
9B
330
27
100
AcDbEntity
  8
0
 62
     0
100
AcDbLine
 10
703.259352237771
 20
788.9000000000001
 30
0.0
 11
703.8604080415256
 21
788.9000000000001
 31
0.0
  0
LINE
  5
9C
330
27
100
AcDbEntity
  8
0
 62
     0
100
AcDbLine
 10
703.3593522377709
 20
789.0
 30
0.0
 11
703.8579359225377
 21
789.0
 31
0.0
  0
LINE
  5
9D
330
27
100
AcDbEntity
  8
0
 62
     0
100
AcDbLine
 10
703.459352237771
 20
789.1
 30
0.0
 11
703.8537061336381
 21
789.1
 31
0.0
  0
LINE
  5
9E
330
27
100
AcDbEntity
  8
0
 62
     0
100
AcDbLine
 10
703.559352237771
 20
789.2
 30
0.0
 11
703.8477147522311
 21
789.2
 31
0.0
  0
LINE
  5
9F
330
27
100
AcDbEntity
  8
0
 62
     0
100
AcDbLine
 10
703.659352237771
 20
789.3
 30
0.0
 11
703.8399562020586
 21
789.3
 31
0.0
  0
LINE
  5
A0
330
27
100
AcDbEntity
  8
0
 62
     0
100
AcDbLine
 10
703.7593522377711
 20
789.4000000000001
 30
0.0
 11
703.8304232270959
 21
789.4000000000001
 31
0.0
  0
LINE
  5
A1
330
27
100
AcDbEntity
  8
0
 62
     0
100
AcDbLine
 10
701.7020629044663
 20
786.8000000000001
 30
0.0
 11
703.4952530462746
 21
786.8000000000001
 31
0.0
  0
LINE
  5
A2
330
27
100
AcDbEntity
  8
0
 62
     0
100
AcDbLine
 10
701.7020629044663
 20
786.7
 30
0.0
 11
703.4565043406573
 21
786.7
 31
0.0
  0
LINE
  5
A3
330
27
100
AcDbEntity
  8
0
 62
     0
100
AcDbLine
 10
701.7020629044663
 20
786.6
 30
0.0
 11
703.4155669246667
 21
786.6
 31
0.0
  0
LINE
  5
A4
330
27
100
AcDbEntity
  8
0
 62
     0
100
AcDbLine
 10
701.7020629044663
 20
786.5
 30
0.0
 11
703.3723892116371
 21
786.5
 31
0.0
  0
LINE
  5
A5
330
27
100
AcDbEntity
  8
0
 62
     0
100
AcDbLine
 10
701.7020629044663
 20
786.4
 30
0.0
 11
703.3269150191321
 21
786.4
 31
0.0
  0
LINE
  5
A6
330
27
100
AcDbEntity
  8
0
 62
     0
100
AcDbLine
 10
701.7020629044663
 20
786.3
 30
0.0
 11
703.2790831257626
 21
786.3
 31
0.0
  0
LINE
  5
A7
330
27
100
AcDbEntity
  8
0
 62
     0
100
AcDbLine
 10
701.7020629044663
 20
786.2
 30
0.0
 11
703.2288267636104
 21
786.2
 31
0.0
  0
LINE
  5
A8
330
27
100
AcDbEntity
  8
0
 62
     0
100
AcDbLine
 10
701.7020629044663
 20
786.1
 30
0.0
 11
703.1760730349307
 21
786.1
 31
0.0
  0
LINE
  5
A9
330
27
100
AcDbEntity
  8
0
 62
     0
100
AcDbLine
 10
701.7020629044663
 20
786.0
 30
0.0
 11
703.1207422393328
 21
786.0
 31
0.0
  0
LINE
  5
AA
330
27
100
AcDbEntity
  8
0
 62
     0
100
AcDbLine
 10
701.7020629044663
 20
785.9
 30
0.0
 11
703.0627470945078
 21
785.9
 31
0.0
  0
LINE
  5
AB
330
27
100
AcDbEntity
  8
0
 62
     0
100
AcDbLine
 10
701.7020629044663
 20
785.8
 30
0.0
 11
703.0019918296002
 21
785.8
 31
0.0
  0
LINE
  5
AC
330
27
100
AcDbEntity
  8
0
 62
     0
100
AcDbLine
 10
701.7020629044663
 20
785.7
 30
0.0
 11
702.9383711252385
 21
785.7
 31
0.0
  0
LINE
  5
AD
330
27
100
AcDbEntity
  8
0
 62
     0
100
AcDbLine
 10
701.7020629044663
 20
785.6
 30
0.0
 11
702.8717688676689
 21
785.6
 31
0.0
  0
LINE
  5
AE
330
27
100
AcDbEntity
  8
0
 62
     0
100
AcDbLine
 10
701.7020629044663
 20
785.5
 30
0.0
 11
702.8020566758812
 21
785.5
 31
0.0
  0
LINE
  5
AF
330
27
100
AcDbEntity
  8
0
 62
     0
100
AcDbLine
 10
701.7020629044663
 20
785.4
 30
0.0
 11
702.729092149347
 21
785.4
 31
0.0
  0
LINE
  5
B0
330
27
100
AcDbEntity
  8
0
 62
     0
100
AcDbLine
 10
701.7020629044663
 20
785.3
 30
0.0
 11
702.6527167690049
 21
785.3
 31
0.0
  0
LINE
  5
B1
330
27
100
AcDbEntity
  8
0
 62
     0
100
AcDbLine
 10
701.7020629044663
 20
785.2
 30
0.0
 11
702.5727533639578
 21
785.2
 31
0.0
  0
LINE
  5
B2
330
27
100
AcDbEntity
  8
0
 62
     0
100
AcDbLine
 10
701.7020629044663
 20
785.0999999999999
 30
0.0
 11
702.4890030288628
 21
785.0999999999999
 31
0.0
  0
LINE
  5
B3
330
27
100
AcDbEntity
  8
0
 62
     0
100
AcDbLine
 10
701.7020629044663
 20
785.0
 30
0.0
 11
702.4012413390354
 21
785.0
 31
0.0
  0
LINE
  5
B4
330
27
100
AcDbEntity
  8
0
 62
     0
100
AcDbLine
 10
701.7020629044663
 20
784.9000000000001
 30
0.0
 11
702.3092136570848
 21
784.9000000000001
 31
0.0
  0
LINE
  5
B5
330
27
100
AcDbEntity
  8
0
 62
     0
100
AcDbLine
 10
701.7020629044663
 20
784.8
 30
0.0
 11
702.21262924908
 21
784.8
 31
0.0
  0
LINE
  5
B6
330
27
100
AcDbEntity
  8
0
 62
     0
100
AcDbLine
 10
701.7020629044663
 20
784.7
 30
0.0
 11
702.1111538183045
 21
784.7
 31
0.0
  0
LINE
  5
B7
330
27
100
AcDbEntity
  8
0
 62
     0
100
AcDbLine
 10
701.7020629044663
 20
784.6
 30
0.0
 11
702.0043999019791
 21
784.6
 31
0.0
  0
LINE
  5
B8
330
27
100
AcDbEntity
  8
0
 62
     0
100
AcDbLine
 10
701.7020629044663
 20
784.4999999999999
 30
0.0
 11
701.8919143303159
 21
784.4999999999999
 31
0.0
  0
LINE
  5
B9
330
27
100
AcDbEntity
  8
0
 62
     0
100
AcDbLine
 10
701.7020629044663
 20
784.4000000000001
 30
0.0
 11
701.7731615658338
 21
784.4000000000001
 31
0.0
  0
ENDBLK
  5
BA
330
27
100
AcDbEntity
  8
0
100
AcDbBlockEnd
  0
BLOCK
  5
D3
330
2A
100
AcDbEntity
  8
0
100
AcDbBlockBegin
  2
*D5
 70
     1
 10
0.0
 20
0.0
 30
0.0
  3
*D5
  1

  0
LINE
  5
D4
330
2A
100
AcDbEntity
  8
0
  6
ByBlock
 62
     0
100
AcDbLine
 10
1912.654876252467
 20
1043.699503500378
 30
0.0
 11
1942.689566418385
 21
1073.734193666296
 31
0.0
  0
LINE
  5
D5
330
2A
100
AcDbEntity
  8
0
  6
ByBlock
 62
     0
100
AcDbLine
 10
1655.268007900565
 20
1111.312635148475
 30
0.0
 11
1655.268007900565
 21
1192.78810132279
 31
0.0
  0
ARC
  5
D6
330
2A
100
AcDbEntity
  8
0
  6
ByBlock
 62
     0
100
AcDbCircle
 10
1655.268007900565
 20
786.3126351484752
 30
0.0
 40
401.4754661743147
100
AcDbArc
 50
47.49767575426763
 51
87.50232424573228
  0
SOLID
  5
D7
330
2A
100
AcDbEntity
  8
0
  6
ByBlock
 62
     0
100
AcDbTrace
 10
1928.529864444552
 20
1084.40724861744
 30
0.0
 11
1924.4959528189
 21
1080.193540657197
 31
0.0
 12
1939.154032512453
 22
1070.198659760363
 32
0.0
 13
1939.154032512453
 23
1070.198659760363
 33
0.0
  0
SOLID
  5
D8
330
2A
100
AcDbEntity
  8
0
  6
ByBlock
 62
     0
100
AcDbTrace
 10
1672.700283510352
 20
1184.490721831609
 30
0.0
 11
1672.827418717773
 21
1190.322669569442
 31
0.0
 12
1655.268007900565
 22
1187.78810132279
 32
0.0
 13
1655.268007900565
 23
1187.78810132279
 33
0.0
  0
TEXT
  5
D9
330
2A
100
AcDbEntity
  8
0
  6
ByBlock
 62
     1
100
AcDbText
 10
1808.78990532529
 20
1169.668414960543
 30
0.0
 40
17.5
  1
45%%d
 50
337.9897262297971
 41
0.8
  7
GREEKS
 72
     1
 11
1825.666878829247
 21
1172.284017464337
 31
0.0
100
AcDbText
 73
     2
  0
POINT
  5
DA
330
2A
100
AcDbEntity
  8
DEFPOINTS
  6
ByBlock
 62
     0
100
AcDbPoint
 10
1825.666878829247
 20
1149.832613589982
 30
0.0
  0
POINT
  5
DB
330
2A
100
AcDbEntity
  8
DEFPOINTS
  6
ByBlock
 62
     0
100
AcDbPoint
 10
1909.119342346535
 20
1040.163969594445
 30
0.0
  0
POINT
  5
DC
330
2A
100
AcDbEntity
  8
DEFPOINTS
  6
ByBlock
 62
     0
100
AcDbPoint
 10
1655.268007900565
 20
1106.312635148475
 30
0.0
  0
POINT
  5
DD
330
2A
100
AcDbEntity
  8
DEFPOINTS
  6
ByBlock
 62
     0
100
AcDbPoint
 10
1655.268007900565
 20
761.312635148475
 30
0.0
  0
POINT
  5
DE
330
2A
100
AcDbEntity
  8
DEFPOINTS
  6
ByBlock
 62
     0
100
AcDbPoint
 10
1754.65783056504
 20
885.7024578129509
 30
0.0
  0
ENDBLK
  5
DF
330
2A
100
AcDbEntity
  8
0
100
AcDbBlockEnd
  0
BLOCK
  5
275
330
26B
100
AcDbEntity
  8
0
100
AcDbBlockBegin
  2
*D10
 70
     1
 10
0.0
 20
0.0
 30
0.0
  3
*D10
  1

  0
LINE
  5
277
330
26B
100
AcDbEntity
  8
BEM
 62
     0
370
    -2
100
AcDbLine
 10
648.2661152788359
 20
847.1522095615146
 30
0.0
 11
621.4432750480039
 21
820.3293693306827
 31
0.0
  0
LINE
  5
278
330
26B
100
AcDbEntity
  8
BEM
 62
     0
370
    -2
100
AcDbLine
 10
648.2661152788359
 20
991.4019929235699
 30
0.0
 11
549.3183833669762
 21
892.4542610117102
 31
0.0
  0
LINE
  5
279
330
26B
100
AcDbEntity
  8
BEM
 62
     0
370
    -2
100
AcDbLine
 10
612.6044402831722
 20
836.2392719073799
 30
0.0
 11
565.2282859436736
 21
883.6154262468784
 31
0.0
  0
SOLID
  5
27A
330
26B
100
AcDbEntity
  8
BEM
 62
     0
100
AcDbTrace
 10
614.6668350616329
 20
838.3016666858406
 30
0.0
 11
610.5420455047114
 21
834.1768771289192
 31
0.0
 12
624.9788089539366
 22
823.8649032366154
 32
0.0
 13
624.9788089539366
 23
823.8649032366154
 33
0.0
  0
SOLID
  5
27B
330
26B
100
AcDbEntity
  8
BEM
 62
     0
100
AcDbTrace
 10
567.2906807221343
 20
885.6778210253393
 30
0.0
 11
563.1658911652127
 21
881.5530314684178
 31
0.0
 12
552.853917272909
 22
895.9897949176431
 32
0.0
 13
552.853917272909
 23
895.9897949176431
 33
0.0
  0
MTEXT
  5
27C
330
26B
100
AcDbEntity
  8
BEM
 62
     1
100
AcDbMText
 10
597.7229138550671
 20
874.1017687240477
 30
0.0
 40
17.5
 41
0.0
 71
     5
 72
     1
  1
\A1;%%c102
  7
GREEKS
 11
0.7071067811865476
 21
-0.7071067811865475
 31
0.0
 73
     1
 44
1.0
  0
POINT
  5
27D
330
26B
100
AcDbEntity
  8
DEFPOINTS
 62
     0
100
AcDbPoint
 10
651.8016491847686
 20
850.6877434674473
 30
0.0
  0
POINT
  5
27E
330
26B
100
AcDbEntity
  8
DEFPOINTS
 62
     0
100
AcDbPoint
 10
651.8016491847686
 20
994.9375268295026
 30
0.0
  0
POINT
  5
27F
330
26B
100
AcDbEntity
  8
DEFPOINTS
 62
     0
100
AcDbPoint
 10
552.853917272909
 20
895.9897949176431
 30
0.0
  0
ENDBLK
  5
276
330
26B
100
AcDbEntity
  8
0
100
AcDbBlockEnd
  0
BLOCK
  5
295
330
28B
100
AcDbEntity
  8
0
100
AcDbBlockBegin
  2
*D11
 70
     1
 10
0.0
 20
0.0
 30
0.0
  3
*D11
  1

  0
LINE
  5
33C
330
28B
100
AcDbEntity
  8
BEM
 62
     0
370
    -2
100
AcDbLine
 10
373.8016491847686
 20
756.312635148475
 30
0.0
 11
295.4475452356965
 21
756.312635148475
 31
0.0
  0
LINE
  5
33D
330
28B
100
AcDbEntity
  8
BEM
 62
     0
370
    -2
100
AcDbLine
 10
373.8016491847686
 20
1096.312635148475
 30
0.0
 11
295.4475452356965
 21
1096.312635148475
 31
0.0
  0
LINE
  5
33E
330
28B
100
AcDbEntity
  8
BEM
 62
     0
370
    -2
100
AcDbLine
 10
300.4475452356965
 20
773.812635148475
 30
0.0
 11
300.4475452356965
 21
1078.812635148475
 31
0.0
  0
SOLID
  5
33F
330
28B
100
AcDbEntity
  8
BEM
 62
     0
100
AcDbTrace
 10
297.5308785690298
 20
773.812635148475
 30
0.0
 11
303.3642119023631
 21
773.812635148475
 31
0.0
 12
300.4475452356965
 22
756.312635148475
 32
0.0
 13
300.4475452356965
 23
756.312635148475
 33
0.0
  0
SOLID
  5
340
330
28B
100
AcDbEntity
  8
BEM
 62
     0
100
AcDbTrace
 10
297.5308785690298
 20
1078.812635148475
 30
0.0
 11
303.3642119023632
 21
1078.812635148475
 31
0.0
 12
300.4475452356965
 22
1096.312635148475
 32
0.0
 13
300.4475452356965
 23
1096.312635148475
 33
0.0
  0
MTEXT
  5
341
330
28B
100
AcDbEntity
  8
BEM
 62
     1
100
AcDbMText
 10
284.1975452356964
 20
926.312635148475
 30
0.0
 40
17.5
 41
0.0
 71
     5
 72
     1
  1
\A1;340
  7
GREEKS
 11
0.0000000000000001
 21
1.0
 31
0.0
 73
     1
 44
1.0
  0
POINT
  5
342
330
28B
100
AcDbEntity
  8
DEFPOINTS
 62
     0
100
AcDbPoint
 10
378.8016491847686
 20
756.312635148475
 30
0.0
  0
POINT
  5
343
330
28B
100
AcDbEntity
  8
DEFPOINTS
 62
     0
100
AcDbPoint
 10
378.8016491847686
 20
1096.312635148475
 30
0.0
  0
POINT
  5
344
330
28B
100
AcDbEntity
  8
DEFPOINTS
 62
     0
100
AcDbPoint
 10
300.4475452356965
 20
1096.312635148475
 30
0.0
  0
ENDBLK
  5
296
330
28B
100
AcDbEntity
  8
0
100
AcDbBlockEnd
  0
BLOCK
  5
2A1
330
297
100
AcDbEntity
  8
0
100
AcDbBlockBegin
  2
*D12
 70
     1
 10
0.0
 20
0.0
 30
0.0
  3
*D12
  1

  0
LINE
  5
333
330
297
100
AcDbEntity
  8
BEM
 62
     0
370
    -2
100
AcDbLine
 10
518.8371830907008
 20
782.7771012425421
 30
0.0
 11
581.8442183144194
 21
719.7700660188236
 31
0.0
  0
LINE
  5
334
330
297
100
AcDbEntity
  8
BEM
 62
     0
370
    -2
100
AcDbLine
 10
805.008074535706
 20
990.1667430657472
 30
0.0
 11
828.6244849485244
 21
966.5503326529288
 31
0.0
  0
LINE
  5
335
330
297
100
AcDbEntity
  8
BEM
 62
     0
370
    -2
100
AcDbLine
 10
590.6830530792513
 20
735.6799685955209
 30
0.0
 11
812.7145823718272
 21
957.7114978880969
 31
0.0
  0
SOLID
  5
336
330
297
100
AcDbEntity
  8
BEM
 62
     0
100
AcDbTrace
 10
588.6206583007906
 20
737.7423633739816
 30
0.0
 11
592.7454478577121
 21
733.6175738170602
 31
0.0
 12
578.3086844084866
 22
723.3055999247563
 32
0.0
 13
578.3086844084866
 23
723.3055999247563
 33
0.0
  0
SOLID
  5
337
330
297
100
AcDbEntity
  8
BEM
 62
     0
100
AcDbTrace
 10
810.6521875933665
 20
959.7738926665575
 30
0.0
 11
814.7769771502879
 21
955.6491031096362
 31
0.0
 12
825.0889510425917
 22
970.0858665588613
 32
0.0
 13
825.0889510425917
 23
970.0858665588613
 33
0.0
  0
MTEXT
  5
338
330
297
100
AcDbEntity
  8
BEM
 62
     1
100
AcDbMText
 10
690.208332531258
 20
858.1862184360902
 30
0.0
 40
17.5
 41
0.0
 71
     5
 72
     1
  1
\A1;349
  7
GREEKS
 11
0.7071067811865476
 21
0.7071067811865475
 31
0.0
 73
     1
 44
1.0
  0
POINT
  5
339
330
297
100
AcDbEntity
  8
DEFPOINTS
 62
     0
100
AcDbPoint
 10
515.3016491847681
 20
786.3126351484749
 30
0.0
  0
POINT
  5
33A
330
297
100
AcDbEntity
  8
DEFPOINTS
 62
     0
100
AcDbPoint
 10
801.4725406297731
 20
993.7022769716801
 30
0.0
  0
POINT
  5
33B
330
297
100
AcDbEntity
  8
DEFPOINTS
 62
     0
100
AcDbPoint
 10
825.0889510425917
 20
970.0858665588613
 30
0.0
  0
ENDBLK
  5
2A2
330
297
100
AcDbEntity
  8
0
100
AcDbBlockEnd
  0
BLOCK
  5
2E5
330
2D9
100
AcDbEntity
  8
0
100
AcDbBlockBegin
  2
*D14
 70
     1
 10
0.0
 20
0.0
 30
0.0
  3
*D14
  1

  0
LINE
  5
2DA
330
2D9
100
AcDbEntity
  8
BEM
 62
     0
370
    -2
100
AcDbLine
 10
373.8016491847686
 20
756.312635148475
 30
0.0
 11
334.8390286389226
 21
756.312635148475
 31
0.0
  0
LINE
  5
2DB
330
2D9
100
AcDbEntity
  8
BEM
 62
     0
370
    -2
100
AcDbLine
 10
510.3016491847683
 20
786.312635148475
 30
0.0
 11
334.8390286389226
 21
786.312635148475
 31
0.0
  0
LINE
  5
2DC
330
2D9
100
AcDbEntity
  8
BEM
 62
     0
370
    -2
100
AcDbLine
 10
339.8390286389226
 20
738.812635148475
 30
0.0
 11
339.8390286389226
 21
721.312635148475
 31
0.0
  0
LINE
  5
2DD
330
2D9
100
AcDbEntity
  8
BEM
 62
     0
370
    -2
100
AcDbLine
 10
339.8390286389226
 20
803.812635148475
 30
0.0
 11
339.8390286389226
 21
858.9793018151416
 31
0.0
  0
LINE
  5
2DE
330
2D9
100
AcDbEntity
  8
BEM
 62
     0
370
    -2
100
AcDbLine
 10
339.8390286389226
 20
756.312635148475
 30
0.0
 11
339.8390286389226
 21
786.312635148475
 31
0.0
  0
SOLID
  5
2DF
330
2D9
100
AcDbEntity
  8
BEM
 62
     0
100
AcDbTrace
 10
336.9223619722559
 20
738.812635148475
 30
0.0
 11
342.7556953055893
 21
738.812635148475
 31
0.0
 12
339.8390286389226
 22
756.312635148475
 32
0.0
 13
339.8390286389226
 23
756.312635148475
 33
0.0
  0
SOLID
  5
2E0
330
2D9
100
AcDbEntity
  8
BEM
 62
     0
100
AcDbTrace
 10
336.9223619722559
 20
803.812635148475
 30
0.0
 11
342.7556953055893
 21
803.812635148475
 31
0.0
 12
339.8390286389226
 22
786.312635148475
 32
0.0
 13
339.8390286389226
 23
786.312635148475
 33
0.0
  0
MTEXT
  5
2E1
330
2D9
100
AcDbEntity
  8
BEM
 62
     1
100
AcDbMText
 10
323.5890286389225
 20
840.1459684818085
 30
0.0
 40
17.5
 41
0.0
 71
     5
 72
     1
  1
\A1;30
  7
GREEKS
 11
0.0000000000000001
 21
1.0
 31
0.0
 73
     1
 44
1.0
  0
POINT
  5
2E2
330
2D9
100
AcDbEntity
  8
DEFPOINTS
 62
     0
100
AcDbPoint
 10
378.8016491847686
 20
756.312635148475
 30
0.0
  0
POINT
  5
2E3
330
2D9
100
AcDbEntity
  8
DEFPOINTS
 62
     0
100
AcDbPoint
 10
515.3016491847684
 20
786.312635148475
 30
0.0
  0
POINT
  5
2E4
330
2D9
100
AcDbEntity
  8
DEFPOINTS
 62
     0
100
AcDbPoint
 10
339.8390286389226
 20
786.312635148475
 30
0.0
  0
ENDBLK
  5
2E6
330
2D9
100
AcDbEntity
  8
0
100
AcDbBlockEnd
  0
BLOCK
  5
328
330
31E
100
AcDbEntity
  8
0
100
AcDbBlockBegin
  2
*D15
 70
     1
 10
0.0
 20
0.0
 30
0.0
  3
*D15
  1

  0
LINE
  5
32A
330
31E
100
AcDbEntity
  8
BEM
 62
     0
370
    -2
100
AcDbLine
 10
651.8016491847686
 20
751.312635148475
 30
0.0
 11
651.8016491847686
 21
705.4143974746499
 31
0.0
  0
LINE
  5
32B
330
31E
100
AcDbEntity
  8
BEM
 62
     0
370
    -2
100
AcDbLine
 10
378.8016491847686
 20
751.312635148475
 30
0.0
 11
378.8016491847686
 21
705.4143974746499
 31
0.0
  0
LINE
  5
32C
330
31E
100
AcDbEntity
  8
BEM
 62
     0
370
    -2
100
AcDbLine
 10
634.3016491847686
 20
710.4143974746499
 30
0.0
 11
396.3016491847686
 21
710.4143974746499
 31
0.0
  0
SOLID
  5
32D
330
31E
100
AcDbEntity
  8
BEM
 62
     0
100
AcDbTrace
 10
634.3016491847686
 20
713.3310641413165
 30
0.0
 11
634.3016491847686
 21
707.4977308079833
 31
0.0
 12
651.8016491847686
 22
710.4143974746499
 32
0.0
 13
651.8016491847686
 23
710.4143974746499
 33
0.0
  0
SOLID
  5
32E
330
31E
100
AcDbEntity
  8
BEM
 62
     0
100
AcDbTrace
 10
396.3016491847686
 20
713.3310641413165
 30
0.0
 11
396.3016491847686
 21
707.4977308079833
 31
0.0
 12
378.8016491847686
 22
710.4143974746499
 32
0.0
 13
378.8016491847686
 23
710.4143974746499
 33
0.0
  0
MTEXT
  5
32F
330
31E
100
AcDbEntity
  8
BEM
 62
     1
100
AcDbMText
 10
515.3016491847686
 20
726.6643974746499
 30
0.0
 40
17.5
 41
0.0
 71
     5
 72
     1
  1
\A1;%%c273
  7
GREEKS
 73
     1
 44
1.0
  0
POINT
  5
330
330
31E
100
AcDbEntity
  8
DEFPOINTS
 62
     0
100
AcDbPoint
 10
651.8016491847686
 20
756.312635148475
 30
0.0
  0
POINT
  5
331
330
31E
100
AcDbEntity
  8
DEFPOINTS
 62
     0
100
AcDbPoint
 10
378.8016491847686
 20
756.312635148475
 30
0.0
  0
POINT
  5
332
330
31E
100
AcDbEntity
  8
DEFPOINTS
 62
     0
100
AcDbPoint
 10
378.8016491847686
 20
710.4143974746499
 30
0.0
  0
ENDBLK
  5
329
330
31E
100
AcDbEntity
  8
0
100
AcDbBlockEnd
  0
ENDSEC
  0
SECTION
  2
ENTITIES
  0
DIMENSION
  5
14E
330
20
100
AcDbEntity
  8
BEM
100
AcDbDimension
  2
*D5
 10
614.6914718492446
 20
885.7024578129509
 30
0.0
 11
685.7005201134509
 21
1172.284017464337
 31
0.0
 12
-1139.966358715795
 22
0.0
 32
0.0
 70
   130
 71
     5
 42
-1.0
 53
337.9897262297971
100
AcDb2LineAngularDimension
 13
515.3016491847686
 23
1106.312635148475
 33
0.0
 14
515.3016491847686
 24
761.312635148475
 34
0.0
 15
769.1529836307388
 25
1040.163969594445
 35
0.0
 16
685.7005201134509
 26
1149.832613589982
 36
0.0
  0
LINE
  5
14F
330
20
100
AcDbEntity
  8
STEMPEL
100
AcDbLine
 10
651.8016491847686
 20
1096.312635148475
 30
0.0
 11
378.8016491847686
 21
1096.312635148475
 31
0.0
  0
LINE
  5
150
330
20
100
AcDbEntity
  8
STEMPEL
100
AcDbLine
 10
651.8016491847686
 20
756.312635148475
 30
0.0
 11
378.8016491847686
 21
756.312635148475
 31
0.0
  0
DIMENSION
  5
151
330
20
100
AcDbEntity
  8
BEM
100
AcDbDimension
  2
*D15
 10
378.8016491847686
 20
710.4143974746499
 30
0.0
 11
515.3016491847686
 21
726.6643974746499
 31
0.0
 70
    32
  1
%%c<>
 71
     5
 42
273.0
  3
Standard
100
AcDbAlignedDimension
 13
651.8016491847686
 23
756.312635148475
 33
0.0
 14
378.8016491847686
 24
756.312635148475
 34
0.0
100
AcDbRotatedDimension
1001
ACAD
1000
DSTYLE
1002
{
1070
    40
1040
5.0
1070
    41
1040
3.5
1070
    42
1040
1.0
1070
    43
1040
7.0
1070
    44
1040
1.0
1070
    47
1040
2.399999999999999
1070
    48
1040
2.399999999999999
1070
    73
1070
     0
1070
    74
1070
     0
1070
    77
1070
     1
1070
    78
1070
     8
1070
    79
1070
     2
1070
   140
1040
3.5
1070
   141
1040
1.5
1070
   146
1040
0.5
1070
   147
1040
1.5
1070
   172
1070
     1
1070
   178
1070
     1
1070
   179
1070
     2
1070
   271
1070
     2
1070
   272
1070
     2
1070
   284
1070
     8
1070
   285
1070
     8
1070
   286
1070
     8
1070
   340
1005
35
1002
}
  0
DIMENSION
  5
152
330
20
100
AcDbEntity
  8
BEM
100
AcDbDimension
  2
*D12
 10
825.0889510425917
 20
970.0858665588613
 30
0.0
 11
690.208332531258
 21
858.1862184360902
 31
0.0
 70
    32
 71
     5
 42
349.0
  3
Standard
100
AcDbAlignedDimension
 13
515.3016491847681
 23
786.3126351484749
 33
0.0
 14
801.4725406297731
 24
993.7022769716799
 34
0.0
 50
45.0
100
AcDbRotatedDimension
1001
ACAD
1000
DSTYLE
1002
{
1070
    40
1040
5.0
1070
    41
1040
3.5
1070
    42
1040
1.0
1070
    43
1040
7.0
1070
    44
1040
1.0
1070
    47
1040
2.399999999999999
1070
    48
1040
2.399999999999999
1070
    73
1070
     0
1070
    74
1070
     0
1070
    77
1070
     1
1070
    78
1070
     8
1070
    79
1070
     2
1070
   140
1040
3.5
1070
   141
1040
1.5
1070
   146
1040
0.5
1070
   147
1040
1.5
1070
   172
1070
     1
1070
   178
1070
     1
1070
   179
1070
     2
1070
   271
1070
     2
1070
   272
1070
     2
1070
   284
1070
     8
1070
   285
1070
     8
1070
   286
1070
     8
1070
   340
1005
35
1002
}
  0
LINE
  5
153
330
20
100
AcDbEntity
  8
MITTEL
100
AcDbLine
 10
584.1461236063276
 20
855.1571095700339
 30
0.0
 11
515.3016491847684
 21
786.312635148475
 31
0.0
  0
LINE
  5
154
330
20
100
AcDbEntity
  8
STEMPEL
100
AcDbLine
 10
1025.0
 20
275.0000000000001
 30
0.0
 11
99.99999999999992
 21
275.0
 31
0.0
  0
LINE
  5
155
330
20
100
AcDbEntity
  8
STEMPEL
100
AcDbLine
 10
1025.0
 20
100.0
 30
0.0
 11
365.0000000000003
 21
99.99999999999992
 31
0.0
  0
LINE
  5
156
330
20
100
AcDbEntity
  8
STEMPEL
100
AcDbLine
 10
1025.0
 20
200.0
 30
0.0
 11
365.0000000000003
 21
199.9999999999998
 31
0.0
  0
LINE
  5
157
330
20
100
AcDbEntity
  8
HILF
100
AcDbLine
 10
365.0000000000003
 20
174.9999999999998
 30
0.0
 11
575.0
 21
174.9999999999998
 31
0.0
  0
LINE
  5
158
330
20
100
AcDbEntity
  8
HILF
100
AcDbLine
 10
365.0000000000003
 20
149.9999999999999
 30
0.0
 11
575.0
 21
149.9999999999999
 31
0.0
  0
LINE
  5
159
330
20
100
AcDbEntity
  8
HILF
100
AcDbLine
 10
365.0000000000003
 20
124.9999999999999
 30
0.0
 11
575.0
 21
124.9999999999999
 31
0.0
  0
TEXT
  5
15A
330
20
100
AcDbEntity
  8
TEXT
100
AcDbText
 10
485.7147386835128
 20
256.0460421087048
 30
0.0
 40
12.5
  1
Zul. Abw.
 41
0.8
  7
GREEKS
100
AcDbText
  0
TEXT
  5
15B
330
20
100
AcDbEntity
  8
TEXT
100
AcDbText
 10
506.1566460565737
 20
183.2740272978806
 30
0.0
 40
10.0
  1
Name
 41
0.8
  7
GREEKS
100
AcDbText
  0
LINE
  5
15C
330
20
100
AcDbEntity
  8
STEMPEL
100
AcDbLine
 10
124.9999999999997
 20
25.0
 30
0.0
 11
1025.0
 21
25.0
 31
0.0
  0
LINE
  5
15D
330
20
100
AcDbEntity
  8
STEMPEL
100
AcDbLine
 10
1025.0
 20
25.0
 30
0.0
 11
99.99999999999971
 21
25.0
 31
0.0
  0
LINE
  5
15E
330
20
100
AcDbEntity
  8
STEMPEL
100
AcDbLine
 10
1025.0
 20
1460.0
 30
0.0
 11
99.99999999999971
 21
1460.0
 31
0.0
  0
LINE
  5
15F
330
20
100
AcDbEntity
  8
HILF
100
AcDbLine
 10
1050.0
 20
1485.0
 30
0.0
 11
0.0
 21
1485.0
 31
0.0
  0
LINE
  5
160
330
20
100
AcDbEntity
  8
HILF
100
AcDbLine
 10
1050.0
 20
0.0
 30
0.0
 11
0.0
 21
0.0
 31
0.0
  0
INSERT
  5
161
330
20
100
AcDbEntity
  8
STEMPEL
100
AcDbBlockReference
  2
LOGO
 10
377.4888713644485
 20
112.552631911208
 30
0.0
 41
5.0
 42
5.0
 43
5.0
  0
TEXT
  5
163
330
20
100
AcDbEntity
  8
TEXT
 62
     1
100
AcDbText
 10
480.0373920362803
 20
353.4720666920997
 30
0.0
 40
17.5
  1
Werkstoff: EN 10219 S235, RSt34-2 DIN2394
 41
0.8
  7
GREEKS
100
AcDbText
  0
TEXT
  5
164
330
20
100
AcDbEntity
  8
TEXT
100
AcDbText
 10
511.0540121453142
 20
157.7240979930877
 30
0.0
 40
10.0
  1
Koeh
 41
0.8
  7
GREEKS
 72
     1
 11
524.1968692881714
 21
157.7240979930877
 31
0.0
100
AcDbText
  0
DIMENSION
  5
166
330
20
100
AcDbEntity
  8
BEM
100
AcDbDimension
  2
*D14
 10
339.8390286389226
 20
786.312635148475
 30
0.0
 11
323.5890286389225
 21
840.1459684818085
 31
0.0
 70
    32
 71
     5
 42
30.0
  3
Standard
100
AcDbAlignedDimension
 13
378.8016491847686
 23
756.312635148475
 33
0.0
 14
515.3016491847684
 24
786.312635148475
 34
0.0
 50
90.0
100
AcDbRotatedDimension
1001
ACAD
1000
DSTYLE
1002
{
1070
    40
1040
5.0
1070
    41
1040
3.5
1070
    42
1040
1.0
1070
    43
1040
7.0
1070
    44
1040
1.0
1070
    47
1040
2.399999999999999
1070
    48
1040
2.399999999999999
1070
    73
1070
     0
1070
    74
1070
     0
1070
    77
1070
     1
1070
    78
1070
     8
1070
    79
1070
     2
1070
   140
1040
3.5
1070
   141
1040
1.5
1070
   146
1040
0.5
1070
   147
1040
1.5
1070
   172
1070
     1
1070
   178
1070
     1
1070
   179
1070
     2
1070
   271
1070
     2
1070
   272
1070
     2
1070
   284
1070
     8
1070
   285
1070
     8
1070
   286
1070
     8
1070
   340
1005
35
1002
}
  0
LINE
  5
167
330
20
100
AcDbEntity
  8
STEMPEL
100
AcDbLine
 10
100.0
 20
25.0
 30
0.0
 11
99.99999999999971
 21
1460.0
 31
0.0
  0
LINE
  5
168
330
20
100
AcDbEntity
  8
HILF
100
AcDbLine
 10
0.0
 20
0.0
 30
0.0
 11
-0.0000000000002842
 21
1485.0
 31
0.0
  0
LINE
  5
169
330
20
100
AcDbEntity
  8
STEMPEL
100
AcDbLine
 10
364.9999999999997
 20
74.99999999999992
 30
0.0
 11
99.99999999999992
 21
74.99999999999992
 31
0.0
  0
LINE
  5
16A
330
20
100
AcDbEntity
  8
HILF
100
AcDbLine
 10
100.0000000000002
 20
250.0000000000001
 30
0.0
 11
365.0000000000003
 21
250.0000000000001
 31
0.0
  0
LINE
  5
16B
330
20
100
AcDbEntity
  8
HILF
100
AcDbLine
 10
100.0000000000002
 20
225.0000000000001
 30
0.0
 11
365.0000000000003
 21
225.0000000000001
 31
0.0
  0
LINE
  5
16C
330
20
100
AcDbEntity
  8
HILF
100
AcDbLine
 10
100.0000000000002
 20
199.9999999999998
 30
0.0
 11
365.0000000000003
 21
199.9999999999998
 31
0.0
  0
LINE
  5
16D
330
20
100
AcDbEntity
  8
HILF
100
AcDbLine
 10
100.0000000000002
 20
174.9999999999998
 30
0.0
 11
365.0000000000003
 21
174.9999999999998
 31
0.0
  0
LINE
  5
16E
330
20
100
AcDbEntity
  8
HILF
100
AcDbLine
 10
100.0000000000002
 20
149.9999999999999
 30
0.0
 11
365.0000000000003
 21
149.9999999999999
 31
0.0
  0
LINE
  5
16F
330
20
100
AcDbEntity
  8
HILF
100
AcDbLine
 10
100.0000000000002
 20
124.9999999999999
 30
0.0
 11
365.0000000000003
 21
124.9999999999999
 31
0.0
  0
LINE
  5
170
330
20
100
AcDbEntity
  8
HILF
100
AcDbLine
 10
100.0000000000002
 20
99.99999999999992
 30
0.0
 11
365.0000000000003
 21
99.99999999999992
 31
0.0
  0
TEXT
  5
171
330
20
100
AcDbEntity
  8
TEXT
100
AcDbText
 10
170.6751908069065
 20
46.68454737460329
 30
0.0
 40
10.0
  1
Änderung
 41
0.8
  7
GREEKS
 72
     1
 11
197.5323336640493
 21
46.68454737460329
 31
0.0
100
AcDbText
  0
TEXT
  5
172
330
20
100
AcDbEntity
  8
TEXT
100
AcDbText
 10
104.6377487744418
 20
279.1799999999999
 30
0.0
 40
12.5
  1
Erstellt mit AUTOCAD 2004
 41
0.8
  7
GREEKS
100
AcDbText
  0
LINE
  5
173
330
20
100
AcDbEntity
  8
VOLL
100
AcDbLine
 10
135.0000000000002
 20
275.0000000000001
 30
0.0
 11
134.9999999999999
 21
24.99999999999993
 31
0.0
  0
TEXT
  5
174
330
20
100
AcDbEntity
  8
TEXT
100
AcDbText
 10
120.6660276761439
 20
34.13664615067979
 30
0.0
 40
10.0
  1
Index
 50
90.0
 41
0.8
  7
GREEKS
100
AcDbText
  0
LINE
  5
175
330
20
100
AcDbEntity
  8
HILF
100
AcDbLine
 10
77.7191783928464
 20
742.5000000000001
 30
0.0
 11
0.0000000000002842
 21
742.5000000000001
 31
0.0
  0
LINE
  5
176
330
20
100
AcDbEntity
  8
VOLL
100
AcDbLine
 10
260.0000000000003
 20
274.9999999999999
 30
0.0
 11
260.0
 21
24.99999999999993
 31
0.0
  0
LINE
  5
177
330
20
100
AcDbEntity
  8
VOLL
100
AcDbLine
 10
310.0000000000003
 20
274.9999999999999
 30
0.0
 11
310.0
 21
24.99999999999993
 31
0.0
  0
TEXT
  5
178
330
20
100
AcDbEntity
  8
TEXT
100
AcDbText
 10
275.2006584983695
 20
46.67890673349525
 30
0.0
 40
10.0
  1
Tag
 41
0.8
  7
GREEKS
 72
     1
 11
284.5339918317028
 21
46.67890673349525
 31
0.0
100
AcDbText
  0
TEXT
  5
179
330
20
100
AcDbEntity
  8
TEXT
100
AcDbText
 10
322.2727972074197
 20
46.4831054241602
 30
0.0
 40
10.0
  1
Name
 41
0.8
  7
GREEKS
 72
     1
 11
338.0823210169435
 21
46.4831054241602
 31
0.0
100
AcDbText
  0
LINE
  5
17A
330
20
100
AcDbEntity
  8
STEMPEL
100
AcDbLine
 10
365.0000000000003
 20
274.9999999999999
 30
0.0
 11
365.0
 21
24.99999999999993
 31
0.0
  0
TEXT
  5
17B
330
20
100
AcDbEntity
  8
TEXT
100
AcDbText
 10
430.8279182884127
 20
183.2970125307481
 30
0.0
 40
10.0
  1
Tag
 41
0.8
  7
GREEKS
100
AcDbText
  0
TEXT
  5
17C
330
20
100
AcDbEntity
  8
TEXT
100
AcDbText
 10
425.9974927705902
 20
157.7691260206433
 30
0.0
 40
10.0
  1
05.04.
 41
0.8
  7
GREEKS
 72
     1
 11
443.5213022943996
 21
157.7691260206433
 31
0.0
100
AcDbText
  0
LINE
  5
17D
330
20
100
AcDbEntity
  8
VOLL
100
AcDbLine
 10
410.0000000000003
 20
199.9999999999998
 30
0.0
 11
410.0000000000003
 21
99.99999999999992
 31
0.0
  0
TEXT
  5
17E
330
20
100
AcDbEntity
  8
TEXT
100
AcDbText
 10
368.9590317919039
 20
159.0747592404491
 30
0.0
 40
10.0
  1
Gez.
 41
0.8
  7
GREEKS
100
AcDbText
  0
TEXT
  5
17F
330
20
100
AcDbEntity
  8
TEXT
100
AcDbText
 10
368.8787716429181
 20
134.2231572857094
 30
0.0
 40
10.0
  1
Gepr.
 41
0.8
  7
GREEKS
100
AcDbText
  0
TEXT
  5
180
330
20
100
AcDbEntity
  8
TEXT
100
AcDbText
 10
369.0016943468259
 20
108.8236597412452
 30
0.0
 40
10.0
  1
Norm.
 41
0.8
  7
GREEKS
100
AcDbText
  0
TEXT
  5
181
330
20
100
AcDbEntity
  8
TEXT
100
AcDbText
 10
383.7908930375943
 20
256.1552237717722
 30
0.0
 40
12.5
  1
Maßstab
 41
0.8
  7
GREEKS
100
AcDbText
  0
TEXT
  5
182
330
20
100
AcDbEntity
  8
TEXT
 62
     1
100
AcDbText
 10
401.2515766204717
 20
220.372535722849
 30
0.0
 40
17.5
  1
1:5
 41
0.8
  7
GREEKS
100
AcDbText
  0
TEXT
  5
183
330
20
100
AcDbEntity
  8
TEXT
100
AcDbText
 10
371.55527455526
 20
182.8506367787916
 30
0.0
 40
10.0
  1
2011
 41
0.8
  7
GREEKS
100
AcDbText
  0
LINE
  5
184
330
20
100
AcDbEntity
  8
VOLL
100
AcDbLine
 10
475.0000000000002
 20
274.9999999999996
 30
0.0
 11
475.0
 21
99.99999999999992
 31
0.0
  0
TEXT
  5
185
330
20
100
AcDbEntity
  8
TEXT
 62
     1
100
AcDbText
 10
292.4806628287003
 20
428.844636841721
 30
0.0
 40
17.5
  1
Rohrenden leicht entgratet
 41
0.8
  7
GREEKS
100
AcDbText
  0
DIMENSION
  5
186
330
20
100
AcDbEntity
  8
BEM
100
AcDbDimension
  2
*D11
 10
300.4475452356965
 20
1096.312635148475
 30
0.0
 11
284.1975452356964
 21
926.312635148475
 31
0.0
 70
    32
 71
     5
 42
339.9999999999999
  3
Standard
100
AcDbAlignedDimension
 13
378.8016491847686
 23
756.312635148475
 33
0.0
 14
378.8016491847686
 24
1096.312635148475
 34
0.0
 50
90.0
100
AcDbRotatedDimension
1001
ACAD
1000
DSTYLE
1002
{
1070
    40
1040
5.0
1070
    41
1040
3.5
1070
    42
1040
1.0
1070
    43
1040
7.0
1070
    44
1040
1.0
1070
    47
1040
2.399999999999999
1070
    48
1040
2.399999999999999
1070
    73
1070
     0
1070
    74
1070
     0
1070
    77
1070
     1
1070
    78
1070
     8
1070
    79
1070
     2
1070
   140
1040
3.5
1070
   141
1040
1.5
1070
   146
1040
0.5
1070
   147
1040
1.5
1070
   172
1070
     1
1070
   178
1070
     1
1070
   179
1070
     2
1070
   271
1070
     2
1070
   272
1070
     2
1070
   284
1070
     8
1070
   285
1070
     8
1070
   286
1070
     8
1070
   340
1005
35
1002
}
  0
LINE
  5
187
330
20
100
AcDbEntity
  8
MITTEL
100
AcDbLine
 10
515.3016491847686
 20
1106.312635148475
 30
0.0
 11
515.3016491847686
 21
751.312635148475
 31
0.0
  0
LINE
  5
188
330
20
100
AcDbEntity
  8
STEMPEL
100
AcDbLine
 10
378.8016491847686
 20
1096.312635148475
 30
0.0
 11
378.8016491847686
 21
756.312635148475
 31
0.0
  0
POINT
  5
19A
330
20
100
AcDbEntity
  8
DEFPOINTS
  6
ByBlock
 62
     0
100
AcDbPoint
 10
515.3016491847686
 20
751.312635148475
 30
0.0
  0
LINE
  5
19B
330
20
100
AcDbEntity
  8
STEMPEL
100
AcDbLine
 10
1025.0
 20
25.0
 30
0.0
 11
1025.0
 21
1460.0
 31
0.0
  0
LINE
  5
19C
330
20
100
AcDbEntity
  8
HILF
100
AcDbLine
 10
1050.0
 20
-0.0000000000002842
 30
0.0
 11
1050.0
 21
1485.0
 31
0.0
  0
LINE
  5
19E
330
20
100
AcDbEntity
  8
VOLL
100
AcDbLine
 10
830.0
 20
150.0
 30
0.0
 11
1025.0
 21
150.0
 31
0.0
  0
LINE
  5
19F
330
20
100
AcDbEntity
  8
HILF
100
AcDbLine
 10
841.8096540742482
 20
209.4495909238957
 30
0.0
 11
1012.147209831682
 21
209.4495909238957
 31
0.0
  0
LINE
  5
1A0
330
20
100
AcDbEntity
  8
HILF
100
AcDbLine
 10
583.7274248224712
 20
37.23495645070784
 30
0.0
 11
1012.147209831682
 21
37.23495645070784
 31
0.0
  0
TEXT
  5
1A1
330
20
100
AcDbEntity
  8
TEXT
100
AcDbText
 10
840.4468873940851
 20
255.7830086342841
 30
0.0
 40
12.5
  1
Zeichnungs Nr.
 41
0.8
  7
GREEKS
100
AcDbText
  0
TEXT
  5
1A2
330
20
100
AcDbEntity
  8
TEXT
100
AcDbText
 10
841.8096540742482
 20
182.9529559274992
 30
0.0
 40
12.5
  1
Ersatz für:
 41
0.8
  7
GREEKS
100
AcDbText
  0
TEXT
  5
1A3
330
20
100
AcDbEntity
  8
TEXT
100
AcDbText
 10
843.1002153742515
 20
130.185404446965
 30
0.0
 40
12.5
  1
ersetzt durch:
 41
0.8
  7
GREEKS
100
AcDbText
  0
TEXT
  5
1A4
330
20
100
AcDbEntity
  8
TEXT
 62
     1
100
AcDbText
 10
600.0373920362804
 20
323.4720666920996
 30
0.0
 40
17.5
  1
feuerverzinkt und innen beschichtet
 41
0.8
  7
GREEKS
100
AcDbText
  0
TEXT
  5
1A5
330
20
100
AcDbEntity
  8
TEXT
100
AcDbText
 10
587.8240977813288
 20
181.8582405213435
 30
0.0
 40
12.5
  1
Muffenlos / Muffe
 41
0.8
  7
GREEKS
100
AcDbText
  0
LINE
  5
1A6
330
20
100
AcDbEntity
  8
HILF
100
AcDbLine
 10
586.9342002742369
 20
210.0939561891034
 30
0.0
 11
812.0884791390777
 21
210.0939561891034
 31
0.0
  0
LINE
  5
1A7
330
20
100
AcDbEntity
  8
HILF
100
AcDbLine
 10
586.9342002742369
 20
174.9999999999998
 30
0.0
 11
812.0884791390775
 21
174.9999999999998
 31
0.0
  0
LINE
  5
1A8
330
20
100
AcDbEntity
  8
HILF
100
AcDbLine
 10
586.9342002742369
 20
149.9999999999999
 30
0.0
 11
812.0884791390775
 21
149.9999999999999
 31
0.0
  0
LINE
  5
1A9
330
20
100
AcDbEntity
  8
HILF
100
AcDbLine
 10
586.9342002742369
 20
124.9999999999999
 30
0.0
 11
812.0884791390775
 21
124.9999999999999
 31
0.0
  0
TEXT
  5
1AA
330
20
100
AcDbEntity
  8
TEXT
100
AcDbText
 10
587.8240977813288
 20
129.100298576054
 30
0.0
 40
12.5
  1
EDV-Art.Nr. 02260.HD0X
 41
0.8
  7
GREEKS
100
AcDbText
  0
TEXT
  5
1AB
330
20
100
AcDbEntity
  8
TEXT
 62
     1
100
AcDbText
 10
588.9294820816727
 20
218.5437197313445
 30
0.0
 40
17.5
  1
Abzweig 45%%d DN250/100
 41
0.7
  7
GREEKS
100
AcDbText
  0
LINE
  5
1AC
330
20
100
AcDbEntity
  8
STEMPEL
100
AcDbLine
 10
575.0
 20
275.0000000000001
 30
0.0
 11
575.0
 21
24.99999999999993
 31
0.0
  0
TEXT
  5
1AD
330
20
100
AcDbEntity
  8
TEXT
100
AcDbText
 10
587.1948509522525
 20
256.3723320029449
 30
0.0
 40
12.5
  1
Benennung
 41
0.8
  7
GREEKS
100
AcDbText
  0
TEXT
  5
1AE
330
20
100
AcDbEntity
  8
TEXT
100
AcDbText
 10
586.8555959778399
 20
77.11401425482641
 30
0.0
 40
12.5
  1
Bauvorhaben
 41
0.8
  7
GREEKS
100
AcDbText
  0
TEXT
  5
1AF
330
20
100
AcDbEntity
  8
TEXT
100
AcDbText
 10
587.4593753944567
 20
106.5743538255658
 30
0.0
 40
10.0
  1
02260HD0W.DWG
 41
0.8
  7
GREEKS
100
AcDbText
  0
LINE
  5
1B0
330
20
100
AcDbEntity
  8
STEMPEL
100
AcDbLine
 10
830.0
 20
274.9999999999994
 30
0.0
 11
830.0
 21
100.0
 31
0.0
  0
TEXT
  5
1B1
330
20
100
AcDbEntity
  8
TEXT
 62
     1
100
AcDbText
 10
865.4136800866744
 20
220.372535722849
 30
0.0
 40
17.5
  1
02260HD0W
 41
0.8
  7
GREEKS
 72
     1
 11
926.4136800866745
 21
220.372535722849
 31
0.0
100
AcDbText
  0
LINE
  5
1D6
330
20
100
AcDbEntity
  8
HILF
100
AcDbLine
 10
751.8401303830167
 20
948.7153118098046
 30
0.0
 11
677.7043258460969
 21
1022.851116346724
 31
0.0
  0
LINE
  5
1D7
330
20
100
AcDbEntity
  8
HILF
100
AcDbLine
 10
675.4402474048768
 20
1016.376555054746
 30
0.0
 11
745.3655690910425
 21
946.4512333685808
 31
0.0
  0
LINE
  5
1D8
330
20
100
AcDbEntity
  8
STEMPEL
100
AcDbLine
 10
744.3802099479015
 20
943.2663042305803
 30
0.0
 11
651.8016491847686
 21
850.6877434674473
 31
0.0
  0
LINE
  5
1D9
330
20
100
AcDbEntity
  8
STEMPEL
100
AcDbLine
 10
689.6034707472524
 20
1038.396202641479
 30
0.0
 11
678.5920425320393
 21
1027.384774426266
 31
0.0
  0
LINE
  5
1DA
330
20
100
AcDbEntity
  8
MITTEL
100
AcDbLine
 10
769.1529836307388
 20
1040.163969594445
 30
0.0
 11
614.6914718492446
 21
885.7024578129509
 31
0.0
  0
LWPOLYLINE
  5
1DB
330
20
100
AcDbEntity
  8
STEMPEL
100
AcDbPolyline
 90
        5
 70
     0
 43
0.0
 10
651.8016491847686
 20
994.9375268295026
 42
0.3335023841207338
 10
649.3430423806057
 20
993.0924025610899
 42
0.0408290374317417
 10
644.8115964501546
 20
970.9172605040947
 42
0.0175199618129688
 10
642.7624616857267
 20
946.8461757262577
 42
0.0124724938171729
 10
641.9162218057745
 20
912.927207769481
 42
0.0124724938171727
  0
DIMENSION
  5
1E2
330
20
100
AcDbEntity
  8
BEM
100
AcDbDimension
  2
*D10
 10
552.853917272909
 20
895.9897949176431
 30
0.0
 11
586.2324286607856
 21
862.6112835297663
 31
0.0
 70
   160
  1
%%c<>
 71
     5
 42
101.9999999999998
  3
Standard
100
AcDbAlignedDimension
 13
651.8016491847686
 23
850.6877434674473
 33
0.0
 14
651.8016491847686
 24
994.9375268295026
 34
0.0
 50
315.0
100
AcDbRotatedDimension
1001
ACAD
1000
DSTYLE
1002
{
1070
    40
1040
5.0
1070
    41
1040
3.5
1070
    42
1040
1.0
1070
    43
1040
7.0
1070
    44
1040
1.0
1070
    47
1040
2.399999999999999
1070
    48
1040
2.399999999999999
1070
    73
1070
     0
1070
    74
1070
     0
1070
    77
1070
     1
1070
    78
1070
     8
1070
    79
1070
     2
1070
   140
1040
3.5
1070
   141
1040
1.5
1070
   146
1040
0.5
1070
   147
1040
1.5
1070
   172
1070
     1
1070
   178
1070
     1
1070
   179
1070
     2
1070
   271
1070
     2
1070
   272
1070
     2
1070
   284
1070
     8
1070
   285
1070
     8
1070
   286
1070
     8
1070
   340
1005
35
1002
}
  0
LWPOLYLINE
  5
1E3
330
20
100
AcDbEntity
  8
STEMPEL
100
AcDbPolyline
 90
        5
 70
     0
 43
0.0
 10
641.9162218057747
 20
912.927207769481
 42
0.0164250831994148
 10
642.7611506729419
 20
887.2134591946746
 42
0.0229587294617928
 10
644.8115964501551
 20
868.9172605040951
 42
0.0522079466391929
 10
649.2214536918336
 20
852.4617533787438
 42
0.3106079120018593
 10
651.8016491847686
 20
850.6877434674475
 42
0.3106079120018797
  0
ARC
  5
1EA
330
20
100
AcDbEntity
  8
SCHRAFF
100
AcDbCircle
 10
645.9364541001693
 20
863.1710200769557
 30
0.0
 40
10.0
100
AcDbArc
 50
268.9819362527513
 51
303.9585870224394
  0
LINE
  5
1EB
330
20
100
AcDbEntity
  8
STEMPEL
100
AcDbLine
 10
651.8016491847686
 20
850.6877434674473
 30
0.0
 11
651.8016491847686
 21
756.3126351484751
 31
0.0
  0
ARC
  5
1EC
330
20
100
AcDbEntity
  8
SCHRAFF
100
AcDbCircle
 10
648.2613438837391
 20
852.1541859380757
 30
0.0
 40
5.699374524272753
100
AcDbArc
 50
308.4019429922843
 51
6.598057007710211
  0
INSERT
  5
1ED
330
20
100
AcDbEntity
  8
SCHRAFF
100
AcDbBlockReference
  2
*X2
 10
-49.90041371969778
 20
63.34503280075191
 30
0.0
1001
ACAD
1000
HATCH
1002
{
1070
    16
1000
_U,I
1040
0.1
1040
0.0
1070
     0
1002
}
  0
ARC
  5
1EE
330
20
100
AcDbEntity
  8
SCHRAFF
100
AcDbCircle
 10
646.741543823862
 20
982.6634842199609
 30
0.0
 40
10.0
100
AcDbArc
 50
242.7130312442504
 51
277.6495318553938
  0
ARC
  5
1EF
330
20
100
AcDbEntity
  8
SCHRAFF
100
AcDbCircle
 10
644.2034220116579
 20
873.0197052572318
 30
0.0
 40
10.0
100
AcDbArc
 50
262.3543102119101
 51
297.3179527527206
  0
ARC
  5
1F0
330
20
100
AcDbEntity
  8
SCHRAFF
100
AcDbCircle
 10
642.4267384661425
 20
892.9353545616088
 30
0.0
 40
10.0
100
AcDbArc
 50
256.2682208396456
 51
291.1903452034337
  0
ARC
  5
1F1
330
20
100
AcDbEntity
  8
SCHRAFF
100
AcDbCircle
 10
643.0866903089929
 20
882.9571551466282
 30
0.0
 40
10.0
100
AcDbArc
 50
258.8833083387187
 51
293.8087083568013
  0
ARC
  5
1F2
330
20
100
AcDbEntity
  8
SCHRAFF
100
AcDbCircle
 10
641.9162218057742
 20
912.927207769483
 30
0.0
 40
10.0
100
AcDbArc
 50
253.2387756162017
 51
288.1566540223507
  0
ARC
  5
1F3
330
20
100
AcDbEntity
  8
SCHRAFF
100
AcDbCircle
 10
642.0438717708073
 20
922.9263930106084
 30
0.0
 40
10.0
100
AcDbArc
 50
251.7759750380512
 51
286.6938534441995
  0
ARC
  5
1F4
330
20
100
AcDbEntity
  8
SCHRAFF
100
AcDbCircle
 10
642.0438717708073
 20
902.9280225283532
 30
0.0
 40
10.0
100
AcDbArc
 50
254.7015761943487
 51
289.619454600498
  0
ARC
  5
1F5
330
20
100
AcDbEntity
  8
SCHRAFF
100
AcDbCircle
 10
643.1183237201505
 20
952.9031281190199
 30
0.0
 40
10.0
100
AcDbArc
 50
249.4158201720238
 51
284.3327468951045
  0
ARC
  5
1F6
330
20
100
AcDbEntity
  8
SCHRAFF
100
AcDbCircle
 10
642.2102402069092
 20
932.9245060654736
 30
0.0
 40
10.0
100
AcDbArc
 50
251.2590240927593
 51
286.1751163922164
  0
ARC
  5
1F7
330
20
100
AcDbEntity
  8
SCHRAFF
100
AcDbCircle
 10
642.5777036311138
 20
942.917752316411
 30
0.0
 40
10.0
100
AcDbArc
 50
250.4166703160581
 51
285.3327626155149
  0
ARC
  5
1F8
330
20
100
AcDbEntity
  8
SCHRAFF
100
AcDbCircle
 10
643.9372400958952
 20
962.8695405111267
 30
0.0
 40
10.0
100
AcDbArc
 50
247.8051044550312
 51
282.7237587216124
  0
ARC
  5
1F9
330
20
100
AcDbEntity
  8
SCHRAFF
100
AcDbCircle
 10
645.0525696814472
 20
972.8071478647905
 30
0.0
 40
10.0
100
AcDbArc
 50
246.0963471393283
 51
281.0154217572312
  0
LINE
  5
1FA
330
20
100
AcDbEntity
  8
STEMPEL
100
AcDbLine
 10
651.8016491847686
 20
1096.312635148475
 30
0.0
 11
651.8016491847686
 21
994.9375268295026
 31
0.0
  0
ARC
  5
1FB
330
20
100
AcDbEntity
  8
SCHRAFF
100
AcDbCircle
 10
652.2226030374699
 20
1001.884281713018
 30
0.0
 40
10.0
100
AcDbArc
 50
234.4564076882197
 51
269.3929082993637
  0
ARC
  5
1FC
330
20
100
AcDbEntity
  8
SCHRAFF
100
AcDbCircle
 10
649.1356962966303
 20
992.372656890026
 30
0.0
 40
10.0
100
AcDbArc
 50
238.5847194662342
 51
273.5212200773777
  0
LINE
  5
1FD
330
20
100
AcDbEntity
  8
STEMPEL
100
AcDbLine
 10
672.2553182668737
 20
1015.391195911608
 30
0.0
 11
651.8016491847686
 21
994.9375268295028
 31
0.0
  0
ARC
  5
1FE
330
20
100
AcDbEntity
  8
SCHRAFF
100
AcDbCircle
 10
651.8016491847686
 20
994.9375268295026
 30
0.0
 40
3.0
100
AcDbArc
 50
45.0
 51
90.0
  0
INSERT
  5
1FF
330
20
100
AcDbEntity
  8
SCHRAFF
100
AcDbBlockReference
  2
*X1
 10
-49.90041371969778
 20
63.34503280075191
 30
0.0
1001
ACAD
1000
HATCH
1002
{
1070
    16
1000
_U,I
1040
0.1
1040
0.0
1070
     0
1002
}
  0
ARC
  5
200
330
20
100
AcDbEntity
  8
STEMPEL
100
AcDbCircle
 10
689.1986442498375
 20
1016.778172708467
 30
0.0
 40
15.0
100
AcDbArc
 50
134.9999999999999
 51
169.3011527567915
  0
ARC
  5
201
330
20
100
AcDbEntity
  8
STEMPEL
100
AcDbCircle
 10
666.5984640173812
 20
1021.0480501611
 30
0.0
 40
8.0
100
AcDbArc
 50
315.0
 51
349.3011527567914
  0
LINE
  5
202
330
20
100
AcDbEntity
  8
STEMPEL
100
AcDbLine
 10
794.888310674525
 20
982.4606964582185
 30
0.0
 11
782.0456615721134
 21
969.6180473558072
 31
0.0
  0
LINE
  5
203
330
20
100
AcDbEntity
  8
HILF
100
AcDbLine
 10
693.0583658101725
 20
1039.571751691652
 30
0.0
 11
768.5607657279472
 21
964.0693517738778
 31
0.0
  0
ARC
  5
204
330
20
100
AcDbEntity
  8
STEMPEL
100
AcDbCircle
 10
775.8704980520112
 20
952.1291753367201
 30
0.0
 40
12.0
100
AcDbArc
 50
108.1122293409799
 51
135.0000000000001
  0
ARC
  5
205
330
20
100
AcDbEntity
  8
STEMPEL
100
AcDbCircle
 10
745.7671867447613
 20
960.2096302135437
 30
0.0
 40
15.0
100
AcDbArc
 50
280.6988472432085
 51
315.0000000000001
  0
ARC
  5
206
330
20
100
AcDbEntity
  8
STEMPEL
100
AcDbCircle
 10
750.0370641973939
 20
937.6094499810875
 30
0.0
 40
8.0
100
AcDbArc
 50
100.6988472432086
 51
135.0
  0
LINE
  5
207
330
20
100
AcDbEntity
  8
STEMPEL
100
AcDbLine
 10
767.3852166777726
 20
960.6144567109589
 30
0.0
 11
756.3737884625595
 21
949.6030284957456
 31
0.0
  0
ARC
  5
208
330
20
100
AcDbEntity
  8
STEMPEL
100
AcDbCircle
 10
764.3679920424499
 20
987.2957168854709
 30
0.0
 40
24.99990931069965
100
AcDbArc
 50
288.11222934098
 51
315.0
  0
LINE
  5
209
330
20
100
AcDbEntity
  8
STEMPEL
100
AcDbLine
 10
722.6912910079733
 20
1072.48352659348
 30
0.0
 11
801.4725406297737
 21
993.7022769716801
 31
0.0
  0
LINE
  5
20A
330
20
100
AcDbEntity
  8
STEMPEL
100
AcDbLine
 10
711.4497104945123
 20
1065.899296638231
 30
0.0
 11
698.6070613921008
 21
1053.05664753582
 31
0.0
  0
ARC
  5
20B
330
20
100
AcDbEntity
  8
STEMPEL
100
AcDbCircle
 10
716.2847309217648
 20
1035.378978006156
 30
0.0
 40
24.99990931069965
100
AcDbArc
 50
135.0
 51
161.8877706590199
  0
ARC
  5
20C
330
20
100
AcDbEntity
  8
STEMPEL
100
AcDbCircle
 10
681.1181893730138
 20
1046.881484015717
 30
0.0
 40
12.0
100
AcDbArc
 50
314.9999999999999
 51
341.8877706590201
  0
ARC
  5
20D
330
20
100
AcDbEntity
  8
STEMPEL
100
AcDbCircle
 10
729.1273800241758
 20
1048.221627108567
 30
0.0
 40
25.0
100
AcDbArc
 50
110.0000000000066
 51
135.0
  0
LINE
  5
20E
330
20
100
AcDbEntity
  8
STEMPEL
100
AcDbLine
 10
722.6912910079733
 20
1072.48352659348
 30
0.0
 11
720.5768764410338
 21
1071.713942628215
 31
0.0
  0
LINE
  5
20F
330
20
100
AcDbEntity
  8
STEMPEL
100
AcDbLine
 10
801.4725406297737
 20
993.7022769716801
 30
0.0
 11
800.7029566645089
 21
991.5878624047403
 31
0.0
  0
ARC
  5
210
330
20
100
AcDbEntity
  8
STEMPEL
100
AcDbCircle
 10
777.210641144861
 20
1000.138365987882
 30
0.0
 40
25.0
100
AcDbArc
 50
315.0
 51
339.9999999999902
  0
LINE
  5
211
330
20
100
AcDbEntity
  8
MITTEL
100
AcDbLine
 10
651.8016491847686
 20
932.8126351484749
 30
0.0
 11
651.8016491847686
 21
912.812635148475
 31
0.0
  0
POINT
  5
21F
330
20
100
AcDbEntity
  8
BEM
100
AcDbPoint
 10
651.8016491847686
 20
1096.312635148475
 30
0.0
  0
POINT
  5
220
330
20
100
AcDbEntity
  8
BEM
100
AcDbPoint
 10
801.4725406297737
 20
993.7022769716801
 30
0.0
  0
TEXT
  5
223
330
20
100
AcDbEntity
  8
TEXT
 62
     1
100
AcDbText
 10
503.8171865492683
 20
935.0829264664231
 30
0.0
 40
17.5
  1
DN250
 50
90.0
 41
0.8
  7
GREEKS
100
AcDbText
  0
TEXT
  5
224
330
20
100
AcDbEntity
  8
TEXT
 62
     1
100
AcDbText
 10
682.7702719594707
 20
914.8757504090852
 30
0.0
 40
17.5
  1
DN100
 50
45.0
 41
0.8
  7
GREEKS
100
AcDbText
  0
TEXT
  5
227
330
20
100
AcDbEntity
  8
TEXT
100
AcDbText
 10
481.7206788119809
 20
224.0997539220646
 30
0.0
 40
10.0
  1
DIN EN1123-2
 41
0.8
  7
GREEKS
 72
     1
 11
524.1968692881714
 21
224.0997539220646
 31
0.0
100
AcDbText
  0
TEXT
  5
22E
330
20
100
AcDbEntity
  8
BEM
100
AcDbText
 10
1043.255730964291
 20
25.41975269997124
 30
0.0
 40
10.0
  1
Diese Zeichnung ist urheberrechtlich geschützt und bleibt unser Eigentum. Sie darf weder ganz noch teilweise verfielfältigt und nicht an Dritte weitergegeben werden.
 50
90.0
 41
0.8
  7
GREEKS
100
AcDbText
  0
ENDSEC
  0
SECTION
  2
OBJECTS
  0
DICTIONARY
  5
C
330
0
100
AcDbDictionary
281
     1
  3
ACAD_COLOR
350
1B
  3
ACAD_GROUP
350
D
  3
ACAD_LAYOUT
350
19
  3
ACAD_MATERIAL
350
1A
  3
ACAD_MLINESTYLE
350
16
  3
ACAD_PLOTSETTINGS
350
18
  3
ACAD_PLOTSTYLENAME
350
E
  3
AcDbVariableDictionary
350
243
  0
DICTIONARY
  5
1B
102
{ACAD_REACTORS
330
C
102
}
330
C
100
AcDbDictionary
281
     1
  0
DICTIONARY
  5
D
102
{ACAD_REACTORS
330
C
102
}
330
C
100
AcDbDictionary
281
     1
  0
DICTIONARY
  5
19
102
{ACAD_REACTORS
330
C
102
}
330
C
100
AcDbDictionary
281
     1
  3
Layout1
350
1F
  3
Model
350
23
  0
DICTIONARY
  5
1A
102
{ACAD_REACTORS
330
C
102
}
330
C
100
AcDbDictionary
281
     1
  0
DICTIONARY
  5
16
102
{ACAD_REACTORS
330
C
102
}
330
C
100
AcDbDictionary
281
     1
  3
Standard
350
17
  0
DICTIONARY
  5
18
102
{ACAD_REACTORS
330
C
102
}
330
C
100
AcDbDictionary
281
     1
  0
ACDBDICTIONARYWDFLT
  5
E
102
{ACAD_REACTORS
330
C
102
}
330
C
100
AcDbDictionary
281
     1
  3
Normal
350
F
100
AcDbDictionaryWithDefault
340
F
  0
DICTIONARY
  5
243
102
{ACAD_REACTORS
330
C
102
}
330
C
100
AcDbDictionary
281
     1
  3
DIMASSOC
350
245
  3
HIDETEXT
350
244
  3
PROJECTNAME
350
246
  0
LAYOUT
  5
1F
102
{ACAD_REACTORS
330
19
102
}
330
19
100
AcDbPlotSettings
  1

  2
RICOH Aficio 2027 PCL 6
  4

  6

 40
0.0
 41
0.0
 42
0.0
 43
0.0
 44
0.0
 45
0.0
 46
0.0
 47
0.0
 48
0.0
 49
0.0
140
0.0
141
0.0
142
1.0
143
1.0
 70
   688
 72
     0
 73
     0
 74
     5
  7
monochrome1.ctb
 75
    16
147
1.0
 76
     0
 77
     2
 78
   300
148
0.0
149
0.0
100
AcDbLayout
  1
Layout1
 70
     0
 71
     1
 10
0.0
 20
0.0
 11
12.0
 21
9.0
 12
5.612851412409735
 22
50.00000000000001
 32
-2.58105543498411
 14
1.000000000000000E+20
 24
1.000000000000000E+20
 34
1.000000000000000E+20
 15
-1.000000000000000E+20
 25
-1.000000000000000E+20
 35
-1.000000000000000E+20
146
0.0
 13
0.0
 23
0.0
 33
0.0
 16
1.0
 26
0.0
 36
0.0
 17
0.0
 27
1.0
 37
0.0
 76
     0
330
1C
  0
LAYOUT
  5
23
102
{ACAD_REACTORS
330
19
102
}
330
19
100
AcDbPlotSettings
  1

  2
RICOH Aficio 2027 PCL 6
  4
A4
  6

 40
5.027083396911621
 41
5.027085304260253
 42
5.027084350585937
 43
5.027069091796875
 44
209.9733276367187
 45
296.9259948730469
 46
0.0
 47
0.0
 48
0.0
 49
0.0
140
0.0
141
0.0
142
1.0
143
1.0
 70
 11952
 72
     0
 73
     1
 74
     0
  7
monochrome1.ctb
 75
     0
147
1.0
 76
     0
 77
     2
 78
   300
148
5759.88855848783
149
235.3885327623463
100
AcDbLayout
  1
Model
 70
     1
 71
     0
 10
0.0
 20
0.0
 11
12.0
 21
9.0
 12
0.0
 22
0.0
 32
0.0
 14
0.0
 24
0.0
 34
0.0
 15
0.0
 25
0.0
 35
0.0
146
0.0
 13
0.0
 23
0.0
 33
0.0
 16
1.0
 26
0.0
 36
0.0
 17
0.0
 27
1.0
 37
0.0
 76
     0
330
20
  0
MLINESTYLE
  5
17
102
{ACAD_REACTORS
330
16
102
}
330
16
100
AcDbMlineStyle
  2
STANDARD
 70
     0
  3

 62
   256
 51
90.0
 52
90.0
 71
     2
 49
0.5
 62
   256
  6
BYLAYER
 49
-0.5
 62
   256
  6
BYLAYER
  0
ACDBPLACEHOLDER
  5
F
102
{ACAD_REACTORS
330
E
102
}
330
E
  0
DICTIONARYVAR
  5
245
102
{ACAD_REACTORS
330
243
102
}
330
243
100
DictionaryVariables
280
     0
  1
2
  0
DICTIONARYVAR
  5
244
102
{ACAD_REACTORS
330
243
102
}
330
243
100
DictionaryVariables
280
     0
  1
1
  0
DICTIONARYVAR
  5
246
102
{ACAD_REACTORS
330
243
102
}
330
243
100
DictionaryVariables
280
     0
  1

  0
ENDSEC
  0
EOF
