  0
SECTION
  2
HEADER
  9
$ACADVER
  1
AC1018
  9
$ACADMAINTVER
 70
     2
  9
$DWGCODEPAGE
  3
ANSI_1252
  9
$LASTSAVEDBY
  1
Bohnsack
  9
$INSBASE
 10
0.0
 20
0.0
 30
0.0
  9
$EXTMIN
 10
-0.0256200963688116
 20
-0.0181170681471485
 30
-0.0000000000000053
  9
$EXTMAX
 10
840.0256425892127
 20
594.0181329738
 30
0.0000000000000099
  9
$LIMMIN
 10
0.0
 20
0.0
  9
$LIMMAX
 10
839.9999999999998
 20
594.0000000000001
  9
$ORTHOMODE
 70
     1
  9
$REGENMODE
 70
     1
  9
$FILLMODE
 70
     1
  9
$QTEXTMODE
 70
     0
  9
$MIRRTEXT
 70
     1
  9
$LTSCALE
 40
20.0
  9
$ATTMODE
 70
     1
  9
$TEXTSIZE
 40
2.5
  9
$TRACEWID
 40
0.5
  9
$TEXTSTYLE
  7
GREEKS
  9
$CLAYER
  8
BEM
  9
$CELTYPE
  6
ByLayer
  9
$CECOLOR
 62
   256
  9
$CELTSCALE
 40
1.0
  9
$DISPSILH
 70
     0
  9
$DIMSCALE
 40
2.0
  9
$DIMASZ
 40
3.5
  9
$DIMEXO
 40
1.0
  9
$DIMDLI
 40
7.0
  9
$DIMRND
 40
0.0
  9
$DIMDLE
 40
0.0
  9
$DIMEXE
 40
1.0
  9
$DIMTP
 40
0.0
  9
$DIMTM
 40
0.0
  9
$DIMTXT
 40
3.5
  9
$DIMCEN
 40
0.09
  9
$DIMTSZ
 40
0.0
  9
$DIMTOL
 70
     0
  9
$DIMLIM
 70
     0
  9
$DIMTIH
 70
     0
  9
$DIMTOH
 70
     0
  9
$DIMSE1
 70
     0
  9
$DIMSE2
 70
     0
  9
$DIMTAD
 70
     1
  9
$DIMZIN
 70
     8
  9
$DIMBLK
  1

  9
$DIMASO
 70
     1
  9
$DIMSHO
 70
     0
  9
$DIMPOST
  1

  9
$DIMAPOST
  1

  9
$DIMALT
 70
     0
  9
$DIMALTD
 70
     2
  9
$DIMALTF
 40
25.4
  9
$DIMLFAC
 40
1.0
  9
$DIMTOFL
 70
     1
  9
$DIMTVP
 40
0.0
  9
$DIMTIX
 70
     0
  9
$DIMSOXD
 70
     0
  9
$DIMSAH
 70
     0
  9
$DIMBLK1
  1

  9
$DIMBLK2
  1

  9
$DIMSTYLE
  2
STANDARD
  9
$DIMCLRD
 70
     0
  9
$DIMCLRE
 70
     0
  9
$DIMCLRT
 70
     1
  9
$DIMTFAC
 40
1.0
  9
$DIMGAP
 40
1.5
  9
$DIMJUST
 70
     0
  9
$DIMSD1
 70
     0
  9
$DIMSD2
 70
     0
  9
$DIMTOLJ
 70
     1
  9
$DIMTZIN
 70
     8
  9
$DIMALTZ
 70
     8
  9
$DIMALTTZ
 70
     8
  9
$DIMUPT
 70
     0
  9
$DIMDEC
 70
     2
  9
$DIMTDEC
 70
     2
  9
$DIMALTU
 70
     2
  9
$DIMALTTD
 70
     2
  9
$DIMTXSTY
  7
GREEKS
  9
$DIMAUNIT
 70
     0
  9
$DIMADEC
 70
     2
  9
$DIMALTRND
 40
0.0
  9
$DIMAZIN
 70
     2
  9
$DIMDSEP
 70
    46
  9
$DIMATFIT
 70
     3
  9
$DIMFRAC
 70
     0
  9
$DIMLDRBLK
  1

  9
$DIMLUNIT
 70
     2
  9
$DIMLWD
 70
    -2
  9
$DIMLWE
 70
    -2
  9
$DIMTMOVE
 70
     0
  9
$LUNITS
 70
     2
  9
$LUPREC
 70
     2
  9
$SKETCHINC
 40
1.0
  9
$FILLETRAD
 40
0.0
  9
$AUNITS
 70
     0
  9
$AUPREC
 70
     0
  9
$MENU
  1
ACAD
  9
$ELEVATION
 40
0.0
  9
$PELEVATION
 40
0.0
  9
$THICKNESS
 40
0.0
  9
$LIMCHECK
 70
     0
  9
$CHAMFERA
 40
0.0
  9
$CHAMFERB
 40
0.0
  9
$CHAMFERC
 40
0.0
  9
$CHAMFERD
 40
0.0
  9
$SKPOLY
 70
     0
  9
$TDCREATE
 40
2452806.198645533
  9
$TDUCREATE
 40
2452806.156978866
  9
$TDUPDATE
 40
2455544.307880347
  9
$TDUUPDATE
 40
2455544.266213681
  9
$TDINDWG
 40
0.4382126968
  9
$TDUSRTIMER
 40
0.4382126968
  9
$USRTIMER
 70
     1
  9
$ANGBASE
 50
0.0
  9
$ANGDIR
 70
     0
  9
$PDMODE
 70
     0
  9
$PDSIZE
 40
0.0
  9
$PLINEWID
 40
0.0
  9
$SPLFRAME
 70
     0
  9
$SPLINETYPE
 70
     6
  9
$SPLINESEGS
 70
     8
  9
$HANDSEED
  5
22FF
  9
$SURFTAB1
 70
     6
  9
$SURFTAB2
 70
     6
  9
$SURFTYPE
 70
     6
  9
$SURFU
 70
     6
  9
$SURFV
 70
     6
  9
$UCSBASE
  2

  9
$UCSNAME
  2

  9
$UCSORG
 10
0.0
 20
0.0
 30
0.0
  9
$UCSXDIR
 10
1.0
 20
0.0
 30
0.0
  9
$UCSYDIR
 10
0.0
 20
1.0
 30
0.0
  9
$UCSORTHOREF
  2

  9
$UCSORTHOVIEW
 70
     0
  9
$UCSORGTOP
 10
0.0
 20
0.0
 30
0.0
  9
$UCSORGBOTTOM
 10
0.0
 20
0.0
 30
0.0
  9
$UCSORGLEFT
 10
0.0
 20
0.0
 30
0.0
  9
$UCSORGRIGHT
 10
0.0
 20
0.0
 30
0.0
  9
$UCSORGFRONT
 10
0.0
 20
0.0
 30
0.0
  9
$UCSORGBACK
 10
0.0
 20
0.0
 30
0.0
  9
$PUCSBASE
  2

  9
$PUCSNAME
  2

  9
$PUCSORG
 10
0.0
 20
0.0
 30
0.0
  9
$PUCSXDIR
 10
1.0
 20
0.0
 30
0.0
  9
$PUCSYDIR
 10
0.0
 20
1.0
 30
0.0
  9
$PUCSORTHOREF
  2

  9
$PUCSORTHOVIEW
 70
     0
  9
$PUCSORGTOP
 10
0.0
 20
0.0
 30
0.0
  9
$PUCSORGBOTTOM
 10
0.0
 20
0.0
 30
0.0
  9
$PUCSORGLEFT
 10
0.0
 20
0.0
 30
0.0
  9
$PUCSORGRIGHT
 10
0.0
 20
0.0
 30
0.0
  9
$PUCSORGFRONT
 10
0.0
 20
0.0
 30
0.0
  9
$PUCSORGBACK
 10
0.0
 20
0.0
 30
0.0
  9
$USERI1
 70
     0
  9
$USERI2
 70
     0
  9
$USERI3
 70
     0
  9
$USERI4
 70
     0
  9
$USERI5
 70
     0
  9
$USERR1
 40
0.0
  9
$USERR2
 40
0.0
  9
$USERR3
 40
0.0
  9
$USERR4
 40
0.0
  9
$USERR5
 40
0.0
  9
$WORLDVIEW
 70
     1
  9
$SHADEDGE
 70
     3
  9
$SHADEDIF
 70
    70
  9
$TILEMODE
 70
     1
  9
$MAXACTVP
 70
    16
  9
$PINSBASE
 10
0.0
 20
0.0
 30
0.0
  9
$PLIMCHECK
 70
     0
  9
$PEXTMIN
 10
1.000000000000000E+20
 20
1.000000000000000E+20
 30
1.000000000000000E+20
  9
$PEXTMAX
 10
-1.000000000000000E+20
 20
-1.000000000000000E+20
 30
-1.000000000000000E+20
  9
$PLIMMIN
 10
0.0
 20
0.0
  9
$PLIMMAX
 10
12.0
 20
9.0
  9
$UNITMODE
 70
     0
  9
$VISRETAIN
 70
     0
  9
$PLINEGEN
 70
     0
  9
$PSLTSCALE
 70
     0
  9
$TREEDEPTH
 70
  3020
  9
$CMLSTYLE
  2
Standard
  9
$CMLJUST
 70
     0
  9
$CMLSCALE
 40
1.0
  9
$PROXYGRAPHICS
 70
     1
  9
$MEASUREMENT
 70
     0
  9
$CELWEIGHT
370
    -1
  9
$ENDCAPS
280
     0
  9
$JOINSTYLE
280
     0
  9
$LWDISPLAY
290
     0
  9
$INSUNITS
 70
     0
  9
$HYPERLINKBASE
  1

  9
$STYLESHEET
  1
monochrome 1.ctb
  9
$XEDIT
290
     1
  9
$CEPSNTYPE
380
     0
  9
$PSTYLEMODE
290
     1
  9
$FINGERPRINTGUID
  2
{0DDA2124-A79B-11D7-B636-000102183313}
  9
$VERSIONGUID
  2
{8AF1BE9A-AC47-4F9D-A121-D2E54B20D560}
  9
$EXTNAMES
290
     1
  9
$PSVPSCALE
 40
0.0
  9
$OLESTARTUP
290
     0
  9
$SORTENTS
280
    96
  9
$INDEXCTL
280
     0
  9
$HIDETEXT
280
     0
  9
$XCLIPFRAME
290
     0
  9
$HALOGAP
280
     0
  9
$OBSCOLOR
 70
   257
  9
$OBSLTYPE
280
     0
  9
$INTERSECTIONDISPLAY
280
     0
  9
$INTERSECTIONCOLOR
 70
   257
  9
$DIMASSOC
280
     1
  9
$PROJECTNAME
  1

  0
ENDSEC
  0
SECTION
  2
CLASSES
  0
CLASS
  1
ACDBDICTIONARYWDFLT
  2
AcDbDictionaryWithDefault
  3
ObjectDBX Classes
 90
        0
 91
        1
280
     0
281
     0
  0
CLASS
  1
ACDBPLACEHOLDER
  2
AcDbPlaceHolder
  3
ObjectDBX Classes
 90
        0
 91
        1
280
     0
281
     0
  0
CLASS
  1
LAYOUT
  2
AcDbLayout
  3
ObjectDBX Classes
 90
        0
 91
        2
280
     0
281
     0
  0
CLASS
  1
LONG_TRANSACTION
  2
AcDbLongTransaction
  3
ObjectDBX Classes
 90
        0
 91
        0
280
     0
281
     0
  0
CLASS
  1
LWPOLYLINE
  2
AcDbPolyline
  3
ObjectDBX Classes
 90
        0
 91
        0
280
     0
281
     1
  0
CLASS
  1
HATCH
  2
AcDbHatch
  3
ObjectDBX Classes
 90
        0
 91
       13
280
     0
281
     1
  0
CLASS
  1
XRECORD
  2
AcDbXrecord
  3
ObjectDBX Classes
 90
        0
 91
       61
280
     0
281
     0
  0
CLASS
  1
DICTIONARYVAR
  2
AcDbDictionaryVar
  3
ObjectDBX Classes
 90
        0
 91
       10
280
     0
281
     0
  0
CLASS
  1
LONG_TRANSACTION
  2
AcDbLongTransaction
  3
ObjectDBX Classes
 90
        0
 91
        0
280
     0
281
     0
  0
CLASS
  1
LWPOLYLINE
  2
AcDbPolyline
  3
ObjectDBX Classes
 90
        0
 91
        0
280
     0
281
     1
  0
CLASS
  1
HATCH
  2
AcDbHatch
  3
ObjectDBX Classes
 90
        0
 91
       13
280
     0
281
     1
  0
CLASS
  1
XRECORD
  2
AcDbXrecord
  3
ObjectDBX Classes
 90
        0
 91
       61
280
     0
281
     0
  0
CLASS
  1
LONG_TRANSACTION
  2
AcDbLongTransaction
  3
ObjectDBX Classes
 90
        0
 91
        0
280
     0
281
     0
  0
CLASS
  1
LWPOLYLINE
  2
AcDbPolyline
  3
ObjectDBX Classes
 90
        0
 91
        0
280
     0
281
     1
  0
CLASS
  1
HATCH
  2
AcDbHatch
  3
ObjectDBX Classes
 90
        0
 91
       13
280
     0
281
     1
  0
CLASS
  1
XRECORD
  2
AcDbXrecord
  3
ObjectDBX Classes
 90
        0
 91
       61
280
     0
281
     0
  0
CLASS
  1
LONG_TRANSACTION
  2
AcDbLongTransaction
  3
ObjectDBX Classes
 90
        0
 91
        0
280
     0
281
     0
  0
CLASS
  1
LWPOLYLINE
  2
AcDbPolyline
  3
ObjectDBX Classes
 90
        0
 91
        0
280
     0
281
     1
  0
CLASS
  1
HATCH
  2
AcDbHatch
  3
ObjectDBX Classes
 90
        0
 91
       13
280
     0
281
     1
  0
CLASS
  1
XRECORD
  2
AcDbXrecord
  3
ObjectDBX Classes
 90
        0
 91
       61
280
     0
281
     0
  0
CLASS
  1
MATERIAL
  2
AcDbMaterial
  3
ObjectDBX Classes
 90
        0
 91
        3
280
     0
281
     0
  0
CLASS
  1
VISUALSTYLE
  2
AcDbVisualStyle
  3
ObjectDBX Classes
 90
     4095
 91
       19
280
     0
281
     0
  0
CLASS
  1
TABLESTYLE
  2
AcDbTableStyle
  3
ObjectDBX Classes
 90
     4095
 91
        1
280
     0
281
     0
  0
CLASS
  1
SCALE
  2
AcDbScale
  3
ObjectDBX Classes
 90
     1153
 91
       33
280
     0
281
     0
  0
CLASS
  1
MLEADERSTYLE
  2
AcDbMLeaderStyle
  3
ACDB_MLEADERSTYLE_CLASS
 90
     4095
 91
        1
280
     0
281
     0
  0
CLASS
  1
ACME_DOCUMENT
  2
AcMeDbDoc
  3
AcMeServices
 90
     1024
 91
        0
280
     0
281
     0
  0
CLASS
  1
AMGSETTINGSOBJ
  2
AmgSettingsObj
  3
"AcadM|Product Description: AutoCAD Mechanical|Company: Autodesk, Inc."
 90
     1024
 91
        0
280
     0
281
     0
  0
CLASS
  1
ACMESCOPE
  2
AcMeScope
  3
AcMeServices
 90
     1024
 91
        0
280
     0
281
     0
  0
CLASS
  1
ACMECOMMANDHISTORY
  2
AcMeCommandHistory
  3
AcMeServices
 90
     1024
 91
        0
280
     0
281
     0
  0
CLASS
  1
ACIMSYSVARMAN
  2
AcImSysVarManager
  3
AcMeServices
 90
     1024
 91
        0
280
     0
281
     0
  0
CLASS
  1
ACIMINTSYSVAR
  2
AcImIntSysVar
  3
AcMeServices
 90
     1024
 91
        0
280
     0
281
     0
  0
CLASS
  1
ACMEDRAWINGMAN
  2
AcMeDrawingMan
  3
AcMeServices
 90
     1024
 91
        0
280
     0
281
     0
  0
CLASS
  1
ACMEVIEW
  2
AcMeView
  3
AcMeServices
 90
     1024
 91
        0
280
     0
281
     0
  0
CLASS
  1
ACDBENTITYCACHE
  2
AcMeEntityCache
  3
AcMeServices
 90
     1024
 91
        0
280
     0
281
     0
  0
CLASS
  1
GSMANAGER
  2
AcMeGSManager
  3
AcMeServices
 90
     1024
 91
        0
280
     0
281
     0
  0
CLASS
  1
AMDTINTERNALREACTOR
  2
AmdtInternalReactor
  3
AcMeServices
 90
     1024
 91
        0
280
     0
281
     0
  0
CLASS
  1
ACMESTATEMGR
  2
AcMeStateMgr
  3
AcMeServices
 90
     1024
 91
        0
280
     0
281
     0
  0
CLASS
  1
ACGREFMASTER
  2
AcGrefMaster
  3
AcAttribServices
 90
     1024
 91
        0
280
     0
281
     0
  0
CLASS
  1
AM_DRAWING_MGR
  2
AcDmDwgMgr
  3
AcMechDwgViewMgmt
 90
     1024
 91
        0
280
     0
281
     0
  0
CLASS
  1
AM_DWG_DOCUMENT
  2
AcDmDwgDocument
  3
AcMechDwgViewMgmt
 90
     1024
 91
        0
280
     0
281
     0
  0
CLASS
  1
AM_DWG_SHEET
  2
AcDmSheet
  3
AcMechDwgViewMgmt
 90
     1024
 91
        0
280
     0
281
     0
  0
CLASS
  1
AM_VIEWDIMPARMAP
  2
AcDmViewDimParMap
  3
AcMechDwgViewMgmt
 90
     1024
 91
        0
280
     0
281
     0
  0
CLASS
  1
ACIMREALSYSVAR
  2
AcImRealSysVar
  3
AcMeServices
 90
     1024
 91
        0
280
     0
281
     0
  0
CLASS
  1
AM_DWGMGR_NAME
  2
AcDmDwgMgrName
  3
AcMechDwgViewMgmt
 90
     1024
 91
        0
280
     0
281
     0
  0
CLASS
  1
ACME_DATABASE
  2
AcMeDbDatabase
  3
AcMeServices
 90
     1024
 91
        0
280
     0
281
     0
  0
CLASS
  1
ACRFINSADJUSTERMGR
  2
AcRfInsAdjusterMgr
  3
AcMeServices
 90
     1024
 91
        0
280
     0
281
     0
  0
CLASS
  1
ACGREFACADMASTER
  2
AcGrefacadMaster
  3
AcGrefServices
 90
     1024
 91
        0
280
     0
281
     0
  0
CLASS
  1
AMDTMENUSTATEMGR
  2
AmdtMenuStateMgr
  3
McadcomServices
 90
     1024
 91
        0
280
     0
281
     0
  0
CLASS
  1
AMDTMCOMMENUSTATE
  2
AmdtMcomMenuState
  3
McadcomServices
 90
     1024
 91
        0
280
     0
281
     0
  0
CLASS
  1
AMIMASTER
  2
AmiMaster
  3
AmiServices
 90
     1024
 91
        0
280
     0
281
     0
  0
CLASS
  1
MAPIAMMOUDLE
  2
MApiAmModule
  3
MApiAmServices
 90
     1024
 91
        0
280
     0
281
     0
  0
CLASS
  1
ACIMSTRSYSVAR
  2
AcImStrSysVar
  3
AcMeServices
 90
     1024
 91
        0
280
     0
281
     0
  0
CLASS
  1
AMDTADMENUSTATE
  2
AmdtAdMenuState
  3
DesignerServices
 90
     1024
 91
        0
280
     0
281
     0
  0
CLASS
  1
ADAPPL
  2
AcAdAppl
  3
DesignerServices
 90
     1024
 91
        0
280
     0
281
     0
  0
CLASS
  1
DEPMGR
  2
AcAdDepMgr
  3
DesignerServices
 90
     1024
 91
        0
280
     0
281
     0
  0
CLASS
  1
PARAMMGR
  2
AcAdParamMgr
  3
DesignerServices
 90
     1024
 91
        0
280
     0
281
     0
  0
CLASS
  1
PARAMSCOPE
  2
AcAdParamScope
  3
DesignerServices
 90
     1024
 91
        0
280
     0
281
     0
  0
CLASS
  1
NAMEDAPPL
  2
AcAdNamedAppl
  3
DesignerServices
 90
     1024
 91
        0
280
     0
281
     0
  0
CLASS
  1
AMDTDMMENUSTATE
  2
AmdtDmMenuState
  3
AcMechDwgViewMgmt
 90
     1024
 91
        0
280
     0
281
     0
  0
CLASS
  1
AMDTAMMENUSTATE
  2
AmdtAmMenuState
  3
DesignerAssemblies
 90
     1024
 91
        0
280
     0
281
     0
  0
CLASS
  1
ACAMPROJECT
  2
AcAmProject
  3
DesignerAssemblies
 90
     1024
 91
        0
280
     0
281
     0
  0
CLASS
  1
ACAMGRCOMPDEF
  2
AcAmGrCompDef
  3
DesignerAssemblies
 90
     1024
 91
        0
280
     0
281
     0
  0
CLASS
  1
ACCMCONTEXT
  2
AcCmContext
  3
DesignerAssemblies
 90
     1024
 91
        0
280
     0
281
     0
  0
CLASS
  1
ACAMCOMPDEF
  2
AcAmCompDef
  3
DesignerAssemblies
 90
     1024
 91
        0
280
     0
281
     0
  0
CLASS
  1
ACAMCOMPDEFMGR
  2
AcAmCompDefMgr
  3
DesignerAssemblies
 90
     1024
 91
        0
280
     0
281
     0
  0
CLASS
  1
AMCONTEXTMGR
  2
AcAmContextMgr
  3
DesignerAssemblies
 90
     1024
 91
        0
280
     0
281
     0
  0
CLASS
  1
ACAMCONTEXTMODELER
  2
AcAmContextModeler
  3
DesignerAssemblies
 90
     1024
 91
        0
280
     0
281
     0
  0
CLASS
  1
ACMDATADICTIONARY
  2
AcmDataDictionary
  3
"AcmSymBB|Product Description: AutoCAD Mechanical|Company: Autodesk, Inc."
 90
     1024
 91
        0
280
     0
281
     0
  0
CLASS
  1
CATALOGSTATE
  2
AcAmCatalogState
  3
DesignerAssemblies
 90
     1024
 91
        0
280
     0
281
     0
  0
CLASS
  1
ACAMGRCOMPDEFSET
  2
AcAmGrCompDefSet
  3
DesignerAssemblies
 90
     1024
 91
        0
280
     0
281
     0
  0
CLASS
  1
AMDTBROWSERDBTAB
  2
AmdtBrowserDbTab
  3
McadcomServices
 90
     1024
 91
        0
280
     0
281
     0
  0
CLASS
  1
CBROWSERAPPOBJECT
  2
CBrowserAppObject
  3
McadcomServices
 90
     1024
 91
        0
280
     0
281
     0
  0
CLASS
  1
DM_PLACEHOLDER
  2
AcDmSelsetPlaceholder
  3
AcMechDwgViewMgmt
 90
     1024
 91
        0
280
     0
281
     0
  0
CLASS
  1
EXACXREFPANELOBJECT
  2
ExAcXREFPanelObject
  3
EXAC_ESW
 90
     1025
 91
        0
280
     0
281
     0
  0
CLASS
  1
NPOCOLLECTION
  2
AcDbImpNonPersistentObjectsCollection
  3
ObjectDBX Classes
 90
     1153
 91
        0
280
     0
281
     0
  0
CLASS
  1
ACMSTANDARDANSI
  2
AcmStandardANSI
  3
"Amdt_StdImp|Product Description: AutoCAD Mechanical|Company: Autodesk, Inc."
 90
     1024
 91
        0
280
     0
281
     0
  0
CLASS
  1
ACMSURFSTANDARDANSI
  2
AcmSurfTextStdANSI
  3
"Amdt_StdImp|Product Description: AutoCAD Mechanical|Company: Autodesk, Inc."
 90
     1024
 91
        0
280
     0
281
     0
  0
CLASS
  1
ACMFCFSTANDARDANSI
  2
AcmFCFStdANSI
  3
"Amdt_StdImp|Product Description: AutoCAD Mechanical|Company: Autodesk, Inc."
 90
     1024
 91
        0
280
     0
281
     0
  0
CLASS
  1
ACMWELDSTANDARDANSI
  2
AcmWeldingStdANSI
  3
"Amdt_StdImp|Product Description: AutoCAD Mechanical|Company: Autodesk, Inc."
 90
     1024
 91
        0
280
     0
281
     0
  0
CLASS
  1
ACMIDSTANDARDANSI
  2
AcmIdStdANSI
  3
"Amdt_StdImp|Product Description: AutoCAD Mechanical|Company: Autodesk, Inc."
 90
     1024
 91
        0
280
     0
281
     0
  0
CLASS
  1
ACMDATUMSTANDARDANSI
  2
AcmDatumStdANSI
  3
"Amdt_StdImp|Product Description: AutoCAD Mechanical|Company: Autodesk, Inc."
 90
     1024
 91
        0
280
     0
281
     0
  0
CLASS
  1
ACMBOMSTANDARDANSI
  2
AcmBOMStdANSI
  3
"Amdt_StdImp|Product Description: AutoCAD Mechanical|Company: Autodesk, Inc."
 90
     1024
 91
        0
280
     0
281
     0
  0
CLASS
  1
ACMDETAILSTANDARDANSI
  2
AmdtDetailSymStdANSI
  3
"Amdt_StdImp|Product Description: AutoCAD Mechanical|Company: Autodesk, Inc."
 90
     1024
 91
        0
280
     0
281
     0
  0
CLASS
  1
ACMSECTIONSTANDARDANSI
  2
AmdtSectionSymStdANSI
  3
"Amdt_StdImp|Product Description: AutoCAD Mechanical|Company: Autodesk, Inc."
 90
     1024
 91
        0
280
     0
281
     0
  0
CLASS
  1
ACMCENTERLINESTANDARDANSI
  2
AmdtCenterLineStdANSI
  3
"Amdt_StdImp|Product Description: AutoCAD Mechanical|Company: Autodesk, Inc."
 90
     1024
 91
        0
280
     0
281
     0
  0
CLASS
  1
ACMTHREADLINESTANDARDANSI
  2
AmdtThreadLineStdANSI
  3
"Amdt_StdImp|Product Description: AutoCAD Mechanical|Company: Autodesk, Inc."
 90
     1024
 91
        0
280
     0
281
     0
  0
CLASS
  1
ACMNOTESTANDARDANSI
  2
AmdtNoteStdANSI
  3
"Amdt_StdImp|Product Description: AutoCAD Mechanical|Company: Autodesk, Inc."
 90
     1024
 91
        0
280
     0
281
     0
  0
CLASS
  1
ACMTAPERSTANDARDANSI
  2
AcmTaperStdANSI
  3
"Amdt_StdImp|Product Description: AutoCAD Mechanical|Company: Autodesk, Inc."
 90
     1024
 91
        0
280
     0
281
     0
  0
CLASS
  1
ACMANOOTATIONVIEWSTANDARDANSI
  2
AmdtAnViewStdANSI
  3
"Amdt_StdImp|Product Description: AutoCAD Mechanical|Company: Autodesk, Inc."
 90
     1024
 91
        0
280
     0
281
     0
  0
CLASS
  1
ACAMGLAYSTD
  2
AcAmgLayStd
  3
"AmgLay|Product Description: AutoCAD Mechanical|Company: Autodesk, Inc."
 90
     1024
 91
        0
280
     0
281
     0
  0
CLASS
  1
ACAMGDIMSTD
  2
AcAmgDimStd
  3
"AmgDim|Product Description: AutoCAD Mechanical|Company: Autodesk, Inc."
 90
     1024
 91
        0
280
     0
281
     0
  0
CLASS
  1
AMGOBJPROPCFG
  2
AmgObjPropCfg
  3
"AmgLay|Product Description: AutoCAD Mechanical|Company: Autodesk, Inc."
 90
     1025
 91
        0
280
     0
281
     0
  0
CLASS
  1
ACAMGHOLECHARTSTDANSI
  2
AcAmgHoleChartStdANSI
  3
AmgDim|Product Description: AutoCAD Mechanical|Company: Autodesk, Inc.
 90
     1024
 91
        0
280
     0
281
     0
  0
CLASS
  1
ACAMGTITLESTD
  2
AcAmgTitleStd
  3
"AmgTitle|Product Description: AutoCAD Mechanical|Company: Autodesk, Inc."
 90
     4095
 91
        0
280
     0
281
     0
  0
CLASS
  1
AMDTNOTETEMPLATEDB
  2
AmdtNoteTemplateDB
  3
AcmSymBB|Product Description: AutoCAD Mechanical|Company: Autodesk, Inc.
 90
     1024
 91
        0
280
     0
281
     0
  0
CLASS
  1
ACAMGFILTERDAT
  2
AcAmgFilterDat
  3
"AcadM|Product Description: AutoCAD Mechanical|Company: Autodesk, Inc."
 90
     1024
 91
        0
280
     0
281
     0
  0
CLASS
  1
CAMSSTRUCTBTNSTATE
  2
StructBtnState
  3
DesignerAssemblies
 90
     1024
 91
        0
280
     0
281
     0
  0
CLASS
  1
CELLSTYLEMAP
  2
AcDbCellStyleMap
  3
ObjectDBX Classes
 90
     1152
 91
        1
280
     0
281
     0
  0
CLASS
  1
SORTENTSTABLE
  2
AcDbSortentsTable
  3
ObjectDBX Classes
 90
        0
 91
        1
280
     0
281
     0
  0
CLASS
  1
AEC_REFEDIT_STATUS_TRACKER
  2
AecDbRefEditStatusTracker
  3
AecArchBase60|Product Desc: Autodesk Architectural Desktop 2007 |Company: Autodesk,Inc. |WEB Address: www.autodesk.com
 90
      129
 91
        0
280
     0
281
     0
  0
ENDSEC
  0
SECTION
  2
TABLES
  0
TABLE
  2
VPORT
  5
C8F
102
{ACAD_XDICTIONARY
360
187E
102
}
330
0
100
AcDbSymbolTable
 70
     2
  0
VPORT
  5
22FE
330
C8F
100
AcDbSymbolTableRecord
100
AcDbViewportTableRecord
  2
*Active
 70
     0
 10
0.0
 20
0.0
 11
1.0
 21
1.0
 12
419.9999999999999
 22
297.0
 13
0.0
 23
0.0
 14
1.0
 24
1.0
 15
10.0
 25
10.0
 16
0.0
 26
0.0
 36
1.0
 17
0.0
 27
0.0
 37
0.0
 40
628.306451612903
 41
1.336927223719676
 42
50.0
 43
0.0
 44
0.0
 50
0.0
 51
0.0
 71
     0
 72
  1500
 73
     1
 74
     0
 75
     0
 76
     0
 77
     0
 78
     0
281
     0
 65
     1
110
0.0
120
0.0
130
0.0
111
1.0
121
0.0
131
0.0
112
0.0
122
1.0
132
0.0
 79
     0
146
0.0
  0
ENDTAB
  0
TABLE
  2
LTYPE
  5
C8C
330
0
100
AcDbSymbolTable
 70
     2
  0
LTYPE
  5
C9A
330
C8C
100
AcDbSymbolTableRecord
100
AcDbLinetypeTableRecord
  2
ByBlock
 70
     0
  3

 72
    65
 73
     0
 40
0.0
  0
LTYPE
  5
C9B
330
C8C
100
AcDbSymbolTableRecord
100
AcDbLinetypeTableRecord
  2
ByLayer
 70
     0
  3

 72
    65
 73
     0
 40
0.0
  0
LTYPE
  5
C9C
330
C8C
100
AcDbSymbolTableRecord
100
AcDbLinetypeTableRecord
  2
CONTINUOUS
 70
     0
  3
Solid line
 72
    65
 73
     0
 40
0.0
  0
LTYPE
  5
CC6
330
C8C
100
AcDbSymbolTableRecord
100
AcDbLinetypeTableRecord
  2
STRICHPUNKT
 70
     0
  3
__ . __ . __ . __ . __ . __ . __ . __ . __ . __
 72
    65
 73
     4
 40
1.0
 49
0.5
 74
     0
 49
-0.25
 74
     0
 49
0.0
 74
     0
 49
-0.25
 74
     0
  0
ENDTAB
  0
TABLE
  2
LAYER
  5
C89
102
{ACAD_XDICTIONARY
360
1719
102
}
330
0
100
AcDbSymbolTable
 70
     9
  0
LAYER
  5
C97
102
{ACAD_XDICTIONARY
360
16CB
102
}
330
C89
100
AcDbSymbolTableRecord
100
AcDbLayerTableRecord
  2
0
 70
     0
 62
     7
  6
CONTINUOUS
370
    -3
390
C96
  0
LAYER
  5
CCA
102
{ACAD_XDICTIONARY
360
16CD
102
}
330
C89
100
AcDbSymbolTableRecord
100
AcDbLayerTableRecord
  2
VOLL
 70
     0
 62
     1
  6
CONTINUOUS
370
    -3
390
C96
  0
LAYER
  5
CCB
102
{ACAD_XDICTIONARY
360
16CF
102
}
330
C89
100
AcDbSymbolTableRecord
100
AcDbLayerTableRecord
  2
HILF
 70
     0
 62
     2
  6
CONTINUOUS
370
    -3
390
C96
  0
LAYER
  5
CCC
102
{ACAD_XDICTIONARY
360
16D1
102
}
330
C89
100
AcDbSymbolTableRecord
100
AcDbLayerTableRecord
  2
MITTEL
 70
     0
 62
     2
  6
STRICHPUNKT
370
    -3
390
C96
  0
LAYER
  5
CCD
102
{ACAD_XDICTIONARY
360
16D3
102
}
330
C89
100
AcDbSymbolTableRecord
100
AcDbLayerTableRecord
  2
BEM
 70
     0
 62
     7
  6
CONTINUOUS
370
    -3
390
C96
  0
LAYER
  5
CCE
102
{ACAD_XDICTIONARY
360
16D5
102
}
330
C89
100
AcDbSymbolTableRecord
100
AcDbLayerTableRecord
  2
STEMPEL
 70
     0
 62
     3
  6
CONTINUOUS
370
    -3
390
C96
  0
LAYER
  5
CCF
102
{ACAD_XDICTIONARY
360
16D7
102
}
330
C89
100
AcDbSymbolTableRecord
100
AcDbLayerTableRecord
  2
TEXT
 70
     0
 62
     7
  6
CONTINUOUS
370
    -3
390
C96
  0
LAYER
  5
CD0
102
{ACAD_XDICTIONARY
360
16D9
102
}
330
C89
100
AcDbSymbolTableRecord
100
AcDbLayerTableRecord
  2
SCHRAFF
 70
     0
 62
     7
  6
CONTINUOUS
370
    -3
390
C96
  0
LAYER
  5
CD1
330
C89
100
AcDbSymbolTableRecord
100
AcDbLayerTableRecord
  2
DEFPOINTS
 70
     0
 62
     7
  6
CONTINUOUS
290
     0
370
    -3
390
C96
  0
ENDTAB
  0
TABLE
  2
STYLE
  5
C8A
330
0
100
AcDbSymbolTable
 70
     2
  0
STYLE
  5
C98
330
C8A
100
AcDbSymbolTableRecord
100
AcDbTextStyleTableRecord
  2
STANDARD
 70
     0
 40
0.0
 41
1.0
 50
0.0
 71
     0
 42
3.5
  3
txt
  4

  0
STYLE
  5
CC5
330
C8A
100
AcDbSymbolTableRecord
100
AcDbTextStyleTableRecord
  2
GREEKS
 70
     0
 40
0.0
 41
0.8
 50
0.0
 71
     0
 42
2.5
  3
SIMPLEX.shx
  4

  0
ENDTAB
  0
TABLE
  2
VIEW
  5
C8D
330
0
100
AcDbSymbolTable
 70
     0
  0
ENDTAB
  0
TABLE
  2
UCS
  5
C8E
330
0
100
AcDbSymbolTable
 70
     0
  0
ENDTAB
  0
TABLE
  2
APPID
  5
C90
330
0
100
AcDbSymbolTable
 70
    22
  0
APPID
  5
C99
330
C90
100
AcDbSymbolTableRecord
100
AcDbRegAppTableRecord
  2
ACAD
 70
     0
  0
APPID
  5
14BC
330
C90
100
AcDbSymbolTableRecord
100
AcDbRegAppTableRecord
  2
ACAD_MLEADERVER
 70
     0
  0
APPID
  5
14C7
330
C90
100
AcDbSymbolTableRecord
100
AcDbRegAppTableRecord
  2
MCAD_NO_VIS
 70
     0
  0
APPID
  5
14C8
330
C90
100
AcDbSymbolTableRecord
100
AcDbRegAppTableRecord
  2
ACAD_TEMP_GRAPHIC
 70
     0
  0
APPID
  5
14F8
330
C90
100
AcDbSymbolTableRecord
100
AcDbRegAppTableRecord
  2
AD_DRAW
 70
     0
  0
APPID
  5
14FB
330
C90
100
AcDbSymbolTableRecord
100
AcDbRegAppTableRecord
  2
ACATTRIBSERVICES
 70
     0
  0
APPID
  5
151C
330
C90
100
AcDbSymbolTableRecord
100
AcDbRegAppTableRecord
  2
DESIGNERASSEMBLIES
 70
     0
  0
APPID
  5
1522
330
C90
100
AcDbSymbolTableRecord
100
AcDbRegAppTableRecord
  2
ACADM_DIM_EDIT
 70
     0
  0
APPID
  5
1523
330
C90
100
AcDbSymbolTableRecord
100
AcDbRegAppTableRecord
  2
AMDT_DM_ADJ
 70
     0
  0
APPID
  5
1565
330
C90
100
AcDbSymbolTableRecord
100
AcDbRegAppTableRecord
  2
ACAD_DSTYLE_DIMRADIAL_EXTENSION
 70
     0
  0
APPID
  5
1681
330
C90
100
AcDbSymbolTableRecord
100
AcDbRegAppTableRecord
  2
ACAD_DSTYLE_DIMJAG
 70
     0
  0
APPID
  5
1682
330
C90
100
AcDbSymbolTableRecord
100
AcDbRegAppTableRecord
  2
ACAD_DSTYLE_DIMTALN
 70
     0
  0
APPID
  5
1716
330
C90
100
AcDbSymbolTableRecord
100
AcDbRegAppTableRecord
  2
ACAD_PSEXT
 70
     0
  0
APPID
  5
1717
330
C90
100
AcDbSymbolTableRecord
100
AcDbRegAppTableRecord
  2
ACAD_DSTYLE_DIMJOGGED_JOGANGLE_SYMBOL
 70
     0
  0
APPID
  5
1718
330
C90
100
AcDbSymbolTableRecord
100
AcDbRegAppTableRecord
  2
ACAD_DSTYLE_DIMBREAK
 70
     0
  0
APPID
  5
175A
330
C90
100
AcDbSymbolTableRecord
100
AcDbRegAppTableRecord
  2
AcAecLayerStandard
 70
     0
  0
APPID
  5
1768
330
C90
100
AcDbSymbolTableRecord
100
AcDbRegAppTableRecord
  2
ACAD_EXEMPT_FROM_CAD_STANDARDS
 70
     0
  0
APPID
  5
1807
330
C90
100
AcDbSymbolTableRecord
100
AcDbRegAppTableRecord
  2
DCO15
 70
     0
  0
APPID
  5
1886
330
C90
100
AcDbSymbolTableRecord
100
AcDbRegAppTableRecord
  2
ACAD_DSTYLE_DIMARC_LENGTH_SYMBOL
 70
     0
  0
APPID
  5
1887
330
C90
100
AcDbSymbolTableRecord
100
AcDbRegAppTableRecord
  2
ACAD_DSTYLE_DIM_LINETYPE
 70
     0
  0
APPID
  5
1888
330
C90
100
AcDbSymbolTableRecord
100
AcDbRegAppTableRecord
  2
ACAD_DSTYLE_DIM_EXT1_LINETYPE
 70
     0
  0
APPID
  5
1889
330
C90
100
AcDbSymbolTableRecord
100
AcDbRegAppTableRecord
  2
ACAD_DSTYLE_DIM_EXT2_LINETYPE
 70
     0
  0
ENDTAB
  0
TABLE
  2
DIMSTYLE
  5
C91
330
0
100
AcDbSymbolTable
 70
     1
100
AcDbDimStyleTable
 71
     1
340
CC9
  0
DIMSTYLE
105
CC9
102
{ACAD_REACTORS
330
F1A
330
4FE
330
1784
330
1A2A
330
1B61
330
2272
330
2288
330
20F6
330
207A
330
22B0
330
22C6
102
}
330
C91
100
AcDbSymbolTableRecord
100
AcDbDimStyleTableRecord
  2
STANDARD
 70
     0
 40
2.0
 41
3.5
 42
1.0
 43
7.0
 44
1.0
 73
     0
 74
     0
 77
     1
 78
     8
 79
     2
140
3.5
147
1.5
172
     1
178
     1
179
     2
271
     2
272
     2
284
     8
285
     8
286
     8
340
CC5
  0
ENDTAB
  0
TABLE
  2
BLOCK_RECORD
  5
C88
330
0
100
AcDbSymbolTable
 70
    13
  0
BLOCK_RECORD
  5
CA5
102
{ACAD_XDICTIONARY
360
CDA
102
}
330
C88
100
AcDbSymbolTableRecord
100
AcDbBlockTableRecord
  2
*Model_Space
340
CA8
  0
BLOCK_RECORD
  5
CA1
102
{ACAD_XDICTIONARY
360
CDC
102
}
330
C88
100
AcDbSymbolTableRecord
100
AcDbBlockTableRecord
  2
*Paper_Space
340
CA4
  0
BLOCK_RECORD
  5
CA9
330
C88
100
AcDbSymbolTableRecord
100
AcDbBlockTableRecord
  2
LOGO
340
0
102
{BLKREFS
331
366
102
}
  0
BLOCK_RECORD
  5
CAB
330
C88
100
AcDbSymbolTableRecord
100
AcDbBlockTableRecord
  2
*X1
340
0
102
{BLKREFS
331
3DA
102
}
  0
BLOCK_RECORD
  5
F1B
330
C88
100
AcDbSymbolTableRecord
100
AcDbBlockTableRecord
  2
*D2
340
0
  0
BLOCK_RECORD
  5
1437
330
C88
100
AcDbSymbolTableRecord
100
AcDbBlockTableRecord
  2
*D3
340
0
  0
BLOCK_RECORD
  5
1785
330
C88
100
AcDbSymbolTableRecord
100
AcDbBlockTableRecord
  2
*D4
340
0
  0
BLOCK_RECORD
  5
1A2B
330
C88
100
AcDbSymbolTableRecord
100
AcDbBlockTableRecord
  2
*D5
340
0
  0
BLOCK_RECORD
  5
1B62
330
C88
100
AcDbSymbolTableRecord
100
AcDbBlockTableRecord
  2
*D6
340
0
  0
BLOCK_RECORD
  5
217F
330
C88
100
AcDbSymbolTableRecord
100
AcDbBlockTableRecord
  2
*D7
340
0
  0
BLOCK_RECORD
  5
218B
330
C88
100
AcDbSymbolTableRecord
100
AcDbBlockTableRecord
  2
*D8
340
0
  0
BLOCK_RECORD
  5
2273
330
C88
100
AcDbSymbolTableRecord
100
AcDbBlockTableRecord
  2
*D9
340
0
  0
BLOCK_RECORD
  5
2289
330
C88
100
AcDbSymbolTableRecord
100
AcDbBlockTableRecord
  2
*D10
340
0
  0
BLOCK_RECORD
  5
22B1
330
C88
100
AcDbSymbolTableRecord
100
AcDbBlockTableRecord
  2
*D11
340
0
  0
BLOCK_RECORD
  5
22C7
330
C88
100
AcDbSymbolTableRecord
100
AcDbBlockTableRecord
  2
*D12
340
0
  0
ENDTAB
  0
ENDSEC
  0
SECTION
  2
BLOCKS
  0
BLOCK
  5
CD5
330
CA5
100
AcDbEntity
  8
0
100
AcDbBlockBegin
  2
*Model_Space
 70
     0
 10
0.0
 20
0.0
 30
0.0
  3
*Model_Space
  1

  0
ENDBLK
  5
CD6
330
CA5
100
AcDbEntity
  8
0
100
AcDbBlockEnd
  0
BLOCK
  5
CD3
330
CA1
100
AcDbEntity
 67
     1
  8
0
100
AcDbBlockBegin
  2
*Paper_Space
 70
     0
 10
0.0
 20
0.0
 30
0.0
  3
*Paper_Space
  1

  0
ENDBLK
  5
CD4
330
CA1
100
AcDbEntity
 67
     1
  8
0
100
AcDbBlockEnd
  0
BLOCK
  5
5E
330
CA9
100
AcDbEntity
  8
0
100
AcDbBlockBegin
  2
LOGO
 70
     0
 10
0.0
 20
0.0
 30
0.0
  3
LOGO
  1

  0
ARC
  5
5F
330
CA9
100
AcDbEntity
  8
0
100
AcDbCircle
 10
11.59973089678112
 20
-9.271599258481501
 30
0.0
 40
4.5
100
AcDbArc
 50
270.0
 51
231.0575587310159
  0
LINE
  5
60
330
CA9
100
AcDbEntity
  8
0
100
AcDbLine
 10
3.599730896781125
 20
-4.771599258481529
 30
0.0
 11
3.599730896781153
 21
-11.77159925848133
 31
0.0
  0
LINE
  5
61
330
CA9
100
AcDbEntity
  8
0
100
AcDbLine
 10
2.599730896781125
 20
-4.771599258481529
 30
0.0
 11
2.599730896781153
 21
-11.77159925848133
 31
0.0
  0
CIRCLE
  5
62
330
CA9
100
AcDbEntity
  8
0
100
AcDbCircle
 10
11.59973089678112
 20
-9.271599258481501
 30
0.0
 40
3.5
  0
ARC
  5
63
330
CA9
100
AcDbEntity
  8
0
100
AcDbCircle
 10
31.59973089678115
 20
-9.271599258481472
 30
0.0
 40
4.5
100
AcDbArc
 50
270.0
 51
231.0575587310182
  0
LINE
  5
64
330
CA9
100
AcDbEntity
  8
0
100
AcDbLine
 10
17.59973089678112
 20
-4.771599258481472
 30
0.0
 11
17.59973089678115
 21
-13.77159925848147
 31
0.0
  0
ARC
  5
65
330
CA9
100
AcDbEntity
  8
0
100
AcDbCircle
 10
22.59973089678116
 20
-7.271599258481472
 30
0.0
 40
2.5
100
AcDbArc
 50
293.1161887722295
 51
90.0
  0
CIRCLE
  5
66
330
CA9
100
AcDbEntity
  8
0
100
AcDbCircle
 10
31.59973089678115
 20
-9.271599258481472
 30
0.0
 40
3.5
  0
ARC
  5
67
330
CA9
100
AcDbEntity
  8
0
100
AcDbCircle
 10
4.599730896781153
 20
-11.77159925848133
 30
0.0
 40
1.0
100
AcDbArc
 50
180.0
 51
270.0
  0
ARC
  5
68
330
CA9
100
AcDbEntity
  8
0
100
AcDbCircle
 10
4.599730896781153
 20
-11.77159925848133
 30
0.0
 40
2.0
100
AcDbArc
 50
179.9999999999992
 51
270.0
  0
LINE
  5
69
330
CA9
100
AcDbEntity
  8
0
100
AcDbLine
 10
11.59973089678115
 20
-13.77159925848144
 30
0.0
 11
4.599730896781153
 21
-13.77159925848147
 31
0.0
  0
LINE
  5
6A
330
CA9
100
AcDbEntity
  8
0
100
AcDbLine
 10
8.771303772034769
 20
-12.77159925848136
 30
0.0
 11
4.599730896781153
 21
-12.77159925848133
 31
0.0
  0
LINE
  5
6B
330
CA9
100
AcDbEntity
  8
0
100
AcDbLine
 10
31.59973089678115
 20
-13.77159925848147
 30
0.0
 11
23.6715276665056
 21
-13.77159925848144
 31
0.0
  0
LINE
  5
6C
330
CA9
100
AcDbEntity
  8
0
100
AcDbLine
 10
23.56565672307022
 20
-9.51278021337896
 30
0.0
 11
24.4388546544846
 21
-12.77159925848144
 31
0.0
  0
LINE
  5
6D
330
CA9
100
AcDbEntity
  8
0
100
AcDbLine
 10
22.59973089678116
 20
-9.771599258481472
 30
0.0
 11
18.59973089678112
 21
-9.771599258481472
 31
0.0
  0
LINE
  5
6E
330
CA9
100
AcDbEntity
  8
0
100
AcDbLine
 10
18.59973089678115
 20
-13.77159925848144
 30
0.0
 11
17.59973089678115
 21
-13.77159925848144
 31
0.0
  0
LINE
  5
6F
330
CA9
100
AcDbEntity
  8
0
100
AcDbLine
 10
18.59973089678115
 20
-9.771599258481472
 30
0.0
 11
18.59973089678115
 21
-13.77159925848144
 31
0.0
  0
LINE
  5
70
330
CA9
100
AcDbEntity
  8
0
100
AcDbLine
 10
22.59973089678116
 20
-9.771599258481472
 30
0.0
 11
23.67152766650562
 21
-13.77159925848147
 31
0.0
  0
ARC
  5
71
330
CA9
100
AcDbEntity
  8
0
100
AcDbCircle
 10
22.59973089678116
 20
-7.271599258481472
 30
0.0
 40
2.5
100
AcDbArc
 50
270.0
 51
270.0000000000007
  0
LINE
  5
72
330
CA9
100
AcDbEntity
  8
0
100
AcDbLine
 10
28.77130377203494
 20
-12.77159925848147
 30
0.0
 11
24.43885465448463
 21
-12.77159925848144
 31
0.0
  0
LINE
  5
73
330
CA9
100
AcDbEntity
  8
0
100
AcDbLine
 10
3.599730896781125
 20
-4.771599258481472
 30
0.0
 11
2.599730896781125
 21
-4.771599258481472
 31
0.0
  0
LINE
  5
74
330
CA9
100
AcDbEntity
  8
0
100
AcDbLine
 10
22.59973089678116
 20
-8.771599258481472
 30
0.0
 11
18.59973089678115
 21
-8.771599258481472
 31
0.0
  0
LINE
  5
75
330
CA9
100
AcDbEntity
  8
0
100
AcDbLine
 10
22.59973089678116
 20
-5.771599258481472
 30
0.0
 11
18.59973089678115
 21
-5.771599258481472
 31
0.0
  0
LINE
  5
76
330
CA9
100
AcDbEntity
  8
0
100
AcDbLine
 10
22.59973089678116
 20
-4.771599258481472
 30
0.0
 11
17.59973089678115
 21
-4.771599258481472
 31
0.0
  0
LINE
  5
77
330
CA9
100
AcDbEntity
  8
0
100
AcDbLine
 10
18.59973089678115
 20
-5.771599258481472
 30
0.0
 11
18.59973089678115
 21
-8.771599258481472
 31
0.0
  0
ARC
  5
78
330
CA9
100
AcDbEntity
  8
0
100
AcDbCircle
 10
22.59973089678116
 20
-7.271599258481472
 30
0.0
 40
1.5
100
AcDbArc
 50
270.0
 51
90.0
  0
ENDBLK
  5
79
330
CA9
100
AcDbEntity
  8
0
100
AcDbBlockEnd
  0
BLOCK
  5
9E
330
CAB
100
AcDbEntity
  8
0
100
AcDbBlockBegin
  2
*X1
 70
     1
 10
0.0
 20
0.0
 30
0.0
  3
*X1
  1

  0
LINE
  5
9F
330
CAB
100
AcDbEntity
  8
0
 62
     0
100
AcDbLine
 10
206.5172291092391
 20
441.4
 30
0.0
 11
209.0645566134967
 21
441.4
 31
0.0
  0
LINE
  5
A0
330
CAB
100
AcDbEntity
  8
0
 62
     0
100
AcDbLine
 10
206.4576795827597
 20
441.5
 30
0.0
 11
209.0645566134967
 21
441.5
 31
0.0
  0
LINE
  5
A1
330
CAB
100
AcDbEntity
  8
0
 62
     0
100
AcDbLine
 10
206.4032151673795
 20
441.6
 30
0.0
 11
209.0645566134967
 21
441.6
 31
0.0
  0
LINE
  5
A2
330
CAB
100
AcDbEntity
  8
0
 62
     0
100
AcDbLine
 10
206.3535293668136
 20
441.7
 30
0.0
 11
209.0645566134967
 21
441.7
 31
0.0
  0
LINE
  5
A3
330
CAB
100
AcDbEntity
  8
0
 62
     0
100
AcDbLine
 10
206.3083637371371
 20
441.8
 30
0.0
 11
209.0645566134967
 21
441.8
 31
0.0
  0
LINE
  5
A4
330
CAB
100
AcDbEntity
  8
0
 62
     0
100
AcDbLine
 10
206.2674993006887
 20
441.9
 30
0.0
 11
209.0645566134967
 21
441.9
 31
0.0
  0
LINE
  5
A5
330
CAB
100
AcDbEntity
  8
0
 62
     0
100
AcDbLine
 10
206.2307499774381
 20
442.0
 30
0.0
 11
209.0645566134967
 21
442.0
 31
0.0
  0
LINE
  5
A6
330
CAB
100
AcDbEntity
  8
0
 62
     0
100
AcDbLine
 10
206.1979574978186
 20
442.1
 30
0.0
 11
209.0645566134967
 21
442.1
 31
0.0
  0
LINE
  5
A7
330
CAB
100
AcDbEntity
  8
0
 62
     0
100
AcDbLine
 10
206.1689874242968
 20
442.2
 30
0.0
 11
209.0645566134967
 21
442.2
 31
0.0
  0
LINE
  5
A8
330
CAB
100
AcDbEntity
  8
0
 62
     0
100
AcDbLine
 10
206.143726017779
 20
442.3
 30
0.0
 11
209.0645566134967
 21
442.3
 31
0.0
  0
LINE
  5
A9
330
CAB
100
AcDbEntity
  8
0
 62
     0
100
AcDbLine
 10
206.1220777591431
 20
442.4
 30
0.0
 11
209.0645566134967
 21
442.4
 31
0.0
  0
LINE
  5
AA
330
CAB
100
AcDbEntity
  8
0
 62
     0
100
AcDbLine
 10
206.1039633878483
 20
442.4999999999999
 30
0.0
 11
209.0645566134967
 21
442.4999999999999
 31
0.0
  0
LINE
  5
AB
330
CAB
100
AcDbEntity
  8
0
 62
     0
100
AcDbLine
 10
206.0893183562823
 20
442.6
 30
0.0
 11
209.0645566134967
 21
442.6
 31
0.0
  0
LINE
  5
AC
330
CAB
100
AcDbEntity
  8
0
 62
     0
100
AcDbLine
 10
206.0780916251486
 20
442.7
 30
0.0
 11
209.0645566134967
 21
442.7
 31
0.0
  0
LINE
  5
AD
330
CAB
100
AcDbEntity
  8
0
 62
     0
100
AcDbLine
 10
206.0702447449588
 20
442.7999999999999
 30
0.0
 11
209.0645566134967
 21
442.7999999999999
 31
0.0
  0
LINE
  5
AE
330
CAB
100
AcDbEntity
  8
0
 62
     0
100
AcDbLine
 10
206.0657511837458
 20
442.9
 30
0.0
 11
209.0645566134967
 21
442.9
 31
0.0
  0
LINE
  5
AF
330
CAB
100
AcDbEntity
  8
0
 62
     0
100
AcDbLine
 10
206.5822296860938
 20
441.3
 30
0.0
 11
209.0645566134967
 21
441.3
 31
0.0
  0
LINE
  5
B0
330
CAB
100
AcDbEntity
  8
0
 62
     0
100
AcDbLine
 10
206.6531220746645
 20
441.2
 30
0.0
 11
209.0645566134967
 21
441.2
 31
0.0
  0
LINE
  5
B1
330
CAB
100
AcDbEntity
  8
0
 62
     0
100
AcDbLine
 10
206.7304430567828
 20
441.1
 30
0.0
 11
209.0645566134967
 21
441.1
 31
0.0
  0
LINE
  5
B2
330
CAB
100
AcDbEntity
  8
0
 62
     0
100
AcDbLine
 10
206.8148553763991
 20
441.0
 30
0.0
 11
209.0645566134967
 21
441.0
 31
0.0
  0
LINE
  5
B3
330
CAB
100
AcDbEntity
  8
0
 62
     0
100
AcDbLine
 10
206.9071912719837
 20
440.9
 30
0.0
 11
209.0645566134967
 21
440.9
 31
0.0
  0
LINE
  5
B4
330
CAB
100
AcDbEntity
  8
0
 62
     0
100
AcDbLine
 10
207.0085180006968
 20
440.8
 30
0.0
 11
209.0645566134967
 21
440.8
 31
0.0
  0
LINE
  5
B5
330
CAB
100
AcDbEntity
  8
0
 62
     0
100
AcDbLine
 10
207.1202407086378
 20
440.7
 30
0.0
 11
209.0645566134967
 21
440.7
 31
0.0
  0
LINE
  5
B6
330
CAB
100
AcDbEntity
  8
0
 62
     0
100
AcDbLine
 10
207.2442725976217
 20
440.6
 30
0.0
 11
209.0645566134967
 21
440.6
 31
0.0
  0
LINE
  5
B7
330
CAB
100
AcDbEntity
  8
0
 62
     0
100
AcDbLine
 10
207.3833357895081
 20
440.5
 30
0.0
 11
209.0645566134967
 21
440.5
 31
0.0
  0
LINE
  5
B8
330
CAB
100
AcDbEntity
  8
0
 62
     0
100
AcDbLine
 10
207.5415421619645
 20
440.4
 30
0.0
 11
209.0645566134967
 21
440.4
 31
0.0
  0
LINE
  5
B9
330
CAB
100
AcDbEntity
  8
0
 62
     0
100
AcDbLine
 10
207.7256605831274
 20
440.3
 30
0.0
 11
209.0645566134967
 21
440.3
 31
0.0
  0
LINE
  5
BA
330
CAB
100
AcDbEntity
  8
0
 62
     0
100
AcDbLine
 10
207.9484418610175
 20
440.2
 30
0.0
 11
209.0645566134967
 21
440.2
 31
0.0
  0
LINE
  5
BB
330
CAB
100
AcDbEntity
  8
0
 62
     0
100
AcDbLine
 10
208.2406745216507
 20
440.1
 30
0.0
 11
209.0645566134967
 21
440.1
 31
0.0
  0
LINE
  5
BC
330
CAB
100
AcDbEntity
  8
0
 62
     0
100
AcDbLine
 10
208.7614868825315
 20
440.0
 30
0.0
 11
209.0645566134967
 21
440.0
 31
0.0
  0
ENDBLK
  5
BD
330
CAB
100
AcDbEntity
  8
0
100
AcDbBlockEnd
  0
BLOCK
  5
F25
330
F1B
100
AcDbEntity
  8
0
100
AcDbBlockBegin
  2
*D2
 70
     1
 10
0.0
 20
0.0
 30
0.0
  3
*D2
  1

  0
LINE
  5
21BE
330
F1B
100
AcDbEntity
  8
BEM
 62
     0
370
    -2
100
AcDbLine
 10
283.2128312237185
 20
326.0292360382597
 30
0.0
 11
283.2128312237185
 21
197.9222049283248
 31
0.0
  0
LINE
  5
21BF
330
F1B
100
AcDbEntity
  8
BEM
 62
     0
370
    -2
100
AcDbLine
 10
355.2128312237185
 20
280.0292360382597
 30
0.0
 11
355.2128312237185
 21
197.9222049283248
 31
0.0
  0
LINE
  5
21C0
330
F1B
100
AcDbEntity
  8
BEM
 62
     0
370
    -2
100
AcDbLine
 10
290.2128312237185
 20
199.9222049283248
 30
0.0
 11
348.2128312237185
 21
199.9222049283248
 31
0.0
  0
SOLID
  5
21C1
330
F1B
100
AcDbEntity
  8
BEM
 62
     0
100
AcDbTrace
 10
290.2128312237185
 20
201.0888715949914
 30
0.0
 11
290.2128312237185
 21
198.7555382616581
 31
0.0
 12
283.2128312237185
 22
199.9222049283248
 32
0.0
 13
283.2128312237185
 23
199.9222049283248
 33
0.0
  0
SOLID
  5
21C2
330
F1B
100
AcDbEntity
  8
BEM
 62
     0
100
AcDbTrace
 10
348.2128312237185
 20
201.0888715949914
 30
0.0
 11
348.2128312237185
 21
198.7555382616581
 31
0.0
 12
355.2128312237185
 22
199.9222049283248
 32
0.0
 13
355.2128312237185
 23
199.9222049283248
 33
0.0
  0
MTEXT
  5
21C3
330
F1B
100
AcDbEntity
  8
BEM
 62
     1
100
AcDbMText
 10
319.2128312237185
 20
206.4222049283248
 30
0.0
 40
7.000000000000003
 41
0.0
 71
     5
 72
     1
  1
\A1;72
  7
GREEKS
 73
     1
 44
1.0
  0
POINT
  5
21C4
330
F1B
100
AcDbEntity
  8
DEFPOINTS
 62
     0
100
AcDbPoint
 10
283.2128312237185
 20
328.0292360382597
 30
0.0
  0
POINT
  5
21C5
330
F1B
100
AcDbEntity
  8
DEFPOINTS
 62
     0
100
AcDbPoint
 10
355.2128312237185
 20
282.0292360382597
 30
0.0
  0
POINT
  5
21C6
330
F1B
100
AcDbEntity
  8
DEFPOINTS
 62
     0
100
AcDbPoint
 10
355.2128312237185
 20
199.9222049283248
 30
0.0
  0
ENDBLK
  5
F26
330
F1B
100
AcDbEntity
  8
0
100
AcDbBlockEnd
  0
BLOCK
  5
1441
330
1437
100
AcDbEntity
  8
0
100
AcDbBlockBegin
  2
*D3
 70
     1
 10
0.0
 20
0.0
 30
0.0
  3
*D3
  1

  0
LINE
  5
21E2
330
1437
100
AcDbEntity
  8
BEM
 62
     0
370
    -2
100
AcDbLine
 10
697.4571033215599
 20
213.4251037769468
 30
0.0
 11
726.9921700840566
 21
211.8339799056111
 31
0.0
  0
LINE
  5
21E3
330
1437
100
AcDbEntity
  8
BEM
 62
     0
370
    -2
100
AcDbLine
 10
702.9441333691389
 20
315.2775124439309
 30
0.0
 11
732.4792001316357
 21
313.6863885725952
 31
0.0
  0
LINE
  5
21E4
330
1437
100
AcDbEntity
  8
BEM
 62
     0
370
    -2
100
AcDbLine
 10
725.3716265256192
 20
218.9314328695417
 30
0.0
 11
730.1055355493644
 21
306.8041130440457
 31
0.0
  0
SOLID
  5
21E5
330
1437
100
AcDbEntity
  8
BEM
 62
     0
100
AcDbTrace
 10
724.206649151246
 20
218.9941929548613
 30
0.0
 11
726.5366038999925
 21
218.8686727842223
 31
0.0
 12
724.9950660137023
 22
211.9415686233017
 32
0.0
 13
724.9950660137023
 23
211.9415686233017
 33
0.0
  0
SOLID
  5
21E6
330
1437
100
AcDbEntity
  8
BEM
 62
     0
100
AcDbTrace
 10
728.940558174991
 20
306.8668731293652
 30
0.0
 11
731.2705129237376
 21
306.7413529587262
 31
0.0
 12
730.4820960612813
 22
313.7939772902857
 32
0.0
 13
730.4820960612813
 23
313.7939772902857
 33
0.0
  0
MTEXT
  5
21E7
330
1437
100
AcDbEntity
  8
BEM
 62
     1
100
AcDbMText
 10
721.2479928088404
 20
263.217436289288
 30
0.0
 40
7.000000000000003
 41
0.0
 71
     5
 72
     1
  1
\A1;%%c101.6
  7
GREEKS
 11
0.0537943588452841
 21
0.9985520351771482
 31
0.0
 73
     1
 44
1.0
  0
POINT
  5
21E8
330
1437
100
AcDbEntity
  8
DEFPOINTS
 62
     0
100
AcDbPoint
 10
695.4599992512055
 20
213.5326924946374
 30
0.0
  0
POINT
  5
21E9
330
1437
100
AcDbEntity
  8
DEFPOINTS
 62
     0
100
AcDbPoint
 10
700.9470292987846
 20
315.3851011616214
 30
0.0
  0
POINT
  5
21EA
330
1437
100
AcDbEntity
  8
DEFPOINTS
 62
     0
100
AcDbPoint
 10
730.4820960612813
 20
313.7939772902857
 30
0.0
  0
ENDBLK
  5
1442
330
1437
100
AcDbEntity
  8
0
100
AcDbBlockEnd
  0
BLOCK
  5
1786
330
1785
100
AcDbEntity
  8
0
100
AcDbBlockBegin
  2
*D4
 70
     1
 10
0.0
 20
0.0
 30
0.0
  3
*D4
  1

  0
LINE
  5
21B5
330
1785
100
AcDbEntity
  8
BEM
 62
     0
370
    -2
100
AcDbLine
 10
355.2128312237185
 20
281.0292360382597
 30
0.0
 11
355.2128312237185
 21
197.9222049283248
 31
0.0
  0
LINE
  5
21B6
330
1785
100
AcDbEntity
  8
BEM
 62
     0
370
    -2
100
AcDbLine
 10
555.2128312237185
 20
281.0292360382602
 30
0.0
 11
555.2128312237185
 21
197.9222049283248
 31
0.0
  0
LINE
  5
21B7
330
1785
100
AcDbEntity
  8
BEM
 62
     0
370
    -2
100
AcDbLine
 10
362.2128312237185
 20
199.9222049283248
 30
0.0
 11
548.2128312237184
 21
199.9222049283248
 31
0.0
  0
SOLID
  5
21B8
330
1785
100
AcDbEntity
  8
BEM
 62
     0
100
AcDbTrace
 10
362.2128312237185
 20
201.0888715949914
 30
0.0
 11
362.2128312237185
 21
198.7555382616581
 31
0.0
 12
355.2128312237185
 22
199.9222049283248
 32
0.0
 13
355.2128312237185
 23
199.9222049283248
 33
0.0
  0
SOLID
  5
21B9
330
1785
100
AcDbEntity
  8
BEM
 62
     0
100
AcDbTrace
 10
548.2128312237184
 20
201.0888715949914
 30
0.0
 11
548.2128312237184
 21
198.7555382616581
 31
0.0
 12
555.2128312237185
 22
199.9222049283248
 32
0.0
 13
555.2128312237185
 23
199.9222049283248
 33
0.0
  0
MTEXT
  5
21BA
330
1785
100
AcDbEntity
  8
BEM
 62
     1
100
AcDbMText
 10
455.2128312237185
 20
206.4222049283248
 30
0.0
 40
7.000000000000003
 41
0.0
 71
     5
 72
     1
  1
\A1;200
  7
GREEKS
 73
     1
 44
1.0
  0
POINT
  5
21BB
330
1785
100
AcDbEntity
  8
DEFPOINTS
 62
     0
100
AcDbPoint
 10
355.2128312237185
 20
283.0292360382598
 30
0.0
  0
POINT
  5
21BC
330
1785
100
AcDbEntity
  8
DEFPOINTS
 62
     0
100
AcDbPoint
 10
555.2128312237185
 20
283.0292360382602
 30
0.0
  0
POINT
  5
21BD
330
1785
100
AcDbEntity
  8
DEFPOINTS
 62
     0
100
AcDbPoint
 10
555.2128312237185
 20
199.9222049283248
 30
0.0
  0
ENDBLK
  5
1787
330
1785
100
AcDbEntity
  8
0
100
AcDbBlockEnd
  0
BLOCK
  5
1A35
330
1A2B
100
AcDbEntity
  8
0
100
AcDbBlockBegin
  2
*D5
 70
     1
 10
0.0
 20
0.0
 30
0.0
  3
*D5
  1

  0
LINE
  5
21D9
330
1A2B
100
AcDbEntity
  8
BEM
 62
     0
370
    -2
100
AcDbLine
 10
565.2128312237184
 20
328.0292360382597
 30
0.0
 11
750.665781193472
 21
328.0292360382597
 31
0.0
  0
LINE
  5
21DA
330
1A2B
100
AcDbEntity
  8
BEM
 62
     0
370
    -2
100
AcDbLine
 10
729.804568445015
 20
264.0926571545548
 30
0.0
 11
750.665781193472
 21
264.0926571545548
 31
0.0
  0
LINE
  5
21DB
330
1A2B
100
AcDbEntity
  8
BEM
 62
     0
370
    -2
100
AcDbLine
 10
748.6657811934719
 20
321.0292360382597
 30
0.0
 11
748.6657811934719
 21
271.0926571545548
 31
0.0
  0
SOLID
  5
21DC
330
1A2B
100
AcDbEntity
  8
BEM
 62
     0
100
AcDbTrace
 10
747.4991145268053
 20
321.0292360382597
 30
0.0
 11
749.8324478601386
 21
321.0292360382597
 31
0.0
 12
748.6657811934719
 22
328.0292360382597
 32
0.0
 13
748.6657811934719
 23
328.0292360382597
 33
0.0
  0
SOLID
  5
21DD
330
1A2B
100
AcDbEntity
  8
BEM
 62
     0
100
AcDbTrace
 10
747.4991145268053
 20
271.0926571545548
 30
0.0
 11
749.8324478601386
 21
271.0926571545548
 31
0.0
 12
748.6657811934719
 22
264.0926571545548
 32
0.0
 13
748.6657811934719
 23
264.0926571545548
 33
0.0
  0
MTEXT
  5
21DE
330
1A2B
100
AcDbEntity
  8
BEM
 62
     1
100
AcDbMText
 10
742.1657811934718
 20
296.0609465964074
 30
0.0
 40
7.000000000000003
 41
0.0
 71
     5
 72
     1
  1
\A1;64
  7
GREEKS
 11
0.0000000000000001
 21
1.0
 31
0.0
 73
     1
 44
1.0
  0
POINT
  5
21DF
330
1A2B
100
AcDbEntity
  8
DEFPOINTS
 62
     0
100
AcDbPoint
 10
563.2128312237184
 20
328.0292360382597
 30
0.0
  0
POINT
  5
21E0
330
1A2B
100
AcDbEntity
  8
DEFPOINTS
 62
     0
100
AcDbPoint
 10
727.8045684450149
 20
264.0926571545548
 30
0.0
  0
POINT
  5
21E1
330
1A2B
100
AcDbEntity
  8
DEFPOINTS
 62
     0
100
AcDbPoint
 10
748.6657811934719
 20
264.0926571545548
 30
0.0
  0
ENDBLK
  5
1A36
330
1A2B
100
AcDbEntity
  8
0
100
AcDbBlockEnd
  0
BLOCK
  5
1B6C
330
1B62
100
AcDbEntity
  8
0
100
AcDbBlockBegin
  2
*D6
 70
     1
 10
0.0
 20
0.0
 30
0.0
  3
*D6
  1

  0
LINE
  5
21EB
330
1B62
100
AcDbEntity
  8
BEM
 62
     0
370
    -2
100
AcDbLine
 10
705.2128312237186
 20
262.0980794999101
 30
0.0
 11
705.2128312237186
 21
197.9222049283248
 31
0.0
  0
LINE
  5
21EC
330
1B62
100
AcDbEntity
  8
BEM
 62
     0
370
    -2
100
AcDbLine
 10
555.2128312237185
 20
281.0292360382602
 30
0.0
 11
555.2128312237185
 21
197.9222049283248
 31
0.0
  0
LINE
  5
21ED
330
1B62
100
AcDbEntity
  8
BEM
 62
     0
370
    -2
100
AcDbLine
 10
698.2128312237186
 20
199.9222049283248
 30
0.0
 11
562.2128312237184
 21
199.9222049283248
 31
0.0
  0
SOLID
  5
21EE
330
1B62
100
AcDbEntity
  8
BEM
 62
     0
100
AcDbTrace
 10
698.2128312237186
 20
201.0888715949914
 30
0.0
 11
698.2128312237186
 21
198.7555382616581
 31
0.0
 12
705.2128312237186
 22
199.9222049283248
 32
0.0
 13
705.2128312237186
 23
199.9222049283248
 33
0.0
  0
SOLID
  5
21EF
330
1B62
100
AcDbEntity
  8
BEM
 62
     0
100
AcDbTrace
 10
562.2128312237184
 20
201.0888715949914
 30
0.0
 11
562.2128312237184
 21
198.7555382616581
 31
0.0
 12
555.2128312237185
 22
199.9222049283248
 32
0.0
 13
555.2128312237185
 23
199.9222049283248
 33
0.0
  0
MTEXT
  5
21F0
330
1B62
100
AcDbEntity
  8
BEM
 62
     1
100
AcDbMText
 10
630.2128312237186
 20
206.4222049283248
 30
0.0
 40
7.000000000000003
 41
0.0
 71
     5
 72
     1
  1
\A1;150
  7
GREEKS
 73
     1
 44
1.0
  0
POINT
  5
21F1
330
1B62
100
AcDbEntity
  8
DEFPOINTS
 62
     0
100
AcDbPoint
 10
705.2128312237186
 20
264.0980794999101
 30
0.0
  0
POINT
  5
21F2
330
1B62
100
AcDbEntity
  8
DEFPOINTS
 62
     0
100
AcDbPoint
 10
555.2128312237185
 20
283.0292360382602
 30
0.0
  0
POINT
  5
21F3
330
1B62
100
AcDbEntity
  8
DEFPOINTS
 62
     0
100
AcDbPoint
 10
555.2128312237185
 20
199.9222049283248
 30
0.0
  0
ENDBLK
  5
1B6D
330
1B62
100
AcDbEntity
  8
0
100
AcDbBlockEnd
  0
BLOCK
  5
2189
330
217F
100
AcDbEntity
  8
0
100
AcDbBlockBegin
  2
*D7
 70
     1
 10
0.0
 20
0.0
 30
0.0
  3
*D7
  1

  0
LINE
  5
22A7
330
217F
100
AcDbEntity
  8
BEM
 62
     0
370
    -2
100
AcDbLine
 10
658.9452458615613
 20
376.0292360382591
 30
0.0
 11
658.9452458615613
 21
478.3887065374705
 31
0.0
  0
LINE
  5
22A8
330
217F
100
AcDbEntity
  8
BEM
 62
     0
370
    -2
100
AcDbLine
 10
177.4804165858752
 20
376.0292360382593
 30
0.0
 11
177.4804165858752
 21
478.3887065374705
 31
0.0
  0
LINE
  5
22A9
330
217F
100
AcDbEntity
  8
BEM
 62
     0
370
    -2
100
AcDbLine
 10
651.9452458615614
 20
476.3887065374705
 30
0.0
 11
184.4804165858752
 21
476.3887065374705
 31
0.0
  0
SOLID
  5
22AA
330
217F
100
AcDbEntity
  8
BEM
 62
     0
100
AcDbTrace
 10
651.9452458615614
 20
477.5553732041371
 30
0.0
 11
651.9452458615614
 21
475.2220398708038
 31
0.0
 12
658.9452458615613
 22
476.3887065374705
 32
0.0
 13
658.9452458615613
 23
476.3887065374705
 33
0.0
  0
SOLID
  5
22AB
330
217F
100
AcDbEntity
  8
BEM
 62
     0
100
AcDbTrace
 10
184.4804165858752
 20
477.5553732041371
 30
0.0
 11
184.4804165858752
 21
475.2220398708038
 31
0.0
 12
177.4804165858752
 22
476.3887065374705
 32
0.0
 13
177.4804165858752
 23
476.3887065374705
 33
0.0
  0
MTEXT
  5
22AC
330
217F
100
AcDbEntity
  8
BEM
 62
     1
100
AcDbMText
 10
418.2128312237183
 20
482.8887065374705
 30
0.0
 40
7.000000000000003
 41
0.0
 71
     5
 72
     1
  1
\A1;%%c482
  7
GREEKS
 73
     1
 44
1.0
  0
POINT
  5
22AD
330
217F
100
AcDbEntity
  8
DEFPOINTS
 62
     0
100
AcDbPoint
 10
658.9452458615613
 20
374.0292360382591
 30
0.0
  0
POINT
  5
22AE
330
217F
100
AcDbEntity
  8
DEFPOINTS
 62
     0
100
AcDbPoint
 10
177.4804165858752
 20
374.0292360382593
 30
0.0
  0
POINT
  5
22AF
330
217F
100
AcDbEntity
  8
DEFPOINTS
 62
     0
100
AcDbPoint
 10
177.4804165858752
 20
476.3887065374705
 30
0.0
  0
ENDBLK
  5
218A
330
217F
100
AcDbEntity
  8
0
100
AcDbBlockEnd
  0
BLOCK
  5
2195
330
218B
100
AcDbEntity
  8
0
100
AcDbBlockBegin
  2
*D8
 70
     1
 10
0.0
 20
0.0
 30
0.0
  3
*D8
  1

  0
LINE
  5
229E
330
218B
100
AcDbEntity
  8
BEM
 62
     0
370
    -2
100
AcDbLine
 10
149.7128312237182
 20
351.0292360382595
 30
0.0
 11
139.0915375127569
 21
351.0292360382595
 31
0.0
  0
LINE
  5
229F
330
218B
100
AcDbEntity
  8
BEM
 62
     0
370
    -2
100
AcDbLine
 10
260.4804165858752
 20
459.0292360382593
 30
0.0
 11
139.091537512757
 21
459.0292360382593
 31
0.0
  0
LINE
  5
22A0
330
218B
100
AcDbEntity
  8
BEM
 62
     0
370
    -2
100
AcDbLine
 10
141.0915375127569
 20
358.0292360382594
 30
0.0
 11
141.091537512757
 21
452.0292360382593
 31
0.0
  0
SOLID
  5
22A1
330
218B
100
AcDbEntity
  8
BEM
 62
     0
100
AcDbTrace
 10
139.9248708460903
 20
358.0292360382594
 30
0.0
 11
142.2582041794236
 21
358.0292360382594
 31
0.0
 12
141.0915375127569
 22
351.0292360382595
 32
0.0
 13
141.0915375127569
 23
351.0292360382595
 33
0.0
  0
SOLID
  5
22A2
330
218B
100
AcDbEntity
  8
BEM
 62
     0
100
AcDbTrace
 10
139.9248708460903
 20
452.0292360382593
 30
0.0
 11
142.2582041794236
 21
452.0292360382593
 31
0.0
 12
141.091537512757
 22
459.0292360382593
 32
0.0
 13
141.091537512757
 23
459.0292360382593
 33
0.0
  0
MTEXT
  5
22A3
330
218B
100
AcDbEntity
  8
BEM
 62
     1
100
AcDbMText
 10
134.5915375127569
 20
405.0292360382594
 30
0.0
 40
7.000000000000003
 41
0.0
 71
     5
 72
     1
  1
\A1;108
  7
GREEKS
 11
0.0000000000000001
 21
1.0
 31
0.0
 73
     1
 44
1.0
  0
POINT
  5
22A4
330
218B
100
AcDbEntity
  8
DEFPOINTS
 62
     0
100
AcDbPoint
 10
151.7128312237182
 20
351.0292360382595
 30
0.0
  0
POINT
  5
22A5
330
218B
100
AcDbEntity
  8
DEFPOINTS
 62
     0
100
AcDbPoint
 10
262.4804165858752
 20
459.0292360382593
 30
0.0
  0
POINT
  5
22A6
330
218B
100
AcDbEntity
  8
DEFPOINTS
 62
     0
100
AcDbPoint
 10
141.091537512757
 20
459.0292360382593
 30
0.0
  0
ENDBLK
  5
2196
330
218B
100
AcDbEntity
  8
0
100
AcDbBlockEnd
  0
BLOCK
  5
227D
330
2273
100
AcDbEntity
  8
0
100
AcDbBlockBegin
  2
*D9
 70
     1
 10
0.0
 20
0.0
 30
0.0
  3
*D9
  1

  0
LINE
  5
227F
330
2273
100
AcDbEntity
  8
BEM
 62
     0
370
    -2
100
AcDbLine
 10
613.7128312237185
 20
376.0292360382593
 30
0.0
 11
701.533420534743
 21
376.0292360382593
 31
0.0
  0
LINE
  5
2280
330
2273
100
AcDbEntity
  8
BEM
 62
     0
370
    -2
100
AcDbLine
 10
686.7128312237183
 20
336.0292360382597
 30
0.0
 11
701.533420534743
 21
336.0292360382597
 31
0.0
  0
LINE
  5
2281
330
2273
100
AcDbEntity
  8
BEM
 62
     0
370
    -2
100
AcDbLine
 10
699.5334205347431
 20
369.0292360382593
 30
0.0
 11
699.5334205347431
 21
343.0292360382597
 31
0.0
  0
SOLID
  5
2282
330
2273
100
AcDbEntity
  8
BEM
 62
     0
100
AcDbTrace
 10
698.3667538680764
 20
369.0292360382593
 30
0.0
 11
700.7000872014097
 21
369.0292360382593
 31
0.0
 12
699.5334205347431
 22
376.0292360382593
 32
0.0
 13
699.5334205347431
 23
376.0292360382593
 33
0.0
  0
SOLID
  5
2283
330
2273
100
AcDbEntity
  8
BEM
 62
     0
100
AcDbTrace
 10
698.3667538680764
 20
343.0292360382597
 30
0.0
 11
700.7000872014097
 21
343.0292360382597
 31
0.0
 12
699.5334205347431
 22
336.0292360382597
 32
0.0
 13
699.5334205347431
 23
336.0292360382597
 33
0.0
  0
MTEXT
  5
2284
330
2273
100
AcDbEntity
  8
BEM
 62
     1
100
AcDbMText
 10
693.0334205347429
 20
356.0292360382596
 30
0.0
 40
7.000000000000003
 41
0.0
 71
     5
 72
     1
  1
\A1;40
  7
GREEKS
 11
0.0000000000000001
 21
1.0
 31
0.0
 73
     1
 44
1.0
  0
POINT
  5
2285
330
2273
100
AcDbEntity
  8
DEFPOINTS
 62
     0
100
AcDbPoint
 10
611.7128312237184
 20
376.0292360382593
 30
0.0
  0
POINT
  5
2286
330
2273
100
AcDbEntity
  8
DEFPOINTS
 62
     0
100
AcDbPoint
 10
684.7128312237183
 20
336.0292360382597
 30
0.0
  0
POINT
  5
2287
330
2273
100
AcDbEntity
  8
DEFPOINTS
 62
     0
100
AcDbPoint
 10
699.5334205347431
 20
336.0292360382597
 30
0.0
  0
ENDBLK
  5
227E
330
2273
100
AcDbEntity
  8
0
100
AcDbBlockEnd
  0
BLOCK
  5
2293
330
2289
100
AcDbEntity
  8
0
100
AcDbBlockBegin
  2
*D10
 70
     1
 10
0.0
 20
0.0
 30
0.0
  3
*D10
  1

  0
LINE
  5
2295
330
2289
100
AcDbEntity
  8
BEM
 62
     0
370
    -2
100
AcDbLine
 10
149.7128312237183
 20
334.0292360382597
 30
0.0
 11
123.7986851243294
 21
334.0292360382597
 31
0.0
  0
LINE
  5
2296
330
2289
100
AcDbEntity
  8
BEM
 62
     0
370
    -2
100
AcDbLine
 10
260.4804165858752
 20
459.0292360382593
 30
0.0
 11
123.7986851243294
 21
459.0292360382593
 31
0.0
  0
LINE
  5
2297
330
2289
100
AcDbEntity
  8
BEM
 62
     0
370
    -2
100
AcDbLine
 10
125.7986851243295
 20
341.0292360382598
 30
0.0
 11
125.7986851243295
 21
452.0292360382594
 31
0.0
  0
SOLID
  5
2298
330
2289
100
AcDbEntity
  8
BEM
 62
     0
100
AcDbTrace
 10
124.6320184576628
 20
341.0292360382598
 30
0.0
 11
126.9653517909961
 21
341.0292360382598
 31
0.0
 12
125.7986851243295
 22
334.0292360382597
 32
0.0
 13
125.7986851243295
 23
334.0292360382597
 33
0.0
  0
SOLID
  5
2299
330
2289
100
AcDbEntity
  8
BEM
 62
     0
100
AcDbTrace
 10
124.6320184576628
 20
452.0292360382594
 30
0.0
 11
126.9653517909961
 21
452.0292360382594
 31
0.0
 12
125.7986851243295
 22
459.0292360382593
 32
0.0
 13
125.7986851243295
 23
459.0292360382593
 33
0.0
  0
MTEXT
  5
229A
330
2289
100
AcDbEntity
  8
BEM
 62
     1
100
AcDbMText
 10
119.2986851243294
 20
396.5292360382596
 30
0.0
 40
7.000000000000003
 41
0.0
 71
     5
 72
     1
  1
\A1;125
  7
GREEKS
 11
0.0000000000000001
 21
1.0
 31
0.0
 73
     1
 44
1.0
  0
POINT
  5
229B
330
2289
100
AcDbEntity
  8
DEFPOINTS
 62
     0
100
AcDbPoint
 10
151.7128312237183
 20
334.0292360382597
 30
0.0
  0
POINT
  5
229C
330
2289
100
AcDbEntity
  8
DEFPOINTS
 62
     0
100
AcDbPoint
 10
262.4804165858752
 20
459.0292360382593
 30
0.0
  0
POINT
  5
229D
330
2289
100
AcDbEntity
  8
DEFPOINTS
 62
     0
100
AcDbPoint
 10
125.7986851243295
 20
459.0292360382593
 30
0.0
  0
ENDBLK
  5
2294
330
2289
100
AcDbEntity
  8
0
100
AcDbBlockEnd
  0
BLOCK
  5
22BB
330
22B1
100
AcDbEntity
  8
0
100
AcDbBlockBegin
  2
*D11
 70
     1
 10
0.0
 20
0.0
 30
0.0
  3
*D11
  1

  0
LINE
  5
22BD
330
22B1
100
AcDbEntity
  8
BEM
 62
     0
370
    -2
100
AcDbLine
 10
684.7128312237183
 20
354.5292360382595
 30
0.0
 11
684.7128312237183
 21
493.6885461946087
 31
0.0
  0
LINE
  5
22BE
330
22B1
100
AcDbEntity
  8
BEM
 62
     0
370
    -2
100
AcDbLine
 10
151.7128312237182
 20
354.5292360382595
 30
0.0
 11
151.7128312237182
 21
493.6885461946087
 31
0.0
  0
LINE
  5
22BF
330
22B1
100
AcDbEntity
  8
BEM
 62
     0
370
    -2
100
AcDbLine
 10
677.7128312237183
 20
491.6885461946087
 30
0.0
 11
158.7128312237182
 21
491.6885461946087
 31
0.0
  0
SOLID
  5
22C0
330
22B1
100
AcDbEntity
  8
BEM
 62
     0
100
AcDbTrace
 10
677.7128312237183
 20
492.8552128612754
 30
0.0
 11
677.7128312237183
 21
490.521879527942
 31
0.0
 12
684.7128312237183
 22
491.6885461946087
 32
0.0
 13
684.7128312237183
 23
491.6885461946087
 33
0.0
  0
SOLID
  5
22C1
330
22B1
100
AcDbEntity
  8
BEM
 62
     0
100
AcDbTrace
 10
158.7128312237182
 20
492.8552128612754
 30
0.0
 11
158.7128312237182
 21
490.521879527942
 31
0.0
 12
151.7128312237182
 22
491.6885461946087
 32
0.0
 13
151.7128312237182
 23
491.6885461946087
 33
0.0
  0
MTEXT
  5
22C2
330
22B1
100
AcDbEntity
  8
BEM
 62
     1
100
AcDbMText
 10
418.2128312237183
 20
498.1885461946087
 30
0.0
 40
7.000000000000003
 41
0.0
 71
     5
 72
     1
  1
\A1;%%c533
  7
GREEKS
 73
     1
 44
1.0
  0
POINT
  5
22C3
330
22B1
100
AcDbEntity
  8
DEFPOINTS
 62
     0
100
AcDbPoint
 10
684.7128312237183
 20
352.5292360382595
 30
0.0
  0
POINT
  5
22C4
330
22B1
100
AcDbEntity
  8
DEFPOINTS
 62
     0
100
AcDbPoint
 10
151.7128312237182
 20
352.5292360382595
 30
0.0
  0
POINT
  5
22C5
330
22B1
100
AcDbEntity
  8
DEFPOINTS
 62
     0
100
AcDbPoint
 10
151.7128312237182
 20
491.6885461946087
 30
0.0
  0
ENDBLK
  5
22BC
330
22B1
100
AcDbEntity
  8
0
100
AcDbBlockEnd
  0
BLOCK
  5
22D6
330
22C7
100
AcDbEntity
  8
0
100
AcDbBlockBegin
  2
*D12
 70
     1
 10
0.0
 20
0.0
 30
0.0
  3
*D12
  1

  0
LINE
  5
22C8
330
22C7
100
AcDbEntity
  8
BEM
 62
     0
370
    -2
100
AcDbLine
 10
547.2128312237185
 20
273.0292360382602
 30
0.0
 11
589.1677220217575
 21
273.0292360382603
 31
0.0
  0
ARC
  5
22C9
330
22C7
100
AcDbEntity
  8
BEM
 62
     0
370
    -2
100
AcDbCircle
 10
534.796212535957
 20
273.0292360382602
 30
0.0
 40
52.37150948580037
100
AcDbArc
 50
341.6376642727499
 51
357.0000000000001
  0
LINE
  5
22CA
330
22C7
100
AcDbEntity
  8
BEM
 62
     0
370
    -2
100
AcDbLine
 10
584.5011377638297
 20
256.5308902450343
 30
0.0
 11
580.5948251552259
 21
244.7622572826269
 31
0.0
  0
ARC
  5
22CB
330
22C7
100
AcDbEntity
  8
BEM
 62
     0
370
    -2
100
AcDbCircle
 10
534.796212535957
 20
273.0292360382602
 30
0.0
 40
52.37150948580037
100
AcDbArc
 50
341.6722154483669
 51
349.3361077241834
  0
ARC
  5
22CC
330
22C7
100
AcDbEntity
  8
BEM
 62
     0
370
    -2
100
AcDbCircle
 10
534.796212535957
 20
273.0292360382602
 30
0.0
 40
52.37150948580037
100
AcDbArc
 50
7.663892275816754
 51
15.32778455163335
  0
ARC
  5
22CD
330
22C7
100
AcDbEntity
  8
BEM
 62
     0
370
    -2
100
AcDbCircle
 10
534.796212535957
 20
273.0292360382602
 30
0.0
 40
52.37150948580037
100
AcDbArc
 50
357.0000000000001
 51
0.0000000000000799
  0
SOLID
  5
22CE
330
22C7
100
AcDbEntity
  8
BEM
 62
     0
100
AcDbTrace
 10
585.1048629788777
 20
263.476811517158
 30
0.0
 11
587.4216280957933
 21
263.1992438002176
 31
0.0
 12
587.0959486881567
 22
270.2883230094345
 32
0.0
 13
587.0959486881567
 23
270.2883230094345
 33
0.0
  0
SOLID
  5
22CF
330
22C7
100
AcDbEntity
  8
BEM
 62
     0
100
AcDbTrace
 10
587.8639688363811
 20
280.0915551675717
 30
0.0
 11
585.5358519936518
 21
279.9356179653248
 31
0.0
 12
587.1677220217573
 22
273.0292360382603
 32
0.0
 13
587.1677220217573
 23
273.0292360382603
 33
0.0
  0
MTEXT
  5
22D0
330
22C7
100
AcDbEntity
  8
BEM
 62
     1
100
AcDbMText
 10
576.3789399872982
 20
252.6942376312439
 30
0.0
 40
7.000000000000003
 41
0.0
 71
     5
 72
     1
  1
\A1;3°
  7
GREEKS
 11
0.3150252103712845
 21
0.9490833034199518
 31
0.0
 73
     1
 44
1.0
  0
POINT
  5
22D1
330
22C7
100
AcDbEntity
  8
DEFPOINTS
 62
     0
100
AcDbPoint
 10
587.1597455871956
 20
272.1152271689801
 30
0.0
  0
POINT
  5
22D2
330
22C7
100
AcDbEntity
  8
DEFPOINTS
 62
     0
100
AcDbPoint
 10
545.2128312237185
 20
273.0292360382602
 30
0.0
  0
POINT
  5
22D3
330
22C7
100
AcDbEntity
  8
DEFPOINTS
 62
     0
100
AcDbPoint
 10
534.7962125359567
 20
273.0292360382602
 30
0.0
  0
POINT
  5
22D4
330
22C7
100
AcDbEntity
  8
DEFPOINTS
 62
     0
100
AcDbPoint
 10
710.2059788974916
 20
263.8363997186955
 30
0.0
  0
POINT
  5
22D5
330
22C7
100
AcDbEntity
  8
DEFPOINTS
 62
     0
100
AcDbPoint
 10
365.2128312237187
 20
273.0292360382598
 30
0.0
  0
ENDBLK
  5
22D7
330
22C7
100
AcDbEntity
  8
0
100
AcDbBlockEnd
  0
ENDSEC
  0
SECTION
  2
ENTITIES
  0
LINE
  5
324
330
CA5
100
AcDbEntity
  8
STEMPEL
100
AcDbLine
 10
830.0
 20
109.9999999999999
 30
0.0
 11
470.0
 21
109.9999999999999
 31
0.0
  0
LINE
  5
325
330
CA5
100
AcDbEntity
  8
STEMPEL
100
AcDbLine
 10
566.0
 20
109.9999999999996
 30
0.0
 11
566.0
 21
10.0
 31
0.0
  0
LINE
  5
326
330
CA5
100
AcDbEntity
  8
STEMPEL
100
AcDbLine
 10
650.0
 20
109.9999999999999
 30
0.0
 11
650.0
 21
10.0
 31
0.0
  0
LINE
  5
327
330
CA5
100
AcDbEntity
  8
STEMPEL
100
AcDbLine
 10
752.0
 20
109.9999999999996
 30
0.0
 11
752.0
 21
40.0
 31
0.0
  0
LINE
  5
328
330
CA5
100
AcDbEntity
  8
STEMPEL
100
AcDbLine
 10
565.9999999999997
 20
30.0
 30
0.0
 11
470.0
 21
30.0
 31
0.0
  0
LINE
  5
329
330
CA5
100
AcDbEntity
  8
STEMPEL
100
AcDbLine
 10
830.0
 20
40.0
 30
0.0
 11
566.0
 21
40.0
 31
0.0
  0
LINE
  5
32A
330
CA5
100
AcDbEntity
  8
STEMPEL
100
AcDbLine
 10
830.0
 20
80.0
 30
0.0
 11
566.0
 21
79.99999999999977
 31
0.0
  0
LINE
  5
32B
330
CA5
100
AcDbEntity
  8
VOLL
100
AcDbLine
 10
484.0000000000001
 20
109.9999999999999
 30
0.0
 11
484.0
 21
10.0
 31
0.0
  0
LINE
  5
32C
330
CA5
100
AcDbEntity
  8
VOLL
100
AcDbLine
 10
524.0
 20
109.9999999999996
 30
0.0
 11
524.0
 21
10.0
 31
0.0
  0
LINE
  5
32D
330
CA5
100
AcDbEntity
  8
VOLL
100
AcDbLine
 10
544.0
 20
109.9999999999996
 30
0.0
 11
544.0
 21
10.0
 31
0.0
  0
LINE
  5
32E
330
CA5
100
AcDbEntity
  8
VOLL
100
AcDbLine
 10
584.0
 20
79.99999999999977
 30
0.0
 11
584.0
 21
40.0
 31
0.0
  0
LINE
  5
32F
330
CA5
100
AcDbEntity
  8
VOLL
100
AcDbLine
 10
610.0
 20
109.9999999999996
 30
0.0
 11
610.0
 21
40.0
 31
0.0
  0
LINE
  5
330
330
CA5
100
AcDbEntity
  8
HILF
100
AcDbLine
 10
470.0000000000001
 20
99.99999999999989
 30
0.0
 11
566.0
 21
99.99999999999989
 31
0.0
  0
LINE
  5
331
330
CA5
100
AcDbEntity
  8
HILF
100
AcDbLine
 10
470.0000000000001
 20
89.99999999999989
 30
0.0
 11
566.0
 21
89.99999999999989
 31
0.0
  0
LINE
  5
332
330
CA5
100
AcDbEntity
  8
HILF
100
AcDbLine
 10
470.0000000000001
 20
79.99999999999977
 30
0.0
 11
566.0
 21
79.99999999999977
 31
0.0
  0
LINE
  5
333
330
CA5
100
AcDbEntity
  8
HILF
100
AcDbLine
 10
470.0000000000001
 20
69.99999999999977
 30
0.0
 11
566.0
 21
69.99999999999977
 31
0.0
  0
LINE
  5
334
330
CA5
100
AcDbEntity
  8
HILF
100
AcDbLine
 10
470.0000000000001
 20
60.0
 30
0.0
 11
566.0
 21
60.0
 31
0.0
  0
LINE
  5
335
330
CA5
100
AcDbEntity
  8
HILF
100
AcDbLine
 10
470.0000000000001
 20
50.0
 30
0.0
 11
566.0
 21
50.0
 31
0.0
  0
LINE
  5
336
330
CA5
100
AcDbEntity
  8
HILF
100
AcDbLine
 10
470.0000000000001
 20
40.0
 30
0.0
 11
566.0
 21
40.0
 31
0.0
  0
LINE
  5
337
330
CA5
100
AcDbEntity
  8
HILF
100
AcDbLine
 10
566.0
 20
69.99999999999977
 30
0.0
 11
650.0
 21
69.99999999999977
 31
0.0
  0
LINE
  5
338
330
CA5
100
AcDbEntity
  8
HILF
100
AcDbLine
 10
566.0
 20
60.0
 30
0.0
 11
650.0
 21
60.0
 31
0.0
  0
LINE
  5
339
330
CA5
100
AcDbEntity
  8
HILF
100
AcDbLine
 10
566.0
 20
50.0
 30
0.0
 11
650.0
 21
50.0
 31
0.0
  0
LINE
  5
33A
330
CA5
100
AcDbEntity
  8
HILF
100
AcDbLine
 10
654.7736801096946
 20
84.03758247564121
 30
0.0
 11
744.8353916556309
 21
84.03758247564121
 31
0.0
  0
LINE
  5
33B
330
CA5
100
AcDbEntity
  8
HILF
100
AcDbLine
 10
654.7736801096946
 20
69.99999999999977
 30
0.0
 11
744.8353916556309
 21
69.99999999999977
 31
0.0
  0
LINE
  5
33C
330
CA5
100
AcDbEntity
  8
HILF
100
AcDbLine
 10
654.7736801096946
 20
60.0
 30
0.0
 11
744.8353916556309
 21
60.0
 31
0.0
  0
LINE
  5
33D
330
CA5
100
AcDbEntity
  8
HILF
100
AcDbLine
 10
654.7736801096946
 20
50.0
 30
0.0
 11
744.8353916556309
 21
50.0
 31
0.0
  0
LINE
  5
33E
330
CA5
100
AcDbEntity
  8
VOLL
100
AcDbLine
 10
752.0
 20
60.0
 30
0.0
 11
830.0
 21
60.0
 31
0.0
  0
LINE
  5
33F
330
CA5
100
AcDbEntity
  8
HILF
100
AcDbLine
 10
756.7238616296992
 20
83.77983636955798
 30
0.0
 11
824.8588839326728
 21
83.77983636955798
 31
0.0
  0
LINE
  5
340
330
CA5
100
AcDbEntity
  8
HILF
100
AcDbLine
 10
653.4909699289885
 20
14.89398258028314
 30
0.0
 11
824.8588839326728
 21
14.89398258028314
 31
0.0
  0
TEXT
  5
341
330
CA5
100
AcDbEntity
  8
TEXT
100
AcDbText
 10
492.7826069847975
 20
18.67381894984123
 30
0.0
 40
4.0
  1
Änderung
 41
0.8
  7
GREEKS
 72
     1
 11
503.5254641276546
 21
18.67381894984123
 31
0.0
100
AcDbText
  0
TEXT
  5
342
330
CA5
100
AcDbEntity
  8
TEXT
100
AcDbText
 10
573.5163572150376
 20
102.4620895087085
 30
0.0
 40
5.0
  1
Maßstab
 41
0.8
  7
GREEKS
100
AcDbText
  0
TEXT
  5
343
330
CA5
100
AcDbEntity
  8
TEXT
100
AcDbText
 10
614.2858954734052
 20
102.4184168434816
 30
0.0
 40
5.0
  1
Zul. Abw.
 41
0.8
  7
GREEKS
100
AcDbText
  0
TEXT
  5
344
330
CA5
100
AcDbEntity
  8
TEXT
100
AcDbText
 10
654.8779403809009
 20
102.5489328011778
 30
0.0
 40
5.0
  1
Benennung
 41
0.8
  7
GREEKS
100
AcDbText
  0
TEXT
  5
345
330
CA5
100
AcDbEntity
  8
TEXT
100
AcDbText
 10
756.178754957634
 20
102.3132034537135
 30
0.0
 40
5.0
  1
Zeichnungs Nr.
 41
0.8
  7
GREEKS
100
AcDbText
  0
TEXT
  5
346
330
CA5
100
AcDbEntity
  8
TEXT
100
AcDbText
 10
654.7422383911359
 20
30.84560570193048
 30
0.0
 40
5.0
  1
Bauvorhaben
 41
0.8
  7
GREEKS
100
AcDbText
  0
TEXT
  5
347
330
CA5
100
AcDbEntity
  8
TEXT
100
AcDbText
 10
756.7238616296992
 20
73.18118237099952
 30
0.0
 40
5.0
  1
Ersatz für:
 41
0.8
  7
GREEKS
100
AcDbText
  0
TEXT
  5
348
330
CA5
100
AcDbEntity
  8
TEXT
100
AcDbText
 10
478.2664110704575
 20
13.65465846027177
 30
0.0
 40
4.0
  1
Index
 50
90.0
 41
0.8
  7
GREEKS
100
AcDbText
  0
TEXT
  5
349
330
CA5
100
AcDbEntity
  8
TEXT
100
AcDbText
 10
530.0571803261054
 20
18.67156269339807
 30
0.0
 40
4.0
  1
Tag
 41
0.8
  7
GREEKS
 72
     1
 11
533.7905136594388
 21
18.67156269339807
 31
0.0
100
AcDbText
  0
TEXT
  5
34A
330
CA5
100
AcDbEntity
  8
TEXT
100
AcDbText
 10
548.6614567187547
 20
18.59324216966411
 30
0.0
 40
4.0
  1
Name
 41
0.8
  7
GREEKS
 72
     1
 11
554.9852662425641
 21
18.59324216966411
 31
0.0
100
AcDbText
  0
TEXT
  5
34B
330
CA5
100
AcDbEntity
  8
TEXT
100
AcDbText
 10
592.3311673153651
 20
73.31880501229921
 30
0.0
 40
4.0
  1
Tag
 41
0.8
  7
GREEKS
100
AcDbText
  0
TEXT
  5
34C
330
CA5
100
AcDbEntity
  8
TEXT
100
AcDbText
 10
622.4626584226293
 20
73.30961091915219
 30
0.0
 40
4.0
  1
Name
 41
0.8
  7
GREEKS
100
AcDbText
  0
TEXT
  5
34D
330
CA5
100
AcDbEntity
  8
TEXT
100
AcDbText
 10
567.5836127167615
 20
63.62990369617955
 30
0.0
 40
4.0
  1
Gez.
 41
0.8
  7
GREEKS
100
AcDbText
  0
TEXT
  5
34E
330
CA5
100
AcDbEntity
  8
TEXT
100
AcDbText
 10
567.5515086571672
 20
53.68926291428374
 30
0.0
 40
4.0
  1
Gepr.
 41
0.8
  7
GREEKS
100
AcDbText
  0
TEXT
  5
34F
330
CA5
100
AcDbEntity
  8
TEXT
100
AcDbText
 10
567.6006777387303
 20
43.5294638964981
 30
0.0
 40
4.0
  1
Norm.
 41
0.8
  7
GREEKS
100
AcDbText
  0
LINE
  5
350
330
CA5
100
AcDbEntity
  8
STEMPEL
100
AcDbLine
 10
479.9999999999998
 20
10.0
 30
0.0
 11
830.0
 21
10.0
 31
0.0
  0
TEXT
  5
351
330
CA5
100
AcDbEntity
  8
TEXT
100
AcDbText
 10
757.2400861497006
 20
52.07416177878599
 30
0.0
 40
5.0
  1
ersetzt durch:
 41
0.8
  7
GREEKS
100
AcDbText
  0
LINE
  5
352
330
CA5
100
AcDbEntity
  8
STEMPEL
100
AcDbLine
 10
830.0
 20
10.0
 30
0.0
 11
39.99999999999997
 21
10.0
 31
0.0
  0
LINE
  5
353
330
CA5
100
AcDbEntity
  8
STEMPEL
100
AcDbLine
 10
830.0
 20
10.0
 30
0.0
 11
830.0
 21
583.9999999999998
 31
0.0
  0
LINE
  5
354
330
CA5
100
AcDbEntity
  8
STEMPEL
100
AcDbLine
 10
470.0
 20
10.0
 30
0.0
 11
470.0
 21
109.9999999999999
 31
0.0
  0
LINE
  5
355
330
CA5
100
AcDbEntity
  8
STEMPEL
100
AcDbLine
 10
830.0
 20
583.9999999999998
 30
0.0
 11
39.99999999999986
 21
583.9999999999998
 31
0.0
  0
LINE
  5
356
330
CA5
100
AcDbEntity
  8
HILF
100
AcDbLine
 10
839.9999999999998
 20
594.0000000000001
 30
0.0
 11
-0.0000000000002274
 21
593.9999999999996
 31
0.0
  0
LINE
  5
357
330
CA5
100
AcDbEntity
  8
HILF
100
AcDbLine
 10
840.0
 20
0.0
 30
0.0
 11
0.0
 21
0.0
 31
0.0
  0
LINE
  5
358
330
CA5
100
AcDbEntity
  8
HILF
100
AcDbLine
 10
31.08767135713847
 20
296.9999999999998
 30
0.0
 11
0.0
 21
296.9999999999998
 31
0.0
  0
TEXT
  5
359
330
CA5
100
AcDbEntity
  8
TEXT
100
AcDbText
 10
568.6221098221039
 20
73.14025471151649
 30
0.0
 40
4.0
  1
2010
 41
0.8
  7
GREEKS
100
AcDbText
  0
LINE
  5
35A
330
CA5
100
AcDbEntity
  8
HILF
100
AcDbLine
 10
840.0
 20
-0.0000000000002274
 30
0.0
 11
839.9999999999998
 21
593.9999999999998
 31
0.0
  0
TEXT
  5
35B
330
CA5
100
AcDbEntity
  8
VOLL
100
AcDbText
 10
78.07675471698113
 20
31.02594776470585
 30
0.0
 40
1.8
  1

  7
GREEKS
100
AcDbText
  0
TEXT
  5
35C
330
CA5
100
AcDbEntity
  8
TEXT
100
AcDbText
 10
471.8550995097768
 20
111.6719999999997
 30
0.0
 40
5.0
  1
Erstellt mit AUTOCAD 2004
 41
0.8
  7
GREEKS
100
AcDbText
  0
TEXT
  5
35D
330
CA5
100
AcDbEntity
  8
TEXT
100
AcDbText
 10
624.4216048581257
 20
63.0896391972351
 30
0.0
 40
4.0
  1
Koeh
 41
0.8
  7
GREEKS
 72
     1
 11
629.6787477152686
 21
63.0896391972351
 31
0.0
100
AcDbText
  0
TEXT
  5
35E
330
CA5
100
AcDbEntity
  8
TEXT
 62
     1
100
AcDbText
 10
767.8977935463265
 20
88.14901428913946
 30
0.0
 40
7.0
  1
01394100W
 41
0.8
  7
GREEKS
 72
     1
 11
790.8311268796597
 21
88.14901428913946
 31
0.0
100
AcDbText
  0
TEXT
  5
35F
330
CA5
100
AcDbEntity
  8
TEXT
 62
     1
100
AcDbText
 10
580.5006306481886
 20
88.14901428913946
 30
0.0
 40
7.0
  1
1:2
 41
0.8
  7
GREEKS
100
AcDbText
  0
TEXT
  5
360
330
CA5
100
AcDbEntity
  8
TEXT
100
AcDbText
 10
591.0085209177599
 20
63.10765040825732
 30
0.0
 40
4.0
  1
13.12.
 41
0.8
  7
GREEKS
 72
     1
 11
597.4085209177599
 21
63.10765040825732
 31
0.0
100
AcDbText
  0
TEXT
  5
361
330
CA5
100
AcDbEntity
  8
TEXT
 62
     1
100
AcDbText
 10
655.0506768857031
 20
87.41748789253767
 30
0.0
 40
7.0
  1
LORO-Attikstar DN100
 41
0.75
  7
GREEKS
100
AcDbText
  0
TEXT
  5
362
330
CA5
100
AcDbEntity
  8
TEXT
100
AcDbText
 10
655.1296391125315
 20
71.50334417585281
 30
0.0
 40
5.0
  1
Auslauf seitlich 3°
 41
0.8
  7
GREEKS
100
AcDbText
  0
TEXT
  5
363
330
CA5
100
AcDbEntity
  8
TEXT
100
AcDbText
 10
655.1296391125315
 20
51.64011943042146
 30
0.0
 40
5.0
  1
EDV-Art.Nr. 01394.100X
 41
0.8
  7
GREEKS
100
AcDbText
  0
TEXT
  5
364
330
CA5
100
AcDbEntity
  8
TEXT
100
AcDbText
 10
654.9837501577826
 20
42.62974153022628
 30
0.0
 40
4.0
  1
01394100W.DWG
 41
0.8
  7
GREEKS
100
AcDbText
  0
INSERT
  5
366
330
CA5
100
AcDbEntity
  8
STEMPEL
100
AcDbBlockReference
  2
LOGO
 10
570.9955485457794
 20
45.0210527644831
 30
0.0
 41
2.0
 42
2.0
 43
2.0
  0
LINE
  5
367
330
CA5
100
AcDbEntity
  8
HILF
100
AcDbLine
 10
0.0
 20
0.0
 30
0.0
 11
-0.0000000000002274
 21
593.9999999999996
 31
0.0
  0
LINE
  5
368
330
CA5
100
AcDbEntity
  8
STEMPEL
100
AcDbLine
 10
39.99999999999997
 20
10.0
 30
0.0
 11
39.99999999999986
 21
583.9999999999998
 31
0.0
  0
LINE
  5
369
330
CA5
100
AcDbEntity
  8
HILF
 62
     7
100
AcDbLine
 10
460.0
 20
-0.0000000000002274
 30
0.0
 11
460.0
 21
10.0
 31
0.0
  0
LINE
  5
36A
330
CA5
100
AcDbEntity
  8
HILF
 62
     7
100
AcDbLine
 10
459.9999999999998
 20
583.9999999999998
 30
0.0
 11
459.9999999999998
 21
593.9999999999996
 31
0.0
  0
TEXT
  5
36B
330
CA5
100
AcDbEntity
  8
TEXT
100
AcDbText
 10
836.5811541437437
 20
12.14804815338303
 30
0.0
 40
4.0
  1
Diese Zeichnung ist urheberrechtlich geschützt und bleibt unser Eigentum. Sie darf weder ganz noch teilweise vervielfältigt und nicht an Dritte weitergegeben werden.
 50
90.0
 41
0.8
  7
GREEKS
100
AcDbText
  0
LINE
  5
36D
330
CA5
100
AcDbEntity
  8
STEMPEL
100
AcDbLine
 10
545.2128312237184
 20
273.0292360382602
 30
0.0
 11
365.2128312237186
 21
273.0292360382597
 31
0.0
  0
LINE
  5
376
102
{ACAD_REACTORS
330
1AAB
102
}
330
CA5
100
AcDbEntity
  8
STEMPEL
100
AcDbLine
 10
283.2128312237184
 20
328.0292360382597
 30
0.0
 11
563.2128312237184
 21
328.0292360382597
 31
0.0
  0
LINE
  5
38F
102
{ACAD_REACTORS
330
1AAB
102
}
330
CA5
100
AcDbEntity
  8
STEMPEL
100
AcDbLine
 10
283.2128312237184
 20
328.0292360382597
 30
0.0
 11
283.2128312237184
 21
331.0292360382597
 31
0.0
  0
LINE
  5
390
102
{ACAD_REACTORS
330
1AAB
330
1D66
330
1E26
330
1EE6
102
}
330
CA5
100
AcDbEntity
  8
MITTEL
100
AcDbLine
 10
335.9404178641969
 20
361.0292360382596
 30
0.0
 11
335.9404178641969
 21
328.0292360382597
 31
0.0
  0
LINE
  5
391
330
CA5
100
AcDbEntity
  8
STEMPEL
100
AcDbLine
 10
340.9404178641969
 20
355.0292360382593
 30
0.0
 11
340.9404178641968
 21
353.5292360382598
 31
0.0
  0
LINE
  5
392
330
CA5
100
AcDbEntity
  8
HILF
100
AcDbLine
 10
339.9404178641969
 20
356.0292360382594
 30
0.0
 11
339.9404178641969
 21
353.5292360382598
 31
0.0
  0
LINE
  5
393
330
CA5
100
AcDbEntity
  8
STEMPEL
100
AcDbLine
 10
330.9404178641969
 20
355.0292360382593
 30
0.0
 11
330.9404178641969
 21
353.5292360382598
 31
0.0
  0
LINE
  5
394
330
CA5
100
AcDbEntity
  8
HILF
100
AcDbLine
 10
331.9404178641969
 20
356.0292360382594
 30
0.0
 11
331.9404178641968
 21
353.5292360382598
 31
0.0
  0
LINE
  5
395
330
CA5
100
AcDbEntity
  8
STEMPEL
100
AcDbLine
 10
330.9404178641969
 20
355.0292360382593
 30
0.0
 11
340.9404178641969
 21
355.0292360382593
 31
0.0
  0
LINE
  5
396
330
CA5
100
AcDbEntity
  8
STEMPEL
100
AcDbLine
 10
331.9404178641969
 20
356.0292360382594
 30
0.0
 11
339.9404178641969
 21
356.0292360382594
 31
0.0
  0
LINE
  5
397
330
CA5
100
AcDbEntity
  8
STEMPEL
100
AcDbLine
 10
331.9404178641969
 20
356.0292360382594
 30
0.0
 11
339.9404178641969
 21
356.0292360382594
 31
0.0
  0
LINE
  5
398
330
CA5
100
AcDbEntity
  8
STEMPEL
100
AcDbLine
 10
330.9404178641969
 20
355.0292360382593
 30
0.0
 11
331.9404178641969
 21
356.0292360382594
 31
0.0
  0
LINE
  5
399
330
CA5
100
AcDbEntity
  8
STEMPEL
100
AcDbLine
 10
339.9404178641969
 20
356.0292360382594
 30
0.0
 11
340.9404178641969
 21
355.0292360382593
 31
0.0
  0
LINE
  5
39D
330
CA5
100
AcDbEntity
  8
MITTEL
100
AcDbLine
 10
418.2128312237185
 20
361.0292360382593
 30
0.0
 11
418.2128312237185
 21
323.0292360382597
 31
0.0
  0
LINE
  5
39E
330
CA5
100
AcDbEntity
  8
STEMPEL
100
AcDbLine
 10
355.2128312237185
 20
328.0292360382597
 30
0.0
 11
355.2128312237185
 21
283.0292360382598
 31
0.0
  0
LINE
  5
3A3
102
{ACAD_REACTORS
330
1AAB
102
}
330
CA5
100
AcDbEntity
  8
STEMPEL
100
AcDbLine
 10
357.2128312237185
 20
328.0292360382597
 30
0.0
 11
357.2128312237185
 21
331.0292360382597
 31
0.0
  0
LINE
  5
3A4
330
CA5
100
AcDbEntity
  8
STEMPEL
100
AcDbLine
 10
413.2128312237184
 20
355.0292360382593
 30
0.0
 11
423.2128312237184
 21
355.0292360382593
 31
0.0
  0
LINE
  5
3A5
330
CA5
100
AcDbEntity
  8
STEMPEL
100
AcDbLine
 10
414.2128312237185
 20
356.0292360382594
 30
0.0
 11
422.2128312237185
 21
356.0292360382594
 31
0.0
  0
LINE
  5
3A6
330
CA5
100
AcDbEntity
  8
STEMPEL
100
AcDbLine
 10
414.2128312237185
 20
356.0292360382594
 30
0.0
 11
422.2128312237185
 21
356.0292360382594
 31
0.0
  0
LINE
  5
3A7
330
CA5
100
AcDbEntity
  8
STEMPEL
100
AcDbLine
 10
413.2128312237184
 20
355.0292360382593
 30
0.0
 11
413.2128312237185
 21
353.5292360382594
 31
0.0
  0
LINE
  5
3A8
330
CA5
100
AcDbEntity
  8
HILF
100
AcDbLine
 10
414.2128312237185
 20
356.0292360382594
 30
0.0
 11
414.2128312237184
 21
353.5292360382594
 31
0.0
  0
LINE
  5
3A9
330
CA5
100
AcDbEntity
  8
STEMPEL
100
AcDbLine
 10
413.2128312237184
 20
355.0292360382593
 30
0.0
 11
414.2128312237185
 21
356.0292360382594
 31
0.0
  0
LINE
  5
3AA
330
CA5
100
AcDbEntity
  8
STEMPEL
100
AcDbLine
 10
423.2128312237184
 20
355.0292360382593
 30
0.0
 11
423.2128312237184
 21
353.5292360382594
 31
0.0
  0
LINE
  5
3AB
330
CA5
100
AcDbEntity
  8
HILF
100
AcDbLine
 10
422.2128312237185
 20
356.0292360382594
 30
0.0
 11
422.2128312237185
 21
353.5292360382593
 31
0.0
  0
LINE
  5
3AC
330
CA5
100
AcDbEntity
  8
STEMPEL
100
AcDbLine
 10
422.2128312237185
 20
356.0292360382594
 30
0.0
 11
423.2128312237184
 21
355.0292360382593
 31
0.0
  0
LINE
  5
3AD
102
{ACAD_REACTORS
330
1AAB
102
}
330
CA5
100
AcDbEntity
  8
STEMPEL
100
AcDbLine
 10
479.2128312237185
 20
328.0292360382597
 30
0.0
 11
479.2128312237185
 21
331.0292360382597
 31
0.0
  0
LINE
  5
3AF
102
{ACAD_REACTORS
330
1AAB
330
1D66
330
1E26
330
1EE6
102
}
330
CA5
100
AcDbEntity
  8
MITTEL
100
AcDbLine
 10
500.48524458324
 20
361.0292360382593
 30
0.0
 11
500.48524458324
 21
328.0292360382597
 31
0.0
  0
LINE
  5
3B0
330
CA5
100
AcDbEntity
  8
STEMPEL
100
AcDbLine
 10
495.4852445832401
 20
355.0292360382593
 30
0.0
 11
505.4852445832401
 21
355.0292360382593
 31
0.0
  0
LINE
  5
3B1
330
CA5
100
AcDbEntity
  8
STEMPEL
100
AcDbLine
 10
496.48524458324
 20
356.0292360382594
 30
0.0
 11
504.48524458324
 21
356.0292360382594
 31
0.0
  0
LINE
  5
3B2
330
CA5
100
AcDbEntity
  8
STEMPEL
100
AcDbLine
 10
496.48524458324
 20
356.0292360382594
 30
0.0
 11
504.48524458324
 21
356.0292360382594
 31
0.0
  0
LINE
  5
3B3
330
CA5
100
AcDbEntity
  8
STEMPEL
100
AcDbLine
 10
495.4852445832401
 20
355.0292360382593
 30
0.0
 11
495.4852445832401
 21
353.5292360382586
 31
0.0
  0
LINE
  5
3B4
330
CA5
100
AcDbEntity
  8
HILF
100
AcDbLine
 10
496.48524458324
 20
356.0292360382594
 30
0.0
 11
496.4852445832401
 21
353.5292360382586
 31
0.0
  0
LINE
  5
3B5
330
CA5
100
AcDbEntity
  8
STEMPEL
100
AcDbLine
 10
495.4852445832401
 20
355.0292360382593
 30
0.0
 11
496.48524458324
 21
356.0292360382594
 31
0.0
  0
LINE
  5
3B6
330
CA5
100
AcDbEntity
  8
STEMPEL
100
AcDbLine
 10
505.4852445832401
 20
355.0292360382593
 30
0.0
 11
505.4852445832401
 21
353.5292360382586
 31
0.0
  0
LINE
  5
3B7
330
CA5
100
AcDbEntity
  8
HILF
100
AcDbLine
 10
504.48524458324
 20
356.0292360382594
 30
0.0
 11
504.4852445832401
 21
353.5292360382586
 31
0.0
  0
LINE
  5
3B8
330
CA5
100
AcDbEntity
  8
STEMPEL
100
AcDbLine
 10
504.48524458324
 20
356.0292360382594
 30
0.0
 11
505.4852445832401
 21
355.0292360382593
 31
0.0
  0
LINE
  5
3C5
102
{ACAD_REACTORS
330
1A7C
102
}
330
CA5
100
AcDbEntity
  8
STEMPEL
100
AcDbLine
 10
555.2128312237185
 20
328.0292360382597
 30
0.0
 11
555.2128312237185
 21
283.0292360382602
 31
0.0
  0
ARC
  5
3D7
330
CA5
100
AcDbEntity
  8
SCHRAFF
100
AcDbCircle
 10
555.2128312237185
 20
328.0292360382597
 30
0.0
 40
3.0
100
AcDbArc
 50
270.0
 51
0.0
  0
ARC
  5
3D8
330
CA5
100
AcDbEntity
  8
SCHRAFF
100
AcDbCircle
 10
355.2128312237185
 20
328.0292360382597
 30
0.0
 40
3.0
100
AcDbArc
 50
180.0
 51
269.9999999999995
  0
INSERT
  5
3DA
330
CA5
100
AcDbEntity
  8
SCHRAFF
100
AcDbBlockReference
  2
*X1
 10
146.1482746102217
 20
-114.9554161589258
 30
0.0
1001
ACAD
1000
HATCH
1002
{
1070
    16
1000
_U,I
1040
0.1
1040
0.0
1070
     0
1002
}
  0
LINE
  5
4FD
330
CA5
100
AcDbEntity
  8
HILF
100
AcDbLine
 10
700.6513156881228
 20
311.3873507092222
 30
0.0
 11
695.7938063659967
 21
217.546787473143
 31
0.0
  0
DIMENSION
  5
4FE
330
CA5
100
AcDbEntity
  8
BEM
100
AcDbDimension
  2
*D3
 10
730.4820960612813
 20
313.7939772902857
 30
0.0
 11
721.2479928088404
 21
263.217436289288
 31
0.0
 70
    33
  1
%%c101.6
 71
     5
 42
102.0001012254858
  3
STANDARD
100
AcDbAlignedDimension
 13
695.4599992512055
 23
213.5326924946374
 33
0.0
 14
700.9470292987846
 24
315.3851011616214
 34
0.0
  0
LINE
  5
4FF
102
{ACAD_REACTORS
330
1A7C
102
}
330
CA5
100
AcDbEntity
  8
STEMPEL
100
AcDbLine
 10
707.8498280331471
 20
314.4149760657115
 30
0.0
 11
702.5758344142903
 21
213.7811829341087
 31
0.0
  0
LINE
  5
500
102
{ACAD_REACTORS
330
1A7C
102
}
330
CA5
100
AcDbEntity
  8
STEMPEL
100
AcDbLine
 10
695.5521481336595
 20
215.5371294931181
 30
0.0
 11
702.680906156477
 21
215.7860712087954
 31
0.0
  0
LINE
  5
501
102
{ACAD_REACTORS
330
1A7C
102
}
330
CA5
100
AcDbEntity
  8
STEMPEL
100
AcDbLine
 10
695.5346784353819
 20
213.5353003492138
 30
0.0
 11
702.5758344142903
 21
213.7811829341087
 31
0.0
  0
LINE
  5
506
102
{ACAD_REACTORS
330
1A7C
102
}
330
CA5
100
AcDbEntity
  8
STEMPEL
100
AcDbLine
 10
700.8729459721813
 20
315.3955128941798
 30
0.0
 11
707.8498280331471
 21
314.4149760657115
 31
0.0
  0
LINE
  5
507
102
{ACAD_REACTORS
330
1A7C
102
}
330
CA5
100
AcDbEntity
  8
STEMPEL
100
AcDbLine
 10
700.6810718454882
 20
313.4028238990657
 30
0.0
 11
707.7447562909601
 21
312.4100877910248
 31
0.0
  0
LINE
  5
51E
102
{ACAD_REACTORS
330
1A7C
102
}
330
CA5
100
AcDbEntity
  8
STEMPEL
100
AcDbLine
 10
555.2128312237185
 20
321.026491346264
 30
0.0
 11
700.6810718454882
 21
313.4028238990657
 31
0.0
  0
LINE
  5
51F
102
{ACAD_REACTORS
330
1A7C
102
}
330
CA5
100
AcDbEntity
  8
STEMPEL
100
AcDbLine
 10
555.2128312237185
 20
323.02923603826
 30
0.0
 11
700.8729459721813
 21
315.3955128941798
 31
0.0
  0
LINE
  5
520
102
{ACAD_REACTORS
330
19EE
330
1A7C
102
}
330
CA5
100
AcDbEntity
  8
STEMPEL
100
AcDbLine
 10
481.3488616922169
 20
224.7603033586482
 30
0.0
 11
695.5346784353819
 21
213.5353003492138
 31
0.0
  0
LINE
  5
521
102
{ACAD_REACTORS
330
1A7C
102
}
330
CA5
100
AcDbEntity
  8
STEMPEL
100
AcDbLine
 10
481.4535336047028
 20
226.7575624281573
 30
0.0
 11
695.5521481336595
 21
215.5371294931181
 31
0.0
  0
LINE
  5
522
330
CA5
100
AcDbEntity
  8
MITTEL
100
AcDbLine
 10
534.7962125359567
 20
273.0292360382602
 30
0.0
 11
710.2059788974916
 21
263.8363997186954
 31
0.0
  0
TEXT
  5
523
330
CA5
100
AcDbEntity
  8
TEXT
 62
     1
100
AcDbText
 10
86.23064564264382
 20
240.9502896203397
 30
0.0
 40
7.0
  1
Ablaufkörper DN100
 41
0.8
  7
GREEKS
100
AcDbText
  0
LINE
  5
524
330
CA5
100
AcDbEntity
  8
TEXT
 62
     2
100
AcDbLine
 10
85.68069864665607
 20
237.2153409071856
 30
0.0
 11
192.11725001403
 21
237.2153409071856
 31
0.0
  0
TEXT
  5
525
330
CA5
100
AcDbEntity
  8
TEXT
 62
     1
100
AcDbText
 10
85.83669481398898
 20
227.9365145489122
 30
0.0
 40
7.0
  1
EDV-Art.Nr. 01386.100X
 41
0.8
  7
GREEKS
100
AcDbText
  0
LINE
  5
529
330
CA5
100
AcDbEntity
  8
STEMPEL
100
AcDbLine
 10
555.2128312237185
 20
321.026491346264
 30
0.0
 11
553.7128312237185
 21
321.026491346264
 31
0.0
  0
ARC
  5
52B
330
CA5
100
AcDbEntity
  8
SCHRAFF
100
AcDbCircle
 10
555.2128312237185
 20
323.02923603826
 30
0.0
 40
2.0
100
AcDbArc
 50
356.9999999999993
 51
90.00000000000161
  0
LINE
  5
52D
330
CA5
100
AcDbEntity
  8
STEMPEL
100
AcDbLine
 10
454.3468058199342
 20
274.52923603826
 30
0.0
 11
481.8092292299483
 21
226.9629233931423
 31
0.0
  0
LINE
  5
E8A
330
CA5
100
AcDbEntity
  8
BEM
100
AcDbLine
 10
707.21254705064
 20
264.0926571545548
 30
0.0
 11
716.0394875814811
 21
264.0926571545548
 31
0.0
  0
DIMENSION
  5
F1A
330
CA5
100
AcDbEntity
  8
BEM
100
AcDbDimension
  2
*D2
 10
355.2128312237185
 20
199.9222049283248
 30
0.0
 11
319.2128312237185
 21
206.4222049283248
 31
0.0
 70
    32
 71
     5
 42
72.0
  3
STANDARD
100
AcDbAlignedDimension
 13
283.2128312237185
 23
328.0292360382597
 33
0.0
 14
355.2128312237185
 24
282.0292360382597
 34
0.0
100
AcDbRotatedDimension
  0
TEXT
  5
116C
330
CA5
100
AcDbEntity
  8
TEXT
 62
     1
100
AcDbText
 10
610.8574875481555
 20
115.8077057792042
 30
0.0
 40
7.0
  1

 41
0.8
  7
GREEKS
100
AcDbText
  0
TEXT
  5
1301
330
CA5
100
AcDbEntity
  8
TEXT
 62
     1
100
AcDbText
 10
591.4517915100001
 20
252.1620544018982
 30
0.0
 40
7.0
  1

 41
0.8
  7
GREEKS
100
AcDbText
  0
LINE
  5
1326
102
{ACAD_REACTORS
330
1AAB
102
}
330
CA5
100
AcDbEntity
  8
STEMPEL
100
AcDbLine
 10
283.2128312237184
 20
331.0292360382597
 30
0.0
 11
563.2128312237184
 21
331.0292360382596
 31
0.0
  0
LINE
  5
138F
330
CA5
100
AcDbEntity
  8
STEMPEL
100
AcDbLine
 10
553.7128312237184
 20
328.0292360382597
 30
0.0
 11
553.7128312237184
 21
283.0292360382602
 31
0.0
  0
LINE
  5
1391
330
CA5
100
AcDbEntity
  8
STEMPEL
100
AcDbLine
 10
545.2128312237184
 20
274.5292360382602
 30
0.0
 11
365.2128312237186
 21
274.5292360382598
 31
0.0
  0
LINE
  5
1392
330
CA5
100
AcDbEntity
  8
STEMPEL
100
AcDbLine
 10
356.7128312237185
 20
328.0292360382597
 30
0.0
 11
356.7128312237185
 21
283.0292360382598
 31
0.0
  0
LINE
  5
13A1
102
{ACAD_REACTORS
330
19EE
102
}
330
CA5
100
AcDbEntity
  8
STEMPEL
100
AcDbLine
 10
453.4807804161496
 20
273.02923603826
 30
0.0
 11
480.5101911242717
 21
226.2129233931424
 31
0.0
  0
HATCH
  5
1412
330
CA5
100
AcDbEntity
  8
SCHRAFF
100
AcDbHatch
 10
0.0
 20
0.0
 30
0.0
210
0.0
220
0.0
230
1.0
  2
_USER
 70
     0
 71
     0
 91
        1
 92
        7
 72
     0
 73
     1
 93
        4
 10
455.2128312237186
 20
273.02923603826
 10
453.9137931180419
 20
272.27923603826
 10
477.363393799782
 20
231.6633362402803
 10
478.6624319054587
 20
232.4133362402804
 97
        0
 75
     0
 76
     0
 52
165.0
 41
2.0
 77
     0
 78
     1
 53
165.0
 43
415.8510584596586
 44
-201.5295534874933
 45
-0.5176380902050419
 46
-1.931851652578136
 79
     0
 47
0.1478004974676494
 98
        1
 10
458.1354915417521
 20
266.8248870135327
  0
HATCH
  5
141C
330
CA5
100
AcDbEntity
  8
SCHRAFF
100
AcDbHatch
 10
0.0
 20
0.0
 30
0.0
210
0.0
220
0.0
230
1.0
  2
_USER
 70
     0
 71
     0
 91
        2
 92
        7
 72
     1
 73
     1
 93
        4
 10
558.2128312237184
 20
328.0292360382597
 42
0.0
 10
557.212831223718
 20
328.0292360382597
 42
0.0
 10
555.2128312237185
 20
328.0292360382598
 42
0.0
 10
555.2128312237185
 20
325.0292360382597
 42
0.4142135623730951
 97
        0
 92
        7
 72
     1
 73
     1
 93
        3
 10
555.2128312237185
 20
325.02923603826
 42
0.0
 10
555.2128312237185
 20
323.02923603826
 42
0.0
 10
557.2100902932277
 20
322.9245641257741
 42
0.4296339059668311
 97
        0
 75
     0
 76
     0
 52
0.0
 41
0.1
 77
     0
 78
     1
 53
0.0
 43
183.8451413091757
 44
-118.269844898205
 45
0.0
 46
0.1
 79
     0
 47
0.0355720223055917
 98
        2
 10
556.3103628841008
 20
326.3131982079006
 10
555.99004318284
 20
324.0010177611111
  0
TEXT
  5
1430
330
CA5
100
AcDbEntity
  8
TEXT
100
AcDbText
 10
612.6882715247924
 20
89.46889230369629
 30
0.0
 40
4.0
  1
DIN EN1124-3
 41
0.8
  7
GREEKS
 72
     1
 11
629.6787477152686
 21
89.46889230369629
 31
0.0
100
AcDbText
  0
ARC
  5
1773
330
CA5
100
AcDbEntity
  8
STEMPEL
100
AcDbCircle
 10
365.2128312237185
 20
283.0292360382598
 30
0.0
 40
10.0
100
AcDbArc
 50
180.0
 51
270.0000000000002
  0
ARC
  5
1774
330
CA5
100
AcDbEntity
  8
STEMPEL
100
AcDbCircle
 10
365.2128312237185
 20
283.0292360382598
 30
0.0
 40
8.5
100
AcDbArc
 50
180.0
 51
270.0000000000002
  0
ARC
  5
1775
330
CA5
100
AcDbEntity
  8
STEMPEL
100
AcDbCircle
 10
545.2128312237184
 20
283.0292360382602
 30
0.0
 40
10.0
100
AcDbArc
 50
270.0000000000002
 51
0.0
  0
ARC
  5
1776
330
CA5
100
AcDbEntity
  8
STEMPEL
100
AcDbCircle
 10
545.2128312237184
 20
283.0292360382602
 30
0.0
 40
8.5
100
AcDbArc
 50
270.0000000000002
 51
0.0
  0
DIMENSION
  5
1784
330
CA5
100
AcDbEntity
  8
BEM
100
AcDbDimension
  2
*D4
 10
555.2128312237185
 20
199.9222049283248
 30
0.0
 11
455.2128312237185
 21
206.4222049283248
 31
0.0
 70
    32
 71
     5
 42
199.9999999999999
  3
STANDARD
100
AcDbAlignedDimension
 13
355.2128312237185
 23
283.0292360382598
 33
0.0
 14
555.2128312237185
 24
283.0292360382602
 34
0.0
100
AcDbRotatedDimension
  0
LINE
  5
1791
102
{ACAD_REACTORS
330
19EE
330
1A7C
102
}
330
CA5
100
AcDbEntity
  8
STEMPEL
100
AcDbLine
 10
481.3488616922169
 20
224.7603033586482
 30
0.0
 11
481.4535336047028
 21
226.7575624281573
 31
0.0
  0
LINE
  5
1792
102
{ACAD_REACTORS
330
19EE
102
}
330
CA5
100
AcDbEntity
  8
STEMPEL
100
AcDbLine
 10
480.5101911242716
 20
226.2129233931424
 30
0.0
 11
481.8092292299483
 21
226.9629233931423
 31
0.0
  0
HATCH
  5
18B9
330
CA5
100
AcDbEntity
  8
SCHRAFF
100
AcDbHatch
 10
0.0
 20
0.0
 30
0.0
210
0.0
220
0.0
230
1.0
  2
_USER
 70
     0
 71
     0
 91
        2
 92
        7
 72
     0
 73
     1
 93
        4
 10
553.7128312237185
 20
321.0264913462641
 10
555.2128312237185
 20
321.026491346264
 10
555.2128312237185
 20
328.0292360382597
 10
553.7128312237184
 20
328.0292360382596
 97
        0
 92
        7
 72
     1
 73
     1
 93
        8
 10
455.2128312237185
 20
273.02923603826
 42
0.0
 10
454.3468058199342
 20
274.52923603826
 42
0.0
 10
365.2128312237186
 20
274.5292360382598
 42
-0.4142135623730959
 10
356.7128312237185
 20
283.0292360382598
 42
0.0
 10
356.7128312237186
 20
328.0292360382598
 42
0.0
 10
355.2128312237185
 20
328.0292360382597
 42
0.0
 10
355.2128312237185
 20
283.0292360382598
 42
0.4142135623730959
 10
365.2128312237186
 20
273.0292360382597
 42
0.0
 97
        0
 75
     0
 76
     0
 52
45.0
 41
2.0
 77
     0
 78
     1
 53
45.0
 43
183.8451413091757
 44
-118.269844898205
 45
-1.414213562373094
 46
1.414213562373095
 79
     0
 47
0.2571972657059169
 98
        2
 10
553.8708532869813
 20
324.4088146574584
 10
421.3377921944884
 20
273.4837564797442
  0
TEXT
  5
18BA
330
CA5
100
AcDbEntity
  8
TEXT
 62
     1
100
AcDbText
 10
609.3910980031976
 20
284.3685676638729
 30
0.0
 40
7.0
  1
DN100
 50
357.0
 41
0.8
  7
GREEKS
100
AcDbText
  0
TEXT
  5
18BB
330
CA5
100
AcDbEntity
  8
TEXT
100
AcDbText
 10
503.5254641276546
 20
33.18502266001542
 30
0.0
 40
4.0
  1

 41
0.6
  7
GREEKS
 72
     1
 11
503.5254641276546
 21
33.18502266001542
 31
0.0
100
AcDbText
  0
ARC
  5
19E5
102
{ACAD_REACTORS
330
19EE
102
}
330
CA5
100
AcDbEntity
  8
SCHRAFF
100
AcDbCircle
 10
481.4535336047028
 20
226.7575624281573
 30
0.0
 40
3.0
100
AcDbArc
 50
141.2902506346703
 51
315.1896851042238
  0
HATCH
  5
19EE
330
CA5
100
AcDbEntity
  8
SCHRAFF
100
AcDbHatch
 10
0.0
 20
0.0
 30
0.0
210
0.0
220
0.0
230
1.0
  2
_USER
 70
     0
 71
     1
 91
        1
 92
        7
 72
     1
 73
     1
 93
        5
 10
481.4535336047028
 20
226.7575624281573
 42
0.0
 10
480.5101911242716
 20
226.2129233931423
 42
0.0
 10
479.1125615876856
 20
228.6336887606686
 42
0.9481309597513934
 10
483.5818652162672
 20
224.6432766028215
 42
0.0
 10
481.348861692217
 20
224.7603033586483
 42
0.0
 97
        5
330
1792
330
13A1
330
19E5
330
520
330
1791
 75
     0
 76
     0
 52
0.0
 41
0.1
 77
     0
 78
     1
 53
0.0
 43
183.8451413091757
 44
-118.269844898205
 45
0.0
 46
0.1
 79
     0
 47
0.02519085598864
 98
        1
 10
480.7537293902919
 20
225.3634130729354
  0
LINE
  5
1A29
102
{ACAD_REACTORS
330
1AAB
102
}
330
CA5
100
AcDbEntity
  8
STEMPEL
100
AcDbLine
 10
563.2128312237184
 20
328.0292360382597
 30
0.0
 11
563.2128312237184
 21
331.0292360382596
 31
0.0
  0
DIMENSION
  5
1A2A
330
CA5
100
AcDbEntity
  8
BEM
100
AcDbDimension
  2
*D5
 10
748.6657811934719
 20
264.0926571545548
 30
0.0
 11
742.1657811934718
 21
296.0609465964074
 31
0.0
 70
    32
  1
64
 71
     5
 42
63.93657888370483
  3
STANDARD
100
AcDbAlignedDimension
 13
563.2128312237184
 23
328.0292360382597
 33
0.0
 14
727.8045684450149
 24
264.0926571545548
 34
0.0
 50
90.0
100
AcDbRotatedDimension
  0
HATCH
  5
1A7C
330
CA5
100
AcDbEntity
  8
SCHRAFF
100
AcDbHatch
 10
0.0
 20
0.0
 30
0.0
210
0.0
220
0.0
230
1.0
  2
_USER
 70
     0
 71
     1
 91
        2
 92
        7
 72
     0
 73
     1
 93
        6
 10
700.6810718454873
 20
313.4028238990658
 10
707.7447562909601
 20
312.4100877910247
 10
707.8498280331471
 20
314.4149760657115
 10
700.8729459721807
 20
315.3955128941799
 10
555.2128312237185
 20
323.0292360382599
 10
555.2128312237185
 20
321.0264913462639
 97
        6
330
3C5
330
51E
330
507
330
4FF
330
506
330
51F
 92
        7
 72
     0
 73
     1
 93
        6
 10
695.5346784353821
 20
213.5353003492138
 10
702.5758344142901
 20
213.7811829341087
 10
702.6809061564771
 20
215.7860712087954
 10
695.5521481336598
 20
215.537129493118
 10
481.4535336047029
 20
226.7575624281573
 10
481.3488616922169
 20
224.7603033586483
 97
        6
330
1791
330
520
330
501
330
4FF
330
500
330
521
 75
     0
 76
     0
 52
120.0
 41
2.0
 77
     0
 78
     1
 53
120.0
 43
183.8451413091757
 44
-118.269844898205
 45
-1.732050807568877
 46
-0.9999999999999996
 79
     0
 47
0.4717080831397002
 98
        2
 10
569.7847810121247
 20
321.2379576481307
 10
559.4039623724142
 20
221.2358434527518
  0
HATCH
  5
1AAB
330
CA5
100
AcDbEntity
  8
SCHRAFF
100
AcDbHatch
 10
0.0
 20
0.0
 30
0.0
210
0.0
220
0.0
230
1.0
  2
_USER
 70
     0
 71
     1
 91
        4
 92
        7
 72
     0
 73
     1
 93
        4
 10
500.48524458324
 20
331.0292360382596
 10
500.48524458324
 20
328.0292360382598
 10
563.2128312237184
 20
328.0292360382597
 10
563.2128312237186
 20
331.0292360382596
 97
        4
330
3AF
330
376
330
1A29
330
1326
 92
        7
 72
     0
 73
     1
 93
        4
 10
500.48524458324
 20
328.0292360382597
 10
500.48524458324
 20
331.0292360382596
 10
479.2128312237185
 20
331.0292360382596
 10
479.2128312237186
 20
328.0292360382598
 97
        4
330
1326
330
3AD
330
376
330
3AF
 92
        7
 72
     0
 73
     1
 93
        4
 10
357.2128312237185
 20
328.0292360382597
 10
357.2128312237185
 20
331.0292360382597
 10
335.9404178641969
 20
331.0292360382597
 10
335.9404178641969
 20
328.0292360382597
 97
        4
330
1326
330
390
330
376
330
3A3
 92
        7
 72
     0
 73
     1
 93
        4
 10
283.2128312237184
 20
331.0292360382597
 10
283.2128312237184
 20
328.0292360382597
 10
335.9404178641969
 20
328.0292360382597
 10
335.9404178641969
 20
331.0292360382597
 97
        4
330
1326
330
38F
330
376
330
390
 75
     0
 76
     0
 52
135.0
 41
2.0
 77
     0
 78
     1
 53
135.0
 43
40.85447473744216
 44
17.86777117617089
 45
-1.414213562373095
 46
-1.414213562373094
 79
     0
 47
0.4717080831397002
 98
        4
 10
514.5777053933597
 20
330.2004109387135
 10
494.2879245270587
 20
328.7852874465359
 10
345.1816347150816
 20
329.2569952772617
 10
326.779277006935
 20
329.7287031079875
  0
DIMENSION
  5
1B61
330
CA5
100
AcDbEntity
  8
BEM
100
AcDbDimension
  2
*D6
 10
555.2128312237185
 20
199.9222049283248
 30
0.0
 11
630.2128312237186
 21
206.4222049283248
 31
0.0
 70
    32
 71
     5
 42
150.0000000000002
  3
STANDARD
100
AcDbAlignedDimension
 13
705.2128312237186
 23
264.0980794999101
 33
0.0
 14
555.2128312237185
 24
283.0292360382602
 34
0.0
100
AcDbRotatedDimension
  0
LINE
  5
1D31
102
{ACAD_REACTORS
330
1D66
102
}
330
CA5
100
AcDbEntity
  8
STEMPEL
100
AcDbLine
 10
283.2128312237184
 20
331.0292360382597
 30
0.0
 11
553.2128312237184
 21
331.0292360382597
 31
0.0
  0
LINE
  5
1D32
102
{ACAD_REACTORS
330
1D66
102
}
330
CA5
100
AcDbEntity
  8
STEMPEL
100
AcDbLine
 10
553.2128312237184
 20
331.0292360382597
 30
0.0
 11
553.2128312237184
 21
334.0292360382597
 31
0.0
  0
LINE
  5
1D33
102
{ACAD_REACTORS
330
1D66
102
}
330
CA5
100
AcDbEntity
  8
STEMPEL
100
AcDbLine
 10
483.2128312237185
 20
331.0292360382597
 30
0.0
 11
483.2128312237185
 21
334.0292360382597
 31
0.0
  0
LINE
  5
1D34
102
{ACAD_REACTORS
330
1D66
102
}
330
CA5
100
AcDbEntity
  8
STEMPEL
100
AcDbLine
 10
353.2128312237185
 20
331.0292360382597
 30
0.0
 11
353.2128312237185
 21
334.0292360382597
 31
0.0
  0
LINE
  5
1D35
102
{ACAD_REACTORS
330
1D66
102
}
330
CA5
100
AcDbEntity
  8
STEMPEL
100
AcDbLine
 10
283.2128312237184
 20
331.0292360382597
 30
0.0
 11
283.2128312237184
 21
334.0292360382597
 31
0.0
  0
LINE
  5
1D36
102
{ACAD_REACTORS
330
1D66
102
}
330
CA5
100
AcDbEntity
  8
STEMPEL
100
AcDbLine
 10
283.2128312237184
 20
334.0292360382597
 30
0.0
 11
553.2128312237184
 21
334.0292360382597
 31
0.0
  0
HATCH
  5
1D66
330
CA5
100
AcDbEntity
  8
SCHRAFF
100
AcDbHatch
 10
0.0
 20
0.0
 30
0.0
210
0.0
220
0.0
230
1.0
  2
NET
 70
     0
 71
     1
 91
        4
 92
        7
 72
     0
 73
     1
 93
        4
 10
553.2128312237184
 20
331.0292360382597
 10
553.2128312237184
 20
334.0292360382597
 10
500.48524458324
 20
334.0292360382598
 10
500.48524458324
 20
331.0292360382597
 97
        4
330
1D36
330
3AF
330
1D31
330
1D32
 92
        7
 72
     0
 73
     1
 93
        4
 10
500.4852445832401
 20
331.0292360382598
 10
500.4852445832401
 20
334.0292360382597
 10
483.2128312237186
 20
334.0292360382598
 10
483.2128312237184
 20
331.0292360382597
 97
        4
330
1D36
330
1D33
330
1D31
330
3AF
 92
        7
 72
     0
 73
     1
 93
        4
 10
353.2128312237184
 20
331.0292360382596
 10
353.2128312237185
 20
334.0292360382597
 10
335.9404178641969
 20
334.0292360382597
 10
335.9404178641969
 20
331.0292360382597
 97
        4
330
1D36
330
390
330
1D31
330
1D34
 92
        7
 72
     0
 73
     1
 93
        4
 10
335.9404178641969
 20
331.0292360382597
 10
335.9404178641969
 20
334.0292360382597
 10
283.2128312237184
 20
334.0292360382598
 10
283.2128312237184
 20
331.0292360382597
 97
        4
330
1D36
330
1D35
330
1D31
330
390
 75
     0
 76
     1
 52
45.0
 41
15.0
 77
     0
 78
     2
 53
45.0
 43
40.85447473744216
 44
17.86777117617089
 45
-1.325825214724776
 46
1.325825214724776
 79
     0
 53
135.0
 43
40.85447473744216
 44
17.86777117617089
 45
-1.325825214724776
 46
-1.325825214724776
 79
     0
 47
0.294028888925796
 98
        4
 10
542.7607636325765
 20
331.9396923492698
 10
495.1119214829482
 20
332.5277505447659
 10
347.7534663606457
 20
332.2337214470179
 10
327.1644583986667
 20
332.2337214470179
  0
LINE
  5
1D91
102
{ACAD_REACTORS
330
2266
102
}
330
CA5
100
AcDbEntity
  8
STEMPEL
100
AcDbLine
 10
168.2128312237182
 20
340.0292360382595
 30
0.0
 11
166.7128312237182
 21
340.0292360382595
 31
0.0
  0
LINE
  5
1D92
102
{ACAD_REACTORS
330
2266
102
}
330
CA5
100
AcDbEntity
  8
STEMPEL
100
AcDbLine
 10
155.2128312237182
 20
336.0292360382595
 30
0.0
 11
155.2128312237182
 21
340.0292360382595
 31
0.0
  0
LINE
  5
1D93
102
{ACAD_REACTORS
330
2266
102
}
330
CA5
100
AcDbEntity
  8
STEMPEL
100
AcDbLine
 10
168.2128312237182
 20
336.0292360382595
 30
0.0
 11
168.2128312237182
 21
340.0292360382595
 31
0.0
  0
LINE
  5
1D94
330
CA5
100
AcDbEntity
  8
STEMPEL
100
AcDbLine
 10
166.7128312237182
 20
351.0292360382595
 30
0.0
 11
164.7128312237182
 21
351.0292360382595
 31
0.0
  0
LINE
  5
1D95
102
{ACAD_REACTORS
330
2266
102
}
330
CA5
100
AcDbEntity
  8
STEMPEL
100
AcDbLine
 10
156.7128312237182
 20
340.0292360382595
 30
0.0
 11
156.7128312237182
 21
351.0292360382595
 31
0.0
  0
LINE
  5
1D96
102
{ACAD_REACTORS
330
2266
102
}
330
CA5
100
AcDbEntity
  8
STEMPEL
100
AcDbLine
 10
166.7128312237182
 20
340.0292360382595
 30
0.0
 11
166.7128312237182
 21
351.0292360382595
 31
0.0
  0
LINE
  5
1D97
102
{ACAD_REACTORS
330
2266
102
}
330
CA5
100
AcDbEntity
  8
HILF
100
AcDbLine
 10
158.7128312237182
 20
336.0292360382595
 30
0.0
 11
158.7128312237182
 21
341.1427360382595
 31
0.0
  0
LINE
  5
1D98
102
{ACAD_REACTORS
330
2266
102
}
330
CA5
100
AcDbEntity
  8
HILF
100
AcDbLine
 10
164.7128312237182
 20
336.0292360382595
 30
0.0
 11
164.7128312237182
 21
341.1427360382595
 31
0.0
  0
LINE
  5
1D9A
102
{ACAD_REACTORS
330
2266
102
}
330
CA5
100
AcDbEntity
  8
STEMPEL
100
AcDbLine
 10
156.7128312237182
 20
340.0292360382595
 30
0.0
 11
155.2128312237182
 21
340.0292360382595
 31
0.0
  0
LINE
  5
1D9B
102
{ACAD_REACTORS
330
2266
102
}
330
CA5
100
AcDbEntity
  8
STEMPEL
100
AcDbLine
 10
164.0993312237182
 20
336.0292360382595
 30
0.0
 11
164.0993312237182
 21
340.5292360382596
 31
0.0
  0
LINE
  5
1D9C
102
{ACAD_REACTORS
330
2266
102
}
330
CA5
100
AcDbEntity
  8
STEMPEL
100
AcDbLine
 10
159.3263312237182
 20
336.0292360382596
 30
0.0
 11
159.3263312237182
 21
340.5292360382596
 31
0.0
  0
LINE
  5
1DA1
330
CA5
100
AcDbEntity
  8
STEMPEL
100
AcDbLine
 10
483.2128312237183
 20
336.0292360382597
 30
0.0
 11
483.2128312237182
 21
334.0292360382597
 31
0.0
  0
LINE
  5
1DA2
330
CA5
100
AcDbEntity
  8
STEMPEL
100
AcDbLine
 10
353.2128312237184
 20
336.0292360382595
 30
0.0
 11
353.2128312237184
 21
334.0292360382597
 31
0.0
  0
LINE
  5
1DA4
330
CA5
100
AcDbEntity
  8
MITTEL
100
AcDbLine
 10
161.7128312237182
 20
329.0292360382597
 30
0.0
 11
161.7128312237182
 21
364.1292360382596
 31
0.0
  0
LINE
  5
1DA5
330
CA5
100
AcDbEntity
  8
STEMPEL
100
AcDbLine
 10
684.7128312237185
 20
334.0292360382597
 30
0.0
 11
684.7128312237183
 21
336.0292360382595
 31
0.0
  0
LINE
  5
1DA6
330
CA5
100
AcDbEntity
  8
STEMPEL
100
AcDbLine
 10
151.7128312237183
 20
334.0292360382597
 30
0.0
 11
151.7128312237183
 21
336.0292360382592
 31
0.0
  0
LINE
  5
1DA7
102
{ACAD_REACTORS
330
2266
102
}
330
CA5
100
AcDbEntity
  8
STEMPEL
100
AcDbLine
 10
684.7128312237183
 20
336.0292360382597
 30
0.0
 11
151.7128312237183
 21
336.0292360382595
 31
0.0
  0
LINE
  5
1DA8
330
CA5
100
AcDbEntity
  8
STEMPEL
100
AcDbLine
 10
684.7128312237183
 20
334.0292360382597
 30
0.0
 11
151.7128312237183
 21
334.0292360382597
 31
0.0
  0
HATCH
  5
1DC6
330
CA5
100
AcDbEntity
  8
SCHRAFF
100
AcDbHatch
 10
0.0
 20
0.0
 30
0.0
210
0.0
220
0.0
230
1.0
  2
_USER
 70
     0
 71
     0
 91
        6
 92
        7
 72
     0
 73
     1
 93
        4
 10
151.7128312237183
 20
336.0292360382595
 10
151.7128312237183
 20
334.0292360382597
 10
161.7128312237182
 20
334.0292360382597
 10
161.7128312237182
 20
336.0292360382595
 97
        0
 92
        7
 72
     0
 73
     1
 93
        4
 10
161.7128312237182
 20
336.0292360382594
 10
161.7128312237182
 20
334.0292360382597
 10
335.9404178641968
 20
334.0292360382597
 10
335.9404178641968
 20
336.0292360382596
 97
        0
 92
        7
 72
     0
 73
     1
 93
        4
 10
335.9404178641968
 20
336.0292360382595
 10
335.9404178641968
 20
334.0292360382596
 10
353.2128312237183
 20
334.0292360382596
 10
353.2128312237184
 20
336.0292360382595
 97
        0
 92
        7
 72
     0
 73
     1
 93
        4
 10
483.2128312237183
 20
336.0292360382595
 10
483.2128312237182
 20
334.0292360382597
 10
500.4852445832401
 20
334.0292360382597
 10
500.4852445832401
 20
336.0292360382596
 97
        0
 92
        7
 72
     0
 73
     1
 93
        4
 10
500.48524458324
 20
336.0292360382596
 10
500.4852445832401
 20
334.0292360382597
 10
546.4628312237182
 20
334.0292360382597
 10
546.4628312237182
 20
336.0292360382596
 97
        0
 92
        7
 72
     0
 73
     1
 93
        4
 10
684.7128312237185
 20
334.0292360382597
 10
684.7128312237183
 20
336.0292360382597
 10
546.4628312237183
 20
336.0292360382597
 10
546.4628312237182
 20
334.0292360382597
 97
        0
 75
     0
 76
     0
 52
45.0
 41
2.0
 77
     0
 78
     1
 53
45.0
 43
40.85447473744216
 44
17.86777117617089
 45
-1.414213562373094
 46
1.414213562373095
 79
     0
 47
0.5475366217584174
 98
        6
 10
158.8636547414103
 20
335.0827318680003
 10
190.0838321275591
 20
335.6302680253873
 10
343.4461050368782
 20
335.0827318680003
 10
490.2357092854654
 20
335.0827318680003
 10
508.3105493501498
 20
335.0827318680003
 10
582.2530730310568
 20
334.5351957106136
  0
LINE
  5
1DFB
102
{ACAD_REACTORS
330
1E26
102
}
330
CA5
100
AcDbEntity
  8
STEMPEL
100
AcDbLine
 10
610.2128312237184
 20
340.0292360382595
 30
0.0
 11
610.2128312237184
 21
376.0292360382593
 31
0.0
  0
ARC
  5
1DFC
102
{ACAD_REACTORS
330
1E26
102
}
330
CA5
100
AcDbEntity
  8
STEMPEL
100
AcDbCircle
 10
607.7128312237184
 20
340.0292360382595
 30
0.0
 40
2.5
100
AcDbArc
 50
270.0
 51
0.0
  0
LINE
  5
1DFD
102
{ACAD_REACTORS
330
1E26
102
}
330
CA5
100
AcDbEntity
  8
STEMPEL
100
AcDbLine
 10
607.7128312237184
 20
337.5292360382595
 30
0.0
 11
228.7128312237185
 21
337.5292360382597
 31
0.0
  0
ARC
  5
1DFE
102
{ACAD_REACTORS
330
1E26
102
}
330
CA5
100
AcDbEntity
  8
STEMPEL
100
AcDbCircle
 10
228.7128312237185
 20
340.0292360382597
 30
0.0
 40
2.5
100
AcDbArc
 50
180.0
 51
270.0
  0
LINE
  5
1DFF
102
{ACAD_REACTORS
330
1E26
102
}
330
CA5
100
AcDbEntity
  8
STEMPEL
100
AcDbLine
 10
226.2128312237185
 20
340.0292360382597
 30
0.0
 11
226.2128312237185
 21
376.0292360382595
 31
0.0
  0
LINE
  5
1E00
102
{ACAD_REACTORS
330
1E26
102
}
330
CA5
100
AcDbEntity
  8
STEMPEL
100
AcDbLine
 10
482.2128312237185
 20
336.0292360382596
 30
0.0
 11
482.2128312237185
 21
337.5292360382596
 31
0.0
  0
LINE
  5
1E01
102
{ACAD_REACTORS
330
1E26
102
}
330
CA5
100
AcDbEntity
  8
STEMPEL
100
AcDbLine
 10
354.2128312237185
 20
336.0292360382597
 30
0.0
 11
354.2128312237185
 21
337.5292360382596
 31
0.0
  0
ARC
  5
1E02
102
{ACAD_REACTORS
330
1E26
102
}
330
CA5
100
AcDbEntity
  8
STEMPEL
100
AcDbCircle
 10
228.7128312237185
 20
340.0292360382597
 30
0.0
 40
4.0
100
AcDbArc
 50
180.0
 51
270.0
  0
ARC
  5
1E03
102
{ACAD_REACTORS
330
1E26
102
}
330
CA5
100
AcDbEntity
  8
STEMPEL
100
AcDbCircle
 10
607.7128312237184
 20
340.0292360382595
 30
0.0
 40
4.0
100
AcDbArc
 50
270.0
 51
0.0
  0
LINE
  5
1E04
102
{ACAD_REACTORS
330
1E26
102
}
330
CA5
100
AcDbEntity
  8
STEMPEL
100
AcDbLine
 10
611.7128312237184
 20
340.0292360382595
 30
0.0
 11
611.7128312237184
 21
376.0292360382593
 31
0.0
  0
LINE
  5
1E05
102
{ACAD_REACTORS
330
1E26
102
}
330
CA5
100
AcDbEntity
  8
STEMPEL
100
AcDbLine
 10
224.7128312237185
 20
340.0292360382597
 30
0.0
 11
224.7128312237185
 21
376.0292360382595
 31
0.0
  0
LINE
  5
1E06
102
{ACAD_REACTORS
330
1E26
102
}
330
CA5
100
AcDbEntity
  8
STEMPEL
100
AcDbLine
 10
611.7128312237184
 20
376.0292360382593
 30
0.0
 11
224.7128312237185
 21
376.0292360382595
 31
0.0
  0
LINE
  5
1E07
102
{ACAD_REACTORS
330
1E26
102
}
330
CA5
100
AcDbEntity
  8
STEMPEL
100
AcDbLine
 10
607.7128312237184
 20
336.0292360382595
 30
0.0
 11
228.7128312237185
 21
336.0292360382597
 31
0.0
  0
HATCH
  5
1E26
330
CA5
100
AcDbEntity
  8
SCHRAFF
100
AcDbHatch
 10
0.0
 20
0.0
 30
0.0
210
0.0
220
0.0
230
1.0
  2
_USER
 70
     0
 71
     1
 91
        4
 92
        7
 72
     1
 73
     1
 93
        8
 10
611.7128312237183
 20
376.0292360382593
 42
0.0
 10
610.2128312237184
 20
376.0292360382593
 42
0.0
 10
610.2128312237184
 20
340.0292360382595
 42
-0.4142135623730951
 10
607.7128312237184
 20
337.5292360382595
 42
0.0
 10
500.4852445832401
 20
337.5292360382596
 42
0.0
 10
500.48524458324
 20
336.0292360382595
 42
0.0
 10
607.7128312237184
 20
336.0292360382595
 42
0.4142135623730951
 10
611.7128312237184
 20
340.0292360382595
 42
0.0
 97
        8
330
1E06
330
1DFB
330
1DFC
330
1DFD
330
3AF
330
1E07
330
1E03
330
1E04
 92
        7
 72
     0
 73
     1
 93
        4
 10
482.2128312237185
 20
337.5292360382596
 10
482.2128312237185
 20
336.0292360382595
 10
500.48524458324
 20
336.0292360382596
 10
500.48524458324
 20
337.5292360382595
 97
        4
330
1DFD
330
1E00
330
1E07
330
3AF
 92
        7
 72
     0
 73
     1
 93
        4
 10
335.9404178641969
 20
337.5292360382596
 10
335.940417864197
 20
336.0292360382596
 10
354.2128312237185
 20
336.0292360382597
 10
354.2128312237185
 20
337.5292360382596
 97
        4
330
1DFD
330
390
330
1E07
330
1E01
 92
        7
 72
     1
 73
     1
 93
        8
 10
228.7128312237185
 20
337.5292360382597
 42
-0.4142135623730951
 10
226.2128312237185
 20
340.0292360382597
 42
0.0
 10
226.2128312237184
 20
376.0292360382595
 42
0.0
 10
224.7128312237185
 20
376.0292360382594
 42
0.0
 10
224.7128312237185
 20
340.0292360382597
 42
0.4142135623730951
 10
228.7128312237185
 20
336.0292360382597
 42
0.0
 10
335.9404178641969
 20
336.0292360382596
 42
0.0
 10
335.9404178641969
 20
337.5292360382596
 42
0.0
 97
        8
330
1DFD
330
1DFE
330
1DFF
330
1E06
330
1E05
330
1E02
330
1E07
330
390
 75
     0
 76
     0
 52
135.0
 41
2.0
 77
     0
 78
     1
 53
135.0
 43
40.85447473744216
 44
17.86777117617089
 45
-1.414213562373095
 46
-1.414213562373094
 79
     0
 47
0.4284220658942015
 98
        4
 10
611.1710768823236
 20
370.2537503626845
 10
490.3150611938026
 20
336.8368289303373
 10
344.1735649042334
 20
336.8368289303373
 10
321.4594928742326
 20
336.8368289303373
  0
LINE
  5
1E8E
102
{ACAD_REACTORS
330
1EE6
102
}
330
CA5
100
AcDbEntity
  8
STEMPEL
100
AcDbLine
 10
291.2128312237186
 20
337.5292360382604
 30
0.0
 11
545.2128312237184
 21
337.5292360382587
 31
0.0
  0
LINE
  5
1E8F
102
{ACAD_REACTORS
330
1EE6
102
}
330
CA5
100
AcDbEntity
  8
STEMPEL
100
AcDbLine
 10
308.870688448292
 20
343.52923603826
 30
0.0
 11
545.2128312237184
 21
343.5292360382584
 31
0.0
  0
ARC
  5
1E90
102
{ACAD_REACTORS
330
1EE6
102
}
330
CA5
100
AcDbEntity
  8
STEMPEL
100
AcDbCircle
 10
545.2128312237184
 20
340.5292360382586
 30
0.0
 40
3.0
100
AcDbArc
 50
269.9999999999996
 51
89.9999999999996
  0
LINE
  5
1E91
330
CA5
100
AcDbEntity
  8
MITTEL
100
AcDbLine
 10
479.2128312237184
 20
332.5292360382587
 30
0.0
 11
479.2128312237187
 21
362.5292360382588
 31
0.0
  0
LINE
  5
1E92
330
CA5
100
AcDbEntity
  8
STEMPEL
100
AcDbLine
 10
471.5462314110622
 20
347.9847391634858
 30
0.0
 11
471.7128312237186
 21
357.5292360382589
 31
0.0
  0
LINE
  5
1E93
330
CA5
100
AcDbEntity
  8
STEMPEL
100
AcDbLine
 10
486.87144997251
 20
348.4419740060722
 30
0.0
 11
486.7128312237186
 21
357.5292360382588
 31
0.0
  0
ARC
  5
1E94
102
{ACAD_REACTORS
330
1EE6
102
}
330
CA5
100
AcDbEntity
  8
STEMPEL
100
AcDbCircle
 10
485.2128312237184
 20
340.5292360382588
 30
0.0
 40
3.0
100
AcDbArc
 50
89.9999999999996
 51
269.9999999999996
  0
ARC
  5
1E95
330
CA5
100
AcDbEntity
  8
STEMPEL
100
AcDbCircle
 10
491.870688448292
 20
348.5292360382585
 30
0.0
 40
5.0
100
AcDbArc
 50
180.9999999999981
 51
243.1970507718971
  0
ARC
  5
1E96
330
CA5
100
AcDbEntity
  8
STEMPEL
100
AcDbCircle
 10
466.554973999145
 20
348.5292360382588
 30
0.0
 40
5.0
100
AcDbArc
 50
269.9999999999996
 51
358.9999999999978
  0
LINE
  5
1E97
330
CA5
100
AcDbEntity
  8
STEMPEL
100
AcDbLine
 10
471.7128312237186
 20
357.5292360382589
 30
0.0
 11
486.7128312237186
 21
357.5292360382588
 31
0.0
  0
LINE
  5
1E98
102
{ACAD_REACTORS
330
1EE6
102
}
330
CA5
100
AcDbEntity
  8
STEMPEL
100
AcDbLine
 10
288.7128312237186
 20
357.5292360382603
 30
0.0
 11
303.7128312237186
 21
357.5292360382602
 31
0.0
  0
ARC
  5
1E9A
102
{ACAD_REACTORS
330
1EE6
102
}
330
CA5
100
AcDbEntity
  8
STEMPEL
100
AcDbCircle
 10
351.2128312237185
 20
340.5292360382595
 30
0.0
 40
3.0
100
AcDbArc
 50
269.9999999999996
 51
89.9999999999996
  0
LINE
  5
1E9B
102
{ACAD_REACTORS
330
1EE6
102
}
330
CA5
100
AcDbEntity
  8
STEMPEL
100
AcDbLine
 10
303.87144997251
 20
348.4419740060736
 30
0.0
 11
303.7128312237186
 21
357.5292360382602
 31
0.0
  0
ARC
  5
1E9C
102
{ACAD_REACTORS
330
1EE6
102
}
330
CA5
100
AcDbEntity
  8
STEMPEL
100
AcDbCircle
 10
308.870688448292
 20
348.52923603826
 30
0.0
 40
5.0
100
AcDbArc
 50
180.9999999999981
 51
269.9999999999996
  0
HATCH
  5
1E9D
330
CA5
100
AcDbEntity
  8
SCHRAFF
100
AcDbHatch
 10
0.0
 20
0.0
 30
0.0
210
0.0
220
0.0
230
1.0
  2
_USER
 70
     0
 71
     0
 91
        5
 92
        7
 72
     0
 73
     1
 93
       12
 10
299.2128312237186
 20
357.5292360382602
 10
300.2128312237186
 20
357.5292360382602
 10
300.2128312237187
 20
354.5292360382602
 10
299.7128312237186
 20
354.5292360382602
 10
299.7128312237186
 20
351.5292360382602
 10
300.2128312237187
 20
351.5292360382602
 10
300.2128312237185
 20
343.5292360382602
 10
299.7128312237185
 20
343.5292360382602
 10
299.7128312237185
 20
340.5292360382603
 10
300.2128312237184
 20
340.5292360382604
 10
300.2128312237184
 20
337.5292360382604
 10
299.2128312237186
 20
337.5292360382604
 97
        0
 92
        7
 72
     0
 73
     1
 93
        5
 10
298.2128312237186
 20
357.5292360382603
 10
299.2128312237186
 20
357.5292360382602
 10
299.2128312237185
 20
337.5292360382603
 10
298.9869109893167
 20
337.5292360382603
 10
298.2128312237185
 20
339.7928814921939
 97
        0
 92
       23
 72
     0
 73
     1
 93
        3
 10
298.9869109893165
 20
337.5292360382603
 10
298.2128312237185
 20
337.5292360382604
 10
298.2128312237186
 20
339.7928814921938
 97
        0
 92
        7
 72
     0
 73
     1
 93
        4
 10
294.2128312237185
 20
337.5292360382605
 10
293.2128312237185
 20
337.5292360382604
 10
293.2128312237186
 20
357.5292360382603
 10
294.2128312237187
 20
357.5292360382603
 97
        0
 92
        7
 72
     0
 73
     1
 93
       12
 10
293.2128312237185
 20
337.5292360382605
 10
292.2128312237185
 20
337.5292360382604
 10
292.2128312237185
 20
340.5292360382603
 10
292.7128312237185
 20
340.5292360382603
 10
292.7128312237185
 20
343.5292360382604
 10
292.2128312237185
 20
343.5292360382605
 10
292.2128312237187
 20
351.5292360382602
 10
292.7128312237186
 20
351.5292360382602
 10
292.7128312237186
 20
354.5292360382603
 10
292.2128312237187
 20
354.5292360382601
 10
292.2128312237186
 20
357.5292360382603
 10
293.2128312237186
 20
357.5292360382603
 97
        0
 75
     0
 76
     0
 52
135.0
 41
1.0
 77
     0
 78
     1
 53
44.9999999999996
 43
643.2128312237146
 44
-174.9127459925797
 45
0.7071067811865426
 46
-0.7071067811865525
 79
     0
 47
0.0578742681889424
 98
        5
 10
299.6161499957428
 20
356.2477051734711
 10
298.6895335456946
 20
355.842585458705
 10
298.5157922582459
 20
338.0173096210809
 10
293.76688548278
 20
339.2326701633655
 10
292.7823567701195
 20
339.2326701633655
  0
LINE
  5
1E9E
102
{ACAD_REACTORS
330
1EE6
102
}
330
CA5
100
AcDbEntity
  8
STEMPEL
100
AcDbLine
 10
299.7128312237186
 20
351.5292360382602
 30
0.0
 11
299.7128312237186
 21
354.5292360382603
 31
0.0
  0
LINE
  5
1E9F
102
{ACAD_REACTORS
330
1EE6
102
}
330
CA5
100
AcDbEntity
  8
STEMPEL
100
AcDbLine
 10
292.7128312237186
 20
351.5292360382602
 30
0.0
 11
292.7128312237186
 21
354.5292360382604
 31
0.0
  0
LINE
  5
1EA0
102
{ACAD_REACTORS
330
1EE6
102
}
330
CA5
100
AcDbEntity
  8
STEMPEL
100
AcDbLine
 10
288.4482522659211
 20
342.3715176977395
 30
0.0
 11
288.7128312237186
 21
357.5292360382603
 31
0.0
  0
LINE
  5
1EA1
330
CA5
100
AcDbEntity
  8
MITTEL
100
AcDbLine
 10
296.2128312237184
 20
332.5292360382601
 30
0.0
 11
296.2128312237187
 21
362.5292360382601
 31
0.0
  0
LINE
  5
1EA2
330
CA5
100
AcDbEntity
  8
HILF
100
AcDbLine
 10
299.2128312237185
 20
337.5292360382601
 30
0.0
 11
299.2128312237186
 21
357.5292360382602
 31
0.0
  0
LINE
  5
1EA3
330
CA5
100
AcDbEntity
  8
HILF
100
AcDbLine
 10
293.2128312237185
 20
337.5292360382601
 30
0.0
 11
293.2128312237186
 21
357.5292360382603
 31
0.0
  0
LINE
  5
1EA4
330
CA5
100
AcDbEntity
  8
STEMPEL
100
AcDbLine
 10
294.2128312237185
 20
337.5292360382601
 30
0.0
 11
294.2128312237187
 21
357.5292360382603
 31
0.0
  0
LINE
  5
1EA5
330
CA5
100
AcDbEntity
  8
STEMPEL
100
AcDbLine
 10
298.2128312237185
 20
337.5292360382601
 30
0.0
 11
298.2128312237186
 21
357.5292360382603
 31
0.0
  0
LINE
  5
1EA6
102
{ACAD_REACTORS
330
1EE6
102
}
330
CA5
100
AcDbEntity
  8
STEMPEL
100
AcDbLine
 10
299.7128312237185
 20
340.5292360382602
 30
0.0
 11
299.7128312237185
 21
343.5292360382602
 31
0.0
  0
LINE
  5
1EA7
102
{ACAD_REACTORS
330
1EE6
102
}
330
CA5
100
AcDbEntity
  8
STEMPEL
100
AcDbLine
 10
299.7128312237185
 20
340.5292360382603
 30
0.0
 11
300.2128312237185
 21
340.5292360382603
 31
0.0
  0
LINE
  5
1EA8
102
{ACAD_REACTORS
330
1EE6
102
}
330
CA5
100
AcDbEntity
  8
STEMPEL
100
AcDbLine
 10
300.2128312237184
 20
337.5292360382603
 30
0.0
 11
300.2128312237184
 21
340.5292360382603
 31
0.0
  0
LINE
  5
1EA9
102
{ACAD_REACTORS
330
1EE6
102
}
330
CA5
100
AcDbEntity
  8
STEMPEL
100
AcDbLine
 10
299.7128312237186
 20
351.5292360382602
 30
0.0
 11
300.2128312237186
 21
351.5292360382602
 31
0.0
  0
LINE
  5
1EAA
102
{ACAD_REACTORS
330
1EE6
102
}
330
CA5
100
AcDbEntity
  8
STEMPEL
100
AcDbLine
 10
299.7128312237185
 20
343.5292360382602
 30
0.0
 11
300.2128312237185
 21
343.5292360382602
 31
0.0
  0
LINE
  5
1EAB
102
{ACAD_REACTORS
330
1EE6
102
}
330
CA5
100
AcDbEntity
  8
STEMPEL
100
AcDbLine
 10
300.2128312237185
 20
343.5292360382601
 30
0.0
 11
300.2128312237187
 21
351.5292360382602
 31
0.0
  0
LINE
  5
1EAC
102
{ACAD_REACTORS
330
1EE6
102
}
330
CA5
100
AcDbEntity
  8
STEMPEL
100
AcDbLine
 10
292.7128312237185
 20
340.5292360382603
 30
0.0
 11
292.7128312237185
 21
343.5292360382605
 31
0.0
  0
ARC
  5
1EAD
102
{ACAD_REACTORS
330
1EE6
102
}
330
CA5
100
AcDbEntity
  8
STEMPEL
100
AcDbCircle
 10
291.2128312237186
 20
340.5292360382599
 30
0.0
 40
3.0
100
AcDbArc
 50
166.043039397103
 51
269.9999999999996
  0
LINE
  5
1EAE
102
{ACAD_REACTORS
330
1EE6
102
}
330
CA5
100
AcDbEntity
  8
STEMPEL
100
AcDbLine
 10
292.2128312237184
 20
340.5292360382603
 30
0.0
 11
292.7128312237185
 21
340.5292360382603
 31
0.0
  0
LINE
  5
1EAF
102
{ACAD_REACTORS
330
1EE6
102
}
330
CA5
100
AcDbEntity
  8
STEMPEL
100
AcDbLine
 10
292.2128312237185
 20
337.5292360382604
 30
0.0
 11
292.2128312237185
 21
340.5292360382603
 31
0.0
  0
ARC
  5
1EB0
102
{ACAD_REACTORS
330
1EE6
102
}
330
CA5
100
AcDbEntity
  8
STEMPEL
100
AcDbCircle
 10
283.4490137901391
 20
342.458779729926
 30
0.0
 40
5.0
100
AcDbArc
 50
346.0430393971031
 51
358.9999999999978
  0
LINE
  5
1EB1
102
{ACAD_REACTORS
330
1EE6
102
}
330
CA5
100
AcDbEntity
  8
STEMPEL
100
AcDbLine
 10
292.2128312237185
 20
343.5292360382604
 30
0.0
 11
292.2128312237187
 21
351.5292360382602
 31
0.0
  0
LINE
  5
1EB2
102
{ACAD_REACTORS
330
1EE6
102
}
330
CA5
100
AcDbEntity
  8
STEMPEL
100
AcDbLine
 10
292.2128312237187
 20
351.5292360382602
 30
0.0
 11
292.7128312237186
 21
351.5292360382602
 31
0.0
  0
LINE
  5
1EB3
102
{ACAD_REACTORS
330
1EE6
102
}
330
CA5
100
AcDbEntity
  8
STEMPEL
100
AcDbLine
 10
292.2128312237185
 20
343.5292360382605
 30
0.0
 11
292.7128312237185
 21
343.5292360382604
 31
0.0
  0
LINE
  5
1EB4
102
{ACAD_REACTORS
330
1EE6
102
}
330
CA5
100
AcDbEntity
  8
STEMPEL
100
AcDbLine
 10
299.7128312237186
 20
354.5292360382602
 30
0.0
 11
300.2128312237186
 21
354.5292360382602
 31
0.0
  0
LINE
  5
1EB5
102
{ACAD_REACTORS
330
1EE6
102
}
330
CA5
100
AcDbEntity
  8
STEMPEL
100
AcDbLine
 10
300.2128312237187
 20
354.5292360382601
 30
0.0
 11
300.2128312237186
 21
357.5292360382602
 31
0.0
  0
LINE
  5
1EB6
102
{ACAD_REACTORS
330
1EE6
102
}
330
CA5
100
AcDbEntity
  8
STEMPEL
100
AcDbLine
 10
292.2128312237187
 20
354.5292360382603
 30
0.0
 11
292.2128312237187
 21
357.5292360382603
 31
0.0
  0
LINE
  5
1EB7
102
{ACAD_REACTORS
330
1EE6
102
}
330
CA5
100
AcDbEntity
  8
STEMPEL
100
AcDbLine
 10
292.2128312237187
 20
354.5292360382603
 30
0.0
 11
292.7128312237186
 21
354.5292360382603
 31
0.0
  0
HATCH
  5
1EE6
330
CA5
100
AcDbEntity
  8
SCHRAFF
100
AcDbHatch
 10
0.0
 20
0.0
 30
0.0
210
0.0
220
0.0
230
1.0
  2
_USER
 70
     0
 71
     1
 91
        5
 92
        7
 72
     1
 73
     1
 93
        4
 10
545.2128312237184
 20
337.5292360382587
 42
1.0
 10
545.2128312237184
 20
343.5292360382584
 42
0.0
 10
500.4852445832401
 20
343.5292360382587
 42
0.0
 10
500.4852445832402
 20
337.5292360382591
 42
0.0
 97
        4
330
1E8F
330
3AF
330
1E8E
330
1E90
 92
        7
 72
     1
 73
     1
 93
        4
 10
500.4852445832401
 20
337.5292360382591
 42
0.0
 10
500.4852445832401
 20
343.5292360382587
 42
0.0
 10
485.2128312237184
 20
343.5292360382588
 42
1.0
 10
485.2128312237184
 20
337.5292360382591
 42
0.0
 97
        4
330
1E8F
330
1E94
330
1E8E
330
3AF
 92
        7
 72
     1
 73
     1
 93
        4
 10
351.2128312237185
 20
337.52923603826
 42
1.0
 10
351.2128312237185
 20
343.5292360382597
 42
0.0
 10
335.9404178641969
 20
343.5292360382599
 42
0.0
 10
335.9404178641969
 20
337.5292360382601
 42
0.0
 97
        4
330
1E8F
330
390
330
1E8E
330
1E9A
 92
        7
 72
     1
 73
     1
 93
       15
 10
335.940417864197
 20
337.52923603826
 42
0.0
 10
335.940417864197
 20
343.5292360382598
 42
0.0
 10
308.870688448292
 20
343.52923603826
 42
-0.409110801427714
 10
303.87144997251
 20
348.4419740060737
 42
0.0
 10
303.7128312237186
 20
357.5292360382603
 42
0.0
 10
300.2128312237186
 20
357.5292360382603
 42
0.0
 10
300.2128312237187
 20
354.5292360382602
 42
0.0
 10
299.7128312237186
 20
354.5292360382601
 42
0.0
 10
299.7128312237185
 20
351.5292360382602
 42
0.0
 10
300.2128312237187
 20
351.5292360382602
 42
0.0
 10
300.2128312237185
 20
343.5292360382602
 42
0.0
 10
299.7128312237185
 20
343.5292360382602
 42
0.0
 10
299.7128312237185
 20
340.5292360382603
 42
0.0
 10
300.2128312237184
 20
340.5292360382603
 42
0.0
 10
300.2128312237184
 20
337.5292360382604
 42
0.0
 97
       15
330
1E8F
330
1E9C
330
1E9B
330
1E98
330
1EB5
330
1EB4
330
1E9E
330
1EA9
330
1EAB
330
1EAA
330
1EA6
330
1EA7
330
1EA8
330
1E8E
330
390
 92
        7
 72
     1
 73
     1
 93
       14
 10
288.4482522659211
 20
342.3715176977395
 42
-0.0565957168052975
 10
288.3013996861263
 20
341.2528149226348
 42
0.4875001418525451
 10
291.2128312237186
 20
337.5292360382604
 42
0.0
 10
292.2128312237185
 20
337.5292360382604
 42
0.0
 10
292.2128312237185
 20
340.5292360382603
 42
0.0
 10
292.7128312237185
 20
340.5292360382603
 42
0.0
 10
292.7128312237185
 20
343.5292360382604
 42
0.0
 10
292.2128312237185
 20
343.5292360382605
 42
0.0
 10
292.2128312237187
 20
351.5292360382602
 42
0.0
 10
292.7128312237186
 20
351.5292360382602
 42
0.0
 10
292.7128312237186
 20
354.5292360382603
 42
0.0
 10
292.2128312237187
 20
354.5292360382603
 42
0.0
 10
292.2128312237187
 20
357.5292360382603
 42
0.0
 10
288.7128312237186
 20
357.5292360382603
 42
0.0
 97
       14
330
1EB2
330
1E9F
330
1EB7
330
1EB6
330
1E98
330
1EA0
330
1EB0
330
1EAD
330
1E8E
330
1EAF
330
1EAE
330
1EAC
330
1EB3
330
1EB1
 75
     0
 76
     0
 52
45.0
 41
5.0
 77
     0
 78
     1
 53
45.0
 43
40.85447473744216
 44
0.0
 45
-3.535533905932737
 46
3.535533905932737
 79
     0
 47
0.3180081610766047
 98
        5
 10
523.6511247763105
 20
340.1508169338244
 10
489.294590661897
 20
340.1508169338244
 10
345.8242467949499
 20
339.8328090098059
 10
321.9655409545822
 20
340.1508169338244
 10
290.1539348309871
 20
345.238948133567
  0
TEXT
  5
1F03
330
CA5
100
AcDbEntity
  8
VOLL
100
AcDbText
 10
451.2643392815692
 20
413.1105731303312
 30
0.0
 40
1.8
  1

  7
GREEKS
100
AcDbText
  0
ARC
  5
1F04
330
CA5
100
AcDbEntity
  8
STEMPEL
100
AcDbCircle
 10
428.3628312237184
 20
344.2792360382593
 30
0.0
 40
0.750000000000001
100
AcDbArc
 50
269.9999991462263
 51
70.00000000000047
  0
ARC
  5
1F05
330
CA5
100
AcDbEntity
  8
STEMPEL
100
AcDbCircle
 10
408.0628312237185
 20
344.2792360382593
 30
0.0
 40
0.7500000000000013
100
AcDbArc
 50
109.9999999999995
 51
269.9999991462263
  0
LINE
  5
1F06
330
CA5
100
AcDbEntity
  8
STEMPEL
100
AcDbLine
 10
409.552577185874
 20
345.6195925544591
 30
0.0
 11
407.8063161162242
 21
344.9840055038487
 31
0.0
  0
LINE
  5
1F07
330
CA5
100
AcDbEntity
  8
STEMPEL
100
AcDbLine
 10
428.6193463312127
 20
344.9840055038487
 30
0.0
 11
426.8730852615628
 21
345.6195925544591
 31
0.0
  0
LINE
  5
1F08
330
CA5
100
AcDbEntity
  8
STEMPEL
100
AcDbLine
 10
426.8730852615628
 20
353.2183469058039
 30
0.0
 11
425.7128312237184
 21
353.5292360382593
 31
0.0
  0
LINE
  5
1F09
330
CA5
100
AcDbEntity
  8
STEMPEL
100
AcDbLine
 10
410.7128312237184
 20
353.5292360382593
 30
0.0
 11
409.552577185874
 21
353.2183469058039
 31
0.0
  0
LINE
  5
1F0A
330
CA5
100
AcDbEntity
  8
STEMPEL
100
AcDbLine
 10
409.552577185874
 20
345.6195925544591
 30
0.0
 11
409.552577185874
 21
353.2183469058039
 31
0.0
  0
LINE
  5
1F0B
330
CA5
100
AcDbEntity
  8
STEMPEL
100
AcDbLine
 10
428.3628312237184
 20
343.5292360382593
 30
0.0
 11
408.0628312237185
 21
343.5292360382593
 31
0.0
  0
LINE
  5
1F0C
330
CA5
100
AcDbEntity
  8
STEMPEL
100
AcDbLine
 10
428.6193463312127
 20
344.9840055038487
 30
0.0
 11
407.8063161162241
 21
344.9840055038487
 31
0.0
  0
LINE
  5
1F0D
330
CA5
100
AcDbEntity
  8
STEMPEL
100
AcDbLine
 10
413.8827042047962
 20
345.6195925544591
 30
0.0
 11
413.8827042047962
 21
353.2183469058039
 31
0.0
  0
LINE
  5
1F0E
330
CA5
100
AcDbEntity
  8
STEMPEL
100
AcDbLine
 10
422.5429582426406
 20
345.6195925544591
 30
0.0
 11
422.5429582426406
 21
353.2183469058039
 31
0.0
  0
LINE
  5
1F0F
330
CA5
100
AcDbEntity
  8
STEMPEL
100
AcDbLine
 10
426.8730852615628
 20
345.6195925544591
 30
0.0
 11
426.8730852615628
 21
353.2183469058039
 31
0.0
  0
LINE
  5
1F10
330
CA5
100
AcDbEntity
  8
STEMPEL
100
AcDbLine
 10
410.7128312237184
 20
353.5292360382593
 30
0.0
 11
425.7128312237184
 21
353.5292360382593
 31
0.0
  0
POINT
  5
1F12
330
CA5
100
AcDbEntity
  8
0
100
AcDbPoint
 10
418.2128312237185
 20
343.5292360382593
 30
0.0
210
0.0000000000000001
220
1.0
230
0.0
  0
ARC
  5
1F13
330
CA5
100
AcDbEntity
  8
HILF
100
AcDbCircle
 10
411.7176406953352
 20
340.2807498887296
 30
0.0
 40
5.761140599691502
100
AcDbArc
 50
67.92594526326054
 51
112.0740547367394
  0
ARC
  5
1F14
330
CA5
100
AcDbEntity
  8
HILF
100
AcDbCircle
 10
424.7080217521017
 20
340.2807498887296
 30
0.0
 40
5.761140599691502
100
AcDbArc
 50
67.92594526326054
 51
112.0740547367394
  0
ARC
  5
1F15
330
CA5
100
AcDbEntity
  8
HILF
100
AcDbCircle
 10
418.2128312237185
 20
323.6307749905981
 30
0.0
 40
22.41111549782308
100
AcDbArc
 50
78.85962783890455
 51
101.1403721610954
  0
ARC
  5
1F16
330
CA5
100
AcDbEntity
  8
STEMPEL
100
AcDbCircle
 10
424.7080217521017
 20
345.8349303304748
 30
0.0
 40
7.694305707784447
100
AcDbArc
 50
73.65710669401345
 51
106.3428933059834
  0
ARC
  5
1F17
330
CA5
100
AcDbEntity
  8
STEMPEL
100
AcDbCircle
 10
411.7176406953352
 20
345.8349303304748
 30
0.0
 40
7.694305707784447
100
AcDbArc
 50
73.65710669401657
 51
106.3428933059865
  0
ARC
  5
1F18
330
CA5
100
AcDbEntity
  8
STEMPEL
100
AcDbCircle
 10
418.2128312237185
 20
323.2183469058044
 30
0.0
 40
30.31088913245485
100
AcDbArc
 50
81.78678929826059
 51
98.2132107017394
  0
ARC
  5
1F19
330
CA5
100
AcDbEntity
  8
STEMPEL
100
AcDbCircle
 10
510.63524458324
 20
344.2792360382587
 30
0.0
 40
0.750000000000001
100
AcDbArc
 50
269.9999991462263
 51
70.00000000000047
  0
ARC
  5
1F1A
330
CA5
100
AcDbEntity
  8
STEMPEL
100
AcDbCircle
 10
490.3352445832401
 20
344.2792360382587
 30
0.0
 40
0.7500000000000013
100
AcDbArc
 50
109.9999999999995
 51
269.9999991462263
  0
LINE
  5
1F1B
330
CA5
100
AcDbEntity
  8
STEMPEL
100
AcDbLine
 10
491.8249905453957
 20
345.6195925544585
 30
0.0
 11
490.0787294757458
 21
344.9840055038481
 31
0.0
  0
LINE
  5
1F1C
330
CA5
100
AcDbEntity
  8
STEMPEL
100
AcDbLine
 10
510.8917596907343
 20
344.9840055038481
 30
0.0
 11
509.1454986210845
 21
345.6195925544585
 31
0.0
  0
LINE
  5
1F1D
330
CA5
100
AcDbEntity
  8
STEMPEL
100
AcDbLine
 10
509.1454986210845
 20
353.2183469058033
 30
0.0
 11
507.9852445832401
 21
353.5292360382586
 31
0.0
  0
LINE
  5
1F1E
330
CA5
100
AcDbEntity
  8
STEMPEL
100
AcDbLine
 10
492.9852445832401
 20
353.5292360382586
 30
0.0
 11
491.8249905453957
 21
353.2183469058033
 31
0.0
  0
LINE
  5
1F1F
330
CA5
100
AcDbEntity
  8
STEMPEL
100
AcDbLine
 10
491.8249905453957
 20
345.6195925544585
 30
0.0
 11
491.8249905453957
 21
353.2183469058033
 31
0.0
  0
LINE
  5
1F20
330
CA5
100
AcDbEntity
  8
STEMPEL
100
AcDbLine
 10
510.63524458324
 20
343.5292360382586
 30
0.0
 11
490.3352445832401
 21
343.5292360382586
 31
0.0
  0
LINE
  5
1F21
330
CA5
100
AcDbEntity
  8
STEMPEL
100
AcDbLine
 10
510.8917596907343
 20
344.9840055038481
 30
0.0
 11
490.0787294757458
 21
344.9840055038481
 31
0.0
  0
LINE
  5
1F22
330
CA5
100
AcDbEntity
  8
STEMPEL
100
AcDbLine
 10
496.1551175643179
 20
345.6195925544585
 30
0.0
 11
496.1551175643179
 21
353.2183469058033
 31
0.0
  0
LINE
  5
1F23
330
CA5
100
AcDbEntity
  8
STEMPEL
100
AcDbLine
 10
504.8153716021623
 20
345.6195925544585
 30
0.0
 11
504.8153716021623
 21
353.2183469058033
 31
0.0
  0
LINE
  5
1F24
330
CA5
100
AcDbEntity
  8
STEMPEL
100
AcDbLine
 10
509.1454986210845
 20
345.6195925544585
 30
0.0
 11
509.1454986210845
 21
353.2183469058033
 31
0.0
  0
LINE
  5
1F25
330
CA5
100
AcDbEntity
  8
STEMPEL
100
AcDbLine
 10
492.9852445832401
 20
353.5292360382586
 30
0.0
 11
507.9852445832401
 21
353.5292360382586
 31
0.0
  0
POINT
  5
1F26
330
CA5
100
AcDbEntity
  8
0
100
AcDbPoint
 10
500.48524458324
 20
343.5292360382586
 30
0.0
210
0.0000000000000001
220
1.0
230
0.0
  0
ARC
  5
1F27
330
CA5
100
AcDbEntity
  8
HILF
100
AcDbCircle
 10
493.9900540548568
 20
340.280749888729
 30
0.0
 40
5.761140599691502
100
AcDbArc
 50
67.92594526326054
 51
112.0740547367394
  0
ARC
  5
1F28
330
CA5
100
AcDbEntity
  8
HILF
100
AcDbCircle
 10
506.9804351116234
 20
340.280749888729
 30
0.0
 40
5.761140599691502
100
AcDbArc
 50
67.92594526326054
 51
112.0740547367394
  0
ARC
  5
1F29
330
CA5
100
AcDbEntity
  8
HILF
100
AcDbCircle
 10
500.48524458324
 20
323.6307749905975
 30
0.0
 40
22.41111549782308
100
AcDbArc
 50
78.85962783890455
 51
101.1403721610954
  0
ARC
  5
1F2A
330
CA5
100
AcDbEntity
  8
STEMPEL
100
AcDbCircle
 10
506.9804351116234
 20
345.8349303304742
 30
0.0
 40
7.694305707784447
100
AcDbArc
 50
73.65710669401345
 51
106.3428933059834
  0
ARC
  5
1F2B
330
CA5
100
AcDbEntity
  8
STEMPEL
100
AcDbCircle
 10
493.9900540548568
 20
345.8349303304742
 30
0.0
 40
7.694305707784447
100
AcDbArc
 50
73.65710669401657
 51
106.3428933059865
  0
ARC
  5
1F2C
330
CA5
100
AcDbEntity
  8
STEMPEL
100
AcDbCircle
 10
500.48524458324
 20
323.2183469058038
 30
0.0
 40
30.31088913245485
100
AcDbArc
 50
81.78678929826059
 51
98.2132107017394
  0
ARC
  5
1F2D
330
CA5
100
AcDbEntity
  8
STEMPEL
100
AcDbCircle
 10
346.0904178641968
 20
344.2792360382599
 30
0.0
 40
0.750000000000001
100
AcDbArc
 50
269.9999991462263
 51
70.00000000000047
  0
ARC
  5
1F2E
330
CA5
100
AcDbEntity
  8
STEMPEL
100
AcDbCircle
 10
325.7904178641969
 20
344.2792360382599
 30
0.0
 40
0.7500000000000013
100
AcDbArc
 50
109.9999999999995
 51
269.9999991462263
  0
LINE
  5
1F2F
330
CA5
100
AcDbEntity
  8
STEMPEL
100
AcDbLine
 10
327.2801638263525
 20
345.6195925544597
 30
0.0
 11
325.5339027567027
 21
344.9840055038493
 31
0.0
  0
LINE
  5
1F30
330
CA5
100
AcDbEntity
  8
STEMPEL
100
AcDbLine
 10
346.3469329716911
 20
344.9840055038493
 30
0.0
 11
344.6006719020413
 21
345.6195925544597
 31
0.0
  0
LINE
  5
1F31
330
CA5
100
AcDbEntity
  8
STEMPEL
100
AcDbLine
 10
344.6006719020413
 20
353.2183469058045
 30
0.0
 11
343.4404178641969
 21
353.5292360382598
 31
0.0
  0
LINE
  5
1F32
330
CA5
100
AcDbEntity
  8
STEMPEL
100
AcDbLine
 10
328.4404178641969
 20
353.5292360382598
 30
0.0
 11
327.2801638263525
 21
353.2183469058045
 31
0.0
  0
LINE
  5
1F33
330
CA5
100
AcDbEntity
  8
STEMPEL
100
AcDbLine
 10
327.2801638263525
 20
345.6195925544597
 30
0.0
 11
327.2801638263525
 21
353.2183469058045
 31
0.0
  0
LINE
  5
1F34
330
CA5
100
AcDbEntity
  8
STEMPEL
100
AcDbLine
 10
346.0904178641968
 20
343.5292360382598
 30
0.0
 11
325.7904178641969
 21
343.5292360382598
 31
0.0
  0
LINE
  5
1F35
330
CA5
100
AcDbEntity
  8
STEMPEL
100
AcDbLine
 10
346.3469329716911
 20
344.9840055038493
 30
0.0
 11
325.5339027567026
 21
344.9840055038493
 31
0.0
  0
LINE
  5
1F36
330
CA5
100
AcDbEntity
  8
STEMPEL
100
AcDbLine
 10
331.6102908452747
 20
345.6195925544597
 30
0.0
 11
331.6102908452747
 21
353.2183469058045
 31
0.0
  0
LINE
  5
1F37
330
CA5
100
AcDbEntity
  8
STEMPEL
100
AcDbLine
 10
340.2705448831191
 20
345.6195925544597
 30
0.0
 11
340.2705448831191
 21
353.2183469058045
 31
0.0
  0
LINE
  5
1F38
330
CA5
100
AcDbEntity
  8
STEMPEL
100
AcDbLine
 10
344.6006719020413
 20
345.6195925544597
 30
0.0
 11
344.6006719020413
 21
353.2183469058045
 31
0.0
  0
LINE
  5
1F39
330
CA5
100
AcDbEntity
  8
STEMPEL
100
AcDbLine
 10
328.4404178641969
 20
353.5292360382598
 30
0.0
 11
343.4404178641969
 21
353.5292360382598
 31
0.0
  0
POINT
  5
1F3A
330
CA5
100
AcDbEntity
  8
0
100
AcDbPoint
 10
335.9404178641969
 20
343.5292360382598
 30
0.0
210
0.0000000000000001
220
1.0
230
0.0
  0
ARC
  5
1F3B
330
CA5
100
AcDbEntity
  8
HILF
100
AcDbCircle
 10
329.4452273358136
 20
340.2807498887302
 30
0.0
 40
5.761140599691502
100
AcDbArc
 50
67.92594526326054
 51
112.0740547367394
  0
ARC
  5
1F3C
330
CA5
100
AcDbEntity
  8
HILF
100
AcDbCircle
 10
342.4356083925802
 20
340.2807498887302
 30
0.0
 40
5.761140599691502
100
AcDbArc
 50
67.92594526326054
 51
112.0740547367394
  0
ARC
  5
1F3D
330
CA5
100
AcDbEntity
  8
HILF
100
AcDbCircle
 10
335.9404178641969
 20
323.6307749905986
 30
0.0
 40
22.41111549782308
100
AcDbArc
 50
78.85962783890455
 51
101.1403721610954
  0
ARC
  5
1F3E
330
CA5
100
AcDbEntity
  8
STEMPEL
100
AcDbCircle
 10
342.4356083925802
 20
345.8349303304754
 30
0.0
 40
7.694305707784447
100
AcDbArc
 50
73.65710669401345
 51
106.3428933059834
  0
ARC
  5
1F3F
330
CA5
100
AcDbEntity
  8
STEMPEL
100
AcDbCircle
 10
329.4452273358136
 20
345.8349303304754
 30
0.0
 40
7.694305707784447
100
AcDbArc
 50
73.65710669401657
 51
106.3428933059865
  0
ARC
  5
1F40
330
CA5
100
AcDbEntity
  8
STEMPEL
100
AcDbCircle
 10
335.9404178641969
 20
323.218346905805
 30
0.0
 40
30.31088913245485
100
AcDbArc
 50
81.78678929826059
 51
98.2132107017394
  0
LINE
  5
206F
330
CA5
100
AcDbEntity
  8
MITTEL
100
AcDbLine
 10
418.2128312237183
 20
464.0292360382592
 30
0.0
 11
418.2128312237182
 21
346.0292360382595
 31
0.0
  0
LINE
  5
2070
330
CA5
100
AcDbEntity
  8
STEMPEL
100
AcDbLine
 10
151.7128312237182
 20
351.0292360382595
 30
0.0
 11
158.7128312237182
 21
351.0292360382595
 31
0.0
  0
LINE
  5
2071
330
CA5
100
AcDbEntity
  8
STEMPEL
100
AcDbLine
 10
151.7128312237182
 20
351.0292360382595
 30
0.0
 11
151.7128312237182
 21
352.5292360382595
 31
0.0
  0
LINE
  5
2072
330
CA5
100
AcDbEntity
  8
STEMPEL
100
AcDbLine
 10
262.4804165858752
 20
459.0292360382593
 30
0.0
 11
573.9452458615613
 21
459.0292360382595
 31
0.0
  0
LINE
  5
2073
330
CA5
100
AcDbEntity
  8
STEMPEL
100
AcDbLine
 10
177.4804165858752
 20
357.5292360382597
 30
0.0
 11
177.4804165858752
 21
374.0292360382593
 31
0.0
  0
ARC
  5
2074
330
CA5
100
AcDbEntity
  8
STEMPEL
100
AcDbCircle
 10
262.4804165858752
 20
374.0292360382593
 30
0.0
 40
85.0
100
AcDbArc
 50
90.0
 51
180.0
  0
ARC
  5
2075
330
CA5
100
AcDbEntity
  8
STEMPEL
100
AcDbCircle
 10
573.9452458615613
 20
374.0292360382591
 30
0.0
 40
85.0
100
AcDbArc
 50
0.0
 51
90.0
  0
LINE
  5
2076
330
CA5
100
AcDbEntity
  8
STEMPEL
100
AcDbLine
 10
658.9452458615615
 20
357.5292360382597
 30
0.0
 11
658.9452458615615
 21
374.0292360382583
 31
0.0
  0
LINE
  5
2077
330
CA5
100
AcDbEntity
  8
STEMPEL
100
AcDbLine
 10
684.7128312237183
 20
351.0292360382591
 30
0.0
 11
684.7128312237183
 21
352.5292360382595
 31
0.0
  0
LINE
  5
2078
330
CA5
100
AcDbEntity
  8
STEMPEL
100
AcDbLine
 10
158.2128312237183
 20
351.0292360382596
 30
0.0
 11
158.2128312237182
 21
352.5292360382595
 31
0.0
  0
LINE
  5
2079
330
CA5
100
AcDbEntity
  8
STEMPEL
100
AcDbLine
 10
165.2128312237183
 20
351.0292360382596
 30
0.0
 11
165.2128312237182
 21
352.5292360382597
 31
0.0
  0
DIMENSION
  5
207A
330
CA5
100
AcDbEntity
  8
BEM
100
AcDbDimension
  2
*D7
 10
177.4804165858752
 20
476.3887065374705
 30
0.0
 11
418.2128312237183
 21
482.8887065374705
 31
0.0
 70
    32
  1
%%c482
 71
     5
 42
481.4648292756861
  3
STANDARD
100
AcDbAlignedDimension
 13
658.9452458615613
 23
374.0292360382591
 33
0.0
 14
177.4804165858752
 24
374.0292360382593
 34
0.0
100
AcDbRotatedDimension
  0
LINE
  5
20A3
330
CA5
100
AcDbEntity
  8
STEMPEL
100
AcDbLine
 10
220.7625823804708
 20
351.0292360382596
 30
0.0
 11
220.7625823804708
 21
363.5292360382595
 31
0.0
  0
ELLIPSE
  5
20A4
330
CA5
100
AcDbEntity
  8
STEMPEL
100
AcDbEllipse
 10
216.7438814181283
 20
363.5292360382595
 30
0.0
 11
0.0
 21
7.5
 31
0.0
210
0.0
220
0.0
230
1.0
 40
0.5358267949789991
 41
4.712388980384689
 42
7.853981633974482
  0
LINE
  5
20A5
330
CA5
100
AcDbEntity
  8
STEMPEL
100
AcDbLine
 10
212.7251804557858
 20
351.0292360382593
 30
0.0
 11
212.7251804557858
 21
363.5292360382593
 31
0.0
  0
ELLIPSE
  5
20A6
330
CA5
100
AcDbEntity
  8
STEMPEL
100
AcDbEllipse
 10
215.0543985649128
 20
363.5292360382595
 30
0.0
 11
0.0
 21
7.5
 31
0.0
210
0.0
220
0.0
230
1.0
 40
0.5358267949789991
 41
4.712388980384689
 42
6.071403112986319
  0
LINE
  5
20A7
330
CA5
100
AcDbEntity
  8
STEMPEL
100
AcDbLine
 10
219.0730995272553
 20
351.0292360382596
 30
0.0
 11
219.0730995272553
 21
363.5292360382595
 31
0.0
  0
LINE
  5
20A8
330
CA5
100
AcDbEntity
  8
STEMPEL
100
AcDbLine
 10
205.5012525862291
 20
351.0292360382595
 30
0.0
 11
205.5012525862291
 21
363.5292360382595
 31
0.0
  0
LINE
  5
20A9
330
CA5
100
AcDbEntity
  8
STEMPEL
100
AcDbLine
 10
199.1145632127529
 20
351.0292360382593
 30
0.0
 11
199.114563212753
 21
363.5292360382593
 31
0.0
  0
ELLIPSE
  5
20AA
330
CA5
100
AcDbEntity
  8
STEMPEL
100
AcDbEllipse
 10
202.307907899491
 20
363.5292360382595
 30
0.0
 11
0.0
 21
7.5
 31
0.0
210
0.0
220
0.0
230
1.0
 40
0.4257792915650669
 41
4.712388980384689
 42
7.853981633974482
  0
ELLIPSE
  5
20AB
330
CA5
100
AcDbEntity
  8
STEMPEL
100
AcDbEllipse
 10
200.4973675346701
 20
363.5292360382595
 30
0.0
 11
0.0
 21
7.5
 31
0.0
210
0.0
220
0.0
230
1.0
 40
0.4257792915650669
 41
4.712388980384689
 42
5.995757469465124
  0
LINE
  5
20AC
330
CA5
100
AcDbEntity
  8
STEMPEL
100
AcDbLine
 10
203.6907122214081
 20
351.0292360382595
 30
0.0
 11
203.6907122214081
 21
363.5292360382595
 31
0.0
  0
LINE
  5
20AD
330
CA5
100
AcDbEntity
  8
STEMPEL
100
AcDbLine
 10
193.5945114548385
 20
351.0292360382595
 30
0.0
 11
193.5945114548385
 21
363.5292360382593
 31
0.0
  0
LINE
  5
20AE
330
CA5
100
AcDbEntity
  8
STEMPEL
100
AcDbLine
 10
188.9592565392142
 20
351.0292360382593
 30
0.0
 11
188.9592565392142
 21
363.5292360382595
 31
0.0
  0
ELLIPSE
  5
20AF
330
CA5
100
AcDbEntity
  8
STEMPEL
100
AcDbEllipse
 10
191.2768839970263
 20
363.5292360382595
 30
0.0
 11
0.0
 21
7.5
 31
0.0
210
0.0
220
0.0
230
1.0
 40
0.3090169943749496
 41
4.712388980384689
 42
7.853981633974482
  0
ELLIPSE
  5
20B0
330
CA5
100
AcDbEntity
  8
STEMPEL
100
AcDbEllipse
 10
189.3738394237177
 20
363.5292360382595
 30
0.0
 11
0.0
 21
7.5
 31
0.0
210
0.0
220
0.0
230
1.0
 40
0.3090169943749496
 41
4.712388980384689
 42
5.860118527714176
  0
LINE
  5
20B1
330
CA5
100
AcDbEntity
  8
STEMPEL
100
AcDbLine
 10
191.6914668815299
 20
351.0292360382595
 30
0.0
 11
191.6914668815299
 21
363.5292360382593
 31
0.0
  0
LINE
  5
20B2
330
CA5
100
AcDbEntity
  8
STEMPEL
100
AcDbLine
 10
185.2301354066833
 20
351.0292360382595
 30
0.0
 11
185.2301354066833
 21
363.5292360382593
 31
0.0
  0
LINE
  5
20B3
330
CA5
100
AcDbEntity
  8
STEMPEL
100
AcDbLine
 10
182.4194156878975
 20
351.0292360382593
 30
0.0
 11
182.4194156878975
 21
363.5292360382593
 31
0.0
  0
ELLIPSE
  5
20B4
330
CA5
100
AcDbEntity
  8
STEMPEL
100
AcDbEllipse
 10
183.8247755472904
 20
363.5292360382595
 30
0.0
 11
0.0
 21
7.5
 31
0.0
210
0.0
220
0.0
230
1.0
 40
0.1873813145857222
 41
4.712388980384689
 42
7.853981633974482
  0
ELLIPSE
  5
20B5
330
CA5
100
AcDbEntity
  8
STEMPEL
100
AcDbEllipse
 10
181.8592389152389
 20
363.5292360382595
 30
0.0
 11
0.0
 21
7.5
 31
0.0
210
0.0
220
0.0
230
1.0
 40
0.1873813145857222
 41
4.712388980384689
 42
5.508767370765571
  0
LINE
  5
20B6
330
CA5
100
AcDbEntity
  8
STEMPEL
100
AcDbLine
 10
183.2645987746318
 20
351.0292360382595
 30
0.0
 11
183.2645987746318
 21
363.5292360382593
 31
0.0
  0
LINE
  5
20B7
330
CA5
100
AcDbEntity
  8
STEMPEL
100
AcDbLine
 10
180.5400356486791
 20
351.0292360382595
 30
0.0
 11
180.5400356486791
 21
363.5292360382595
 31
0.0
  0
LINE
  5
20B8
330
CA5
100
AcDbEntity
  8
STEMPEL
100
AcDbLine
 10
179.5981778557394
 20
351.0292360382595
 30
0.0
 11
179.5981778557394
 21
363.5292360382596
 31
0.0
  0
ELLIPSE
  5
20B9
330
CA5
100
AcDbEntity
  8
STEMPEL
100
AcDbEllipse
 10
180.0691067522093
 20
363.5292360382595
 30
0.0
 11
0.0
 21
7.5
 31
0.0
210
0.0
220
0.0
230
1.0
 40
0.06279051952932
 41
4.712388980384689
 42
7.853981633974482
  0
ELLIPSE
  5
20BA
330
CA5
100
AcDbEntity
  8
STEMPEL
100
AcDbEllipse
 10
656.3565556952272
 20
363.5292360382592
 30
0.0
 11
0.0000000000000075
 21
7.5
 31
0.0
210
0.0
220
0.0
230
-1.0
 40
0.06279051952932
 41
4.712388980384689
 42
7.853981633974482
  0
LINE
  5
20BB
330
CA5
100
AcDbEntity
  8
STEMPEL
100
AcDbLine
 10
656.8274845916971
 20
351.0292360382592
 30
0.0
 11
656.8274845916971
 21
363.5292360382593
 31
0.0
  0
LINE
  5
20BC
330
CA5
100
AcDbEntity
  8
STEMPEL
100
AcDbLine
 10
655.8856267987573
 20
351.0292360382592
 30
0.0
 11
655.8856267987573
 21
363.5292360382592
 31
0.0
  0
LINE
  5
20BD
330
CA5
100
AcDbEntity
  8
STEMPEL
100
AcDbLine
 10
653.1610636728047
 20
351.0292360382592
 30
0.0
 11
653.1610636728047
 21
363.5292360382591
 31
0.0
  0
ELLIPSE
  5
20BE
330
CA5
100
AcDbEntity
  8
STEMPEL
100
AcDbEllipse
 10
654.5664235321976
 20
363.5292360382592
 30
0.0
 11
0.0000000000000075
 21
7.5
 31
0.0
210
0.0
220
0.0
230
-1.0
 40
0.1873813145857222
 41
4.712388980384689
 42
5.508767370765571
  0
ELLIPSE
  5
20BF
330
CA5
100
AcDbEntity
  8
STEMPEL
100
AcDbEllipse
 10
652.6008869001461
 20
363.5292360382592
 30
0.0
 11
0.0000000000000075
 21
7.5
 31
0.0
210
0.0
220
0.0
230
-1.0
 40
0.1873813145857222
 41
4.712388980384689
 42
7.853981633974482
  0
LINE
  5
20C0
330
CA5
100
AcDbEntity
  8
STEMPEL
100
AcDbLine
 10
654.006246759539
 20
351.0292360382591
 30
0.0
 11
654.006246759539
 21
363.5292360382591
 31
0.0
  0
LINE
  5
20C1
330
CA5
100
AcDbEntity
  8
STEMPEL
100
AcDbLine
 10
651.1955270407532
 20
351.0292360382592
 30
0.0
 11
651.1955270407533
 21
363.5292360382591
 31
0.0
  0
LINE
  5
20C2
330
CA5
100
AcDbEntity
  8
STEMPEL
100
AcDbLine
 10
644.7341955659067
 20
351.0292360382592
 30
0.0
 11
644.7341955659067
 21
363.5292360382591
 31
0.0
  0
ELLIPSE
  5
20C3
330
CA5
100
AcDbEntity
  8
STEMPEL
100
AcDbEllipse
 10
647.0518230237188
 20
363.5292360382592
 30
0.0
 11
0.0000000000000075
 21
7.5
 31
0.0
210
0.0
220
0.0
230
-1.0
 40
0.3090169943749496
 41
4.712388980384689
 42
5.860118527714176
  0
ELLIPSE
  5
20C4
330
CA5
100
AcDbEntity
  8
STEMPEL
100
AcDbEllipse
 10
645.1487784504101
 20
363.5292360382592
 30
0.0
 11
0.0000000000000075
 21
7.5
 31
0.0
210
0.0
220
0.0
230
-1.0
 40
0.3090169943749496
 41
4.712388980384689
 42
7.853981633974482
  0
LINE
  5
20C5
330
CA5
100
AcDbEntity
  8
STEMPEL
100
AcDbLine
 10
647.4664059082223
 20
351.0292360382591
 30
0.0
 11
647.4664059082223
 21
363.5292360382592
 31
0.0
  0
LINE
  5
20C6
330
CA5
100
AcDbEntity
  8
STEMPEL
100
AcDbLine
 10
642.831150992598
 20
351.0292360382592
 30
0.0
 11
642.831150992598
 21
363.5292360382591
 31
0.0
  0
LINE
  5
20C7
330
CA5
100
AcDbEntity
  8
STEMPEL
100
AcDbLine
 10
632.7349502260284
 20
351.0292360382592
 30
0.0
 11
632.7349502260284
 21
363.5292360382592
 31
0.0
  0
ELLIPSE
  5
20C8
330
CA5
100
AcDbEntity
  8
STEMPEL
100
AcDbEllipse
 10
635.9282949127664
 20
363.5292360382592
 30
0.0
 11
0.0000000000000075
 21
7.5
 31
0.0
210
0.0
220
0.0
230
-1.0
 40
0.4257792915650669
 41
4.712388980384689
 42
5.995757469465124
  0
ELLIPSE
  5
20C9
330
CA5
100
AcDbEntity
  8
STEMPEL
100
AcDbEllipse
 10
634.1177545479455
 20
363.5292360382592
 30
0.0
 11
0.0000000000000075
 21
7.5
 31
0.0
210
0.0
220
0.0
230
-1.0
 40
0.4257792915650669
 41
4.712388980384689
 42
7.853981633974482
  0
LINE
  5
20CA
330
CA5
100
AcDbEntity
  8
STEMPEL
100
AcDbLine
 10
637.3110992346835
 20
351.0292360382591
 30
0.0
 11
637.3110992346835
 21
363.5292360382591
 31
0.0
  0
LINE
  5
20CB
330
CA5
100
AcDbEntity
  8
STEMPEL
100
AcDbLine
 10
630.9244098612075
 20
351.0292360382592
 30
0.0
 11
630.9244098612075
 21
363.5292360382592
 31
0.0
  0
LINE
  5
20CC
330
CA5
100
AcDbEntity
  8
STEMPEL
100
AcDbLine
 10
617.3525629201812
 20
351.0292360382593
 30
0.0
 11
617.3525629201812
 21
363.5292360382592
 31
0.0
  0
ELLIPSE
  5
20CD
330
CA5
100
AcDbEntity
  8
STEMPEL
100
AcDbEllipse
 10
621.3712638825237
 20
363.5292360382592
 30
0.0
 11
0.0000000000000075
 21
7.5
 31
0.0
210
0.0
220
0.0
230
-1.0
 40
0.5358267949789991
 41
4.712388980384689
 42
6.071403112986319
  0
LINE
  5
20CE
330
CA5
100
AcDbEntity
  8
STEMPEL
100
AcDbLine
 10
623.7004819916506
 20
351.0292360382591
 30
0.0
 11
623.7004819916506
 21
363.5292360382591
 31
0.0
  0
ELLIPSE
  5
20CF
330
CA5
100
AcDbEntity
  8
STEMPEL
100
AcDbEllipse
 10
619.6817810293082
 20
363.5292360382592
 30
0.0
 11
0.0000000000000075
 21
7.5
 31
0.0
210
0.0
220
0.0
230
-1.0
 40
0.5358267949789991
 41
4.712388980384689
 42
7.853981633974482
  0
LINE
  5
20D0
330
CA5
100
AcDbEntity
  8
STEMPEL
100
AcDbLine
 10
615.6630800669656
 20
351.0292360382593
 30
0.0
 11
615.6630800669658
 21
363.5292360382592
 31
0.0
  0
DIMENSION
  5
20F6
330
CA5
100
AcDbEntity
  8
BEM
100
AcDbDimension
  2
*D8
 10
141.091537512757
 20
459.0292360382593
 30
0.0
 11
134.5915375127569
 21
405.0292360382594
 31
0.0
 70
    32
 71
     5
 42
107.9999999999999
  3
STANDARD
100
AcDbAlignedDimension
 13
151.7128312237182
 23
351.0292360382595
 33
0.0
 14
262.4804165858752
 24
459.0292360382593
 34
0.0
 50
90.0
100
AcDbRotatedDimension
  0
ELLIPSE
  5
20F7
330
CA5
100
AcDbEntity
  8
STEMPEL
100
AcDbEllipse
 10
373.5176330058323
 20
383.3377922341814
 30
0.0
 11
-7.551772357047922
 21
0.0
 31
0.0
210
0.0
220
0.0
230
1.0
 40
0.9864879811369666
 41
1.570796326794896
 42
3.093613992828124
  0
ELLIPSE
  5
20F8
330
CA5
100
AcDbEntity
  8
STEMPEL
100
AcDbEllipse
 10
373.5176330058323
 20
383.3377922341814
 30
0.0
 11
0.0
 21
7.449732666510158
 31
0.0
210
0.0
220
0.0
230
1.0
 40
0.9641334428242007
 41
1.519648945093082
 42
3.141592653589793
  0
ELLIPSE
  5
20F9
330
CA5
100
AcDbEntity
  8
STEMPEL
100
AcDbEllipse
 10
374.9324703868345
 20
398.2971736201702
 30
0.0
 11
-6.865864220421656
 21
0.0
 31
0.0
210
0.0
220
0.0
230
1.0
 40
0.9858859068281697
 41
3.092054449737396
 42
4.712388980384689
  0
ELLIPSE
  5
20FA
330
CA5
100
AcDbEntity
  8
STEMPEL
100
AcDbEllipse
 10
374.9324703868345
 20
398.2971736201702
 30
0.0
 11
-7.868444540508618
 21
0.0
 31
0.0
210
0.0
220
0.0
230
1.0
 40
0.8602664399883972
 41
4.712388980384689
 42
6.241161093934784
  0
LINE
  5
20FB
330
CA5
100
AcDbEntity
  8
STEMPEL
100
AcDbLine
 10
366.3444895078829
 20
383.7186604417525
 30
0.0
 11
367.0709727961115
 21
398.5815500667449
 31
0.0
  0
LINE
  5
20FC
330
CA5
100
AcDbEntity
  8
STEMPEL
100
AcDbLine
 10
381.7899117990692
 20
397.9619886923605
 30
0.0
 11
381.0607151217959
 21
382.9805011524459
 31
0.0
  0
ELLIPSE
  5
20FD
330
CA5
100
AcDbEntity
  8
STEMPEL
100
AcDbEllipse
 10
373.1438052072917
 20
383.6584803352879
 30
0.0
 11
0.0
 21
7.629244297028435
 31
0.0
210
0.0
220
0.0
230
1.0
 40
0.9903344813156508
 41
3.141592653589793
 42
4.663812947204031
  0
ELLIPSE
  5
20FE
330
CA5
100
AcDbEntity
  8
STEMPEL
100
AcDbEllipse
 10
373.1438052072918
 20
383.6584803352879
 30
0.0
 11
0.0
 21
7.629244297028434
 31
0.0
210
0.0
220
0.0
230
1.0
 40
0.9409588666597569
 41
2.795036618457124
 42
3.141592653589793
  0
ELLIPSE
  5
20FF
330
CA5
100
AcDbEntity
  8
STEMPEL
100
AcDbEllipse
 10
374.5927350553058
 20
398.9783287426257
 30
0.0
 11
0.0
 21
6.932066213425628
 31
0.0
210
0.0
220
0.0
230
1.0
 40
0.9886030123221999
 41
4.663194129810047
 42
5.089401844521272
  0
LINE
  5
2100
330
CA5
100
AcDbEntity
  8
STEMPEL
100
AcDbLine
 10
380.6903965533486
 20
383.2880276399182
 30
0.0
 11
381.4375056065267
 21
398.6374443175409
 31
0.0
  0
ELLIPSE
  5
2101
330
CA5
100
AcDbEntity
  8
STEMPEL
100
AcDbEllipse
 10
316.6536662896616
 20
383.3377922341814
 30
0.0
 11
0.0
 21
-7.449732666510159
 31
0.0
210
0.0
220
0.0
230
1.0
 40
0.9672431860158084
 41
0.0
 42
1.4598629624633
  0
ELLIPSE
  5
2102
330
CA5
100
AcDbEntity
  8
STEMPEL
100
AcDbEllipse
 10
316.6536662896616
 20
383.3377922341814
 30
0.0
 11
0.0
 21
7.449732666510157
 31
0.0
210
0.0
220
0.0
230
1.0
 40
0.8546216237114292
 41
1.437582775454607
 42
3.141592653589793
  0
ELLIPSE
  5
2103
330
CA5
100
AcDbEntity
  8
STEMPEL
100
AcDbEllipse
 10
319.8685463810658
 20
398.2971736201702
 30
0.0
 11
0.0
 21
6.768958773109488
 31
0.0
210
0.0
220
0.0
230
1.0
 40
0.8342702179112732
 41
4.580246882235923
 42
6.283185307179586
  0
ELLIPSE
  5
2104
330
CA5
100
AcDbEntity
  8
STEMPEL
100
AcDbEllipse
 10
319.8685463810658
 20
398.2971736201702
 30
0.0
 11
7.925265076315838
 21
0.0
 31
0.0
210
0.0
220
0.0
230
1.0
 40
0.8540987219895143
 41
1.570796326794896
 42
3.046275792953959
  0
LINE
  5
2105
330
CA5
100
AcDbEntity
  8
STEMPEL
100
AcDbLine
 10
323.8150774462734
 20
382.5130623079957
 30
0.0
 11
325.4664549233766
 21
397.4053100539766
 31
0.0
  0
LINE
  5
2106
330
CA5
100
AcDbEntity
  8
STEMPEL
100
AcDbLine
 10
310.3433714466591
 20
384.3272650030416
 30
0.0
 11
311.979255776727
 21
398.9413929970956
 31
0.0
  0
ELLIPSE
  5
2107
330
CA5
100
AcDbEntity
  8
STEMPEL
100
AcDbEllipse
 10
315.8042318859067
 20
383.6584803352879
 30
0.0
 11
0.0
 21
7.62924429702855
 31
0.0
210
0.0
220
0.0
230
1.0
 40
0.9455958480330705
 41
3.141592653589793
 42
4.599005405201562
  0
ELLIPSE
  5
2108
330
CA5
100
AcDbEntity
  8
STEMPEL
100
AcDbEllipse
 10
315.8042318859067
 20
383.6584803352879
 30
0.0
 11
0.0
 21
7.629244297028549
 31
0.0
210
0.0
220
0.0
230
1.0
 40
0.83340155440645
 41
3.067291298932811
 42
3.141592653589793
  0
ELLIPSE
  5
2109
330
CA5
100
AcDbEntity
  8
STEMPEL
100
AcDbEllipse
 10
319.096578967465
 20
398.9783287426257
 30
0.0
 11
0.0
 21
6.932066213425628
 31
0.0
210
0.0
220
0.0
230
1.0
 40
0.8104437413242045
 41
4.576379546278952
 42
5.494073833030361
  0
LINE
  5
210A
330
CA5
100
AcDbEntity
  8
STEMPEL
100
AcDbLine
 10
322.9720911094988
 20
382.7953015992382
 30
0.0
 11
324.6627457666776
 21
398.0384064751014
 31
0.0
  0
ELLIPSE
  5
210B
330
CA5
100
AcDbEntity
  8
STEMPEL
100
AcDbEllipse
 10
266.171035414779
 20
383.3377922341814
 30
0.0
 11
0.0
 21
7.449732666510157
 31
0.0
210
0.0
220
0.0
230
1.0
 40
0.8600138311236158
 41
3.141592653589793
 42
4.519420398196004
  0
ELLIPSE
  5
210C
330
CA5
100
AcDbEntity
  8
STEMPEL
100
AcDbEllipse
 10
266.171035414779
 20
383.3377922341814
 30
0.0
 11
0.0
 21
7.449732666510158
 31
0.0
210
0.0
220
0.0
230
1.0
 40
0.6914107849023771
 41
1.320395024281213
 42
3.141592653589793
  0
ELLIPSE
  5
210D
330
CA5
100
AcDbEntity
  8
STEMPEL
100
AcDbEllipse
 10
270.9839554769408
 20
398.2971736201702
 30
0.0
 11
0.0
 21
6.768958773109488
 31
0.0
210
0.0
220
0.0
230
1.0
 40
0.6018040171152261
 41
4.425828378600044
 42
6.283185307179586
  0
ELLIPSE
  5
210E
330
CA5
100
AcDbEntity
  8
STEMPEL
100
AcDbEllipse
 10
270.9839554769408
 20
398.2971736201702
 30
0.0
 11
-7.484112060292061
 21
0.0
 31
0.0
210
0.0
220
0.0
230
1.0
 40
0.9044438028958822
 41
4.712388980384689
 42
6.130513994248445
  0
LINE
  5
210F
330
CA5
100
AcDbEntity
  8
STEMPEL
100
AcDbLine
 10
274.8914281608795
 20
396.3838952162538
 30
0.0
 11
272.4589922771991
 21
381.9091330213805
 31
0.0
  0
LINE
  5
2110
330
CA5
100
AcDbEntity
  8
STEMPEL
100
AcDbLine
 10
261.1808483913542
 20
385.1837820999078
 30
0.0
 11
263.5868959549778
 21
399.3265895132727
 31
0.0
  0
ELLIPSE
  5
2111
330
CA5
100
AcDbEntity
  8
STEMPEL
100
AcDbEllipse
 10
264.8993674933998
 20
383.6584803352879
 30
0.0
 11
0.0
 21
7.629244297028549
 31
0.0
210
0.0
220
0.0
230
1.0
 40
0.8414419499601867
 41
3.181030618742884
 42
4.515066273508823
  0
ELLIPSE
  5
2112
330
CA5
100
AcDbEntity
  8
STEMPEL
100
AcDbEllipse
 10
269.8282615329614
 20
398.9783287426257
 30
0.0
 11
0.0
 21
6.932066213425628
 31
0.0
210
0.0
220
0.0
230
1.0
 40
0.5813613094552538
 41
4.415617612196425
 42
5.729241379912529
  0
LINE
  5
2113
330
CA5
100
AcDbEntity
  8
STEMPEL
100
AcDbLine
 10
273.6821261957442
 20
396.9511552141403
 30
0.0
 11
271.1943617572598
 21
382.1628074533168
 31
0.0
  0
ELLIPSE
  5
2114
330
CA5
100
AcDbEntity
  8
STEMPEL
100
AcDbEllipse
 10
225.2417497411824
 20
383.3377922341814
 30
0.0
 11
0.0
 21
7.449732666510158
 31
0.0
210
0.0
220
0.0
230
1.0
 40
0.6987466443123047
 41
3.141592653589793
 42
4.402991056824687
  0
ELLIPSE
  5
2115
330
CA5
100
AcDbEntity
  8
STEMPEL
100
AcDbEllipse
 10
225.2417497411824
 20
383.3377922341814
 30
0.0
 11
0.0
 21
7.449732666510158
 31
0.0
210
0.0
220
0.0
230
1.0
 40
0.4847560636469183
 41
1.11460087307175
 42
3.141592653589793
  0
ELLIPSE
  5
2116
330
CA5
100
AcDbEntity
  8
STEMPEL
100
AcDbEllipse
 10
231.3502963059143
 20
398.2971736201702
 30
0.0
 11
0.0
 21
6.768958773109488
 31
0.0
210
0.0
220
0.0
230
1.0
 40
0.3315242566434881
 41
4.042200174872513
 42
6.283185307179586
  0
ELLIPSE
  5
2117
330
CA5
100
AcDbEntity
  8
STEMPEL
100
AcDbEllipse
 10
231.3502963059142
 20
398.2971736201702
 30
0.0
 11
0.0
 21
6.768958773109488
 31
0.0
210
0.0
220
0.0
230
1.0
 40
0.9710067647320267
 41
0.0
 42
1.344856082473057
  0
LINE
  5
2118
330
CA5
100
AcDbEntity
  8
STEMPEL
100
AcDbLine
 10
233.1089870078417
 20
394.0927434129672
 30
0.0
 11
230.200054183141
 21
381.0694588665923
 31
0.0
  0
LINE
  5
2119
330
CA5
100
AcDbEntity
  8
STEMPEL
100
AcDbLine
 10
221.9997564614383
 20
386.6196663904037
 30
0.0
 11
224.9446440571382
 21
399.8135747717665
 31
0.0
  0
ELLIPSE
  5
211A
330
CA5
100
AcDbEntity
  8
STEMPEL
100
AcDbEllipse
 10
223.6277518745447
 20
383.6584803352879
 30
0.0
 11
-0.0000000000000142
 21
7.629244297028549
 31
0.0
210
0.0
220
0.0
230
1.0
 40
0.6844171595645641
 41
3.28467037327786
 42
4.397643667213073
  0
ELLIPSE
  5
211B
330
CA5
100
AcDbEntity
  8
STEMPEL
100
AcDbEllipse
 10
229.8834923324019
 20
398.9783287426257
 30
0.0
 11
-0.0000000000000142
 21
6.932066213425628
 31
0.0
210
0.0
220
0.0
230
1.0
 40
0.3157498084158493
 41
4.093270464421379
 42
5.780488369942581
  0
LINE
  5
211C
330
CA5
100
AcDbEntity
  8
STEMPEL
100
AcDbLine
 10
228.5928285154597
 20
381.2966623277337
 30
0.0
 11
231.6660286934487
 21
394.9555293105826
 31
0.0
  0
ELLIPSE
  5
211D
330
CA5
100
AcDbEntity
  8
STEMPEL
100
AcDbEllipse
 10
196.437546815127
 20
383.3377922341814
 30
0.0
 11
0.0
 21
7.449732666510158
 31
0.0
210
0.0
220
0.0
230
1.0
 40
0.4935746360284465
 41
3.141592653589793
 42
4.712388980384689
  0
ELLIPSE
  5
211E
330
CA5
100
AcDbEntity
  8
STEMPEL
100
AcDbEllipse
 10
196.437546815127
 20
383.3377922341814
 30
0.0
 11
-0.0000000000000284
 21
7.449732666510158
 31
0.0
210
0.0
220
0.0
230
1.0
 40
0.2476423361044428
 41
0.6587055643707675
 42
3.141592653589793
  0
SPLINE
  5
211F
330
CA5
100
AcDbEntity
  8
STEMPEL
100
AcDbSpline
210
0.0
220
0.0
230
1.0
 70
     8
 71
     3
 72
    12
 73
     8
 74
     6
 42
0.0000000001
 43
0.0000000001
 44
0.0000000001
 40
0.0
 40
0.0
 40
0.0
 40
0.0
 40
4.688779711261067
 40
7.189292073315435
 40
10.86266264581658
 40
15.99300988252097
 40
25.51406115299369
 40
25.51406115299369
 40
25.51406115299369
 40
25.51406115299369
 10
203.731455481621
 20
398.2971736201702
 30
0.0
 10
204.3729056256149
 20
399.72388753099
 30
0.0
 10
205.3564392355576
 20
401.911463753714
 30
0.0
 10
203.3964952324492
 20
406.3197776778939
 30
0.0
 10
199.6801717231362
 20
402.2269174500356
 30
0.0
 10
197.7318850952392
 20
397.1868808395227
 30
0.0
 10
196.2629108101559
 20
392.3634102894788
 30
0.0
 10
195.3083139178228
 20
389.2289306433147
 30
0.0
 11
203.731455481621
 21
398.2971736201702
 31
0.0
 11
204.6857107916518
 21
402.8878219386553
 31
0.0
 11
203.4578974361039
 21
405.0661323932795
 31
0.0
 11
200.500091674024
 21
402.8878219386553
 31
0.0
 11
198.2095871913508
 21
398.2971736201698
 31
0.0
 11
195.3083139178228
 21
389.2289306433147
 31
0.0
  0
ARC
  5
2120
330
CA5
100
AcDbEntity
  8
STEMPEL
100
AcDbCircle
 10
232.7221915446829
 20
383.3707920858785
 30
0.0
 40
32.60766233855712
100
AcDbArc
 50
152.7575429546525
 51
180.0579849232381
  0
ELLIPSE
  5
2121
330
CA5
100
AcDbEntity
  8
STEMPEL
100
AcDbEllipse
 10
194.5826324250617
 20
383.6584803352879
 30
0.0
 11
0.0
 21
7.629244297028549
 31
0.0
210
0.0
220
0.0
230
1.0
 40
0.4843879219230834
 41
3.463585848872269
 42
4.712388980384689
  0
POLYLINE
  5
2122
330
CA5
100
AcDbEntity
  8
STEMPEL
100
AcDb2dPolyline
 66
     1
 10
0.0
 20
0.0
 30
0.0
  0
VERTEX
  5
2123
330
2122
100
AcDbEntity
  8
STEMPEL
100
AcDbVertex
100
AcDb2dVertex
 10
202.4144478158717
 20
404.8777447109436
 30
0.0
 42
-0.0182762886153447
  0
VERTEX
  5
2124
330
2122
100
AcDbEntity
  8
STEMPEL
100
AcDbVertex
100
AcDb2dVertex
 10
202.5885503050273
 20
404.4841368612999
 30
0.0
 42
-0.0701045657608071
  0
VERTEX
  5
2125
330
2122
100
AcDbEntity
  8
STEMPEL
100
AcDbVertex
100
AcDb2dVertex
 10
202.9790670732654
 20
402.8878219386553
 30
0.0
 42
-0.0876270151231428
  0
VERTEX
  5
2126
330
2122
100
AcDbEntity
  8
STEMPEL
100
AcDbVertex
100
AcDb2dVertex
 10
202.8258515491159
 20
400.8450451560459
 30
0.0
 42
-0.0876270151231505
  0
VERTEX
  5
2127
330
2122
100
AcDbEntity
  8
STEMPEL
100
AcDbVertex
100
AcDb2dVertex
 10
201.9821799232599
 20
398.9783287426257
 30
0.0
  0
SEQEND
  5
2128
330
2122
100
AcDbEntity
  8
STEMPEL
  0
ARC
  5
2129
330
CA5
100
AcDbEntity
  8
STEMPEL
100
AcDbCircle
 10
233.6512177861502
 20
383.2136822679818
 30
0.0
 40
35.37586801241327
100
AcDbArc
 50
153.5361689226273
 51
179.279573195747
  0
SPLINE
  5
212A
330
CA5
100
AcDbEntity
  8
STEMPEL
100
AcDbSpline
210
0.0
220
0.0
230
1.0
 70
    11
 71
     3
 72
    13
 73
     9
 74
     7
 42
0.0000000001
 43
0.0000000001
 44
0.0000000001
 40
0.0
 40
0.0
 40
0.0
 40
0.0
 40
7.663986028382609
 40
14.64661457448173
 40
30.09582624138188
 40
37.78837186983196
 40
45.23819884081152
 40
60.68741050771169
 40
60.68741050771169
 40
60.68741050771169
 40
60.68741050771169
 10
185.4651957735557
 20
398.2971736201702
 30
0.0
 10
187.1636797260704
 20
401.86890446707
 30
0.0
 10
190.4096459532134
 20
408.6948257154377
 30
0.0
 10
185.8125719993095
 20
393.1053575720004
 30
0.0
 10
184.5286603407807
 20
388.6742009940192
 30
0.0
 10
181.1121291317766
 20
371.7302327512365
 30
0.0
 10
181.478747440333
 20
388.3864801314035
 30
0.0
 10
183.8591907117956
 20
394.3044907661459
 30
0.0
 10
185.4651957735557
 20
398.2971736201702
 30
0.0
 11
185.4651957735557
 21
398.2971736201702
 31
0.0
 11
189.0593408695678
 21
405.0661323932796
 31
0.0
 11
187.3451942770202
 21
398.2971736201702
 31
0.0
 11
183.4857837420788
 21
383.3377922341814
 31
0.0
 11
181.568300640897
 21
375.8880595676712
 31
0.0
 11
181.6057852386142
 21
383.3377922341814
 31
0.0
 11
185.4651957735557
 21
398.2971736201702
 31
0.0
  0
ELLIPSE
  5
212B
330
CA5
100
AcDbEntity
  8
STEMPEL
100
AcDbEllipse
 10
433.1899634034734
 20
383.3377922341814
 30
0.0
 11
0.0
 21
7.449732666510158
 31
0.0
210
0.0
220
0.0
230
1.0
 40
0.9964566859528197
 41
3.141592653589793
 42
4.728841209169636
  0
ELLIPSE
  5
212C
330
CA5
100
AcDbEntity
  8
STEMPEL
100
AcDbEllipse
 10
433.1899634034734
 20
383.3377922341814
 30
0.0
 11
-7.547065002318902
 21
0.0
 31
0.0
210
0.0
220
0.0
230
1.0
 40
0.9871032864061939
 41
6.283185307179586
 42
7.853981633974482
  0
ELLIPSE
  5
212D
330
CA5
100
AcDbEntity
  8
STEMPEL
100
AcDbEllipse
 10
432.7158586380169
 20
398.2971736201702
 30
0.0
 11
-7.653180230317728
 21
0.0
 31
0.0
210
0.0
220
0.0
230
1.0
 40
0.8844635261945828
 41
3.156045140561476
 42
4.712388980384689
  0
ELLIPSE
  5
212E
330
CA5
100
AcDbEntity
  8
STEMPEL
100
AcDbEllipse
 10
432.7158586380168
 20
398.2971736201702
 30
0.0
 11
-7.317220696106288
 21
0.0
 31
0.0
210
0.0
220
0.0
230
1.0
 40
0.9250723811995246
 41
4.712388980384689
 42
6.31339262881132
  0
LINE
  5
212F
330
CA5
100
AcDbEntity
  8
STEMPEL
100
AcDbLine
 10
440.612294691425
 20
383.4603514113216
 30
0.0
 11
440.3682396056103
 21
398.3949985030488
 31
0.0
  0
LINE
  5
2130
330
CA5
100
AcDbEntity
  8
STEMPEL
100
AcDbLine
 10
425.3986379419105
 20
398.2971736201702
 30
0.0
 11
425.6428984011545
 21
383.3377922341814
 31
0.0
  0
ELLIPSE
  5
2131
330
CA5
100
AcDbEntity
  8
STEMPEL
100
AcDbEllipse
 10
433.315231185572
 20
383.6584803352879
 30
0.0
 11
0.0
 21
7.629244297028435
 31
0.0
210
0.0
220
0.0
230
1.0
 40
0.9728467569417011
 41
3.141592653589793
 42
4.20407632489815
  0
ELLIPSE
  5
2132
330
CA5
100
AcDbEntity
  8
STEMPEL
100
AcDbEllipse
 10
433.315231185572
 20
383.6584803352879
 30
0.0
 11
0.0
 21
7.629244297028435
 31
0.0
210
0.0
220
0.0
230
1.0
 40
0.9893922727161823
 41
1.587287991431895
 42
3.141592653589793
  0
ELLIPSE
  5
2133
330
CA5
100
AcDbEntity
  8
STEMPEL
100
AcDbEllipse
 10
432.8297022088996
 20
398.9783287426257
 30
0.0
 11
-7.312930583489389
 21
0.0
 31
0.0
210
0.0
220
0.0
230
1.0
 40
0.9479190502746396
 41
6.180103361555016
 42
6.298716365846062
  0
LINE
  5
2134
330
CA5
100
AcDbEntity
  8
STEMPEL
100
AcDbLine
 10
425.5176535975081
 20
398.8706707437922
 30
0.0
 11
425.7679422847073
 21
383.5326671000977
 31
0.0
  0
ELLIPSE
  5
2135
330
CA5
100
AcDbEntity
  8
STEMPEL
100
AcDbEllipse
 10
491.9212255042209
 20
383.3377922341814
 30
0.0
 11
0.0
 21
7.449732666510271
 31
0.0
210
0.0
220
0.0
230
1.0
 40
0.9166052393568541
 41
3.141592653589793
 42
4.801816685219343
  0
ELLIPSE
  5
2136
330
CA5
100
AcDbEntity
  8
STEMPEL
100
AcDbEllipse
 10
491.9212255042209
 20
383.3377922341814
 30
0.0
 11
0.0
 21
7.449732666510271
 31
0.0
210
0.0
220
0.0
230
1.0
 40
0.998342367898693
 41
1.651071229044273
 42
3.141592653589793
  0
ELLIPSE
  5
2137
330
CA5
100
AcDbEntity
  8
STEMPEL
100
AcDbEllipse
 10
489.5879683383548
 20
398.2971736201702
 30
0.0
 11
-7.95961877991482
 21
0.0
 31
0.0
210
0.0
220
0.0
230
1.0
 40
0.850412433091667
 41
3.210260509234507
 42
4.712388980384689
  0
ELLIPSE
  5
2138
330
CA5
100
AcDbEntity
  8
STEMPEL
100
AcDbEllipse
 10
489.5879683383548
 20
398.2971736201702
 30
0.0
 11
0.0
 21
6.768958773109488
 31
0.0
210
0.0
220
0.0
230
1.0
 40
0.9316394405539554
 41
0.0
 42
1.658573113179865
  0
LINE
  5
2139
330
CA5
100
AcDbEntity
  8
STEMPEL
100
AcDbLine
 10
498.7224030036272
 20
384.0031170980759
 30
0.0
 11
497.5288285976434
 21
398.7616183058205
 31
0.0
  0
LINE
  5
213A
330
CA5
100
AcDbEntity
  8
STEMPEL
100
AcDbLine
 10
483.3060177832193
 20
397.7037788518742
 30
0.0
 11
484.5077923612934
 21
382.7404077521789
 31
0.0
  0
ELLIPSE
  5
213B
330
CA5
100
AcDbEntity
  8
STEMPEL
100
AcDbEllipse
 10
492.5377178315073
 20
383.6584803352879
 30
0.0
 11
0.0
 21
7.629244297028435
 31
0.0
210
0.0
220
0.0
230
1.0
 40
0.9756585235476892
 41
1.652934359555652
 42
3.141592653589793
  0
ELLIPSE
  5
213C
330
CA5
100
AcDbEntity
  8
STEMPEL
100
AcDbEllipse
 10
492.5377178315073
 20
383.6584803352879
 30
0.0
 11
0.0
 21
7.629244297028435
 31
0.0
210
0.0
220
0.0
230
1.0
 40
0.8942314929489349
 41
3.141592653589793
 42
3.306174605387135
  0
ELLIPSE
  5
213D
330
CA5
100
AcDbEntity
  8
STEMPEL
100
AcDbEllipse
 10
490.1482376014032
 20
398.9783287426257
 30
0.0
 11
0.0
 21
6.932066213425628
 31
0.0
210
0.0
220
0.0
230
1.0
 40
0.9066727623644782
 41
0.9684114638472903
 42
1.661027487286775
  0
LINE
  5
213E
330
CA5
100
AcDbEntity
  8
STEMPEL
100
AcDbLine
 10
483.888690268886
 20
398.3536887706649
 30
0.0
 11
485.1192759850945
 21
383.0325336129197
 31
0.0
  0
ELLIPSE
  5
213F
330
CA5
100
AcDbEntity
  8
STEMPEL
100
AcDbEllipse
 10
546.0211181118133
 20
383.3377922341814
 30
0.0
 11
0.0
 21
7.449732666510158
 31
0.0
210
0.0
220
0.0
230
1.0
 40
0.7791601145338443
 41
3.141592653589793
 42
4.897746925376093
  0
ELLIPSE
  5
2140
330
CA5
100
AcDbEntity
  8
STEMPEL
100
AcDbEllipse
 10
546.0211181118133
 20
383.3377922341814
 30
0.0
 11
0.0
 21
7.449732666510158
 31
0.0
210
0.0
220
0.0
230
1.0
 40
0.9208900012863779
 41
1.721807002602937
 42
3.141592653589793
  0
ELLIPSE
  5
2141
330
CA5
100
AcDbEntity
  8
STEMPEL
100
AcDbEllipse
 10
541.9753156743886
 20
398.2971736201702
 30
0.0
 11
-7.765925208139663
 21
0.0
 31
0.0
210
0.0
220
0.0
230
1.0
 40
0.8716229672177078
 41
3.264525730348074
 42
4.712388980384689
  0
ELLIPSE
  5
2142
330
CA5
100
AcDbEntity
  8
STEMPEL
100
AcDbEllipse
 10
541.9753156743886
 20
398.2971736201702
 30
0.0
 11
0.0
 21
6.768958773109488
 31
0.0
210
0.0
220
0.0
230
1.0
 40
0.7237440555632384
 41
0.0
 42
1.769758982487433
  0
LINE
  5
2143
330
CA5
100
AcDbEntity
  8
STEMPEL
100
AcDbLine
 10
551.7262229946366
 20
384.7107657384504
 30
0.0
 11
549.6826333144837
 21
399.1272082012957
 31
0.0
  0
LINE
  5
2144
330
CA5
100
AcDbEntity
  8
STEMPEL
100
AcDbLine
 10
537.1729686663099
 20
396.9592716063752
 30
0.0
 11
539.2388081200747
 21
382.2170739478663
 31
0.0
  0
ELLIPSE
  5
2145
330
CA5
100
AcDbEntity
  8
STEMPEL
100
AcDbEllipse
 10
547.0900985040628
 20
383.6584803352879
 30
0.0
 11
0.0
 21
7.629244297028435
 31
0.0
210
0.0
220
0.0
230
1.0
 40
0.9006205611234934
 41
1.725229739928835
 42
3.141592653589793
  0
ELLIPSE
  5
2146
330
CA5
100
AcDbEntity
  8
STEMPEL
100
AcDbEllipse
 10
547.0900985040628
 20
383.6584803352879
 30
0.0
 11
0.0
 21
7.629244297028435
 31
0.0
210
0.0
220
0.0
230
1.0
 40
0.7594283755009676
 41
3.141592653589793
 42
3.151457579656849
  0
ELLIPSE
  5
2147
330
CA5
100
AcDbEntity
  8
STEMPEL
100
AcDbEllipse
 10
542.9468068512789
 20
398.9783287426257
 30
0.0
 11
0.0
 21
6.932066213425628
 31
0.0
210
0.0
220
0.0
230
1.0
 40
0.701433538347639
 41
0.6515184604344658
 42
1.776221282933533
  0
LINE
  5
2148
330
CA5
100
AcDbEntity
  8
STEMPEL
100
AcDbLine
 10
538.186657707997
 20
397.5643036973601
 30
0.0
 11
540.3008177274832
 21
382.4849478399219
 31
0.0
  0
ELLIPSE
  5
2149
330
CA5
100
AcDbEntity
  8
STEMPEL
100
AcDbEllipse
 10
592.2412718432658
 20
383.3377922341814
 30
0.0
 11
0.0
 21
7.449732666510158
 31
0.0
210
0.0
220
0.0
230
1.0
 40
0.5724982658409417
 41
3.141592653589793
 42
5.060503372259607
  0
ELLIPSE
  5
214A
330
CA5
100
AcDbEntity
  8
STEMPEL
100
AcDbEllipse
 10
592.2412718432658
 20
383.3377922341814
 30
0.0
 11
0.0
 21
7.449732666510158
 31
0.0
210
0.0
220
0.0
230
1.0
 40
0.805833957419958
 41
1.808801764224771
 42
3.141592653589793
  0
ELLIPSE
  5
214B
330
CA5
100
AcDbEntity
  8
STEMPEL
100
AcDbEllipse
 10
586.5862109458082
 20
398.2971736201702
 30
0.0
 11
0.0
 21
6.768958773109488
 31
0.0
210
0.0
220
0.0
230
1.0
 40
0.4703731698170241
 41
0.0
 42
1.990288381747427
  0
ELLIPSE
  5
214C
330
CA5
100
AcDbEntity
  8
STEMPEL
100
AcDbEllipse
 10
586.5862109458082
 20
398.2971736201702
 30
0.0
 11
-7.084269994462033
 21
0.0
 31
0.0
210
0.0
220
0.0
230
1.0
 40
0.955491360210857
 41
3.328265297895875
 42
4.712388980384689
  0
LINE
  5
214D
330
CA5
100
AcDbEntity
  8
STEMPEL
100
AcDbLine
 10
596.2504084542047
 20
385.8790890700154
 30
0.0
 11
593.547407324965
 21
399.5534272386693
 31
0.0
  0
LINE
  5
214E
330
CA5
100
AcDbEntity
  8
STEMPEL
100
AcDbLine
 10
583.6783345731777
 20
395.5401997163793
 30
0.0
 11
586.4072549039654
 21
381.5814077961198
 31
0.0
  0
ELLIPSE
  5
214F
330
CA5
100
AcDbEntity
  8
STEMPEL
100
AcDbEllipse
 10
593.5446464959608
 20
383.6584803352879
 30
0.0
 11
0.0
 21
7.62924429702832
 31
0.0
210
0.0
220
0.0
230
1.0
 40
0.7689932965932558
 41
1.819881193938821
 42
3.069647954479036
  0
ELLIPSE
  5
2150
330
CA5
100
AcDbEntity
  8
STEMPEL
100
AcDbEllipse
 10
587.9078816730018
 20
398.9783287426257
 30
0.0
 11
0.0
 21
6.932066213425628
 31
0.0
210
0.0
220
0.0
230
1.0
 40
0.4521206654242901
 41
6.785388716422779
 42
8.290052149824365
  0
LINE
  5
2151
330
CA5
100
AcDbEntity
  8
STEMPEL
100
AcDbLine
 10
585.0670482320558
 20
396.0503558326081
 30
0.0
 11
587.8588686349275
 21
381.7777406052373
 31
0.0
  0
SPLINE
  5
2152
330
CA5
100
AcDbEntity
  8
STEMPEL
100
AcDbSpline
210
0.0
220
0.0
230
1.0
 70
    11
 71
     3
 72
    17
 73
    13
 74
     0
 42
0.0000000001
 43
0.0000000001
 40
4.129703895098519
 40
4.129703895098519
 40
4.129703895098519
 40
4.129703895098519
 40
9.332749408884755
 40
20.25106777366723
 40
24.70895880167485
 40
32.64997547179908
 40
36.39457079224442
 40
41.92777432430147
 40
57.27064699219329
 40
61.90681652898081
 40
64.80846618107607
 40
68.93817007617458
 40
68.93817007617458
 40
68.93817007617458
 40
68.93817007617458
 10
624.1260655279013
 20
402.8878219386553
 30
0.0
 10
625.3190111998682
 20
401.7015939842348
 30
0.0
 10
627.3727433044667
 20
396.4368819544325
 30
0.0
 10
629.1415201618515
 20
389.6412421464121
 30
0.0
 10
630.3921037955283
 20
382.7091247101094
 30
0.0
 10
629.0288411274966
 20
373.8118536553427
 30
0.0
 10
622.9791664978673
 20
378.3264744337304
 30
0.0
 10
622.7753544537042
 20
386.719493515128
 30
0.0
 10
620.8439650147245
 20
394.7614586599562
 30
0.0
 10
617.782255325771
 20
402.2860690636418
 30
0.0
 10
620.9286228232197
 20
406.2512929081905
 30
0.0
 10
622.9429794574145
 20
404.1323401427554
 30
0.0
 10
624.1260655279013
 20
402.8878219386553
 30
0.0
  0
ELLIPSE
  5
2153
330
CA5
100
AcDbEntity
  8
STEMPEL
100
AcDbEllipse
 10
628.9824517089941
 20
383.6584803352879
 30
0.0
 11
0.0
 21
7.629244297028435
 31
0.0
210
0.0
220
0.0
230
1.0
 40
0.5890473550786264
 41
7.853981633974482
 42
9.229462413023195
  0
SPLINE
  5
2154
330
CA5
100
AcDbEntity
  8
STEMPEL
100
AcDbSpline
210
0.0
220
0.0
230
1.0
 70
     8
 71
     3
 72
    10
 73
     6
 74
     0
 42
0.0000000001
 43
0.0000000001
 40
1.151530831867772
 40
1.151530831867772
 40
1.151530831867772
 40
1.151530831867772
 40
2.928204312311204
 40
7.679527084725193
 40
23.39210117916257
 40
23.39210117916257
 40
23.39210117916257
 40
23.39210117916258
 10
621.3106911835439
 20
405.0776986003763
 30
0.0
 10
620.8782202506364
 20
404.6410604742373
 30
0.0
 10
619.5288462892424
 20
402.9654022859647
 30
0.0
 10
622.55999066311
 20
394.9860219560583
 30
0.0
 10
624.0755486622372
 20
388.7510338037981
 30
0.0
 10
624.4884655345808
 20
383.6584803352879
 30
0.0
  0
ELLIPSE
  5
2155
330
CA5
100
AcDbEntity
  8
STEMPEL
100
AcDbEllipse
 10
645.5878106332691
 20
390.4770959804754
 30
0.0
 11
-3.656681740128647
 21
14.58903641280426
 31
0.0
210
0.0
220
0.0
230
1.0
 40
0.2036433257644732
 41
3.0395964522383
 42
6.283185307179586
  0
SPLINE
  5
2156
330
CA5
100
AcDbEntity
  8
STEMPEL
100
AcDbSpline
210
0.0
220
0.0
230
1.0
 70
     8
 71
     3
 72
    13
 73
     9
 74
     0
 42
0.0000000001
 43
0.0000000001
 40
0.0
 40
0.0
 40
0.0
 40
0.0
 40
0.5000000000000383
 40
7.307782802074405
 40
15.11173664254752
 40
22.75026199291581
 40
30.60763815381643
 40
30.92914379929982
 40
30.92914379929982
 40
30.92914379929982
 40
30.92914379931643
 10
642.4278183277698
 20
405.0086902003585
 30
0.0
 10
642.2554586119096
 20
405.0350217448609
 30
0.0
 10
639.7363238772417
 20
405.419872160993
 30
0.0
 10
643.533826873382
 20
396.6952752807249
 30
0.0
 10
644.7314085813886
 20
391.0520839557404
 30
0.0
 10
646.9334294651332
 20
384.0353182641032
 30
0.0
 10
646.3794491563704
 20
376.0648586872536
 30
0.0
 10
649.1349170080268
 20
375.8663949002532
 30
0.0
 10
649.2444923733805
 20
375.8880595676678
 30
0.0
  0
ELLIPSE
  5
2157
330
CA5
100
AcDbEntity
  8
STEMPEL
100
AcDbEllipse
 10
651.1768265104953
 20
383.6584803352879
 30
0.0
 11
0.0
 21
7.629244297028435
 31
0.0
210
0.0
220
0.0
230
1.0
 40
0.3720894018796416
 41
1.570796326794896
 42
2.698929420947038
  0
ARC
  5
2158
330
CA5
100
AcDbEntity
  8
STEMPEL
100
AcDbCircle
 10
562.2011962473409
 20
370.1089319648452
 30
0.0
 40
87.19604645042045
100
AcDbArc
 50
8.939518577568078
 51
19.33470907814291
  0
SPLINE
  5
2159
330
CA5
100
AcDbEntity
  8
STEMPEL
100
AcDbSpline
210
0.0
220
0.0
230
1.0
 70
     8
 71
     3
 72
     8
 73
     4
 74
     0
 42
0.0000000001
 43
0.0000000001
 40
0.0
 40
0.0
 40
0.0
 40
0.0
 40
4.754358322804222
 40
4.754358322804222
 40
4.754358322804222
 40
4.754358322804222
 10
644.4794342344961
 20
398.9783287426257
 30
0.0
 10
643.5673689716597
 20
401.2420645054517
 30
0.0
 10
642.6553037088231
 20
403.5058002682777
 30
0.0
 10
642.7630759200745
 20
404.8094977996409
 30
0.0
  0
LINE
  5
215A
330
CA5
100
AcDbEntity
  8
STEMPEL
100
AcDbLine
 10
658.9217131922288
 20
376.0292360382595
 30
0.0
 11
657.4221284746288
 21
375.9939419206124
 31
0.0
  0
LINE
  5
215B
330
CA5
100
AcDbEntity
  8
STEMPEL
100
AcDbLine
 10
651.2708494093596
 20
405.5411549891692
 30
0.0
 11
652.6599321078231
 21
406.1072373655329
 31
0.0
  0
LINE
  5
215C
330
CA5
100
AcDbEntity
  8
STEMPEL
100
AcDbLine
 10
663.9452458615615
 20
352.5292360382596
 30
0.0
 11
684.7128312237183
 21
352.5292360382595
 31
0.0
  0
ARC
  5
215D
330
CA5
100
AcDbEntity
  8
STEMPEL
100
AcDbCircle
 10
663.9452458615615
 20
357.5292360382596
 30
0.0
 40
5.0
100
AcDbArc
 50
180.0
 51
270.0
  0
LINE
  5
215E
330
CA5
100
AcDbEntity
  8
STEMPEL
100
AcDbLine
 10
151.7128312237182
 20
352.5292360382595
 30
0.0
 11
172.4804165858752
 21
352.5292360382597
 31
0.0
  0
LINE
  5
215F
330
CA5
100
AcDbEntity
  8
STEMPEL
100
AcDbLine
 10
632.7349502260283
 20
352.5292360382593
 30
0.0
 11
637.3110992346835
 21
352.5292360382592
 31
0.0
  0
LINE
  5
2160
330
CA5
100
AcDbEntity
  8
STEMPEL
100
AcDbLine
 10
644.7341955659066
 20
352.5292360382592
 30
0.0
 11
647.4664059082223
 21
352.5292360382591
 31
0.0
  0
LINE
  5
2161
330
CA5
100
AcDbEntity
  8
STEMPEL
100
AcDbLine
 10
653.1610636728047
 20
352.5292360382593
 30
0.0
 11
654.006246759539
 21
352.5292360382593
 31
0.0
  0
LINE
  5
2163
330
CA5
100
AcDbEntity
  8
STEMPEL
100
AcDbLine
 10
617.3525629201812
 20
352.5292360382592
 30
0.0
 11
623.7004819916506
 21
352.5292360382593
 31
0.0
  0
LINE
  5
2170
330
CA5
100
AcDbEntity
  8
STEMPEL
100
AcDbLine
 10
212.7251804557858
 20
352.5292360382593
 30
0.0
 11
219.0730995272553
 21
352.5292360382592
 31
0.0
  0
LINE
  5
2173
330
CA5
100
AcDbEntity
  8
STEMPEL
100
AcDbLine
 10
182.4194156878975
 20
352.5292360382593
 30
0.0
 11
183.2645987746318
 21
352.5292360382595
 31
0.0
  0
LINE
  5
2174
330
CA5
100
AcDbEntity
  8
STEMPEL
100
AcDbLine
 10
188.9592565392142
 20
352.5292360382596
 30
0.0
 11
191.6914668815299
 21
352.5292360382596
 31
0.0
  0
LINE
  5
2175
330
CA5
100
AcDbEntity
  8
STEMPEL
100
AcDbLine
 10
199.114563212753
 20
352.5292360382593
 30
0.0
 11
203.6907122214081
 21
352.5292360382593
 31
0.0
  0
ARC
  5
2176
330
CA5
100
AcDbEntity
  8
STEMPEL
100
AcDbCircle
 10
172.4804165858752
 20
357.5292360382597
 30
0.0
 40
5.0
100
AcDbArc
 50
270.0
 51
0.0
  0
ARC
  5
2177
330
CA5
100
AcDbEntity
  8
STEMPEL
100
AcDbCircle
 10
172.4804165858752
 20
357.5292360382597
 30
0.0
 40
6.5
100
AcDbArc
 50
270.0
 51
0.0
  0
LINE
  5
2178
330
CA5
100
AcDbEntity
  8
STEMPEL
100
AcDbLine
 10
178.9804165858752
 20
357.5292360382597
 30
0.0
 11
178.9804165858752
 21
374.0292360382593
 31
0.0
  0
ARC
  5
2179
330
CA5
100
AcDbEntity
  8
STEMPEL
100
AcDbCircle
 10
262.4804165858752
 20
374.0292360382593
 30
0.0
 40
83.49999999999999
100
AcDbArc
 50
90.0
 51
180.0
  0
LINE
  5
217A
330
CA5
100
AcDbEntity
  8
STEMPEL
100
AcDbLine
 10
262.4804165858752
 20
457.5292360382593
 30
0.0
 11
573.9452458615613
 21
457.5292360382595
 31
0.0
  0
ARC
  5
217B
330
CA5
100
AcDbEntity
  8
STEMPEL
100
AcDbCircle
 10
573.9452458615613
 20
374.0292360382591
 30
0.0
 40
83.49999999999999
100
AcDbArc
 50
0.0
 51
90.0
  0
LINE
  5
217C
330
CA5
100
AcDbEntity
  8
STEMPEL
100
AcDbLine
 10
657.4452458615614
 20
357.5292360382597
 30
0.0
 11
657.4452458615614
 21
374.0292360382583
 31
0.0
  0
ARC
  5
217D
330
CA5
100
AcDbEntity
  8
STEMPEL
100
AcDbCircle
 10
663.9452458615615
 20
357.5292360382596
 30
0.0
 40
6.5
100
AcDbArc
 50
180.0
 51
270.0
  0
HATCH
  5
217E
330
CA5
100
AcDbEntity
  8
SCHRAFF
100
AcDbHatch
 10
0.0
 20
0.0
 30
0.0
210
0.0
220
0.0
230
1.0
  2
_USER
 70
     0
 71
     0
 91
        4
 92
        7
 72
     1
 73
     1
 93
        6
 10
573.9452458615613
 20
459.0292360382595
 42
0.0
 10
418.2128312237183
 20
459.0292360382593
 42
0.0
 10
418.2128312237183
 20
457.5292360382595
 42
0.0
 10
573.9452458615613
 20
457.5292360382595
 42
-0.3049102359937912
 10
651.2708494093597
 20
405.5411549891694
 42
0.0
 10
652.6599321078231
 20
406.1072373655329
 42
0.304910235993791
 97
        0
 92
        7
 72
     1
 73
     1
 93
       12
 10
418.2128312237184
 20
459.0292360382595
 42
0.0
 10
262.4804165858752
 20
459.0292360382593
 42
0.4142135623730948
 10
177.4804165858752
 20
374.0292360382593
 42
0.0
 10
177.4804165858752
 20
357.5292360382597
 42
-0.4142135623730939
 10
172.4804165858752
 20
352.5292360382597
 42
0.0
 10
165.2128312237182
 20
352.5292360382595
 42
0.0
 10
165.2128312237183
 20
351.0292360382595
 42
0.0
 10
172.4804165858752
 20
351.0292360382595
 42
0.4142135623730951
 10
178.9804165858752
 20
357.5292360382595
 42
0.0
 10
178.9804165858752
 20
374.0292360382593
 42
-0.4142135623730948
 10
262.4804165858752
 20
457.5292360382593
 42
0.0
 10
418.2128312237183
 20
457.5292360382593
 42
0.0
 97
        0
 92
        7
 72
     1
 73
     1
 93
       10
 10
658.9452458615615
 20
374.0292360382583
 42
0.0058829637210492
 10
658.921713192229
 20
376.0292360382595
 42
0.0
 10
657.4221284746288
 20
375.9939419206124
 42
-0.0058829637210494
 10
657.4452458615614
 20
374.0292360382583
 42
0.0
 10
657.4452458615614
 20
357.5292360382597
 42
0.4142135623731044
 10
663.9452458615615
 20
351.0292360382595
 42
0.0
 10
684.7128312237182
 20
351.0292360382593
 42
0.0
 10
684.7128312237185
 20
352.5292360382595
 42
0.0
 10
663.9452458615615
 20
352.5292360382596
 42
-0.4142135623730926
 10
658.9452458615615
 20
357.5292360382596
 42
0.0
 97
        0
 92
        7
 72
     0
 73
     1
 93
        4
 10
158.2128312237182
 20
352.5292360382595
 10
151.7128312237182
 20
352.5292360382593
 10
151.7128312237182
 20
351.0292360382595
 10
158.2128312237183
 20
351.0292360382595
 97
        0
 75
     0
 76
     0
 52
45.0
 41
2.0
 77
     0
 78
     1
 53
45.0
 43
108.7293161436096
 44
-443.9098505727749
 45
-1.414213562373094
 46
1.414213562373095
 79
     0
 47
0.5933683246097258
 98
        4
 10
514.0576570907556
 20
458.2214857316825
 10
401.2499300008385
 20
458.2214857316825
 10
658.3328030521457
 20
368.0295008582278
 10
155.4478338735784
 20
352.0085549257054
  0
LINE
  5
21AA
330
CA5
100
AcDbEntity
  8
STEMPEL
100
AcDbLine
 10
611.7128312237184
 20
351.0292360382595
 30
0.0
 11
684.7128312237183
 21
351.0292360382595
 31
0.0
  0
TEXT
  5
222B
330
CA5
100
AcDbEntity
  8
VOLL
100
AcDbText
 10
173.4275331250345
 20
317.6172910296606
 30
0.0
 40
1.8
  1

 50
270.0
  7
GREEKS
100
AcDbText
  0
LINE
  5
222C
102
{ACAD_REACTORS
330
2266
102
}
330
CA5
100
AcDbEntity
  8
STEMPEL
100
AcDbLine
 10
164.7128312237182
 20
341.1427360382595
 30
0.0
 11
164.7128312237182
 21
352.5292360382596
 31
0.0
  0
LINE
  5
222D
102
{ACAD_REACTORS
330
2266
102
}
330
CA5
100
AcDbEntity
  8
STEMPEL
100
AcDbLine
 10
158.7128312237182
 20
352.5292360382596
 30
0.0
 11
158.7128312237182
 21
341.1427360382595
 31
0.0
  0
LINE
  5
222E
102
{ACAD_REACTORS
330
2266
102
}
330
CA5
100
AcDbEntity
  8
STEMPEL
100
AcDbLine
 10
164.0993312237182
 20
340.5292360382596
 30
0.0
 11
164.7128312237182
 21
341.1427360382595
 31
0.0
  0
LINE
  5
222F
102
{ACAD_REACTORS
330
2266
102
}
330
CA5
100
AcDbEntity
  8
STEMPEL
100
AcDbLine
 10
158.7128312237182
 20
341.1427360382595
 30
0.0
 11
159.3263312237182
 21
340.5292360382596
 31
0.0
  0
ARC
  5
2230
330
CA5
100
AcDbEntity
  8
STEMPEL
100
AcDbCircle
 10
155.1628312237182
 20
353.0792360382596
 30
0.0
 40
0.5500000000000003
100
AcDbArc
 50
109.9999999999995
 51
270.0
  0
ARC
  5
2231
330
CA5
100
AcDbEntity
  8
STEMPEL
100
AcDbCircle
 10
168.2628312237182
 20
353.0792360382596
 30
0.0
 40
0.5500000000000009
100
AcDbArc
 50
270.0
 51
70.00000000000047
  0
LINE
  5
2232
330
CA5
100
AcDbEntity
  8
STEMPEL
100
AcDbLine
 10
168.4509423025473
 20
353.5960669796919
 30
0.0
 11
167.4863339156145
 21
353.9471557202589
 31
0.0
  0
LINE
  5
2233
330
CA5
100
AcDbEntity
  8
STEMPEL
100
AcDbLine
 10
155.939328531822
 20
353.9471557202589
 30
0.0
 11
154.9747201448891
 21
353.5960669796919
 31
0.0
  0
LINE
  5
2234
330
CA5
100
AcDbEntity
  8
STEMPEL
100
AcDbLine
 10
164.7128312237182
 20
341.1427360382595
 30
0.0
 11
158.7128312237182
 21
341.1427360382595
 31
0.0
  0
LINE
  5
2235
330
CA5
100
AcDbEntity
  8
STEMPEL
100
AcDbLine
 10
164.0993312237182
 20
340.5292360382596
 30
0.0
 11
159.3263312237182
 21
340.5292360382596
 31
0.0
  0
LINE
  5
2236
330
CA5
100
AcDbEntity
  8
STEMPEL
100
AcDbLine
 10
166.7128312237182
 20
359.1292360382596
 30
0.0
 11
156.7128312237182
 21
359.1292360382596
 31
0.0
  0
LINE
  5
2237
330
CA5
100
AcDbEntity
  8
STEMPEL
100
AcDbLine
 10
167.4863339156145
 20
358.9219766166227
 30
0.0
 11
167.4863339156145
 21
353.9471557202589
 31
0.0
  0
LINE
  5
2238
330
CA5
100
AcDbEntity
  8
STEMPEL
100
AcDbLine
 10
164.5995825696664
 20
358.9219766166227
 30
0.0
 11
164.5995825696664
 21
353.9471557202589
 31
0.0
  0
LINE
  5
2239
330
CA5
100
AcDbEntity
  8
STEMPEL
100
AcDbLine
 10
158.8260798777701
 20
358.9219766166227
 30
0.0
 11
158.8260798777701
 21
353.9471557202589
 31
0.0
  0
LINE
  5
223A
330
CA5
100
AcDbEntity
  8
STEMPEL
100
AcDbLine
 10
155.939328531822
 20
358.9219766166227
 30
0.0
 11
155.939328531822
 21
353.9471557202589
 31
0.0
  0
LINE
  5
223B
330
CA5
100
AcDbEntity
  8
STEMPEL
100
AcDbLine
 10
168.2628312237182
 20
352.5292360382596
 30
0.0
 11
155.1628312237182
 21
352.5292360382596
 31
0.0
  0
LINE
  5
223C
330
CA5
100
AcDbEntity
  8
STEMPEL
100
AcDbLine
 10
168.4509423025473
 20
353.5960669796919
 30
0.0
 11
154.9747201448891
 21
353.5960669796919
 31
0.0
  0
LINE
  5
223D
330
CA5
100
AcDbEntity
  8
HILF
100
AcDbLine
 10
164.0993312237182
 20
349.5292360382596
 30
0.0
 11
164.0993312237182
 21
340.5292360382596
 31
0.0
  0
LINE
  5
223E
330
CA5
100
AcDbEntity
  8
HILF
100
AcDbLine
 10
164.0993312237182
 20
349.5292360382596
 30
0.0
 11
164.7128312237182
 21
352.5292360382596
 31
0.0
  0
LINE
  5
223F
330
CA5
100
AcDbEntity
  8
HILF
100
AcDbLine
 10
158.7128312237182
 20
349.5292360382596
 30
0.0
 11
164.7128312237182
 21
349.5292360382596
 31
0.0
  0
LINE
  5
2240
330
CA5
100
AcDbEntity
  8
HILF
100
AcDbLine
 10
159.3263312237182
 20
349.5292360382596
 30
0.0
 11
159.3263312237182
 21
340.5292360382596
 31
0.0
  0
LINE
  5
2241
330
CA5
100
AcDbEntity
  8
HILF
100
AcDbLine
 10
159.3263312237182
 20
349.5292360382596
 30
0.0
 11
158.7128312237182
 21
352.5292360382596
 31
0.0
  0
POINT
  5
2243
330
CA5
100
AcDbEntity
  8
0
100
AcDbPoint
 10
161.7128312237182
 20
340.5292360382596
 30
0.0
210
-0.0000000000000002
220
-1.0
230
0.0
  0
ARC
  5
2244
330
CA5
100
AcDbEntity
  8
STEMPEL
100
AcDbCircle
 10
166.0429582426404
 20
353.9996988997365
 30
0.0
 40
5.129537138523076
100
AcDbArc
 50
73.65710669401501
 51
106.342893305985
  0
LINE
  5
2245
330
CA5
100
AcDbEntity
  8
STEMPEL
100
AcDbLine
 10
166.7128312237182
 20
359.1292360382596
 30
0.0
 11
167.4863339156145
 21
358.9219766166227
 31
0.0
  0
LINE
  5
2246
330
CA5
100
AcDbEntity
  8
STEMPEL
100
AcDbLine
 10
156.7128312237182
 20
359.1292360382596
 30
0.0
 11
155.939328531822
 21
358.9219766166227
 31
0.0
  0
ARC
  5
2247
330
CA5
100
AcDbEntity
  8
STEMPEL
100
AcDbCircle
 10
157.382704204796
 20
353.9996988997365
 30
0.0
 40
5.129537138523076
100
AcDbArc
 50
73.65710669401501
 51
106.342893305985
  0
ARC
  5
2248
330
CA5
100
AcDbEntity
  8
STEMPEL
100
AcDbCircle
 10
161.7128312237182
 20
338.9219766166227
 30
0.0
 40
20.20725942163691
100
AcDbArc
 50
81.78678929826221
 51
98.2132107017378
  0
ARC
  5
2249
330
CA5
100
AcDbEntity
  8
HILF
100
AcDbCircle
 10
166.0429582426404
 20
350.3867627145549
 30
0.0
 40
3.841839622940954
100
AcDbArc
 50
67.93247218101093
 51
112.067527818989
  0
ARC
  5
224A
330
CA5
100
AcDbEntity
  8
HILF
100
AcDbCircle
 10
157.382704204796
 20
350.3879272764432
 30
0.0
 40
3.840760399790701
100
AcDbArc
 50
67.92594526323878
 51
112.0740547367612
  0
ARC
  5
224B
330
CA5
100
AcDbEntity
  8
HILF
100
AcDbCircle
 10
161.7128312237182
 20
339.2879440110334
 30
0.0
 40
14.94074366520046
100
AcDbArc
 50
78.85962783889434
 51
101.1403721611056
  0
LINE
  5
224D
102
{ACAD_REACTORS
330
2266
102
}
330
CA5
100
AcDbEntity
  8
STEMPEL
100
AcDbLine
 10
158.7128312237182
 20
351.0292360382595
 30
0.0
 11
156.7128312237182
 21
351.0292360382595
 31
0.0
  0
LINE
  5
224E
102
{ACAD_REACTORS
330
2266
102
}
330
CA5
100
AcDbEntity
  8
STEMPEL
100
AcDbLine
 10
164.7128312237182
 20
351.0292360382595
 30
0.0
 11
224.7128312237185
 21
351.0292360382595
 31
0.0
  0
HATCH
  5
2266
330
CA5
100
AcDbEntity
  8
SCHRAFF
100
AcDbHatch
 10
0.0
 20
0.0
 30
0.0
210
0.0
220
0.0
230
1.0
  2
_USER
 70
     0
 71
     1
 91
        4
 92
        7
 72
     0
 73
     1
 93
        7
 10
164.7128312237182
 20
341.1427360382595
 10
164.7128312237182
 20
336.0292360382595
 10
168.2128312237182
 20
336.0292360382595
 10
168.2128312237182
 20
340.0292360382595
 10
166.7128312237182
 20
340.0292360382595
 10
166.7128312237182
 20
351.0292360382595
 10
164.7128312237182
 20
351.0292360382595
 97
        7
330
224E
330
222C
330
1D98
330
1DA7
330
1D93
330
1D91
330
1D96
 92
        7
 72
     0
 73
     1
 93
        4
 10
164.0993312237182
 20
336.0292360382595
 10
164.7128312237182
 20
336.0292360382595
 10
164.7128312237182
 20
341.1427360382595
 10
164.0993312237182
 20
340.5292360382595
 97
        4
330
222E
330
1D9B
330
1DA7
330
1D98
 92
        7
 72
     0
 73
     1
 93
        4
 10
159.3263312237182
 20
340.5292360382595
 10
158.7128312237182
 20
341.1427360382595
 10
158.7128312237182
 20
336.0292360382595
 10
159.3263312237182
 20
336.0292360382596
 97
        4
330
222F
330
1D97
330
1DA7
330
1D9C
 92
        7
 72
     0
 73
     1
 93
        7
 10
158.7128312237182
 20
341.1427360382595
 10
158.7128312237182
 20
351.0292360382595
 10
156.7128312237182
 20
351.0292360382595
 10
156.7128312237182
 20
340.0292360382595
 10
155.2128312237182
 20
340.0292360382595
 10
155.2128312237182
 20
336.0292360382595
 10
158.7128312237182
 20
336.0292360382595
 97
        7
330
222D
330
224D
330
1D95
330
1D9A
330
1D92
330
1DA7
330
1D97
 75
     0
 76
     0
 52
135.0
 41
1.0
 77
     0
 78
     1
 53
135.0
 43
0.0
 44
0.0
 45
-0.7071067811865476
 46
-0.7071067811865475
 79
     0
 47
0.0297713953798865
 98
        4
 10
165.6589703839477
 20
347.6907919506084
 10
164.2890220700769
 20
339.4441156505763
 10
159.1070405191335
 20
339.5036579668524
 10
157.7370922052628
 20
340.0097713347379
  0
DIMENSION
  5
2272
330
CA5
100
AcDbEntity
  8
BEM
100
AcDbDimension
  2
*D9
 10
699.5334205347431
 20
336.0292360382597
 30
0.0
 11
693.0334205347429
 21
356.0292360382596
 31
0.0
 70
    32
 71
     5
 42
39.9999999999996
  3
STANDARD
100
AcDbAlignedDimension
 13
611.7128312237184
 23
376.0292360382593
 33
0.0
 14
684.7128312237183
 24
336.0292360382597
 34
0.0
 50
90.0
100
AcDbRotatedDimension
  0
DIMENSION
  5
2288
330
CA5
100
AcDbEntity
  8
BEM
100
AcDbDimension
  2
*D10
 10
125.7986851243295
 20
459.0292360382593
 30
0.0
 11
119.2986851243294
 21
396.5292360382596
 31
0.0
 70
    32
 71
     5
 42
124.9999999999996
  3
STANDARD
100
AcDbAlignedDimension
 13
151.7128312237183
 23
334.0292360382597
 33
0.0
 14
262.4804165858752
 24
459.0292360382593
 34
0.0
 50
90.0
100
AcDbRotatedDimension
  0
DIMENSION
  5
22B0
330
CA5
100
AcDbEntity
  8
BEM
100
AcDbDimension
  2
*D11
 10
151.7128312237182
 20
491.6885461946087
 30
0.0
 11
418.2128312237183
 21
498.1885461946087
 31
0.0
 70
    32
  1
%%c<>
 71
     5
 42
533.0
  3
STANDARD
100
AcDbAlignedDimension
 13
684.7128312237183
 23
352.5292360382595
 33
0.0
 14
151.7128312237182
 24
352.5292360382595
 34
0.0
100
AcDbRotatedDimension
  0
DIMENSION
  5
22C6
330
CA5
100
AcDbEntity
  8
BEM
100
AcDbDimension
  2
*D12
 10
365.2128312237186
 20
273.0292360382597
 30
0.0
 11
576.3789399872982
 21
252.694237631244
 31
0.0
 70
    34
 71
     5
 42
0.0523598775598302
  3
STANDARD
100
AcDb2LineAngularDimension
 13
534.7962125359567
 23
273.0292360382602
 33
0.0
 14
710.2059788974916
 24
263.8363997186954
 34
0.0
 15
545.2128312237184
 25
273.0292360382602
 35
0.0
 16
587.1597455871956
 26
272.1152271689801
 36
0.0
  0
TEXT
  5
22D8
330
CA5
100
AcDbEntity
  8
TEXT
 62
     1
100
AcDbText
 10
86.23064564264382
 20
310.8208094848682
 30
0.0
 40
7.0
  1
Losflansch DN100
 41
0.8
  7
GREEKS
100
AcDbText
  0
LINE
  5
22D9
330
CA5
100
AcDbEntity
  8
TEXT
 62
     2
100
AcDbLine
 10
85.68069864665607
 20
307.085860771714
 30
0.0
 11
192.11725001403
 21
307.085860771714
 31
0.0
  0
TEXT
  5
22DA
330
CA5
100
AcDbEntity
  8
TEXT
 62
     1
100
AcDbText
 10
85.83669481398898
 20
297.8070344134406
 30
0.0
 40
7.0
  1
EDV-Art.Nr. 19929.100X
 41
0.8
  7
GREEKS
100
AcDbText
  0
TEXT
  5
22DB
330
CA5
100
AcDbEntity
  8
TEXT
 62
     1
100
AcDbText
 10
86.23064564264382
 20
281.042100505926
 30
0.0
 40
7.0
  1
Kompressionsdichtung
 41
0.8
  7
GREEKS
100
AcDbText
  0
LINE
  5
22DC
330
CA5
100
AcDbEntity
  8
TEXT
 62
     2
100
AcDbLine
 10
85.68069864665607
 20
277.3071517927718
 30
0.0
 11
192.11725001403
 21
277.3071517927718
 31
0.0
  0
TEXT
  5
22DD
330
CA5
100
AcDbEntity
  8
TEXT
 62
     1
100
AcDbText
 10
85.83669481398898
 20
268.0283254344985
 30
0.0
 40
7.0
  1
EDV-Art.Nr. 21810.100X
 41
0.8
  7
GREEKS
100
AcDbText
  0
LINE
  5
22DE
330
CA5
100
AcDbEntity
  8
TEXT
 62
     2
100
AcDbLine
 10
192.11725001403
 20
307.085860771714
 30
0.0
 11
290.3730305863155
 21
351.0707888596287
 31
0.0
  0
LINE
  5
22DF
330
CA5
100
AcDbEntity
  8
TEXT
 62
     2
100
AcDbLine
 10
192.11725001403
 20
277.3071517927718
 30
0.0
 11
285.3203748635642
 21
332.5506682554378
 31
0.0
  0
LINE
  5
22E1
330
CA5
100
AcDbEntity
  8
TEXT
 62
     2
100
AcDbLine
 10
192.11725001403
 20
237.2153409071856
 30
0.0
 11
356.1886560331227
 21
293.6473697463257
 31
0.0
  0
TEXT
  5
22E2
330
CA5
100
AcDbEntity
  8
TEXT
 62
     1
100
AcDbText
 10
716.9023690885117
 20
355.0634627829485
 30
0.0
 40
7.0
  1
Bodenplatte
 41
0.8
  7
GREEKS
100
AcDbText
  0
LINE
  5
22E3
330
CA5
100
AcDbEntity
  8
TEXT
 62
     2
100
AcDbLine
 10
716.3524220925239
 20
351.3285140697943
 30
0.0
 11
822.7889734598978
 21
351.3285140697943
 31
0.0
  0
TEXT
  5
22E4
330
CA5
100
AcDbEntity
  8
TEXT
 62
     1
100
AcDbText
 10
716.5084182598568
 20
342.049687711521
 30
0.0
 40
7.0
  1
EDV-Art.Nr. 60070.000X
 41
0.8
  7
GREEKS
100
AcDbText
  0
TEXT
  5
22E5
330
CA5
100
AcDbEntity
  8
TEXT
 62
     1
100
AcDbText
 10
716.9023690885117
 20
417.7257215534658
 30
0.0
 40
7.0
  1
Wehrbecken
 41
0.8
  7
GREEKS
100
AcDbText
  0
LINE
  5
22E6
330
CA5
100
AcDbEntity
  8
TEXT
 62
     2
100
AcDbLine
 10
716.3524220925239
 20
413.9907728403117
 30
0.0
 11
822.7889734598978
 21
413.9907728403117
 31
0.0
  0
TEXT
  5
22E7
330
CA5
100
AcDbEntity
  8
TEXT
 62
     1
100
AcDbText
 10
716.5084182598568
 20
404.7119464820383
 30
0.0
 40
7.0
  1
EDV-Art.Nr. 60040.000X
 41
0.8
  7
GREEKS
100
AcDbText
  0
TEXT
  5
22E8
330
CA5
100
AcDbEntity
  8
TEXT
 62
     1
100
AcDbText
 10
716.9023690885117
 20
463.244532489222
 30
0.0
 40
7.0
  1
Siebhaube
 41
0.8
  7
GREEKS
100
AcDbText
  0
LINE
  5
22E9
330
CA5
100
AcDbEntity
  8
TEXT
 62
     2
100
AcDbLine
 10
716.3524220925239
 20
459.5095837760679
 30
0.0
 11
822.7889734598978
 21
459.5095837760679
 31
0.0
  0
TEXT
  5
22EA
330
CA5
100
AcDbEntity
  8
TEXT
 62
     1
100
AcDbText
 10
716.5084182598568
 20
450.2307574177945
 30
0.0
 40
7.0
  1
EDV-Art.Nr. 60019.000X
 41
0.8
  7
GREEKS
100
AcDbText
  0
LINE
  5
22EB
330
CA5
100
AcDbEntity
  8
TEXT
 62
     2
100
AcDbLine
 10
716.3524220925239
 20
459.5095837760679
 30
0.0
 11
627.6952112332496
 21
438.9103185640713
 31
0.0
  0
LINE
  5
22EC
330
CA5
100
AcDbEntity
  8
TEXT
 62
     2
100
AcDbLine
 10
716.3524220925239
 20
413.9907728403117
 30
0.0
 11
611.051545304077
 21
368.9327588290239
 31
0.0
  0
LINE
  5
22ED
330
CA5
100
AcDbEntity
  8
TEXT
 62
     2
100
AcDbLine
 10
716.3524220925239
 20
351.3285140697943
 30
0.0
 11
703.4755847621428
 21
345.7319311702542
 31
0.0
  0
LINE
  5
22EE
330
CA5
100
AcDbEntity
  8
TEXT
 62
     2
100
AcDbLine
 10
695.8762921949571
 20
342.4290960300004
 30
0.0
 11
678.6052499549364
 21
334.9226860958093
 31
0.0
  0
ENDSEC
  0
SECTION
  2
OBJECTS
  0
DICTIONARY
  5
C93
330
0
100
AcDbDictionary
281
     1
  3
ACAD_2007HEADERVARS_RT
350
1986
  3
ACAD_COLOR
350
12F6
  3
ACAD_GROUP
350
C94
  3
ACAD_LAYOUT
350
CA0
  3
ACAD_MATERIAL
350
12F5
  3
ACAD_MLEADERSTYLE
350
14BA
  3
ACAD_MLINESTYLE
350
C9D
  3
ACAD_PLOTSETTINGS
350
C9F
  3
ACAD_PLOTSTYLENAME
350
C95
  3
ACAD_SCALELIST
350
1498
  3
ACAD_TABLESTYLE
350
1496
  3
ACAD_VISUALSTYLE
350
1485
  3
AcadDim
350
124E
  3
ACDB_RECOMPOSE_DATA
350
1985
  3
AcDbVariableDictionary
350
D76
  3
AcmDictionary
350
151D
  3
AEC_PROPERTY_SET_DEFS
350
1721
  3
AMG
350
14C2
  3
AMGSNAPSETTINGS
350
155E
  3
ASE_INDEX_DICTIONARY
350
1806
  0
DICTIONARY
  5
187E
330
C8F
100
AcDbDictionary
280
     1
281
     1
  3
ACAD_XREC_ROUNDTRIP
360
198B
  0
DICTIONARY
  5
1719
330
C89
100
AcDbDictionary
280
     1
281
     1
  3
ACAD_LAYERFILTERS
360
1890
  3
ACAD_LAYERSTATES
360
171A
  0
DICTIONARY
  5
16CB
330
C97
100
AcDbDictionary
280
     1
281
     1
  3
ADSK_XREC_LAYER_RECONCILED
360
16CC
  0
DICTIONARY
  5
16CD
330
CCA
100
AcDbDictionary
280
     1
281
     1
  3
ADSK_XREC_LAYER_RECONCILED
360
16CE
  0
DICTIONARY
  5
16CF
330
CCB
100
AcDbDictionary
280
     1
281
     1
  3
ADSK_XREC_LAYER_RECONCILED
360
16D0
  0
DICTIONARY
  5
16D1
330
CCC
100
AcDbDictionary
280
     1
281
     1
  3
ADSK_XREC_LAYER_RECONCILED
360
16D2
  0
DICTIONARY
  5
16D3
330
CCD
100
AcDbDictionary
280
     1
281
     1
  3
ADSK_XREC_LAYER_RECONCILED
360
16D4
  0
DICTIONARY
  5
16D5
330
CCE
100
AcDbDictionary
280
     1
281
     1
  3
ADSK_XREC_LAYER_RECONCILED
360
16D6
  0
DICTIONARY
  5
16D7
330
CCF
100
AcDbDictionary
280
     1
281
     1
  3
ADSK_XREC_LAYER_RECONCILED
360
16D8
  0
DICTIONARY
  5
16D9
330
CD0
100
AcDbDictionary
280
     1
281
     1
  3
ADSK_XREC_LAYER_RECONCILED
360
16DA
  0
DICTIONARY
  5
CDA
330
CA5
100
AcDbDictionary
280
     1
281
     1
  3
ACAD_LAYOUTSELFREF
360
1020
  3
ACAD_SORTENTS
360
164F
  0
DICTIONARY
  5
CDC
330
CA1
100
AcDbDictionary
280
     1
281
     1
  3
ACAD_LAYOUTSELFREF
360
101F
  0
DICTIONARY
  5
1986
102
{ACAD_REACTORS
330
C93
102
}
330
C93
100
AcDbDictionary
281
     1
  3
DIMARCSYM
350
1987
  3
DIMLTEX1
350
1989
  3
DIMLTEX2
350
198A
  3
DIMLTYPE
350
1988
  0
DICTIONARY
  5
12F6
102
{ACAD_REACTORS
330
C93
102
}
330
C93
100
AcDbDictionary
281
     1
  0
DICTIONARY
  5
C94
102
{ACAD_REACTORS
330
C93
102
}
330
C93
100
AcDbDictionary
281
     1
  0
DICTIONARY
  5
CA0
102
{ACAD_REACTORS
330
C93
102
}
330
C93
100
AcDbDictionary
281
     1
  3
Layout1
350
CA4
  3
Model
350
CA8
  0
DICTIONARY
  5
12F5
102
{ACAD_REACTORS
330
C93
102
}
330
C93
100
AcDbDictionary
281
     1
  3
ByBlock
350
1475
  3
ByLayer
350
146D
  3
Global
350
147D
  0
DICTIONARY
  5
14BA
102
{ACAD_REACTORS
330
C93
102
}
330
C93
100
AcDbDictionary
281
     1
  3
Standard
350
14BB
  0
DICTIONARY
  5
C9D
102
{ACAD_REACTORS
330
C93
102
}
330
C93
100
AcDbDictionary
281
     1
  3
Standard
350
C9E
  0
DICTIONARY
  5
C9F
102
{ACAD_REACTORS
330
C93
102
}
330
C93
100
AcDbDictionary
281
     1
  0
ACDBDICTIONARYWDFLT
  5
C95
102
{ACAD_REACTORS
330
C93
102
}
330
C93
100
AcDbDictionary
281
     1
  3
Normal
350
C96
100
AcDbDictionaryWithDefault
340
C96
  0
DICTIONARY
  5
1498
102
{ACAD_REACTORS
330
C93
102
}
330
C93
100
AcDbDictionary
281
     1
  3
A0
350
1499
  3
A1
350
149A
  3
A2
350
149B
  3
A3
350
149C
  3
A4
350
149D
  3
A5
350
149E
  3
A6
350
149F
  3
A7
350
14A0
  3
A8
350
14A1
  3
A9
350
14A2
  3
B0
350
14A3
  3
B1
350
14A4
  3
B2
350
14A5
  3
B3
350
14A6
  3
B4
350
14A7
  3
B5
350
14A8
  3
B6
350
14A9
  3
B7
350
14AA
  3
B8
350
14AB
  3
B9
350
14AC
  3
C0
350
14AD
  3
C1
350
14AE
  3
C2
350
14AF
  3
C3
350
14B0
  3
C4
350
14B1
  3
C5
350
14B2
  3
C6
350
14B3
  3
C7
350
14B4
  3
C8
350
14B5
  3
C9
350
14B6
  3
D0
350
14B7
  3
D1
350
14B8
  3
D2
350
14B9
  0
DICTIONARY
  5
1496
102
{ACAD_REACTORS
330
C93
102
}
330
C93
100
AcDbDictionary
281
     1
  3
Standard
350
1497
  0
DICTIONARY
  5
1485
102
{ACAD_REACTORS
330
C93
102
}
330
C93
100
AcDbDictionary
281
     1
  3
2dWireframe
350
148B
  3
3D Hidden
350
148D
  3
3dWireframe
350
148C
  3
Basic
350
148A
  3
Brighten
350
1491
  3
ColorChange
350
1495
  3
Conceptual
350
148E
  3
Dim
350
1490
  3
EdgeColorOff
350
16FC
  3
Facepattern
350
1494
  3
Flat
350
1486
  3
FlatWithEdges
350
1487
  3
Gouraud
350
1488
  3
GouraudWithEdges
350
1489
  3
JitterOff
350
16FA
  3
Linepattern
350
1493
  3
OverhangOff
350
16FB
  3
Realistic
350
148F
  3
Thicken
350
1492
  0
XRECORD
  5
124E
102
{ACAD_REACTORS
330
C93
102
}
330
C93
100
AcDbXrecord
280
     1
 90
   990106
  3

 60
     0
 61
     0
 62
     1
 63
     3
 64
     0
 65
     0
 66
     0
 67
     3
 68
     1
 69
     0
 70
     0
 71
     0
 72
     0
 40
0.0
170
     0
  0
XRECORD
  5
1985
102
{ACAD_REACTORS
330
C93
102
}
330
C93
100
AcDbXrecord
280
     1
 90
        1
330
1497
  0
DICTIONARY
  5
D76
102
{ACAD_REACTORS
330
C93
102
}
330
C93
100
AcDbDictionary
281
     1
  3
CANNOSCALE
350
16F5
  3
CMLEADERSTYLE
350
16F3
  3
CTABLESTYLE
350
16F2
  3
DIMASSOC
350
130B
  3
LAYEREVAL
350
16F7
  3
LAYERNOTIFY
350
16F8
  3
LIGHTINGUNITS
350
16F6
  3
MSLTSCALE
350
16F4
  3
PROJECTNAME
350
130C
  3
SORTENTS
350
D77
  0
DICTIONARY
  5
151D
102
{ACAD_REACTORS
330
C93
102
}
330
C93
100
AcDbDictionary
281
     1
  3
AcmStdDictionary
350
152A
  3
AMDTSECTSYM_ARROWCOLOR
350
1964
  0
DICTIONARY
  5
1721
102
{ACAD_REACTORS
330
C93
102
}
330
C93
100
AcDbDictionary
281
     1
  0
DICTIONARY
  5
14C2
102
{ACAD_REACTORS
330
C93
102
}
330
C93
100
AcDbDictionary
281
     1
  0
DICTIONARY
  5
155E
102
{ACAD_REACTORS
330
C93
102
}
330
C93
100
AcDbDictionary
281
     1
  0
DICTIONARY
  5
1806
102
{ACAD_REACTORS
330
C93
102
}
330
C93
100
AcDbDictionary
281
     1
  3
ASEBlockHierarchyIndexRecord
350
1808
1001
DCO15
1040
1674386063.015
  0
XRECORD
  5
198B
102
{ACAD_REACTORS
330
187E
102
}
330
187E
100
AcDbXrecord
280
     1
102
VTR_0.000_0.000_1.000_1.000_VISUALSTYLE
340
148B
102
VTR_0.000_0.000_1.000_1.000_GRIDDISPLAY
 70
     3
102
VTR_0.000_0.000_1.000_1.000_GRIDMAJOR
 70
     5
102
VTR_0.000_0.000_1.000_1.000_DEFAULTLIGHTING
280
     1
102
VTR_0.000_0.000_1.000_1.000_DEFAULTLIGHTINGTYPE
 70
     1
102
VTR_0.000_0.000_1.000_1.000_BRIGHTNESS
141
0.0
102
VTR_0.000_0.000_1.000_1.000_CONTRAST
142
0.0
  0
DICTIONARY
  5
1890
102
{ACAD_REACTORS
330
1719
102
}
330
1719
100
AcDbDictionary
281
     1
  0
DICTIONARY
  5
171A
102
{ACAD_REACTORS
330
1719
102
}
330
1719
100
AcDbDictionary
281
     1
  0
XRECORD
  5
16CC
102
{ACAD_REACTORS
330
16CB
102
}
330
16CB
100
AcDbXrecord
280
     1
290
     1
  0
XRECORD
  5
16CE
102
{ACAD_REACTORS
330
16CD
102
}
330
16CD
100
AcDbXrecord
280
     1
290
     1
  0
XRECORD
  5
16D0
102
{ACAD_REACTORS
330
16CF
102
}
330
16CF
100
AcDbXrecord
280
     1
290
     1
  0
XRECORD
  5
16D2
102
{ACAD_REACTORS
330
16D1
102
}
330
16D1
100
AcDbXrecord
280
     1
290
     1
  0
XRECORD
  5
16D4
102
{ACAD_REACTORS
330
16D3
102
}
330
16D3
100
AcDbXrecord
280
     1
290
     1
  0
XRECORD
  5
16D6
102
{ACAD_REACTORS
330
16D5
102
}
330
16D5
100
AcDbXrecord
280
     1
290
     1
  0
XRECORD
  5
16D8
102
{ACAD_REACTORS
330
16D7
102
}
330
16D7
100
AcDbXrecord
280
     1
290
     1
  0
XRECORD
  5
16DA
102
{ACAD_REACTORS
330
16D9
102
}
330
16D9
100
AcDbXrecord
280
     1
290
     1
  0
XRECORD
  5
1020
102
{ACAD_REACTORS
330
CDA
102
}
330
CDA
100
AcDbXrecord
280
     1
340
CA5
  0
SORTENTSTABLE
  5
164F
102
{ACAD_REACTORS
330
CDA
102
}
330
CDA
100
AcDbSortentsTable
330
CA5
331
522
  5
526
331
138F
  5
13A1
331
394
  5
396
331
331
  5
331
331
339
  5
339
331
341
  5
341
331
34D
  5
34D
331
3A4
  5
3A6
331
355
  5
355
331
3AC
  5
3AF
331
35D
  5
35D
331
3B4
  5
3B6
331
32A
  5
32A
331
36D
  5
36D
331
523
  5
529
331
52B
  5
545
331
395
  5
397
331
332
  5
332
331
33A
  5
33A
331
342
  5
342
331
1773
  5
375
331
39D
  5
3A3
331
34E
  5
34E
331
1301
  5
1338
331
E8A
  5
E8E
331
3A5
  5
3A7
331
356
  5
356
331
1430
  5
1763
331
F1A
  5
124F
331
3AD
  5
3B0
331
35E
  5
35E
331
3B5
  5
3B7
331
366
  5
366
331
32B
  5
32B
331
524
  5
52B
331
1391
  5
13DB
331
3C5
  5
3CB
331
376
  5
37B
331
13A1
  5
1469
331
396
  5
398
331
333
  5
333
331
33B
  5
33B
331
343
  5
343
331
1774
  5
376
331
39E
  5
3A4
331
34F
  5
34F
331
3A6
  5
3A8
331
357
  5
357
331
4FD
  5
501
331
35F
  5
35F
331
3B6
  5
3B8
331
367
  5
367
331
324
  5
324
331
32C
  5
32C
331
525
  5
52D
331
52D
  5
546
331
1392
  5
1465
331
38F
  5
391
331
397
  5
399
331
334
  5
334
331
33C
  5
33C
331
344
  5
344
331
1775
  5
3CD
331
348
  5
348
331
350
  5
350
331
1412
  5
1648
331
3A7
  5
3A9
331
358
  5
358
331
4FE
  5
502
331
3AF
  5
3B1
331
360
  5
360
331
506
  5
50A
331
3B7
  5
3C0
331
51E
  5
522
331
325
  5
325
331
32D
  5
32D
331
368
  5
368
331
390
  5
392
331
3D7
  5
3DC
331
116C
  5
1302
331
335
  5
335
331
33D
  5
33D
331
345
  5
345
331
1776
  5
3CE
331
398
  5
39A
331
349
  5
349
331
351
  5
351
331
4FF
  5
504
331
359
  5
359
331
3A8
  5
3AA
331
507
  5
50B
331
3B0
  5
3B2
331
361
  5
361
331
51F
  5
523
331
326
  5
326
331
32E
  5
32E
331
3B8
  5
3C1
331
369
  5
369
331
391
  5
393
331
336
  5
336
331
33E
  5
33E
331
346
  5
346
331
399
  5
39B
331
34A
  5
34A
331
3D8
  5
3DE
331
352
  5
352
331
141C
  5
1649
331
3A9
  5
3AB
331
35A
  5
35A
331
500
  5
505
331
3B1
  5
3B3
331
362
  5
362
331
327
  5
327
331
32F
  5
32F
331
36A
  5
36A
331
520
  5
524
331
392
  5
394
331
337
  5
337
331
33F
  5
33F
331
347
  5
347
331
34B
  5
34B
331
353
  5
353
331
3AA
  5
3AC
331
35B
  5
35B
331
501
  5
506
331
3B2
  5
3B4
331
363
  5
363
331
1326
  5
138D
331
328
  5
328
331
36B
  5
36B
331
521
  5
525
331
529
  5
544
331
393
  5
395
331
330
  5
330
331
338
  5
338
331
340
  5
340
331
34C
  5
34C
331
3DA
  5
3DF
331
3A3
  5
3A5
331
354
  5
354
331
3AB
  5
3AD
331
35C
  5
35C
331
3B3
  5
3B5
331
364
  5
364
331
329
  5
329
  0
XRECORD
  5
101F
102
{ACAD_REACTORS
330
CDC
102
}
330
CDC
100
AcDbXrecord
280
     1
340
CA1
  0
XRECORD
  5
1987
102
{ACAD_REACTORS
330
1986
102
}
330
1986
100
AcDbXrecord
280
     1
 70
     1
  0
XRECORD
  5
1989
102
{ACAD_REACTORS
330
1986
102
}
330
1986
100
AcDbXrecord
280
     1
340
C9A
  0
XRECORD
  5
198A
102
{ACAD_REACTORS
330
1986
102
}
330
1986
100
AcDbXrecord
280
     1
340
C9A
  0
XRECORD
  5
1988
102
{ACAD_REACTORS
330
1986
102
}
330
1986
100
AcDbXrecord
280
     1
340
C9A
  0
LAYOUT
  5
CA4
102
{ACAD_REACTORS
330
CA0
102
}
330
CA0
100
AcDbPlotSettings
  1

  2
\\NT_WORK01\HP LaserJet 5000 PCL 6
  4

  6

 40
0.0
 41
0.0
 42
0.0
 43
0.0
 44
0.0
 45
0.0
 46
0.0
 47
0.0
 48
0.0
 49
0.0
140
0.0
141
0.0
142
1.0
143
1.0
 70
   688
 72
     0
 73
     0
 74
     5
  7
monochrome.ctb
 75
    16
147
1.0
 76
     0
 77
     2
 78
   300
148
0.0
149
0.0
100
AcDbLayout
  1
Layout1
 70
     0
 71
     1
 10
0.0
 20
0.0
 11
12.0
 21
9.0
 12
0.0
 22
0.0
 32
0.0
 14
1.000000000000000E+20
 24
1.000000000000000E+20
 34
1.000000000000000E+20
 15
-1.000000000000000E+20
 25
-1.000000000000000E+20
 35
-1.000000000000000E+20
146
0.0
 13
0.0
 23
0.0
 33
0.0
 16
1.0
 26
0.0
 36
0.0
 17
0.0
 27
1.0
 37
0.0
 76
     0
330
CA1
  0
LAYOUT
  5
CA8
102
{ACAD_XDICTIONARY
360
17CA
102
}
102
{ACAD_REACTORS
330
CA0
102
}
330
CA0
100
AcDbPlotSettings
  1

  2
\\D-1\BÜRO 2000  PHASER 740
  4
A4
  6

 40
5.873749732971191
 41
6.085414409637451
 42
5.577407836914062
 43
5.662078857421875
 44
209.9733276367187
 45
296.9683227539062
 46
0.0
 47
2.24
 48
0.0
 49
0.0
140
0.0
141
0.0
142
1.0
143
2.992109142268729
 70
 11956
 72
     1
 73
     1
 74
     2
  7
monochrome.ctb
 75
     0
147
0.3342124075199217
 76
     0
 77
     2
 78
   300
148
0.0
149
0.0
100
AcDbLayout
  1
Model
 70
     1
 71
     0
 10
0.0
 20
0.0
 11
12.0
 21
9.0
 12
0.0
 22
0.0
 32
0.0
 14
0.0
 24
0.0
 34
0.0
 15
0.0
 25
0.0
 35
0.0
146
0.0
 13
0.0
 23
0.0
 33
0.0
 16
1.0
 26
0.0
 36
0.0
 17
0.0
 27
1.0
 37
0.0
 76
     0
330
CA5
  0
MATERIAL
  5
1475
102
{ACAD_XDICTIONARY
360
1476
102
}
102
{ACAD_REACTORS
330
12F5
102
}
330
12F5
100
AcDbMaterial
  1
ByBlock
 72
     0
 73
     2
 43
0.0208333333333333
 43
0.0
 43
0.0
 43
0.0
 43
0.0
 43
0.0208333333333333
 43
0.0
 43
0.0
 43
0.0
 43
0.0
 43
1.0
 43
0.0
 43
0.0
 43
0.0
 43
0.0
 43
1.0
 77
     0
 78
     2
 47
0.0208333333333333
 47
0.0
 47
0.0
 47
0.0
 47
0.0
 47
0.0208333333333333
 47
0.0
 47
0.0
 47
0.0
 47
0.0
 47
1.0
 47
0.0
 47
0.0
 47
0.0
 47
0.0
 47
1.0
171
     0
172
     2
 49
0.0208333333333333
 49
0.0
 49
0.0
 49
0.0
 49
0.0
 49
0.0208333333333333
 49
0.0
 49
0.0
 49
0.0
 49
0.0
 49
1.0
 49
0.0
 49
0.0
 49
0.0
 49
0.0
 49
1.0
175
     0
176
     2
142
0.0208333333333333
142
0.0
142
0.0
142
0.0
142
0.0
142
0.0208333333333333
142
0.0
142
0.0
142
0.0
142
0.0
142
1.0
142
0.0
142
0.0
142
0.0
142
0.0
142
1.0
179
     0
270
     2
144
0.0208333333333333
144
0.0
144
0.0
144
0.0
144
0.0
144
0.0208333333333333
144
0.0
144
0.0
144
0.0
144
0.0
144
1.0
144
0.0
144
0.0
144
0.0
144
0.0
144
1.0
274
     2
147
0.0208333333333333
147
0.0
147
0.0
147
0.0
147
0.0
147
0.0208333333333333
147
0.0
147
0.0
147
0.0
147
0.0
147
1.0
147
0.0
147
0.0
147
0.0
147
0.0
147
1.0
  0
MATERIAL
  5
146D
102
{ACAD_XDICTIONARY
360
146E
102
}
102
{ACAD_REACTORS
330
12F5
102
}
330
12F5
100
AcDbMaterial
  1
ByLayer
 72
     0
 73
     2
 43
0.0208333333333333
 43
0.0
 43
0.0
 43
0.0
 43
0.0
 43
0.0208333333333333
 43
0.0
 43
0.0
 43
0.0
 43
0.0
 43
1.0
 43
0.0
 43
0.0
 43
0.0
 43
0.0
 43
1.0
 77
     0
 78
     2
 47
0.0208333333333333
 47
0.0
 47
0.0
 47
0.0
 47
0.0
 47
0.0208333333333333
 47
0.0
 47
0.0
 47
0.0
 47
0.0
 47
1.0
 47
0.0
 47
0.0
 47
0.0
 47
0.0
 47
1.0
171
     0
172
     2
 49
0.0208333333333333
 49
0.0
 49
0.0
 49
0.0
 49
0.0
 49
0.0208333333333333
 49
0.0
 49
0.0
 49
0.0
 49
0.0
 49
1.0
 49
0.0
 49
0.0
 49
0.0
 49
0.0
 49
1.0
175
     0
176
     2
142
0.0208333333333333
142
0.0
142
0.0
142
0.0
142
0.0
142
0.0208333333333333
142
0.0
142
0.0
142
0.0
142
0.0
142
1.0
142
0.0
142
0.0
142
0.0
142
0.0
142
1.0
179
     0
270
     2
144
0.0208333333333333
144
0.0
144
0.0
144
0.0
144
0.0
144
0.0208333333333333
144
0.0
144
0.0
144
0.0
144
0.0
144
1.0
144
0.0
144
0.0
144
0.0
144
0.0
144
1.0
274
     2
147
0.0208333333333333
147
0.0
147
0.0
147
0.0
147
0.0
147
0.0208333333333333
147
0.0
147
0.0
147
0.0
147
0.0
147
1.0
147
0.0
147
0.0
147
0.0
147
0.0
147
1.0
  0
MATERIAL
  5
147D
102
{ACAD_XDICTIONARY
360
147E
102
}
102
{ACAD_REACTORS
330
12F5
102
}
330
12F5
100
AcDbMaterial
  1
Global
 72
     0
 73
     2
 43
0.0208333333333333
 43
0.0
 43
0.0
 43
0.0
 43
0.0
 43
0.0208333333333333
 43
0.0
 43
0.0
 43
0.0
 43
0.0
 43
1.0
 43
0.0
 43
0.0
 43
0.0
 43
0.0
 43
1.0
 77
     0
 78
     2
 47
0.0208333333333333
 47
0.0
 47
0.0
 47
0.0
 47
0.0
 47
0.0208333333333333
 47
0.0
 47
0.0
 47
0.0
 47
0.0
 47
1.0
 47
0.0
 47
0.0
 47
0.0
 47
0.0
 47
1.0
171
     0
172
     2
 49
0.0208333333333333
 49
0.0
 49
0.0
 49
0.0
 49
0.0
 49
0.0208333333333333
 49
0.0
 49
0.0
 49
0.0
 49
0.0
 49
1.0
 49
0.0
 49
0.0
 49
0.0
 49
0.0
 49
1.0
175
     0
176
     2
142
0.0208333333333333
142
0.0
142
0.0
142
0.0
142
0.0
142
0.0208333333333333
142
0.0
142
0.0
142
0.0
142
0.0
142
1.0
142
0.0
142
0.0
142
0.0
142
0.0
142
1.0
179
     0
270
     2
144
0.0208333333333333
144
0.0
144
0.0
144
0.0
144
0.0
144
0.0208333333333333
144
0.0
144
0.0
144
0.0
144
0.0
144
1.0
144
0.0
144
0.0
144
0.0
144
0.0
144
1.0
274
     2
147
0.0208333333333333
147
0.0
147
0.0
147
0.0
147
0.0
147
0.0208333333333333
147
0.0
147
0.0
147
0.0
147
0.0
147
1.0
147
0.0
147
0.0
147
0.0
147
0.0
147
1.0
  0
ACAD_PROXY_OBJECT
  5
14BB
102
{ACAD_REACTORS
330
14BA
102
}
330
14BA
100
AcDbProxyObject
 90
      499
 91
      524
 95
   131097
 70
     0
 93
      744
310
40901902A40600000030400FEFFFFFF815AF46E07A156E7F02B5E8DC0F42B5CFD095374616E646172640002B5E8DC0F42B1CFE405064068000000C10002B5E8DC0F42B1CFC02B5E8DC0F42B1CFE000000304015D90000000000000C03F00
340
C9A
340
0
340
C98
340
0
 94
        0
1001
ACAD_MLEADERVER
1070
     2
  0
MLINESTYLE
  5
C9E
102
{ACAD_REACTORS
330
C9D
102
}
330
C9D
100
AcDbMlineStyle
  2
STANDARD
 70
     0
  3

 62
   256
 51
90.0
 52
90.0
 71
     2
 49
0.5
 62
   256
  6
BYLAYER
 49
-0.5
 62
   256
  6
BYLAYER
  0
ACDBPLACEHOLDER
  5
C96
102
{ACAD_REACTORS
330
C95
102
}
330
C95
  0
ACAD_PROXY_OBJECT
  5
1499
102
{ACAD_REACTORS
330
1498
102
}
330
1498
100
AcDbProxyObject
 90
      499
 91
      523
 95
   131097
 70
     0
 93
       49
310
904313A3100598
 94
        0
  0
ACAD_PROXY_OBJECT
  5
149A
102
{ACAD_REACTORS
330
1498
102
}
330
1498
100
AcDbProxyObject
 90
      499
 91
      523
 95
   131097
 70
     0
 93
      113
310
904313A32004000000000000004000
 94
        0
  0
ACAD_PROXY_OBJECT
  5
149B
102
{ACAD_REACTORS
330
1498
102
}
330
1498
100
AcDbProxyObject
 90
      499
 91
      523
 95
   131097
 70
     0
 93
      113
310
904313A3400400000000000010406B
 94
        0
  0
ACAD_PROXY_OBJECT
  5
149C
102
{ACAD_REACTORS
330
1498
102
}
330
1498
100
AcDbProxyObject
 90
      499
 91
      523
 95
   131097
 70
     0
 93
      113
310
904313A35004000000000000144000
 94
        0
  0
ACAD_PROXY_OBJECT
  5
149D
102
{ACAD_REACTORS
330
1498
102
}
330
1498
100
AcDbProxyObject
 90
      499
 91
      523
 95
   131097
 70
     0
 93
      113
310
904313A3800400000000000020406B
 94
        0
  0
ACAD_PROXY_OBJECT
  5
149E
102
{ACAD_REACTORS
330
1498
102
}
330
1498
100
AcDbProxyObject
 90
      499
 91
      523
 95
   131097
 70
     0
 93
      121
310
905313A3130004000000000000244000
 94
        0
  0
ACAD_PROXY_OBJECT
  5
149F
102
{ACAD_REACTORS
330
1498
102
}
330
1498
100
AcDbProxyObject
 90
      499
 91
      523
 95
   131097
 70
     0
 93
      121
310
905313A3136004000000000000304051
 94
        0
  0
ACAD_PROXY_OBJECT
  5
14A0
102
{ACAD_REACTORS
330
1498
102
}
330
1498
100
AcDbProxyObject
 90
      499
 91
      523
 95
   131097
 70
     0
 93
      121
310
905313A3230004000000000000344000
 94
        0
  0
ACAD_PROXY_OBJECT
  5
14A1
102
{ACAD_REACTORS
330
1498
102
}
330
1498
100
AcDbProxyObject
 90
      499
 91
      523
 95
   131097
 70
     0
 93
      121
310
905313A33300040000000000003E4051
 94
        0
  0
ACAD_PROXY_OBJECT
  5
14A2
102
{ACAD_REACTORS
330
1498
102
}
330
1498
100
AcDbProxyObject
 90
      499
 91
      523
 95
   131097
 70
     0
 93
      121
310
905313A3430004000000000000444000
 94
        0
  0
ACAD_PROXY_OBJECT
  5
14A3
102
{ACAD_REACTORS
330
1498
102
}
330
1498
100
AcDbProxyObject
 90
      499
 91
      523
 95
   131097
 70
     0
 93
      121
310
905313A3530004000000000000494051
 94
        0
  0
ACAD_PROXY_OBJECT
  5
14A4
102
{ACAD_REACTORS
330
1498
102
}
330
1498
100
AcDbProxyObject
 90
      499
 91
      523
 95
   131097
 70
     0
 93
      129
310
906313A313030004000000000000594000
 94
        0
  0
ACAD_PROXY_OBJECT
  5
14A5
102
{ACAD_REACTORS
330
1498
102
}
330
1498
100
AcDbProxyObject
 90
      499
 91
      523
 95
   131097
 70
     0
 93
      113
310
904323A31000000000000000010140
 94
        0
  0
ACAD_PROXY_OBJECT
  5
14A6
102
{ACAD_REACTORS
330
1498
102
}
330
1498
100
AcDbProxyObject
 90
      499
 91
      523
 95
   131097
 70
     0
 93
      113
310
904343A31000000000000000410159
 94
        0
  0
ACAD_PROXY_OBJECT
  5
14A7
102
{ACAD_REACTORS
330
1498
102
}
330
1498
100
AcDbProxyObject
 90
      499
 91
      523
 95
   131097
 70
     0
 93
      113
310
904383A31000000000000000810159
 94
        0
  0
ACAD_PROXY_OBJECT
  5
14A8
102
{ACAD_REACTORS
330
1498
102
}
330
1498
100
AcDbProxyObject
 90
      499
 91
      523
 95
   131097
 70
     0
 93
      121
310
90531303A31000000000000000910100
 94
        0
  0
ACAD_PROXY_OBJECT
  5
14A9
102
{ACAD_REACTORS
330
1498
102
}
330
1498
100
AcDbProxyObject
 90
      499
 91
      523
 95
   131097
 70
     0
 93
      129
310
9063130303A31000000000000001650100
 94
        0
  0
ACAD_PROXY_OBJECT
  5
14AA
102
{ACAD_REACTORS
330
1498
102
}
330
1498
100
AcDbProxyObject
 90
      499
 91
      523
 95
   131097
 70
     0
 93
      265
310
90F312F31323822203D2031272D302200000000000000200FC000000000000284000
 94
        0
  0
ACAD_PROXY_OBJECT
  5
14AB
102
{ACAD_REACTORS
330
1498
102
}
330
1498
100
AcDbProxyObject
 90
      499
 91
      523
 95
   131097
 70
     0
 93
      257
310
90E312F363422203D2031272D302200000000000000240FC000000000000284000
 94
        0
  0
ACAD_PROXY_OBJECT
  5
14AC
102
{ACAD_REACTORS
330
1498
102
}
330
1498
100
AcDbProxyObject
 90
      499
 91
      523
 95
   131097
 70
     0
 93
      257
310
90E312F333222203D2031272D302200000000000000280FC000000000000284040
 94
        0
  0
ACAD_PROXY_OBJECT
  5
14AD
102
{ACAD_REACTORS
330
1498
102
}
330
1498
100
AcDbProxyObject
 90
      499
 91
      523
 95
   131097
 70
     0
 93
      257
310
90E312F313622203D2031272D3022000000000000002C0FC000000000000284000
 94
        0
  0
ACAD_PROXY_OBJECT
  5
14AE
102
{ACAD_REACTORS
330
1498
102
}
330
1498
100
AcDbProxyObject
 90
      499
 91
      523
 95
   131097
 70
     0
 93
      257
310
90E332F333222203D2031272D3022000000000000002E0FC000000000000284040
 94
        0
  0
ACAD_PROXY_OBJECT
  5
14AF
102
{ACAD_REACTORS
330
1498
102
}
330
1498
100
AcDbProxyObject
 90
      499
 91
      523
 95
   131097
 70
     0
 93
      249
310
90D312F3822203D2031272D302200000000000000300FC000000000000284040
 94
        0
  0
ACAD_PROXY_OBJECT
  5
14B0
102
{ACAD_REACTORS
330
1498
102
}
330
1498
100
AcDbProxyObject
 90
      499
 91
      523
 95
   131097
 70
     0
 93
      257
310
90E332F313622203D2031272D302200000000000000320FC000000000000284040
 94
        0
  0
ACAD_PROXY_OBJECT
  5
14B1
102
{ACAD_REACTORS
330
1498
102
}
330
1498
100
AcDbProxyObject
 90
      499
 91
      523
 95
   131097
 70
     0
 93
      249
310
90D312F3422203D2031272D302200000000000000340FC000000000000284040
 94
        0
  0
ACAD_PROXY_OBJECT
  5
14B2
102
{ACAD_REACTORS
330
1498
102
}
330
1498
100
AcDbProxyObject
 90
      499
 91
      523
 95
   131097
 70
     0
 93
      249
310
90D332F3822203D2031272D302200000000000000360FC000000000000284040
 94
        0
  0
ACAD_PROXY_OBJECT
  5
14B3
102
{ACAD_REACTORS
330
1498
102
}
330
1498
100
AcDbProxyObject
 90
      499
 91
      523
 95
   131097
 70
     0
 93
      249
310
90D312F3222203D2031272D302200000000000000380FC000000000000284040
 94
        0
  0
ACAD_PROXY_OBJECT
  5
14B4
102
{ACAD_REACTORS
330
1498
102
}
330
1498
100
AcDbProxyObject
 90
      499
 91
      523
 95
   131097
 70
     0
 93
      249
310
90D332F3422203D2031272D3022000000000000003A0FC000000000000284040
 94
        0
  0
ACAD_PROXY_OBJECT
  5
14B5
102
{ACAD_REACTORS
330
1498
102
}
330
1498
100
AcDbProxyObject
 90
      499
 91
      523
 95
   131097
 70
     0
 93
      169
310
90B3122203D2031272D3022004000000000000284000
 94
        0
  0
ACAD_PROXY_OBJECT
  5
14B6
102
{ACAD_REACTORS
330
1498
102
}
330
1498
100
AcDbProxyObject
 90
      499
 91
      523
 95
   131097
 70
     0
 93
      265
310
90F312D312F3222203D2031272D3022000000000000003E0FC000000000000284000
 94
        0
  0
ACAD_PROXY_OBJECT
  5
14B7
102
{ACAD_REACTORS
330
1498
102
}
330
1498
100
AcDbProxyObject
 90
      499
 91
      523
 95
   131097
 70
     0
 93
      233
310
90B3322203D2031272D30220000000000000002100000000000000284028
 94
        0
  0
ACAD_PROXY_OBJECT
  5
14B8
102
{ACAD_REACTORS
330
1498
102
}
330
1498
100
AcDbProxyObject
 90
      499
 91
      523
 95
   131097
 70
     0
 93
      233
310
90B3622203D2031272D30220000000000000006100000000000000284000
 94
        0
  0
ACAD_PROXY_OBJECT
  5
14B9
102
{ACAD_REACTORS
330
1498
102
}
330
1498
100
AcDbProxyObject
 90
      499
 91
      523
 95
   131097
 70
     0
 93
      257
310
90E31272D3022203D2031272D3022000000000000000A100000000000000284000
 94
        0
  0
ACAD_PROXY_OBJECT
  5
1497
102
{ACAD_XDICTIONARY
360
16EF
102
}
102
{ACAD_REACTORS
330
1496
102
}
330
1496
100
AcDbProxyObject
 90
      499
 91
      522
 95
   131097
 70
     0
 93
     1849
310
4254DD185B99185C990028B81E85EB51B8AE3F2E07A17AD46E2B8FC02B5E8DC0F42B1CFD028000000C1008070000C3001FDFF8000000C1003FBFF000000182007F7FE00000030400FEFFC00000060801FDFF8000000C1003FBFF00000018200000000000000681FA0B0000001820100E000186003FBFF000000182007F7FE0
310
0000030400FEFFC00000060801FDFF8000000C1003FBFF000000182007F7FE000000304000AD7A3703D0AC73F4160000003040201C00030C007F7FE00000030400FEFFC00000060801FDFF8000000C1003FBFF000000182007F7FE00000030400FEFFC000000608000
340
C98
340
C98
340
C98
 94
        0
  0
ACAD_PROXY_OBJECT
  5
148B
102
{ACAD_XDICTIONARY
360
199B
102
}
102
{ACAD_REACTORS
330
1485
102
}
330
1485
100
AcDbProxyObject
 90
      499
 91
      521
 95
   131097
 70
     0
 93
      598
310
430C9915DA5C99599C985B59401049028333333333333E3BF0000000000000FB023FFFFFF0802405048070000C3008000000C800405A000000320014050640A01C00030C010500920280D3
 94
        0
1001
ACAD
1000
AcDbSavedByObjectVersion
1070
     0
  0
ACAD_PROXY_OBJECT
  5
148D
102
{ACAD_XDICTIONARY
360
199F
102
}
102
{ACAD_REACTORS
330
1485
102
}
330
1485
100
AcDbProxyObject
 90
      499
 91
      521
 95
   131097
 70
     0
 93
      662
310
428CD108121A5919195B8010640502408333333333333E3BF0000000000000FB023FFFFFF0802409028070000C3008000000C8004080000000000004440A000000320014050640A01C00030C010300920280D0
 94
        0
1001
ACAD
1000
AcDbSavedByObjectVersion
1070
     0
  0
ACAD_PROXY_OBJECT
  5
148C
102
{ACAD_XDICTIONARY
360
199D
102
}
102
{ACAD_REACTORS
330
1485
102
}
330
1485
100
AcDbProxyObject
 90
      499
 91
      521
 95
   131097
 70
     0
 93
      598
310
430CD915DA5C99599C985B59401059028333333333333E3BF0000000000000FB023FFFFFF0802405048070000C3008000000C800405A000000320014050640A01C00030C010500920280D2
 94
        0
1001
ACAD
1000
AcDbSavedByObjectVersion
1070
     0
  0
ACAD_PROXY_OBJECT
  5
148A
102
{ACAD_XDICTIONARY
360
1999
102
}
102
{ACAD_REACTORS
330
1485
102
}
330
1485
100
AcDbProxyObject
 90
      499
 91
      521
 95
   131097
 70
     0
 93
      558
310
4190985CDA58C0107406404333333333333E3BF0000000000000FB023FFFFFF08029048070000C3008000000C80040542201C00030C014050640A01C00030C010500920280D6
 94
        0
1001
ACAD
1000
AcDbSavedByObjectVersion
1070
     0
  0
ACAD_PROXY_OBJECT
  5
1491
102
{ACAD_XDICTIONARY
360
19A7
102
}
102
{ACAD_REACTORS
330
1485
102
}
330
1485
100
AcDbProxyObject
 90
      499
 91
      521
 95
   131097
 70
     0
 93
      598
310
42509C9A59DA1D195B8010C409028333333333333E3BF0000000000000FB023FFFFFF0802405048070000C3008000000C80040542201C00030C014050640A01C00030C010500920280A654
 94
        0
1001
ACAD
1000
AcDbSavedByObjectVersion
1070
     0
  0
ACAD_PROXY_OBJECT
  5
1495
102
{ACAD_XDICTIONARY
360
19AF
102
}
102
{ACAD_REACTORS
330
1485
102
}
330
1485
100
AcDbProxyObject
 90
      499
 91
      521
 95
   131097
 70
     0
 93
      622
310
4310DBDB1BDC90DA185B99D9401104090240C333333333333E3BF0000000000000FB0220202030802405048070000C3008000000C800405422202020308014050640A01C00030C010500920280D4
 94
        0
1001
ACAD
1000
AcDbSavedByObjectVersion
1070
     0
  0
ACAD_PROXY_OBJECT
  5
148E
102
{ACAD_XDICTIONARY
360
19A1
102
}
102
{ACAD_REACTORS
330
1485
102
}
330
1485
100
AcDbProxyObject
 90
      499
 91
      521
 95
   131097
 70
     0
 93
      670
310
42D0DBDB98D95C1D1D585B0010940D028333333333333E3BF0000000000000FB023FFFFFF0802409028070000C3008000000C800404000000000000444042201C00030C014050640A01C00030C010300920280D0
 94
        0
1001
ACAD
1000
AcDbSavedByObjectVersion
1070
     0
  0
ACAD_PROXY_OBJECT
  5
1490
102
{ACAD_XDICTIONARY
360
19A5
102
}
102
{ACAD_REACTORS
330
1485
102
}
330
1485
100
AcDbProxyObject
 90
      499
 91
      521
 95
   131097
 70
     0
 93
      582
310
41111A5B4010B409028333333333333E3BF0000000000000FB023FFFFFF0802405048070000C3008000000C80040542201C00030C014050640A01C00030C01050092028099DFFFFFF4
 94
        0
1001
ACAD
1000
AcDbSavedByObjectVersion
1070
     0
  0
ACAD_PROXY_OBJECT
  5
16FC
102
{ACAD_XDICTIONARY
360
19B6
102
}
102
{ACAD_REACTORS
330
1485
102
}
330
1485
100
AcDbProxyObject
 90
      499
 91
      521
 95
   131097
 70
     0
 93
      622
310
43515919D950DBDB1BDC93D99980116409028333333333333E3BF0000000000000FB023FFFFFF0802405048070000C3008000000C80040542201C00030C014050640A01C00030C010500920280D4
 94
        0
1001
ACAD
1000
AcDbSavedByObjectVersion
1070
     0
  0
ACAD_PROXY_OBJECT
  5
1494
102
{ACAD_XDICTIONARY
360
19AD
102
}
102
{ACAD_REACTORS
330
1485
102
}
330
1485
100
AcDbProxyObject
 90
      499
 91
      521
 95
   131097
 70
     0
 93
      614
310
43119858D95C185D1D195C9B8010F409028333333333333E3BF0000000000000FB023FFFFFF0802405048070000C3008000000C80040542201C00030C014050640A01C00030C010500920280D4
 94
        0
1001
ACAD
1000
AcDbSavedByObjectVersion
1070
     0
  0
ACAD_PROXY_OBJECT
  5
1486
102
{ACAD_XDICTIONARY
360
1991
102
}
102
{ACAD_REACTORS
330
1485
102
}
330
1485
100
AcDbProxyObject
 90
      499
 91
      521
 95
   131097
 70
     0
 93
      558
310
41519B185D00240901404333333333333E3BF0000000000000F9023FFFFFF0801029048070000C3008000000C80040542201C00030C014050640A01C00030C010500920286D6
 94
        0
1001
ACAD
1000
AcDbSavedByObjectVersion
1070
     0
  0
ACAD_PROXY_OBJECT
  5
1487
102
{ACAD_XDICTIONARY
360
1993
102
}
102
{ACAD_REACTORS
330
1485
102
}
330
1485
100
AcDbProxyObject
 90
      499
 91
      521
 95
   131097
 70
     0
 93
      638
310
43919B185D15DA5D1A115919D95CC010140901404333333333333E3BF0000000000000F9023FFFFFF080102405048070000C3008000000C800405A000000320014050640A01C00030C010500920286D4
 94
        0
1001
ACAD
1000
AcDbSavedByObjectVersion
1070
     0
  0
ACAD_PROXY_OBJECT
  5
1488
102
{ACAD_XDICTIONARY
360
1995
102
}
102
{ACAD_REACTORS
330
1485
102
}
330
1485
100
AcDbProxyObject
 90
      499
 91
      521
 95
   131097
 70
     0
 93
      582
310
4211DBDD5C985D590010240902404333333333333E3BF0000000000000F9023FFFFFF0801029048070000C3008000000C800405A01C00030C014050640A01C00030C010500920286D6
 94
        0
1001
ACAD
1000
AcDbSavedByObjectVersion
1070
     0
  0
ACAD_PROXY_OBJECT
  5
1489
102
{ACAD_XDICTIONARY
360
1997
102
}
102
{ACAD_REACTORS
330
1485
102
}
330
1485
100
AcDbProxyObject
 90
      499
 91
      521
 95
   131097
 70
     0
 93
      662
310
4451DBDD5C985D5915DA5D1A115919D95CC010340902404333333333333E3BF0000000000000F9023FFFFFF080102405048070000C3008000000C800405A000000320014050640A01C00030C010500920286D4
 94
        0
1001
ACAD
1000
AcDbSavedByObjectVersion
1070
     0
  0
ACAD_PROXY_OBJECT
  5
16FA
102
{ACAD_XDICTIONARY
360
19B2
102
}
102
{ACAD_REACTORS
330
1485
102
}
330
1485
100
AcDbProxyObject
 90
      499
 91
      521
 95
   131097
 70
     0
 93
      598
310
42929A5D1D195C93D99980114409028333333333333E3BF0000000000000FB023FFFFFF0802405048070000C3008000000C80040542A01C00030C014050640A01C00030C010500920280D6
 94
        0
1001
ACAD
1000
AcDbSavedByObjectVersion
1070
     0
  0
ACAD_PROXY_OBJECT
  5
1493
102
{ACAD_XDICTIONARY
360
19AB
102
}
102
{ACAD_REACTORS
330
1485
102
}
330
1485
100
AcDbProxyObject
 90
      499
 91
      521
 95
   131097
 70
     0
 93
      614
310
43131A5B995C185D1D195C9B8010E409028333333333333E3BF0000000000000FB023FFFFFF0802405048070000C3008000000C80041D42201C00030C014050640A01C00030C010500920E80D4
 94
        0
1001
ACAD
1000
AcDbSavedByObjectVersion
1070
     0
  0
ACAD_PROXY_OBJECT
  5
16FB
102
{ACAD_XDICTIONARY
360
19B4
102
}
102
{ACAD_REACTORS
330
1485
102
}
330
1485
100
AcDbProxyObject
 90
      499
 91
      521
 95
   131097
 70
     0
 93
      614
310
4313DD995C9A185B99D3D99980115409028333333333333E3BF0000000000000FB023FFFFFF0802405048070000C3008000000C80040542601C00030C014050640A01C00030C010500920280D4
 94
        0
1001
ACAD
1000
AcDbSavedByObjectVersion
1070
     0
  0
ACAD_PROXY_OBJECT
  5
148F
102
{ACAD_XDICTIONARY
360
19A3
102
}
102
{ACAD_REACTORS
330
1485
102
}
330
1485
100
AcDbProxyObject
 90
      499
 91
      521
 95
   131097
 70
     0
 93
      590
310
429499585B1A5CDD1A58C0108409028333333333333E3BF0000000000000FB023FFFFFF08024068070000C3008000000C8004054221E1E1E308014050640A01C00030C010500920286D0
 94
        0
1001
ACAD
1000
AcDbSavedByObjectVersion
1070
     0
  0
ACAD_PROXY_OBJECT
  5
1492
102
{ACAD_XDICTIONARY
360
19A9
102
}
102
{ACAD_REACTORS
330
1485
102
}
330
1485
100
AcDbProxyObject
 90
      499
 91
      521
 95
   131097
 70
     0
 93
      582
310
42151A1A58DAD95B8010D409028333333333333E3BF0000000000000FB023FFFFFF0802405048070000C3008000000C80040543201C00030C014050640A01C00030C010500920280D4
 94
        0
1001
ACAD
1000
AcDbSavedByObjectVersion
1070
     0
  0
DICTIONARYVAR
  5
16F5
102
{ACAD_REACTORS
330
D76
102
}
330
D76
100
DictionaryVariables
280
     0
  1
1:1
  0
DICTIONARYVAR
  5
16F3
102
{ACAD_REACTORS
330
D76
102
}
330
D76
100
DictionaryVariables
280
     0
  1
STANDARD
  0
DICTIONARYVAR
  5
16F2
102
{ACAD_REACTORS
330
D76
102
}
330
D76
100
DictionaryVariables
280
     0
  1
STANDARD
  0
DICTIONARYVAR
  5
130B
102
{ACAD_REACTORS
330
D76
102
}
330
D76
100
DictionaryVariables
280
     0
  1
1
  0
DICTIONARYVAR
  5
16F7
102
{ACAD_REACTORS
330
D76
102
}
330
D76
100
DictionaryVariables
280
     0
  1
1
  0
DICTIONARYVAR
  5
16F8
102
{ACAD_REACTORS
330
D76
102
}
330
D76
100
DictionaryVariables
280
     0
  1
15
  0
DICTIONARYVAR
  5
16F6
102
{ACAD_REACTORS
330
D76
102
}
330
D76
100
DictionaryVariables
280
     0
  1
0
  0
DICTIONARYVAR
  5
16F4
102
{ACAD_REACTORS
330
D76
102
}
330
D76
100
DictionaryVariables
280
     0
  1
0
  0
DICTIONARYVAR
  5
130C
102
{ACAD_REACTORS
330
D76
102
}
330
D76
100
DictionaryVariables
280
     0
  1

  0
DICTIONARYVAR
  5
D77
102
{ACAD_REACTORS
330
D76
102
}
330
D76
100
DictionaryVariables
280
     0
  1
96
  0
DICTIONARY
  5
152A
102
{ACAD_REACTORS
330
151D
102
}
330
151D
100
AcDbDictionary
281
     1
  0
XRECORD
  5
1964
102
{ACAD_REACTORS
330
151D
102
}
330
151D
100
AcDbXrecord
280
     1
 90
-1073741824
  0
XRECORD
  5
1808
102
{ACAD_REACTORS
330
1806
102
}
330
1806
100
AcDbXrecord
280
     1
330
366
330
3DA
330
0
330
0
  0
DICTIONARY
  5
17CA
330
CA8
100
AcDbDictionary
280
     1
281
     1
  3
ADSK_XREC_LAYOUTTHUMBNAIL
360
17CB
  0
DICTIONARY
  5
1476
330
1475
100
AcDbDictionary
280
     1
281
     1
  3
ACAD_XREC_ROUNDTRIP
360
198F
  3
BUMPTILE
360
1478
  3
DIFFUSETILE
360
1477
  3
OPACITYTILE
360
147B
  3
REFLECTIONTILE
360
147A
  3
REFRACTIONTILE
360
147C
  3
SPECULARTILE
360
1479
  0
DICTIONARY
  5
146E
330
146D
100
AcDbDictionary
280
     1
281
     1
  3
ACAD_XREC_ROUNDTRIP
360
198E
  3
BUMPTILE
360
1470
  3
DIFFUSETILE
360
146F
  3
OPACITYTILE
360
1473
  3
REFLECTIONTILE
360
1472
  3
REFRACTIONTILE
360
1474
  3
SPECULARTILE
360
1471
  0
DICTIONARY
  5
147E
330
147D
100
AcDbDictionary
280
     1
281
     1
  3
ACAD_XREC_ROUNDTRIP
360
1990
  3
BUMPTILE
360
1480
  3
DIFFUSETILE
360
147F
  3
OPACITYTILE
360
1483
  3
REFLECTIONTILE
360
1482
  3
REFRACTIONTILE
360
1484
  3
SPECULARTILE
360
1481
  0
DICTIONARY
  5
16EF
330
1497
100
AcDbDictionary
280
     1
281
     1
  3
ACAD_ROUNDTRIP_2008_TABLESTYLE_CELLSTYLEMAP
360
1984
  3
ACAD_XREC_ROUNDTRIP
360
19B1
  0
DICTIONARY
  5
199B
330
148B
100
AcDbDictionary
280
     1
281
     1
  3
ACAD_XREC_ROUNDTRIP
360
199C
  0
DICTIONARY
  5
199F
330
148D
100
AcDbDictionary
280
     1
281
     1
  3
ACAD_XREC_ROUNDTRIP
360
19A0
  0
DICTIONARY
  5
199D
330
148C
100
AcDbDictionary
280
     1
281
     1
  3
ACAD_XREC_ROUNDTRIP
360
199E
  0
DICTIONARY
  5
1999
330
148A
100
AcDbDictionary
280
     1
281
     1
  3
ACAD_XREC_ROUNDTRIP
360
199A
  0
DICTIONARY
  5
19A7
330
1491
100
AcDbDictionary
280
     1
281
     1
  3
ACAD_XREC_ROUNDTRIP
360
19A8
  0
DICTIONARY
  5
19AF
330
1495
100
AcDbDictionary
280
     1
281
     1
  3
ACAD_XREC_ROUNDTRIP
360
19B0
  0
DICTIONARY
  5
19A1
330
148E
100
AcDbDictionary
280
     1
281
     1
  3
ACAD_XREC_ROUNDTRIP
360
19A2
  0
DICTIONARY
  5
19A5
330
1490
100
AcDbDictionary
280
     1
281
     1
  3
ACAD_XREC_ROUNDTRIP
360
19A6
  0
DICTIONARY
  5
19B6
330
16FC
100
AcDbDictionary
280
     1
281
     1
  3
ACAD_XREC_ROUNDTRIP
360
19B7
  0
DICTIONARY
  5
19AD
330
1494
100
AcDbDictionary
280
     1
281
     1
  3
ACAD_XREC_ROUNDTRIP
360
19AE
  0
DICTIONARY
  5
1991
330
1486
100
AcDbDictionary
280
     1
281
     1
  3
ACAD_XREC_ROUNDTRIP
360
1992
  0
DICTIONARY
  5
1993
330
1487
100
AcDbDictionary
280
     1
281
     1
  3
ACAD_XREC_ROUNDTRIP
360
1994
  0
DICTIONARY
  5
1995
330
1488
100
AcDbDictionary
280
     1
281
     1
  3
ACAD_XREC_ROUNDTRIP
360
1996
  0
DICTIONARY
  5
1997
330
1489
100
AcDbDictionary
280
     1
281
     1
  3
ACAD_XREC_ROUNDTRIP
360
1998
  0
DICTIONARY
  5
19B2
330
16FA
100
AcDbDictionary
280
     1
281
     1
  3
ACAD_XREC_ROUNDTRIP
360
19B3
  0
DICTIONARY
  5
19AB
330
1493
100
AcDbDictionary
280
     1
281
     1
  3
ACAD_XREC_ROUNDTRIP
360
19AC
  0
DICTIONARY
  5
19B4
330
16FB
100
AcDbDictionary
280
     1
281
     1
  3
ACAD_XREC_ROUNDTRIP
360
19B5
  0
DICTIONARY
  5
19A3
330
148F
100
AcDbDictionary
280
     1
281
     1
  3
ACAD_XREC_ROUNDTRIP
360
19A4
  0
DICTIONARY
  5
19A9
330
1492
100
AcDbDictionary
280
     1
281
     1
  3
ACAD_XREC_ROUNDTRIP
360
19AA
  0
XRECORD
  5
17CB
102
{ACAD_REACTORS
330
17CA
102
}
330
17CA
100
AcDbXrecord
280
     1
310
28000000000100009600000001000800000000000096000000000000000000000001000000000000F0FCFE0000000000FFFFFF000000000000000000000000000000000000000000000000000000000000000000330000006600000099000000CC000000FF00000000330000333300006633000099330000CC330000FF3300
310
0000660000336600006666000099660000CC660000FF66000000990000339900006699000099990000CC990000FF99000000CC000033CC000066CC000099CC0000CCCC0000FFCC000000FF000033FF000066FF000099FF0000CCFF0000FFFF000000003300330033006600330099003300CC003300FF003300003333003333
310
33006633330099333300CC333300FF33330000663300336633006666330099663300CC663300FF66330000993300339933006699330099993300CC993300FF99330000CC330033CC330066CC330099CC3300CCCC3300FFCC330000FF330033FF330066FF330099FF3300CCFF3300FFFF330000006600330066006600660099
310
006600CC006600FF00660000336600333366006633660099336600CC336600FF33660000666600336666006666660099666600CC666600FF66660000996600339966006699660099996600CC996600FF99660000CC660033CC660066CC660099CC6600CCCC6600FFCC660000FF660033FF660066FF660099FF6600CCFF6600
310
FFFF660000009900330099006600990099009900CC009900FF00990000339900333399006633990099339900CC339900FF33990000669900336699006666990099669900CC669900FF66990000999900339999006699990099999900CC999900FF99990000CC990033CC990066CC990099CC9900CCCC9900FFCC990000FF99
310
0033FF990066FF990099FF9900CCFF9900FFFF99000000CC003300CC006600CC009900CC00CC00CC00FF00CC000033CC003333CC006633CC009933CC00CC33CC00FF33CC000066CC003366CC006666CC009966CC00CC66CC00FF66CC000099CC003399CC006699CC009999CC00CC99CC00FF99CC0000CCCC0033CCCC0066CC
310
CC0099CCCC00CCCCCC00FFCCCC0000FFCC0033FFCC0066FFCC0099FFCC00CCFFCC00FFFFCC000000FF003300FF006600FF009900FF00CC00FF00FF00FF000033FF003333FF006633FF009933FF00CC33FF00FF33FF000066FF003366FF006666FF009966FF00CC66FF00FF66FF000099FF003399FF006699FF009999FF00CC
310
99FF00FF99FF0000CCFF0033CCFF0066CCFF0099CCFF00CCCCFF00FFCCFF0000FFFF0033FFFF0066FFFF0099FFFF00CCFFFF00FFFFFF00000000000D0D0D001A1A1A00282828003535350043434300505050005D5D5D006B6B6B00787878008686860093939300A1A1A100AEAEAE00BBBBBB00C9C9C900D6D6D600E4E4E400
310
F1F1F100FFFFFF0000000000000000000000000000000000000000000000000000000000000000000000000000000000E1E1E1E1E1E1E1E1E1E1E1E1E1E1E1E1E1E1E1E1E1E1E1E1E1E1E1E1E1E1E1E1E1E1E1E1E1E1E1E1E1E1E1E1E1E1E1E1E1E1E1E1E1E1E1E1E1E1E1E1E1E1E1E1E1E1E1E1E1E1E1E1E1E1E1E1E1E1E1
310
E1E1E1E1E1E1E1E1E1E1E1E1E1E1E1E1E1E1E1E1E1E1E1E1E1E1E1E1E1E1E1E1E1E1E1E1E1E1E1E1E1E1E1E1E1E1E1E1E1E1E1E1E1E1E1E1E1E1E1E1E1E1E1E1E1E1E1E1E1E1E1E1E1E1E1E1E1E1E1E1E1E1E1E1E1E1E1E1E1E1E1E1E1E1E1E1E1E1E1E1E1E1E1E1E1E1E1E1E1E1E1E1E1E1E1E1E1E1E1E1E1E1E1E1E1E1E1
310
E1E1E1E1E1E1E1E1E1E1E1E1E1E1E1E1E1E1E1E1E1E1E1E1E1E1E1E1E1E1E1E1E1E1E1E1E1E1E1E1E1E1E1E1E1E1E1E1E1E1E1E1E1E1E1E1E1E1E1E1E1E1E1E1E1E1E1E1E1E1E1E1E1E1E1E1E1E1E1E1E1E1E1E1E1E1E1E1E1E1E1E1E1E1E1E1E1E1E1E1E1E1E1E1E1E1E1E1E1E1E1E1E1E1E1E1E1E1E1E1E1E1E1E1E1E1E1
310
E1E1E1E1E1E1E1E1E1E1E1E1E1E1E1E1E1E1E1E1E1E1E1E1E1E1E1E1E1E1E1E1E1E1E1E1E1E1E1E1E1E1E1E1E1E1E1E1E1E1E1E1E1E1E1E1E1E1E1E1E1E1E1E1E1E1E1E1E1E1E1E1E1E1E1E1E1E1E1E1E1E1E1E1E1E1E1E1E1E1E1E1E1E1E1E1E1E1E1E1E1E1E1E1E1E1E1E1E1E1E1E1E1E1E1E1E1E1E1E1E1E1E1E1E1E1E1
310
E1E1E1E1E1E1E1E1E1E1E1E1E1E1E1E1E1E1E1E1E1E1E1E1E1E1E1E1E1E1E1E1E1E1E1E1E1E1E1E1E1E1E1E1E1E1E1E1E1E1E1E1E1E1E1E1E1E1E1E1E1E1E1E1E1E1E1E1E1E1E1E1E1E1E1E1E1E1E1E1E1E1E1E1E1E1E1E1E1E1E1E1E1E1E1E1E1E1E1E1E1E1E1E1E1E1E1E1E1E1E1E1E1E1E1E1E1E1E1E1E1E1E1E1E1E1E1
310
E1E1E1E1E1E1E1E1E1E1E1E1E1E1E1E1E1E1E1E1E1E1E1E1E1E1E1E1E1E1E1E1E1E1E1E1E1E1E1E1E1E1E1E1E1E1E1E1E1E1E1E1E1E1E1E1E1E1E1E1E1E1E1E1E1E1E1E1E1E1E1E1E1E1E1E1E1E1E1E1E1E1E1E1E1E1E1E1E1E1E1E1E1E1E1E1E1E1E1E1E1E1E1E1E1E1E1E1E1E1E1E1E1E1E1E1E1E1E1E1E1E1E1E1E1E1E1
310
E1E1E1E1E1E1E1E1E1E1E1E1E1E1E1E1E1E1E1E1E1E1E1E1E1E1E1E1E1E1E1E1E1E1E1E1E1E1E1E1E1E1E1E1E1E1E1E1E1E1E1E1E1E1E1E1E1E1E1E1E1E1E1E1E1E1E1E1E1E1E1E1E1E1E1E1E1E1E1E1E1E1E1E1E1E1E1E1E1E1E1E1E1E1E1E1E1E1E1E1E1E1E1E1E1E1E1E1E1E1E1E1E1E1E1E1E1E1E1E1E1E1E1E1E1E1E1
310
E1E1E1E1E1E1E1E1E1E1E1E1E1E1E1E1E1E1E1E1E1E1E1E1E1E1E1E1E1E1E1E1E1E1E1E1E1E1E1E1E1E1E1E1E1E1E1E1E1E1E1E1E1E1E1E1E1E1E1E1E1E1E1E1E1E1E1E1E1E1E1E1E1E1E1E1E1E1E1E1E1E1E1E1E1E1E1E1E1E1E1E1E1E1E1E1E1E1E1E1E1E1E1E1E1E1E1E1E1E1E1E1E1E1E1E1E1E1E1E1E1E1E1E1E1E1E1
310
E1E1E1E1E1E1E1E1E1E1E1E1E1E1E1E1E1E1E1E1E1E1E1E1E1E1E1E1E1E1E1E1E1E1E1E1E1E1E1E1E1E1E1E1E1E1E1E1E1E1E1E1E1E1E1E1E1E1E1E1E1E1E1E1E1E1E1E1E1E1E1E1E1E1E1E1E1E1E1E1E1E1E1E1E1E1E1E1E1E1E1E1E1E1E1E1E1E1E1E1E1E1E1E1E1E1E1E1E1E1E1E1E1E1E1E1E1E1E1E1E1E1E1E1E1E1E1
310
E1E1E1E1E1E1E1E1E1E1E1E1E1E1E1E1E1E1E1E1E1E1E1E1E1E1E1E1E1E1E1E1E1E1E1E1E1E1E1E1E1E1E1E1E1E1E1E1E1E1E1E1E1E1E1E1E1E1E1E1E1E1E1E1E1E1E1E1E1E1E1E1E1E1E1E1E1E1E1E1E1E1E1E1E1E1E1E1E1E1E1E1E1E1E1E1E1E1E1E1E1E1E1E1E1E1E1E1E1E1E1E1E1E1E1E1E1E1E1E1E1E1E1E1E1E1E1
310
E1E1E1E1E1E1E1E1E1E1E1E1E1E1E1E1E1E1E1E1E1E1E1E1E1E1E1E1E1E1E1E1E1E1E1E1E1E1E1E1E1E1E1E1E1E1E1E1E1E1E1E1E1E1E1E1E1E1E1E1E1E1E1E1E1E1E1E1E1E1E1E1E1E1E1E1E1E1E1E1E1E1E1E1E1E1E1E1E1E1E1E1E1E1E1E1E1E1E1E1E1E1E1E1E1E1E1E1E1E1E1E1E1E1E1E1E1E1E1E1E1E1E1E1E1E1E1
310
E1E1E1E1E1E1E1E1E1E1E1E1E1E1E1E1E1E1E1E1E1E1E1E1E1E1E1E1E1E1E1E1E1E1E1E1E1E1E1E1E1E1E1E1E1E1E1E1E1E1E1E1E1E1E1E1E1E1E1E1E1E1E1E1E1E1E1E1E1E1E1E1E1E1E1E1E1E1E1E1E1E1E1E1E1E1E1E1E1E1E1E1E1E1E1E1E1E1E1E1E1E1E1E1E1E1E1E1E1E1E1E1E1E1E1E1E1E1E1E1E1E1E1E1E1E1E1
310
E1E1E1E1E1E1E1E1E1E1E1E1E1E1E1E1E1E1E1E1E1E1E1E1E1E1E1E1E1E1E1E1E1E1E1E1E1E1E1E1E1E1E1E1E1E1E1E1E1E1E1E1E1E1E1E1E1E1E1E1E1E1E1E1E1E1E1E1E1E1E1E1E1E1E1E1E1E1E1E1E1E1E1E1E1E1E1E1E1E1E1E1E1E1E1E1E1E1E1E1E1E1E1E1E1E1E1E1E1E1E1E1E1E1E1E1E1E1E1E1E1E1E1E1E1E1E1
310
E1E1E1E1E1E1E1E1E1E1E1E1E1E1E1E1E1E1E1E1E1E1E1E1E1E1E1E1E1E1E1E1E1E1E1E1E1E1E1E1E1E1E1E1E1E1E1E1E1E1E1E1E1E1E1E1E1E1E1E1E1E1E1E1E1E1E1E1E1E1E1E1E1E1E1E1E1E1E1E1E1E1E1E1E1E1E1E1E1E1E1E1E1E1E1E1E1E1E1E1E1E1E1E1E1E1E1E1E1E1E1E1E1E1E1E1E1E1E1E1E1E1E1E1E1E1E1
310
E1E1E1E1E1E1E1E1E1E1E1E1E1E1E1E1E1E1E1E1E1E1E1E1E1E1E1E1E1E1E1E1E1E1E1E1E1E1E1E1E1E1E1E1E1E1E1E1E1E1E1E1E1E1E1E1E1E1E1E1E1E1E1E1E1E1E1E1E1E1E1E1E1E1E1E1E1E1E1E1E1E1E1E1E1E1E1E1E1E1E1E1E1E1E1E1E1E1E1E1E1E1E1E1E1E1E1E1E1E1E1E1E1E1E1E1E1E1E1E1E1E1E1E1E1E1E1
310
E1E1E1E1E1E1E1E1E1E1E1E1E1E1E1E1E1E1E1E1E1E1E1E1E1E1E1E1E1E1E1E1E1E1E1E1E1E1E1E1E1E1E1E1E1E1E1E1E1E1E1E1E1E1E1E1E1E1E1E1E1E1E1E1E1E1E1E1E1E1E1E1E1E1E1E1E1E1E1E1E1E1E1E1E1E1E1E1E1E1E1E1E1E1E1E1E1E1E1E1E1E1E1E1E1E1E1E1E1E1E1E1E1E1E1E1E1E1E1E1E1E1E1E1E1E1E1
310
E1E1E1E1E1E1E1E1E1E1E1E1E1E1E1E1E1E1E1E1E1E1E1E1E1E1E1E1E1E1E1E1E1E1E1E1E1E1E1E1E1E1E1E1E1E1E1E1E1E1E1E1E1E1E1E1E1E1E1E1E1E1E1E1E1E1E1E1E1E1E1E1E1E1E1E1E1E1E1E1E1E1E1E1E1E1E1E1E1E1E1E1E1E1E1E1E1E1E1E1E1E1E1E1E1E1E1E1E1E1E1E1E1E1E1E1E1E1E1E1E1E1E1E1E1E1E1
310
E1E1E1E1E1E1E1E1E1E1E1E1E1E1E1E1E1E1E1E1E1E1E1E1E1E1E1E1E1E1E1E1E1E1E1E1E1E1E1E1E1E1E1E1E1E1E1E1E1E1E1E1E1E1E1E1E1E1E1E1E1E1E1E1E1E1E1E1E1E1E1E1E1E1E1E1E1E1E1E1E1E1E1E1E1E1E1E1E1E1E1E1E1E1E1E1E1E1E1E1E1E1E1E1E1E1E1E1E1E1E1E1E1E1E1E1E1E1E1E1E1E1E1E1E1E1E1
310
E1E1E1E1E1E1E1E1E1E1E1E1E1E1E1E1E1E1E1E1E1E1E1E1E1E1E1E1E1E1E1E1E1E1E1E1E1E1E1E1E1E1E1E1E1E1E1E1E1E1E1E1E1E1E1E1E1E1E1E1E1E1E1E1E1E1E1E1E1E1E1E1E1E1E1E1E1E1E1E1E1E1E1E1E1E1E1E1E1E1E1E1E1E1E1E1E1E1E1E1E1E1E1E1E1E1E1E1E1E1E1E1E1E1E1E1E1E1E1E1E1E1E1E1E1E1E1
310
E1E1E1E1E1E1E1E1E1E1E1E1E1E1E1E1E1E1E1E1E1E1E1E1E1E1E1E1E1E1E1E1E1E1E1E1E1E1E1E1E1E1E1E1E1E1E1E1E1E1E1E1E1E1E1E1E1E1E1E1E1E1E1E1E1E1E1E1E1E1E1E1E1E1E1E1E1E1E1E1E1E1E1E1E1E1E1E1E1E1E1E1E1E1E1E1E1E1E1E1E1E1E1E1E1E1E1E1E1E1E1E1E1E1E1E1E1E1E1E1E1E1E1E1E1E1E1
310
E1E1E1E1E1E1E1E1E1E1E1E1E1E1E1E1E1E1E1E1E1E1E1E1E1E1E1E1E1E1E1E1E1E1E1E1E1E1E1E1E1E1E1E1E1E1E1E1E1E1E1E1E1E1E1E1E1E1E1E1E1E1E1E1E1E1E1E1E1E1E1E1E1E1E1E1E1E1E1E1E1E1E1E1E1E1E1E1E1E1E1E1E1E1E1E1E1E1E1E1E1E1E1E1E1E1E1E1E1E1E1E1E1E1E1E1E1E1E1E1E1E1E1E1E1E1E1
310
E1E1E1E1E1E1E1E1E1E1E1E1E1E1E1E1E1E1E1E1E1E1E1E1E1E1E1E1E1E1E1E1E1E1E1E1E1E1E1E1E1E1E1E1E1E1E1E1E1E1E1E1E1E1E1E1E1E1E1E1E1E1E1E1E1E1E1E1E1E1E1E1E1E1E1E1E1E1E1E1E1E1E1E1E1E1E1E1E1E1E1E1E1E1E1E1E1E1E1E1E1E1E1E1E1E1E1E1E1E1E1E1E1E1E1E1E1E1E1E1E1E1E1E1E1E1E1
310
E1E1E1E1E1E1E1E1E1E1E1E1E1E1E1E1E1E1E1E1E1E1E1E1E1E1E1E1E1E1E1E1E1E1E1E1E1E1E1E1E1E1E1E1E1E1E1E1E1E1E1E1E1E1E1E1E1E1E1E1E1E1E1E1E1E1E1E1E1E1E1E1E1E1E1E1E1E1E1E1E1E1E1E1E1E1E1E1E1E1E1E1E1E1E1E1E1E1E1E1E1E1E1E1E1E1E1E1E1E1E1E1E1E1E1E1E1E1E1E1E1E1E1E1E1E1E1
310
E1E1E1E1E1E1E1E1E1E1E1E1E1E1E1E1E1E1E1E1E1E1E1E1E1E1E1E1E1E1E1E1E1E1E1E1E1E1E1E1E1E1E1E1E1E1E1E1E1E1E1E1E1E1E1E1E1E1E1E1E1E1E1E1E1E1E1E1E1E1E1E1E1E1E1E1E1E1E1E1E1E1E1E1E1E1E1E1E1E1E1E1E1E1E1E1E1E1E1E1E1E1E1E1E1E1E1E1E1E1E1E1E1E1E1E1E1E1E1E1E1E1E1E1E1E1E1
310
E1E1E1E1E1E1E1E1E1E1E1E1E1E1E1E1E1E1E1E1E1E1E1E1E1E1E1E1E1E1E1E1E1E1E1E1E1E1E1E1E1E1E1E1E1E1E1E1E1E1E1E1E1E1E1E1E1E1E1E1E1E1E1E1E1E1E1E1E1E1E1E1E1E1E1E1E1E1E1E1E1E1E1E1E1E1E1E1E1E1E1E1E1E1E1DCDCDCDCDCDCDCDCDCDCDCDCDCDCDCDCDCDCDCDCDCDCDCDCDCDCDCDCDCDCDCDC
310
DCDCDCDCDCDCDCDCDCDCDCDCDCDCDCDCDCDCDCDCDCDCDCDCDCDCDCDCDCDCDCDCDCDCDCDCDCDCDCDCDCDCDCDCDCDCDCDCDCDCDCDCDCDCDCDCDCDCDCDCDCE2DCDCDCDCDCDCDCDCDCDCDCDCDCDCDCDCDCDCDCDCDCDCDCDCDCDCDCDCDCDCDCDCDCDCDCDCDCDCDCDCDCDCDCDCDCDCDCDCDCDCDCDCDCDCDCDCDCDCDCDCDCDCDCDCDC
310
DCDCDCDCDCDCDCDCDCDCDCDCE1E1E1E1E1E1E1E1E1E1E1E1E1E1E1E1E1E1E1E1E1E1E1E1E1E1E1E1E1E1E1E1E1E1E1E1E1E1E1E1E1E1E1E1E1E1E1E1E1E1E1E1E1E1E1E1E1E1E1E1E1E1E1E1E1E1E1E1E1E1E1E1E1E1E1E1E1E1E1E1E1E1E1E1E1DCE1E1E1E1E1E1E1E1E1E1E1E1E1E1E1E1E1E1E1E1E1E1E1E1E1E1E1E1E1
310
E1E1E1E1E1E1E1E1E1E1E1E1E1E1E1E1E1E1E1E1E1E1E1E1E1E1E1E1E1E1E1E1E1E1E1E1E1E1E1E1E1E1E1E1E1E1E1E1E1E1E1E1E1E1E1E1E1E1E1E1E1E1E1E2E1E1E1E1E1E1E1E1E1E1E1E1E1E1E1E1E1E1E1E1E1E1E1E1E1E1E1E1E1E1E1E1E1E1E1E1E1E1E1E1E1E1E1E1E1E1E1E1E1E1E1E1E1E1E1E1E1E1E1E1E1E1E1
310
E1E1E1E1E1E1E1E1E1E1E1E1E1DCE1E1E1E1E1E1E1E1E1E1E1E1E1E1E1E1E1E1E1E1E1E1E1E1E1E1E1E1E1E1E1E1E1E1E1E1E1E1E1E1E1E1E1E1E1E1E1E1E1E1E1E1E1E1E1E1E1E1E1E1E1E1E1E1E1E1E1E1E1E1E1E1E1E1E1E1E1E1E1E1E1E1E1E1E1DCE1E1E1E1E1E1E12828282828282828282828282828282828282828
310
2828282828282828282828282828282828282828282828282828282828282828282828282828282828282828282828282828282828282828282828282828282828E228282828282828282828282828282828282828282828282828282828282828282828282828282828282828282828282828282828282828282828282828
310
2828282828282828282828282828E1DCE1E1E1E1E1E1E1E1E1E1E1E1E1E1E1E1E1E1E1E1E1E1E1E1E1E1E1E1E1E1E1E1E1E1E1E1E1E1E1E1E1E1E1E1E1E1E1E1E1E1E1E1E1E1E1E1E1E1E1E1E1E1E1E1E1E1E1E1E1E1E1E1E1E1E1E1E1E1E1E1E1E1E1E1E1DCE1E1E1E1E1E1E128E1E1E1E1E1E1E1E1E1E1E1E1E1E1E1E1E1
310
E1E1E1E1E1E1E1E1E1E1E1E1E1E1E1E1E1E1E1E1E1E1E1E1E1E1E1E1E1E1E1E1E1E1E1E1E1E1E1E1E1E1E1E1E1E1E1E1E1E1E1E1E1E1E1E1E1E1E1E1E1E1E1E1E1E1E1E1E128E2E2BEE1E1E1E1E1E1E1BEE1E1E1BEE1E1E1E128E1E1E1E1E1E1E1E1E1E1E1E1E1E1E1E1DCDCDCDCDCDCDCDCDCDCDCDCDCDCDCDCDCDCDCDCDC
310
DCDCDCDCDCDCDCDCDCDCDCDCDCDCDC28E2E2E1E1E1E1E1E1E1E1E1E1E1E1E1E1E1E1E1E1E1E1E1E1E1E1E1E1E1E1E1E1E1E1E1E1E1E1E1E1E1E1E1E1E1E1E1E1E1E1E1E1E1E1E1E1E1E1E1E1E1E1E1E1E1E1E1E1E1E1E1E1E1E1E1E1E1E1E1E1E1E1E1E1E1E1E1DCE1E1E1E1E1E1E128E1E1E1E1E1E1E1E1E1E1E1E1E1E1E1
310
E1E1E1E1E1E1E1E1E1E1E1E1E1E1E1E1E1E1E1E1E1E1E1E1E1E1E1E1E1E1E1E1E1E1E1E1E1E1E1E1E1E1E1E1E1E1E1E1E1E1E1E1E1E1E1E1E1E1E1E1E1E1E1E1E1E1E1E1E1E1E128E2E2BEE1E2E2E2E2E2E1BEE1E2E2BEE2E2E2E228E128282828282828E1282828282828E128E1E1E1E1E1E1E1E1E1E1E1E1E1E1E1E1E1E1
310
E1E1E1E1E1E1E1E1E1E1E1E1E1E1E1E1E128E2E2E1E1E1E1E1E1E1E1E1E1E1E1E1E1E1E1E1E1E1E1E1E1E1E1E1E1E1E1E1E1E1E1E1E1E1E1E1E1E1E1E1E1E1E1E1E1E1E1E1E1E1E1E1E1E1E1E1E1E1E1E1E1E1E1E1E1E1E1E1E1E1E1E1E1E1E1E1E1E1E1E1E1E1E1E1DCE1E1E1E1E1E1E128E1E1E1E1E1E1E1E1E1E1E1E1E1
310
E1E1E1E1E1E1E1E1E1E1E1E1E1E1E1E1E1E1E1E1E1E1E1E1E1E1E1E1E1E1E1E1E1E1E1E1E1E1E1E1E1E1E1E1E1E1E1E1E1E1E1E1E1E1E1E1E1E1E1E1E1E1E1E1E1E1E1E1E1E1E1E1E128E2E2BEE1E2E2E2E2E2E1BEE2E2E2BEE2E2E2E228E128E12828282828E1282828282828E128E1E1E1E1E1E1E1E1E1E1E1E1E1E1E1E1
310
E1E1E1E1E1E1E1E1E1E1E1E1E1E1E1E1E1E1E128E2E2E1E1E1E1E1E1E1E1E1E1E1E1E1E1E1E1E1E1E1E1E1E1E1E1E1E1E1E1E1E1E1E1E1E1E1E1E1E1E1E1E1E1E1E1E1E1E1E1E1E1E1E1E1E1E1E1E1E1E1E1E1E1E1E1E1E1E1E1E1E1E1E1E1E1E1E1E1E1E1E1E1E1E1E1E1DCE1E1E1E1E1E1E128E1E1E1E1E1E1E1E1E1E1E1
310
E2E2E2E2E2E2E2E2E2E2E2E2E2E2E2E2E2E2E2E2E2E2E2E2E2E2E2E2E2E1E1E1E1E1E1E1E1E1E1E1E1E1E1E1E1E1E1E1E1E1E1E1E1E1E1E1E1E1E1E1E1E1E1E1E1E1E1E1E1E1E1E1E1E1E1282828BE28282828282828BE282828BE2828282828E128E128E1E1282828282828E1E128E128E1E1E1E1E1E1E1E1E1E1E1E1E1E1
310
E1E1E1E1E1E1E1E1E1E1E1E1E1E1E1E1E1E1E1E1E128E2E2E1E1E1E1E1E1E1E1E1E1E1E1E1E1E1E1E1E1E1E1E1E1E1E1E1E1E1E1E1E1E1E1E1E1E1E1E1E1E1E1E1E1E1E1E1E1E1E1E1E1E1E1E1E1E1E1E1E1E1E1E1E1E1E1E1E1E1E1E1E1E1E1E1E1E1E1E1E1E1E1E1E1E1E1E1DCE1E1E1E1E1E1E128E1E1E1E1E1E1E1E1E1
310
E1E1E2E1E1E1E1E1E1E1E1E1E1E1E1BEBEBEE1E1E1E1E1E1E1E1E1E1E1E1E2E1E1E1E1E1E1E1E1E1E1E1E1E1E1E1E1E1E1E1E1E1E1E1E1E1E1E1E1E1E1E1E1E1E1E1E1E1E1E1E1E1E1E1E1E1E128E2E2E2E2E2E2E2E2E2E2E2E2E2E2E2E2E2E2E228E128E1282828282828282828282828E128E2E2E2E2E2E2E2E2E1E1E1E1
310
E1E1E1E1E1E1E1E1E1E1E1E1E1E1E1E1E1E1E1E1E1E1E128E2E2E1E1E1E1E1E1E1E1E1E1E1E1E1E1E1E1E1E1E1E1E1E1E1E1E1E1E1E1E1E1E1E1E1E1E1E1E1E1E1E1E1E1E1E1E1E1E1E1E1E1E1E1E1E1E1E1E1E1E1E1E1E1E1E1E1E1E1E1E1E1E1E1E1E1E1E1E1E1E1E1E1E1E1E1E1DCE1E1E1E1E1E1E128E1E1E1E1E1E1E1
310
E1E1E1E1E2E1E1E1E1E1E1E1E1E1E1E1BEBEBEBEE1E1E1E1E1E1E1E1E1E1E1E1E2E1E1E1E1E1E1E1E1E1E1E1E1E1E1E1E1E1E1E1E1E1E1E1E1E1E1E1E1E1E1E1E1E1E1E1E1E1E1E1E1E1E1E1E1E1E128DCE2DCE2E2E2E2E2E2E2E2E2E2E2E2E2E2E2E2DC2828BE2828282828282828282828282828E2282828E2E228282828
310
2828282828282828282828282828282828282828282828282828E2E2E1E1E1E1E1E1E1E1E1E1E1E1E1E1E1E1E1E1E1E1E1E1E1E1E1E1E1E1E1E1E1E1E1E1E1E1E1E1E1E1E1E1E1E1E1E1E1E1E1E1E1E1E1E1E1E1E1E1E1E1E1E1E1E1E1E1E1E1E1E1E1E1E1E1E1E1E1E1E1E1E1E1E1E1E1DCE1E1E1E1E1E1E128E1E1E1E1E1
310
E1E1E1E1E1E1E2E1E1E1E1E1E1E1E1E1E1E1E1E1E1E1E1E1E1E1E1E1E1E1E1E1E1E1DCE1E1E1E1E1E1E1E1E1E1E1E1E1E1E1E1E1E1E1E1E1E1E1E1E1E1E1E1E1E1E1E1E1E1E1E1E1E1E1E1E1E1E1E1E1E128E1E1BEE1E1E1E1E1E1E1BEE1E1E1BEE1E1E1E1E2E2E2E2E1E1E1E1E1BEE1E1E1E1E1E1E128E2E2E2E2E2E2E2E2
310
E1E1E1E1E1E1E1E1E1E1E128E1E1E1E1E1E1E1E1E1E1E1E1E1E1E128E2E2E1E1E1E1E1E1E1E1E1E1E1E1E1E1E1E1E1E1E1E1E1E1E1E1E1E1E1E1E1E1E1E1E1E1E1E1E1E1E1E1E1E1E1E1E1E1E1E1E1E1E1E1E1E1E1E1E1E1E1E1E1E1E1E1E1E1E1E1E1E1E1E1E1E1E1E1E1E1E1E1E1E1E1E1E1DCE1E1E1E1E1E1E128E1E1E1
310
E1E2E2E2E2E2E2E2E2E2E2E2E2E2E2E2E2E2E2E2E2E2E2E2E2E2E2E2E2E2E2E2E2E2E2E2DC282828282828282828282828282828282828282828282828282828DC282828282828282828282828282828E1E1E128DCDCDCDCDCDCDCDCDCDCDCDCDCDCDCDCDCDCDCE2E2E2DCDCDCDCDCDCDCDCDCDCDCDCDCDCDCE2E2E2E2E2E2
310
E2E2DCDCDCDCDCDCDCDCDCDCDC28E1E1E1E1E1E1E1E1E1E1E1E1E1E1E128E2E2E1E1E1E1E1E1E1E1E1E1E1E1E1E1E1E1E1E1E1E1E1E1E1E1E1E1E1E1E1E1E1E1E1E1E1E1E1E1E1E1E1E1E1E1E1E1E1E1E1E1E1E1E1E1E1E1E1E1E1E1E1E1E1E1E1E1E1E1E1E1E1E1E1E1E1E1E1E1E1E1E1E1E1E1E1DCE1E1E1E1E1E1E128E1
310
E1E1E1E2E1E1E1E1E1E1E2E1E1E1E1E1E1E1E1E1E1E1E1E1E1E1E1E1E1E128282828E1E1E1E1DCE1E1E1E1E1E1E1E1E1E1E1E1E1E1E1E1E1E1E1E1E1E1E1E1E1E1E1DCE1E1E1E1E1E1E1E1E1E1E1E1E1E128E1E1E128E1E1BEE1E1E1E1E1E1E1BEE1E1E1BEE1E1E1E1E2E2E2BEE1E1E1E1E1BEE1E1E1E1E1E1E128E2E2E2E2
310
E2E2E2E2E1E1E1E1E1E1E1E1E1E1E128E1E2E2E2E2E2E2E2E2E2E1E1E1E1E128E2E2E1E1E1E1E1E1E1E1E1E1E1E1E1E1E1E1E1E1E1E1E1E1E1E1E1E1E1E1E1E1E1E1E1E1E1E1E1E1E1E1E1E1E1E1E1E1E1E1E1E1E1E1E1E1E1E1E1E1E1E1E1E1E1E1E1E1E1E1E1E1E1E1E1E1E1E1E1E1E1E1E1E1E1E1E1DCE1E1E1E1E1E1E1
310
28E1E1E1E1E2E1E1E1E1E1E1E2E1E1E1E1E1E1E1E1E1E1E1E1E1E1E1E1282828E1E1E1E1E1E1E1E1DCE1E1E1E1E1E1E1E1E1E1E1E1E1E1E1E1E1E1E1E1E1E1E1E1E1E1E1DCE1E1E1E1E1E1E1E1E1E1E1E1E1E128E1E1E128DCDCDCDCDCDCDCDCDCDCDCDCDCDCDCDCDCDCDCE2E2E2DCDCDCDCDCDCDCDCDCDCDCDCDCDCDCE2E2
310
E2E2DCE2E2DCDCDCDCDCDCDCDCDCDCDCDCBEBEE2E2E2E2E2E2E2E2E2BEBEBEBEBE28E2E2E1E1E1E1E1E1E1E1E1E1E1E1E1E1E1E1E1E1E1E1E1E1E1E1E1E1E1E1E1E1E1E1E1E1E1E1E1E1E1E1E1E1E1E1E1E1E1E1E1E1E1E1E1E1E1E1E1E1E1E1E1E1E1E1E1E1E1E1E1E1E1E1E1E1E1E1E1E1E1E1E1E1E1E1E1DCE1E1E1E1E1
310
E1E128E1E1E1E1E2E1E1E1E1E1E1E2E1E1E1E1E1E1E1E1E1E1E1E1E1E12828E1E1E1E1E1E1E1E1E1E1E1DCE1E1E1E1E1E1E1E1E1E1E1E1E1E1E1E1E1E1E1E1E1E1E1E1E1E1E1DCE1E1E1E1E1E1E1E1E1E1E1E1E1E128E1E1E128E1E1BEE1E1E1E1E1E1E1BEE1E1E1BEE1E1E1E1E2E2E2BEE1E2E2E2E2BEE1E1E2E2E2E1E128
310
E1E1E1E1E1E1E1E1E1E1E1E1E1E1E1E1E1E1E128E1E1E1E1BEBEBEBEBEBEBEBEE1E1E128E2E2E1E1E1E1E1E1E1E1E1E1E1E1E1E1E1E1E1E1E1E1E1E1E1E1E1E1E1E1E1E1E1E1E1E1E1E1E1E1E1E1E1E1E1E1E1E1E1E1E1E1E1E1E1E1E1E1E1E1E1E1E1E1E1E1E1E1E1E1E1E1E1E1E1E1E1E1E1E1E1E1E1E1E1E1E1DCE1E1E1
310
E1E1E1E128E1E1E1E1E2E1E1E1E1E1E1E2E1E1E1E1E1E1E1E1E1E1E1E12828E1E1E1E1E1E1E1E1E1E1E1E1E1DCE1E1E1E1E1E1E1E1E1E1E1E1E1E1E1E1E1E1E1E1E1E1E1E1E1E1E1DCE1E1E1E1E1E1E1E1E1E1E1E1E1E128E1E1E128DCDCDCDCDCDCDCDCDCDCDCDCDCDCDCDCDCDCDCE2E2E2DCDCE2E2E2DCDCDCDCE2E2E2DC
310
DCDCDCDCDCDCDCDCDCDCDCDCDCDCDCE2DCDCDCDCDC28E1E1E1E1BEBEBEBEBEBEBEBEE1E1E128E2E2E1E1E1E1E1E1E1E1E1E1E1E1E1E1E1E1E1E1E1E1E1E1E1E1E1E1E1E1E1E1E1E1E1E1E1E1E1E1E1E1E1E1E1E1E1E1E1E1E1E1E1E1E1E1E1E1E1E1E1E1E1E1E1E1E1E1E1E1E1E1E1E1E1E1E1E1E1E1E1E1E1E1E1E1E1DCE1
310
E1E1E1E1E1E128E1E1E1E1E2E1E1E1E1E1E1E2E1E1E1E1E1E1E1E1E1E12828E1E1E1E1E1E1E1E1E1E1E1E1E1E1E1DCE1E1E1E1E1E1E1E1E1E1E1E1E1E1E1E1E1E1E1E1E1E1E1E1E1E1E1DCE1E1E1E1E1E1E1E1E1E1E1E1E1E128E1E1E128E1E1BEE1E1E1E1E1E1E1BEE1E1E1BEE1E1E1E1E2E2E2E2E1E2E2E2E1BEE1E2E2E2
310
E2E1E128E2E2E2E2E2E2E2E2E2E2E2E2E2E2E1E1E1E1E128E2E2E2E2E2E2E2E2E1E1E1E1E1E1E128E2E2E1E1E1E1E1E1E1E1E1E1E1E1E1E1E1E1E1E1E1E1E1E1E1E1E1E1E1E1E1E1E1E1E1E1E1E1E1E1E1E1E1E1E1E1E1E1E1E1E1E1E1E1E1E1E1E1E1E1E1E1E1E1E1E1E1E1E1E1E1E1E1E1E1E1E1E1E1E1E1E1E1E1E1E1E1
310
DCE1E1E1E1E1E1E128E1E1E1E1E2E1E1E1E1E1E1E2E1E1E1E1E1E1E1E1E1E128E1E1E1E1E1E1E1E1E1E1E1E1E1E1E1E1DCE1E1E1E1E1E1E1E1E1E1E1E1E1E1E1E1E1E1E1E1E1E1E1E1E1E1E1DCE1E1E1E1E1E1DCE1E1DCE1E1E1E128E1E1E128DCDCDCDCDCDCDCDCDCDCDCDCDCDCDCDCDCDCDCE2E2E2E228E2E2E228BE28E2
310
E2E2E2282828E2E2E2E2282828E2E22828282828282828282828E2E2E2E2E2E2E2E22828282828282828E2E2E1E1E1E1E1E1E1E1E1E1E1E1E1E1E1E1E1E1E1E1E1E1E1E1E1E1E1E1E1E1E1E1E1E1E1E1E1E1E1E1E1E1E1E1E1E1E1E1E1E1E1E1E1E1E1E1E1E1E1E1E1E1E1E1E1E1E1E1E1E1E1E1E1E1E1E1E1E1E1E1E1E1E1
310
E1E1DCE1E1E1E1E1E1E128E1E1E1E1E2E1E1E1E1E1E1E2E1E1E1E1E1E1E1E12828E1E1E1E1E1E1E1E1E1E1E1E1E1E1E1E128DCE1E1E1E1E1E1E1E1E1E1E1E1E1E1E1E1E1E1E1E1E1E1E1E1E1E1E1DCE1E1E1E1E1DCDCDCDCDCE1E1E1E128E1E1E128E1E1BEE1E1E1E1E1E1E1BEE1E1E1BEE1E1E1E128E1E1E1E1E1E1E1E1BE
310
E1E1E1E1E1E1E128DCDCDCDCDCDCDCDCDCDCDCDCDCDCDCDCDCDCDC28DCDCDCDCDCDCDCDCDCDCDCDCDCDCDC28E2E2E1E1E1E1E1E1E1E1E1E1E1E1E1E1E1E1E1E1E1E1E1E1E1E1E1E1E1E1E1E1E1E1E1E1E1E1E1E1E1E1E1E1E1E1E1E1E1E1E1E1E1E1E1E1E1E1E1E1E1E1E1E1E1E1E1E1E1E1E1E1E1E1E1E1E1E1E1E1E1E1E1
310
E1E1E1E1DCE1E1E1E1E1E1E128E1E1E1E1E2E1E1E2E2E2E2E2E2E2E2E2E2E2E2E2E2E2E2E2E2E2E2E2E2E2E2E2E2E2E2E2DCDCDCDCDCDCE1E1E1E1E1E1E1E1E1E1E1E1E1E1E1E1E1E1E1E1E1E1E1E1E1DCE1E1E1E1DCDCDCDCDCDCDCDCE1E128E1E1E128E1E1BEE1E1E1E1E1E1E1BEE1E1E1BEE1E1E1E128E1E1BEBEBEE1E1
310
E1E2E2E2E2E2E2E2E228BEBEBEBEBEBEBEBEBEBEBEE1BEBEBEBEBEBEE128E1E1E1BEBEBEBEBEBEBEBEBEE1E1E128E2E2E1E1E1E1E1E1E1E1E1E1E1E1E1E1E1E1E1E1E1E1E1E1E1E1E1E1E1E1E1E1E1E1E1E1E1E1E1E1E1E1E1E1E1E1E1E1E1E1E1E1E1E1E1E1E1E1E1E1E1E1E1E1E1E1E1E1E1E1E1E1E1E1E1E1E1E1E1E1E1
310
E1E1E1E1E1E1DCE1E1E1E1E1E1E128E1E1E1E1E2E1E1E1E2E1E1E2E1E1E1E1E1E128E1E1E1E1E1E1E1E1E1E1E1E1E1E1DCDCDCE1E128DCE1E1DCDCDCDCE1E1E1E1E1E1E1E1E1E1E1E1E1E1E1E1E1E1E1E1E1DCE1E1E1E1E1DCDCDCDCDCDCE1E1E128E1E1E128DCDCDCDCDCDCDCDCDCDCDCDCDCDCDCDCDCDCDCDCE1E1BEBEBE
310
E1E1E1E2E2E2E2E2E2E2E228BEBEBEBEBEBEBEBEBEBEBEE1BEBEBEBEBEBEE128E1E1E1BEBEBEBEBEBEBEBEBEE1E1E128E2E2E1E1E1E1E1E1E1E1E1E1E1E1E1E1E1E1E1E1E1E1E1E1E1E1E1E1E1E1E1E1E1E1E1E1E1E1E1E1E1E1E1E1E1E1E1E1E1E1E1E1E1E1E1E1E1E1E1E1E1E1E1E1E1E1E1E1E1E1E1E1E1E1E1E1E1E1E1
310
E1E1E1E1E1E1E1E1DCE1E1E1E1E1E1E128E1E1E1E1E2E1E1E2E2E1E1E2E1E1E1E1E1E128E1E1E1E1E1E1E1E1E1E1E1DCDCDCE1E1E1E1E1E1DCE1E1E1E1E1E1DCDCE1E1E1E1E1E1E1E1E1E1E1E1E1E1E1E1E1E1E1DCE1E1E1E1E1E1DCE1E1DCE1E1E1E128E1E1E128E1E1BEE1E1E1E1E1E1E1BEE1E1E1BEE1E1E1E128E1E1BE
310
E1BEE1E1E1BEE1E1E1E1E1E1E128E1E1E1E1E1E1E1E1E1E1E1E1E1E1E1E1E1E1E128E1E1E1E1BEBEBEBEBEBEBEBEE1E1E128E2E2E1E1E1E1E1E1E1E1E1E1E1E1E1E1E1E1E1E1E1E1E1E1E1E1E1E1E1E1E1E1E1E1E1E1E1E1E1E1E1E1E1E1E1E1E1E1E1E1E1E1E1E1E1E1E1E1E1E1E1E1E1E1E1E1E1E1E1E1E1E1E1E1E1E1E1
310
E1E1E1E1E1E1E1E1E1E1DCE1E1E1E1E1E1E128E1E1E1E1E2E1E1E1E2E1E1E2E1E1E1E12828E1E1E1E1E1E1E1E1E1E1DCDCE1E1E1E1E1E1E1E1E1DCE1E1E1E1E1E1E1E1DCDCE1E1E1E1E1E1E1E1E1E1E1E1E1E1E1E1E1DCE1E1E1E1E1E1E1E1E1E1E1E1E1E128E1E1E128DCDCDCDCDCDCDCDCDCDCDCDCDCDCDCDCDCDCDCDCE2
310
E2E2E2E2E2E1E1BEE2E2E2E2E2E2E128E2E2E2E2E2E2E2E1E1E1E1E1E1E1E1E1E1E1E128E2E2E2E2E2E2E2E2E2E2E1E1E1E1E128E2E2E1E1E1E1E1E1E1E1E1E1E1E1E1E1E1E1E1E1E1E1E1E1E1E1E1E1E1E1E1E1E1E1E1E1E1E1E1E1E1E1E1E1E1E1E1E1E1E1E1E1E1E1E1E1E1E1E1E1E1E1E1E1E1E1E1E1E1E1E1E1E1E1E1
310
E1E1E1E1E1E1E1E1E1E1E1E1DCE1E1E1E1E1E1E128E1E1E1E1E2E1E1E1E2E1E1E2E1E1E1E128E1E1E1E1E1E1E1E1E1E1DCE1E1E1E1E1E1E1E1E1E1E1DCE1E1E1E1E1E1E1E1E1E1DCE1E1E1E1E1E1E1E1E1E1E1E1E1E1E1E1DCE1E1E1E1E1E1E1E1E1E1E1E1E1E128E1E1E128E1E1BEE1E1E1E1E1E1E1BEE1E1E1BEE1E1E1E1
310
28E2E2E2E2E2E2E1E1BEE2E2E1E2E2E2E128E2E2E2E2E2E2E2E1E1E1E1E1E1E1E1E1E1E1E128E2E2E2E2E2E2E2E2E2E2E1E1E1E1E128E2E2E1E1E1E1E1E1E1E1E1E1E1E1E1E1E1E1E1E1E1E1E1E1E1E1E1E1E1E1E1E1E1E1E1E1E1E1E1E1E1E1E1E1E1E1E1E1E1E1E1E1E1E1E1E1E1E1E1E1E1E1E1E1E1E1E1E1E1E1E1E1E1
310
E1E1E1E1E1E1E1E1E1E1E1E1E1E1DCE1E1E1E1E1E1E128E1E1E1E1E2E1E1E1E2E1E1E2E1E1E128E1E1E1E1E1E1E1E1E1E1C3C3C3C3C3C3C3C3C3C3C3C3C3C3C3C3C3C3C3C3C3C3C3C3C3C3C3C3C3C3C3C3C3C3C3C3C3C3C3C3C3DCE1E1E1E1E1E1E1E1E1E1E1E1E1E128E1E1E128E2E2E2E2E2E2E2E2E2E2E2E2E2E2E2E2E2
310
E228282828282828282828BE2828282828282828282828282828282828282828282828282828282828282828282828282828282828282828E2E2E1E1E1E1E1E1E1E1E1E1E1E1E1E1E1E1E1E1E1E1E1E1E1E1E1E1E1E1E1E1E1E1E1E1E1E1E1E1E1E1E1E1E1E1E1E1E1E1E1E1E1E1E1E1E1E1E1E1E1E1E1E1E1E1E1E1E1E1E1
310
E1E1E1E1E1E1E1E1E1E1E1E1E1E1E1E1DCE1E1E1E1E1E1E128E1E1E1E1E2E1E1E1E2E1E1E2E1E1E128E1E1E1E1E1E1E1E1E1DCC3C3E1E1E1E1E1E1E1E1E1E1E1E1E1E1E1E1E1E1E1E1E1E1E1E1DCE1E1E1E1E1E1E1E1E1E1E1E1C3C3DCE1E1E1E1E1E1E1E1E1E1E1E1E1E128E1E1E1E1E2E2E2E2E2E2E2E1E2E2E2E2E2E2E2
310
E2E2E2E1E1E1E1E1E1E1E1E1E1E1E1E1E1E1E1E1E1E1E1E1E1E1E1E1E1E1E1E1E1E1E1E1E1E1E1E1E1E1E1E1E1E1E1E1E1E1E1E1E1E1E1E1E128E2E2E1E1E1E1E1E1E1E1E1E1E1E1E1E1E1E1E1E1E1E1E1E1E1E1E1E1E1E1E1E1E1E1E1E1E1E1E1E1E1E1E1E1E1E1E1E1E1E1E1E1E1E1E1E1E1E1E1E1E1E1E1E1E1E1E1E1E1
310
E1E1E1E1E1E1E1E1E1E1E1E1E1E1E1E1E1E1DCE1E1E1E1E1E1E128E1E1E1E1E2E1E1E1E2E1E1E2E1E128E1E1E1E1E1E1E1E1E1DCE1C3E1C3C3C3C3C3C3C3C3C3C3C3C3C3C3C3C3C3C3C3C3C3C3C3C3C3C3C3C3C3C3C3C3C3C3C3C3C3E1C3DCE1E1E1E1E1E1E1E1E1E1E1E1E1E128E1E1E1E1E1E1E1E1E1E1E1E1E1E1E1E1E1
310
E1E1E1E1E1E1E1E1E1E1E1E1E1E1E1E1E1E1E1E1E1E1E1E1E1E1E1E1E1E1E1E1E1E1E1E1E1E1E1E1E1E1E1E1E1E1E1E1E1E1E1E1E1E1E1E1E1E1E128E2E2E1E1E1E1E1E1E1E1E1E1E1E1E1E1E1E1E1E1E1E1E1E1E1E1E1E1E1E1E1E1E1E1E1E1E1E1E1E1E1E1E1E1E1E1E1E1E1E1E1E1E1E1E1E1E1E1E1E1E1E1E1E1E1E1E1
310
E1E1E1E1E1E1E1E1E1E1E1E1E1E1E1E1E1E1E1E1DCE1E1E1E1E1E1E128E1E1E1E1E2E1E1E1E2E1E1E2E1E128E1E1E1E1E1E1E1E1DCE1E1C3E1C3E1E1E1E1282828E1E1E1DCE1E1282828E1E1E1E1E1E1E1E1E1DCE1E1E1E1E1E1E1E1E1C3E1C3DCE1E1E1E1E1E1E1E1E1E1E1E1E1E128E1E1E1E1E1E1E1E1E1E1E1E1E1E1E1
310
E1E1E1E1E1E1E1E1E1E1E1E1E1E1E1E1E1E1E1E1E1E1E1E1E1E1E1E1E1E1E1E1E1E1E1E1E1E1E1E1E1E1E1E1E1E1E1E1E1E1E1E1E1E1E1E1E1E1E1E1E128E2E2E1E1E1E1E1E1E1E1E1E1E1E1E1E1E1E1E1E1E1E1E1E1E1E1E1E1E1E1E1E1E1E1E1E1E1E1E1E1E1E1E1E1E1E1E1E1E1E1E1E1E1E1E1E1E1E1E1E1E1E1E1E1E1
310
E1E1E1E1E1E1E1E1E1E1E1E1E1E1E1E1E1E1E1E1E1E1DCE1E1E1E1E1E1E128E1E1E1E1E2E1E1E1E2E1E1E2E128E1E1E1E1E1E1DCDCDC28E1E1C3E1C3E1E1E128E1E1E1E1E1E1DCE1E1E1E1E128C3C3C3C3C3C3C3C3C3C3C3C3C3C3C3C3C3C3C3C3C3DCC3C3C3C3C3C3C3C3C3C3C3C3C3C3282828DCE1DC2828282828282828
310
2828282828282828282828282828282828282828282828282828282828282828282828E1E1E1E1E1E1E1E1E1E1E1E1E1E1E1E1E1E1E1E1E1E1E1E1E1E1E1E128E2E2E1E1E1E1E1E1E1E1E1E1E1E1E1E1E1E1E1E1E1E1E1E1E1E1E1E1E1E1E1E1E1E1E1E1E1E1E1E1E1E1E1E1E1E1E1E1E1E1E1E1E1E1E1E1E1E1E1E1E1E1E1
310
E1E1E1E1E1E1E1E1E1E1E1E1E1E1E1E1E1E1E1E1E1E1E1E1DCE1E1E1E1E1E1E128E1E1E1E1E2E1E1E1E2E1E1E2E128E1E1E1E1E1E1E128DCDCE1E1C3E1C3E128E2E1E1E1E1E1E1E1DCE1E1E1E1E1E1C3C3E1E1E1E1E1E1DCDC28E1E1E1E1E1E1E1C3E1C3DCE1E1E1E1E1E1E1E1E1E1E1E1E1E128E1E1DCE1DCE1E1E1E1E1E1
310
E1E1E1E1E1E1E1E1E1E1E1E1E1E1E1E1E1E1E1E1E1E1E1E1E1E1E1E1E1E1E1E1E1E1DCE128E1E1E1E1E1E1E1E1E1E1E1E1E1E1E1E1E1E1E1E1E1E1E1E1E1E1E1E128E2E2E1E1E1E1E1E1E1E1E1E1E1E1E1E1E1E1E1E1E1E1E1E1E1E1E1E1E1E1E1E1E1E1E1E1E1E1E1E1E1E1E1E1E1E1E1E1E1E1E1E1E1E1E1E1E1E1E1E1E1
310
E1E1E1E1E1E1E1E1E1E1E1E1E1E1E1E1E1E1E1E1E1E1E1E1E1E1DCE1E1E1E1E1E1E128E1E1E1E1E2E1E1E1E2E1E1E228E1E1E1E1E1E1E1E1DC2828DCE1C3E1C32828E1E2E1E1E1E1E1E1DCE1E1E1E1E1E1C3E1C3E1E1E1E1DC2828DCE1E1E1E1E1E1E1C3E1C3DCE1E1E1E1E1E1E1E1E1E1E1E1E1E128E1DCE1DCE1E1E1E1E1
310
E1E1E1E1E1E1E1E1E1E1E1E1E1E1E1E1E1E1E1E1E1E1E1E1E1E1E1E1E1E1E1E1E1E1E1E1DCE128E1E1E1E1E1E1E1E1E1E1E1E1E1E1E1E1E1E1E1E1E1E1E1E1E1E1E1E128E2E2E1E1E1E1E1E1E1E1E1E1E1E1E1E1E1E1E1E1E1E1E1E1E1E1E1E1E1E1E1E1E1E1E1E1E1E1E1E1E1E1E1E1E1E1E1E1E1E1E1E1E1E1E1E1E1E1E1
310
E1E1E1E1E1E1E1E1E1E1E1E1E1E1E1E1E1E1E1E1E1E1E1E1E1E1E1E1DCE1E1E1E1E1E1E128E1E1E1E1E2E1E1E1E2E1E1E228E1E1E1E1E1E1E1E1DCE1E1E1E1C3E1C328E1E1E1E2E1E1E1E1E1DCE1E1E1E1E1E1C3E1C3C3E1E1E1E1E1E1DCE1E1E1E1E1E1E1C3E1C3DCE1E1E1E1E1E1E1E1E1E1E1E1E1E128E1DCE1DCE1E1E1
310
E1E1E1E1E1E1E1E1E1E1E1E1E1E1E1E1E1E1E1E1E1E1E1E1E1E1E1E1E1E1E1E1E1E1E1E1E1E1DCE128E1E1E1E1E1E1E1E1E1E1E1E1E1E1E1E1E1E1E1E1E1E1E1E1E1E1E1E128E2E2E1E1E1E1E1E1E1E1E1E1E1E1E1E1E1E1E1E1E1E1E1E1E1E1E1E1E1E1E1E1E1E1E1E1E1E1E1E1E1E1E1E1E1E1E1E1E1E1E1E1E1E1E1E1E1
310
E1E1E1E1E1E1E1E1E1E1E1E1E1E1E1E1E1E1E1E1E1E1E1E1E1E1E1E1E1E1DCE1E1E1E1E1E1E128E1E1E1E1E2E1E1E1E2E1E1E228E1E1E1E1E1E1E1DCDCE1E1E1E1C3E1C3E1E1E1E1E1E2E1E1E1E1DCE1E1E1E1E1E1C3E1E1C3C3E1E1E1E1E1E1DCE1E1E1E1E1E1C3E1C3DCE1E1E1E1E1E1E1E1E1E1E1E1E1E128E1DCE1DCE1
310
E1E1E1E1E1E1E1E1E1E1E1E1E1E1E1E1E1E1E1E1E1E1E1E1E1E1E1E1E1E1E1E1E1E1E1E1E1E1E1E1DCE128E1E1E1E1E1E1E1E1E1E1E1E1E1E1E1E1E1E1E1E1E1E1E1E1E1E1E1E128E2E2E1E1E1E1E1E1E1E1E1E1E1E1E1E1E1E1E1E1E1E1E1E1E1E1E1E1E1E1E1E1E1E1E1E1E1E1E1E1E1E1E1E1E1E1E1E1E1E1E1E1E1E1E1
310
E1E1E1E1E1E1E1E1E1E1E1E1E1E1E1E1E1E1E1E1E1E1E1E1E1E1E1E1E1E1E1E1DCE1E1E1E1E1E1E128E1E1E1E1E2E1E1E1E2E1E1E228E1E1E1E1E1E1E1DCE1E1E1E1E1C328C3E1E1E1E1E1E2E1E1E1E1DCE1E1E1E1E1E1C3E1E1E1C3E1E1E1E1E1E1DCE1E1E1E1E1E1C3E1C3DCE1E1E1E1E1E1E1E1E1E1E1E1E1E128E1DCE1
310
DCE1E1E1E1E1E1E1E1E1E1E1E1E1E1E1E1E1E1E1E1E1E1E1E1E1E1E1E1E1E1E1E1E1E1E1E1E1E1E1E1E1E1DC28E1E1E1E1E1E1E1E1E1E1E1E1E1E1E1E1E1E1E1E1E1E1E1E1E1E1E1E128E2E2E1E1E1E1E1E1E1E1E1E1E1E1E1E1E1E1E1E1E1E1E1E1E1E1E1E1E1E1E1E1E1E1E1E1E1E1E1E1E1E1E1E1E1E1E1E1E1E1E1E1E1
310
E1E1E1E1E1E1E1E1E1E1E1E1E1E1E1E1E1E1E1E1E1E1E1E1E1E1E1E1E1E1E1E1E1E1DCE1E1E1E1E1E1E128E1E1E1E1E2E1E1E1E2E1E1E2E1E1E1E1E1E1E1E1DCE1E1E1E1E1C328C3E1E1E1E1E1E1E2E1E1E1DCE1E1E1E1E1E1C3E1E1E1C3C3E1E1E1E1E1DCE1E1E1E1E1E1C3E1C3DCE1E1E1E1E1E1E1E1E1E1E1E1E1E128E1
310
DCE1DCE1E1E1E1E1E1E1E1E1E1E1E1E1E1E1E1E1E1E1E1E1E1E1E1E1E1E1E1E1E1E1E1E1E1E1E1E1E1E1E1E1E1DC28E1E1E1E1E1E1E1E1E1E1E1E1E1E1E1E1E1E1E1E1E1E1E1E1E1E1E1E128E2E2E1E1E1E1E1E1E1E1E1E1E1E1E1E1E1E1E1E1E1E1E1E1E1E1E1E1E1E1E1E1E1E1E1E1E1E1E1E1E1E1E1E1E1E1E1E1E1E1E1
310
E1E1E1E1E1E1E1E1E1E1E1E1E1E1E1E1E1E1E1E1E1E1E1E1E1E1E1E1E1E1E1E1E1E1E1E1DCE1E1E1E1E1E1E128E1E1E1E1E2BEBEBEE2E1E1E2E1E1E1E1E1E1E1DCE1E1E1E1E1E1C328C3E1E1E1E1E1E1E1E2E1E1DCE1E1E1E1E1E1C3E1E1E128C3E1E1E1E1E1DCE1E1E1E1E1E1C3E1C3DCE1E1E1E1E1E1E1E1E1E1E1E1E1E1
310
28E1DCE1DCE1E1E1E1E1E1E1E1E1E1E1E1E1E1E1E1E1E1E1E1E1E1E1E1E1E1E1E1E1E1E1E1E1E1E1E1E1E1E1E1E1E1DC28E1E1E1E1E1E1E1E1E1E1E1E1E1E1E1E1E1E1E1E1E1E1E1E1E1E1E1E128E2E2E1E1E1E1E1E1E1E1E1E1E1E1E1E1E1E1E1E1E1E1E1E1E1E1E1E1E1E1E1E1E1E1E1E1E1E1E1E1E1E1E1E1E1E1E1E1E1
310
E1E1E1E1E1E1E1E1E1E1E1E1E1E1E1E1E1E1E1E1E1E1E1E1E1E1E1E1E1E1E1E1E1E1E1E1E1E1DCE1E1E1E1E1E1E128E1E1E1E1E2BEBEBEE2E1E1E2E1E1E1E1E1E1E1DCE1E1E1E1E1E1C3E1C3E1E1E1E1E1E1E1E1E2E1DCE1E1E1E1E1E1C3E1E1E1E1C3E1E1E1E1E1E1DCE1E1E1E1E1C3E1C3DCE1E1E1E1E1E1E1E1E1E1E1E1
310
E1E128E1DCE1DCE1E1E1E1E1E1E1E1E1E1E1E1E1E1E1E1E1E1E1E1E1E1E1E1E1E1E1E1E1E1E1E1E1E1E1E1E1E1E1E1E1E1DC28E1E1E1E1E1E1E1E1E1E1E1E1E1E1E1E1E1E1E1E1E1E1E1E1E1E1E1E128E2E2E1E1E1E1E1E1E1E1E1E1E1E1E1E1E1E1E1E1E1E1E1E1E1E1E1E1E1E1E1E1E1E1E1E1E1E1E1E1E1E1E1E1E1E1E1
310
E1E1E1E1E1E1E1E1E1E1E1E1E1E1E1E1E1E1E1E1E1E1E1E1E1E1E1E1E1E1E1E1E1E1E1E1E1E1E1E1DCE1E1E1E1E1E1E128E1E1BEBEE2BEBEBEE2E1E1E2E1E1E1E1E1E1E1DCE1E1E1E1E1E1C3E1C3E1E1E1E1E1E1E1E1E1E2DCE1E1E1E1E1E1C3E1E1E1E1C3E1E1E1E1E1E1DCE1E1E1E1E1C3E1C3DCE1E1E1E1E1E1E1E1E1E1
310
E1E1E1E128E1DCE1DCE1E1E1E1E1E1E1E1E1E1E1E1E1E1E1E1E1E1E1E1E1E1E1E1E1E1E1E1E1E1E1E1E1E1E1E1E1E1E1E1E1E1DC28E1E1E1E1E1E1E1E1E1E1E1E1E1E1E1E1E1E1E1E1E1E1E1E1E1E1E1E128E2E2E1E1E1E1E1E1E1E1E1E1E1E1E1E1E1E1E1E1E1E1E1E1E1E1E1E1E1E1E1E1E1E1E1E1E1E1E1E1E1E1E1E1E1
310
E1E1E1E1E1E1E1E1E1E1E1E1E1E1E1E1E1E1E1E1E1E1E1E1E1E1E1E1E1E1E1E1E1E1E1E1E1E1E1E1E1E1DCE1E1E1E1E1E1E128E1E1BEBEE2E1BEBEE2E1DCE2DCDCDCDCDCDCDCDCDCDCDCDCDCDCC3DCC3DCDCDCDCDCDCDCE1BEBEE2DCDCDCDCDCDCC3DCDCDCDCC3DCDCDCDCDCDCDCDCDCDCDCDCC3DCC3DCDCDCDCDCDCDCDCDC
310
DCDCDCDCDCDC28DCDCDCDCDCDCDCDCDCDCDCDCDCDCDCDCDCE1DCDCDCDCDCDCDCDCDCDCDCDCDCDCDCDCDCDCDCDCDCDCDCDCDCDCDCDCDC28DCE1E1E1E1E1E1E1E1E1E1E1E1E1E1E1E1E1E1E1E1E1E1E1E1E1E1E128E2E2E1E1E1E1E1E1E1E1E1E1E1E1E1E1E1E1E1E1E1E1E1E1E1E1E1E1E1E1E1E1E1E1E1E1E1E1E1E1E1E1E1
310
E1E1E1E1E1E1E1E1E1E1E1E1E1E1E1E1E1E1E1E1E1E1E1E1E1E1E1E1E1E1E1E1E1E1E1E1E1E1E1E1E1E1E1E1DCE1E1E1E1E1E1E128E1E1BEBEE2BEBEBEE2E1E128E1E1E1E1E1E1E1DCE1E1E1E1E1E1C3E1C3E1E1E1E1E1E1E1E1BEBEE2E1E1E1E1E1E1C3E1E1E1E1C3E1E1E1E1E1E1DCE1E1E1E1E1C3E1C3DCE1E1E1E1E1E1
310
E1E1E1E1E1E1E1E128E1E1DCE1DCE1E1E1E1E1E1E1E1E1E1E1E1E1E1E1E1E1E1E1E1E1E1E1E1E1E1E1E1E1E1E1E1E1E1E1E1E1E1E1E1E1DC28E1E1E1E1E1E1E1E1E1E1E1E1E1E1E1E1E1E1E1E1E1E1E1E1E1E1E1E128E2E2E1E1E1E1E1E1E1E1E1E1E1E1E1E1E1E1E1E1E1E1E1E1E1E1E1E1E1E1E1E1E1E1E1E1E1E1E1E1E1
310
E1E1E1E1E1E1E1E1E1E1E1E1E1E1E1E1E1E1E1E1E1E1E1E1E1E1E1E1E1E1E1E1E1E1E1E1E1E1E1E1E1E1E1E1E1E1DCE1E1E1E1E1E1E128E1E1BEBEE2BEBEBEE2E1E128E1E1E1E1E1E1E1DCE1E1E1E1E1E1C3E1C3E1E1E1E1E1E1E1E1BEBEBEE2E1E1E1E1E1C3E1E1E1E1C3E1E1E1E1E1E1DCE1E1E1E1E1C3E1C3DCE1E1E1E1
310
E1E1E1E1E1E1E1E1E1E128E1E1E1DCE1DCE1E1E1E1E1E1E1E1E1E1E1E1E1E1E1E1E1E1E1E1E1E1E1E1E1E1E1E1E1E1E1E1E1E1E1E1E1E1E1E1DC28E1E1E1E1E1E1E1E1E1E1E1E1E1E1E1E1E1E1E1E1E1E1E1E1E1E1E1E128E2E2E1E1E1E1E1E1E1E1E1E1E1E1E1E1E1E1E1E1E1E1E1E1E1E1E1E1E1E1E1E1E1E1E1E1E1E1E1
310
E1E1E1E1E1E1E1E1E1E1E1E1E1E1E1E1E1E1E1E1E1E1E1E1E1E1E1E1E1E1E1E1E1E1E1E1E1E1E1E1E1E1E1E1E1E1E1E1DCE1E1E1E1E1E1E128E1E1E1E1E2BEBEBEE2E1E128E1E1E1E1E1E1E1DCE1E1E1E1E1E1C3E1C3E1E1E1E1E1E1E1E1E1BEBEBEE2E1E1E1E1C3E1E1E1E1C3E1E1E1E1E1E1DCE1E1E1E1E1C3E1C3DCE1E1
310
E1E1E1E1E1E1E1E1E1E1E1E128E1E1E1DCE1DCE1E1E1E1E1E1E1E1E1E1E1E1E1E1E1E1E1E1E1E1E1E1E1E1E1E1E1E1E1E1E1E1E1E1E1E1E1E1E1E1DC28E1E1E1E1E1E1E1E1E1E1E1E1E1E1E1E1E1E1E1E1E1E1E1E1E1E1E1E128E2E2E1E1E1E1E1E1E1E1E1E1E1E1E1E1E1E1E1E1E1E1E1E1E1E1E1E1E1E1E1E1E1E1E1E1E1
310
E1E1E1E1E1E1E1E1E1E1E1E1E1E1E1E1E1E1E1E1E1E1E1E1E1E1E1E1E1E1E1E1E1E1E1E1E1E1E1E1E1E1E1E1E1E1E1E1E1E1DCE1E1E1E1E1E1E128E1E1E1E1E2E1BEBEE2E1E128E1E1E1E1E1E1E1E1DCE1E1E1E1E1C328C3E1E1E1E1E1E1E1E1E1BEBEE1E1E1E1E1E1C3E1E1E128C3E1E1E1E1E1DCE1E1E1E1E1E1C3E1C3DC
310
E1E1E1E1E1E1E1E1E1E1E1E1E1E128E1E1E1DCE1DCE1E1E1E1E1E1E1E1E1E1E1E1E1E1E1E1E1E1E1E1E1E1E1E1E1E1E1E1E1E1E1E1E1E1E1E1E1E1E1E1DC28E1E1E1E1E1E1E1E1E1E1E1E1E1E1E1E1E1E1E1E1E1E1E1E1E1E1E1E128E2E2E1E1E1E1E1E1E1E1E1E1E1E1E1E1E1E1E1E1E1E1E1E1E1E1E1E1E1E1E1E1E1E1E1
310
E1E1E1E1E1E1E1E1E1E1E1E1E1E1E1E1E1E1E1E1E1E1E1E1E1E1E1E1E1E1E1E1E1E1E1E1E1E1E1E1E1E1E1E1E1E1E1E1E1E1E1E1DCE1E1E1E1E1E1E128E1E1E1E1E2E1E1E1E2E1E128E1E1E1E1E1E1E1E1DCE1E1E1E1E1C328C3E1E1E1E1E1E1E1E1E1E1E2E1E1E1E1E1E1C3E1E1E1C3C3E1E1E1E1E1DCE1E1E1E1E1E1C3E1
310
C3DCE1E1E1E1E1E1E1E1E1E1E1E1E1E128E1E1E1E1DCE1DCE1E1E1E1E1E1E1E1E1E1E1E1E1E1E1E1E1E1E1E1E1E1E1E1E1E1E1E1E1E1E1E1E1E1E1E1E1E1E1DC28E1E1E1E1E1E1E1E1E1E2E1E1E1E1E1E1E1E1E1E1E1E1E1E1E1E1E1E128E2E2E1E1E1E1E1E1E1E1E1E1E1E1E1E1E1E1E1E1E1E1E1E1E1E1E1E1E1E1E1E1E1
310
E1E1E1E1E1E1E1E1E1E1E1E1E1E1E1E1E1E1E1E1E1E1E1E1E1E1E1E1E1E1E1E1E1E1E1E1E1E1E1E1E1E1E1E1E1E1E1E1E1E1E1E1E1E1DCE1E1E1E1E1E1E128E1E1E1E1E2E1E1E1E2E1E1E128E1E1E1E1E1E1E1DCE1E1E1E1E1C328C3E1E1E1E1E1E1E1E1E1E1DCE1E1E1E1E1E1C3E1E1E1C3E1E1E1E1E1E1DCE1E1E1E1E1E1
310
C3E1C3DCE1E1E1E1E1E1E1E1E1E1E1E1E1E128E1E1E1E1DCE1DCE1E1E1E1E1E1E1E1E1E1E1E1E1E1E1E1E1E1E1E1E1E1E1E1E1E1E1E1E1E1E1E1E1E1E1E1E1E1E1DC28E1E1E1E1E1E1E1E1E1E2E2E2E2E2E2E2E2E2E2E2E2E2E2E2E2E2E2E128E2E2E1E1E1E1E1E1E1E1E1E1E1E1E1E1E1E1E1E1E1E1E1E1E1E1E1E1E1E1E1
310
E1E1E1E1E1E1E1E1E1E1E1E1E1E1E1E1E1E1E1E1E1E1E1E1E1E1E1E1E1E1E1E1E1E1E1E1E1E1E1E1E1E1E1E1E1E1E1E1E1E1E1E1E1E1E1E1DCE1E1E1E1E1E1E128E1E1E1E1E2E1E1E1E2E1E1E128E1E1E1E1E1E1E1DCE1E1E1E1E1C3E1C3E1E1E1E1E1E1E1E1E1E1DCE1E1E1E1E1E1C3E1E1C3C3E1E1E1E1E1DCE1E1E1E1E1
310
E1E1C3E1C3DCE1E1E1E1E1E1E1E1E1E1E1E1E1E128E1E1E1E1DCE1DCE1E1E1E1E1E1E1E1E1E1E1E1E1E1E1E1E1E1E1E1E1E1E1E1E1E1E1E1E1E1E1E1E1E1E1E1E1E1DCE128E1E1E1E1E1E1E1E1E1E2E1E1E1E1E1E1E1E1E1E1E1E1E1BEBEBEE1E128E2E2E1E1E1E1E1E1E1E1E1E1E1E1E1E1E1E1E1E1E1E1E1E1E1E1E1E1E1
310
E1E1E1E1E1E1E1E1E1E1E1E1E1E1E1E1E1E1E1E1E1E1E1E1E1E1E1E1E1E1E1E1E1E1E1E1E1E1E1E1E1E1E1E1E1E1E1E1E1E1E1E1E1E1E1E1E1E1DCE1E1E1E1E1E1E128E1E1E1E1E2E1E1E1E2E1E1E128E1E1E1E1E1E1E1E1DCE1E1E1E1C3E1C328E1E1E1E1E1E1E1E1E1DCE1E1E1E1E1E1C3E1C3C3E1E1E1E1E1E1DCE1E1E1
310
E1E1E1E1C3E1C3DCE1E1E1E1E1E1E1E1E1E1E1E1E1E128E1E1E1DCE1DCE1E1E1E1E1E1E1E1E1E1E1E1E1E1E1E1E1E1E1E1E1E1E1E1E1E1E1E1E1E1E1E1E1E1E1E1E1E1E1DCE128E1E1E1E1E1E1E1E1E1E2E1E1E1E1E1E1E1E1E1E1E1E1E1BEBEBEE1E128E2E2E1E1E1E1E1E1E1E1E1E1E1E1E1E1E1E1E1E1E1E1E1E1E1E1E1
310
E1E1E1E1E1E1E1E1E1E1E1E1E1E1E1E1E1E1E1E1E1E1E1E1E1E1E1E1E1E1E1E1E1E1E1E1E1E1E1E1E1E1E1E1E1E1E1E1E1E1E1E1E1E1E1E1E1E1E1E1DCE1E1E1E1E1E1E128E1E1E1E1E2E1E1E1E2E1E1E128E1E1E1E1E1E1E1E1DC28DCE2E1C3E1C3E128E1E1E1E1E1E1E1E1DCE1E1E1E1E1E1C3C3C3E1E1E1E1DCDC28DCE1
310
E1E1E1E1E1E1C3E1C3DCE1E1E1E1E1E1E1E1E1E1E1E1E1E128E1E1E1DCE1DCE1E1E1E1E1E1E1E1E1E1E1E1E1E1E1E1E1E1E1E1E1E1E1E1E1E1E1E1E1E1E1E1E1E1E1E1E1E1E1DCE128E1E1E1E1E1E1E1E1E1E2E1E1E1E1E1E1E1E1E1E1E1E1E1E1E1E1E1E128E2E2E1E1E1E1E1E1E1E1E1E1E1E1E1E1E1E1E1E1E1E1E1E1E1
310
E1E1E1E1E1E1E1E1E1E1E1E1E1E1E1E1E1E1E1E1E1E1E1E1E1E1E1E1E1E1E1E1E1E1E1E1E1E1E1E1E1E1E1E1E1E1E1E1E1E1E1E1E1E1E1E1E1E1E1E1E1E1DCE1E1E1E1E1E1E128E1E1E1E1E2E1E1E1E2E1E1E1E128E1E1E1E1E1E1E1DCDC28E1E1C3E1C3E1E128E1E1E1E1E1E1E1DCE1E1E1E1E1E1C3C3E1E1E1E1E1E128DC
310
DCE1E1E1E1E1E1E1C3E1C3DCE1E1E1E1E1E1E1E1E1E1E1E1E1E128E1E1E1DCE1DCE1E1E1E1E1E1E1E1E1E1E1E1E1E1E1E1E1E1E1E1E1E1E1E1E1E1E1E1E1E1E1E1E1E1E1E1E1E1E1DCE128E1E1E1E1E1E1E1E1E1E2E1E1E1E1E1E1E1E1E1E1E1E1E1E1E1E1E1E128E2E2E1E1E1E1E1E1E1E1E1E1E1E1E1E1E1E1E1E1E1E1E1
310
E1E1E1E1E1E1E1E1E1E1E1E1E1E1E1E1E1E1E1E1E1E1E1E1E1E1E1E1E1E1E1E1E1E1E1E1E1E1E1E1E1E1E1E1E1E1E1E1E1E1E1E1E1E1E1E1E1E1E1E1E1E1E1E1DCE1E1E1E1E1E1E128E1E1E1E1E2E1E1E1E2E1E1E1E128E1E1E1E1E1E1E228DC28E1E1C3E1C3E1E1E12828E1E1E1E1E1DCE1E1E1E12828C3C3C3C3C3C3C3C3
310
C3C3C3C3C3C3C3C3C3C3C3C3C3DCC3C3C3C3C3C3C3C3C3C3C3C3C3C32828282828E128282828282828282828282828282828282828282828282828282828282828282828282828282828282828E1E1E1E1E1E1E1E1E1E2E1E1E1E1E1E1E1E1E1E1E1E1E1E1E1E1E1E128E2E2E1E1E1E1E1E1E1E1E1E1E1E1E1E1E1E1E1E1E1
310
E1E1E1E1E1E1E1E1E1E1E1E1E1E1E1E1E1E1E1E1E1E1E1E1E1E1E1E1E1E1E1E1E1E1E1E1E1E1E1E1E1E1E1E1E1E1E1E1E1E1E1E1E1E1E1E1E1E1E1E1E1E1E1E1E1E1DCE1E1E1E1E1E1E128E1E1E1E1E2E1E1E1E2E1E1E1E1E128E1E1E1E2E2E1E1E1DCDCE1C3E1C3E1E1E1E1E1282828E1E1DCE1282828E1E1E1E1E1E1E1E1
310
E1E1DCE1E1E1E1E1E1E1E1E1C3E1C3DCE1E1E1E1E1E1E1E1E1E1E1E1E1E128E1E1E1E1E1E1E1E1E1E1E1E1E1E1E1E1E1E1E1E1E1E1E1E1E1E1E1E1E1E1E1E1E1E1E1E1E1E1E1E1E1E1E1E1E1E1E1E1E1E1E1E1E1E1E1E1E1E2E1E1E1E1E1E1E1E1E1E1E1E1E1E1E1E1E1E128E2E2E1E1E1E1E1E1E1E1E1E1E1E1E1E1E1E1E1
310
E1E1E1E1E1E1E1E1E1E1E1E1E1E1E1E1E1E1E1E1E1E1E1E1E1E1E1E1E1E1E1E1E1E1E1E1E1E1E1E1E1E1E1E1E1E1E1E1E1E1E1E1E1E1E1E1E1E1E1E1E1E1E1E1E1E1E1E1DCE1E1E1E1E1E1E128E1E1E1E1E2E1E1E1E2E1E1E1E1E128E1E1E1E1E2E1E1E1E1DCE1C3E1C3C3C3C3C3C3C3C3C3C3C3C3C3C3C3C3C3C3C3C3C3C3
310
C3C3C3C3C3C3C3C3C3C3C3C3C3C3C3E1C3DCE1E1E1E1E1E1E1E1E1E1E1E1E1E128E1E1E1E1E1E1E1E1E1E1E1E1E1E1E1E1E1E1E1E1E1E1E1E1E1E1E1E1E1E1E1E1E1E1E1E1E1E1E1E1E1E1E1E1E1E1E1E1E1E1E1E1E1E1E1E1E1E2E1E1E1E1E1E1E1E1E1E1E1E1E1E1E1E1E1E128E2E2E1E1E1E1E1E1E1E1E1E1E1E1E1E1E1
310
E1E1E1E1E1E1E1E1E1E1E1E1E1E1E1E1E1E1E1E1E1E1E1E1E1E1E1E1E1E1E1E1E1E1E1E1E1E1E1E1E1E1E1E1E1E1E1E1E1E1E1E1E1E1E1E1E1E1E1E1E1E1E1E1E1E1E1E1E1E1DCE1E1E1E1E1E1E128E1E1E1E1E2E1E1E1E2E1E1E1E1E1E128E1E1E1E2E1E1E1E1E1DCC3C3E1E1E1E1E1E1E1E1E1E1E1DCE1E1E1E1E1E1E1E1
310
E1E1E1E1DCE1E1E1E1E1E1E1E1E1E1E1E1C3C3DCE1E1E1E1E1E1E1E1E1E1E1E1E1E128E1E1E1E1E1E1E1E1E1E1E1E1E1E1E1E1E1E1E1E1E1E1E1E1E1E1E1E1E1E1E1E1E1E1E1E1E1E1E1E1E1E1E1E1E1E1E1E1E1E1E1E1E1E1E1E1E1E2E1E1E1E1E1E1E1E1E1E1E1E1E1E1E1E1E1E128E2E2E1E1E1E1E1E1E1E1E1E1E1E1E1
310
E1E1E1E1E1E1E1E1E1E1E1E1E1E1E1E1E1E1E1E1E1E1E1E1E1E1E1E1E1E1E1E1E1E1E1E1E1E1E1E1E1E1E1E1E1E1E1E1E1E1E1E1E1E1E1E1E1E1E1E1E1E1E1E1E1E1E1E1E1E1E1E1DCE1E1E1E1E1E1E128E1E1E1E1E2E1E1E1E2E1E1E1E1E1E128E1E1E1E1E2E1E1E1E1E1C3C3C3C3C3C3C3C3C3C3C3C3C3C3C3C3C3C3C3C3
310
C3C3C3C3C3C3C3C3C3C3C3C3C3C3C3C3C3C3C3C3C3DCE1E1E1E1E1E1E1E1E1E1E1E1E1E128E1E1E1E1E1E1E1E1E1E1E1E1E1E1E1E1E1E1E1E1E1E1E1E1E1E1E1E1E1E1E1E1E1E1E1E1E1E1E1E1E1E1E1E1E1E1E1E1E1E1E1E1E1E1E1E1E1E2E1E1E1E1E1E1E1E1E1E1E1E1E1E1E1E1E1E128E2E2E1E1E1E1E1E1E1E1E1E1E1
310
E1E1E1E1E1E1E1E1E1E1E1E1E1E1E1E1E1E1E1E1E1E1E1E1E1E1E1E1E1E1E1E1E1E1E1E1E1E1E1E1E1E1E1E1E1E1E1E1E1E1E1E1E1E1E1E1E1E1E1E1E1E1E1E1E1E1E1E1E1E1E1E1E1E1DCE1E1E1E1E1E1E128E1E1E1E1E2E1E1E1E2E1E1E1E1E1E1E128E1E1E1E1E2E1E1E1E1E1DCE1E1E1E1E1E1E1E1E1E1E1DCE1E1E1E1
310
E1E1E1E1E1DCDCE1E1E1E1E1E1E1E1E1E1E1E1E1E1E1E1DCE1E1E1E1E1E1E1E1E1E1E1E1E1E128E1E1E1E1E1E1E1E1E1E1E1E1E1E1E1E1E1E1BEBEBEBEBEBEBEBEBEE1BEBEBEBEBEBEE1E1E1E1E1E1E1E1E1E1E1E1E1E1E1E1E1E1E1E1E1E1E1E2E1E1E1E1E1E1E1E1E1E1E1E1E1E1E1E1E1E128E2E2E1E1E1E1E1E1E1E1E1
310
E1E1E1E1E1E1E1E1E1E1E1E1E1E1E1E1E1E1E1E1E1E1E1E1E1E1E1E1E1E1E1E1E1E1E1E1E1E1E1E1E1E1E1E1E1E1E1E1E1E1E1E1E1E1E1E1E1E1E1E1E1E1E1E1E1E1E1E1E1E1E1E1E1E1E1E1DCE1E1E1E1E1E1E128E1E1E1E1E2E1E1E1E2E1E1E1E1E1E1E1E128E1E1E1E2E2E1E1E1E1E1DCDCDCE1E1E1E1E1E1E1E1DCE1E1
310
E1E1E1E1E1DCDCE1E1E1E1E1E1E1E1E1E1E1E1E1E1E1E1E1E1DCE1E1E1E1E1E1E1E1E1E1E1E1E1E128E1E1E1E1E1E1E1E1E1E1E1E1E1E1E1E1E1E1BEBEBEBEBEBEBEBEBEE1BEBEBEBEBEBEE1E1E1E1E1E1E1E1E1E1E1E1E1E1E1E1E1E1E1E1E1E1E1E2E1E1E1E1E1E1E1E1E1E1E1E1E1E1E1E1E1E128E2E2E1E1E1E1E1E1E1
310
E1E1E1E1E1E1E1E1E1E1E1E1E1E1E1E1E1E1E1E1E1E1E1E1E1E1E1E1E1E1E1E1E1E1E1E1E1E1E1E1E1E1E1E1E1E1E1E1E1E1E1E1E1E1E1E1E1E1E1E1E1E1E1E1E1E1E1E1E1E1E1E1E1E1E1E1E1E1DCE1E1E1E1E1E1E128E1E1E1E1E2E1E1E2E2E1E1E1E1E1E1E1E1E128E1E1E1E1E2E1E1E1E1E1E1E1DCE1E1E1E1E1E1E1DC
310
E1E1E1E1E1DCDCDCE1E1E1E1E1E1E1E1E1E1E1E1E1E1E1E1E1E1E1DCE1E1E1E1E1E1DCE1E1DCE1E1E1E128E1E1E1E1E1E1E1E1E1E1E1E1E1E1E1E1E1E1BEBEE1BEE1BEE1BEBEE1BEE1BEBEBEBEE1E1E1E1E1E1E1E1E1E1E1E1E1E1E1E1E1E1E1E1E1E1E1E2E1E1E1E1E1E1E1E1E1E1E1E1E1E1E1E1E1E128E2E2E1E1E1E1E1
310
E1E1E1E1E1E1E1E1E1E1E1E1E1E1E1E1E1E1E1E1E1E1E1E1E1E1E1E1E1E1E1E1E1E1E1E1E1E1E1E1E1E1E1E1E1E1E1E1E1E1E1E1E1E1E1E1E1E1E1E1E1E1E1E1E1E1E1E1E1E1E1E1E1E1E1E1E1E1E1E1DCE1E1E1E1E1E1E128E1E1E1E1E2E1E1E1E2E1E1E1E1E1E1E1E1E128E1E1E1E1E2E2E1E1E1E1E1E1E1DCDCDCDCDCDC
310
2828DCDCDCDCDCE1E1E1E1E1E1E1E1E1E1E1E1E1E1E1E1E1E1E1E1E1E1DCE1E1E1E1E1DCDCDCDCDCDCE1E1E128E1E1E1E1E1E1E1E1E1E1E1E1E1E1E1E1E1E1E1E1E1E1E1E1E1E1E1E1E1E1E1E1E1E1E1E1E1E1E1E1E1E1E1E1E1E1E1E1E1E1E1E1E1E1E1E1E1E2E1E1E1E1E1E1E1E1E1E1E1E1E1E1E1E1E1E128E2E2E1E1E1
310
E1E1E1E1E1E1E1E1E1E1E1E1E1E1E1E1E1E1E1E1E1E1E1E1E1E1E1E1E1E1E1E1E1E1E1E1E1E1E1E1E1E1E1E1E1E1E1E1E1E1E1E1E1E1E1E1E1E1E1E1E1E1E1E1E1E1E1E1E1E1E1E1E1E1E1E1E1E1E1E1E1E1DCE1E1E1E1E1E1E128E1E1E1E1E2E1E1E2E2E2E2E2E2E2E2E2E2E2E2E2E2E2E2E2E2E2E2E2E2E2E2E2E2E2E2E2
310
E2E2DCDC28E1E1E1E1E1E1E1E1E1E1E1E1E1E1E1E1E1E1E1E1E1E1E1E1E1E1DCE1E1E1E1DCDCDCDCDCDCDCDCE1E128E1E1E1E1E1E1E1E1E1E1E1E1E1E1E1E1E1E1E1E1E1E1E1E1E1E1E1E1E1E1E1E1E1E1E1E1E1E1E1E1E1E1E1E1E1E1E1E1E1E1E1E1E1E1E1E1E1E2E1E1E1E1E1E1E1E1E1E1E1E1E1E1E1E1E1E128E2E2E1
310
E1E1E1E1E1E1E1E1E1E1E1E1E1E1E1E1E1E1E1E1E1E1E1E1E1E1E1E1E1E1E1E1E1E1E1E1E1E1E1E1E1E1E1E1E1E1E1E1E1E1E1E1E1E1E1E1E1E1E1E1E1E1E1E1E1E1E1E1E1E1E1E1E1E1E1E1E1E1E1E1E1E1E1E1DCE1E1E1E1E1E1E128E1E1E1E1E2E1E1E1E1E1E1E1E1E1E1E1E1E1E1E1E128E1E1E1BEBEE2E2E1E1E1E1E1
310
E1E1E1E12828E1E1E1E1E1E1E1E1E1E1E1E1E1E1E1E1E1E1E1E1E1E1E1E1E1E1E1DCE1E1E1E1E12828282828E1E1E1E128E1E1E1E1E1E1E1E1E1E1E1E1E1E1E1E1E1E1E1E1E1E1E1E1E1E1E1E1E1E1E1E1E1E1E1E1E1E1E1E1E1E1E1E1E1E1E1E1E1E1E1E1E1E1E1E1E1E2E1E1E1E1E1E1E1E1E1E1E1E1E1E1E1E1E1E128E2
310
E2E1E1E1E1E1E1E1E1E1E1E1E1E1E1E1E1E1E1E1E1E1E1E1E1E1E1E1E1E1E1E1E1E1E1E1E1E1E1E1E1E1E1E1E1E1E1E1E1E1E1E1E1E1E1E1E1E1E1E1E1E1E1E1E1E1E1E1E1E1E1E1E1E1E1E1E1E1E1E1E1E1E1E1E1E1DCE1E1E1E1E1E1E128E1E1E1E1E2E1E1E1E1E1E1E1E1E1E1E1E1E1E1E1E1E128E1BEBEBEBEBEE2E1E1
310
E1E1E1E1E1E1E1DCE1E1E1E1E1E1E1E1E1E1E1E1E1E1E1E1E1E1E1E1E1E1E1E1E1E1E1DCE1E1E1E1E1E1DCE1E1DCE1E1E1E128E1E1E1E1E1E1E1E1E1E1E1E1E1E1E1E1E1E1E1E1E1E1E1E1E1E1E1E1E1E1E1E1E1E1E1E1E1E1E1E1E1E1E1E1E1E1E1E1E1E1E1E1E1E1E1E1E1E2E1E1E1E1E1E1E1E1E1E1E1E1E1E1E1E1E1E1
310
28E2E2E1E1E1E1E1E1E1E1E1E1E1E1E1E1E1E1E1E1E1E1E1E1E1E1E1E1E1E1E1E1E1E1E1E1E1E1E1E1E1E1E1E1E1E1E1E1E1E1E1E1E1E1E1E1E1E1E1E1E1E1E1E1E1E1E1E1E1E1E1E1E1E1E1E1E1E1E1E1E1E1E1E1E1E1E1DCDCDCDCDCDCDCE128E1E1E1E1E2E1E1E1E1E1E1E1E1E1E1E1E1E1E1E1E1E1E128E1BEBEBEBEBE
310
BEE2E2E2E1E1E1E1E1DCE1E1E1E1E1E1E1E1E1E1E1E1E1E1E1E1E1E1E1E1E1E1E1E1E1E1E1DCE1E1E1E1E1E1E1E1E1E1E1E1E1E128E1E1E1E1E1E1E1E1E1E1E1E1E1E1E1E1E1E1E1E1E1E1E1E1E1E1E1E1E1E1E1E1E1E1E1E1E1E1E1E1E1E1E1E1E1E1E1E1E1E1E1E1E1E1E1E1E1E2E1E1E1E1E1E1E1E1E1E1E1E1E1E1E1E1
310
E1E128E2E2E1E1E1E1E1E1E1E1E1E1E1E1E1E1E1E1E1E1E1E1E1E1E1E1E1E1E1E1E1E1E1E1E1E1E1E1E1E1E1E1E1E1E1E1E1E1E1E1E1E1E1E1E1E1E1E1E1E1E1E1E1E1E1E1E1E1E1E1E1E1E1E1E1E1E1E1E1E1E1E1E1E1E1E1E1DCE1E1E1E1E1E1E128E1E1E1E1E2E1E1E1E1E1E1E1E1E1E1E1E1E1E1E1E1E1E1E12828E1E1
310
BEBEBEBEE1E1E2E2E2E2E2E2E1E1E1E1E1E1E1E1E1E1E1E1E1E1E1E1E1E1E1E1E1E1E1E1E1E1E1DCE1E1E1E1E1E1E1E1E1E1E1E1E1E128E1E1E1E1E1E1E1E1E1E1E1E1E1E1E1E1E1E1E1E1E1E1E1E1E1E1E1E1E1E1E1E1E2E2E2E1E1E1E1E1E1E1E1E1E1E1E1E1E1E1E1E1E1E1E1E1E1E2E1E1E1E1E1E1E1E1E1E1E1E1E1E1
310
DCE1E1E128E2E2E1E1E1E1E1E1E1E1E1E1E1E1E1E1E1E1E1E1E1E1E1E1E1E1E1E1E1E1E1E1E1E1E1E1E1E1E1E1E1E1E1E1E1E1E1E1E1E1E1E1E1E1E1E1E1E1E1E1E1E1E1E1E1E1E1E1E1E1E1E1E1E1E1E1E1E1E1E1E1E1E1E1E1E1E1DCE1E1E1E1E1E1E128E1E1E1E1E2E1E1E1E1E1E1E1E1E1E1E1E1E1E1E1E1E1E1E1E1E1
310
2828E1BEBEBEE1E1E1E1E1E1E1DCE1E1E1E1E1E1E1E1E1E1E1E1E1E1E1E1E1E1E1E1E1E1E1E1E1E1E1DCE1E1E1E1E1E1E1E1E1E1E1E1E1E128E1E1E1E1E1E1E1E1E1E1E1E1E1E1E2E2E2E2E2E2E2E2E2E2E2E2E2E2E2E2E2E2E1E1E2E1E1E1E1E1E1E1E1E1E1E1E1E1E1E1E1E1E1E1E1E1E1E2E1E1E1E1E1E1E1E1E1E1E128
310
282828E1E1E128E2E2E1E1E1E1E1E1E1E1E1E1E1E1E1E1E1E1E1E1E1E1E1E1E1E1E1E1E1E1E1E1E1E1E1E1E1E1E1E1E1E1E1E1E1E1E1E1E1E1E1E1E1E1E1E1E1E1E1E1E1E1E1E1E1E1E1E1E1E1E1E1E1E1E1E1E1E1E1E1E1E1E1E1E1E1E1DCE1E1E1E1E1E1E128E1E1E1E1E2E1E1E1E1E1E1E1E1E1E1E1E1E1E1E1E1E1E1E1
310
E1E1E1E1282828E1E1E1E1E1E1E1E1DCE1E1E1E1E1E1E1E1E1E1E1E1E1E1E1E1E1E1E1E1E1E1E1E1E1E1E1DCE1E1E1E1E1E1E1E1E1E1E1E1E1E128E1E1E1E1E2E2E2E2E2E2E2E2E2E2E2E2E2E2E2E2E2E2E1E1E1E1E1E1DC28E1E1E1E2E2E1E1E1E1E1E1E1E1E1E1E1E1E1E1E1E1E1E1E1E1E1E1E2E1E1E1E1E1E1E1E12828
310
28E1E1E1DCE1E1E128E2E2E1E1E1E1E1E1E1E1E1E1E1E1E1E1E1E1E1E1E1E1E1E1E1E1E1E1E1E1E1E1E1E1E1E1E1E1E1E1E1E1E1E1E1E1E1E1E1E1E1E1E1E1E1E1E1E1E1E1E1E1E1E1E1E1E1E1E1E1E1E1E1E1E1E1E1E1E1E1E1E1E1E1E1E1E1DCE1E1E1E1E1E1E128E1E1E1E1E2E1E1E1E1E1E1E1E1E1E1E1E1E1E1E1E1E1
310
E1E1E1E1E1E1E1E1E12828282828E1E1E1DCE1E1E1E1E1E1E1E1E1E1E1E1E1E1E1E1E1E1E1E1E1E1E1E1E1E1E1DCE1E1E1E1E1E1E1E1E1E1E1E1E1E128E1E1E1E1DCE1E1E1E1E1E1E1E1E1E1E1E1E1E1E1E1E1E1E1E1E1E1E1DC28E1E1E1E1E2E1E1E1E1E1E1E1E1E1E1E1E1E1E1E1E1E1E1E1E1E1E1E2E1E1E1E1E1E1E128
310
28E1E1E1E1E1DCE1E1E128E2E2E1E1E1E1E1E1E1E1E1E1E1E1E1E1E1E1E1E1E1E1E1E1E1E1E1E1E1E1E1E1E1E1E1E1E1E1E1E1E1E1E1E1E1E1E1E1E1E1E1E1E1E1E1E1E1E1E1E1E1E1E1E1E1E1E1E1E1E1E1E1E1E1E1E1E1E1E1E1E1E1E1E1E1E1E1DCE1E1E1E1E1E1E128E1E1E1E1E2E2E2E2E2E2E2E2E2E2E2E2E2E2E2E2
310
E2E2E2E2E2E2E2E2E2E2E2E2E2E2E2E2E2E2E2E2282828282828282828282828282828282828282828282828282828DC282828282828282828282828282828E1E1E1DCE1E1E1E1E1E1E1E1E1E1E1E1E1E1E1E1E1E1E1E1E1E1E1E1DC28E1E1E1E1E2E1E1E1E1E1E1E1E1E1E1E1E1E1E1E1E1E1E1E1E1E1E1E2E1E1E1E1E1E1
310
2828E1E1E1E1E1E1DCE1E1E128E2E2E1E1E1E1E1E1E1E1E1E1E1E1E1E1E1E1E1E1E1E1E1E1E1E1E1E1E1E1E1E1E1E1E1E1E1E1E1E1E1E1E1E1E1E1E1E1E1E1E1E1E1E1E1E1E1E1E1E1E1E1E1E1E1E1E1E1E1E1E1E1E1E1E1E1E1E1E1E1E1E1E1E1E1E1E1DCE1E1E1E1E1E1E128E1E1E1E1E1E1E1E1E1E1E1E1E1E1E1E1E1E1
310
E1E1E1E1E1E1E1E1E1E1E1E1E1E1E1E1E1E1E1E1E1E2E1E1E1E1E1E1E1E1E1E1E1E1E1E1E1E1E1E1E1E1E1E1E1E1E1E1E1E1E1E1E1E1E1E1E1E1E1E1E1E1E1E1E1E1E1E1DCE1E1E1E1E1E1E1E1E1E1E1E1E1E1E1E1E1E1E1E1E1E1E1E1DC28E1E1E1E1E2E1E1E1E1E1E1E1E1E1E1E1E1E1E1E1E1E1E1E1E1E1E1E2E1E1E1E1
310
E12828E1E1E1E1E1E1E1DCE1E1E128E2E2E1E1E1E1E1E1E1E1E1E1E1E1E1E1E1E1E1E1E1E1E1E1E1E1E1E1E1E1E1E1E1E1E1E1E1E1E1E1E1E1E1E1E1E1E1E1E1E1E1E1E1E1E1E1E1E1E1E1E1E1E1E1E1E1E1E1E1E1E1E1E1E1E1E1E1E1E1E1E1E1E1E1E1E1E1DCE1E1E1E1E1E1E128E1E1E1E1E1E1E1E1E1E1E1E2E2E2E2E2
310
E2E2E2E2E2E2E2E2E2E2E2E1E1E1E1E1E1E1E1E1E1E1E1E1E1E1E1E1E1E1E1E1E1E1E1E1E1E1E1E1E1E1E1E1E1E1E1E1E1E1E1E1E1E1E1E1E1E1E1E1E1E1E1E1E1E1E1E1E1E1DCE1E1E1E1E1E1E1E1E1E1E1E1E1E1E1E1E1E1E1E1E1E1E1E1DC28E1E1E1E1E2E1E1E1E1E1E1E1E1E1E1E1E1E1E1E1E1E1E1E1E1E1E1E2E1E1
310
E1E1E128E1E1E1E1E1E1E1E1DCE1E1E128E2E2E1E1E1E1E1E1E1E1E1E1E1E1E1E1E1E1E1E1E1E1E1E1E1E1E1E1E1E1E1E1E1E1E1E1E1E1E1E1E1E1E1E1E1E1E1E1E1E1E1E1E1E1E1E1E1E1E1E1E1E1E1E1E1E1E1E1E1E1E1E1E1E1E1E1E1E1E1E1E1E1E1E1E1E1E1DCE1E1E1E1E1E1E128E1E1E1E1E1E1E1E1E1E1E1E2E1E1
310
E1E1E1E1BEBEE1E1E1E1E1E1E2E1E1E1E1E1E1E1E1E1E1E1E1E1E1E1E1E1E1E1E1E1E1E1E1E1E1E1E1E1E1E1E1E1E1E1E1E1E1E1E1E1E1E1E1E1E2E2E2E2E2E2E2E2E2E2E2E2E2E1DCE1E1E1E1E1E1E1E1E1E1E1E1E1E1E1E1E1E1E1E1E1E1E1E1DC28E1E1E1E1E2E1E1E1E1E1E1E1E1E1E1E1E1E1E1E1E1E1E1E1E1E1E1E2
310
E1E1E1E128E1E1E1E1E1E1E1E1E1DCE1E1E128E2E2E1E1E1E1E1E1E1E1E1E1E1E1E1E1E1E1E1E1E1E1E1E1E1E1E1E1E1E1E1E1E1E1E1E1E1E1E1E1E1E1E1E1E1E1E1E1E1E1E1E1E1E1E1E1E1E1E1E1E1E1E1E1E1E1E1E1E1E1E1E1E1E1E1E1E1E1E1E1E1E1E1E1E1E1E1DCE1E1E1E1E1E1E128E1E1E1E1E1E1E1E1E1E1E1E2
310
E1E1E1E1E1E1BEBEE1E1E1E1E1E1E2E1E1E1E1E1E1E1E1E1E1E1E1E1E1E1E1E1E1E1E1E1E1E1E1E1E2E2E2E2E2E2E2E2E2E2E2E2E2E2E2E2E2E2E2E2E2E2E2E2E2E2E2E2E1E1E1E1DCE1DCE1E1E1E1E1E1E1E1E1E1E1E1E1E1E1E1E1E1E1E1E1E1E1E1DC28E1E1BEBEE2E1E1E1E1E1E1E1E1E1E1E1E1E1E1E1E1E1E1E1E1E1
310
E1E2E1E1E1E128E1E1E1E1E1E1E1E1E1DCE1E1E128E2E2E1E1E1E1E1E1E1E1E1E1E1E1E1E1E1E1E1E1E1E1E1E1E1E1E1E1E1E1E1E1E1E1E1E1E1E1E1E1E1E1E1E1E1E1E1E1E1E1E1E1E1E1E1E1E1E1E1E1E1E1E1E1E1E1E1E1E1E1E1E1E1E1E1E1E1E1E1E1E1E1E1E1E1E1E1DCE1E1E1E1E1E1E128E1E1E1E1E1E1E1E1E1E1
310
E1E2E1E1E1E1E1E1E1E1E1E1E1E1E1E1E2E2E1E1E1E1E1E1E1E1E1E1E1E1E1E1E1E1E1E1E1E1E1E1E1BEBEBEBEBEBEBEBEBEBEBEBEE1E1E2E2E1E1E1E1E1E1E1E1E1E1E1E1E1E1E1E1DCE1E1DCE1E1E1E1E1E1E1E1E1E1E1E1E1E1E1E1E1E1E1E1E1E1E1E1DC28E1E1BEBEE2E1E1E1E1E1E1E1E1E1E1E1E1E1E1E1E1E1E1E1
310
E1E1E1E2E1E1E1E128E1E1E1E1E1E128282828E1E1E128E2E2E1E1E1E1E1E1E1E1E1E1E1E1E1E1E1E1E1E1E1E1E1E1E1E1E1E1E1E1E1E1E1E1E1E1E1E1E1E1E1E1E1E1E1E1E1E1E1E1E1E1E1E1E1E1E1E1E1E1E1E1E1E1E1E1E1E1E1E1E1E1E1E1E1E1E1E1E1E1E1E1E1E1E1E1E1DCE1E1E1E1E1E1E128E1E1E1E1E1E1E1E1
310
E1E1E1E2E1E1E1E1E1E1E1E1E1E1E1E1E1E1E2E2E2E2E2E2E2E2E2E2E2E2E2E2E2E2E2E2E2BEBEBEE2E2E2E2E2E2E2E2E2E2E2E2E2BEBEE2E2E2E2E1E1E1E1E1E1E1E1E1E1E1E1E1E1E1E1DCE1E1DCE1E1E1E1E1E1E1E1E1E1E1E1E1E1E1E1E1E1E1E1E1E1E1E1DC28E1E1BEBEBEE1E1E1E1E1E1E1E1E1E1E1E1E1E1E1E1E1
310
E1E1E1E1E1E2E1E1E1E128E1E1E1E12828E1E1E1DCE1E1E128E2E2E1E1E1E1E1E1E1E1E1E1E1E1E1E1E1E1E1E1E1E1E1E1E1E1E1E1E1E1E1E1E1E1E1E1E1E1E1E1E1E1E1E1E1E1E1E1E1E1E1E1E1E1E1E1E1E1E1E1E1E1E1E1E1E1E1E1E1E1E1E1E1E1E1E1E1E1E1E1E1E1E1E1E1E1E1DCE1E1E1E1E1E1E128E1E1E1E1E1E1
310
E1E1E1E1E1E2E1E1E1E1E1E1E1E1E1E1E1E1E1E1E2E1E1E1E1E1E1E1E1E1E1E1E1E1E1E1E1E1E1BEBEBEE1E1E2E1E1E1E1E2E1E1E1E1BEE1BEE1E1E1E2E1E1E1E1E1E1E1E1E1E1E1E1E1E1E1E1DCE1E1DCE1E1E1E1E1E1E1E1E1E1E1E1E1E1E1E1DCDCDCDCDCDCDCDCDCDCE2E2E2BEBEE2E2E2E2E2E1E1E1E1E1E1E1E1E1E1
310
E1E1E1E1E1E1E1E2E1E1E1DCDCDCDC2828DCDCDCDCDCDCE1E1E128E2E2E1E1E1E1E1E1E1E1E1E1E1E1E1E1E1E1E1E1E1E1E1E1E1E1E1E1E1E1E1E1E1E1E1E1E1E1E1E1E1E1E1E1E1E1E1E1E1E1E1E1E1E1E1E1E1E1E1E1E1E1E1E1E1E1E1E1E1E1E1E1E1E1E1E1E1E1E1E1E1E1E1E1E1E1E1DCE1E1E1E1E1E1E128E1E1E1E1
310
E1E1E1E1E1E1E1E2E1E1E1E1E1E1E1E1E1E1E1E1E1E1E2E1E1E1E1E1E1E1E1E1E1E1E1E1E1E1E1E1E1BEBEBEE1E2E2E1E1E1E2E1E1E1E1E1BEBEBEE1E1E1E2E1E1E1E1E1E1E1E1E1E1E1E1E1E1E1E1DCE1E1DCDCDCDCDCDCDCDCDCDCDCDCDCDCDCDCDCE1E1E1E1E1E1E1E1E1DC28E1BEBEBEE2E1E1E1E2E1E1E1E1E1E1E1E1
310
E1E1E1E1E1E1E1E1E1E2E1E1E1E128E12828E1E1E1E1E1E1DCE1E1E128E2E2E1E1E1E1E1E1E1E1E1E1E1E1E1E1E1E1E1E1E1E1E1E1E1E1E1E1E1E1E1E1E1E1E1E1E1E1E1E1E1E1E1E1E1E1E1E1E1E1E1E1E1E1E1E1E1E1E1E1E1E1E1E1E1E1E1E1E1E1E1E1E1E1E1E1E1E1E1E1E1E1E1E1E1E1E1DCE1E1E1E1E1E1E128E1E1
310
E1E1E1E1E1E1E1E1E1E2E1E1E1E1E1E1BEE1E1E1E1E1E1E1E2E1E1E1E1E1E1E1E1E1E1E1E1E1E1E1E1E1E1E1E1E2E1E2E1E1E1E2E1E1E1E1E1E1BEBEBEE1E1E1E2E1E1E1E1E2E1E1E1E1E1E1E1E1E1E1E1DCE1E1E1DCE1E1E1E1E1E1E1E1E1E1E1E1E1E1E1E1E1E1E1E1E1E1E1E1DC28E1BEBEBEE2E1E1E1E2E1E1E1E1E1E1
310
E1E1E1E1E1E1E1E1E1E1E1E2E1E1E1E1282828E1E1E1E1E1E1E1DCE1E1E128E2E2E1E1E1E1E1E1E1E1E1E1E1E1E1E1E1E1E1E1E1E1E1E1E1E1E1E1E1E1E1E1E1E1E1E1E1E1E1E1E1E1E1E1E1E1E1E1E1E1E1E1E1E1E1E1E1E1E1E1E1E1E1E1E1E1E1E1E1E1E1E1E1E1E1E1E1E1E1E1E1E1E1E1E1E1E1DCE1E1E1E1E1E1E128
310
E1E1E1E1E1E1E1E1E1E1E1E2E1E1E1E1E1E1BEBEE2E1E1E1E1E1E2E1E1E1E1E1E1E1E1E1E1E1E1E1E1E1E1E2BEBEE2E2E2E2E1E1E1E2E1E1E1E1E1E1BEBEBEE1E1E1E2E1E1E1E2BEBEE1E1E1E1E1E1E1E1E1E1DCE1E1E1E1DCE1E1E1E1E1E1E1E1E1E1E1E1E1E1E1E1E1E1E1E1E1E1E1DC28E1E1E1E1E2E1E1E1E2E1E1E1E1
310
E1E1E1E1E1E1E1E1E1E1E1E1E1E2E1E1E1E12828E1E1E1E1E1E1E1E1DCE1E1E128E2E2E1E1E1E1E1E1E1E1E1E1E1E1E1E1E1E1E1E1E1E1E1E1E1E1E1E1E1E1E1E1E1E1E1E1E1E1E1E1E1E1E1E1E1E1E1E1E1E1E1E1E1E1E1E1E1E1E1E1E1E1E1E1E1E1E1E1E1E1E1E1E1E1E1E1E1E1E1E1E1E1E1E1E1E1E1DCE1E1E1E1E1E1
310
E128E1E1E1E1E1E1E1E1E1E1E1E2E1E1E1E1E1BEBEBEBEE2E1E1E1E1E2E1E1E1E1E1E1E1E1E1E1E1E1E1E1E1E2BEBEBEBEE2E2E1E1E1E2BEE1E1E1E1E1E1BEBEBEE1E1E1E2E1E1E2BEBEBEE1E1E1E1E1E1E1E1E1E1DCE1E1E1E1DCE1E1E1E1E1E1E1E1E1E1E1E1BEBEBEBEBEBEE1E1E1E1E1DC28E1E1E1E1E2E1E1E1E2E1E1
310
E1E1E1E1E1E1E1E1E1E1E1E1E1E1E1E2E1E1E1E12828E1E1E1E1E1E1E1E1DCE1E1E128E2E2E1E1E1E1E1E1E1E1E1E1E1E1E1E1E1E1E1E1E1E1E1E1E1E1E1E1E1E1E1E1E1E1E1E1E1E1E1E1E1E1E1E1E1E1E1E1E1E1E1E1E1E1E1E1E1E1E1E1E1E1E1E1E1E1E1E1E1E1E1E1E1E1E1E1E1E1E1E1E1E1E1E1E1E1E1DCE1E1E1E1
310
E1E1E128E1E1E1E1E1E1E1E1E1E1E1E2E1E1E1E1E1E1E1BEBEE1E2E1E1E1E2E1E1E1E1E1E1E1E1E1E1E1E1E1E1E2E2BEBEBEE1E2E2E1E1E1BEBEBEE1E1E1E1E1BEE1BEE1E1E1E2E1E1BEBEBEE1E1E1E1E1E1E1E1E1E1E1DCE1E1E1E1DCE1E1E1E1E1E1E1E1E1E1E1E1BEBEBEBEBEBEE1E1E1E1E1DC28E1E1E1E1E2E1E1E1E2
310
E1E1E1E1E1E1E1E1E1E1E1E1E1E1E1E1E1E2E1E1E1E128E1E1E1E1E1E1E1E1E1DCE1E1E128E2E2E1E1E1E1E1E1E1E1E1E1E1E1E1E1E1E1E1E1E1E1E1E1E1E1E1E1E1E1E1E1E1E1E1E1E1E1E1E1E1E1E1E1E1E1E1E1E1E1E1E1E1E1E1E1E1E1E1E1E1E1E1E1E1E1E1E1E1E1E1E1E1E1E1E1E1E1E1E1E1E1E1E1E1E1E1DCE1E1
310
E1E1E1E1E128E1E1E1E1E1E1E1E1E1E1E1E2E1E1E1E1E1E1E1E1E1E1E1E2E2E1E2E1E1E1E1E1E1E1E1E1E1E1E1E1E1E2E1BEE1E1E2E2E1E1E1E2BEBEBEE1E1E1E1E1E1BEBEE1E1E1E2E1E2E1BEE1E1E1E1E1E1E1DCDCDCDCDCDCDCDCE1E1DCE1E1E1E1E1E1E1E1E1E1E1E1BEBEBEBEBEE1E1E1E1E1E1DC28E1E1E1E1E2E1E1
310
E1E2E1E1E1E1E1E1E1E1E1E1E1E1E1E1E1E1E1E2E1E1E1E128E1E1E1E1E1E1E1E1E1DCE1E1E128E2E2E1E1E1E1E1E1E1E1E1E1E1E1E1E1E1E1E1E1E1E1E1E1E1E1E1E1E1E1E1E1E1E1E1E1E1E1E1E1E1E1E1E1E1E1E1E1E1E1E1E1E1E1E1E1E1E1E1E1E1E1E1E1E1E1E1E1E1E1E1E1E1E1E1E1E1E1E1E1E1E1E1E1E1E1E1DC
310
E1E1E1E1E1E1E128E1E1E1E1E2E2E2E2E2E2E2E2E2E2E2E2E2E2E2E2E2E2E2E2E2E2E2E2E2E2E2E2E2E2E2E2E2E2E2E2E2E2E2E2E2E2E228282828E228282828282828282828BEDCE2DCE2E2DCDCDCDCDCDCDCDCDCDCE1E1E1E1E1E1DCE1E1E1DCE1E1E1E1E1E1E1E1E1E1E1E1E1E1E1E1E1E1E1E1E1E1E1DC28E1E1E1E1E2
310
E1E1E1E2E1E1E1E1E1E1E1E1E1E1E1E1E1E1E1E1E1E2E1E1E1E228E2E2E2E2E2E2E2E2E2E2E1E1E128E2E2E1E1E1E1E1E1E1E1E1E1E1E1E1E1E1E1E1E1E1E1E1E1E1E1E1E1E1E1E1E1E1E1E1E1E1E1E1E1E1E1E1E1E1E1E1E1E1E1E1E1E1E1E1E1E1E1E1E1E1E1E1E1E1E1E1E1E1E1E1E1E1E1E1E1E1E1E1E1E1E1E1E1E1E1
310
E1DCE1E1E1E1E1E1E128E1E1E1E1E2E1E1E1E1E1E1E2E1E1E1E1E1E1E1E1E1E1E1E1E1E1E2E2E2E2E2E2E2E2E2E2E2E2E2E2E2E2E2E2E2E2BEBEBEBEBEBEBEBEBEBEBEBEBEBEBEBEBE282828E2E1E1E1E1E1E1E1E1E1E1E1E1E1E1E1E1E1E1DCE1E1DCE1E1E1E1E1E1E1E1E1E1E1E1E1E1E1E1E1E1E1E1E1E1E1DC28E1E1E1
310
E1E2E1BEE1E2E1E1E1E1E1E1E1E1E1E1E1E1E1E1E1E1E1E2282828E228E2E2E2E2E2E2E2E2E228E1E1E128E2E2E1E1E1E1E1E1E1E1E1E1E1E1E1E1E1E1E1E1E1E1E1E1E1E1E1E1E1E1E1E1E1E1E1E1E1E1E1E1E1E1E1E1E1E1E1E1E1E1E1E1E1E1E1E1E1E1E1E1E1E1E1E1E1E1E1E1E1E1E1E1E1E1E1E1E1E1E1E1E1E1E1E1
310
E1E1E1DCE1E1E1E1E1E1E128E1E1E1E1E2E1E1E1E1E1E1E2E1E1E1E1E1E1E1E1E1E1E1E1E1E1E2E2E2E1E1E1E1E1E1E1E1E1E1E1E1E1E1E1E1E1E1E2E2E2E1E1E1E1E1E1E1E1E1E1E1E1E1E1E2E2E2E1E1E1E1E1E1E1E1E1E1E1E1E1E1E1E1E1E1DCE1E1DCE1E1E1E1E1E1E1E1E1E1E1E1E1E1E1E1E1E1E1E1E1E1E1DC28E1
310
E1E1E2E2E1BEBEE2E1E1E1E1E1E1E1E1E1E1E1E1E1E1E1E1E1E2E1E1E1E1E1E1E1E1E1E1E1E1E1E1DCE1E1E128E2E2E1E1E1E1E1E1E1E1E1E1E1E1E1E1E1E1E1E1E1E1E1E1E1E1E1E1E1E1E1E1E1E1E1E1E1E1E1E1E1E1E1E1E1E1E1E1E1E1E1E1E1E1E1E1E1E1E1E1E1E1E1E1E1E1E1E1E1E1E1E1E1E1E1E1E1E1E1E1E1E1
310
E1E1E1E1E1DCE1E1E1E1E1E1E128E1E1E1E1E2E1E1E1E1E1E1E2E1E1E1E1E1E1E1E1E1E1E1E1E1E1E2E1E1DCE1E1E1E1E1E1E1E1E1BEE1E1E1E1E1E1E1E1E1E2E2E1E1E1E1E1E1E1E1E1E1E1E1E1E1E128E1E1E1E1E1E1E1E1E1E1E1E1E1E1E1E1E1E1DCE1E1DCE1E1E1E1E1E1E1E1E1E1E1E1E2E2E2E2E2E2E2E2E2E2E2E2
310
E2E2E2E2E2E2E1BEBEE2E1E1E1E1E1E1E1E1E1E1E1E1E1E1E1E1E128E1E1E1E1E1E1E1E1E1E1E1E1E1E1DCE1E1E128E2E2E1E1E1E1E1E1E1E1E1E1E1E1E1E1E1E1E1E1E1E1E1E1E1E1E1E1E1E1E1E1E1E1E1E1E1E1E1E1E1E1E1E1E1E1E1E1E1E1E1E1E1E1E1E1E1E1E1E1E1E1E1E1E1E1E1E1E1E1E1E1E1E1E1E1E1E1E1E1
310
E1E1E1E1E1E1E1DCE1E1E1E1E1E1E128E1E1E1E1E2E1E1E1E1E1E1E2E1E1E1E1E1E1E1E1E1E1E1E1E1E1E2E1E1E1DCE1E1BEBEBEBEBEBEBEBEBEBEBEBEBEBEBEBEE1E1E1E1E1E1E1E1E1E1E1E1E1E1E1E1E128E1E1E1E1E1E1E1E1E1E1E1E1E1E1E1E1E1E1DCE1E1E2E2E2E2E2E2E2E2E2E2E2E2E2E2E2E2E2E2E2E2E2E1E1
310
E1E1E2E1E1E1E1E1E1E1E1E2E1E1E1E1E1E1E1E1E1E1E1E1E1E1E1E1E128E1E1E1E1E1E1E1E1E1E1E1E1E1E1DCE1E1E128E2E2E1E1E1E1E1E1E1E1E1E1E1E1E1E1E1E1E1E1E1E1E1E1E1E1E1E1E1E1E1E1E1E1E1E1E1E1E1E1E1E1E1E1E1E1E1E1E1E1E1E1E1E1E1E1E1E1E1E1E1E1E1E1E1E1E1E1E1E1E1E1E1E1E1E1E1E1
310
E1E1E1E1E1E1E1E1E1DCE1E1E1E1E1E1E128E1E1BEBEE2E1E1E1E1E1E1E2E1E1E1E1E1E1E1E1E1E1E1E1E1E1E2E1E1E1E1DCDCBEBEBEBEBEBEBEE1BEBEBEBEBEBEBEBEE1E1E1E1E1E1E1E1E1E1E1E1E1E1E1E1E128E1E1E1E1E1E1E1E1E1E1E1E1E1E1E1E1E1E1DCE1E1E2E22828282828E1E1E1E1E1E1E1E1E1E1E1E1E1E1
310
E1E1E1E1E2E1E1E1E1E1E1E1E1E2E1E1E1E1E1E1E1E1E1E1E1E1E1E1E1E1E128E1E1E1E1E1E1E1E1E1E1E1E1E1E1DCE1E1E128E2E2E1E1E1E1E1E1E1E1E1E1E1E1E1E1E1E1E1E1E1E1E1E1E1E1E1E1E1E1E1E1E1E1E1E1E1E1E1E1E1E1E1E1E1E1E1E1E1E1E1E1E1E1E1E1E1E1E1E1E1E1E1E1E1E1E1E1E1E1E1E1E1E1E1E1
310
E1E1E1E1E1E1E1E1E1E1E1DCE1E1E1E1E1E1E128E1E1BEBEE2E1E1E1E1E1E1E2E1E1E1E1E1E1E1E1E1E1E1E1E1E1E2E1E1E1E1E1E1DCDCDCDCDCDCDCDCDCDCDCDCDCDCDCDCDCDCDCE1E1E1E1E1E1E1E1E1E1E1E1E1E128E1E1E1E1E1E1E2E1E1E1E1E1E1E1E1E1E1E1DCE1E1E1E1E1E1E1E1E1E1E1E1E1E1E1E1E1E1E1E1E1
310
E1E1E1E1E1E1E2E1E1E1E1E1E1E1E1E2E1E1E1E1E1E1E1E1E1E1E1E1E1E1E1E1E128E1E1E1E1E1E1E1E1E1E1E1E1E1E1DCE1E1E128E2E2E1E1E1E1E1E1E1E1E1E1E1E1E1E1E1E1E1E1E1E1E1E1E1E1E1E1E1E1E1E1E1E1E1E1E1E1E1E1E1E1E1E1E1E1E1E1E1E1E1E1E1E1E1E1E1E1E1E1E1E1E1E1E1E1E1E1E1E1E1E1E1E1
310
E1E1E1E1E1E1E1E1E1E1E1E1E1DCE1E1E1E1E1E1E128E1E1BEBEE2E1E1E1E1E1E1E2E1E1E1E1E1E1E1E1E1E1E1E1E1E1E2E1E1E1E1E1E1BEBEBEBEBEBEBEBEBEBEBEBEE1BEBEBEBEBEBEE1E1E1E1E1E1E1E1E1E1E1E1E1E128E1E1E1E1E1E2E1E2E1E1E1E1E1E1E1E1E1E1DCE1E1E1E1E1E1E1E1E1E1E1E1E1E1E1E1E1E1E1
310
E1E1E1E1E1E1E1E1E2E1E1E1E1E1E1E1E1E2E1E1E1E1E1E1E1E1E1E1E1E1E1E1E1E1E128E1E1E1E1E1E1E1E1E1E1E1E1E1E1DCE1E1E128E2E2E1E1E1E1E1E1E1E1E1E1E1E1E1E1E1E1E1E1E1E1E1E1E1E1E1E1E1E1E1E1E1E1E1E1E1E1E1E1E1E1E1E1E1E1E1E1E1E1E1E1E1E1E1E1E1E1E1E1E1E1E1E1E1E1E1E1E1E1E1E1
310
E1E1E1E1E1E1E1E1E1E1E1E1E1E1E1DCE1E1E1E1E1E1E128E1E1E1E1E2E1E1E1E1E1E1E2E1E1E1E1E1E1E1E1E1E1E1E2E2E2E2E2E2E2BEBEE2E1BEBEE1E1BEBEE1E1BEE1E1E1BEBEBEBEBEE1E1E1E1E1E1E1E1E1E1E1E1E1E1E128E1E1E1E1E2E1E1E1E2E1E1E1E1E1E1E1E1E1DCE1E1E1E1E1E1E1E1E1E1E1E1E1E1E1E1E1
310
E1E1E1E1E1E1E1E1E1E1E2E1E1E1E1E1E1E1E1E2E1E1E1E1E1E1E1E1E1E1E1E1E1E1E1E1E128E1E1E1E1E1E1E1E1E1E1E1E1E1E1DCE1E1E128E2E2E1E1E1E1E1E1E1E1E1E1E1E1E1E1E1E1E1E1E1E1E1E1E1E1E1E1E1E1E1E1E1E1E1E1E1E1E1E1E1E1E1E1E1E1E1E1E1E1E1E1E1E1E1E1E1E1E1E1E1E1E1E1E1E1E1E1E1E1
310
E1E1E1E1E1E1E1E1E1E1E1E1E1E1E1E1E1DCE1E1E1E1E1E1E128E1E1E1E1E2E1E1E1E1E1E1E2E1E1E1E1E1E1E1E1E1E1E1E1E1E1E2E1E1E1BEBEBEE1E1E1E1E1E1E1E1E1E1E1E1E1E1E1E1E1E1E1E1E1E1E1E1E1E1E1E1E1E1E1E1E128E1E1E1E2E1E1E1E1E1E2E2E2E2E2E2E2E2E2E2E1E1E1E1E1E1E1E1E1E1E1E1E1E1E1
310
E1E1E1E1E1E1E1E1E1E1E1E1E2E1E1E1E1E1E1E1E1E2E1E1E1E1E1E1E1E1E1E1E1E1E1E1E1E1E128E1E1E1E1E1E1E1E1E1E1E1E1E1E1DCE1E1E128E1DCE1E1E1E1E1E1E1E1E1E1E1E1E1E1E1E1E1E1E1E1E1E1E1E1E1E1E1E1E1E1E1E1E1E1E1E1E1E1E1E1E1E1E1E1E1E1E1E1E1E1E1E1E1E1E1E1E1E1E1E1E1E1E1E1E1E1
310
E1E1E1E1E1E1E1E1E1E1E1E1E1E1E1E1E1E1E1DCE1E1E1E1E1E1E128E1E1E1E1E2E1E1E1E1E1E1E2E1E1E1E1E1E1E1E1E1E1E1E1E1E1E2E1E1BEBEBEBEE1E1E1E1E1E1DCE1E1E1E1E1E1E1E1E1E1E1E1E1E1E1E1E1E1E1E1E1E1E1E1E1E1E2E2E2E2E2E2E2E2E2E2E2E2E2E2E2E2E2DCE1E1E1E1E1E1E1E1E1E1E1E1E1E1E1
310
E1E1E1E1E1E1E1E1E1E1E1E1E1E1E2E1E1E1E1E1E1E1E1E2E1E1E1E1E1E1E1E1E1E1E1E1E1E1E1E1E128E1E1E1E1E1E1E1E1E1E1E1E1E1E1DCE1E1E128E1DCE1E1E1E1E1E1E1E1E1E1E1E1E1E1E1E1E1E1E1E1E1E1E1E1E1E1E1E1E1E1E1E1E1E1E1E1E1E1E1E1E1E1E1E1E1E1E1E1E1E1E1E1E1E1E1E1E1E1E1E1E1E1E1E1
310
E1E1E1E1E1E1E1E1E1E1E1E1E1E1E1E1E1E1E1E1E1DCE1E1E1E1E1E1E128E1E1E1E1E2E2E2E2E2E2E2E2E2E2E2E2E2E2E2E2E2E2E2E2E2E2E2282828282828282828282828DC2828282828282828282828E2E2E2E2E2E2E2E2E2E2E2E2E2E2E2E2E2E2E2E2E2E2E2E2E2E2E2E2E2E2E2E2E2E2E2E2E2E2E2E2E2E2E2E2E2E2
310
E2E2E2E2E2E2E2E2E2E2E2E2E2E2E2E2E2E2E2E2E2E2E2E2E2E2E1E1E1E1E1E1E1E1E1E1E1E1E1E1E1E1E1E2E2E2E2E2E2E2E2E2E2E2E2E2E2E2DCE1E1E128E1DCE1E1E1E1E1E1E1E1E1E1E1E1E1E1E1E1E1E1E1E1E1E1E1E1E1E1E1E1E1E1E1E1E1E1E1E1E1E1E1E1E1E1E1E1E1E1E1E1E1E1E1E1E1E1E1E1E1E1E1E1E1E1
310
E1E1E1E1E1E1E1E1E1E1E1E1E1E1E1E1E1E1E1E1E1E1E1DCE1E1E1E1E1E1E128E1E1E1E1E2E2E2E2E2E2E2E2E2E2E2E2E2E2E2E2E2E2E2E2E2E228282828282828282828282828282828282828282828282828E2E2E2E2E2E2E2E2E2E2E2E2E2E2E2E2E2E2E1E1E1E1E1E1E1E2E1E1E2E1E1E1E1E1DCDCE1E1E1E1E1E1E1E1
310
E1E1E1E1E1E1E1E1E1E1E1E1E1E1E1E1E1E1E2E1E1E1E1E1E1E1E1E1E1E1E1E1E128282828282828DCDC282828E2E2E2E2E2E2E2E2E2E2E2E2E2E2E228E1E1E128E1DCE1E1E1E1E1E1E1E1E1E1E1E1E1E1E1E1E1E1E1E1E1E1E1E1E1E1E1E1E1E1E1E1E1E1E1E1E1E1E1E1E1E1E1E1E1E1E1E1E1E1E1E1E1E1E1E1E1E1E1E1
310
E1E1E1E1E1E1E1E1E1E1E1E1E1E1E1E1E1E1E1E1E1E1E1E1E1DCE1E1E1E1E1E1E128E1E1E1E1E2E1E1E1E1E1E1E1E1E1E1E1E2E1E1E1E1DCDCDCE1E1E1E1E1E1E1E1E1E1E1E1E1E1DCDC28E1E1E1E1E1E1E1E1E1E1E1E1E1DCDCDCE1E1E1E1E1E1E1E1E1E1E1E2E2E1E1E1E1E1E1E2E1E1BEE2E1E1E1E1E1E1DCE1E1BEBEBE
310
BEBEBEBEBEE1BEBEBEBEBEBEBEE1E1E1E1E1E1E1E2E1E1E1E1E1E1E1E1E1E1E1E1E1E128E1E1E1E1E1E1DCDC28E1E1E1E1E1E1DCDCDCE1E1E1E1E1E1E1E1DCE1E1E128E1DCE1E1E1E1E1E1E1E1E1E1E1E1E1E1E1E1E1E1E1E1E1E1E1E1E1E1E1E1E1E1E1E1E1E1E1E1E1E1E1E1E1E1E1E1E1E1E1E1E1E1E1E1E1E1E1E1E1E1
310
E1E1E1E1E1E1E1E1E1E1E1E1E1E1E1E1E1E1E1E1E1E1E1E1E1E1E1DCE1E1E1E1E1E1E128E1E1E1E1E2E1E1E1E1E1E1E1E1E1E1E1E2E1E1E1E1DCDCDCE1E1E1E1E1E1E1E1E1E1E1E1E1E1DCDC28E1E1E1E1E1E1E1E1E1E1E1E1E1DCDCDCE1E1E1E1E1E1E1E1E1E1E1E1E2E2E1E1E1E1E2BEBEBEBEBEE2E1E1E1E1E1E1DCDCBE
310
BEBEBEBEBEBEBEBEBEBEBEBEBEBEBEE1E1E1E1E1E1E1E2E1E1E1E1E1E1E1E1E1E1E1E1E1E128E1E1E1E1E1E1DCDC28E1E1E1E1E1E1DCDCDCE1E1E1E1E1E1E1E1DCE1E1E128E1DCE1E1E1E1E1E1E1E1E1E1E1E1E1E1E1E1E1E1E1E1E1E1E1E1E1E1E1E1E1E1E1E1E1E1E1E1E1E1E1E1E1E1E1E1E1E1E1E1E1E1E1E1E1E1E1E1
310
E1E1E1E1E1E1E1E1E1E1E1E1E1E1E1E1E1E1E1E1E1E1E1E1E1E1E1E1E1DCE1E1E1E1E1E1E128E1E1E1BEE2E1E1E1E1E1E1E1E1E1E1E1E2E1E1E1E1DCDCDCE1E1E1E1E1E1E1E1E1E1E1E1E1E1DCDC28E1E1E1E1E1E1E1E1E1E1E1E1E1DCDCDCE1E1E1E1E1E1E1E1E1E1E1E1E1E2E2E1E1E1E2BEBEE1BEBEBEE2E1E1E1E1E1E1
310
E1DCDCBEDCBEDCDCDCBEBEBEBEBEBEBEBEDCE1E1E1E1E1E1E2E1E1E1E1E1E1E1E1E1E1E1E1E1E128E1E1E1E1E1E1DCDC28E1E1E1E1E1E1DCDCDCE1E1E1E1E1E1E1E1DCE1E1E128E1DCE1E1E1E1E1E1E1E1E1E1E1E1E1E1E1E1E1E1E1E1E1E1E1E1E1E1E1E1E1E1E1E1E1E1E1E1E1E1E1E1E1E1E1E1E1E1E1E1E1E1E1E1E1E1
310
E1E1E1E1E1E1E1E1E1E1E1E1E1E1E1E1E1E1E1E1E1E1E1E1E1E1E1E1E1E1E1DCE1E1E1E1E1E1E128E1E1BEBEE2E1E1E1E1E1E1E1E1E1E1E1E2E1E1E1E1DCDCDCE1E1E1E1E1E1E1E1E1E1E1E1E1E1DCDC28E1E1E1E1E1E1E1E1E1E1E1E1E1DCDCDCE1E1E1E1E1E1E1E1E1E1E1E1E1E1E2E2E1E2E2BEBEE1E1BEE1E1E2E1E1E1
310
E1E1E1BEBEBEBEBEBEBEBEBEBEE1BEBEBEBEBEBEE1E1E1E1E1E1E2E1E1E1E1E1E1E1E1E1E1E1E1E1E128E1E1E1E1E1E1DCDC28E1E1E1E1E1E1DCDCDCE1E1E1E1E1E1E1E1DCE1E1E128E1DCE1E1E1E1E1E1E1E1E1E1E1E1E1E1E1E1E1E1E1E1E1E1E1E1E1E1E1E1E1E1E1E1E1E1E1E1E1E1E1E1E1E1E1E1E1E1E1E1E1E1E1E1
310
E1E1E1E1E1E1E1E1E1E1E1E1E1E1E1E1E1E1E1E1E1E1E1E1E1E1E1E1E1E1E1E1E1DCE1E1E1E1E1E1E128E1E1E1E1E2E1E1E1E1E1E1E1E1E1E1E1E2E1E1E1E1DC2828E1E1E1E1E1E1E1E1E1E1E1E1E1E1282828E1E1E1E1E1E1E1E1E1E1E1E1E1282828E1E1E1E1E1E1E1E1E1E1E1E1E1E1E1E2E2E1E1E1E1E1E1E1E1E1E1E2
310
E1E1E1E1E1E1BEBEBEBEBEBEBEBEBEBEBEBEBEBEBEBEE1E1E1E1E1E1E2E1E1E1E1E1E1E1E1E1E1E1E1E1E128E1E1E1E1E1E128DC28E1E1E1E1E1E1282828E1E1E1E1E1E1E1E1DCE1E1E128E1DCE1E1E1E1E1E1E1E1E1E1E1E1E1E1E1E1E1E1E1E1E1E1E1E1E1E1E1E1E1E1E1E1E1E1E1E1E1E1E1E1E1E1E1E1E1E1E1E1E1E1
310
E1E1E1E1E1E1E1E1E1E1E1E1E1E1E1E1E1E1E1E1E1E1E1E1E1E1E1E1E1E1E1E1E1E1E1DCE1E1E1E1E1E1E128E1E1E1E1E1E1E1E1E1E1E1E1E1E1E1E1E2E1E1E1E1DCDCE1E1E1E1E1E1E1E1E1E1E1E1E1E1E1E1E2E1E1E1E1E1E1E1E1E1E1E1E1E1E1E1DCE1E1E1E1E1E1E1E1E1E1E1E1E1E1E1E1E1E2E2E1E1E1E1E1E1E2E1
310
E1E1E2E1E1E1E1E1E1E1E1E1E1E1E1E1E1E1E1E1E1E1E1E1E1E1E1E1E1E1E2E1E1E1E1E1E1E1E1E1E1E1E1E1E128E1E1E1E1E1E1E1DCE1E1E1E1E1E1E1E1DCE1E1E1E1E1E1E1E1E1DCE1E1E128E1DCE1E1E1E1E1E1E1E1E1E1E1E1E1E1E1E1E1E1E1E1E1E1E1E1E1E1E1E1E1E1E1E1E1E1E1E1E1E1E1E1E1E1E1E1E1E1E1E1
310
E1E1E1E1E1E1E1E1E1E1E1E1E1E1E1E1E1E1E1E1E1E1E1E1E1E1E1E1E1E1E1E1E1E1E1E1E1DCE1E1E1E1E1E1E128E1E1E1E1E1E1E1E1E1E1E1E1E1E1E1E1E2E1E1E1E1DCE1E1E1E1E1E1E1E1E1E1E1E1E1E1E1E1E1E2E1E1E1E1E1E1E1E1E1E1E1E1E1E1E1E1E1E1E1E1E1E1E1E1E1E1E1E1E1E1E1E1E1E1E2E2E1E1E1E1E2
310
E1E2E1E1E1E2E1E1E1E1E1E1E1E1E1E1E1E1E1E1E1E1E1E1E1E1E1E1E1E1E1E1E2E1E1E1E1E1E1E1E1E1E1E1E1E1E128E1E1E1E1E1E1E1DCE1E1E1E1E1E1E1E1E1E1E1E1E1E1E1E1E1E1DCE1E1E128E1DCE1E1E1E1E1E1E1E1E1E1E1E1E1E1E1E1E1E1E1E1E1E1E1E1E1E1E1E1E1E1E1E1E1E1E1E1E1E1E1E1E1E1E1E1E1E1
310
E1E1E1E1E1E1E1E1E1E1E1E1E1E1E1E1E1E1E1E1E1E1E1E1E1E1E1E1E1E1E1E1E1E1E1E1E1E1E1DCE1E1E1E1E1E1E128E1E1E1E1E1E1E2E2E2E2E2E2E2E1E1E1E2E1E1E1DCE1E1E1E1E1E1E1E1E1E1E1E1E1E1E1E1E1E1E2E1E1E1E1E1E1E1E1E1E1E1E1E1E1E1E1E1E1E1E1E1E1E1E1E1E1E1E1E1E1E1E1E1E1E1E2E2E1E1
310
E2E1E1BEBEE1E1E1E2E1E1E1E1E1E1E1E1E1E1E1E1E1E1E1E1E1E1E1E1E1E1E1E1E1E2E1E1E1E1E1E1E1E1E1E1E1E1E1E128E1E1E1E1E1E1E1DCE1E1E1E1E1E1E1E1E1E1E1E1E1E1E1E1E1E1DCE1E1E128E1DCE1E1E1E1E1E1E1E1E1E1E1E1E1E1E1E1E1E1E1E1E1E1E1E1E1E1E1E1E1E1E1E1E1E1E1E1E1E1E1E1E1E1E1E1
310
E1E1E1E1E1E1E1E1E1E1E1E1E1E1E1E1E1E1E1E1E1E1E1E1E1E1E1E1E1E1E1E1E1E1E1E1E1E1E1E1E1DCE1E1E1E1E1E1E128E1E1E1E1E1E1E2BEBEE1BEBEE2E2E2E2E2E1E1E1DCE1E1E1E1E1E1E1E1E1E1E1E1E1E1E1E1E1E1E2E1E1E1E1E1E1E1E1E1E1E1E1E1E1E1E1E1E1E1E1E1E1E1E1E1E1E1E1E1E1E1E1E1E1E1E128
310
E2E2E1E1BEBEBEE2E1E1E1E2E1E1E1E1E1E1E1E1E1E1E1E1E1E1E1E1E1E1E1E1E1E1E1E1E2E1E1E1E1E1E1E1E1E1E1E1E1E1E128E1E1E1E1E1E1DCDCE1E1E1E1E1E1E1E1E1E1E1E1E1E1E1E1E1E1DCE1E1E128E1DCE1E1E1E1E1E1E1E1E1E1E1E1E1E1E1E1E1E1E1E1E1E1E1E1E1E1E1E1E1E1E1E1E1E1E1E1E1E1E1E1E1E1
310
E1E1E1E1E1E1E1E1E1E1E1E1E1E1E1E1E1E1E1E1E1E1E1E1E1E1E1E1E1E1E1E1E1E1E1E1E1E1E1E1E1E1E1DCE1E1E1E1E1E1E128E1E1E1E1E1E1E2BEBEBEE2BEE2E1E1E1E1E1E1E1DCE1E1E1E1E1E1E1E1E1E1E1E1E1E1E1E1E1E1E2E1E1E1E1E1E1E1E1E1E1E1E1E1E1E1E1E1E1E1E1E1E1E1E1E1E1E1E1E1E1E1E1E1E1E1
310
28E1E228E2E1E1BEBEE1E2E1E2E1E1E1E1E1E1E1E1E1E1E1E1E1E1E1E1E1E1E1E1E1E1E1E1E1E2E1E1E1E1E1E1E1E1E1E1E1E1E1E128E1E1E1E1E1DCDCDC28DCE1E1E1E1E1E1E1E1E1E1E1E1E1E1E1E1DCE1E1E128E1DCE1E1E1E1E1E1E1E1E1E1E1E1E1E1E1E1E1E1E1E1E1E1E1E1E1E1E1E1E1E1E1E1E1E1E1E1E1E1E1E1
310
E1E1E1E1E1E1E1E1E1E1E1E1E1E1E1E1E1E1E1E1E1E1E1E1E1E1E1E1E1E1E1E1E1E1E1E1E1E1E1E1E1E1E1E1E1DCE1E1E1E1E1E1E128E1E1E1E1E1E1E2E2E2E2E2E2E2E1E1E1E1E1E1E1DCE1E1E1E1E1E1E1E1E1E1E1E1E1E1E1E1E1E1E2E1E1E1E1E1E1E1E1E1E1E1E1E1E1E1E1E1E1E1E1E1E1E1E1E1E1E1E1E1E1E1E1E1
310
E128DCDC28E2E2E1E1E1E1E1E1E2E1E1E1E1E1E1E1E1E1E1E1E1E1E1E1E1E1E1E1E1E1E1E1E1E1E1E2E1E1E1E1E1E1E1E1E1E1E1E1E1E128E1E1E1E1E1E1DCDC28E1E1E1E1E1E1E1E1E1E1E1E1E1E1E1E1E1DCE1E1E128E1DCE1E1E1E1E1E1E1E1E1E1E1E1E1E1E1E1E1E1E1E1E1E1E1E1E1E1E1E1E1E1E1E1E1E1E1E1E1E1
310
E1E1E1E1E1E1E1E1E1E1E1E1E1E1E1E1E1E1E1E1E1E1E1E1E1E1E1E1E1E1E1E1E1E1E1E1E1E1E1E1E1E1E1E1E1E1E1DCE1E1E1E1E1E1E128E1E1E1E1E1E1E1E1E1E1E1E1E1E1E1E1E1E1E1E1DCE1E1E1E1E1E1E1E1E1E1E1E1E1E1E1E1E1E1E2E1E1E1E1E1E1E1E1E1E1E1E1E1E1E1E1E1E1E1E1E1E1E1E1E1E1E1E1E1E1E1
310
E1E128DCDC28E1E1E2E2E1E1E1E1E2E1E1E1E1E1E1E1E1E1E1E1E1E1E1E1E1E1E1E1E1E1E1E1E1E1E1E1E2E1E1E1E1E1E1E1E1E1E1E1E1E1E128E1E1E1E1E1E1282828E1E1E1E1E1E1E1E1E1E1E1E1E1E1E1E1E1DCE1E1E128E1DCE1E1E1E1E1E1E1E1E1E1E1E1E1E1E1E1E1E1E1E1E1E1E1E1E1E1E1E1E1E1E1E1E1E1E1E1
310
E1E1E1E1E1E1E1E1E1E1E1E1E1E1E1E1E1E1E1E1E1E1E1E1E1E1E1E1E1E1E1E1E1E1E1E1E1E1E1E1E1E1E1E1E1E1E1E1E1DCE1E1E1E1E1E1E128E1E1E1E1E1E1E1E1E1E1E1E1E1E1E1E1E1E1E1E1DCE1E1E1E1E1E1E1E1E1E1E1E1E1E1E1E1E1E1E2E1E1E1E1E1E1E1E1E1E1E1E1E1E1E1E1E1E1E1E1E1E1E1E1E1E1E1E1E1
310
E1E1E1E1282828E1E1E1E1E2E2E2E1E2E1E1E1E1E1BEBEBEBEBEBEBEBEBEBEBEBEBEBEBEBEE1E1E1E1E1E1E1E2E1E1E1E1E1E1E1E1E1E1E1E1E1E128E1E1E1E1E1DCDCDC28DCE1E1E1E1E1E1E1E1E1E1E1E1E1E1E1E1DCE1E1E128E1DCE1E1E1E1E1E1E1E1E1E1E1E1E1E1E1E1E1E1E1E1E1E1E1E1E1E1E1E1E1E1E1E1E1E1
310
E1E1E1E1E1E1E1E1E1E1E1E1E1E1E1E1E1E1E1E1E1E1E1E1E1E1E1E1E1E1E1E1E1E1E1E1E1E1E1E1E1E1E1E1E1E1E1E1E1E1E1DCE1E1E1E1E1E1E128E1E1E1E1E1E1E1E1E1E1E1E1E1E1E1E1E1E1E1E1DCE1E1E1E1E1E1E1E1E1E1E1E1E1E1E1E1E1E1E2E1E1E1E1E1E1E1E1E1E1E1E1E1E1E1E1E1E1E1E1E1E1E1E1E1E1E1
310
E1E1E1E1E1E1DC28E1E1E1E1E1E1E2E2DCDCDCE1E1E1E1BEBEBEBEBEBEBEE1BEBEBEBEBEBEBEBEE1E1E1E1E1E1E1E2E1E1E1E1E1E1E1E1E1E1E1E1E1E128E1E1E1E1E1E1DCDCE1E1E1E1E1E1E1E1E1E1E1E1E1E1E1E1E1E1DCE1E1E128E1DCE1E1E1E1E1E1E1E1E1E1E1E1E1E1E1E1E1E1E1E1E1E1E1E1E1E1E1E1E1E1E1E1
310
E1E1E1E1E1E1E1E1E1E1E1E1E1E1E1E1E1E1E1E1E1E1E1E1E1E1E1E1E1E1E1E1E1E1E1E1E1E1E1E1E1E1E1E1E1E1E1E1E1E1E1E1E1DCE1E1E1E1E1E1E128E1E1E1E1E1E1E1E1E1E1E1E1E1E1E1E1E1E1E1E1DCE1E1E1E1E1E1E1E1E1E1E1E1E1E1E1E1E1E1E2E1E1E1E1E1E1E1E1E1E1E1E1E1E1E1E1E1E1E1E1E1E1E1E1E1
310
E1E1E1E1E1E1E1E1E1E1E1E1E1E1E1E1E128E1E1E1DCDCDCDCDCDCDCDCDCDCDCDCDCDCDCDCDCDCDCDCDCE1E1E1E1E1E1E2E1E1E1E1E1E1E1E1E1E1E1E1E1E128282828282828282828282828282828282828282828282828282828E1E1E128E1DCE1E1E1E1E1E1E1E1E1E1E1E1E1E1E1E1E1E1E1E1E1E1E1E1E1E1E1E1E1E1
310
E1E1E1E1E1E1E1E1E1E1E1E1E1E1E1E1E1E1E1E1E1E1E1E1E1E1E1E1E1E1E1E1E1E1E1E1E1E1E1E1E1E1E1E1E1E1E1E1E1E1E1E1E1E1E1DCE1E1E1E1E1E1E128E1E1E1E1E1E1E1E1E1E1E1E1E1E1E1E1E1E1E1E1DCE1E1E1E1E1E1E1E1E1E1E1E1E1E1E1E1E1E1E2E1E1E1E1E1E1E1E1E1E1E1E1E1E1E1E1E1E1E1E1E1E1E1
310
E1E1E1E1E1E1E1E1E1E1E1E1E1E1E1E1E1E1E1E1E1E1E1E1E1E1E1BEBEBEBEBEBEBEE1E1E1E1E1E1E1E1E1E1E1E1E1E1E1E1E2E1E1E1E1E1E1E1E1E1E1E1E1E1E1E1E1E1E1E1E1E1E1E2E1E1E1E1E1E1E1E1E1E1E1E1E1E1E1E1E1E1DCE1E1E128E1DCE1E1E1E1E1E1E1E1E1E1E1E1E1E1E1E1E1E1E1E1E1E1E1E1E1E1E1E1
310
E1E1E1E1E1E1E1E1E1E1E1E1E1E1E1E1E1E1E1E1E1E1E1E1E1E1E1E1E1E1E1E1E1E1E1E1E1E1E1E1E1E1E1E1E1E1E1E1E1E1E1E1E1E1E1E1E1DCE1E1E1E1E1E1E128E1E1E1E1E1E1E1E1E1E1E1E1E1E1E1E1E1E1E1E1DCE1E1E1E1E1E1E1E1E1E1E1E1E1E1E1E1E1E1E2E1E1E1E1E1E1E1E1E1E1E1E1E1E1E1E1E1E1E1E1E1
310
E1E1E1E1E1E1E1E1E1E1E1E1E1E1E1E1E1E1E1E1E1E1E1E1E1E1E1E1E1BEBEBEBEBEBEBEE1E1E1E1E1E1E1E1E1E1E1E1E1E1E1E1E2E1E1E1E1E1E1E1E1E1E1E1E1E1E1E1E1E1E1E1E1E1E1E2E1E1E1E1E1E1E1E1E1E1E1E1E1E1E1E1E1E1E1E1E1E128E1DCE1E1E1E1E1E1E1E1E1E1E1E1E1E1E1E1E1E1E1E1E1E1E1E1E1E1
310
E1E1E1E1E1E1E1E1E1E1E1E1E1E1E1E1E1E1E1E1E1E1E1E1E1E1E1E1E1E1E1E1E1E1E1E1E1E1E1E1E1E1E1E1E1E1E1E1E1E1E1E1E1E1E1E1E1E1E1DCE1E1E1E1E1E1E128E1E1E1E1E1E1E1E1E1E1E1E1E1E1E1E1E1E1E1DCE1E1E1E1E1E1E1E1E1E1E1E1E1E1E1E1E1E1E1E2E2E2E2E2E2E2E2E2E2E2E2E2E2E2E2E2E2E2E2
310
E2E2E2E2E2E2E2E2E2E2E2E2E2E2E2E2E2E2E2E2E2E2E2E2E2E2E2E2E2E2E2E2E2E2E2E2E2E2E2E2E2E2E2E2E2E2E2E2E2E2E2E2E2E2E2E1E1E1E1E1E1E1E1E1E1E1E1E1E1E1E1E1E1E1E1E1E1E2E1E1E1E1E1E1E1E1E1E1E1E1E1E1E1E1E1E1E1E1E1E128E1DCE1E1E1E1E1E1E1E1E1E1E1E1E1E1E1E1E1E1E1E1E1E1E1E1
310
E1E1E1E1E1E1E1E1E1E1E1E1E1E1E1E1E1E1E1E1E1E1E1E1E1E1E1E1E1E1E1E1E1E1E1E1E1E1E1E1E1E1E1E1E1E1E1E1E1E1E1E1E1E1E1E1E1E1E1E1E1DCE1E1E1E1E1E1E128E1E1E1E1E1E1E1E1E1E1E1E1E1E1E1E1E1E1E1DCE1E1E1E1E1E1E1E1E1E1E1E1E1E1E1E1E1E1E1E1E1E1E1E1E1E1E1E1E1E1E1E1E1E1E1E1E1
310
E1E1E1E1E1E1E1E1E1E1E1E1E1E1E1E1E1BEBEBEBEE1E1E1E1E1E1E1E1E1E1E1E1E1E1E1E1E1E1E1E1E1E1E1E1E1E1E1E1E1E1E1E1E1E1E1E1E1E1E1E1E1E1E1E1E1E1E1E1E1E1E1E1E1E1E1E1E1E1E2E1E1E1E1E1E1E1E1E1E1E1E1E1E1E1E1E1E1E1E1E1E128E1DCE1E1E1E1E1E1E1E1E1E1E1E1E1E1E1E1E1E1E1E1E1E1
310
E1E1E1E1E1E1E1E1E1E1E1E1E1E1E1E1E1E1E1E1E1E1E1E1E1E1E1E1E1E1E1E1E1E1E1E1E1E1E1E1E1E1E1E1E1E1E1E1E1E1E1E1E1E1E1E1E1E1E1E1E1E1E1DCE1E1E1E1E1E1E128E1E1E1E1E1E1E1E1E1E1E1E1E1E1E1E1E1E1E1DCE1E1E1E1E1E1E1E1E1E1E1E1E1E1E1E1E1E1E1E1E1E1E1E1E1E1E1E1E1E1E1E1E1E1E1
310
E1E1E1E1E1E1E1E1E1E1E1E1E1E1E1E1E1E1E1BEBEBEBEE1E1E1E1E1E1E1E1E1E1E1E1E1E1E1E1E1E1E1E1E1E1E1E1E1E1E1E1E1E1E1E1E1E1E1E1E1E1E1E1E1E1E1E1E1E1E1E1E1E1E1E1E1E1E1E1E1E1E2E1E1E1E1E1E1E1E1E1E1E1E1E1E1E1E1E1E1E1E1E1E128E1DCE1E1E1E1E1E1E1E1E1E1E1E1E1E1E1E1E1E1E1E1
310
E1E1E1E1E1E1E1E1E1E1E1E1E1E1E1E1E1E1E1E1E1E1E1E1E1E1E1E1E1E1E1E1E1E1E1E1E1E1E1E1E1E1E1E1E1E1E1E1E1E1E1E1E1E1E1E1E1E1E1E1E1E1E1E1E1DCE1E1E1E1E1E1E128E1E1E1E1E1E1E1E1E1E1E1E1E1E1E1E1E1E1E1DCE1E1E1E1E1E1E1E1E1E1E1E1E1E1E1E1E1E1E1E1E1E1E1E1E1E1E1E1E1E1E1E1E1
310
E1E1E1E1E1E1E1E1E1E1E1E1E1E1E1E1E1E1E1E1E1E1E1E1E1E1E1E1E1E1E1E1E1E1E1E1E1E1E1E1E1E1E1E1E1E1E1E1E1E1E1E1E1E1E1E1E1E1E1E1E1E1E1E1E1E1E1E1E1E1E1E1E1E1E1E1E1E1E1E1E1E1E1E2E1E1E1E1E1E1E1E1E1E1E1E1E1E1E1E1E1E1E1E1E1E128E1DCE1E1E1E1E1E1E1E1E1E1E1E1E1E1E1E1E1E1
310
E1E1E1E1E1E1E1E1E1E1E1E1E1E1E1E1E1E1E1E1E1E1E1E1E1E1E1E1E1E1E1E1E1E1E1E1E1E1E1E1E1E1E1E1E1E1E1E1E1E1E1E1E1E1E1E1E1E1E1E1E1E1E1E1E1E1E1DCE1E1E1E1E1E1E128E1E1E1E1E1E1E1E1E1E1E1E1E1E1E1E1E1E1E1DCDCDCDCDCDCDCDCDCDCDCDCDCDCDCDCDCDCDCDCDCDCDCDCDCDCDCDCDCDCDCDC
310
DCDCDCDCDCE1E1E1E1E1E1E1E1E1E1E1E1E1E1E1E1E1E1E1E1E1E1E1E1E1E1E1E1E1E1E1E1E1E1E1E1E1E1E1E1E1E1E1E1E1E1E1E1E1E1E1E1E1E1E1E1E1E1E1E1E1E1E1E1E1E1E1E1E1E1E1E1E1E1E1E1E1E1E1E1E2E1E1E1E1E1E1E1E1E1E1E1E1E1E1E1E1E1E1E1E1E1E128E1DCE1E1E1E1E1E1E1E1E1E1E1E1E1E1E1E1
310
E1E1E1E1E1E1E1E1E1E1E1E1E1E1E1E1E1E1E1E1E1E1E1E1E1E1E1E1E1E1E1E1E1E1E1E1E1E1E1E1E1E1E1E1E1E1E1E1E1E1E1E1E1E1E1E1E1E1E1E1E1E1E1E1E1E1E1E1E1DCE1E1E1E1E1E1E128E1E1E1E1E1E1E1E1E1E1E1E1E1E1E1E1E1E1E1E1BEBEBEBEBEBEBEBEBEBEBEBEBEBEBEBEBEBEBEBEBEBEBEBEBEBEBEBEE1
310
BEBEBEBEBEBEE1E1E1E1E1E1E1E1E1E1E1E1E1E1E1E1E1E1E1E1E1E1E1E1E1E1E1E1E1E1E1E1E1E1E1E1E1E1E1E1E1E1E1E1E1E1E1E1E1E1E1E1E1E1E1E1E1E1E1E1E1E1E1E1E1E1E1E1E1E1E1E1E1E1E1E1E1E1E1E1E1E2E2E2E2E2E2E2E2E2E2E2E2E2E2E2E2E2E2E2E2E2E2E128E1DCE1E1E1E1E1E1E1E1E1E1E1E1E1E1
310
E1E1E1E1E1E1E1E1E1E1E1E1E1E1E1E1E1E1E1E1E1E1E1E1E1E1E1E1E1E1E1E1E1E1E1E1E1E1E1E1E1E1E1E1E1E1E1E1E1E1E1E1E1E1E1E1E1E1E1E1E1E1E1E1E1E1E1E1E1E1E1DCE1E1E1E1E1E1E128E1E1E1E1E1E1E1E1E1E1E1E1E1E1E1E1E1E1E1E1BEBEE1BEE1BEE1BEE1BEE1E1E1BEBEE1E1BEBEBEBEBEBEBEBEE1BE
310
BEE1BEE1BEBEBEBEE1E1E1E1E1E1E1E1E1E1E1E1E1E1E1E1E1E1E1E1E1E1E1E1E1E1E1E1E1E1E1E1E1E1E1E1E1E1E1E1E1E1E1E1E1E1E1E1E1E1E1E1E1E1E1E1E1E1E1E1E1E1E1E1E1E1E1E1E1E1E1E1E1E1E1E1E1E1E1E1E1E2E2E1E1E1E1E1E1E1E1E1E1E1E1E1BEBEBEBEBEBEBEE128E1DCE1E1E1E1E1E1E1E1E1E1E1E1
310
E1E1E1E1E1E1E1E1E1E1E1E1E1E1E1E1E1E1E1E1E1E1E1E1E1E1E1E1E1E1E1E1E1E1E1E1E1E1E1E1E1E1E1E1E1E1E1E1E1E1E1E1E1E1E1E1E1E1E1E1E1E1E1E1E1E1E1E1E1E1E1E1E1DCE1E1E1E1E1E1E128E1E1E1E1E1E1E1E1E1E1E1E1E1E1E1E1E1E1E1E1E1E1E1E1E1E1E1E1E1E1E1E1E1E1E1E1E1E1E1E1E1E1E1E1E1
310
E1E1E1E1E1E1E1E1E1E1E1E1E1E1E1E1E1E1E1E1E1E1E1E1E1E1E1E1E1E1E1E1E1E1E1E1E1E1E1E1E1E1E1E1E1E1E1E1E1E1E1E1E1E1E1E1E1E1E1E1E1E1E1E1E1E1E1E1E1E1E1E1E1E1E1E1E1E1E1E1E1E1E1E1E1E1E1E1E1E1E1E1E1E1E1E1E1E1E1E1E1E1E1E1E1BEBEBEBEBEBEBEBEE128E1DCE1E1E1E1E1E1E1E1E1E1
310
E1E1E1E1E1E1E1E1E1E1E1E1E1E1E1E1E1E1E1E1E1E1E1E1E1E1E1E1E1E1E1E1E1E1E1E1E1E1E1E1E1E1E1E1E1E1E1E1E1E1E1E1E1E1E1E1E1E1E1E1E1E1E1E1E1E1E1E1E1E1E1E1E1E1E1DCE1E1E1E1E1E1E128E1E1E1E1E1E1E1E1E1E1E1E1E1E1E1E1E1E1E1E1E1E1E1E1E1E1E1E1E1E1E1E1E1E1E1E1E1E1E1E1E1E1E1
310
E1E1E1E1E1E1E1E1E1E1E1E1E1E1E1E1E1E1E1E1E1E1E1E1E1E1E1E1E1E1E1E1E1E1E1E1E1E1E1E1E1E1E1E1E1E1E1E1E1E1E1E1E1E1E1E1E1E1E1E1E1E1E1E1E1E1E1E1E1E1E1E1E1E1E1E1E1E1E1E1E1E1E1E1E1E1E1E1E1E1E1E1E1E1E1E1E1E1E1E1E1E1E1E1E1E1E1E1BEBEBEBEBEE1BEE128E1DCE1E1E1E1E1E1E1E1
310
E1E1E1E1E1E1E1E1E1E1E1E1E1E1E1E1E1E1E1E1E1E1E1E1E1E1E1E1E1E1E1E1E1E1E1E1E1E1E1E1E1E1E1E1E1E1E1E1E1E1E1E1E1E1E1E1E1E1E1E1E1E1E1E1E1E1E1E1E1E1E1E1E1E1E1E1E1DCE1E1E1E1E1E1E1282828282828282828282828282828282828282828282828282828282828282828282828282828282828
310
28282828282828282828282828282828282828282828282828282828282828282828282828282828282828E2282828282828282828282828282828282828282828282828282828282828282828282828282828282828282828282828282828282828282828282828282828282828282828282828282828E1DCE1E1E1E1E1E1
310
E1E1E1E1E1E1E1E1E1E1E1E1E1E1E1E1E1E1E1E1E1E1E1E1E1E1E1E1E1E1E1E1E1E1E1E1E1E1E1E1E1E1E1E1E1E1E1E1E1E1E1E1E1E1E1E1E1E1E1E1E1E1E1E1E1E1E1E1E1E1E1E1E1E1E1E1E1E1E1DCE1E1E1E1E1E1E1E1E1E1E1E1E1E1E1E1E1E1E1E1E1E1E1E1E1E1E1E1E1E1E1E1E1E1E1E1E1E1E1E1E1E1E1E1E1E1E1
310
E1E1E1E1E1E1E1E1E1E1E1E1E1E1E1E1E1E1E1E1E1E1E1E1E1E1E1E1E1E1E1E1E1E1E1E1E1E1E1E1E1E1E1E1E1E2E1E1E1E1E1E1E1E1E1E1E1E1E1E1E1E1E1E1E1E1E1E1E1E1E1E1E1E1E1E1E1E1E1E1E1E1E1E1E1E1E1E1E1E1E1E1E1E1E1E1E1E1E1E1E1E1E1E1E1E1E1E1E1E1E1E1E1E1E1E1E1E1E1E1E1E1DCE1E1E1E1
310
E1E1E1E1E1E1E1E1E1E1E1E1E1E1E1E1E1E1E1E1E1E1E1E1E1E1E1E1E1E1E1E1E1E1E1E1E1E1E1E1E1E1E1E1E1E1E1E1E1E1E1E1E1E1E1E1E1E1E1E1E1E1E1E1E1E1E1E1E1E1E1E1E1E1E1E1E1E1E1E1E1DCDCDCDCDCDCDCDCDCDCDCDCDCDCDCDCDCDCDCDCDCDCDCDCDCDCDCDCDCDCDCDCDCDCDCDCDCDCDCDCDCDCDCDCDCDC
310
DCDCDCDCDCDCDCDCDCDCDCDCDCDCDCDCDCDCDCDCDCDCDCDCDCDCDCDCDCDCDCDCDCDCDCDCDCDCDCDCDCDCDCDCDCDCDCE2DCDCDCDCDCDCDCDCDCDCDCDCDCDCDCDCDCDCDCDCDCDCDCDCDCDCDCDCDCDCDCDCDCDCDCDCDCDCDCDCDCDCDCDCDCDCDCDCDCDCDCDCDCDCDCDCDCDCDCDCDCDCDCDCDCDCDCDCDCDCDCDCDCDCDCDCDCE1E1
310
E1E1E1E1E1E1E1E1E1E1E1E1E1E1E1E1E1E1E1E1E1E1E1E1E1E1E1E1E1E1E1E1E1E1E1E1E1E1E1E1E1E1E1E1E1E1E1E1E1E1E1E1E1E1E1E1E1E1E1E1E1E1E1E1E1E1E1E1E1E1E1E1E1E1E1E1E1E1E1E1E1E1E1E1E1E1E1E1E1E1E1E1E1E1E1E1E1E1E1E1E1E1E1E1E1E1E1E1E1E1E1E1E1E1E1E1E1E1E1E1E1E1E1E1E1E1E1
310
E1E1E1E1E1E1E1E1E1E1E1E1E1E1E1E1E1E1E1E1E1E1E1E1E1E1E1E1E1E1E1E1E1E1E1E1E1E1E1E1E1E1E1E1E1E1E1E1E1E1E1E1E1E1E1E1E1E1E1E1E1E1E1E1E1E1E1E1E1E1E1E1E1E1E1E1E1E1E1E1E1E1E1E1E1E1E1E1E1E1E1E1E1E1E1E1E1E1E1E1E1E1E1E1E1E1E1E1E1E1E1E1E1E1E1E1E1E1E1E1E1E1E1E1E1E1E1
310
E1E1E1E1E1E1E1E1E1E1E1E1E1E1E1E1E1E1E1E1E1E1E1E1E1E1E1E1E1E1E1E1E1E1E1E1E1E1E1E1E1E1E1E1E1E1E1E1E1E1E1E1E1E1E1E1E1E1E1E1E1E1E1E1E1E1E1E1E1E1E1E1E1E1E1E1E1E1E1E1E1E1E1E1E1E1E1E1E1E1E1E1E1E1E1E1E1E1E1E1E1E1E1E1E1E1E1E1E1E1E1E1E1E1E1E1E1E1E1E1E1E1E1E1E1E1E1
310
E1E1E1E1E1E1E1E1E1E1E1E1E1E1E1E1E1E1E1E1E1E1E1E1E1E1E1E1E1E1E1E1E1E1E1E1E1E1E1E1E1E1E1E1E1E1E1E1E1E1E1E1E1E1E1E1E1E1E1E1E1E1E1E1E1E1E1E1E1E1E1E1E1E1E1E1E1E1E1E1E1E1E1E1E1E1E1E1E1E1E1E1E1E1E1E1E1E1E1E1E1E1E1E1E1E1E1E1E1E1E1E1E1E1E1E1E1E1E1E1E1E1E1E1E1E1E1
310
E1E1E1E1E1E1E1E1E1E1E1E1E1E1E1E1E1E1E1E1E1E1E1E1E1E1E1E1E1E1E1E1E1E1E1E1E1E1E1E1E1E1E1E1E1E1E1E1E1E1E1E1E1E1E1E1E1E1E1E1E1E1E1E1E1E1E1E1E1E1E1E1E1E1E1E1E1E1E1E1E1E1E1E1E1E1E1E1E1E1E1E1E1E1E1E1E1E1E1E1E1E1E1E1E1E1E1E1E1E1E1E1E1E1E1E1E1E1E1E1E1E1E1E1E1E1E1
310
E1E1E1E1E1E1E1E1E1E1E1E1E1E1E1E1E1E1E1E1E1E1E1E1E1E1E1E1E1E1E1E1E1E1E1E1E1E1E1E1E1E1E1E1E1E1E1E1E1E1E1E1E1E1E1E1E1E1E1E1E1E1E1E1E1E1E1E1E1E1E1E1E1E1E1E1E1E1E1E1E1E1E1E1E1E1E1E1E1E1E1E1E1E1E1E1E1E1E1E1E1E1E1E1E1E1E1E1E1E1E1E1E1E1E1E1E1E1E1E1E1E1E1E1E1E1E1
310
E1E1E1E1E1E1E1E1E1E1E1E1E1E1E1E1E1E1E1E1E1E1E1E1E1E1E1E1E1E1E1E1E1E1E1E1E1E1E1E1E1E1E1E1E1E1E1E1E1E1E1E1E1E1E1E1E1E1E1E1E1E1E1E1E1E1E1E1E1E1E1E1E1E1E1E1E1E1E1E1E1E1E1E1E1E1E1E1E1E1E1E1E1E1E1E1E1E1E1E1E1E1E1E1E1E1E1E1E1E1E1E1E1E1E1E1E1E1E1E1E1E1E1E1E1E1E1
310
E1E1E1E1E1E1E1E1E1E1E1E1E1E1E1E1E1E1E1E1E1E1E1E1E1E1E1E1E1E1E1E1E1E1E1E1E1E1E1E1E1E1E1E1E1E1E1E1E1E1E1E1E1E1E1E1E1E1E1E1E1E1E1E1E1E1E1E1E1E1E1E1E1E1E1E1E1E1E1E1E1E1E1E1E1E1E1E1E1E1E1E1E1E1E1E1E1E1E1E1E1E1E1E1E1E1E1E1E1E1E1E1E1E1E1E1E1E1E1E1E1E1E1E1E1E1E1
310
E1E1E1E1E1E1E1E1E1E1E1E1E1E1E1E1E1E1E1E1E1E1E1E1E1E1E1E1E1E1E1E1E1E1E1E1E1E1E1E1E1E1E1E1E1E1E1E1E1E1E1E1E1E1E1E1E1E1E1E1E1E1E1E1E1E1E1E1E1E1E1E1E1E1E1E1E1E1E1E1E1E1E1E1E1E1E1E1E1E1E1E1E1E1E1E1E1E1E1E1E1E1E1E1E1E1E1E1E1E1E1E1E1E1E1E1E1E1E1E1E1E1E1E1E1E1E1
310
E1E1E1E1E1E1E1E1E1E1E1E1E1E1E1E1E1E1E1E1E1E1E1E1E1E1E1E1E1E1E1E1E1E1E1E1E1E1E1E1E1E1E1E1E1E1E1E1E1E1E1E1E1E1E1E1E1E1E1E1E1E1E1E1E1E1E1E1E1E1E1E1E1E1E1E1E1E1E1E1E1E1E1E1E1E1E1E1E1E1E1E1E1E1E1E1E1E1E1E1E1E1E1E1E1E1E1E1E1E1E1E1E1E1E1E1E1E1E1E1E1E1E1E1E1E1E1
310
E1E1E1E1E1E1E1E1E1E1E1E1E1E1E1E1E1E1E1E1E1E1E1E1E1E1E1E1E1E1E1E1E1E1E1E1E1E1E1E1E1E1E1E1E1E1E1E1E1E1E1E1E1E1E1E1E1E1E1E1E1E1E1E1E1E1E1E1E1E1E1E1E1E1E1E1E1E1E1E1E1E1E1E1E1E1E1E1E1E1E1E1E1E1E1E1E1E1E1E1E1E1E1E1E1E1E1E1E1E1E1E1E1E1E1E1E1E1E1E1E1E1E1E1E1E1E1
310
E1E1E1E1E1E1E1E1E1E1E1E1E1E1E1E1E1E1E1E1E1E1E1E1E1E1E1E1E1E1E1E1E1E1E1E1E1E1E1E1E1E1E1E1E1E1E1E1E1E1E1E1E1E1E1E1E1E1E1E1E1E1E1E1E1E1E1E1E1E1E1E1E1E1E1E1E1E1E1E1E1E1E1E1E1E1E1E1E1E1E1E1E1E1E1E1E1E1E1E1E1E1E1E1E1E1E1E1E1E1E1E1E1E1E1E1E1E1E1E1E1E1E1E1E1E1E1
310
E1E1E1E1E1E1E1E1E1E1E1E1E1E1E1E1E1E1E1E1E1E1E1E1E1E1E1E1E1E1E1E1E1E1E1E1E1E1E1E1E1E1E1E1E1E1E1E1E1E1E1E1E1E1E1E1E1E1E1E1E1E1E1E1E1E1E1E1E1E1E1E1E1E1E1E1E1E1E1E1E1E1E1E1E1E1E1E1E1E1E1E1E1E1E1E1E1E1E1E1E1E1E1E1E1E1E1E1E1E1E1E1E1E1E1E1E1E1E1E1E1E1E1E1E1E1E1
310
E1E1E1E1E1E1E1E1E1E1E1E1E1E1E1E1E1E1E1E1E1E1E1E1E1E1E1E1E1E1E1E1E1E1E1E1E1E1E1E1E1E1E1E1E1E1E1E1E1E1E1E1E1E1E1E1E1E1E1E1E1E1E1E1E1E1E1E1E1E1E1E1E1E1E1E1E1E1E1E1E1E1E1E1E1E1E1E1E1E1E1E1E1E1E1E1E1E1E1E1E1E1E1E1E1E1E1E1E1E1E1E1E1E1E1E1E1E1E1E1E1E1E1E1E1E1E1
310
E1E1E1E1E1E1E1E1E1E1E1E1E1E1E1E1E1E1E1E1E1E1E1E1E1E1E1E1E1E1E1E1E1E1E1E1E1E1E1E1E1E1E1E1E1E1E1E1E1E1E1E1E1E1E1E1E1E1E1E1E1E1E1E1E1E1E1E1E1E1E1E1E1E1E1E1E1E1E1E1E1E1E1E1E1E1E1E1E1E1E1E1E1E1E1E1E1E1E1E1E1E1E1E1E1E1E1E1E1E1E1E1E1E1E1E1E1E1E1E1E1E1E1E1E1E1E1
310
E1E1E1E1E1E1E1E1E1E1E1E1E1E1E1E1E1E1E1E1E1E1E1E1E1E1E1E1E1E1E1E1E1E1E1E1E1E1E1E1E1E1E1E1E1E1E1E1E1E1E1E1E1E1E1E1E1E1E1E1E1E1E1E1E1E1E1E1E1E1E1E1E1E1E1E1E1E1E1E1E1E1E1E1E1E1E1E1E1E1E1E1E1E1E1E1E1E1E1E1E1E1E1E1E1E1E1E1E1E1E1E1E1E1E1E1E1E1E1E1E1E1E1E1E1E1E1
310
E1E1E1E1E1E1E1E1E1E1E1E1E1E1E1E1E1E1E1E1E1E1E1E1E1E1E1E1E1E1E1E1E1E1E1E1E1E1E1E1E1E1E1E1E1E1E1E1E1E1E1E1E1E1E1E1E1E1E1E1E1E1E1E1E1E1E1E1E1E1E1E1E1E1E1E1E1E1E1E1E1E1E1E1E1E1E1E1E1E1E1E1E1E1E1E1E1E1E1E1E1E1E1E1E1E1E1E1E1E1E1E1E1E1E1E1E1E1E1E1E1E1E1E1E1E1E1
310
E1E1E1E1E1E1E1E1E1E1E1E1E1E1E1E1E1E1E1E1E1E1E1E1E1E1E1E1E1E1E1E1E1E1E1E1E1E1E1E1E1E1E1E1E1E1E1E1E1E1E1E1E1E1E1E1E1E1E1E1E1E1E1E1E1E1E1E1E1E1E1E1E1E1E1E1E1E1E1E1E1E1E1E1E1E1E1E1E1E1E1E1E1E1E1E1E1E1E1E1E1E1E1E1E1E1E1E1E1E1E1E1E1E1E1E1E1E1E1E1E1E1E1E1E1E1E1
310
E1E1E1E1E1E1E1E1E1E1E1E1E1E1E1E1E1E1E1E1E1E1E1E1E1E1E1E1E1E1E1E1E1E1E1E1E1E1E1E1E1E1E1E1E1E1E1E1E1E1E1E1E1E1E1E1E1E1E1E1E1E1E1E1E1E1E1E1E1E1E1E1E1E1E1E1E1E1E1E1E1E1E1E1E1E1E1E1E1E1E1E1E1E1E1E1E1E1E1E1E1E1E1E1E1E1E1E1E1E1E1E1E1E1E1E1E1E1E1E1E1E1E1E1E1E1E1
310
E1E1E1E1E1E1E1E1E1E1E1E1E1E1E1E1E1E1E1E1E1E1E1E1E1E1E1E1E1E1E1E1E1E1E1E1E1E1E1E1E1E1E1E1E1E1E1E1E1E1E1E1E1E1E1E1E1E1E1E1E1E1E1E1E1E1E1E1E1E1E1E1E1E1E1E1E1E1E1E1E1E1E1E1E1E1E1E1E1E1E1E1E1E1E1E1E1E1E1E1E1E1E1E1E1E1E1E1E1E1E1E1E1E1E1E1E1E1E1E1E1E1E1E1E1E1E1
310
E1E1E1E1E1E1E1E1E1E1E1E1E1E1E1E1E1E1E1E1E1E1E1E1E1E1E1E1E1E1E1E1E1E1E1E1E1E1E1E1E1E1E1E1E1E1E1E1E1E1E1E1E1E1E1E1E1E1E1E1E1E1E1E1E1E1E1E1E1E1E1E1E1E1E1E1E1E1E1E1E1E1E1E1E1E1E1E1E1E1E1E1E1E1E1E1E1E1E1E1E1E1E1E1E1E1E1E1E1E1E1E1E1E1E1E1E1E1E1E1E1E1E1E1E1E1E1
310
E1E1E1E1E1E1E1E1E1E1E1E1E1E1E1E1E1E1E1E1E1E1E1E1E1E1E1E1E1E1E1E1E1E1E1E1E1E1E1E1E1E1E1E1E1E1E1E1E1E1E1E1E1E1E1E1E1E1E1E1E1E1E1E1E1E1E1E1E1E1E1E1E1E1E1E1E1E1E1E1E1E1E1E1E1E1E1E1E1E1E1E1E1E1E1E1E1E1E1E1E1E1E1E1E1E1E1E1E1E1E1E1E1E1E1E1E1E1E1E1E1E1E1E1E1E1E1
310
E1E1E1E1E1E1E1E1E1E1E1E1E1E1E1E1E1E1E1E1E1E1E1E1E1E1E1E1E1E1E1E1E1E1E1E1E1E1E1E1E1E1E1E1E1E1E1E1E1E1E1E1E1E1E1E1E1E1E1E1E1E1E1E1E1E1E1E1E1E1E1E1E1E1E1E1E1E1E1E1E1E1E1E1E1E1E1E1E1E1E1E1E1E1E1E1E1E1E1E1E1E1E1E1E1E1E1E1E1E1E1E1E1E1E1E1E1E1E1E1E1E1E1E1E1E1E1
310
E1E1E1E1E1E1E1E1E1E1E1E1E1E1E1E1E1E1E1E1E1E1E1E1E1E1E1E1E1E1E1E1E1E1E1E1E1E1E1E1E1E1E1E1E1E1E1E1E1E1E1E1E1E1E1E1E1E1E1E1E1E1E1E1E1E1E1E1E1E1E1E1E1E1E1E1E1E1E1E1E1E1E1E1E1E1E1E1E1E1E1E1E1E1E1E1E1E1E1E1E1E1E1E1E1E1E1E1E1E1E1E1E1E1E1E1E1E1E1E1E1E1E1E1E1E1E1
310
E1E1E1E1E1E1E1E1E1E1E1E1E1E1E1E1E1E1E1E1E1E1E1E1E1E1E1E1E1E1E1E1E1E1E1E1E1E1E1E1E1E1E1E1E1E1E1E1E1E1E1E1E1E1E1E1E1E1E1E1E1E1E1E1E1E1E1E1E1E1E1E1E1E1E1E1E1E1E1E1E1E1E1E1E1E1E1E1E1E1E1E1E1E1E1E1E1E1E1E1E1E1E1E1E1E1E1E1E1E1E1E1E1E1E1E1E1E1E1E1E1E1E1E1E1E1E1
310
E1E1E1E1E1E1E1E1E1E1E1E1E1E1E1E1E1E1E1E1E1E1E1E1E1E1E1E1E1E1E1E1E1E1E1E1E1E1E1E1E1E1E1E1E1E1E1E1E1E1E1E1E1E1E1E1E1E1E1E1E1E1E1E1E1E1E1E1E1E1E1E1E1E1E1E1E1E1E1E1E1E1E1E1E1E1E1E1E1E1E1E1E1E1E1E1E1E1E1E1E1E1E1E1E1E1E1E1E1E1E1E1E1E1E1E1E1E1E1E1E1E1E1E1E1E1E1
310
E1E1E1E1E1E1E1E1E1E1E1E1E1E1E1E1E1E1E1E1E1E1E1E1E1E1E1E1E1E1E1E1E1E1E1E1E1E1E1E1E1E1E1E1E1E1E1E1E1E1E1E1E1E1E1E1E1E1E1E1E1E1E1E1E1E1E1E1E1E1E1E1E1E1E1E1E1E1E1E1E1E1E1E1E1E1E1E1E1E1E1E1E1E1E1E1E1E1E1E1E1E1E1E1E1E1E1E1E1E1E1E1E1E1E1E1E1E1E1E1E1E1E1E1E1E1E1
310
E1E1E1E1E1E1E1E1E1E1E1E1E1E1E1E1E1E1E1E1E1E1E1E1E1E1E1E1E1E1E1E1E1E1E1E1E1E1E1E1E1E1E1E1E1E1E1E1E1E1E1E1E1E1E1E1E1E1E1E1E1E1E1E1E1E1E1E1E1E1E1E1E1E1E1E1E1E1E1E1E1E1E1E1E1E1E1E1E1E1E1E1E1E1E1E1E1E1E1E1E1E1E1E1E1E1E1E1E1E1E1E1E1E1E1E1E1E1E1E1E1E1E1E1E1E1E1
310
E1E1E1E1E1E1E1E1E1E1E1E1E1E1E1E1E1E1E1E1E1E1E1E1E1E1E1E1E1E1E1E1E1E1E1E1E1E1E1E1E1E1E1E1E1E1E1E1E1E1E1E1E1E1E1E1E1E1E1E1E1E1E1E1E1E1E1E1E1E1E1E1E1E1E1E1E1E1E1E1E1E1E1E1E1E1E1E1E1E1E1E1E1E1E1E1E1E1E1E1E1E1E1E1E1E1E1E1E1E1E1E1E1E1E1E1E1E1E1E1E1E1E1E1E1E1E1
310
E1E1E1E1E1E1E1E1E1E1E1E1E1E1E1E1E1E1E1E1E1E1E1E1E1E1E1E1E1E1E1E1E1E1E1E1E1E1E1E1E1E1E1E1E1E1E1E1E1E1E1E1E1E1E1E1E1E1E1E1E1E1E1E1E1E1E1E1E1E1E1E1E1E1E1E1E1E1E1E1E1E1E1E1E1E1E1E1E1E1E1E1E1E1E1E1E1E1E1E1E1E1E1E1E1E1E1E1E1E1E1E1E1E1E1E1E1E1E1E1E1E1E1E1E1E1E1
310
E1E1E1E1E1E1E1E1E1E1E1E1E1E1E1E1E1E1E1E1E1E1E1E1E1E1E1E1E1E1E1E1E1E1E1E1E1E1E1E1E1E1E1E1E1E1E1E1E1E1E1E1E1E1E1E1E1E1E1E1E1E1E1E1E1E1E1E1E1E1E1E1E1E1E1E1E1E1E1E1E1E1E1E1E1E1E1E1E1E1E1E1E1E1E1E1E1E1E1E1E1E1E1E1E1E1E1E1E1E1E1E1E1E1E1E1E1E1E1E1E1E1E1E1E1E1E1
310
E1E1E1E1E1E1E1E1E1E1E1E1E1E1E1E1E1E1E1E1E1E1E1E1E1E1E1E1E1E1E1E1E1E1E1E1E1E1E1E1E1E1E1E1E1E1E1E1E1E1E1E1E1E1E1E1E1E1E1E1E1E1E1E1E1E1E1E1E1E1E1E1E1E1E1E1E1E1E1E1E1E1E1E1E1E1E1E1E1E1E1E1E1E1E1E1E1E1E1E1E1E1E1E1E1E1E1E1E1E1E1E1E1E1E1E1E1E1E1E1E1E1E1E1E1E1E1
310
E1E1E1E1E1E1E1E1E1E1E1E1E1E1E1E1E1E1E1E1E1E1E1E1E1E1E1E1E1E1E1E1E1E1E1E1E1E1E1E1E1E1E1E1E1E1E1E1E1E1E1E1E1E1E1E1E1E1E1E1E1E1E1E1E1E1E1E1E1E1E1E1E1E1E1E1E1E1E1E1E1E1E1E1E1E1E1E1E1E1E1E1E1E1E1E1E1E1E1E1E1E1E1E1E1E1E1E1E1E1E1E1E1E1E1E1E1E1E1E1E1E1E1E1E1E1E1
310
E1E1E1E1E1E1E1E1E1E1E1E1E1E1E1E1E1E1E1E1E1E1E1E1E1E1E1E1E1E1E1E1E1E1E1E1E1E1E1E1E1E1E1E1E1E1E1E1E1E1E1E1E1E1E1E1E1E1E1E1E1E1E1E1E1E1E1E1E1E1E1E1E1E1E1E1E1E1E1E1E1E1E1E1E1E1E1E1E1E1E1E1E1E1E1E1E1E1E1E1E1E1E1E1E1E1E1E1E1E1E1E1E1E1E1E1E1E1E1E1E1E1E1E1E1E1E1
310
E1E1E1E1E1E1E1E1E1E1E1E1E1E1E1E1E1E1E1E1E1E1E1E1E1E1E1E1E1E1E1E1E1E1E1E1E1E1E1E1E1E1E1E1E1E1E1E1E1E1E1E1E1E1E1E1E1E1E1E1E1E1E1E1E1E1E1E1E1E1E1E1E1E1E1E1E1E1E1E1E1E1E1E1E1E1E1E1E1E1E1E1E1E1
  0
XRECORD
  5
198F
102
{ACAD_REACTORS
330
1476
102
}
330
1476
100
AcDbXrecord
280
     1
102
MATERIAL
148
0.0
149
0.0
149
0.0
 93
        0
 94
      127
282
     0
 72
     0
 77
     0
171
     0
175
     0
179
     0
273
     0
  0
XRECORD
  5
1478
102
{ACAD_REACTORS
330
1476
102
}
330
1476
100
AcDbXrecord
280
     1
270
     1
271
     1
  0
XRECORD
  5
1477
102
{ACAD_REACTORS
330
1476
102
}
330
1476
100
AcDbXrecord
280
     1
270
     1
271
     1
  0
XRECORD
  5
147B
102
{ACAD_REACTORS
330
1476
102
}
330
1476
100
AcDbXrecord
280
     1
270
     1
271
     1
  0
XRECORD
  5
147A
102
{ACAD_REACTORS
330
1476
102
}
330
1476
100
AcDbXrecord
280
     1
270
     1
271
     1
  0
XRECORD
  5
147C
102
{ACAD_REACTORS
330
1476
102
}
330
1476
100
AcDbXrecord
280
     1
270
     1
271
     1
  0
XRECORD
  5
1479
102
{ACAD_REACTORS
330
1476
102
}
330
1476
100
AcDbXrecord
280
     1
270
     1
271
     1
  0
XRECORD
  5
198E
102
{ACAD_REACTORS
330
146E
102
}
330
146E
100
AcDbXrecord
280
     1
102
MATERIAL
148
0.0
149
0.0
149
0.0
 93
        0
 94
      127
282
     0
 72
     0
 77
     0
171
     0
175
     0
179
     0
273
     0
  0
XRECORD
  5
1470
102
{ACAD_REACTORS
330
146E
102
}
330
146E
100
AcDbXrecord
280
     1
270
     1
271
     1
  0
XRECORD
  5
146F
102
{ACAD_REACTORS
330
146E
102
}
330
146E
100
AcDbXrecord
280
     1
270
     1
271
     1
  0
XRECORD
  5
1473
102
{ACAD_REACTORS
330
146E
102
}
330
146E
100
AcDbXrecord
280
     1
270
     1
271
     1
  0
XRECORD
  5
1472
102
{ACAD_REACTORS
330
146E
102
}
330
146E
100
AcDbXrecord
280
     1
270
     1
271
     1
  0
XRECORD
  5
1474
102
{ACAD_REACTORS
330
146E
102
}
330
146E
100
AcDbXrecord
280
     1
270
     1
271
     1
  0
XRECORD
  5
1471
102
{ACAD_REACTORS
330
146E
102
}
330
146E
100
AcDbXrecord
280
     1
270
     1
271
     1
  0
XRECORD
  5
1990
102
{ACAD_REACTORS
330
147E
102
}
330
147E
100
AcDbXrecord
280
     1
102
MATERIAL
148
0.0
149
0.0
149
0.0
 93
        0
 94
      127
282
     0
 72
     0
 77
     0
171
     0
175
     0
179
     0
273
     0
  0
XRECORD
  5
1480
102
{ACAD_REACTORS
330
147E
102
}
330
147E
100
AcDbXrecord
280
     1
270
     1
271
     1
  0
XRECORD
  5
147F
102
{ACAD_REACTORS
330
147E
102
}
330
147E
100
AcDbXrecord
280
     1
270
     1
271
     1
  0
XRECORD
  5
1483
102
{ACAD_REACTORS
330
147E
102
}
330
147E
100
AcDbXrecord
280
     1
270
     1
271
     1
  0
XRECORD
  5
1482
102
{ACAD_REACTORS
330
147E
102
}
330
147E
100
AcDbXrecord
280
     1
270
     1
271
     1
  0
XRECORD
  5
1484
102
{ACAD_REACTORS
330
147E
102
}
330
147E
100
AcDbXrecord
280
     1
270
     1
271
     1
  0
XRECORD
  5
1481
102
{ACAD_REACTORS
330
147E
102
}
330
147E
100
AcDbXrecord
280
     1
270
     1
271
     1
  0
ACAD_PROXY_OBJECT
  5
1984
102
{ACAD_REACTORS
330
16EF
102
}
330
16EF
100
AcDbProxyObject
 90
      499
 91
      597
 95
   131097
 70
     0
 93
     5304
310
40D054060020000020000003200101A000080002A5058000000C100000000000000340FD012E07A17AD46E2B8FCB81E85EB51B8AE3F2E07A17AD46E2B8FCB81E85EB51B8AE3F02B5E8DC0F42B1CFC0AD7A3703D0AC73F419019018000000C1003FBFFFFFE02B5E8DC0F42A9CFD029018000000C1003FBFFFFFE02B5E8DC0F4
310
2A9CFD049018000000C1003FBFFFFFE02B5E8DC0F42A9CFD089018000000C1003FBFFFFFE02B5E8DC0F42A9CFD109018000000C1003FBFFFFFE02B5E8DC0F42A9CFD209018000000C1003FBFFFFFE02B5E8DC0F42A9CFD01405075F5449544C450041501A8000000C800406800020000A9416000000304000AD7A3703D0AC7
310
3F404B81E85EB51B8AE3F2E07A17AD46E2B8FCB81E85EB51B8AE3F2E07A17AD46E2B8FC0AD7A3703D0AC73F02B5E8DC0F42B1CFD0640640600000030400FEFFFFFF80AD7A3703D0AA73F40A40600000030400FEFFFFFF80AD7A3703D0AA73F41240600000030400FEFFFFFF80AD7A3703D0AA73F42240600000030400FEFFF
310
FFF80AD7A3703D0AA73F44240600000030400FEFFFFFF80AD7A3703D0AA73F48240600000030400FEFFFFFF80AD7A3703D0AA73F409014217D2115051115480105406A0000003200101A000080002A5028000000C10002B5E8DC0F42B1CFD012E07A17AD46E2B8FCB81E85EB51B8AE3F2E07A17AD46E2B8FCB81E85EB51B8A
310
E3F02B5E8DC0F42B1CFC0AD7A3703D0AC73F419019018000000C1003FBFFFFFE02B5E8DC0F42A9CFD029018000000C1003FBFFFFFE02B5E8DC0F42A9CFD049018000000C1003FBFFFFFE02B5E8DC0F42A9CFD089018000000C1003FBFFFFFE02B5E8DC0F42A9CFD109018000000C1003FBFFFFFE02B5E8DC0F42A9CFD20901
310
8000000C1003FBFFFFFE02B5E8DC0F42A9CFD03409065F4441544100C8
340
C98
340
0
340
0
340
0
340
0
340
0
340
0
340
C98
340
0
340
0
340
0
340
0
340
0
340
0
340
C98
340
0
340
0
340
0
340
0
340
0
340
0
 94
        0
  0
XRECORD
  5
19B1
102
{ACAD_REACTORS
330
16EF
102
}
330
16EF
100
AcDbXrecord
280
     1
102
ACAD_ROUNDTRIP_PRE2007_TABLESTYLE
 90
      512
 91
        0
  1

 92
      512
 93
        0
  2

 94
      512
 95
        0
  3

  0
XRECORD
  5
199C
102
{ACAD_REACTORS
330
199B
102
}
330
199B
100
AcDbXrecord
280
     1
102
RTVSPropertyOp0
 70
     1
102
RTVSPropertyOp1
 70
     1
102
RTVSPropertyOp2
 70
     1
102
RTVSPropertyOp3
 70
     1
102
RTVSPropertyOp4
 70
     1
102
RTVSPropertyOp5
 70
     1
102
RTVSPropertyOp6
 70
     1
102
RTVSPropertyOp7
 70
     1
102
RTVSPropertyOp8
 70
     1
102
RTVSPropertyOp9
 70
     1
102
RTVSPropertyOp10
 70
     1
102
RTVSPropertyOp11
 70
     1
102
RTVSPropertyOp12
 70
     1
102
RTVSPropertyOp13
 70
     1
102
RTVSPropertyOp14
 70
     1
102
RTVSPropertyOp15
 70
     1
102
RTVSPropertyOp16
 70
     1
102
RTVSPropertyOp17
 70
     1
102
RTVSPropertyOp18
 70
     1
102
RTVSPropertyOp19
 70
     1
102
RTVSPropertyOp20
 70
     1
102
RTVSPropertyOp21
 70
     1
102
RTVSPropertyOp22
 70
     1
102
RTVSPropertyOp23
 70
     1
102
RTVSPropertyOp24
 70
     1
102
RTVSPropertyOp25
 70
     1
102
RTVSPropertyOp26
 70
     1
102
RTVSPropertyOp27
 70
     1
  0
XRECORD
  5
19A0
102
{ACAD_REACTORS
330
199F
102
}
330
199F
100
AcDbXrecord
280
     1
102
RTVSPropertyOp0
 70
     1
102
RTVSPropertyOp1
 70
     1
102
RTVSPropertyOp2
 70
     1
102
RTVSPropertyOp3
 70
     1
102
RTVSPropertyOp4
 70
     1
102
RTVSPropertyOp5
 70
     1
102
RTVSPropertyOp6
 70
     1
102
RTVSPropertyOp7
 70
     1
102
RTVSPropertyOp8
 70
     1
102
RTVSPropertyOp9
 70
     1
102
RTVSPropertyOp10
 70
     1
102
RTVSPropertyOp11
 70
     1
102
RTVSPropertyOp12
 70
     1
102
RTVSPropertyOp13
 70
     1
102
RTVSPropertyOp14
 70
     1
102
RTVSPropertyOp15
 70
     1
102
RTVSPropertyOp16
 70
     1
102
RTVSPropertyOp17
 70
     1
102
RTVSPropertyOp18
 70
     1
102
RTVSPropertyOp19
 70
     1
102
RTVSPropertyOp20
 70
     1
102
RTVSPropertyOp21
 70
     1
102
RTVSPropertyOp22
 70
     1
102
RTVSPropertyOp23
 70
     1
102
RTVSPropertyOp24
 70
     1
102
RTVSPropertyOp25
 70
     1
102
RTVSPropertyOp26
 70
     1
102
RTVSPropertyOp27
 70
     1
  0
XRECORD
  5
199E
102
{ACAD_REACTORS
330
199D
102
}
330
199D
100
AcDbXrecord
280
     1
102
RTVSPropertyOp0
 70
     1
102
RTVSPropertyOp1
 70
     1
102
RTVSPropertyOp2
 70
     1
102
RTVSPropertyOp3
 70
     1
102
RTVSPropertyOp4
 70
     1
102
RTVSPropertyOp5
 70
     1
102
RTVSPropertyOp6
 70
     1
102
RTVSPropertyOp7
 70
     1
102
RTVSPropertyOp8
 70
     1
102
RTVSPropertyOp9
 70
     1
102
RTVSPropertyOp10
 70
     1
102
RTVSPropertyOp11
 70
     1
102
RTVSPropertyOp12
 70
     1
102
RTVSPropertyOp13
 70
     1
102
RTVSPropertyOp14
 70
     1
102
RTVSPropertyOp15
 70
     1
102
RTVSPropertyOp16
 70
     1
102
RTVSPropertyOp17
 70
     1
102
RTVSPropertyOp18
 70
     1
102
RTVSPropertyOp19
 70
     1
102
RTVSPropertyOp20
 70
     1
102
RTVSPropertyOp21
 70
     1
102
RTVSPropertyOp22
 70
     1
102
RTVSPropertyOp23
 70
     1
102
RTVSPropertyOp24
 70
     1
102
RTVSPropertyOp25
 70
     1
102
RTVSPropertyOp26
 70
     1
102
RTVSPropertyOp27
 70
     1
  0
XRECORD
  5
199A
102
{ACAD_REACTORS
330
1999
102
}
330
1999
100
AcDbXrecord
280
     1
102
RTVSPropertyOp0
 70
     1
102
RTVSPropertyOp1
 70
     1
102
RTVSPropertyOp2
 70
     1
102
RTVSPropertyOp3
 70
     1
102
RTVSPropertyOp4
 70
     1
102
RTVSPropertyOp5
 70
     1
102
RTVSPropertyOp6
 70
     1
102
RTVSPropertyOp7
 70
     1
102
RTVSPropertyOp8
 70
     1
102
RTVSPropertyOp9
 70
     1
102
RTVSPropertyOp10
 70
     1
102
RTVSPropertyOp11
 70
     1
102
RTVSPropertyOp12
 70
     1
102
RTVSPropertyOp13
 70
     1
102
RTVSPropertyOp14
 70
     1
102
RTVSPropertyOp15
 70
     1
102
RTVSPropertyOp16
 70
     1
102
RTVSPropertyOp17
 70
     1
102
RTVSPropertyOp18
 70
     1
102
RTVSPropertyOp19
 70
     1
102
RTVSPropertyOp20
 70
     1
102
RTVSPropertyOp21
 70
     1
102
RTVSPropertyOp22
 70
     1
102
RTVSPropertyOp23
 70
     1
102
RTVSPropertyOp24
 70
     1
102
RTVSPropertyOp25
 70
     1
102
RTVSPropertyOp26
 70
     1
102
RTVSPropertyOp27
 70
     1
  0
XRECORD
  5
19A8
102
{ACAD_REACTORS
330
19A7
102
}
330
19A7
100
AcDbXrecord
280
     1
102
RTVSPropertyOp0
 70
     1
102
RTVSPropertyOp1
 70
     1
102
RTVSPropertyOp2
 70
     1
102
RTVSPropertyOp3
 70
     1
102
RTVSPropertyOp4
 70
     1
102
RTVSPropertyOp5
 70
     1
102
RTVSPropertyOp6
 70
     1
102
RTVSPropertyOp7
 70
     1
102
RTVSPropertyOp8
 70
     1
102
RTVSPropertyOp9
 70
     1
102
RTVSPropertyOp10
 70
     1
102
RTVSPropertyOp11
 70
     1
102
RTVSPropertyOp12
 70
     1
102
RTVSPropertyOp13
 70
     1
102
RTVSPropertyOp14
 70
     1
102
RTVSPropertyOp15
 70
     1
102
RTVSPropertyOp16
 70
     1
102
RTVSPropertyOp17
 70
     1
102
RTVSPropertyOp18
 70
     1
102
RTVSPropertyOp19
 70
     1
102
RTVSPropertyOp20
 70
     1
102
RTVSPropertyOp21
 70
     1
102
RTVSPropertyOp22
 70
     1
102
RTVSPropertyOp23
 70
     1
102
RTVSPropertyOp24
 70
     1
102
RTVSPropertyOp25
 70
     1
102
RTVSPropertyOp26
 70
     1
102
RTVSPropertyOp27
 70
     1
  0
XRECORD
  5
19B0
102
{ACAD_REACTORS
330
19AF
102
}
330
19AF
100
AcDbXrecord
280
     1
102
RTVSPropertyOp0
 70
     1
102
RTVSPropertyOp1
 70
     1
102
RTVSPropertyOp2
 70
     1
102
RTVSPropertyOp3
 70
     1
102
RTVSPropertyOp4
 70
     1
102
RTVSPropertyOp5
 70
     1
102
RTVSPropertyOp6
 70
     1
102
RTVSPropertyOp7
 70
     1
102
RTVSPropertyOp8
 70
     1
102
RTVSPropertyOp9
 70
     1
102
RTVSPropertyOp10
 70
     1
102
RTVSPropertyOp11
 70
     1
102
RTVSPropertyOp12
 70
     1
102
RTVSPropertyOp13
 70
     1
102
RTVSPropertyOp14
 70
     1
102
RTVSPropertyOp15
 70
     1
102
RTVSPropertyOp16
 70
     1
102
RTVSPropertyOp17
 70
     1
102
RTVSPropertyOp18
 70
     1
102
RTVSPropertyOp19
 70
     1
102
RTVSPropertyOp20
 70
     1
102
RTVSPropertyOp21
 70
     1
102
RTVSPropertyOp22
 70
     1
102
RTVSPropertyOp23
 70
     1
102
RTVSPropertyOp24
 70
     1
102
RTVSPropertyOp25
 70
     1
102
RTVSPropertyOp26
 70
     1
102
RTVSPropertyOp27
 70
     1
  0
XRECORD
  5
19A2
102
{ACAD_REACTORS
330
19A1
102
}
330
19A1
100
AcDbXrecord
280
     1
102
RTVSPropertyOp0
 70
     1
102
RTVSPropertyOp1
 70
     1
102
RTVSPropertyOp2
 70
     1
102
RTVSPropertyOp3
 70
     1
102
RTVSPropertyOp4
 70
     1
102
RTVSPropertyOp5
 70
     1
102
RTVSPropertyOp6
 70
     1
102
RTVSPropertyOp7
 70
     1
102
RTVSPropertyOp8
 70
     1
102
RTVSPropertyOp9
 70
     1
102
RTVSPropertyOp10
 70
     1
102
RTVSPropertyOp11
 70
     1
102
RTVSPropertyOp12
 70
     1
102
RTVSPropertyOp13
 70
     1
102
RTVSPropertyOp14
 70
     1
102
RTVSPropertyOp15
 70
     1
102
RTVSPropertyOp16
 70
     1
102
RTVSPropertyOp17
 70
     1
102
RTVSPropertyOp18
 70
     1
102
RTVSPropertyOp19
 70
     1
102
RTVSPropertyOp20
 70
     1
102
RTVSPropertyOp21
 70
     1
102
RTVSPropertyOp22
 70
     1
102
RTVSPropertyOp23
 70
     1
102
RTVSPropertyOp24
 70
     1
102
RTVSPropertyOp25
 70
     1
102
RTVSPropertyOp26
 70
     1
102
RTVSPropertyOp27
 70
     1
  0
XRECORD
  5
19A6
102
{ACAD_REACTORS
330
19A5
102
}
330
19A5
100
AcDbXrecord
280
     1
102
RTVSPropertyOp0
 70
     1
102
RTVSPropertyOp1
 70
     1
102
RTVSPropertyOp2
 70
     1
102
RTVSPropertyOp3
 70
     1
102
RTVSPropertyOp4
 70
     1
102
RTVSPropertyOp5
 70
     1
102
RTVSPropertyOp6
 70
     1
102
RTVSPropertyOp7
 70
     1
102
RTVSPropertyOp8
 70
     1
102
RTVSPropertyOp9
 70
     1
102
RTVSPropertyOp10
 70
     1
102
RTVSPropertyOp11
 70
     1
102
RTVSPropertyOp12
 70
     1
102
RTVSPropertyOp13
 70
     1
102
RTVSPropertyOp14
 70
     1
102
RTVSPropertyOp15
 70
     1
102
RTVSPropertyOp16
 70
     1
102
RTVSPropertyOp17
 70
     1
102
RTVSPropertyOp18
 70
     1
102
RTVSPropertyOp19
 70
     1
102
RTVSPropertyOp20
 70
     1
102
RTVSPropertyOp21
 70
     1
102
RTVSPropertyOp22
 70
     1
102
RTVSPropertyOp23
 70
     1
102
RTVSPropertyOp24
 70
     1
102
RTVSPropertyOp25
 70
     1
102
RTVSPropertyOp26
 70
     1
102
RTVSPropertyOp27
 70
     1
  0
XRECORD
  5
19B7
102
{ACAD_REACTORS
330
19B6
102
}
330
19B6
100
AcDbXrecord
280
     1
102
RTVSPropertyOp0
 70
     0
102
RTVSPropertyOp1
 70
     0
102
RTVSPropertyOp2
 70
     0
102
RTVSPropertyOp3
 70
     0
102
RTVSPropertyOp4
 70
     0
102
RTVSPropertyOp5
 70
     0
102
RTVSPropertyOp6
 70
     0
102
RTVSPropertyOp7
 70
     0
102
RTVSPropertyOp8
 70
     0
102
RTVSPropertyOp9
 70
     0
102
RTVSPropertyOp10
 70
     0
102
RTVSPropertyOp11
 70
     0
102
RTVSPropertyOp12
 70
     0
102
RTVSPropertyOp13
 70
     0
102
RTVSPropertyOp14
 70
     2
102
RTVSPropertyOp15
 70
     0
102
RTVSPropertyOp16
 70
     0
102
RTVSPropertyOp17
 70
     0
102
RTVSPropertyOp18
 70
     0
102
RTVSPropertyOp19
 70
     0
102
RTVSPropertyOp20
 70
     0
102
RTVSPropertyOp21
 70
     0
102
RTVSPropertyOp22
 70
     0
102
RTVSPropertyOp23
 70
     0
102
RTVSPropertyOp24
 70
     0
102
RTVSPropertyOp25
 70
     0
102
RTVSPropertyOp26
 70
     0
102
RTVSPropertyOp27
 70
     0
  0
XRECORD
  5
19AE
102
{ACAD_REACTORS
330
19AD
102
}
330
19AD
100
AcDbXrecord
280
     1
102
RTVSPropertyOp0
 70
     1
102
RTVSPropertyOp1
 70
     1
102
RTVSPropertyOp2
 70
     1
102
RTVSPropertyOp3
 70
     1
102
RTVSPropertyOp4
 70
     1
102
RTVSPropertyOp5
 70
     1
102
RTVSPropertyOp6
 70
     1
102
RTVSPropertyOp7
 70
     1
102
RTVSPropertyOp8
 70
     1
102
RTVSPropertyOp9
 70
     1
102
RTVSPropertyOp10
 70
     1
102
RTVSPropertyOp11
 70
     1
102
RTVSPropertyOp12
 70
     1
102
RTVSPropertyOp13
 70
     1
102
RTVSPropertyOp14
 70
     1
102
RTVSPropertyOp15
 70
     1
102
RTVSPropertyOp16
 70
     1
102
RTVSPropertyOp17
 70
     1
102
RTVSPropertyOp18
 70
     1
102
RTVSPropertyOp19
 70
     1
102
RTVSPropertyOp20
 70
     1
102
RTVSPropertyOp21
 70
     1
102
RTVSPropertyOp22
 70
     1
102
RTVSPropertyOp23
 70
     1
102
RTVSPropertyOp24
 70
     1
102
RTVSPropertyOp25
 70
     1
102
RTVSPropertyOp26
 70
     1
102
RTVSPropertyOp27
 70
     1
  0
XRECORD
  5
1992
102
{ACAD_REACTORS
330
1991
102
}
330
1991
100
AcDbXrecord
280
     1
102
RTVSPropertyOp0
 70
     1
102
RTVSPropertyOp1
 70
     1
102
RTVSPropertyOp2
 70
     1
102
RTVSPropertyOp3
 70
     1
102
RTVSPropertyOp4
 70
     1
102
RTVSPropertyOp5
 70
     1
102
RTVSPropertyOp6
 70
     1
102
RTVSPropertyOp7
 70
     1
102
RTVSPropertyOp8
 70
     1
102
RTVSPropertyOp9
 70
     1
102
RTVSPropertyOp10
 70
     1
102
RTVSPropertyOp11
 70
     1
102
RTVSPropertyOp12
 70
     1
102
RTVSPropertyOp13
 70
     1
102
RTVSPropertyOp14
 70
     1
102
RTVSPropertyOp15
 70
     1
102
RTVSPropertyOp16
 70
     1
102
RTVSPropertyOp17
 70
     1
102
RTVSPropertyOp18
 70
     1
102
RTVSPropertyOp19
 70
     1
102
RTVSPropertyOp20
 70
     1
102
RTVSPropertyOp21
 70
     1
102
RTVSPropertyOp22
 70
     1
102
RTVSPropertyOp23
 70
     1
102
RTVSPropertyOp24
 70
     1
102
RTVSPropertyOp25
 70
     1
102
RTVSPropertyOp26
 70
     1
102
RTVSPropertyOp27
 70
     1
  0
XRECORD
  5
1994
102
{ACAD_REACTORS
330
1993
102
}
330
1993
100
AcDbXrecord
280
     1
102
RTVSPropertyOp0
 70
     1
102
RTVSPropertyOp1
 70
     1
102
RTVSPropertyOp2
 70
     1
102
RTVSPropertyOp3
 70
     1
102
RTVSPropertyOp4
 70
     1
102
RTVSPropertyOp5
 70
     1
102
RTVSPropertyOp6
 70
     1
102
RTVSPropertyOp7
 70
     1
102
RTVSPropertyOp8
 70
     1
102
RTVSPropertyOp9
 70
     1
102
RTVSPropertyOp10
 70
     1
102
RTVSPropertyOp11
 70
     1
102
RTVSPropertyOp12
 70
     1
102
RTVSPropertyOp13
 70
     1
102
RTVSPropertyOp14
 70
     1
102
RTVSPropertyOp15
 70
     1
102
RTVSPropertyOp16
 70
     1
102
RTVSPropertyOp17
 70
     1
102
RTVSPropertyOp18
 70
     1
102
RTVSPropertyOp19
 70
     1
102
RTVSPropertyOp20
 70
     1
102
RTVSPropertyOp21
 70
     1
102
RTVSPropertyOp22
 70
     1
102
RTVSPropertyOp23
 70
     1
102
RTVSPropertyOp24
 70
     1
102
RTVSPropertyOp25
 70
     1
102
RTVSPropertyOp26
 70
     1
102
RTVSPropertyOp27
 70
     1
  0
XRECORD
  5
1996
102
{ACAD_REACTORS
330
1995
102
}
330
1995
100
AcDbXrecord
280
     1
102
RTVSPropertyOp0
 70
     1
102
RTVSPropertyOp1
 70
     1
102
RTVSPropertyOp2
 70
     1
102
RTVSPropertyOp3
 70
     1
102
RTVSPropertyOp4
 70
     1
102
RTVSPropertyOp5
 70
     1
102
RTVSPropertyOp6
 70
     1
102
RTVSPropertyOp7
 70
     1
102
RTVSPropertyOp8
 70
     1
102
RTVSPropertyOp9
 70
     1
102
RTVSPropertyOp10
 70
     1
102
RTVSPropertyOp11
 70
     1
102
RTVSPropertyOp12
 70
     1
102
RTVSPropertyOp13
 70
     1
102
RTVSPropertyOp14
 70
     1
102
RTVSPropertyOp15
 70
     1
102
RTVSPropertyOp16
 70
     1
102
RTVSPropertyOp17
 70
     1
102
RTVSPropertyOp18
 70
     1
102
RTVSPropertyOp19
 70
     1
102
RTVSPropertyOp20
 70
     1
102
RTVSPropertyOp21
 70
     1
102
RTVSPropertyOp22
 70
     1
102
RTVSPropertyOp23
 70
     1
102
RTVSPropertyOp24
 70
     1
102
RTVSPropertyOp25
 70
     1
102
RTVSPropertyOp26
 70
     1
102
RTVSPropertyOp27
 70
     1
  0
XRECORD
  5
1998
102
{ACAD_REACTORS
330
1997
102
}
330
1997
100
AcDbXrecord
280
     1
102
RTVSPropertyOp0
 70
     1
102
RTVSPropertyOp1
 70
     1
102
RTVSPropertyOp2
 70
     1
102
RTVSPropertyOp3
 70
     1
102
RTVSPropertyOp4
 70
     1
102
RTVSPropertyOp5
 70
     1
102
RTVSPropertyOp6
 70
     1
102
RTVSPropertyOp7
 70
     1
102
RTVSPropertyOp8
 70
     1
102
RTVSPropertyOp9
 70
     1
102
RTVSPropertyOp10
 70
     1
102
RTVSPropertyOp11
 70
     1
102
RTVSPropertyOp12
 70
     1
102
RTVSPropertyOp13
 70
     1
102
RTVSPropertyOp14
 70
     1
102
RTVSPropertyOp15
 70
     1
102
RTVSPropertyOp16
 70
     1
102
RTVSPropertyOp17
 70
     1
102
RTVSPropertyOp18
 70
     1
102
RTVSPropertyOp19
 70
     1
102
RTVSPropertyOp20
 70
     1
102
RTVSPropertyOp21
 70
     1
102
RTVSPropertyOp22
 70
     1
102
RTVSPropertyOp23
 70
     1
102
RTVSPropertyOp24
 70
     1
102
RTVSPropertyOp25
 70
     1
102
RTVSPropertyOp26
 70
     1
102
RTVSPropertyOp27
 70
     1
  0
XRECORD
  5
19B3
102
{ACAD_REACTORS
330
19B2
102
}
330
19B2
100
AcDbXrecord
280
     1
102
RTVSPropertyOp0
 70
     0
102
RTVSPropertyOp1
 70
     0
102
RTVSPropertyOp2
 70
     0
102
RTVSPropertyOp3
 70
     0
102
RTVSPropertyOp4
 70
     0
102
RTVSPropertyOp5
 70
     0
102
RTVSPropertyOp6
 70
     0
102
RTVSPropertyOp7
 70
     0
102
RTVSPropertyOp8
 70
     0
102
RTVSPropertyOp9
 70
     0
102
RTVSPropertyOp10
 70
     0
102
RTVSPropertyOp11
 70
     0
102
RTVSPropertyOp12
 70
     0
102
RTVSPropertyOp13
 70
     0
102
RTVSPropertyOp14
 70
     2
102
RTVSPropertyOp15
 70
     0
102
RTVSPropertyOp16
 70
     0
102
RTVSPropertyOp17
 70
     0
102
RTVSPropertyOp18
 70
     0
102
RTVSPropertyOp19
 70
     0
102
RTVSPropertyOp20
 70
     0
102
RTVSPropertyOp21
 70
     0
102
RTVSPropertyOp22
 70
     0
102
RTVSPropertyOp23
 70
     0
102
RTVSPropertyOp24
 70
     0
102
RTVSPropertyOp25
 70
     0
102
RTVSPropertyOp26
 70
     0
102
RTVSPropertyOp27
 70
     0
  0
XRECORD
  5
19AC
102
{ACAD_REACTORS
330
19AB
102
}
330
19AB
100
AcDbXrecord
280
     1
102
RTVSPropertyOp0
 70
     1
102
RTVSPropertyOp1
 70
     1
102
RTVSPropertyOp2
 70
     1
102
RTVSPropertyOp3
 70
     1
102
RTVSPropertyOp4
 70
     1
102
RTVSPropertyOp5
 70
     1
102
RTVSPropertyOp6
 70
     1
102
RTVSPropertyOp7
 70
     1
102
RTVSPropertyOp8
 70
     1
102
RTVSPropertyOp9
 70
     1
102
RTVSPropertyOp10
 70
     1
102
RTVSPropertyOp11
 70
     1
102
RTVSPropertyOp12
 70
     1
102
RTVSPropertyOp13
 70
     1
102
RTVSPropertyOp14
 70
     1
102
RTVSPropertyOp15
 70
     1
102
RTVSPropertyOp16
 70
     1
102
RTVSPropertyOp17
 70
     1
102
RTVSPropertyOp18
 70
     1
102
RTVSPropertyOp19
 70
     1
102
RTVSPropertyOp20
 70
     1
102
RTVSPropertyOp21
 70
     1
102
RTVSPropertyOp22
 70
     1
102
RTVSPropertyOp23
 70
     1
102
RTVSPropertyOp24
 70
     1
102
RTVSPropertyOp25
 70
     1
102
RTVSPropertyOp26
 70
     1
102
RTVSPropertyOp27
 70
     1
  0
XRECORD
  5
19B5
102
{ACAD_REACTORS
330
19B4
102
}
330
19B4
100
AcDbXrecord
280
     1
102
RTVSPropertyOp0
 70
     0
102
RTVSPropertyOp1
 70
     0
102
RTVSPropertyOp2
 70
     0
102
RTVSPropertyOp3
 70
     0
102
RTVSPropertyOp4
 70
     0
102
RTVSPropertyOp5
 70
     0
102
RTVSPropertyOp6
 70
     0
102
RTVSPropertyOp7
 70
     0
102
RTVSPropertyOp8
 70
     0
102
RTVSPropertyOp9
 70
     0
102
RTVSPropertyOp10
 70
     0
102
RTVSPropertyOp11
 70
     0
102
RTVSPropertyOp12
 70
     0
102
RTVSPropertyOp13
 70
     0
102
RTVSPropertyOp14
 70
     2
102
RTVSPropertyOp15
 70
     0
102
RTVSPropertyOp16
 70
     0
102
RTVSPropertyOp17
 70
     0
102
RTVSPropertyOp18
 70
     0
102
RTVSPropertyOp19
 70
     0
102
RTVSPropertyOp20
 70
     0
102
RTVSPropertyOp21
 70
     0
102
RTVSPropertyOp22
 70
     0
102
RTVSPropertyOp23
 70
     0
102
RTVSPropertyOp24
 70
     0
102
RTVSPropertyOp25
 70
     0
102
RTVSPropertyOp26
 70
     0
102
RTVSPropertyOp27
 70
     0
  0
XRECORD
  5
19A4
102
{ACAD_REACTORS
330
19A3
102
}
330
19A3
100
AcDbXrecord
280
     1
102
RTVSPropertyOp0
 70
     1
102
RTVSPropertyOp1
 70
     1
102
RTVSPropertyOp2
 70
     1
102
RTVSPropertyOp3
 70
     1
102
RTVSPropertyOp4
 70
     1
102
RTVSPropertyOp5
 70
     1
102
RTVSPropertyOp6
 70
     1
102
RTVSPropertyOp7
 70
     1
102
RTVSPropertyOp8
 70
     1
102
RTVSPropertyOp9
 70
     1
102
RTVSPropertyOp10
 70
     1
102
RTVSPropertyOp11
 70
     1
102
RTVSPropertyOp12
 70
     1
102
RTVSPropertyOp13
 70
     1
102
RTVSPropertyOp14
 70
     1
102
RTVSPropertyOp15
 70
     1
102
RTVSPropertyOp16
 70
     1
102
RTVSPropertyOp17
 70
     1
102
RTVSPropertyOp18
 70
     1
102
RTVSPropertyOp19
 70
     1
102
RTVSPropertyOp20
 70
     1
102
RTVSPropertyOp21
 70
     1
102
RTVSPropertyOp22
 70
     1
102
RTVSPropertyOp23
 70
     1
102
RTVSPropertyOp24
 70
     1
102
RTVSPropertyOp25
 70
     1
102
RTVSPropertyOp26
 70
     1
102
RTVSPropertyOp27
 70
     1
  0
XRECORD
  5
19AA
102
{ACAD_REACTORS
330
19A9
102
}
330
19A9
100
AcDbXrecord
280
     1
102
RTVSPropertyOp0
 70
     1
102
RTVSPropertyOp1
 70
     1
102
RTVSPropertyOp2
 70
     1
102
RTVSPropertyOp3
 70
     1
102
RTVSPropertyOp4
 70
     1
102
RTVSPropertyOp5
 70
     1
102
RTVSPropertyOp6
 70
     1
102
RTVSPropertyOp7
 70
     1
102
RTVSPropertyOp8
 70
     1
102
RTVSPropertyOp9
 70
     1
102
RTVSPropertyOp10
 70
     1
102
RTVSPropertyOp11
 70
     1
102
RTVSPropertyOp12
 70
     1
102
RTVSPropertyOp13
 70
     1
102
RTVSPropertyOp14
 70
     1
102
RTVSPropertyOp15
 70
     1
102
RTVSPropertyOp16
 70
     1
102
RTVSPropertyOp17
 70
     1
102
RTVSPropertyOp18
 70
     1
102
RTVSPropertyOp19
 70
     1
102
RTVSPropertyOp20
 70
     1
102
RTVSPropertyOp21
 70
     1
102
RTVSPropertyOp22
 70
     1
102
RTVSPropertyOp23
 70
     1
102
RTVSPropertyOp24
 70
     1
102
RTVSPropertyOp25
 70
     1
102
RTVSPropertyOp26
 70
     1
102
RTVSPropertyOp27
 70
     1
  0
ENDSEC
  0
EOF
