  0
SECTION
  2
HEADER
  9
$ACADVER
  1
AC1018
  9
$ACADMAINTVER
 70
     2
  9
$DWGCODEPAGE
  3
ANSI_1252
  9
$INSBASE
 10
0.0
 20
0.0
 30
0.0
  9
$EXTMIN
 10
-0.0000000000002274
 20
-0.0000000000002274
 30
0.0
  9
$EXTMAX
 10
840.0
 20
594.0000000000001
 30
0.0
  9
$LIMMIN
 10
0.0
 20
0.0
  9
$LIMMAX
 10
839.9999999999998
 20
594.0000000000001
  9
$ORTHOMODE
 70
     1
  9
$REGENMODE
 70
     1
  9
$FILLMODE
 70
     1
  9
$QTEXTMODE
 70
     0
  9
$MIRRTEXT
 70
     1
  9
$LTSCALE
 40
20.0
  9
$ATTMODE
 70
     1
  9
$TEXTSIZE
 40
2.5
  9
$TRACEWID
 40
0.5
  9
$TEXTSTYLE
  7
GREEKS
  9
$CLAYER
  8
BEM
  9
$CELTYPE
  6
ByLayer
  9
$CECOLOR
 62
   256
  9
$CELTSCALE
 40
1.0
  9
$DISPSILH
 70
     0
  9
$DIMSCALE
 40
2.0
  9
$DIMASZ
 40
3.5
  9
$DIMEXO
 40
1.0
  9
$DIMDLI
 40
0.38
  9
$DIMRND
 40
0.0
  9
$DIMDLE
 40
0.0
  9
$DIMEXE
 40
1.0
  9
$DIMTP
 40
0.0
  9
$DIMTM
 40
0.0
  9
$DIMTXT
 40
3.5
  9
$DIMCEN
 40
0.09
  9
$DIMTSZ
 40
0.0
  9
$DIMTOL
 70
     0
  9
$DIMLIM
 70
     0
  9
$DIMTIH
 70
     0
  9
$DIMTOH
 70
     0
  9
$DIMSE1
 70
     0
  9
$DIMSE2
 70
     0
  9
$DIMTAD
 70
     1
  9
$DIMZIN
 70
     8
  9
$DIMBLK
  1

  9
$DIMASO
 70
     1
  9
$DIMSHO
 70
     0
  9
$DIMPOST
  1

  9
$DIMAPOST
  1

  9
$DIMALT
 70
     0
  9
$DIMALTD
 70
     2
  9
$DIMALTF
 40
25.4
  9
$DIMLFAC
 40
1.0
  9
$DIMTOFL
 70
     1
  9
$DIMTVP
 40
0.0
  9
$DIMTIX
 70
     0
  9
$DIMSOXD
 70
     0
  9
$DIMSAH
 70
     0
  9
$DIMBLK1
  1

  9
$DIMBLK2
  1

  9
$DIMSTYLE
  2
STANDARD
  9
$DIMCLRD
 70
     0
  9
$DIMCLRE
 70
     0
  9
$DIMCLRT
 70
     1
  9
$DIMTFAC
 40
0.5142857142857144
  9
$DIMGAP
 40
1.5
  9
$DIMJUST
 70
     0
  9
$DIMSD1
 70
     0
  9
$DIMSD2
 70
     0
  9
$DIMTOLJ
 70
     1
  9
$DIMTZIN
 70
     8
  9
$DIMALTZ
 70
     8
  9
$DIMALTTZ
 70
     8
  9
$DIMUPT
 70
     0
  9
$DIMDEC
 70
     2
  9
$DIMTDEC
 70
     2
  9
$DIMALTU
 70
     2
  9
$DIMALTTD
 70
     2
  9
$DIMTXSTY
  7
GREEKS
  9
$DIMAUNIT
 70
     0
  9
$DIMADEC
 70
     2
  9
$DIMALTRND
 40
0.0
  9
$DIMAZIN
 70
     2
  9
$DIMDSEP
 70
    46
  9
$DIMATFIT
 70
     0
  9
$DIMFRAC
 70
     0
  9
$DIMLDRBLK
  1

  9
$DIMLUNIT
 70
     2
  9
$DIMLWD
 70
    -2
  9
$DIMLWE
 70
    -2
  9
$DIMTMOVE
 70
     0
  9
$LUNITS
 70
     2
  9
$LUPREC
 70
     2
  9
$SKETCHINC
 40
1.0
  9
$FILLETRAD
 40
5.0
  9
$AUNITS
 70
     0
  9
$AUPREC
 70
     0
  9
$MENU
  1
ACAD
  9
$ELEVATION
 40
0.0
  9
$PELEVATION
 40
0.0
  9
$THICKNESS
 40
0.0
  9
$LIMCHECK
 70
     0
  9
$CHAMFERA
 40
0.0
  9
$CHAMFERB
 40
0.0
  9
$CHAMFERC
 40
0.0
  9
$CHAMFERD
 40
0.0
  9
$SKPOLY
 70
     0
  9
$TDCREATE
 40
2452806.196353935
  9
$TDUCREATE
 40
2452806.154687269
  9
$TDUPDATE
 40
2455533.442824850
  9
$TDUUPDATE
 40
2455533.401158183
  9
$TDINDWG
 40
0.4850987153
  9
$TDUSRTIMER
 40
0.4850987153
  9
$USRTIMER
 70
     1
  9
$ANGBASE
 50
0.0
  9
$ANGDIR
 70
     0
  9
$PDMODE
 70
     0
  9
$PDSIZE
 40
0.0
  9
$PLINEWID
 40
0.0
  9
$SPLFRAME
 70
     0
  9
$SPLINETYPE
 70
     6
  9
$SPLINESEGS
 70
     8
  9
$HANDSEED
  5
2E13
  9
$SURFTAB1
 70
     6
  9
$SURFTAB2
 70
     6
  9
$SURFTYPE
 70
     6
  9
$SURFU
 70
     6
  9
$SURFV
 70
     6
  9
$UCSBASE
  2

  9
$UCSNAME
  2

  9
$UCSORG
 10
0.0
 20
0.0
 30
0.0
  9
$UCSXDIR
 10
1.0
 20
0.0
 30
0.0
  9
$UCSYDIR
 10
0.0
 20
1.0
 30
0.0
  9
$UCSORTHOREF
  2

  9
$UCSORTHOVIEW
 70
     0
  9
$UCSORGTOP
 10
0.0
 20
0.0
 30
0.0
  9
$UCSORGBOTTOM
 10
0.0
 20
0.0
 30
0.0
  9
$UCSORGLEFT
 10
0.0
 20
0.0
 30
0.0
  9
$UCSORGRIGHT
 10
0.0
 20
0.0
 30
0.0
  9
$UCSORGFRONT
 10
0.0
 20
0.0
 30
0.0
  9
$UCSORGBACK
 10
0.0
 20
0.0
 30
0.0
  9
$PUCSBASE
  2

  9
$PUCSNAME
  2

  9
$PUCSORG
 10
0.0
 20
0.0
 30
0.0
  9
$PUCSXDIR
 10
1.0
 20
0.0
 30
0.0
  9
$PUCSYDIR
 10
0.0
 20
1.0
 30
0.0
  9
$PUCSORTHOREF
  2

  9
$PUCSORTHOVIEW
 70
     0
  9
$PUCSORGTOP
 10
0.0
 20
0.0
 30
0.0
  9
$PUCSORGBOTTOM
 10
0.0
 20
0.0
 30
0.0
  9
$PUCSORGLEFT
 10
0.0
 20
0.0
 30
0.0
  9
$PUCSORGRIGHT
 10
0.0
 20
0.0
 30
0.0
  9
$PUCSORGFRONT
 10
0.0
 20
0.0
 30
0.0
  9
$PUCSORGBACK
 10
0.0
 20
0.0
 30
0.0
  9
$USERI1
 70
     0
  9
$USERI2
 70
     0
  9
$USERI3
 70
     0
  9
$USERI4
 70
     0
  9
$USERI5
 70
     0
  9
$USERR1
 40
0.0
  9
$USERR2
 40
0.0
  9
$USERR3
 40
0.0
  9
$USERR4
 40
0.0
  9
$USERR5
 40
0.0
  9
$WORLDVIEW
 70
     1
  9
$SHADEDGE
 70
     3
  9
$SHADEDIF
 70
    70
  9
$TILEMODE
 70
     1
  9
$MAXACTVP
 70
    16
  9
$PINSBASE
 10
0.0
 20
0.0
 30
0.0
  9
$PLIMCHECK
 70
     0
  9
$PEXTMIN
 10
1.000000000000000E+20
 20
1.000000000000000E+20
 30
1.000000000000000E+20
  9
$PEXTMAX
 10
-1.000000000000000E+20
 20
-1.000000000000000E+20
 30
-1.000000000000000E+20
  9
$PLIMMIN
 10
0.0
 20
0.0
  9
$PLIMMAX
 10
12.0
 20
9.0
  9
$UNITMODE
 70
     0
  9
$VISRETAIN
 70
     0
  9
$PLINEGEN
 70
     0
  9
$PSLTSCALE
 70
     0
  9
$TREEDEPTH
 70
  3020
  9
$CMLSTYLE
  2
Standard
  9
$CMLJUST
 70
     0
  9
$CMLSCALE
 40
1.0
  9
$PROXYGRAPHICS
 70
     1
  9
$MEASUREMENT
 70
     0
  9
$CELWEIGHT
370
    -1
  9
$ENDCAPS
280
     0
  9
$JOINSTYLE
280
     0
  9
$LWDISPLAY
290
     0
  9
$INSUNITS
 70
     0
  9
$HYPERLINKBASE
  1

  9
$STYLESHEET
  1
monochrome1.ctb
  9
$XEDIT
290
     1
  9
$CEPSNTYPE
380
     0
  9
$PSTYLEMODE
290
     1
  9
$FINGERPRINTGUID
  2
{CEB2A312-A602-11D7-B633-000102183313}
  9
$VERSIONGUID
  2
{118FA0DC-9D7B-4F63-AB2C-5F766377A815}
  9
$EXTNAMES
290
     1
  9
$PSVPSCALE
 40
0.0
  9
$OLESTARTUP
290
     0
  9
$SORTENTS
280
    96
  9
$INDEXCTL
280
     0
  9
$HIDETEXT
280
     0
  9
$XCLIPFRAME
290
     0
  9
$HALOGAP
280
     0
  9
$OBSCOLOR
 70
   257
  9
$OBSLTYPE
280
     0
  9
$INTERSECTIONDISPLAY
280
     0
  9
$INTERSECTIONCOLOR
 70
   257
  9
$DIMASSOC
280
     1
  9
$PROJECTNAME
  1

  0
ENDSEC
  0
SECTION
  2
CLASSES
  0
CLASS
  1
ACDBDICTIONARYWDFLT
  2
AcDbDictionaryWithDefault
  3
ObjectDBX Classes
 90
        0
 91
        1
280
     0
281
     0
  0
CLASS
  1
DICTIONARYVAR
  2
AcDbDictionaryVar
  3
ObjectDBX Classes
 90
        0
 91
        3
280
     0
281
     0
  0
ENDSEC
  0
SECTION
  2
TABLES
  0
TABLE
  2
VPORT
  5
10EB
330
0
100
AcDbSymbolTable
 70
     2
  0
VPORT
  5
2E12
330
10EB
100
AcDbSymbolTableRecord
100
AcDbViewportTableRecord
  2
*Active
 70
     0
 10
0.0
 20
0.0
 11
1.0
 21
1.0
 12
420.0000019557773
 22
297.0000013830141
 13
0.0
 23
0.0
 14
1.0
 24
1.0
 15
20.0
 25
20.0
 16
0.0
 26
0.0
 36
1.0
 17
0.0
 27
0.0
 37
0.0
 40
632.2300893357152
 41
1.336927223719676
 42
50.0
 43
0.0
 44
0.0
 50
0.0
 51
0.0
 71
     0
 72
  1500
 73
     1
 74
     0
 75
     0
 76
     0
 77
     0
 78
     0
281
     0
 65
     1
110
0.0
120
0.0
130
0.0
111
1.0
121
0.0
131
0.0
112
0.0
122
1.0
132
0.0
 79
     0
146
0.0
  0
ENDTAB
  0
TABLE
  2
LTYPE
  5
10E8
330
0
100
AcDbSymbolTable
 70
     3
  0
LTYPE
  5
10F6
330
10E8
100
AcDbSymbolTableRecord
100
AcDbLinetypeTableRecord
  2
ByBlock
 70
     0
  3

 72
    65
 73
     0
 40
0.0
  0
LTYPE
  5
10F7
330
10E8
100
AcDbSymbolTableRecord
100
AcDbLinetypeTableRecord
  2
ByLayer
 70
     0
  3

 72
    65
 73
     0
 40
0.0
  0
LTYPE
  5
10F8
330
10E8
100
AcDbSymbolTableRecord
100
AcDbLinetypeTableRecord
  2
AUSGEZOGEN
 70
     0
  3
Ausgezogene Linie
 72
    65
 73
     0
 40
0.0
  0
LTYPE
  5
1118
330
10E8
100
AcDbSymbolTableRecord
100
AcDbLinetypeTableRecord
  2
STRICHPUNKT
 70
     0
  3
__ . __ . __ . __ . __ . __ . __ . __ . __ . __
 72
    65
 73
     4
 40
1.0
 49
0.5
 74
     0
 49
-0.25
 74
     0
 49
0.0
 74
     0
 49
-0.25
 74
     0
  0
LTYPE
  5
1119
330
10E8
100
AcDbSymbolTableRecord
100
AcDbLinetypeTableRecord
  2
CONTINUOUS
 70
     0
  3
Solid line
 72
    65
 73
     0
 40
0.0
  0
ENDTAB
  0
TABLE
  2
LAYER
  5
10E5
102
{ACAD_XDICTIONARY
360
2C6D
102
}
330
0
100
AcDbSymbolTable
 70
     9
  0
LAYER
  5
10F3
330
10E5
100
AcDbSymbolTableRecord
100
AcDbLayerTableRecord
  2
0
 70
     0
 62
     7
  6
AUSGEZOGEN
370
    -3
390
10F2
  0
LAYER
  5
111D
330
10E5
100
AcDbSymbolTableRecord
100
AcDbLayerTableRecord
  2
VOLL
 70
     0
 62
     1
  6
AUSGEZOGEN
370
    -3
390
10F2
  0
LAYER
  5
111E
330
10E5
100
AcDbSymbolTableRecord
100
AcDbLayerTableRecord
  2
HILF
 70
     0
 62
     2
  6
AUSGEZOGEN
370
    -3
390
10F2
  0
LAYER
  5
111F
330
10E5
100
AcDbSymbolTableRecord
100
AcDbLayerTableRecord
  2
MITTEL
 70
     0
 62
     2
  6
STRICHPUNKT
370
    -3
390
10F2
  0
LAYER
  5
1120
330
10E5
100
AcDbSymbolTableRecord
100
AcDbLayerTableRecord
  2
BEM
 70
     0
 62
     7
  6
AUSGEZOGEN
370
    -3
390
10F2
  0
LAYER
  5
1121
330
10E5
100
AcDbSymbolTableRecord
100
AcDbLayerTableRecord
  2
STEMPEL
 70
     0
 62
     3
  6
AUSGEZOGEN
370
    -3
390
10F2
  0
LAYER
  5
1122
330
10E5
100
AcDbSymbolTableRecord
100
AcDbLayerTableRecord
  2
TEXT
 70
     0
 62
     7
  6
AUSGEZOGEN
370
    -3
390
10F2
  0
LAYER
  5
1123
330
10E5
100
AcDbSymbolTableRecord
100
AcDbLayerTableRecord
  2
SCHRAFF
 70
     0
 62
     7
  6
AUSGEZOGEN
370
    -3
390
10F2
  0
LAYER
  5
1124
330
10E5
100
AcDbSymbolTableRecord
100
AcDbLayerTableRecord
  2
DEFPOINTS
 70
     0
 62
     7
  6
AUSGEZOGEN
290
     0
370
    -3
390
10F2
  0
ENDTAB
  0
TABLE
  2
STYLE
  5
10E6
330
0
100
AcDbSymbolTable
 70
     2
  0
STYLE
  5
10F4
330
10E6
100
AcDbSymbolTableRecord
100
AcDbTextStyleTableRecord
  2
STANDARD
 70
     0
 40
0.0
 41
1.0
 50
0.0
 71
     0
 42
3.5
  3
txt
  4

  0
STYLE
  5
1117
330
10E6
100
AcDbSymbolTableRecord
100
AcDbTextStyleTableRecord
  2
GREEKS
 70
     0
 40
0.0
 41
0.8
 50
0.0
 71
     0
 42
2.5
  3
SIMPLEX.shx
  4

  0
ENDTAB
  0
TABLE
  2
VIEW
  5
10E9
330
0
100
AcDbSymbolTable
 70
     0
  0
ENDTAB
  0
TABLE
  2
UCS
  5
10EA
330
0
100
AcDbSymbolTable
 70
     0
  0
ENDTAB
  0
TABLE
  2
APPID
  5
10EC
330
0
100
AcDbSymbolTable
 70
     1
  0
APPID
  5
10F5
330
10EC
100
AcDbSymbolTableRecord
100
AcDbRegAppTableRecord
  2
ACAD
 70
     0
  0
ENDTAB
  0
TABLE
  2
DIMSTYLE
  5
10ED
330
0
100
AcDbSymbolTable
 70
     1
100
AcDbDimStyleTable
 71
     1
340
111C
  0
DIMSTYLE
105
111C
102
{ACAD_REACTORS
330
2207
330
2208
330
2209
330
23F1
330
2D08
330
2D27
330
2D3D
330
2D4B
330
2D77
102
}
330
10ED
100
AcDbSymbolTableRecord
100
AcDbDimStyleTableRecord
  2
STANDARD
 70
     0
 40
2.0
 41
3.5
 42
1.0
 44
1.0
 73
     0
 74
     0
 77
     1
 78
     8
 79
     2
140
3.5
146
0.5142857142857144
147
1.5
172
     1
178
     1
179
     2
271
     2
272
     2
284
     8
285
     8
286
     8
289
     0
340
1117
  0
ENDTAB
  0
TABLE
  2
BLOCK_RECORD
  5
10E4
330
0
100
AcDbSymbolTable
 70
    11
  0
BLOCK_RECORD
  5
1101
102
{ACAD_XDICTIONARY
360
1561
102
}
330
10E4
100
AcDbSymbolTableRecord
100
AcDbBlockTableRecord
  2
*Model_Space
340
1104
  0
BLOCK_RECORD
  5
10FD
102
{ACAD_XDICTIONARY
360
1563
102
}
330
10E4
100
AcDbSymbolTableRecord
100
AcDbBlockTableRecord
  2
*Paper_Space
340
1100
  0
BLOCK_RECORD
  5
1105
330
10E4
100
AcDbSymbolTableRecord
100
AcDbBlockTableRecord
  2
LOGO
340
0
102
{BLKREFS
331
2FC
102
}
  0
BLOCK_RECORD
  5
225D
330
10E4
100
AcDbSymbolTableRecord
100
AcDbBlockTableRecord
  2
*D1
340
0
  0
BLOCK_RECORD
  5
2269
330
10E4
100
AcDbSymbolTableRecord
100
AcDbBlockTableRecord
  2
*D2
340
0
  0
BLOCK_RECORD
  5
2275
330
10E4
100
AcDbSymbolTableRecord
100
AcDbBlockTableRecord
  2
*D3
340
0
  0
BLOCK_RECORD
  5
23F2
330
10E4
100
AcDbSymbolTableRecord
100
AcDbBlockTableRecord
  2
*D4
340
0
  0
BLOCK_RECORD
  5
2C4C
330
10E4
100
AcDbSymbolTableRecord
100
AcDbBlockTableRecord
  2
*X5
340
0
102
{BLKREFS
331
2D00
102
}
  0
BLOCK_RECORD
  5
2D09
330
10E4
100
AcDbSymbolTableRecord
100
AcDbBlockTableRecord
  2
*D6
340
0
  0
BLOCK_RECORD
  5
2D28
330
10E4
100
AcDbSymbolTableRecord
100
AcDbBlockTableRecord
  2
*D7
340
0
  0
BLOCK_RECORD
  5
2D3E
330
10E4
100
AcDbSymbolTableRecord
100
AcDbBlockTableRecord
  2
*D8
340
0
  0
BLOCK_RECORD
  5
2D4C
330
10E4
100
AcDbSymbolTableRecord
100
AcDbBlockTableRecord
  2
*D9
340
0
  0
BLOCK_RECORD
  5
2D78
330
10E4
100
AcDbSymbolTableRecord
100
AcDbBlockTableRecord
  2
*D10
340
0
  0
ENDTAB
  0
ENDSEC
  0
SECTION
  2
BLOCKS
  0
BLOCK
  5
1127
330
1101
100
AcDbEntity
  8
0
100
AcDbBlockBegin
  2
*Model_Space
 70
     0
 10
0.0
 20
0.0
 30
0.0
  3
*Model_Space
  1

  0
ENDBLK
  5
1128
330
1101
100
AcDbEntity
  8
0
100
AcDbBlockEnd
  0
BLOCK
  5
1125
330
10FD
100
AcDbEntity
 67
     1
  8
0
100
AcDbBlockBegin
  2
*Paper_Space
 70
     0
 10
0.0
 20
0.0
 30
0.0
  3
*Paper_Space
  1

  0
ENDBLK
  5
1126
330
10FD
100
AcDbEntity
 67
     1
  8
0
100
AcDbBlockEnd
  0
BLOCK
  5
42
330
1105
100
AcDbEntity
  8
0
100
AcDbBlockBegin
  2
LOGO
 70
     0
 10
0.0
 20
0.0
 30
0.0
  3
LOGO
  1

  0
ARC
  5
43
330
1105
100
AcDbEntity
  8
0
100
AcDbCircle
 10
11.59973089678112
 20
-9.271599258481501
 30
0.0
 40
4.5
100
AcDbArc
 50
270.0
 51
231.0575587310159
  0
LINE
  5
44
330
1105
100
AcDbEntity
  8
0
100
AcDbLine
 10
3.599730896781125
 20
-4.771599258481529
 30
0.0
 11
3.599730896781153
 21
-11.77159925848133
 31
0.0
  0
LINE
  5
45
330
1105
100
AcDbEntity
  8
0
100
AcDbLine
 10
2.599730896781125
 20
-4.771599258481529
 30
0.0
 11
2.599730896781153
 21
-11.77159925848133
 31
0.0
  0
CIRCLE
  5
46
330
1105
100
AcDbEntity
  8
0
100
AcDbCircle
 10
11.59973089678112
 20
-9.271599258481501
 30
0.0
 40
3.5
  0
ARC
  5
47
330
1105
100
AcDbEntity
  8
0
100
AcDbCircle
 10
31.59973089678115
 20
-9.271599258481472
 30
0.0
 40
4.5
100
AcDbArc
 50
270.0
 51
231.0575587310182
  0
LINE
  5
48
330
1105
100
AcDbEntity
  8
0
100
AcDbLine
 10
17.59973089678112
 20
-4.771599258481472
 30
0.0
 11
17.59973089678115
 21
-13.77159925848147
 31
0.0
  0
ARC
  5
49
330
1105
100
AcDbEntity
  8
0
100
AcDbCircle
 10
22.59973089678116
 20
-7.271599258481472
 30
0.0
 40
2.5
100
AcDbArc
 50
293.1161887722295
 51
90.0
  0
CIRCLE
  5
4A
330
1105
100
AcDbEntity
  8
0
100
AcDbCircle
 10
31.59973089678115
 20
-9.271599258481472
 30
0.0
 40
3.5
  0
ARC
  5
4B
330
1105
100
AcDbEntity
  8
0
100
AcDbCircle
 10
4.599730896781153
 20
-11.77159925848133
 30
0.0
 40
1.0
100
AcDbArc
 50
180.0
 51
270.0
  0
ARC
  5
4C
330
1105
100
AcDbEntity
  8
0
100
AcDbCircle
 10
4.599730896781153
 20
-11.77159925848133
 30
0.0
 40
2.0
100
AcDbArc
 50
179.9999999999992
 51
270.0
  0
LINE
  5
4D
330
1105
100
AcDbEntity
  8
0
100
AcDbLine
 10
11.59973089678115
 20
-13.77159925848144
 30
0.0
 11
4.599730896781153
 21
-13.77159925848147
 31
0.0
  0
LINE
  5
4E
330
1105
100
AcDbEntity
  8
0
100
AcDbLine
 10
8.771303772034769
 20
-12.77159925848136
 30
0.0
 11
4.599730896781153
 21
-12.77159925848133
 31
0.0
  0
LINE
  5
4F
330
1105
100
AcDbEntity
  8
0
100
AcDbLine
 10
31.59973089678115
 20
-13.77159925848147
 30
0.0
 11
23.6715276665056
 21
-13.77159925848144
 31
0.0
  0
LINE
  5
50
330
1105
100
AcDbEntity
  8
0
100
AcDbLine
 10
23.56565672307022
 20
-9.51278021337896
 30
0.0
 11
24.4388546544846
 21
-12.77159925848144
 31
0.0
  0
LINE
  5
51
330
1105
100
AcDbEntity
  8
0
100
AcDbLine
 10
22.59973089678116
 20
-9.771599258481472
 30
0.0
 11
18.59973089678112
 21
-9.771599258481472
 31
0.0
  0
LINE
  5
52
330
1105
100
AcDbEntity
  8
0
100
AcDbLine
 10
18.59973089678115
 20
-13.77159925848144
 30
0.0
 11
17.59973089678115
 21
-13.77159925848144
 31
0.0
  0
LINE
  5
53
330
1105
100
AcDbEntity
  8
0
100
AcDbLine
 10
18.59973089678115
 20
-9.771599258481472
 30
0.0
 11
18.59973089678115
 21
-13.77159925848144
 31
0.0
  0
LINE
  5
54
330
1105
100
AcDbEntity
  8
0
100
AcDbLine
 10
22.59973089678116
 20
-9.771599258481472
 30
0.0
 11
23.67152766650562
 21
-13.77159925848147
 31
0.0
  0
ARC
  5
55
330
1105
100
AcDbEntity
  8
0
100
AcDbCircle
 10
22.59973089678116
 20
-7.271599258481472
 30
0.0
 40
2.5
100
AcDbArc
 50
270.0
 51
270.0000000000007
  0
LINE
  5
56
330
1105
100
AcDbEntity
  8
0
100
AcDbLine
 10
28.77130377203494
 20
-12.77159925848147
 30
0.0
 11
24.43885465448463
 21
-12.77159925848144
 31
0.0
  0
LINE
  5
57
330
1105
100
AcDbEntity
  8
0
100
AcDbLine
 10
3.599730896781125
 20
-4.771599258481472
 30
0.0
 11
2.599730896781125
 21
-4.771599258481472
 31
0.0
  0
LINE
  5
58
330
1105
100
AcDbEntity
  8
0
100
AcDbLine
 10
22.59973089678116
 20
-8.771599258481472
 30
0.0
 11
18.59973089678115
 21
-8.771599258481472
 31
0.0
  0
LINE
  5
59
330
1105
100
AcDbEntity
  8
0
100
AcDbLine
 10
22.59973089678116
 20
-5.771599258481472
 30
0.0
 11
18.59973089678115
 21
-5.771599258481472
 31
0.0
  0
LINE
  5
5A
330
1105
100
AcDbEntity
  8
0
100
AcDbLine
 10
22.59973089678116
 20
-4.771599258481472
 30
0.0
 11
17.59973089678115
 21
-4.771599258481472
 31
0.0
  0
LINE
  5
5B
330
1105
100
AcDbEntity
  8
0
100
AcDbLine
 10
18.59973089678115
 20
-5.771599258481472
 30
0.0
 11
18.59973089678115
 21
-8.771599258481472
 31
0.0
  0
ARC
  5
5C
330
1105
100
AcDbEntity
  8
0
100
AcDbCircle
 10
22.59973089678116
 20
-7.271599258481472
 30
0.0
 40
1.5
100
AcDbArc
 50
270.0
 51
90.0
  0
ENDBLK
  5
5D
330
1105
100
AcDbEntity
  8
0
100
AcDbBlockEnd
  0
BLOCK
  5
2267
330
225D
100
AcDbEntity
  8
0
100
AcDbBlockBegin
  2
*D1
 70
     1
 10
0.0
 20
0.0
 30
0.0
  3
*D1
  1

  0
LINE
  5
2BE9
330
225D
100
AcDbEntity
  8
BEM
 62
     0
370
    -2
100
AcDbLine
 10
271.8123029715146
 20
317.9436219968315
 30
0.0
 11
238.9393508638568
 21
317.9436219968315
 31
0.0
  0
LINE
  5
2BEA
330
225D
100
AcDbEntity
  8
BEM
 62
     0
370
    -2
100
AcDbLine
 10
318.8123029715141
 20
428.9436219968329
 30
0.0
 11
238.9393508638568
 21
428.9436219968329
 31
0.0
  0
LINE
  5
2BEB
330
225D
100
AcDbEntity
  8
BEM
 62
     0
370
    -2
100
AcDbLine
 10
240.9393508638568
 20
324.9436219968316
 30
0.0
 11
240.9393508638568
 21
421.9436219968328
 31
0.0
  0
SOLID
  5
2BEC
330
225D
100
AcDbEntity
  8
BEM
 62
     0
100
AcDbTrace
 10
239.7726841971902
 20
324.9436219968316
 30
0.0
 11
242.1060175305235
 21
324.9436219968316
 31
0.0
 12
240.9393508638568
 22
317.9436219968315
 32
0.0
 13
240.9393508638568
 23
317.9436219968315
 33
0.0
  0
SOLID
  5
2BED
330
225D
100
AcDbEntity
  8
BEM
 62
     0
100
AcDbTrace
 10
239.7726841971902
 20
421.9436219968328
 30
0.0
 11
242.1060175305235
 21
421.9436219968328
 31
0.0
 12
240.9393508638568
 22
428.9436219968329
 32
0.0
 13
240.9393508638568
 23
428.9436219968329
 33
0.0
  0
MTEXT
  5
2BEE
330
225D
100
AcDbEntity
  8
BEM
 62
     1
100
AcDbMText
 10
234.4393508638567
 20
373.4436219968323
 30
0.0
 40
7.0
 41
0.0
 71
     5
 72
     1
  1
\A1;110
  7
GREEKS
 11
0.0000000000000001
 21
1.0
 31
0.0
 73
     1
 44
1.0
  0
POINT
  5
2BEF
330
225D
100
AcDbEntity
  8
DEFPOINTS
 62
     0
100
AcDbPoint
 10
273.8123029715146
 20
317.9436219968315
 30
0.0
  0
POINT
  5
2BF0
330
225D
100
AcDbEntity
  8
DEFPOINTS
 62
     0
100
AcDbPoint
 10
320.8123029715141
 20
428.9436219968329
 30
0.0
  0
POINT
  5
2BF1
330
225D
100
AcDbEntity
  8
DEFPOINTS
 62
     0
100
AcDbPoint
 10
240.9393508638568
 20
428.9436219968329
 30
0.0
  0
ENDBLK
  5
2268
330
225D
100
AcDbEntity
  8
0
100
AcDbBlockEnd
  0
BLOCK
  5
2273
330
2269
100
AcDbEntity
  8
0
100
AcDbBlockBegin
  2
*D2
 70
     1
 10
0.0
 20
0.0
 30
0.0
  3
*D2
  1

  0
LINE
  5
2437
330
2269
100
AcDbEntity
  8
BEM
 62
     0
370
    -2
100
AcDbLine
 10
290.8123029715141
 20
410.9435640295173
 30
0.0
 11
290.8123029715141
 21
443.4436555097463
 31
0.0
  0
LINE
  5
2438
330
2269
100
AcDbEntity
  8
BEM
 62
     0
370
    -2
100
AcDbLine
 10
510.8123029715145
 20
410.9435640295173
 30
0.0
 11
510.8123029715145
 21
443.4436555097463
 31
0.0
  0
LINE
  5
2439
330
2269
100
AcDbEntity
  8
BEM
 62
     0
370
    -2
100
AcDbLine
 10
297.8123029715141
 20
441.4436555097463
 30
0.0
 11
503.8123029715145
 21
441.4436555097463
 31
0.0
  0
SOLID
  5
243A
330
2269
100
AcDbEntity
  8
BEM
 62
     0
100
AcDbTrace
 10
297.8123029715141
 20
442.610322176413
 30
0.0
 11
297.8123029715141
 21
440.2769888430796
 31
0.0
 12
290.8123029715141
 22
441.4436555097463
 32
0.0
 13
290.8123029715141
 23
441.4436555097463
 33
0.0
  0
SOLID
  5
243B
330
2269
100
AcDbEntity
  8
BEM
 62
     0
100
AcDbTrace
 10
503.8123029715145
 20
442.610322176413
 30
0.0
 11
503.8123029715145
 21
440.2769888430796
 31
0.0
 12
510.8123029715145
 22
441.4436555097463
 32
0.0
 13
510.8123029715145
 23
441.4436555097463
 33
0.0
  0
MTEXT
  5
243C
330
2269
100
AcDbEntity
  8
BEM
 62
     1
100
AcDbMText
 10
400.8123029715143
 20
447.9436555097463
 30
0.0
 40
7.0
 41
0.0
 71
     5
 72
     1
  1
\A1;%%C220
  7
GREEKS
 73
     1
 44
1.0
  0
POINT
  5
243D
330
2269
100
AcDbEntity
  8
DEFPOINTS
 62
     0
100
AcDbPoint
 10
290.8123029715141
 20
408.9435640295173
 30
0.0
  0
POINT
  5
243E
330
2269
100
AcDbEntity
  8
DEFPOINTS
 62
     0
100
AcDbPoint
 10
510.8123029715145
 20
408.9435640295173
 30
0.0
  0
POINT
  5
243F
330
2269
100
AcDbEntity
  8
DEFPOINTS
 62
     0
100
AcDbPoint
 10
510.8123029715145
 20
441.4436555097463
 30
0.0
  0
ENDBLK
  5
2274
330
2269
100
AcDbEntity
  8
0
100
AcDbBlockEnd
  0
BLOCK
  5
227F
330
2275
100
AcDbEntity
  8
0
100
AcDbBlockBegin
  2
*D3
 70
     1
 10
0.0
 20
0.0
 30
0.0
  3
*D3
  1

  0
LINE
  5
2425
330
2275
100
AcDbEntity
  8
BEM
 62
     0
370
    -2
100
AcDbLine
 10
270.8123029715145
 20
341.9436219968332
 30
0.0
 11
270.8123029715145
 21
459.4436555097463
 31
0.0
  0
LINE
  5
2426
330
2275
100
AcDbEntity
  8
BEM
 62
     0
370
    -2
100
AcDbLine
 10
530.812302971514
 20
340.9436219968313
 30
0.0
 11
530.812302971514
 21
459.4436555097463
 31
0.0
  0
LINE
  5
2427
330
2275
100
AcDbEntity
  8
BEM
 62
     0
370
    -2
100
AcDbLine
 10
277.8123029715146
 20
457.4436555097462
 30
0.0
 11
523.8123029715141
 21
457.4436555097462
 31
0.0
  0
SOLID
  5
2428
330
2275
100
AcDbEntity
  8
BEM
 62
     0
100
AcDbTrace
 10
277.8123029715146
 20
458.610322176413
 30
0.0
 11
277.8123029715146
 21
456.2769888430795
 31
0.0
 12
270.8123029715145
 22
457.4436555097462
 32
0.0
 13
270.8123029715145
 23
457.4436555097462
 33
0.0
  0
SOLID
  5
2429
330
2275
100
AcDbEntity
  8
BEM
 62
     0
100
AcDbTrace
 10
523.8123029715141
 20
458.610322176413
 30
0.0
 11
523.8123029715141
 21
456.2769888430795
 31
0.0
 12
530.812302971514
 22
457.4436555097462
 32
0.0
 13
530.812302971514
 23
457.4436555097462
 33
0.0
  0
MTEXT
  5
242A
330
2275
100
AcDbEntity
  8
BEM
 62
     1
100
AcDbMText
 10
400.8123029715143
 20
463.9436555097462
 30
0.0
 40
7.0
 41
0.0
 71
     5
 72
     1
  1
\A1;%%C260
  7
GREEKS
 73
     1
 44
1.0
  0
POINT
  5
242B
330
2275
100
AcDbEntity
  8
DEFPOINTS
 62
     0
100
AcDbPoint
 10
270.8123029715145
 20
339.9436219968332
 30
0.0
  0
POINT
  5
242C
330
2275
100
AcDbEntity
  8
DEFPOINTS
 62
     0
100
AcDbPoint
 10
530.812302971514
 20
338.9436219968313
 30
0.0
  0
POINT
  5
242D
330
2275
100
AcDbEntity
  8
DEFPOINTS
 62
     0
100
AcDbPoint
 10
530.812302971514
 20
457.4436555097462
 30
0.0
  0
ENDBLK
  5
2280
330
2275
100
AcDbEntity
  8
0
100
AcDbBlockEnd
  0
BLOCK
  5
23FC
330
23F2
100
AcDbEntity
  8
0
100
AcDbBlockBegin
  2
*D4
 70
     1
 10
0.0
 20
0.0
 30
0.0
  3
*D4
  1

  0
LINE
  5
2D1E
330
23F2
100
AcDbEntity
  8
BEM
 62
     0
370
    -2
100
AcDbLine
 10
400.8123029715145
 20
470.9620559446744
 30
0.0
 11
400.8123029715145
 21
486.6696468246296
 31
0.0
  0
LINE
  5
2D1F
330
23F2
100
AcDbEntity
  8
BEM
 62
     0
370
    -2
100
AcDbLine
 10
662.7444319117687
 20
248.8598393890254
 30
0.0
 11
662.7444319117687
 21
486.6696468246296
 31
0.0
  0
LINE
  5
2D20
330
23F2
100
AcDbEntity
  8
BEM
 62
     0
370
    -2
100
AcDbLine
 10
407.8123029715145
 20
484.6696468246295
 30
0.0
 11
655.7444319117687
 21
484.6696468246295
 31
0.0
  0
SOLID
  5
2D21
330
23F2
100
AcDbEntity
  8
BEM
 62
     0
100
AcDbTrace
 10
407.8123029715145
 20
485.8363134912962
 30
0.0
 11
407.8123029715145
 21
483.5029801579628
 31
0.0
 12
400.8123029715145
 22
484.6696468246295
 32
0.0
 13
400.8123029715145
 23
484.6696468246295
 33
0.0
  0
SOLID
  5
2D22
330
23F2
100
AcDbEntity
  8
BEM
 62
     0
100
AcDbTrace
 10
655.7444319117687
 20
485.8363134912962
 30
0.0
 11
655.7444319117687
 21
483.5029801579628
 31
0.0
 12
662.7444319117687
 22
484.6696468246295
 32
0.0
 13
662.7444319117687
 23
484.6696468246295
 33
0.0
  0
MTEXT
  5
2D23
330
23F2
100
AcDbEntity
  8
BEM
 62
     1
100
AcDbMText
 10
531.7783674416416
 20
491.1696468246296
 30
0.0
 40
7.0
 41
0.0
 71
     5
 72
     1
  1
\A1;262
  7
GREEKS
 73
     1
 44
1.0
  0
POINT
  5
2D24
330
23F2
100
AcDbEntity
  8
DEFPOINTS
 62
     0
100
AcDbPoint
 10
400.8123029715145
 20
468.9620559446743
 30
0.0
  0
POINT
  5
2D25
330
23F2
100
AcDbEntity
  8
DEFPOINTS
 62
     0
100
AcDbPoint
 10
662.7444319117687
 20
246.8598393890254
 30
0.0
  0
POINT
  5
2D26
330
23F2
100
AcDbEntity
  8
DEFPOINTS
 62
     0
100
AcDbPoint
 10
662.7444319117687
 20
484.6696468246295
 30
0.0
  0
ENDBLK
  5
23FD
330
23F2
100
AcDbEntity
  8
0
100
AcDbBlockEnd
  0
BLOCK
  5
2C4D
330
2C4C
100
AcDbEntity
  8
0
100
AcDbBlockBegin
  2
*X5
 70
     1
 10
0.0
 20
0.0
 30
0.0
  3
*X5
  1

  0
LINE
  5
2C4E
330
2C4C
100
AcDbEntity
  8
0
 62
     0
100
AcDbLine
 10
206.5172291092391
 20
441.4
 30
0.0
 11
209.0645566134967
 21
441.4
 31
0.0
  0
LINE
  5
2C4F
330
2C4C
100
AcDbEntity
  8
0
 62
     0
100
AcDbLine
 10
206.4576795827597
 20
441.5
 30
0.0
 11
209.0645566134967
 21
441.5
 31
0.0
  0
LINE
  5
2C50
330
2C4C
100
AcDbEntity
  8
0
 62
     0
100
AcDbLine
 10
206.4032151673795
 20
441.6
 30
0.0
 11
209.0645566134967
 21
441.6
 31
0.0
  0
LINE
  5
2C51
330
2C4C
100
AcDbEntity
  8
0
 62
     0
100
AcDbLine
 10
206.3535293668136
 20
441.7
 30
0.0
 11
209.0645566134967
 21
441.7
 31
0.0
  0
LINE
  5
2C52
330
2C4C
100
AcDbEntity
  8
0
 62
     0
100
AcDbLine
 10
206.3083637371371
 20
441.8
 30
0.0
 11
209.0645566134967
 21
441.8
 31
0.0
  0
LINE
  5
2C53
330
2C4C
100
AcDbEntity
  8
0
 62
     0
100
AcDbLine
 10
206.2674993006887
 20
441.9
 30
0.0
 11
209.0645566134967
 21
441.9
 31
0.0
  0
LINE
  5
2C54
330
2C4C
100
AcDbEntity
  8
0
 62
     0
100
AcDbLine
 10
206.2307499774381
 20
442.0
 30
0.0
 11
209.0645566134967
 21
442.0
 31
0.0
  0
LINE
  5
2C55
330
2C4C
100
AcDbEntity
  8
0
 62
     0
100
AcDbLine
 10
206.1979574978186
 20
442.1
 30
0.0
 11
209.0645566134967
 21
442.1
 31
0.0
  0
LINE
  5
2C56
330
2C4C
100
AcDbEntity
  8
0
 62
     0
100
AcDbLine
 10
206.1689874242968
 20
442.2
 30
0.0
 11
209.0645566134967
 21
442.2
 31
0.0
  0
LINE
  5
2C57
330
2C4C
100
AcDbEntity
  8
0
 62
     0
100
AcDbLine
 10
206.143726017779
 20
442.3
 30
0.0
 11
209.0645566134967
 21
442.3
 31
0.0
  0
LINE
  5
2C58
330
2C4C
100
AcDbEntity
  8
0
 62
     0
100
AcDbLine
 10
206.1220777591431
 20
442.4
 30
0.0
 11
209.0645566134967
 21
442.4
 31
0.0
  0
LINE
  5
2C59
330
2C4C
100
AcDbEntity
  8
0
 62
     0
100
AcDbLine
 10
206.1039633878483
 20
442.4999999999999
 30
0.0
 11
209.0645566134967
 21
442.4999999999999
 31
0.0
  0
LINE
  5
2C5A
330
2C4C
100
AcDbEntity
  8
0
 62
     0
100
AcDbLine
 10
206.0893183562823
 20
442.6
 30
0.0
 11
209.0645566134967
 21
442.6
 31
0.0
  0
LINE
  5
2C5B
330
2C4C
100
AcDbEntity
  8
0
 62
     0
100
AcDbLine
 10
206.0780916251486
 20
442.7
 30
0.0
 11
209.0645566134967
 21
442.7
 31
0.0
  0
LINE
  5
2C5C
330
2C4C
100
AcDbEntity
  8
0
 62
     0
100
AcDbLine
 10
206.0702447449588
 20
442.7999999999999
 30
0.0
 11
209.0645566134967
 21
442.7999999999999
 31
0.0
  0
LINE
  5
2C5D
330
2C4C
100
AcDbEntity
  8
0
 62
     0
100
AcDbLine
 10
206.0657511837458
 20
442.9
 30
0.0
 11
209.0645566134967
 21
442.9
 31
0.0
  0
LINE
  5
2C5E
330
2C4C
100
AcDbEntity
  8
0
 62
     0
100
AcDbLine
 10
206.5822296860938
 20
441.3
 30
0.0
 11
209.0645566134967
 21
441.3
 31
0.0
  0
LINE
  5
2C5F
330
2C4C
100
AcDbEntity
  8
0
 62
     0
100
AcDbLine
 10
206.6531220746645
 20
441.2
 30
0.0
 11
209.0645566134967
 21
441.2
 31
0.0
  0
LINE
  5
2C60
330
2C4C
100
AcDbEntity
  8
0
 62
     0
100
AcDbLine
 10
206.7304430567828
 20
441.1
 30
0.0
 11
209.0645566134967
 21
441.1
 31
0.0
  0
LINE
  5
2C61
330
2C4C
100
AcDbEntity
  8
0
 62
     0
100
AcDbLine
 10
206.8148553763991
 20
441.0
 30
0.0
 11
209.0645566134967
 21
441.0
 31
0.0
  0
LINE
  5
2C62
330
2C4C
100
AcDbEntity
  8
0
 62
     0
100
AcDbLine
 10
206.9071912719837
 20
440.9
 30
0.0
 11
209.0645566134967
 21
440.9
 31
0.0
  0
LINE
  5
2C63
330
2C4C
100
AcDbEntity
  8
0
 62
     0
100
AcDbLine
 10
207.0085180006968
 20
440.8
 30
0.0
 11
209.0645566134967
 21
440.8
 31
0.0
  0
LINE
  5
2C64
330
2C4C
100
AcDbEntity
  8
0
 62
     0
100
AcDbLine
 10
207.1202407086378
 20
440.7
 30
0.0
 11
209.0645566134967
 21
440.7
 31
0.0
  0
LINE
  5
2C65
330
2C4C
100
AcDbEntity
  8
0
 62
     0
100
AcDbLine
 10
207.2442725976217
 20
440.6
 30
0.0
 11
209.0645566134967
 21
440.6
 31
0.0
  0
LINE
  5
2C66
330
2C4C
100
AcDbEntity
  8
0
 62
     0
100
AcDbLine
 10
207.3833357895081
 20
440.5
 30
0.0
 11
209.0645566134967
 21
440.5
 31
0.0
  0
LINE
  5
2C67
330
2C4C
100
AcDbEntity
  8
0
 62
     0
100
AcDbLine
 10
207.5415421619645
 20
440.4
 30
0.0
 11
209.0645566134967
 21
440.4
 31
0.0
  0
LINE
  5
2C68
330
2C4C
100
AcDbEntity
  8
0
 62
     0
100
AcDbLine
 10
207.7256605831274
 20
440.3
 30
0.0
 11
209.0645566134967
 21
440.3
 31
0.0
  0
LINE
  5
2C69
330
2C4C
100
AcDbEntity
  8
0
 62
     0
100
AcDbLine
 10
207.9484418610175
 20
440.2
 30
0.0
 11
209.0645566134967
 21
440.2
 31
0.0
  0
LINE
  5
2C6A
330
2C4C
100
AcDbEntity
  8
0
 62
     0
100
AcDbLine
 10
208.2406745216507
 20
440.1
 30
0.0
 11
209.0645566134967
 21
440.1
 31
0.0
  0
LINE
  5
2C6B
330
2C4C
100
AcDbEntity
  8
0
 62
     0
100
AcDbLine
 10
208.7614868825315
 20
440.0
 30
0.0
 11
209.0645566134967
 21
440.0
 31
0.0
  0
ENDBLK
  5
2C6C
330
2C4C
100
AcDbEntity
  8
0
100
AcDbBlockEnd
  0
BLOCK
  5
2D13
330
2D09
100
AcDbEntity
  8
0
100
AcDbBlockBegin
  2
*D6
 70
     1
 10
0.0
 20
0.0
 30
0.0
  3
*D6
  1

  0
LINE
  5
2D0A
330
2D09
100
AcDbEntity
  8
BEM
 62
     0
370
    -2
100
AcDbLine
 10
344.8123029715146
 20
254.9436219968312
 30
0.0
 11
238.9393508638568
 21
254.9436219968312
 31
0.0
  0
LINE
  5
2D0B
330
2D09
100
AcDbEntity
  8
BEM
 62
     0
370
    -2
100
AcDbLine
 10
263.8123029715146
 20
309.9436219968311
 30
0.0
 11
238.9393508638568
 21
309.9436219968311
 31
0.0
  0
LINE
  5
2D0C
330
2D09
100
AcDbEntity
  8
BEM
 62
     0
370
    -2
100
AcDbLine
 10
240.9393508638568
 20
261.9436219968311
 30
0.0
 11
240.9393508638568
 21
302.9436219968312
 31
0.0
  0
SOLID
  5
2D0D
330
2D09
100
AcDbEntity
  8
BEM
 62
     0
100
AcDbTrace
 10
239.7726841971902
 20
261.9436219968311
 30
0.0
 11
242.1060175305234
 21
261.9436219968311
 31
0.0
 12
240.9393508638568
 22
254.9436219968312
 32
0.0
 13
240.9393508638568
 23
254.9436219968312
 33
0.0
  0
SOLID
  5
2D0E
330
2D09
100
AcDbEntity
  8
BEM
 62
     0
100
AcDbTrace
 10
239.7726841971902
 20
302.9436219968312
 30
0.0
 11
242.1060175305234
 21
302.9436219968312
 31
0.0
 12
240.9393508638568
 22
309.9436219968311
 32
0.0
 13
240.9393508638568
 23
309.9436219968311
 33
0.0
  0
MTEXT
  5
2D0F
330
2D09
100
AcDbEntity
  8
BEM
 62
     1
100
AcDbMText
 10
234.4393508638567
 20
282.4436219968312
 30
0.0
 40
7.0
 41
0.0
 71
     5
 72
     1
  1
\A1;55
  7
GREEKS
 11
0.0000000000000001
 21
1.0
 31
0.0
 73
     1
 44
1.0
  0
POINT
  5
2D10
330
2D09
100
AcDbEntity
  8
DEFPOINTS
 62
     0
100
AcDbPoint
 10
346.8123029715146
 20
254.9436219968312
 30
0.0
  0
POINT
  5
2D11
330
2D09
100
AcDbEntity
  8
DEFPOINTS
 62
     0
100
AcDbPoint
 10
265.8123029715146
 20
309.9436219968311
 30
0.0
  0
POINT
  5
2D12
330
2D09
100
AcDbEntity
  8
DEFPOINTS
 62
     0
100
AcDbPoint
 10
240.9393508638568
 20
309.9436219968311
 30
0.0
  0
ENDBLK
  5
2D14
330
2D09
100
AcDbEntity
  8
0
100
AcDbBlockEnd
  0
BLOCK
  5
2D32
330
2D28
100
AcDbEntity
  8
0
100
AcDbBlockBegin
  2
*D7
 70
     1
 10
0.0
 20
0.0
 30
0.0
  3
*D7
  1

  0
LINE
  5
2DF9
330
2D28
100
AcDbEntity
  8
BEM
 62
     0
370
    -2
100
AcDbLine
 10
660.9259244169852
 20
268.1840034615678
 30
0.0
 11
683.6713064664779
 21
266.9893081535905
 31
0.0
  0
LINE
  5
2DFA
330
2D28
100
AcDbEntity
  8
BEM
 62
     0
370
    -2
100
AcDbLine
 10
658.7019410741087
 20
225.8423700194185
 30
0.0
 11
681.4473231236014
 21
224.6476747114412
 31
0.0
  0
LINE
  5
2DFB
330
2D28
100
AcDbEntity
  8
BEM
 62
     0
370
    -2
100
AcDbLine
 10
681.3068925607593
 20
260.1038490634175
 30
0.0
 11
679.8172433355354
 21
231.7429435495148
 31
0.0
  0
SOLID
  5
2DFC
330
2D28
100
AcDbEntity
  8
BEM
 62
     0
100
AcDbTrace
 10
680.1418319000722
 20
260.165043573222
 30
0.0
 11
682.4719532214466
 21
260.0426545536132
 31
0.0
 12
681.6740596195856
 22
267.0942130275408
 32
0.0
 13
681.6740596195856
 23
267.0942130275408
 33
0.0
  0
SOLID
  5
2DFD
330
2D28
100
AcDbEntity
  8
BEM
 62
     0
100
AcDbTrace
 10
678.6521826748483
 20
231.8041380593192
 30
0.0
 11
680.9823039962226
 21
231.6817490397104
 31
0.0
 12
679.450076276709
 22
224.7525795853915
 32
0.0
 13
679.450076276709
 23
224.7525795853915
 33
0.0
  0
MTEXT
  5
2DFE
330
2D28
100
AcDbEntity
  8
BEM
 62
     1
100
AcDbMText
 10
674.0710156957472
 20
246.2643371468049
 30
0.0
 40
7.0
 41
0.0
 71
     5
 72
     1
  1
\A1;%%c42
  7
GREEKS
 11
0.0524524369751828
 21
0.9986234234461781
 31
0.0
 73
     1
 44
1.0
  0
POINT
  5
2DFF
330
2D28
100
AcDbEntity
  8
DEFPOINTS
 62
     0
100
AcDbPoint
 10
658.9286775700928
 20
268.2889083355182
 30
0.0
  0
POINT
  5
2E00
330
2D28
100
AcDbEntity
  8
DEFPOINTS
 62
     0
100
AcDbPoint
 10
656.7046942272163
 20
225.9472748933689
 30
0.0
  0
POINT
  5
2E01
330
2D28
100
AcDbEntity
  8
DEFPOINTS
 62
     0
100
AcDbPoint
 10
679.450076276709
 20
224.7525795853915
 30
0.0
  0
ENDBLK
  5
2D33
330
2D28
100
AcDbEntity
  8
0
100
AcDbBlockEnd
  0
BLOCK
  5
2D48
330
2D3E
100
AcDbEntity
  8
0
100
AcDbBlockBegin
  2
*D8
 70
     1
 10
0.0
 20
0.0
 30
0.0
  3
*D8
  1

  0
LINE
  5
2D3F
330
2D3E
100
AcDbEntity
  8
BEM
 62
     0
370
    -2
100
AcDbLine
 10
265.8123029715146
 20
307.9436219968311
 30
0.0
 11
265.8123029715146
 21
203.7894911546741
 31
0.0
  0
LINE
  5
2D40
330
2D3E
100
AcDbEntity
  8
BEM
 62
     0
370
    -2
100
AcDbLine
 10
545.8123029715145
 20
307.9436219968312
 30
0.0
 11
545.8123029715145
 21
203.7894911546741
 31
0.0
  0
LINE
  5
2D41
330
2D3E
100
AcDbEntity
  8
BEM
 62
     0
370
    -2
100
AcDbLine
 10
272.8123029715145
 20
205.7894911546741
 30
0.0
 11
538.8123029715145
 21
205.7894911546741
 31
0.0
  0
SOLID
  5
2D42
330
2D3E
100
AcDbEntity
  8
BEM
 62
     0
100
AcDbTrace
 10
272.8123029715145
 20
206.9561578213408
 30
0.0
 11
272.8123029715145
 21
204.6228244880075
 31
0.0
 12
265.8123029715146
 22
205.7894911546741
 32
0.0
 13
265.8123029715146
 23
205.7894911546741
 33
0.0
  0
SOLID
  5
2D43
330
2D3E
100
AcDbEntity
  8
BEM
 62
     0
100
AcDbTrace
 10
538.8123029715145
 20
206.9561578213408
 30
0.0
 11
538.8123029715145
 21
204.6228244880075
 31
0.0
 12
545.8123029715145
 22
205.7894911546741
 32
0.0
 13
545.8123029715145
 23
205.7894911546741
 33
0.0
  0
MTEXT
  5
2D44
330
2D3E
100
AcDbEntity
  8
BEM
 62
     1
100
AcDbMText
 10
405.8123029715146
 20
212.2894911546741
 30
0.0
 40
7.0
 41
0.0
 71
     5
 72
     1
  1
\A1;280
  7
GREEKS
 73
     1
 44
1.0
  0
POINT
  5
2D45
330
2D3E
100
AcDbEntity
  8
DEFPOINTS
 62
     0
100
AcDbPoint
 10
265.8123029715146
 20
309.9436219968311
 30
0.0
  0
POINT
  5
2D46
330
2D3E
100
AcDbEntity
  8
DEFPOINTS
 62
     0
100
AcDbPoint
 10
545.8123029715145
 20
309.9436219968312
 30
0.0
  0
POINT
  5
2D47
330
2D3E
100
AcDbEntity
  8
DEFPOINTS
 62
     0
100
AcDbPoint
 10
545.8123029715145
 20
205.7894911546741
 30
0.0
  0
ENDBLK
  5
2D49
330
2D3E
100
AcDbEntity
  8
0
100
AcDbBlockEnd
  0
BLOCK
  5
2D5B
330
2D4C
100
AcDbEntity
  8
0
100
AcDbBlockBegin
  2
*D9
 70
     1
 10
0.0
 20
0.0
 30
0.0
  3
*D9
  1

  0
LINE
  5
2D6B
330
2D4C
100
AcDbEntity
  8
BEM
 62
     0
370
    -2
100
AcDbLine
 10
530.8123029715144
 20
254.9436219968316
 30
0.0
 11
602.3050826742536
 21
254.9436219968317
 31
0.0
  0
ARC
  5
2D6C
330
2D4C
100
AcDbEntity
  8
BEM
 62
     0
370
    -2
100
AcDbCircle
 10
508.4966710183406
 20
254.9436219968316
 30
0.0
 40
91.80841165591303
100
AcDbArc
 50
348.260764401736
 51
352.630382200868
  0
ARC
  5
2D6D
330
2D4C
100
AcDbEntity
  8
BEM
 62
     0
370
    -2
100
AcDbCircle
 10
508.4966710183406
 20
254.9436219968316
 30
0.0
 40
91.80841165591303
100
AcDbArc
 50
4.369617799132177
 51
8.739235598264114
  0
ARC
  5
2D6E
330
2D4C
100
AcDbEntity
  8
BEM
 62
     0
370
    -2
100
AcDbCircle
 10
508.4966710183406
 20
254.9436219968316
 30
0.0
 40
91.80841165591303
100
AcDbArc
 50
357.0
 51
0.0000000000001599
  0
SOLID
  5
2D6F
330
2D4C
100
AcDbEntity
  8
BEM
 62
     0
100
AcDbTrace
 10
598.384789576751
 20
243.2728121832143
 30
0.0
 11
600.7085758281481
 21
243.0619522717504
 31
0.0
 12
600.1792624368414
 22
250.1387409816735
 32
0.0
 13
600.1792624368414
 23
250.1387409816735
 33
0.0
  0
SOLID
  5
2D70
330
2D4C
100
AcDbEntity
  8
BEM
 62
     0
100
AcDbTrace
 10
601.2040411642166
 20
261.9830100912924
 30
0.0
 11
598.8724040260152
 21
261.8940567315799
 31
0.0
 12
600.3050826742536
 22
254.9436219968317
 32
0.0
 13
600.3050826742536
 23
254.9436219968317
 33
0.0
  0
MTEXT
  5
2D71
330
2D4C
100
AcDbEntity
  8
BEM
 62
     1
100
AcDbMText
 10
592.7000099466418
 20
241.2570295582315
 30
0.0
 40
7.0
 41
0.0
 71
     5
 72
     1
  1
\A1;3°
  7
GREEKS
 11
0.1604366107975868
 21
0.9870461457884246
 31
0.0
 73
     1
 44
1.0
  0
POINT
  5
2D72
330
2D4C
100
AcDbEntity
  8
DEFPOINTS
 62
     0
100
AcDbPoint
 10
600.2910998084744
 20
253.3413442822513
 30
0.0
  0
POINT
  5
2D73
330
2D4C
100
AcDbEntity
  8
DEFPOINTS
 62
     0
100
AcDbPoint
 10
528.8123029715144
 20
254.9436219968316
 30
0.0
  0
POINT
  5
2D74
330
2D4C
100
AcDbEntity
  8
DEFPOINTS
 62
     0
100
AcDbPoint
 10
508.4966710183399
 20
254.9436219968316
 30
0.0
  0
POINT
  5
2D75
330
2D4C
100
AcDbEntity
  8
DEFPOINTS
 62
     0
100
AcDbPoint
 10
667.8054506452873
 20
246.5946026362918
 30
0.0
  0
POINT
  5
2D76
330
2D4C
100
AcDbEntity
  8
DEFPOINTS
 62
     0
100
AcDbPoint
 10
438.6783283752989
 20
254.9436219968314
 30
0.0
  0
ENDBLK
  5
2D5C
330
2D4C
100
AcDbEntity
  8
0
100
AcDbBlockEnd
  0
BLOCK
  5
2D82
330
2D78
100
AcDbEntity
  8
0
100
AcDbBlockBegin
  2
*D10
 70
     1
 10
0.0
 20
0.0
 30
0.0
  3
*D10
  1

  0
LINE
  5
2DA4
330
2D78
100
AcDbEntity
  8
BEM
 62
     0
370
    -2
100
AcDbLine
 10
547.8123029715145
 20
309.9436219968312
 30
0.0
 11
700.7438785643533
 21
309.9436219968311
 31
0.0
  0
LINE
  5
2DA5
330
2D78
100
AcDbEntity
  8
BEM
 62
     0
370
    -2
100
AcDbLine
 10
682.6112543788034
 20
246.8598393890254
 30
0.0
 11
700.7438785643532
 21
246.8598393890254
 31
0.0
  0
LINE
  5
2DA6
330
2D78
100
AcDbEntity
  8
BEM
 62
     0
370
    -2
100
AcDbLine
 10
698.7438785643534
 20
302.9436219968312
 30
0.0
 11
698.7438785643533
 21
253.8598393890254
 31
0.0
  0
SOLID
  5
2DA7
330
2D78
100
AcDbEntity
  8
BEM
 62
     0
100
AcDbTrace
 10
697.5772118976867
 20
302.9436219968312
 30
0.0
 11
699.91054523102
 21
302.9436219968312
 31
0.0
 12
698.7438785643534
 22
309.9436219968311
 32
0.0
 13
698.7438785643534
 23
309.9436219968311
 33
0.0
  0
SOLID
  5
2DA8
330
2D78
100
AcDbEntity
  8
BEM
 62
     0
100
AcDbTrace
 10
697.5772118976866
 20
253.8598393890254
 30
0.0
 11
699.9105452310199
 21
253.8598393890254
 31
0.0
 12
698.7438785643533
 22
246.8598393890254
 32
0.0
 13
698.7438785643533
 23
246.8598393890254
 33
0.0
  0
MTEXT
  5
2DA9
330
2D78
100
AcDbEntity
  8
BEM
 62
     1
100
AcDbMText
 10
692.2438785643532
 20
278.4017306929284
 30
0.0
 40
7.0
 41
0.0
 71
     5
 72
     1
  1
\A1;63
  7
GREEKS
 11
0.0000000000000001
 21
1.0
 31
0.0
 73
     1
 44
1.0
  0
POINT
  5
2DAA
330
2D78
100
AcDbEntity
  8
DEFPOINTS
 62
     0
100
AcDbPoint
 10
545.8123029715145
 20
309.9436219968312
 30
0.0
  0
POINT
  5
2DAB
330
2D78
100
AcDbEntity
  8
DEFPOINTS
 62
     0
100
AcDbPoint
 10
680.6112543788034
 20
246.8598393890254
 30
0.0
  0
POINT
  5
2DAC
330
2D78
100
AcDbEntity
  8
DEFPOINTS
 62
     0
100
AcDbPoint
 10
698.7438785643533
 20
246.8598393890254
 30
0.0
  0
ENDBLK
  5
2D83
330
2D78
100
AcDbEntity
  8
0
100
AcDbBlockEnd
  0
ENDSEC
  0
SECTION
  2
ENTITIES
  0
LINE
  5
2B9
330
1101
100
AcDbEntity
  8
STEMPEL
100
AcDbLine
 10
830.0
 20
109.9999999999999
 30
0.0
 11
470.0
 21
109.9999999999999
 31
0.0
  0
LINE
  5
2BA
330
1101
100
AcDbEntity
  8
STEMPEL
100
AcDbLine
 10
566.0
 20
109.9999999999996
 30
0.0
 11
566.0
 21
10.0
 31
0.0
  0
LINE
  5
2BB
330
1101
100
AcDbEntity
  8
STEMPEL
100
AcDbLine
 10
650.0
 20
109.9999999999999
 30
0.0
 11
650.0
 21
10.0
 31
0.0
  0
LINE
  5
2BC
330
1101
100
AcDbEntity
  8
STEMPEL
100
AcDbLine
 10
752.0
 20
109.9999999999996
 30
0.0
 11
752.0
 21
40.0
 31
0.0
  0
LINE
  5
2BD
330
1101
100
AcDbEntity
  8
STEMPEL
100
AcDbLine
 10
565.9999999999997
 20
30.0
 30
0.0
 11
470.0
 21
30.0
 31
0.0
  0
LINE
  5
2BE
330
1101
100
AcDbEntity
  8
STEMPEL
100
AcDbLine
 10
830.0
 20
40.0
 30
0.0
 11
566.0
 21
40.0
 31
0.0
  0
LINE
  5
2BF
330
1101
100
AcDbEntity
  8
STEMPEL
100
AcDbLine
 10
830.0
 20
80.0
 30
0.0
 11
566.0
 21
79.99999999999977
 31
0.0
  0
LINE
  5
2C0
330
1101
100
AcDbEntity
  8
VOLL
100
AcDbLine
 10
484.0000000000001
 20
109.9999999999999
 30
0.0
 11
484.0
 21
10.0
 31
0.0
  0
LINE
  5
2C1
330
1101
100
AcDbEntity
  8
VOLL
100
AcDbLine
 10
524.0
 20
109.9999999999996
 30
0.0
 11
524.0
 21
10.0
 31
0.0
  0
LINE
  5
2C2
330
1101
100
AcDbEntity
  8
VOLL
100
AcDbLine
 10
544.0
 20
109.9999999999996
 30
0.0
 11
544.0
 21
10.0
 31
0.0
  0
LINE
  5
2C3
330
1101
100
AcDbEntity
  8
VOLL
100
AcDbLine
 10
584.0
 20
79.99999999999977
 30
0.0
 11
584.0
 21
40.0
 31
0.0
  0
LINE
  5
2C4
330
1101
100
AcDbEntity
  8
VOLL
100
AcDbLine
 10
610.0
 20
109.9999999999996
 30
0.0
 11
610.0
 21
40.0
 31
0.0
  0
LINE
  5
2C5
330
1101
100
AcDbEntity
  8
HILF
100
AcDbLine
 10
470.0000000000001
 20
99.99999999999989
 30
0.0
 11
566.0
 21
99.99999999999989
 31
0.0
  0
LINE
  5
2C6
330
1101
100
AcDbEntity
  8
HILF
100
AcDbLine
 10
470.0000000000001
 20
89.99999999999989
 30
0.0
 11
566.0
 21
89.99999999999989
 31
0.0
  0
LINE
  5
2C7
330
1101
100
AcDbEntity
  8
HILF
100
AcDbLine
 10
470.0000000000001
 20
79.99999999999977
 30
0.0
 11
566.0
 21
79.99999999999977
 31
0.0
  0
LINE
  5
2C8
330
1101
100
AcDbEntity
  8
HILF
100
AcDbLine
 10
470.0000000000001
 20
69.99999999999977
 30
0.0
 11
566.0
 21
69.99999999999977
 31
0.0
  0
LINE
  5
2C9
330
1101
100
AcDbEntity
  8
HILF
100
AcDbLine
 10
470.0000000000001
 20
60.0
 30
0.0
 11
566.0
 21
60.0
 31
0.0
  0
LINE
  5
2CA
330
1101
100
AcDbEntity
  8
HILF
100
AcDbLine
 10
470.0000000000001
 20
50.0
 30
0.0
 11
566.0
 21
50.0
 31
0.0
  0
LINE
  5
2CB
330
1101
100
AcDbEntity
  8
HILF
100
AcDbLine
 10
470.0000000000001
 20
40.0
 30
0.0
 11
566.0
 21
40.0
 31
0.0
  0
LINE
  5
2CC
330
1101
100
AcDbEntity
  8
HILF
100
AcDbLine
 10
566.0
 20
69.99999999999977
 30
0.0
 11
650.0
 21
69.99999999999977
 31
0.0
  0
LINE
  5
2CD
330
1101
100
AcDbEntity
  8
HILF
100
AcDbLine
 10
566.0
 20
60.0
 30
0.0
 11
650.0
 21
60.0
 31
0.0
  0
LINE
  5
2CE
330
1101
100
AcDbEntity
  8
HILF
100
AcDbLine
 10
566.0
 20
50.0
 30
0.0
 11
650.0
 21
50.0
 31
0.0
  0
LINE
  5
2CF
330
1101
100
AcDbEntity
  8
HILF
100
AcDbLine
 10
654.7736801096946
 20
84.03758247564121
 30
0.0
 11
744.8353916556309
 21
84.03758247564121
 31
0.0
  0
LINE
  5
2D0
330
1101
100
AcDbEntity
  8
HILF
100
AcDbLine
 10
654.7736801096946
 20
69.99999999999977
 30
0.0
 11
744.8353916556309
 21
69.99999999999977
 31
0.0
  0
LINE
  5
2D1
330
1101
100
AcDbEntity
  8
HILF
100
AcDbLine
 10
654.7736801096946
 20
60.0
 30
0.0
 11
744.8353916556309
 21
60.0
 31
0.0
  0
LINE
  5
2D2
330
1101
100
AcDbEntity
  8
HILF
100
AcDbLine
 10
654.7736801096946
 20
50.0
 30
0.0
 11
744.8353916556309
 21
50.0
 31
0.0
  0
LINE
  5
2D3
330
1101
100
AcDbEntity
  8
VOLL
100
AcDbLine
 10
752.0
 20
60.0
 30
0.0
 11
830.0
 21
60.0
 31
0.0
  0
LINE
  5
2D4
330
1101
100
AcDbEntity
  8
HILF
100
AcDbLine
 10
756.7238616296992
 20
83.77983636955798
 30
0.0
 11
824.8588839326728
 21
83.77983636955798
 31
0.0
  0
LINE
  5
2D5
330
1101
100
AcDbEntity
  8
HILF
100
AcDbLine
 10
653.4909699289885
 20
14.89398258028314
 30
0.0
 11
824.8588839326728
 21
14.89398258028314
 31
0.0
  0
TEXT
  5
2D6
330
1101
100
AcDbEntity
  8
TEXT
100
AcDbText
 10
492.7826069847975
 20
18.67381894984123
 30
0.0
 40
4.0
  1
Änderung
 41
0.8
  7
GREEKS
 72
     1
 11
503.5254641276546
 21
18.67381894984123
 31
0.0
100
AcDbText
  0
TEXT
  5
2D7
330
1101
100
AcDbEntity
  8
TEXT
100
AcDbText
 10
573.5163572150376
 20
102.4620895087085
 30
0.0
 40
5.0
  1
Maßstab
 41
0.8
  7
GREEKS
100
AcDbText
  0
TEXT
  5
2D8
330
1101
100
AcDbEntity
  8
TEXT
100
AcDbText
 10
614.2858954734052
 20
102.4184168434816
 30
0.0
 40
5.0
  1
Zul. Abw.
 41
0.8
  7
GREEKS
100
AcDbText
  0
TEXT
  5
2D9
330
1101
100
AcDbEntity
  8
TEXT
100
AcDbText
 10
654.8779403809009
 20
102.5489328011778
 30
0.0
 40
5.0
  1
Benennung
 41
0.8
  7
GREEKS
100
AcDbText
  0
TEXT
  5
2DA
330
1101
100
AcDbEntity
  8
TEXT
100
AcDbText
 10
756.178754957634
 20
102.3132034537135
 30
0.0
 40
5.0
  1
Zeichnungs Nr.
 41
0.8
  7
GREEKS
100
AcDbText
  0
TEXT
  5
2DB
330
1101
100
AcDbEntity
  8
TEXT
100
AcDbText
 10
654.7422383911359
 20
30.84560570193048
 30
0.0
 40
5.0
  1
Bauvorhaben
 41
0.8
  7
GREEKS
100
AcDbText
  0
TEXT
  5
2DC
330
1101
100
AcDbEntity
  8
TEXT
100
AcDbText
 10
756.7238616296992
 20
73.18118237099952
 30
0.0
 40
5.0
  1
Ersatz für:
 41
0.8
  7
GREEKS
100
AcDbText
  0
TEXT
  5
2DD
330
1101
100
AcDbEntity
  8
TEXT
100
AcDbText
 10
478.2664110704575
 20
13.65465846027177
 30
0.0
 40
4.0
  1
Index
 50
90.0
 41
0.8
  7
GREEKS
100
AcDbText
  0
TEXT
  5
2DE
330
1101
100
AcDbEntity
  8
TEXT
100
AcDbText
 10
530.0571803261054
 20
18.67156269339807
 30
0.0
 40
4.0
  1
Tag
 41
0.8
  7
GREEKS
 72
     1
 11
533.7905136594388
 21
18.67156269339807
 31
0.0
100
AcDbText
  0
TEXT
  5
2DF
330
1101
100
AcDbEntity
  8
TEXT
100
AcDbText
 10
548.6614567187547
 20
18.59324216966411
 30
0.0
 40
4.0
  1
Name
 41
0.8
  7
GREEKS
 72
     1
 11
554.9852662425641
 21
18.59324216966411
 31
0.0
100
AcDbText
  0
TEXT
  5
2E0
330
1101
100
AcDbEntity
  8
TEXT
100
AcDbText
 10
592.3311673153651
 20
73.31880501229921
 30
0.0
 40
4.0
  1
Tag
 41
0.8
  7
GREEKS
100
AcDbText
  0
TEXT
  5
2E1
330
1101
100
AcDbEntity
  8
TEXT
100
AcDbText
 10
622.4626584226293
 20
73.30961091915219
 30
0.0
 40
4.0
  1
Name
 41
0.8
  7
GREEKS
100
AcDbText
  0
TEXT
  5
2E2
330
1101
100
AcDbEntity
  8
TEXT
100
AcDbText
 10
567.5836127167615
 20
63.62990369617955
 30
0.0
 40
4.0
  1
Gez.
 41
0.8
  7
GREEKS
100
AcDbText
  0
TEXT
  5
2E3
330
1101
100
AcDbEntity
  8
TEXT
100
AcDbText
 10
567.5515086571672
 20
53.68926291428374
 30
0.0
 40
4.0
  1
Gepr.
 41
0.8
  7
GREEKS
100
AcDbText
  0
TEXT
  5
2E4
330
1101
100
AcDbEntity
  8
TEXT
100
AcDbText
 10
567.6006777387303
 20
43.5294638964981
 30
0.0
 40
4.0
  1
Norm.
 41
0.8
  7
GREEKS
100
AcDbText
  0
LINE
  5
2E5
330
1101
100
AcDbEntity
  8
STEMPEL
100
AcDbLine
 10
479.9999999999998
 20
10.0
 30
0.0
 11
830.0
 21
10.0
 31
0.0
  0
TEXT
  5
2E6
330
1101
100
AcDbEntity
  8
TEXT
100
AcDbText
 10
757.2400861497006
 20
52.07416177878599
 30
0.0
 40
5.0
  1
ersetzt durch:
 41
0.8
  7
GREEKS
100
AcDbText
  0
LINE
  5
2E7
330
1101
100
AcDbEntity
  8
STEMPEL
100
AcDbLine
 10
830.0
 20
10.0
 30
0.0
 11
39.99999999999997
 21
10.0
 31
0.0
  0
LINE
  5
2E8
330
1101
100
AcDbEntity
  8
STEMPEL
100
AcDbLine
 10
830.0
 20
10.0
 30
0.0
 11
830.0
 21
583.9999999999998
 31
0.0
  0
LINE
  5
2E9
330
1101
100
AcDbEntity
  8
STEMPEL
100
AcDbLine
 10
470.0
 20
10.0
 30
0.0
 11
470.0
 21
109.9999999999999
 31
0.0
  0
LINE
  5
2EA
330
1101
100
AcDbEntity
  8
STEMPEL
100
AcDbLine
 10
830.0
 20
583.9999999999998
 30
0.0
 11
39.99999999999986
 21
583.9999999999998
 31
0.0
  0
LINE
  5
2EB
330
1101
100
AcDbEntity
  8
HILF
100
AcDbLine
 10
839.9999999999998
 20
594.0000000000001
 30
0.0
 11
-0.0000000000002274
 21
593.9999999999996
 31
0.0
  0
LINE
  5
2EC
330
1101
100
AcDbEntity
  8
HILF
100
AcDbLine
 10
840.0
 20
0.0
 30
0.0
 11
0.0
 21
0.0
 31
0.0
  0
LINE
  5
2ED
330
1101
100
AcDbEntity
  8
HILF
100
AcDbLine
 10
31.08767135713847
 20
296.9999999999998
 30
0.0
 11
0.0
 21
296.9999999999998
 31
0.0
  0
TEXT
  5
2EE
330
1101
100
AcDbEntity
  8
TEXT
100
AcDbText
 10
568.6221098221039
 20
73.14025471151649
 30
0.0
 40
4.0
  1
2012
 41
0.8
  7
GREEKS
100
AcDbText
  0
LINE
  5
2EF
330
1101
100
AcDbEntity
  8
HILF
100
AcDbLine
 10
840.0
 20
-0.0000000000002274
 30
0.0
 11
839.9999999999998
 21
593.9999999999998
 31
0.0
  0
TEXT
  5
2F0
330
1101
100
AcDbEntity
  8
VOLL
100
AcDbText
 10
78.07675471698113
 20
31.02594776470585
 30
0.0
 40
1.8
  1

  7
GREEKS
100
AcDbText
  0
TEXT
  5
2F1
330
1101
100
AcDbEntity
  8
TEXT
100
AcDbText
 10
471.8550995097768
 20
111.6719999999997
 30
0.0
 40
5.0
  1
Erstellt mit AUTOCAD 2004
 41
0.8
  7
GREEKS
100
AcDbText
  0
TEXT
  5
2F2
330
1101
100
AcDbEntity
  8
TEXT
100
AcDbText
 10
624.4216048581257
 20
63.0896391972351
 30
0.0
 40
4.0
  1
Koeh
 41
0.8
  7
GREEKS
 72
     1
 11
629.6787477152686
 21
63.0896391972351
 31
0.0
100
AcDbText
  0
TEXT
  5
2F3
330
1101
100
AcDbEntity
  8
TEXT
 62
     1
100
AcDbText
 10
767.3644602129931
 20
88.14901428913946
 30
0.0
 40
7.0
  1
01390040W
 41
0.8
  7
GREEKS
 72
     1
 11
790.8311268796597
 21
88.14901428913946
 31
0.0
100
AcDbText
  0
TEXT
  5
2F4
330
1101
100
AcDbEntity
  8
TEXT
 62
     1
100
AcDbText
 10
580.5006306481886
 20
88.14901428913946
 30
0.0
 40
7.0
  1
1:2
 41
0.8
  7
GREEKS
100
AcDbText
  0
TEXT
  5
2F5
330
1101
100
AcDbEntity
  8
TEXT
100
AcDbText
 10
590.703759012998
 20
63.10765040825732
 30
0.0
 40
4.0
  1
02.12.
 41
0.8
  7
GREEKS
 72
     1
 11
597.4085209177599
 21
63.10765040825732
 31
0.0
100
AcDbText
  0
TEXT
  5
2F6
330
1101
100
AcDbEntity
  8
TEXT
 62
     1
100
AcDbText
 10
655.0506768857031
 20
87.41748789253767
 30
0.0
 40
7.0
  1
Rainstar DN40 ohne
 41
0.8
  7
GREEKS
100
AcDbText
  0
TEXT
  5
2F7
330
1101
100
AcDbEntity
  8
TEXT
100
AcDbText
 10
655.1296391125315
 20
71.50334417585281
 30
0.0
 40
5.0
  1
Aufkantung, Auslauf seitlich 3°
 41
0.7
  7
GREEKS
100
AcDbText
  0
TEXT
  5
2F8
330
1101
100
AcDbEntity
  8
TEXT
100
AcDbText
 10
655.1296391125315
 20
62.11580706774862
 30
0.0
 40
5.0
  1
Kompletteinheit
 41
0.8
  7
GREEKS
100
AcDbText
  0
TEXT
  5
2F9
330
1101
100
AcDbEntity
  8
TEXT
100
AcDbText
 10
655.1296391125315
 20
51.64011943042146
 30
0.0
 40
5.0
  1
EDV-Art.Nr. 01390.040X
 41
0.8
  7
GREEKS
100
AcDbText
  0
TEXT
  5
2FA
330
1101
100
AcDbEntity
  8
TEXT
100
AcDbText
 10
654.9837501577826
 20
42.62974153022628
 30
0.0
 40
4.0
  1
01390040W.DWG
 41
0.8
  7
GREEKS
100
AcDbText
  0
TEXT
  5
2FB
330
1101
100
AcDbEntity
  8
TEXT
100
AcDbText
 10
613.5302166857912
 20
90.01072108759888
 30
0.0
 40
4.0
  1
DIN EN1124-3
 41
0.8
  7
GREEKS
 72
     1
 11
630.5206928762674
 21
90.01072108759888
 31
0.0
100
AcDbText
  0
INSERT
  5
2FC
330
1101
100
AcDbEntity
  8
STEMPEL
100
AcDbBlockReference
  2
LOGO
 10
570.9955485457794
 20
45.0210527644831
 30
0.0
 41
2.0
 42
2.0
 43
2.0
  0
LINE
  5
2FD
330
1101
100
AcDbEntity
  8
HILF
100
AcDbLine
 10
0.0
 20
0.0
 30
0.0
 11
-0.0000000000002274
 21
593.9999999999996
 31
0.0
  0
LINE
  5
2FE
330
1101
100
AcDbEntity
  8
STEMPEL
100
AcDbLine
 10
39.99999999999997
 20
10.0
 30
0.0
 11
39.99999999999986
 21
583.9999999999998
 31
0.0
  0
LINE
  5
2FF
330
1101
100
AcDbEntity
  8
HILF
 62
     7
100
AcDbLine
 10
460.0
 20
-0.0000000000002274
 30
0.0
 11
460.0
 21
10.0
 31
0.0
  0
LINE
  5
300
330
1101
100
AcDbEntity
  8
HILF
 62
     7
100
AcDbLine
 10
459.9999999999998
 20
583.9999999999998
 30
0.0
 11
459.9999999999998
 21
593.9999999999996
 31
0.0
  0
TEXT
  5
301
330
1101
100
AcDbEntity
  8
TEXT
100
AcDbText
 10
836.5811541437437
 20
12.14804815338303
 30
0.0
 40
4.0
  1
Diese Zeichnung ist urheberrechtlich geschützt und bleibt unser Eigentum. Sie darf weder ganz noch teilweise vervielfältigt und nicht an Dritte weitergegeben werden.
 50
90.0
 41
0.8
  7
GREEKS
100
AcDbText
  0
LINE
  5
353
102
{ACAD_REACTORS
330
2C36
102
}
330
1101
100
AcDbEntity
  8
MITTEL
100
AcDbLine
 10
400.8123029715145
 20
435.4436219968326
 30
0.0
 11
400.8123029715145
 21
303.1914387778631
 31
0.0
  0
TEXT
  5
1933
330
1101
100
AcDbEntity
  8
TEXT
 62
     1
100
AcDbText
 10
141.3055783203965
 20
194.9380988320777
 30
0.0
 40
7.0
  1
EDV-Art.Nr. 01386.040X
 41
0.8
  7
GREEKS
100
AcDbText
  0
TEXT
  5
1934
330
1101
100
AcDbEntity
  8
TEXT
 62
     1
100
AcDbText
 10
141.3055783203965
 20
207.5678436444702
 30
0.0
 40
7.0
  1
Ablaufkörper DN40
 41
0.8
  7
GREEKS
100
AcDbText
  0
LINE
  5
1935
330
1101
100
AcDbEntity
  8
TEXT
 62
     2
100
AcDbLine
 10
140.4062923229246
 20
204.7086449660965
 30
0.0
 11
247.0254029263811
 21
204.7086449660965
 31
0.0
  0
LINE
  5
1936
330
1101
100
AcDbEntity
  8
TEXT
 62
     2
100
AcDbLine
 10
338.908932314507
 20
261.137985883513
 30
0.0
 11
247.0254029263811
 21
204.7086449660965
 31
0.0
  0
TEXT
  5
2058
330
1101
100
AcDbEntity
  8
VOLL
100
AcDbText
 10
330.7775438231996
 20
666.2760123900783
 30
0.0
 40
1.8
  1

  7
GREEKS
100
AcDbText
  0
ARC
  5
2069
102
{ACAD_REACTORS
330
2C36
102
}
330
1101
100
AcDbEntity
  8
STEMPEL
100
AcDbCircle
 10
504.8123029715145
 20
408.9435640295173
 30
0.0
 40
6.0
100
AcDbArc
 50
0.0
 51
59.74358352518254
  0
ARC
  5
206A
102
{ACAD_REACTORS
330
2C36
102
}
330
1101
100
AcDbEntity
  8
STEMPEL
100
AcDbCircle
 10
504.8123029715145
 20
408.9435640295173
 30
0.0
 40
5.0
100
AcDbArc
 50
0.0
 51
59.74358352518254
  0
LWPOLYLINE
  5
206B
330
1101
100
AcDbEntity
  8
STEMPEL
100
AcDbPolyline
 90
        7
 70
   128
 43
0.0
 10
509.1205586455978
 20
357.905676052671
 10
508.9827296360274
 20
357.1535698157325
 10
508.8638653590613
 20
356.2308562050175
 10
508.7675173571599
 20
355.1651049551133
 10
508.6965644096219
 20
353.9881596182922
 10
508.6531265176138
 20
352.7351861118905
 10
508.6385015607163
 20
351.4436219968311
  0
LWPOLYLINE
  5
206C
330
1101
100
AcDbEntity
  8
STEMPEL
100
AcDbPolyline
 90
       18
 70
   128
 43
0.0
 10
509.602615730479
 20
351.4436219968311
 10
509.5859473070024
 20
352.8217433804557
 10
509.5365096597418
 20
354.1529344932353
 10
509.4559863284814
 20
355.391863218412
 10
509.3471194386897
 20
356.4963393241812
 10
509.2136163217276
 20
357.4287512014341
 10
509.0600232661233
 20
358.1573466819955
 10
508.8915706991713
 20
358.6573143206288
 10
508.7139950710023
 20
358.9116283190453
 10
508.5333435066551
 20
358.9116283190453
 10
508.3557678784863
 20
358.6573143206288
 10
508.1873153115343
 20
358.1573466819955
 10
508.0337222559303
 20
357.4287512014341
 10
507.9002191389679
 20
356.4963393241815
 10
507.7913522491762
 20
355.391863218412
 10
507.7108289179157
 20
354.1529344932353
 10
507.6613912706554
 20
352.8217433804557
 10
507.6447228471786
 20
351.4436219968311
  0
LWPOLYLINE
  5
206D
330
1101
100
AcDbEntity
  8
STEMPEL
100
AcDbPolyline
 90
        7
 70
   128
 43
0.0
 10
-511.2589607443876
 20
339.9436219968334
 10
-510.5822588693102
 20
340.5532227246924
 10
-509.9827094456761
 20
341.2807818086039
 10
-509.4764207725263
 20
342.1067516702842
 10
-509.0769954804809
 20
343.0089406954873
 10
-508.795165065218
 20
343.9631094636811
 10
-508.6385015607166
 20
344.9436219968334
210
0.0
220
0.0
230
-1.0
  0
LWPOLYLINE
  5
206E
330
1101
100
AcDbEntity
  8
STEMPEL
100
AcDbPolyline
 90
       10
 70
   128
 43
0.0
 10
-513.1507115782092
 20
338.9436219968327
 10
-512.2926385819364
 20
339.0097492114053
 10
-511.4398263823143
 20
339.2623029611357
 10
-510.6190680753972
 20
339.6933486774531
 10
-509.8561497089983
 20
340.2893440478931
 10
-509.1750401534989
 20
341.0315644796138
 10
-508.5971380635535
 20
341.8966913764111
 10
-508.140599589147
 20
342.8575447471271
 10
-507.8197679575493
 20
343.8839371288393
 10
-507.6447228471784
 20
344.943621996832
210
0.0
220
0.0
230
-1.0
  0
ARC
  5
206F
102
{ACAD_REACTORS
330
2C36
102
}
330
1101
100
AcDbEntity
  8
STEMPEL
100
AcDbCircle
 10
515.8123029715145
 20
344.9436219968334
 30
0.0
 40
6.0
100
AcDbArc
 50
180.0
 51
269.9999999999984
  0
LWPOLYLINE
  5
2070
330
1101
100
AcDbEntity
  8
STEMPEL
100
AcDbPolyline
 90
       10
 70
   128
 43
0.0
 10
-508.961993110319
 20
338.9436219968329
 10
-508.1258138354773
 20
339.0347754787597
 10
-507.3150414447748
 20
339.3054662721174
 10
-506.5543108470321
 20
339.7474695741264
 10
-505.8667364565133
 20
340.3473553381191
 10
-505.2732098731446
 20
341.0868963387138
 10
-504.7917651018235
 20
341.9436219968332
 10
-504.4370305983031
 20
342.8915011368792
 10
-504.2197847909689
 20
343.9017329308317
 10
-504.146628583745
 20
344.9436219968334
210
0.0
220
0.0
230
-1.0
  0
LINE
  5
2071
102
{ACAD_REACTORS
330
2ACC
102
}
330
1101
100
AcDbEntity
  8
STEMPEL
100
AcDbLine
 10
527.8123029715145
 20
323.9436219968313
 30
0.0
 11
291.4876152610164
 21
323.9436219968315
 31
0.0
  0
LINE
  5
2073
102
{ACAD_REACTORS
330
2ACC
330
2B61
102
}
330
1101
100
AcDbEntity
  8
STEMPEL
100
AcDbLine
 10
273.8123029715146
 20
317.9436219968311
 30
0.0
 11
527.8123029715145
 21
317.9436219968311
 31
0.0
  0
LINE
  5
2078
330
1101
100
AcDbEntity
  8
STEMPEL
100
AcDbLine
 10
492.1034124978667
 20
371.4436219968322
 30
0.0
 11
492.1034124978667
 21
396.4436219968338
 31
0.0
  0
LINE
  5
2079
330
1101
100
AcDbEntity
  8
STEMPEL
100
AcDbLine
 10
491.2353484781776
 20
396.4436219968322
 30
0.0
 11
491.2353484781776
 21
371.4436219968338
 31
0.0
  0
LINE
  5
207A
330
1101
100
AcDbEntity
  8
STEMPEL
100
AcDbLine
 10
498.7353484781777
 20
396.4436219968322
 30
0.0
 11
498.7353484781777
 21
371.4436219968354
 31
0.0
  0
LINE
  5
207B
330
1101
100
AcDbEntity
  8
STEMPEL
100
AcDbLine
 10
310.3892574648514
 20
396.4436219968322
 30
0.0
 11
310.3892574648514
 21
371.4436219968338
 31
0.0
  0
LINE
  5
207C
330
1101
100
AcDbEntity
  8
STEMPEL
100
AcDbLine
 10
302.8892574648514
 20
396.4436219968322
 30
0.0
 11
302.8892574648514
 21
371.4436219968354
 31
0.0
  0
LINE
  5
207D
330
1101
100
AcDbEntity
  8
STEMPEL
100
AcDbLine
 10
309.5211934451624
 20
371.4436219968322
 30
0.0
 11
309.5211934451624
 21
396.4436219968338
 31
0.0
  0
LINE
  5
207E
102
{ACAD_REACTORS
330
2C36
102
}
330
1101
100
AcDbEntity
  8
STEMPEL
100
AcDbLine
 10
290.8123029715141
 20
408.9435640295173
 30
0.0
 11
290.8123029715141
 21
344.9436219968334
 31
0.0
  0
LINE
  5
207F
102
{ACAD_REACTORS
330
2C36
102
}
330
1101
100
AcDbEntity
  8
STEMPEL
100
AcDbLine
 10
291.8123029715145
 20
408.9435640295173
 30
0.0
 11
291.8123029715145
 21
344.9436219968334
 31
0.0
  0
LINE
  5
2081
102
{ACAD_REACTORS
330
2ACC
330
2B61
330
2C36
102
}
330
1101
100
AcDbEntity
  8
STEMPEL
100
AcDbLine
 10
530.8123029715142
 20
338.9436219968279
 30
0.0
 11
281.8123029715145
 21
338.9436219968335
 31
0.0
  0
LWPOLYLINE
  5
2082
330
1101
100
AcDbEntity
  8
STEMPEL
100
AcDbPolyline
 90
       10
 70
   128
 43
0.0
 10
288.4738943648197
 20
338.9436219968327
 10
289.3319673610924
 20
339.0097492114053
 10
290.1847795607148
 20
339.2623029611357
 10
291.0055378676318
 20
339.6933486774531
 10
291.7684562340308
 20
340.2893440478931
 10
292.4495657895297
 20
341.0315644796138
 10
293.0274678794756
 20
341.8966913764111
 10
293.4840063538818
 20
342.8575447471271
 10
293.8048379854793
 20
343.8839371288393
 10
293.9798830958505
 20
344.943621996832
  0
LWPOLYLINE
  5
2083
330
1101
100
AcDbEntity
  8
STEMPEL
100
AcDbPolyline
 90
       10
 70
   128
 43
0.0
 10
286.516001481519
 20
338.9436219968341
 10
287.3740744777917
 20
339.0097492114066
 10
288.2268866774141
 20
339.2623029611371
 10
289.0476449843311
 20
339.6933486774544
 10
289.81056335073
 20
340.2893440478945
 10
290.4916729062291
 20
341.0315644796151
 10
291.0695749961749
 20
341.8966913764125
 10
291.5261134705811
 20
342.8575447471285
 10
291.8469451021786
 20
343.8839371288407
 10
292.0219902125498
 20
344.9436219968334
  0
ARC
  5
2084
102
{ACAD_REACTORS
330
2C36
102
}
330
1101
100
AcDbEntity
  8
STEMPEL
100
AcDbCircle
 10
285.8123029715145
 20
344.9436219968334
 30
0.0
 40
6.0
100
AcDbArc
 50
270.0000000000017
 51
0.0
  0
ARC
  5
2085
102
{ACAD_REACTORS
330
2C36
102
}
330
1101
100
AcDbEntity
  8
STEMPEL
100
AcDbCircle
 10
285.8123029715145
 20
344.9436219968334
 30
0.0
 40
5.0
100
AcDbArc
 50
270.0000000000017
 51
0.0
  0
LINE
  5
2089
330
1101
100
AcDbEntity
  8
MITTEL
100
AcDbLine
 10
278.8123029715146
 20
351.5436219968332
 30
0.0
 11
278.8123029715146
 21
317.9436219968311
 31
0.0
  0
LINE
  5
208D
102
{ACAD_REACTORS
330
2C36
102
}
330
1101
100
AcDbEntity
  8
STEMPEL
100
AcDbLine
 10
270.8123029715145
 20
339.9436219968329
 30
0.0
 11
285.8123029715145
 21
339.9436219968334
 31
0.0
  0
POINT
  5
2096
330
1101
100
AcDbEntity
  8
STEMPEL
  6
ByBlock
 62
     0
100
AcDbPoint
 10
270.8123029715145
 20
320.9436219968311
 30
0.0
  0
LINE
  5
2097
102
{ACAD_REACTORS
330
2C36
102
}
330
1101
100
AcDbEntity
  8
STEMPEL
100
AcDbLine
 10
270.8123029715145
 20
339.9436219968332
 30
0.0
 11
270.8123029715145
 21
338.9436219968329
 31
0.0
  0
ARC
  5
20A3
102
{ACAD_REACTORS
330
2ACC
102
}
330
1101
100
AcDbEntity
  8
STEMPEL
100
AcDbCircle
 10
273.8123029715146
 20
320.9436219968316
 30
0.0
 40
3.0
100
AcDbArc
 50
166.6128248198305
 51
270.0
  0
LINE
  5
20B1
102
{ACAD_REACTORS
330
2ACC
330
2C4A
102
}
330
1101
100
AcDbEntity
  8
MITTEL
100
AcDbLine
 10
318.539889611993
 20
347.4436219968309
 30
0.0
 11
318.539889611993
 21
312.4436219968309
 31
0.0
  0
LINE
  5
20BA
330
1101
100
AcDbEntity
  8
STEMPEL
100
AcDbLine
 10
292.9861043823128
 20
351.4436219968311
 30
0.0
 11
292.9861043823128
 21
344.9436219968334
 31
0.0
  0
LINE
  5
20BB
330
1101
100
AcDbEntity
  8
STEMPEL
100
AcDbLine
 10
292.0219902125502
 20
351.4436219968311
 30
0.0
 11
292.0219902125502
 21
344.9436219968334
 31
0.0
  0
LINE
  5
20BC
330
1101
100
AcDbEntity
  8
STEMPEL
100
AcDbLine
 10
297.4779773592839
 20
351.4436219968311
 30
0.0
 11
297.4779773592839
 21
344.9436219968345
 31
0.0
  0
LINE
  5
20BD
330
1101
100
AcDbEntity
  8
STEMPEL
100
AcDbLine
 10
293.9798830958505
 20
351.4436219968311
 30
0.0
 11
293.9798830958505
 21
344.9436219968323
 31
0.0
  0
LINE
  5
20BE
330
1101
100
AcDbEntity
  8
STEMPEL
100
AcDbLine
 10
303.2182288447614
 20
351.4436219968311
 30
0.0
 11
303.2182288447614
 21
344.9436219968345
 31
0.0
  0
LINE
  5
20BF
330
1101
100
AcDbEntity
  8
STEMPEL
100
AcDbLine
 10
302.2921745082542
 20
351.4436219968311
 30
0.0
 11
302.2921745082542
 21
344.9436219968345
 31
0.0
  0
LWPOLYLINE
  5
20C0
330
1101
100
AcDbEntity
  8
STEMPEL
100
AcDbPolyline
 90
       10
 70
   128
 43
0.0
 10
298.4028643181876
 20
338.9436219968329
 10
299.239043593029
 20
339.0347754787597
 10
300.0498159837316
 20
339.3054662721174
 10
300.8105465814745
 20
339.7474695741264
 10
301.4981209719933
 20
340.3473553381191
 10
302.0916475553615
 20
341.0868963387138
 10
302.5730923266829
 20
341.9436219968332
 10
302.9278268302032
 20
342.8915011368792
 10
303.1450726375374
 20
343.9017329308317
 10
303.2182288447614
 20
344.9436219968334
  0
LWPOLYLINE
  5
20C1
330
1101
100
AcDbEntity
  8
STEMPEL
100
AcDbPolyline
 90
        7
 70
   128
 43
0.0
 10
300.1386028755858
 20
339.9436219968329
 10
300.75869339865
 20
340.5529598986736
 10
301.2905135454334
 20
341.2803901719631
 10
301.7197593451647
 20
342.1063476659067
 10
302.034885692962
 20
343.008617216369
 10
302.227416869928
 20
343.9629311506121
 10
302.2921745082542
 20
344.9436219968334
  0
LWPOLYLINE
  5
20C2
330
1101
100
AcDbEntity
  8
STEMPEL
100
AcDbPolyline
 90
        7
 70
   128
 43
0.0
 10
290.3656451986415
 20
339.9436219968334
 10
291.0423470737187
 20
340.5532227246924
 10
291.6418964973527
 20
341.2807818086039
 10
292.1481851705023
 20
342.1067516702842
 10
292.5476104625479
 20
343.0089406954873
 10
292.8294408778108
 20
343.9631094636811
 10
292.9861043823123
 20
344.9436219968334
  0
LINE
  5
20C3
330
1101
100
AcDbEntity
  8
STEMPEL
100
AcDbLine
 10
289.4015310288794
 20
339.9436219968329
 30
0.0
 11
290.3656451986419
 21
339.9436219968329
 31
0.0
  0
LWPOLYLINE
  5
20C4
330
1101
100
AcDbEntity
  8
STEMPEL
100
AcDbPolyline
 90
       10
 70
   128
 43
0.0
 10
292.66261283271
 20
338.9436219968329
 10
293.4987921075515
 20
339.0347754787597
 10
294.3095644982541
 20
339.3054662721174
 10
295.0702950959969
 20
339.7474695741264
 10
295.7578694865158
 20
340.3473553381191
 10
296.351396069884
 20
341.0868963387138
 10
296.8328408412053
 20
341.9436219968332
 10
297.1875753447257
 20
342.8915011368792
 10
297.4048211520599
 20
343.9017329308317
 10
297.4779773592839
 20
344.9436219968334
  0
LINE
  5
20C5
330
1101
100
AcDbEntity
  8
STEMPEL
100
AcDbLine
 10
295.3244057266154
 20
339.9436219968329
 30
0.0
 11
300.1386028755867
 21
339.9436219968329
 31
0.0
  0
LWPOLYLINE
  5
20CD
330
1101
100
AcDbEntity
  8
STEMPEL
100
AcDbPolyline
 90
        9
 70
   128
 43
0.0
 10
-299.8850759337706
 20
358.8453802414961
 10
-300.3741364770394
 20
358.5189473437385
 10
-300.8337494449404
 20
357.9736783304813
 10
-301.2496992485647
 20
357.2264380873532
 10
-301.6091207778561
 20
356.3003383645757
 10
-301.9008973127436
 20
355.2240229426057
 10
-302.1160043574819
 20
354.0307816949746
 10
-302.2477887635894
 20
352.7575209498989
 10
-302.2921745082542
 20
351.4436219968325
210
0.0
220
0.0
230
-1.0
  0
LWPOLYLINE
  5
20CE
330
1101
100
AcDbEntity
  8
STEMPEL
100
AcDbPolyline
 90
       18
 70
   128
 43
0.0
 10
-297.4779773592836
 20
351.4436219968311
 10
-297.5268467041999
 20
352.8217433804557
 10
-297.6717905520199
 20
354.1529344932353
 10
-297.9078730138472
 20
355.391863218412
 10
-298.2270545845938
 20
356.4963393241812
 10
-298.6184659186843
 20
357.4287512014341
 10
-299.0687779725822
 20
358.1573466819955
 10
-299.5626559093817
 20
358.6573143206288
 10
-300.0832813082866
 20
358.9116283190453
 10
-300.6129248957584
 20
358.9116283190453
 10
-301.1335502946633
 20
358.6573143206288
 10
-301.6274282314628
 20
358.1573466819955
 10
-302.0777402853607
 20
357.4287512014341
 10
-302.4691516194512
 20
356.4963393241815
 10
-302.7883331901978
 20
355.391863218412
 10
-303.024415652025
 20
354.1529344932353
 10
-303.1693594998451
 20
352.8217433804557
 10
-303.2182288447614
 20
351.4436219968311
210
0.0
220
0.0
230
-1.0
  0
LINE
  5
20CF
102
{ACAD_REACTORS
330
2C36
102
}
330
1101
100
AcDbEntity
  8
STEMPEL
100
AcDbLine
 10
290.8123029715141
 20
363.943621996832
 30
0.0
 11
291.8123029715145
 21
363.943621996832
 31
0.0
  0
LWPOLYLINE
  5
20D0
330
1101
100
AcDbEntity
  8
STEMPEL
100
AcDbPolyline
 90
       18
 70
   128
 43
0.0
 10
-292.0219902125498
 20
351.4436219968311
 10
-292.0386586360266
 20
352.8217433804557
 10
-292.0880962832868
 20
354.1529344932353
 10
-292.1686196145474
 20
355.391863218412
 10
-292.2774865043391
 20
356.4963393241812
 10
-292.4109896213015
 20
357.4287512014341
 10
-292.5645826769055
 20
358.1573466819955
 10
-292.7330352438575
 20
358.6573143206288
 10
-292.9106108720264
 20
358.9116283190453
 10
-293.0912624363734
 20
358.9116283190453
 10
-293.2688380645425
 20
358.6573143206288
 10
-293.4372906314946
 20
358.1573466819955
 10
-293.5908836870988
 20
357.4287512014341
 10
-293.724386804061
 20
356.4963393241815
 10
-293.8332536938526
 20
355.391863218412
 10
-293.913777025113
 20
354.1529344932353
 10
-293.9632146723734
 20
352.8217433804557
 10
-293.9798830958503
 20
351.4436219968311
210
0.0
220
0.0
230
-1.0
  0
LWPOLYLINE
  5
20D1
330
1101
100
AcDbEntity
  8
STEMPEL
100
AcDbPolyline
 90
        7
 70
   128
 43
0.0
 10
-292.5040472974313
 20
357.905676052671
 10
-292.6418763070014
 20
357.1535698157325
 10
-292.7607405839676
 20
356.2308562050175
 10
-292.8570885858687
 20
355.1651049551133
 10
-292.9280415334069
 20
353.9881596182922
 10
-292.9714794254148
 20
352.7351861118905
 10
-292.9861043823125
 20
351.4436219968311
210
0.0
220
0.0
230
-1.0
  0
LWPOLYLINE
  5
20D2
330
1101
100
AcDbEntity
  8
STEMPEL
100
AcDbPolyline
 90
       18
 70
   128
 43
0.0
 10
-310.3892574648514
 20
371.4436219968338
 10
-310.3254065886661
 20
370.0655006132095
 10
-310.1360283251179
 20
368.7343095004301
 10
-309.8275717238375
 20
367.4953807752536
 10
-309.4105409044289
 20
366.3909046694846
 10
-308.8991373512738
 20
365.4584927922319
 10
-308.3107762990135
 20
364.7298973116708
 10
-307.665493677622
 20
364.2299296730377
 10
-306.9852638128389
 20
363.9756156746212
 10
-306.2932511168642
 20
363.9756156746212
 10
-305.6130212520813
 20
364.2299296730377
 10
-304.9677386306896
 20
364.7298973116708
 10
-304.3793775784293
 20
365.4584927922319
 10
-303.8679740252742
 20
366.3909046694846
 10
-303.4509432058655
 20
367.4953807752536
 10
-303.1424866045852
 20
368.7343095004301
 10
-302.953108341037
 20
370.0655006132095
 10
-302.8892574648517
 20
371.4436219968338
210
0.0
220
0.0
230
-1.0
  0
LWPOLYLINE
  5
20D3
330
1101
100
AcDbEntity
  8
STEMPEL
100
AcDbPolyline
 90
        9
 70
   128
 43
0.0
 10
-309.5211934451624
 20
371.4436219968338
 10
-309.4593594313912
 20
370.0872567686949
 10
-309.2758965608821
 20
368.7756219438607
 10
-308.9768550979877
 20
367.5519728001023
 10
-308.5720968741405
 20
366.4566630110233
 10
-308.074970062987
 20
365.5258138569341
 10
-307.5018689824397
 20
364.7901230121882
 10
-306.8716934405561
 20
364.2738521929591
 10
-306.2052254550083
 20
363.9940270509514
210
0.0
220
0.0
230
-1.0
  0
LINE
  5
20D6
330
1101
100
AcDbEntity
  8
HILF
100
AcDbLine
 10
507.6447228471786
 20
344.9436219968377
 30
0.0
 11
504.1466285837453
 21
344.9436219968375
 31
0.0
  0
ARC
  5
20F3
102
{ACAD_REACTORS
330
2ACC
102
}
330
1101
100
AcDbEntity
  8
STEMPEL
100
AcDbCircle
 10
333.8123029715145
 20
320.9436219968316
 30
0.0
 40
3.0
100
AcDbArc
 50
270.0
 51
90.0
  0
LINE
  5
20F5
102
{ACAD_REACTORS
330
2ACC
330
2C4A
102
}
330
1101
100
AcDbEntity
  8
MITTEL
100
AcDbLine
 10
483.0847163310361
 20
347.4436219968306
 30
0.0
 11
483.0847163310361
 21
312.4436219968306
 31
0.0
  0
ARC
  5
210A
102
{ACAD_REACTORS
330
2ACC
102
}
330
1101
100
AcDbEntity
  8
STEMPEL
100
AcDbCircle
 10
467.8123029715145
 20
320.9436219968313
 30
0.0
 40
3.000000000000227
100
AcDbArc
 50
90.00000000000488
 51
269.9999999999951
  0
LINE
  5
2112
330
1101
100
AcDbEntity
  8
STEMPEL
100
AcDbLine
 10
507.6447228471786
 20
351.4436219968311
 30
0.0
 11
507.6447228471786
 21
344.9436219968323
 31
0.0
  0
LINE
  5
2113
330
1101
100
AcDbEntity
  8
STEMPEL
100
AcDbLine
 10
504.1466285837453
 20
351.4436219968311
 30
0.0
 11
504.1466285837453
 21
344.9436219968345
 31
0.0
  0
LINE
  5
2114
330
1101
100
AcDbEntity
  8
STEMPEL
100
AcDbLine
 10
499.3324314347749
 20
351.4436219968311
 30
0.0
 11
499.3324314347749
 21
344.9436219968345
 31
0.0
  0
LINE
  5
2115
330
1101
100
AcDbEntity
  8
STEMPEL
100
AcDbLine
 10
498.4063770982677
 20
351.4436219968311
 30
0.0
 11
498.4063770982677
 21
344.9436219968345
 31
0.0
  0
LINE
  5
2116
330
1101
100
AcDbEntity
  8
STEMPEL
100
AcDbLine
 10
508.6385015607163
 20
351.4436219968311
 30
0.0
 11
508.6385015607163
 21
344.9436219968334
 31
0.0
  0
LWPOLYLINE
  5
2123
330
1101
100
AcDbEntity
  8
STEMPEL
100
AcDbPolyline
 90
       10
 70
   128
 43
0.0
 10
-503.2217416248415
 20
338.9436219968329
 10
-502.3855623499998
 20
339.0347754787597
 10
-501.5747899592972
 20
339.3054662721174
 10
-500.8140593615546
 20
339.7474695741264
 10
-500.1264849710358
 20
340.3473553381191
 10
-499.5329583876671
 20
341.0868963387138
 10
-499.051513616346
 20
341.9436219968332
 10
-498.6967791128257
 20
342.8915011368792
 10
-498.4795333054915
 20
343.9017329308317
 10
-498.4063770982674
 20
344.9436219968334
210
0.0
220
0.0
230
-1.0
  0
LWPOLYLINE
  5
2124
330
1101
100
AcDbEntity
  8
STEMPEL
100
AcDbPolyline
 90
        7
 70
   128
 43
0.0
 10
-501.4860030674433
 20
339.9436219968329
 10
-500.8659125443789
 20
340.5529598986736
 10
-500.3340923975954
 20
341.2803901719631
 10
-499.9048465978642
 20
342.1063476659067
 10
-499.5897202500668
 20
343.008617216369
 10
-499.397189073101
 20
343.9629311506121
 10
-499.3324314347746
 20
344.9436219968334
210
0.0
220
0.0
230
-1.0
  0
LINE
  5
2125
330
1101
100
AcDbEntity
  8
STEMPEL
100
AcDbLine
 10
506.3002002164137
 20
339.9436219968329
 30
0.0
 11
501.4860030674424
 21
339.9436219968329
 31
0.0
  0
LWPOLYLINE
  5
2126
330
1101
100
AcDbEntity
  8
STEMPEL
100
AcDbPolyline
 90
       18
 70
   128
 43
0.0
 10
491.2353484781776
 20
371.4436219968338
 10
491.299199354363
 20
370.0655006132095
 10
491.4885776179114
 20
368.7343095004301
 10
491.7970342191917
 20
367.4953807752536
 10
492.2140650386002
 20
366.3909046694846
 10
492.7254685917557
 20
365.4584927922319
 10
493.3138296440159
 20
364.7298973116708
 10
493.9591122654076
 20
364.2299296730377
 10
494.6393421301904
 20
363.9756156746212
 10
495.3313548261651
 20
363.9756156746212
 10
496.0115846909482
 20
364.2299296730377
 10
496.6568673123399
 20
364.7298973116708
 10
497.2452283646
 20
365.4584927922319
 10
497.7566319177551
 20
366.3909046694846
 10
498.1736627371637
 20
367.4953807752536
 10
498.4821193384441
 20
368.7343095004301
 10
498.6714976019923
 20
370.0655006132095
 10
498.7353484781777
 20
371.4436219968338
  0
LWPOLYLINE
  5
2127
330
1101
100
AcDbEntity
  8
STEMPEL
100
AcDbPolyline
 90
        9
 70
   128
 43
0.0
 10
492.1034124978667
 20
371.4436219968338
 10
492.1652465116379
 20
370.0872567686949
 10
492.348709382147
 20
368.7756219438607
 10
492.6477508450414
 20
367.5519728001023
 10
493.0525090688886
 20
366.4566630110233
 10
493.5496358800421
 20
365.5258138569341
 10
494.1227369605894
 20
364.7901230121882
 10
494.752912502473
 20
364.2738521929591
 10
495.4193804880207
 20
363.9940270509514
  0
LWPOLYLINE
  5
2128
330
1101
100
AcDbEntity
  8
STEMPEL
100
AcDbPolyline
 90
       18
 70
   128
 43
0.0
 10
504.1466285837453
 20
351.4436219968311
 10
504.097759238829
 20
352.8217433804557
 10
503.9528153910089
 20
354.1529344932353
 10
503.7167329291817
 20
355.391863218412
 10
503.3975513584348
 20
356.4963393241812
 10
503.0061400243446
 20
357.4287512014341
 10
502.5558279704466
 20
358.1573466819955
 10
502.0619500336472
 20
358.6573143206288
 10
501.5413246347423
 20
358.9116283190453
 10
501.0116810472704
 20
358.9116283190453
 10
500.4910556483658
 20
358.6573143206288
 10
499.9971777115659
 20
358.1573466819955
 10
499.5468656576681
 20
357.4287512014341
 10
499.1554543235777
 20
356.4963393241815
 10
498.836272752831
 20
355.391863218412
 10
498.6001902910039
 20
354.1529344932353
 10
498.4552464431837
 20
352.8217433804557
 10
498.4063770982674
 20
351.4436219968311
  0
LWPOLYLINE
  5
2129
330
1101
100
AcDbEntity
  8
STEMPEL
100
AcDbPolyline
 90
        9
 70
   128
 43
0.0
 10
501.7395300092582
 20
358.8453802414961
 10
501.2504694659894
 20
358.5189473437385
 10
500.7908564980884
 20
357.9736783304813
 10
500.3749066944642
 20
357.2264380873532
 10
500.0154851651725
 20
356.3003383645757
 10
499.723708630285
 20
355.2240229426057
 10
499.508601585547
 20
354.0307816949746
 10
499.3768171794394
 20
352.7575209498989
 10
499.3324314347746
 20
351.4436219968325
  0
LINE
  5
212A
330
1101
100
AcDbEntity
  8
HILF
100
AcDbLine
 10
298.4859699139836
 20
411.9436219968356
 30
0.0
 11
503.6386360290451
 21
411.9436219968354
 31
0.0
  0
LINE
  5
212B
102
{ACAD_REACTORS
330
2C36
102
}
330
1101
100
AcDbEntity
  8
STEMPEL
100
AcDbLine
 10
480.8123029715146
 20
427.9436219968322
 30
0.0
 11
320.8123029715141
 21
427.9436219968329
 31
0.0
  0
LINE
  5
212C
102
{ACAD_REACTORS
330
2C36
102
}
330
1101
100
AcDbEntity
  8
STEMPEL
100
AcDbLine
 10
392.1461054535146
 20
428.9436219968324
 30
0.0
 11
320.8123029715141
 21
428.9436219968329
 31
0.0
  0
LINE
  5
212D
102
{ACAD_REACTORS
330
2C36
102
}
330
1101
100
AcDbEntity
  8
STEMPEL
100
AcDbLine
 10
294.2929494033872
 20
413.2624594437136
 30
0.0
 11
318.2718032963383
 21
427.2501126098991
 31
0.0
  0
LINE
  5
212E
102
{ACAD_REACTORS
330
2C36
102
}
330
1101
100
AcDbEntity
  8
STEMPEL
100
AcDbLine
 10
293.7796083498063
 20
414.1207025568762
 30
0.0
 11
317.7659112252734
 21
428.1127125675648
 31
0.0
  0
LINE
  5
212F
102
{ACAD_REACTORS
330
2C36
102
}
330
1101
100
AcDbEntity
  8
STEMPEL
100
AcDbLine
 10
290.8123029715146
 20
403.943621996832
 30
0.0
 11
291.8123029715145
 21
403.943621996832
 31
0.0
  0
LWPOLYLINE
  5
2130
330
1101
100
AcDbEntity
  8
STEMPEL
100
AcDbPolyline
 90
        9
 70
   128
 43
0.0
 10
309.5211934451624
 20
396.4436219968322
 10
309.4593594313912
 20
397.7999872249711
 10
309.2758965608821
 20
399.1116220498054
 10
308.9768550979877
 20
400.3352711935638
 10
308.5720968741405
 20
401.4305809826428
 10
308.074970062987
 20
402.3614301367319
 10
307.5018689824397
 20
403.0971209814778
 10
306.8716934405561
 20
403.6133918007069
 10
306.2052254550083
 20
403.8932169427146
  0
LWPOLYLINE
  5
2131
330
1101
100
AcDbEntity
  8
STEMPEL
100
AcDbPolyline
 90
       18
 70
   128
 43
0.0
 10
310.3892574648514
 20
396.4436219968322
 10
310.3254065886661
 20
397.8217433804566
 10
310.1360283251179
 20
399.152934493236
 10
309.8275717238375
 20
400.3918632184125
 10
309.4105409044289
 20
401.4963393241814
 10
308.8991373512738
 20
402.4287512014341
 10
308.3107762990135
 20
403.1573466819952
 10
307.665493677622
 20
403.6573143206283
 10
306.9852638128389
 20
403.9116283190448
 10
306.2932511168642
 20
403.9116283190448
 10
305.6130212520813
 20
403.6573143206283
 10
304.9677386306896
 20
403.1573466819952
 10
304.3793775784293
 20
402.4287512014341
 10
303.8679740252742
 20
401.4963393241814
 10
303.4509432058655
 20
400.3918632184125
 10
303.1424866045852
 20
399.152934493236
 10
302.953108341037
 20
397.8217433804566
 10
302.8892574648517
 20
396.4436219968322
  0
ARC
  5
2132
102
{ACAD_REACTORS
330
2C36
102
}
330
1101
100
AcDbEntity
  8
STEMPEL
100
AcDbCircle
 10
296.8123029715146
 20
408.9435640295173
 30
0.0
 40
5.0
100
AcDbArc
 50
120.2564164748174
 51
180.0
  0
ARC
  5
2133
102
{ACAD_REACTORS
330
2C36
102
}
330
1101
100
AcDbEntity
  8
STEMPEL
100
AcDbCircle
 10
296.8123029715146
 20
408.9435640295173
 30
0.0
 40
6.0
100
AcDbArc
 50
120.2564164748174
 51
180.0
  0
ARC
  5
2134
330
1101
100
AcDbEntity
  8
STEMPEL
100
AcDbCircle
 10
291.3011593672029
 20
418.4634589792947
 30
0.0
 40
5.0
100
AcDbArc
 50
300.0670458384858
 51
300.2564371635302
  0
ARC
  5
2135
330
1101
100
AcDbEntity
  8
STEMPEL
100
AcDbCircle
 10
320.8123029715141
 20
422.9436219968325
 30
0.0
 40
6.0
100
AcDbArc
 50
90.0
 51
90.0
  0
ARC
  5
2136
102
{ACAD_REACTORS
330
2C36
102
}
330
1101
100
AcDbEntity
  8
STEMPEL
100
AcDbCircle
 10
320.8123029715141
 20
422.9436219968325
 30
0.0
 40
5.0
100
AcDbArc
 50
90.0
 51
120.5373500483005
  0
ARC
  5
2137
102
{ACAD_REACTORS
330
2C36
102
}
330
1101
100
AcDbEntity
  8
STEMPEL
100
AcDbCircle
 10
320.8123029715141
 20
422.9436219968325
 30
0.0
 40
6.0
100
AcDbArc
 50
90.0
 51
120.5128743276197
  0
LINE
  5
2138
102
{ACAD_REACTORS
330
2C36
102
}
330
1101
100
AcDbEntity
  8
STEMPEL
100
AcDbLine
 10
480.8123029715146
 20
428.9436219968322
 30
0.0
 11
409.4785004895141
 21
428.9436219968327
 31
0.0
  0
LINE
  5
2139
102
{ACAD_REACTORS
330
2C36
102
}
330
1101
100
AcDbEntity
  8
STEMPEL
100
AcDbLine
 10
394.0825971266179
 20
429.4436219968327
 30
0.0
 11
407.5420088164107
 21
429.4436219968327
 31
0.0
  0
LINE
  5
213A
102
{ACAD_REACTORS
330
2C36
102
}
330
1101
100
AcDbEntity
  8
STEMPEL
100
AcDbLine
 10
394.0825971266179
 20
430.4436219968327
 30
0.0
 11
407.5420088164107
 21
430.4436219968327
 31
0.0
  0
ARC
  5
213B
102
{ACAD_REACTORS
330
2C36
102
}
330
1101
100
AcDbEntity
  8
STEMPEL
100
AcDbCircle
 10
392.1461054535146
 20
429.4436219968327
 30
0.0
 40
1.5
100
AcDbArc
 50
270.0
 51
345.5224878140701
  0
ARC
  5
213C
102
{ACAD_REACTORS
330
2C36
102
}
330
1101
100
AcDbEntity
  8
STEMPEL
100
AcDbCircle
 10
394.0825971266179
 20
428.9436219968327
 30
0.0
 40
0.5
100
AcDbArc
 50
90.0
 51
165.5224878140701
  0
ARC
  5
213D
102
{ACAD_REACTORS
330
2C36
102
}
330
1101
100
AcDbEntity
  8
STEMPEL
100
AcDbCircle
 10
392.1461054535146
 20
429.4436219968327
 30
0.0
 40
0.5
100
AcDbArc
 50
270.0
 51
345.5224878140701
  0
LINE
  5
213E
102
{ACAD_REACTORS
330
2C36
102
}
330
1101
100
AcDbEntity
  8
STEMPEL
100
AcDbLine
 10
392.1461054535146
 20
428.9436219968327
 30
0.0
 11
391.9573562609155
 21
428.9436219968327
 31
0.0
  0
ARC
  5
213F
102
{ACAD_REACTORS
330
2C36
102
}
330
1101
100
AcDbEntity
  8
STEMPEL
100
AcDbCircle
 10
394.0825971266179
 20
428.9436219968327
 30
0.0
 40
1.5
100
AcDbArc
 50
90.0
 51
165.5224878140701
  0
LINE
  5
2140
330
1101
100
AcDbEntity
  8
STEMPEL
100
AcDbLine
 10
409.4785004895141
 20
428.9436219968327
 30
0.0
 11
409.6672496821136
 21
428.9436219968327
 31
0.0
  0
ARC
  5
2141
102
{ACAD_REACTORS
330
2C36
102
}
330
1101
100
AcDbEntity
  8
STEMPEL
100
AcDbCircle
 10
409.4785004895141
 20
429.4436219968327
 30
0.0
 40
0.5
100
AcDbArc
 50
194.4775121859299
 51
270.0
  0
ARC
  5
2142
102
{ACAD_REACTORS
330
2C36
102
}
330
1101
100
AcDbEntity
  8
STEMPEL
100
AcDbCircle
 10
407.5420088164107
 20
428.9436219968327
 30
0.0
 40
1.5
100
AcDbArc
 50
14.47751218592986
 51
90.0
  0
ARC
  5
2143
102
{ACAD_REACTORS
330
2C36
102
}
330
1101
100
AcDbEntity
  8
STEMPEL
100
AcDbCircle
 10
409.4785004895141
 20
429.4436219968327
 30
0.0
 40
1.5
100
AcDbArc
 50
194.4775121859299
 51
270.0
  0
ARC
  5
2144
102
{ACAD_REACTORS
330
2C36
102
}
330
1101
100
AcDbEntity
  8
STEMPEL
100
AcDbCircle
 10
407.5420088164107
 20
428.9436219968327
 30
0.0
 40
0.5
100
AcDbArc
 50
14.47751218592986
 51
90.0
  0
LINE
  5
2145
102
{ACAD_REACTORS
330
2C36
102
}
330
1101
100
AcDbEntity
  8
STEMPEL
100
AcDbLine
 10
507.8449975932223
 20
414.1207025568762
 30
0.0
 11
483.8586947177552
 21
428.1127125675648
 31
0.0
  0
LINE
  5
2146
102
{ACAD_REACTORS
330
2C36
102
}
330
1101
100
AcDbEntity
  8
STEMPEL
100
AcDbLine
 10
507.3316565396415
 20
413.2624594437136
 30
0.0
 11
483.3528026466904
 21
427.2501126098991
 31
0.0
  0
ARC
  5
2147
102
{ACAD_REACTORS
330
2C36
102
}
330
1101
100
AcDbEntity
  8
STEMPEL
100
AcDbCircle
 10
480.8123029715146
 20
422.9436219968325
 30
0.0
 40
6.0
100
AcDbArc
 50
59.48712567238029
 51
90.0
  0
ARC
  5
2148
102
{ACAD_REACTORS
330
2C36
102
}
330
1101
100
AcDbEntity
  8
STEMPEL
100
AcDbCircle
 10
480.8123029715146
 20
422.9436219968325
 30
0.0
 40
5.0
100
AcDbArc
 50
59.46264995169952
 51
90.0
  0
ARC
  5
2149
330
1101
100
AcDbEntity
  8
STEMPEL
100
AcDbCircle
 10
480.8123029715146
 20
422.9436219968325
 30
0.0
 40
6.0
100
AcDbArc
 50
90.0
 51
90.0
  0
LWPOLYLINE
  5
214A
330
1101
100
AcDbEntity
  8
STEMPEL
100
AcDbPolyline
 90
       18
 70
   128
 43
0.0
 10
-491.2353484781776
 20
396.4436219968322
 10
-491.299199354363
 20
397.8217433804566
 10
-491.4885776179114
 20
399.152934493236
 10
-491.7970342191917
 20
400.3918632184125
 10
-492.2140650386002
 20
401.4963393241814
 10
-492.7254685917557
 20
402.4287512014341
 10
-493.3138296440159
 20
403.1573466819952
 10
-493.9591122654076
 20
403.6573143206283
 10
-494.6393421301904
 20
403.9116283190448
 10
-495.3313548261651
 20
403.9116283190448
 10
-496.0115846909482
 20
403.6573143206283
 10
-496.6568673123399
 20
403.1573466819952
 10
-497.2452283646
 20
402.4287512014341
 10
-497.7566319177551
 20
401.4963393241814
 10
-498.1736627371637
 20
400.3918632184125
 10
-498.4821193384441
 20
399.152934493236
 10
-498.6714976019923
 20
397.8217433804566
 10
-498.7353484781777
 20
396.4436219968322
210
0.0
220
0.0
230
-1.0
  0
LWPOLYLINE
  5
214B
330
1101
100
AcDbEntity
  8
STEMPEL
100
AcDbPolyline
 90
        9
 70
   128
 43
0.0
 10
-492.1034124978667
 20
396.4436219968322
 10
-492.1652465116379
 20
397.7999872249711
 10
-492.348709382147
 20
399.1116220498054
 10
-492.6477508450414
 20
400.3352711935638
 10
-493.0525090688886
 20
401.4305809826428
 10
-493.5496358800421
 20
402.3614301367319
 10
-494.1227369605894
 20
403.0971209814778
 10
-494.752912502473
 20
403.6133918007069
 10
-495.4193804880207
 20
403.8932169427146
210
0.0
220
0.0
230
-1.0
  0
ARC
  5
214C
330
1101
100
AcDbEntity
  8
STEMPEL
100
AcDbCircle
 10
510.3234465758261
 20
418.4634589792947
 30
0.0
 40
5.0
100
AcDbArc
 50
239.7435628364698
 51
239.9329541615142
  0
LINE
  5
214D
102
{ACAD_REACTORS
330
2C36
102
}
330
1101
100
AcDbEntity
  8
STEMPEL
100
AcDbLine
 10
510.8123029715145
 20
408.9435640295173
 30
0.0
 11
510.8123029715145
 21
344.9436219968334
 31
0.0
  0
LINE
  5
214E
102
{ACAD_REACTORS
330
2C36
102
}
330
1101
100
AcDbEntity
  8
STEMPEL
100
AcDbLine
 10
509.8123029715146
 20
408.9435640295173
 30
0.0
 11
509.8123029715146
 21
344.9436219968334
 31
0.0
  0
LINE
  5
2154
102
{ACAD_REACTORS
330
2C36
102
}
330
1101
100
AcDbEntity
  8
STEMPEL
100
AcDbLine
 10
530.812302971514
 20
339.9436219968329
 30
0.0
 11
515.8123029715141
 21
339.9436219968334
 31
0.0
  0
ARC
  5
2155
102
{ACAD_REACTORS
330
2ACC
102
}
330
1101
100
AcDbEntity
  8
STEMPEL
100
AcDbCircle
 10
527.8123029715145
 20
320.9436219968316
 30
0.0
 40
3.0
100
AcDbArc
 50
270.0
 51
90.0
  0
LINE
  5
2156
330
1101
100
AcDbEntity
  8
STEMPEL
100
AcDbLine
 10
509.6026157304788
 20
351.4436219968311
 30
0.0
 11
509.6026157304788
 21
344.9436219968334
 31
0.0
  0
ARC
  5
2157
102
{ACAD_REACTORS
330
2C36
102
}
330
1101
100
AcDbEntity
  8
STEMPEL
100
AcDbCircle
 10
515.8123029715145
 20
344.9436219968334
 30
0.0
 40
5.0
100
AcDbArc
 50
180.0
 51
269.9999999999984
  0
LWPOLYLINE
  5
2158
330
1101
100
AcDbEntity
  8
STEMPEL
100
AcDbPolyline
 90
       10
 70
   128
 43
0.0
 10
-515.1086044615099
 20
338.9436219968341
 10
-514.2505314652371
 20
339.0097492114066
 10
-513.397719265615
 20
339.2623029611371
 10
-512.576960958698
 20
339.6933486774544
 10
-511.814042592299
 20
340.2893440478945
 10
-511.1329330367996
 20
341.0315644796151
 10
-510.5550309468542
 20
341.8966913764125
 10
-510.0984924724477
 20
342.8575447471285
 10
-509.77766084085
 20
343.8839371288407
 10
-509.602615730479
 20
344.9436219968334
210
0.0
220
0.0
230
-1.0
  0
LINE
  5
2159
330
1101
100
AcDbEntity
  8
STEMPEL
100
AcDbLine
 10
512.2230749141497
 20
339.9436219968329
 30
0.0
 11
511.2589607443871
 21
339.9436219968329
 31
0.0
  0
LINE
  5
215A
102
{ACAD_REACTORS
330
2C36
102
}
330
1101
100
AcDbEntity
  8
STEMPEL
100
AcDbLine
 10
510.8123029715145
 20
363.943621996832
 30
0.0
 11
509.8123029715146
 21
363.943621996832
 31
0.0
  0
LINE
  5
215B
102
{ACAD_REACTORS
330
2C36
102
}
330
1101
100
AcDbEntity
  8
STEMPEL
100
AcDbLine
 10
530.812302971514
 20
339.9436219968332
 30
0.0
 11
530.812302971514
 21
338.9436219968329
 31
0.0
  0
LINE
  5
215C
102
{ACAD_REACTORS
330
2C36
102
}
330
1101
100
AcDbEntity
  8
STEMPEL
100
AcDbLine
 10
510.8123029715145
 20
403.943621996832
 30
0.0
 11
509.8123029715146
 21
403.943621996832
 31
0.0
  0
LINE
  5
215D
330
1101
100
AcDbEntity
  8
TEXT
 62
     2
100
AcDbLine
 10
348.8647123141076
 20
483.3751888783429
 30
0.0
 11
353.9745511186457
 21
460.3481367836904
 31
0.0
  0
TEXT
  5
215E
330
1101
100
AcDbEntity
  8
TEXT
 62
     1
100
AcDbText
 10
242.5217111294522
 20
474.9030013008707
 30
0.0
 40
7.0
  1
EDV-Art.Nr. 21004.000X
 41
0.8
  7
GREEKS
100
AcDbText
  0
TEXT
  5
215F
330
1101
100
AcDbEntity
  8
TEXT
 62
     1
100
AcDbText
 10
242.5217111294522
 20
486.4356912124264
 30
0.0
 40
7.0
  1
Siebkorb
 41
0.8
  7
GREEKS
100
AcDbText
  0
LINE
  5
2160
330
1101
100
AcDbEntity
  8
TEXT
 62
     2
100
AcDbLine
 10
242.5012290599855
 20
483.3751888783429
 30
0.0
 11
348.8647123141076
 21
483.3751888783429
 31
0.0
  0
TEXT
  5
2162
330
1101
100
AcDbEntity
  8
TEXT
 62
     1
100
AcDbText
 10
114.7329250540244
 20
359.4419029912454
 30
0.0
 40
7.0
  1
Losflansch
 41
0.8
  7
GREEKS
100
AcDbText
  0
TEXT
  5
2163
330
1101
100
AcDbEntity
  8
TEXT
 62
     1
100
AcDbText
 10
114.3389742253696
 20
348.0042358242774
 30
0.0
 40
7.0
  1
EDV-Art.Nr. 19929.100X
 41
0.8
  7
GREEKS
100
AcDbText
  0
LINE
  5
2164
330
1101
100
AcDbEntity
  8
TEXT
 62
     2
100
AcDbLine
 10
114.1829780580367
 20
357.2830621825508
 30
0.0
 11
219.0712672470132
 21
357.2830621825508
 31
0.0
  0
LINE
  5
216E
330
1101
100
AcDbEntity
  8
STEMPEL
100
AcDbLine
 10
393.3123029715146
 20
396.4436219968316
 30
0.0
 11
393.3123029715146
 21
371.4436219968316
 31
0.0
  0
LINE
  5
216F
330
1101
100
AcDbEntity
  8
STEMPEL
100
AcDbLine
 10
408.3123029715145
 20
396.4436219968329
 30
0.0
 11
408.3123029715145
 21
371.4436219968329
 31
0.0
  0
LINE
  5
2170
330
1101
100
AcDbEntity
  8
STEMPEL
100
AcDbLine
 10
352.9366603262181
 20
396.4436219968329
 30
0.0
 11
352.9366603262181
 21
371.4436219968329
 31
0.0
  0
LINE
  5
2171
330
1101
100
AcDbEntity
  8
STEMPEL
100
AcDbLine
 10
339.9462792694524
 20
396.4436219968329
 30
0.0
 11
339.9462792694524
 21
371.4436219968345
 31
0.0
  0
LINE
  5
2172
330
1101
100
AcDbEntity
  8
STEMPEL
100
AcDbLine
 10
352.4354833307762
 20
396.4436219968329
 30
0.0
 11
352.4354833307762
 21
371.4436219968329
 31
0.0
  0
LINE
  5
2173
330
1101
100
AcDbEntity
  8
STEMPEL
100
AcDbLine
 10
449.1891226122527
 20
396.4436219968329
 30
0.0
 11
449.1891226122527
 21
371.4436219968329
 31
0.0
  0
LINE
  5
2174
330
1101
100
AcDbEntity
  8
STEMPEL
100
AcDbLine
 10
461.6783266735764
 20
396.4436219968329
 30
0.0
 11
461.6783266735764
 21
371.4436219968345
 31
0.0
  0
LINE
  5
2175
330
1101
100
AcDbEntity
  8
STEMPEL
100
AcDbLine
 10
448.6879456168107
 20
396.4436219968329
 30
0.0
 11
448.6879456168107
 21
371.4436219968329
 31
0.0
  0
LWPOLYLINE
  5
2176
330
1101
100
AcDbEntity
  8
STEMPEL
100
AcDbPolyline
 90
       18
 70
   128
 43
0.0
 10
-352.9366603262181
 20
371.4436219968329
 10
-352.8260673645573
 20
370.0655006132088
 10
-352.4980545902424
 20
368.7343095004294
 10
-351.963792084895
 20
367.4953807752529
 10
-351.2414735173572
 20
366.3909046694839
 10
-350.3556965801213
 20
365.4584927922313
 10
-349.3366253444119
 20
364.7298973116701
 10
-348.2189630589203
 20
364.2299296730369
 10
-347.0407703722906
 20
363.9756156746202
 10
-345.8421692233799
 20
363.9756156746202
 10
-344.6639765367502
 20
364.2299296730369
 10
-343.5463142512585
 20
364.7298973116701
 10
-342.5272430155492
 20
365.4584927922313
 10
-341.6414660783132
 20
366.3909046694839
 10
-340.9191475107755
 20
367.4953807752529
 10
-340.384885005428
 20
368.7343095004294
 10
-340.0568722311132
 20
370.0655006132088
 10
-339.9462792694524
 20
371.4436219968329
210
0.0
220
0.0
230
-1.0
  0
LWPOLYLINE
  5
2177
330
1101
100
AcDbEntity
  8
STEMPEL
100
AcDbPolyline
 90
        9
 70
   128
 43
0.0
 10
-352.4354833307762
 20
371.4436219968329
 10
-352.3167183676701
 20
370.0159446240911
 10
-351.9647667278377
 20
368.6404775906028
 10
-351.3924993265626
 20
367.367521897015
 10
-350.6208440539508
 20
366.243629691513
 10
-349.6780204393856
 20
365.3099018519658
 10
-348.5985076598244
 20
364.6004849217061
 10
-347.4217836320045
 20
364.1413223661891
 10
-346.1908813001144
 20
363.9492058172312
210
0.0
220
0.0
230
-1.0
  0
ARC
  5
2178
330
1101
100
AcDbEntity
  8
STEMPEL
100
AcDbCircle
 10
400.8123029715143
 20
371.4436219968329
 30
0.0
 40
7.5
100
AcDbArc
 50
179.999999999987
 51
359.999999999974
  0
LWPOLYLINE
  5
2179
330
1101
100
AcDbEntity
  8
STEMPEL
100
AcDbPolyline
 90
       18
 70
   128
 43
0.0
 10
448.6879456168107
 20
371.4436219968329
 10
448.7985385784716
 20
370.0655006132088
 10
449.1265513527864
 20
368.7343095004294
 10
449.6608138581339
 20
367.4953807752529
 10
450.3831324256714
 20
366.3909046694839
 10
451.2689093629075
 20
365.4584927922313
 10
452.2879805986169
 20
364.7298973116701
 10
453.4056428841085
 20
364.2299296730369
 10
454.583835570738
 20
363.9756156746202
 10
455.7824367196492
 20
363.9756156746202
 10
456.9606294062786
 20
364.2299296730369
 10
458.0782916917703
 20
364.7298973116701
 10
459.0973629274797
 20
365.4584927922313
 10
459.9831398647158
 20
366.3909046694839
 10
460.7054584322534
 20
367.4953807752529
 10
461.2397209376008
 20
368.7343095004294
 10
461.5677337119157
 20
370.0655006132088
 10
461.6783266735764
 20
371.4436219968329
  0
LWPOLYLINE
  5
217A
330
1101
100
AcDbEntity
  8
STEMPEL
100
AcDbPolyline
 90
        9
 70
   128
 43
0.0
 10
449.1891226122527
 20
371.4436219968329
 10
449.3078875753588
 20
370.0159446240911
 10
449.6598392151911
 20
368.6404775906028
 10
450.2321066164663
 20
367.367521897015
 10
451.003761889078
 20
366.243629691513
 10
451.946585503643
 20
365.3099018519658
 10
453.0260982832044
 20
364.6004849217061
 10
454.2028223110244
 20
364.1413223661891
 10
455.4337246429144
 20
363.9492058172312
  0
LWPOLYLINE
  5
217B
330
1101
100
AcDbEntity
  8
STEMPEL
100
AcDbPolyline
 90
       18
 70
   128
 43
0.0
 10
352.9366603262181
 20
396.4436219968329
 10
352.8260673645573
 20
397.8217433804573
 10
352.4980545902424
 20
399.1529344932367
 10
351.963792084895
 20
400.3918632184131
 10
351.2414735173572
 20
401.4963393241821
 10
350.3556965801213
 20
402.4287512014348
 10
349.3366253444119
 20
403.1573466819959
 10
348.2189630589203
 20
403.6573143206291
 10
347.0407703722906
 20
403.9116283190457
 10
345.8421692233799
 20
403.9116283190457
 10
344.6639765367502
 20
403.6573143206291
 10
343.5463142512585
 20
403.1573466819959
 10
342.5272430155492
 20
402.4287512014348
 10
341.6414660783132
 20
401.4963393241821
 10
340.9191475107755
 20
400.3918632184131
 10
340.384885005428
 20
399.1529344932367
 10
340.0568722311132
 20
397.8217433804573
 10
339.9462792694524
 20
396.4436219968329
  0
LWPOLYLINE
  5
217C
330
1101
100
AcDbEntity
  8
STEMPEL
100
AcDbPolyline
 90
        9
 70
   128
 43
0.0
 10
352.4354833307762
 20
396.4436219968329
 10
352.3167183676701
 20
397.8712993695747
 10
351.9647667278377
 20
399.2467664030633
 10
351.3924993265626
 20
400.519722096651
 10
350.6208440539508
 20
401.6436143021531
 10
349.6780204393856
 20
402.5773421417
 10
348.5985076598244
 20
403.2867590719597
 10
347.4217836320045
 20
403.7459216274769
 10
346.1908813001144
 20
403.9380381764349
  0
ARC
  5
217D
330
1101
100
AcDbEntity
  8
STEMPEL
100
AcDbCircle
 10
400.8123029715145
 20
396.4436219968329
 30
0.0
 40
7.5
100
AcDbArc
 50
0.0000000000260551
 51
180.000000000013
  0
LWPOLYLINE
  5
217E
330
1101
100
AcDbEntity
  8
STEMPEL
100
AcDbPolyline
 90
       18
 70
   128
 43
0.0
 10
-448.6879456168107
 20
396.4436219968329
 10
-448.7985385784716
 20
397.8217433804573
 10
-449.1265513527864
 20
399.1529344932367
 10
-449.6608138581339
 20
400.3918632184131
 10
-450.3831324256714
 20
401.4963393241821
 10
-451.2689093629075
 20
402.4287512014348
 10
-452.2879805986169
 20
403.1573466819959
 10
-453.4056428841085
 20
403.6573143206291
 10
-454.583835570738
 20
403.9116283190457
 10
-455.7824367196492
 20
403.9116283190457
 10
-456.9606294062786
 20
403.6573143206291
 10
-458.0782916917703
 20
403.1573466819959
 10
-459.0973629274797
 20
402.4287512014348
 10
-459.9831398647158
 20
401.4963393241821
 10
-460.7054584322534
 20
400.3918632184131
 10
-461.2397209376008
 20
399.1529344932367
 10
-461.5677337119157
 20
397.8217433804573
 10
-461.6783266735764
 20
396.4436219968329
210
0.0
220
0.0
230
-1.0
  0
LWPOLYLINE
  5
217F
330
1101
100
AcDbEntity
  8
STEMPEL
100
AcDbPolyline
 90
        9
 70
   128
 43
0.0
 10
-449.1891226122527
 20
396.4436219968329
 10
-449.3078875753588
 20
397.8712993695747
 10
-449.6598392151911
 20
399.2467664030633
 10
-450.2321066164663
 20
400.519722096651
 10
-451.003761889078
 20
401.6436143021531
 10
-451.946585503643
 20
402.5773421417
 10
-453.0260982832044
 20
403.2867590719597
 10
-454.2028223110244
 20
403.7459216274769
 10
-455.4337246429144
 20
403.9380381764349
210
0.0
220
0.0
230
-1.0
  0
LINE
  5
2180
330
1101
100
AcDbEntity
  8
STEMPEL
100
AcDbLine
 10
327.0263976448209
 20
339.9436219968329
 30
0.0
 11
338.3165033013279
 21
339.9436219968329
 31
0.0
  0
LWPOLYLINE
  5
2181
330
1101
100
AcDbEntity
  8
STEMPEL
100
AcDbPolyline
 90
       10
 70
   128
 43
0.0
 10
325.001817585402
 20
338.9436219968329
 10
325.6378219454029
 20
339.0347754787597
 10
326.254501634759
 20
339.3054662721174
 10
326.833119153164
 20
339.7474695741264
 10
327.356093500116
 20
340.3473553381191
 10
327.8075343647204
 20
341.0868963387138
 10
328.1737249447465
 20
341.9436219968332
 10
328.4435387247215
 20
342.8915011368792
 10
328.6087775494729
 20
343.9017329308317
 10
328.6644207209263
 20
344.9436219968334
  0
LINE
  5
2182
330
1101
100
AcDbEntity
  8
STEMPEL
100
AcDbLine
 10
340.5647208252951
 20
351.4436219968311
 30
0.0
 11
340.5647208252951
 21
344.9436219968345
 31
0.0
  0
LINE
  5
2183
330
1101
100
AcDbEntity
  8
STEMPEL
100
AcDbLine
 10
328.6644207209263
 20
351.4436219968311
 30
0.0
 11
328.6644207209263
 21
344.9436219968345
 31
0.0
  0
LINE
  5
2184
330
1101
100
AcDbEntity
  8
STEMPEL
100
AcDbLine
 10
339.9545263774328
 20
351.4436219968311
 30
0.0
 11
339.9545263774328
 21
344.9436219968345
 31
0.0
  0
LWPOLYLINE
  5
2185
330
1101
100
AcDbEntity
  8
STEMPEL
100
AcDbPolyline
 90
        7
 70
   128
 43
0.0
 10
338.3165033013274
 20
339.9436219968329
 10
338.7881489018941
 20
340.5529598986739
 10
339.1926553782771
 20
341.2803901719631
 10
339.519143020766
 20
342.1063476659067
 10
339.7588305341742
 20
343.008617216369
 10
339.9052712218004
 20
343.9629311506124
 10
339.9545263774328
 20
344.9436219968334
  0
LWPOLYLINE
  5
2186
330
1101
100
AcDbEntity
  8
STEMPEL
100
AcDbPolyline
 90
       10
 70
   128
 43
0.0
 10
336.9021176897709
 20
338.9436219968329
 10
337.5381220497718
 20
339.0347754787597
 10
338.1548017391278
 20
339.3054662721174
 10
338.7334192575329
 20
339.7474695741264
 10
339.2563936044849
 20
340.3473553381191
 10
339.7078344690892
 20
341.0868963387138
 10
340.0740250491153
 20
341.9436219968332
 10
340.3438388290904
 20
342.8915011368792
 10
340.5090776538418
 20
343.9017329308317
 10
340.5647208252951
 20
344.9436219968334
  0
LWPOLYLINE
  5
2187
330
1101
100
AcDbEntity
  8
STEMPEL
100
AcDbPolyline
 90
        9
 70
   128
 43
0.0
 10
-334.3094735491911
 20
358.9337560746549
 10
-335.4258812705623
 20
358.7264489382478
 10
-336.4911605223046
 20
358.2571942107938
 10
-337.466995505343
 20
357.5428699736253
 10
-338.3182875382008
 20
356.6091689302291
 10
-339.0144174809373
 20
355.4896742950687
 10
-339.5303470396286
 20
354.2246518777299
 10
-339.8475193398447
 20
352.8596018085206
 10
-339.9545263774328
 20
351.4436219968327
210
0.0
220
0.0
230
-1.0
  0
LWPOLYLINE
  5
2188
330
1101
100
AcDbEntity
  8
STEMPEL
100
AcDbPolyline
 90
       18
 70
   128
 43
0.0
 10
-328.6644207209263
 20
351.4436219968311
 10
-328.7657333327306
 20
352.8217433804557
 10
-329.0662210886599
 20
354.1529344932353
 10
-329.5556512385811
 20
355.391863218412
 10
-330.2173568257454
 20
356.4963393241815
 10
-331.0288042600105
 20
357.4287512014341
 10
-331.9623606722262
 20
358.1573466819955
 10
-332.9862349184523
 20
358.6573143206288
 10
-334.0655601892351
 20
358.9116283190456
 10
-335.1635813569862
 20
358.9116283190456
 10
-336.2429066277689
 20
358.6573143206288
 10
-337.266780873995
 20
358.1573466819955
 10
-338.2003372862107
 20
357.4287512014341
 10
-339.0117847204758
 20
356.4963393241815
 10
-339.6734903076403
 20
355.391863218412
 10
-340.1629204575615
 20
354.1529344932353
 10
-340.4634082134908
 20
352.8217433804557
 10
-340.5647208252951
 20
351.4436219968311
210
0.0
220
0.0
230
-1.0
  0
LWPOLYLINE
  5
2189
330
1101
100
AcDbEntity
  8
STEMPEL
100
AcDbPolyline
 90
        9
 70
   128
 43
0.0
 10
-359.0068767197999
 20
358.9407484198714
 10
-360.3310861701298
 20
358.7619155128234
 10
-361.5990655673158
 20
358.3116395954994
 10
-362.7637842554013
 20
357.60662186336
 10
-363.7820416240081
 20
356.6730121469766
 10
-364.6160694632702
 20
355.5454389880006
 10
-365.2349328254643
 20
354.2657252310487
 10
-365.6156774339383
 20
352.8813367715134
 10
-365.7441810807702
 20
351.4436219968327
210
0.0
220
0.0
230
-1.0
  0
LINE
  5
218A
330
1101
100
AcDbEntity
  8
STEMPEL
100
AcDbLine
 10
351.0520609260473
 20
339.9436219968329
 30
0.0
 11
364.5266696480417
 21
339.9436219968329
 31
0.0
  0
LWPOLYLINE
  5
218B
330
1101
100
AcDbEntity
  8
STEMPEL
100
AcDbPolyline
 90
       18
 70
   128
 43
0.0
 10
-352.2695723587763
 20
351.4436219968311
 10
-352.3875533940575
 20
352.8217433804557
 10
-352.7374787972472
 20
354.1529344932353
 10
-353.3074322784289
 20
355.391863218412
 10
-354.0780047553849
 20
356.4963393241815
 10
-355.0229553066124
 20
357.4287512014341
 10
-356.1101047744326
 20
358.1573466819955
 10
-357.3024315876107
 20
358.6573143206288
 10
-358.5593324865627
 20
358.9116283190456
 10
-359.8380052186608
 20
358.9116283190456
 10
-361.0949061176127
 20
358.6573143206288
 10
-362.2872329307909
 20
358.1573466819955
 10
-363.374382398611
 20
357.4287512014341
 10
-364.3193329498386
 20
356.4963393241815
 10
-365.0899054267948
 20
355.391863218412
 10
-365.6598589079765
 20
354.1529344932353
 10
-366.0097843111659
 20
352.8217433804557
 10
-366.1277653464472
 20
351.4436219968311
210
0.0
220
0.0
230
-1.0
  0
LINE
  5
218C
330
1101
100
AcDbEntity
  8
STEMPEL
100
AcDbLine
 10
352.2695723587763
 20
351.4436219968311
 30
0.0
 11
352.2695723587763
 21
344.9436219968345
 31
0.0
  0
LWPOLYLINE
  5
218D
330
1101
100
AcDbEntity
  8
STEMPEL
100
AcDbPolyline
 90
       10
 70
   128
 43
0.0
 10
349.5472290315672
 20
338.9436219968329
 10
350.0199589893209
 20
339.0347754787597
 10
350.4783252865209
 20
339.3054662721174
 10
350.9084006951718
 20
339.7474695741264
 10
351.29711759161
 20
340.3473553381191
 10
351.6326650096378
 20
341.0868963387138
 10
351.9048475107534
 20
341.9436219968332
 10
352.1053949673913
 20
342.8915011368792
 10
352.2282138465637
 20
343.9017329308317
 10
352.2695723587763
 20
344.9436219968334
  0
LINE
  5
218E
330
1101
100
AcDbEntity
  8
STEMPEL
100
AcDbLine
 10
366.1277653464472
 20
351.4436219968295
 30
0.0
 11
366.1277653464472
 21
344.9436219968345
 31
0.0
  0
LINE
  5
218F
330
1101
100
AcDbEntity
  8
STEMPEL
100
AcDbLine
 10
365.7441810807702
 20
351.4436219968311
 30
0.0
 11
365.7441810807702
 21
344.9436219968345
 31
0.0
  0
LWPOLYLINE
  5
2190
330
1101
100
AcDbEntity
  8
STEMPEL
100
AcDbPolyline
 90
        7
 70
   128
 43
0.0
 10
364.5266696480412
 20
339.9436219968329
 10
364.8772348624529
 20
340.5529598986739
 10
365.1778968413917
 20
341.2803901719631
 10
365.4205689033265
 20
342.1063476659067
 10
365.598724078375
 20
343.008617216369
 10
365.7075706593555
 20
343.9629311506121
 10
365.7441810807702
 20
344.9436219968334
  0
LWPOLYLINE
  5
2191
330
1101
100
AcDbEntity
  8
STEMPEL
100
AcDbPolyline
 90
       10
 70
   128
 43
0.0
 10
363.4054220192382
 20
338.9436219968329
 10
363.8781519769918
 20
339.0347754787597
 10
364.3365182741918
 20
339.3054662721174
 10
364.7665936828428
 20
339.7474695741264
 10
365.1553105792809
 20
340.3473553381191
 10
365.4908579973087
 20
341.0868963387138
 10
365.7630404984243
 20
341.9436219968332
 10
365.9635879550622
 20
342.8915011368792
 10
366.0864068342346
 20
343.9017329308317
 10
366.1277653464472
 20
344.9436219968334
  0
LWPOLYLINE
  5
2192
330
1101
100
AcDbEntity
  8
STEMPEL
100
AcDbPolyline
 90
       18
 70
   128
 43
0.0
 10
449.3550335842521
 20
351.4436219968311
 10
449.2370525489709
 20
352.8217433804557
 10
448.8871271457814
 20
354.1529344932353
 10
448.3171736645995
 20
355.391863218412
 10
447.5466011876435
 20
356.4963393241815
 10
446.601650636416
 20
357.4287512014341
 10
445.5145011685958
 20
358.1573466819955
 10
444.3221743554176
 20
358.6573143206288
 10
443.0652734564658
 20
358.9116283190456
 10
441.7866007243676
 20
358.9116283190456
 10
440.5296998254157
 20
358.6573143206288
 10
439.3373730122375
 20
358.1573466819955
 10
438.2502235444174
 20
357.4287512014341
 10
437.3052729931898
 20
356.4963393241815
 10
436.5347005162338
 20
355.391863218412
 10
435.9647470350521
 20
354.1529344932353
 10
435.6148216318624
 20
352.8217433804557
 10
435.4968405965812
 20
351.4436219968311
  0
LWPOLYLINE
  5
2193
330
1101
100
AcDbEntity
  8
STEMPEL
100
AcDbPolyline
 90
        9
 70
   128
 43
0.0
 10
442.6177292232287
 20
358.9407484198714
 10
441.2935197728988
 20
358.7619155128234
 10
440.0255403757127
 20
358.3116395954994
 10
438.8608216876271
 20
357.60662186336
 10
437.8425643190205
 20
356.6730121469766
 10
437.0085364797582
 20
355.5454389880006
 10
436.3896731175644
 20
354.2657252310487
 10
436.00892850909
 20
352.8813367715134
 10
435.8804248622582
 20
351.4436219968327
  0
LINE
  5
2194
330
1101
100
AcDbEntity
  8
STEMPEL
100
AcDbLine
 10
450.5725450169814
 20
339.9436219968329
 30
0.0
 11
437.097936294987
 21
339.9436219968329
 31
0.0
  0
LWPOLYLINE
  5
2195
330
1101
100
AcDbEntity
  8
STEMPEL
100
AcDbPolyline
 90
       18
 70
   128
 43
0.0
 10
422.4417750758016
 20
351.4436219968311
 10
422.315165829625
 20
352.8217433804557
 10
421.9396496171234
 20
354.1529344932353
 10
421.328014192531
 20
355.391863218412
 10
420.5010880666568
 20
356.4963393241815
 10
419.4870312169284
 20
357.4287512014341
 10
418.3203761331367
 20
358.1573466819955
 10
417.0408518549115
 20
358.6573143206288
 10
415.6920310469274
 20
358.9116283190456
 10
414.3198461840682
 20
358.9116283190456
 10
412.971025376084
 20
358.6573143206288
 10
411.6915010978586
 20
358.1573466819955
 10
410.524846014067
 20
357.4287512014341
 10
409.5107891643388
 20
356.4963393241815
 10
408.6838630384643
 20
355.391863218412
 10
408.0722276138719
 20
354.1529344932353
 10
407.6967114013703
 20
352.8217433804557
 10
407.570102155194
 20
351.4436219968311
  0
LWPOLYLINE
  5
2196
330
1101
100
AcDbEntity
  8
STEMPEL
100
AcDbPolyline
 90
        9
 70
   128
 43
0.0
 10
415.071355340241
 20
358.9433317566058
 10
413.6300153563634
 20
358.7880303626821
 10
412.2459344529138
 20
358.3536301156678
 10
410.9717098403816
 20
357.6566388953927
 10
409.855764020652
 20
356.7235434439469
 10
408.9405046571989
 20
355.5898028286035
 10
408.2607130184237
 20
354.298500942534
 10
407.8422222357744
 20
352.8987092503746
 10
407.7009356048804
 20
351.4436219968327
  0
LINE
  5
2197
330
1101
100
AcDbEntity
  8
STEMPEL
100
AcDbLine
 10
423.0283495980586
 20
339.9436219968329
 30
0.0
 11
408.2875101271372
 21
339.9436219968329
 31
0.0
  0
LINE
  5
2198
330
1101
100
AcDbEntity
  8
STEMPEL
100
AcDbLine
 10
378.59625634497
 20
339.9436219968329
 30
0.0
 11
393.3370958158914
 21
339.9436219968329
 31
0.0
  0
LWPOLYLINE
  5
2199
330
1101
100
AcDbEntity
  8
STEMPEL
100
AcDbPolyline
 90
        9
 70
   128
 43
0.0
 10
-386.5532506027873
 20
358.9433317566058
 10
-387.9945905866652
 20
358.7880303626821
 10
-389.3786714901148
 20
358.3536301156678
 10
-390.6528961026467
 20
357.6566388953927
 10
-391.7688419223764
 20
356.7235434439469
 10
-392.6841012858294
 20
355.5898028286035
 10
-393.3638929246047
 20
354.298500942534
 10
-393.782383707254
 20
352.8987092503746
 10
-393.923670338148
 20
351.4436219968327
210
0.0
220
0.0
230
-1.0
  0
LWPOLYLINE
  5
219A
330
1101
100
AcDbEntity
  8
STEMPEL
100
AcDbPolyline
 90
       18
 70
   128
 43
0.0
 10
-379.1828308672271
 20
351.4436219968311
 10
-379.3094401134033
 20
352.8217433804557
 10
-379.684956325905
 20
354.1529344932353
 10
-380.2965917504973
 20
355.391863218412
 10
-381.1235178763718
 20
356.4963393241815
 10
-382.1375747260999
 20
357.4287512014341
 10
-383.3042298098917
 20
358.1573466819955
 10
-384.5837540881171
 20
358.6573143206288
 10
-385.9325748961012
 20
358.9116283190456
 10
-387.3047597589605
 20
358.9116283190456
 10
-388.6535805669446
 20
358.6573143206288
 10
-389.9331048451697
 20
358.1573466819955
 10
-391.0997599289615
 20
357.4287512014341
 10
-392.1138167786899
 20
356.4963393241815
 10
-392.9407429045641
 20
355.391863218412
 10
-393.5523783291565
 20
354.1529344932353
 10
-393.9278945416581
 20
352.8217433804557
 10
-394.0545037878346
 20
351.4436219968311
210
0.0
220
0.0
230
-1.0
  0
LWPOLYLINE
  5
219B
330
1101
100
AcDbEntity
  8
STEMPEL
100
AcDbPolyline
 90
       10
 70
   128
 43
0.0
 10
392.7429290513267
 20
338.9436219968329
 10
392.9706816141952
 20
339.0347754787597
 10
393.1915140306894
 20
339.3054662721174
 10
393.3987164195805
 20
339.7474695741264
 10
393.5859930411318
 20
340.3473553381191
 10
393.7476535899639
 20
341.0868963387138
 10
393.8787860921043
 20
341.9436219968332
 10
393.9754061528324
 20
342.8915011368792
 10
394.0345780204946
 20
343.9017329308317
 10
394.0545037878346
 20
344.9436219968334
  0
LINE
  5
219C
330
1101
100
AcDbEntity
  8
STEMPEL
100
AcDbLine
 10
379.1828308672268
 20
351.4436219968327
 30
0.0
 11
379.1828308672268
 21
344.9436219968345
 31
0.0
  0
LWPOLYLINE
  5
219D
330
1101
100
AcDbEntity
  8
STEMPEL
100
AcDbPolyline
 90
       10
 70
   128
 43
0.0
 10
377.8712561307191
 20
338.9436219968329
 10
378.0990086935876
 20
339.0347754787597
 10
378.3198411100818
 20
339.3054662721174
 10
378.527043498973
 20
339.7474695741264
 10
378.7143201205243
 20
340.3473553381191
 10
378.8759806693561
 20
341.0868963387138
 10
379.0071131714967
 20
341.9436219968332
 10
379.1037332322246
 20
342.8915011368792
 10
379.162905099887
 20
343.9017329308317
 10
379.1828308672268
 20
344.9436219968334
  0
LINE
  5
219E
330
1101
100
AcDbEntity
  8
STEMPEL
100
AcDbLine
 10
407.7009356048804
 20
351.4436219968311
 30
0.0
 11
407.7009356048804
 21
344.9436219968345
 31
0.0
  0
LINE
  5
219F
330
1101
100
AcDbEntity
  8
STEMPEL
100
AcDbLine
 10
407.570102155194
 20
351.4436219968295
 30
0.0
 11
407.570102155194
 21
344.9436219968345
 31
0.0
  0
LINE
  5
21A0
330
1101
100
AcDbEntity
  8
STEMPEL
100
AcDbLine
 10
394.0545037878346
 20
351.4436219968295
 30
0.0
 11
394.0545037878346
 21
344.9436219968345
 31
0.0
  0
LINE
  5
21A1
330
1101
100
AcDbEntity
  8
STEMPEL
100
AcDbLine
 10
393.923670338148
 20
351.4436219968311
 30
0.0
 11
393.923670338148
 21
344.9436219968345
 31
0.0
  0
LWPOLYLINE
  5
21A2
330
1101
100
AcDbEntity
  8
STEMPEL
100
AcDbPolyline
 90
        7
 70
   128
 43
0.0
 10
393.3370958158912
 20
339.9436219968329
 10
393.5059916616597
 20
340.5529598986739
 10
393.6508450502322
 20
341.2803901719631
 10
393.7677599677993
 20
342.1063476659067
 10
393.853591840817
 20
343.008617216369
 10
393.9060321132627
 20
343.9629311506124
 10
393.923670338148
 20
344.9436219968334
  0
LWPOLYLINE
  5
21A3
330
1101
100
AcDbEntity
  8
STEMPEL
100
AcDbPolyline
 90
        7
 70
   128
 43
0.0
 10
-408.2875101271374
 20
339.9436219968329
 10
-408.118614281369
 20
340.5529598986739
 10
-407.9737608927962
 20
341.2803901719631
 10
-407.8568459752291
 20
342.1063476659067
 10
-407.7710141022114
 20
343.008617216369
 10
-407.7185738297657
 20
343.9629311506124
 10
-407.7009356048804
 20
344.9436219968334
210
0.0
220
0.0
230
-1.0
  0
LWPOLYLINE
  5
21A4
330
1101
100
AcDbEntity
  8
STEMPEL
100
AcDbPolyline
 90
       10
 70
   128
 43
0.0
 10
-408.8816768917017
 20
338.9436219968329
 10
-408.6539243288332
 20
339.0347754787597
 10
-408.433091912339
 20
339.3054662721174
 10
-408.2258895234478
 20
339.7474695741264
 10
-408.0386129018966
 20
340.3473553381191
 10
-407.8769523530647
 20
341.0868963387138
 10
-407.7458198509241
 20
341.9436219968332
 10
-407.6491997901962
 20
342.8915011368792
 10
-407.5900279225338
 20
343.9017329308317
 10
-407.570102155194
 20
344.9436219968334
210
0.0
220
0.0
230
-1.0
  0
LINE
  5
21A5
330
1101
100
AcDbEntity
  8
STEMPEL
100
AcDbLine
 10
422.4417750758016
 20
351.4436219968327
 30
0.0
 11
422.4417750758016
 21
344.9436219968345
 31
0.0
  0
LWPOLYLINE
  5
21A6
330
1101
100
AcDbEntity
  8
STEMPEL
100
AcDbPolyline
 90
       10
 70
   128
 43
0.0
 10
-423.7533498123095
 20
338.9436219968329
 10
-423.525597249441
 20
339.0347754787597
 10
-423.3047648329468
 20
339.3054662721174
 10
-423.0975624440555
 20
339.7474695741264
 10
-422.9102858225044
 20
340.3473553381191
 10
-422.7486252736723
 20
341.0868963387138
 10
-422.6174927715317
 20
341.9436219968332
 10
-422.5208727108038
 20
342.8915011368792
 10
-422.4617008431416
 20
343.9017329308317
 10
-422.4417750758016
 20
344.9436219968334
210
0.0
220
0.0
230
-1.0
  0
LINE
  5
21A7
330
1101
100
AcDbEntity
  8
STEMPEL
100
AcDbLine
 10
435.8804248622582
 20
351.4436219968311
 30
0.0
 11
435.8804248622582
 21
344.9436219968345
 31
0.0
  0
LINE
  5
21A8
330
1101
100
AcDbEntity
  8
STEMPEL
100
AcDbLine
 10
435.4968405965812
 20
351.4436219968295
 30
0.0
 11
435.4968405965812
 21
344.9436219968345
 31
0.0
  0
LWPOLYLINE
  5
21A9
330
1101
100
AcDbEntity
  8
STEMPEL
100
AcDbPolyline
 90
        7
 70
   128
 43
0.0
 10
-437.0979362949874
 20
339.9436219968329
 10
-436.7473710805755
 20
340.5529598986739
 10
-436.4467091016368
 20
341.2803901719631
 10
-436.2040370397019
 20
342.1063476659067
 10
-436.0258818646537
 20
343.008617216369
 10
-435.9170352836729
 20
343.9629311506121
 10
-435.8804248622582
 20
344.9436219968334
210
0.0
220
0.0
230
-1.0
  0
LWPOLYLINE
  5
21AA
330
1101
100
AcDbEntity
  8
STEMPEL
100
AcDbPolyline
 90
       10
 70
   128
 43
0.0
 10
-438.2191839237902
 20
338.9436219968329
 10
-437.7464539660368
 20
339.0347754787597
 10
-437.2880876688366
 20
339.3054662721174
 10
-436.8580122601859
 20
339.7474695741264
 10
-436.4692953637475
 20
340.3473553381191
 10
-436.1337479457197
 20
341.0868963387138
 10
-435.8615654446041
 20
341.9436219968332
 10
-435.6610179879663
 20
342.8915011368792
 10
-435.5381991087938
 20
343.9017329308317
 10
-435.4968405965812
 20
344.9436219968334
210
0.0
220
0.0
230
-1.0
  0
LWPOLYLINE
  5
21AB
330
1101
100
AcDbEntity
  8
STEMPEL
100
AcDbPolyline
 90
       10
 70
   128
 43
0.0
 10
-476.6227883576264
 20
338.9436219968329
 10
-475.9867839976254
 20
339.0347754787597
 10
-475.3701043082694
 20
339.3054662721174
 10
-474.7914867898644
 20
339.7474695741264
 10
-474.2685124429124
 20
340.3473553381191
 10
-473.8170715783081
 20
341.0868963387138
 10
-473.4508809982819
 20
341.9436219968332
 10
-473.1810672183071
 20
342.8915011368792
 10
-473.0158283935554
 20
343.9017329308317
 10
-472.9601852221024
 20
344.9436219968334
210
0.0
220
0.0
230
-1.0
  0
LINE
  5
21AC
330
1101
100
AcDbEntity
  8
STEMPEL
100
AcDbLine
 10
449.3550335842521
 20
351.4436219968311
 30
0.0
 11
449.3550335842521
 21
344.9436219968345
 31
0.0
  0
LWPOLYLINE
  5
21AD
330
1101
100
AcDbEntity
  8
STEMPEL
100
AcDbPolyline
 90
       10
 70
   128
 43
0.0
 10
-452.0773769114612
 20
338.9436219968329
 10
-451.6046469537077
 20
339.0347754787597
 10
-451.1462806565075
 20
339.3054662721174
 10
-450.7162052478568
 20
339.7474695741264
 10
-450.3274883514184
 20
340.3473553381191
 10
-449.9919409333906
 20
341.0868963387138
 10
-449.719758432275
 20
341.9436219968332
 10
-449.5192109756372
 20
342.8915011368792
 10
-449.3963920964647
 20
343.9017329308317
 10
-449.3550335842521
 20
344.9436219968334
210
0.0
220
0.0
230
-1.0
  0
LINE
  5
21AE
330
1101
100
AcDbEntity
  8
STEMPEL
100
AcDbLine
 10
472.9601852221024
 20
351.4436219968311
 30
0.0
 11
472.9601852221024
 21
344.9436219968345
 31
0.0
  0
LINE
  5
21AF
330
1101
100
AcDbEntity
  8
STEMPEL
100
AcDbLine
 10
461.6700795655958
 20
351.4436219968311
 30
0.0
 11
461.6700795655958
 21
344.9436219968345
 31
0.0
  0
LINE
  5
21B0
330
1101
100
AcDbEntity
  8
STEMPEL
100
AcDbLine
 10
461.0598851177335
 20
351.4436219968311
 30
0.0
 11
461.0598851177335
 21
344.9436219968345
 31
0.0
  0
LINE
  5
21B1
330
1101
100
AcDbEntity
  8
STEMPEL
100
AcDbLine
 10
474.5982082982077
 20
339.9436219968329
 30
0.0
 11
462.7201829855823
 21
339.943621996833
 31
0.0
  0
LWPOLYLINE
  5
21B2
330
1101
100
AcDbEntity
  8
STEMPEL
100
AcDbPolyline
 90
       10
 70
   128
 43
0.0
 10
-464.7224882532575
 20
338.9436219968329
 10
-464.0864838932566
 20
339.0347754787597
 10
-463.4698042039006
 20
339.3054662721174
 10
-462.8911866854955
 20
339.7474695741264
 10
-462.3682123385435
 20
340.3473553381191
 10
-461.9167714739392
 20
341.0868963387138
 10
-461.5505808939131
 20
341.9436219968332
 10
-461.2807671139383
 20
342.8915011368792
 10
-461.1155282891866
 20
343.9017329308317
 10
-461.0598851177335
 20
344.9436219968334
210
0.0
220
0.0
230
-1.0
  0
LWPOLYLINE
  5
21B3
330
1101
100
AcDbEntity
  8
STEMPEL
100
AcDbPolyline
 90
        9
 70
   128
 43
0.0
 10
467.3151323938372
 20
358.9337560746549
 10
466.1987246724661
 20
358.7264489382478
 10
465.133445420724
 20
358.2571942107938
 10
464.1576104376857
 20
357.5428699736253
 10
463.3063184048276
 20
356.6091689302291
 10
462.6101884620911
 20
355.4896742950687
 10
462.0942589033997
 20
354.2246518777299
 10
461.777086603184
 20
352.8596018085206
 10
461.6700795655958
 20
351.4436219968327
  0
LWPOLYLINE
  5
21B4
330
1101
100
AcDbEntity
  8
STEMPEL
100
AcDbPolyline
 90
       18
 70
   128
 43
0.0
 10
472.9601852221024
 20
351.4436219968311
 10
472.858872610298
 20
352.8217433804557
 10
472.5583848543688
 20
354.1529344932353
 10
472.0689547044476
 20
355.391863218412
 10
471.4072491172831
 20
356.4963393241815
 10
470.5958016830179
 20
357.4287512014341
 10
469.6622452708022
 20
358.1573466819955
 10
468.6383710245761
 20
358.6573143206288
 10
467.5590457537935
 20
358.9116283190456
 10
466.4610245860424
 20
358.9116283190456
 10
465.3816993152595
 20
358.6573143206288
 10
464.3578250690334
 20
358.1573466819955
 10
463.4242686568177
 20
357.4287512014341
 10
462.6128212225526
 20
356.4963393241815
 10
461.9511156353882
 20
355.391863218412
 10
461.4616854854671
 20
354.1529344932353
 10
461.1611977295378
 20
352.8217433804557
 10
461.0598851177335
 20
351.4436219968311
  0
LINE
  5
21E5
330
1101
100
AcDbEntity
  8
HILF
100
AcDbLine
 10
309.9760280284434
 20
344.9436219968309
 30
0.0
 11
303.2182288447614
 21
344.9436219968307
 31
0.0
  0
LINE
  5
21E6
330
1101
100
AcDbEntity
  8
HILF
100
AcDbLine
 10
297.4779773592839
 20
344.9436219968304
 30
0.0
 11
293.9798830958505
 21
344.9436219968304
 31
0.0
  0
LINE
  5
21E7
330
1101
100
AcDbEntity
  8
HILF
100
AcDbLine
 10
328.6644207209263
 20
344.9436219968315
 30
0.0
 11
319.1074494635752
 21
344.9436219968312
 31
0.0
  0
LINE
  5
21E8
330
1101
100
AcDbEntity
  8
HILF
100
AcDbLine
 10
352.2695723587763
 20
344.9436219968323
 30
0.0
 11
340.5647208252951
 21
344.943621996832
 31
0.0
  0
LINE
  5
21E9
330
1101
100
AcDbEntity
  8
HILF
100
AcDbLine
 10
379.1828308672268
 20
344.9436219968334
 30
0.0
 11
366.1277653464473
 21
344.9436219968329
 31
0.0
  0
LINE
  5
21EA
330
1101
100
AcDbEntity
  8
HILF
100
AcDbLine
 10
407.570102155194
 20
344.9436219968343
 30
0.0
 11
394.0545037878346
 21
344.9436219968338
 31
0.0
  0
LINE
  5
21EB
330
1101
100
AcDbEntity
  8
HILF
100
AcDbLine
 10
461.6700795655958
 20
344.9436219968361
 30
0.0
 11
449.3550335842521
 21
344.9436219968356
 31
0.0
  0
LINE
  5
21EC
330
1101
100
AcDbEntity
  8
HILF
100
AcDbLine
 10
435.4968405965812
 20
344.9436219968352
 30
0.0
 11
422.4417750758016
 21
344.9436219968347
 31
0.0
  0
LINE
  5
21ED
330
1101
100
AcDbEntity
  8
HILF
100
AcDbLine
 10
482.5171564794539
 20
344.9436219968368
 30
0.0
 11
472.9601852221025
 21
344.9436219968366
 31
0.0
  0
LINE
  5
21EE
330
1101
100
AcDbEntity
  8
HILF
100
AcDbLine
 10
498.4063770982677
 20
344.9436219968374
 30
0.0
 11
491.6485779145857
 21
344.9436219968371
 31
0.0
  0
LINE
  5
21FB
330
1101
100
AcDbEntity
  8
MITTEL
100
AcDbLine
 10
461.8127248774444
 20
351.543621996833
 30
0.0
 11
461.8127248774444
 21
317.9436219968311
 31
0.0
  0
LINE
  5
21FC
330
1101
100
AcDbEntity
  8
STEMPEL
100
AcDbLine
 10
463.3081026417012
 20
339.9436219968329
 30
0.0
 11
462.8364570411342
 21
340.5529598986739
 31
0.0
210
0.0
220
0.0
230
-1.0
  0
LINE
  5
21FD
330
1101
100
AcDbEntity
  8
STEMPEL
100
AcDbLine
 10
462.8364570411342
 20
340.5529598986739
 30
0.0
 11
462.4319505647515
 21
341.2803901719631
 31
0.0
210
0.0
220
0.0
230
-1.0
  0
LINE
  5
21FE
330
1101
100
AcDbEntity
  8
STEMPEL
100
AcDbLine
 10
462.4319505647515
 20
341.2803901719631
 30
0.0
 11
462.1054629222624
 21
342.1063476659067
 31
0.0
210
0.0
220
0.0
230
-1.0
  0
LINE
  5
21FF
330
1101
100
AcDbEntity
  8
STEMPEL
100
AcDbLine
 10
462.1054629222624
 20
342.1063476659067
 30
0.0
 11
461.8657754088542
 21
343.008617216369
 31
0.0
210
0.0
220
0.0
230
-1.0
  0
LINE
  5
2200
330
1101
100
AcDbEntity
  8
STEMPEL
100
AcDbLine
 10
461.8657754088542
 20
343.008617216369
 30
0.0
 11
461.7193347212283
 21
343.9629311506124
 31
0.0
210
0.0
220
0.0
230
-1.0
  0
LINE
  5
2201
330
1101
100
AcDbEntity
  8
STEMPEL
100
AcDbLine
 10
461.7193347212283
 20
343.9629311506124
 30
0.0
 11
461.6700795655958
 21
344.9436219968334
 31
0.0
210
0.0
220
0.0
230
-1.0
  0
DIMENSION
  5
2207
330
1101
100
AcDbEntity
  8
BEM
100
AcDbDimension
  2
*D1
 10
240.9393508638568
 20
428.9436219968329
 30
0.0
 11
234.4393508638567
 21
373.4436219968323
 31
0.0
 70
    32
  1
110
 71
     5
 42
111.0000000000013
  3
STANDARD
100
AcDbAlignedDimension
 13
273.8123029715146
 23
317.9436219968315
 33
0.0
 14
320.8123029715141
 24
428.9436219968329
 34
0.0
 50
90.0
100
AcDbRotatedDimension
  0
DIMENSION
  5
2208
330
1101
100
AcDbEntity
  8
BEM
100
AcDbDimension
  2
*D2
 10
510.8123029715145
 20
441.4436555097463
 30
0.0
 11
400.8123029715143
 21
447.9436555097463
 31
0.0
 70
    32
  1
%%C<>
 71
     5
 42
220.0000000000005
  3
STANDARD
100
AcDbAlignedDimension
 13
290.8123029715141
 23
408.9435640295173
 33
0.0
 14
510.8123029715145
 24
408.9435640295173
 34
0.0
100
AcDbRotatedDimension
  0
DIMENSION
  5
2209
330
1101
100
AcDbEntity
  8
BEM
100
AcDbDimension
  2
*D3
 10
530.812302971514
 20
457.4436555097462
 30
0.0
 11
400.8123029715143
 21
463.9436555097462
 31
0.0
 70
    32
  1
%%C<>
 71
     5
 42
259.9999999999996
  3
STANDARD
100
AcDbAlignedDimension
 13
270.8123029715145
 23
339.9436219968332
 33
0.0
 14
530.812302971514
 24
338.9436219968313
 34
0.0
100
AcDbRotatedDimension
  0
LINE
  5
220D
102
{ACAD_REACTORS
330
2ACC
102
}
330
1101
100
AcDbEntity
  8
STEMPEL
100
AcDbLine
 10
271.3123029715145
 20
338.9436219968329
 30
0.0
 11
271.0289196296267
 21
322.7086012132754
 31
0.0
  0
LINE
  5
220E
102
{ACAD_REACTORS
330
2ACC
102
}
330
1101
100
AcDbEntity
  8
STEMPEL
100
AcDbLine
 10
286.3123029715146
 20
338.943621996833
 30
0.0
 11
286.4883767852343
 21
328.856359964645
 31
0.0
  0
ARC
  5
220F
102
{ACAD_REACTORS
330
2ACC
102
}
330
1101
100
AcDbEntity
  8
STEMPEL
100
AcDbCircle
 10
291.4876152610164
 20
328.9436219968314
 30
0.0
 40
5.0
100
AcDbArc
 50
181.0000000000017
 51
270.0
  0
ARC
  5
2210
102
{ACAD_REACTORS
330
2ACC
102
}
330
1101
100
AcDbEntity
  8
STEMPEL
100
AcDbCircle
 10
266.0296811538446
 20
322.7958632454618
 30
0.0
 40
5.0
100
AcDbArc
 50
346.6128248198306
 51
358.9999999999982
  0
ARC
  5
2211
330
1101
100
AcDbEntity
  8
STEMPEL
100
AcDbCircle
 10
474.4880371669462
 20
328.9436219968314
 30
0.0
 40
5.0
100
AcDbArc
 50
181.0000000000017
 51
242.9278855327882
  0
LINE
  5
2212
330
1101
100
AcDbEntity
  8
STEMPEL
100
AcDbLine
 10
469.3127248774444
 20
338.943621996833
 30
0.0
 11
469.4887986911642
 21
328.856359964645
 31
0.0
  0
ARC
  5
2213
330
1101
100
AcDbEntity
  8
STEMPEL
100
AcDbCircle
 10
449.1374125879426
 20
328.9436219968314
 30
0.0
 40
5.0
100
AcDbArc
 50
270.0
 51
358.9999999999982
  0
LINE
  5
2214
330
1101
100
AcDbEntity
  8
STEMPEL
100
AcDbLine
 10
454.3127248774444
 20
338.943621996833
 30
0.0
 11
454.1366510637245
 21
328.856359964645
 31
0.0
  0
TEXT
  5
223B
330
1101
100
AcDbEntity
  8
TEXT
 62
     1
100
AcDbText
 10
116.4042963110416
 20
302.6620989216516
 30
0.0
 40
7.0
  1
EDV-Art.Nr. 21810.100X
 41
0.8
  7
GREEKS
100
AcDbText
  0
TEXT
  5
223C
330
1101
100
AcDbEntity
  8
TEXT
 62
     1
100
AcDbText
 10
116.4142212182469
 20
314.8313133647807
 30
0.0
 40
7.0
  1
Kompressionsdichtung
 41
0.8
  7
GREEKS
100
AcDbText
  0
LINE
  5
223D
330
1101
100
AcDbEntity
  8
TEXT
 62
     2
100
AcDbLine
 10
115.880328570704
 20
311.6198034147849
 30
0.0
 11
219.0712672470134
 21
311.6198034147849
 31
0.0
  0
LINE
  5
223F
330
1101
100
AcDbEntity
  8
TEXT
 62
     2
100
AcDbLine
 10
219.0712672470132
 20
357.2830621825508
 30
0.0
 11
239.2566867420902
 21
344.314823704108
 31
0.0
  0
LINE
  5
2371
330
1101
100
AcDbEntity
  8
TEXT
 62
     2
100
AcDbLine
 10
219.0712672470134
 20
311.6198034147849
 30
0.0
 11
269.7681315542006
 21
314.5092394974765
 31
0.0
  0
DIMENSION
  5
23F1
330
1101
100
AcDbEntity
  8
BEM
100
AcDbDimension
  2
*D4
 10
662.7444319117687
 20
484.6696468246295
 30
0.0
 11
531.7783674416416
 21
491.1696468246296
 31
0.0
 70
    32
  1
262
 71
     5
 42
261.9321289402542
  3
STANDARD
100
AcDbAlignedDimension
 13
400.8123029715145
 23
468.9620559446743
 33
0.0
 14
662.7444319117687
 24
246.8598393890254
 34
0.0
100
AcDbRotatedDimension
  0
LINE
  5
246E
330
1101
100
AcDbEntity
  8
TEXT
 62
     2
100
AcDbLine
 10
355.2493399191708
 20
454.6034099454778
 30
0.0
 11
357.6181133315165
 21
443.9287349013122
 31
0.0
  0
LINE
  5
246F
330
1101
100
AcDbEntity
  8
TEXT
 62
     2
100
AcDbLine
 10
358.886318339884
 20
438.2136773600758
 30
0.0
 11
360.9433983525843
 21
428.9436219968325
 31
0.0
  0
LINE
  5
2A4C
102
{ACAD_REACTORS
330
2ACC
330
2B61
102
}
330
1101
100
AcDbEntity
  8
STEMPEL
100
AcDbLine
 10
275.3123029715146
 20
332.9436219968337
 30
0.0
 11
275.3123029715146
 21
335.9436219968338
 31
0.0
  0
LINE
  5
2A4D
102
{ACAD_REACTORS
330
2ACC
330
2B61
102
}
330
1101
100
AcDbEntity
  8
STEMPEL
100
AcDbLine
 10
282.3123029715146
 20
332.9436219968337
 30
0.0
 11
282.3123029715146
 21
335.9436219968338
 31
0.0
  0
LINE
  5
2A4E
102
{ACAD_REACTORS
330
2B61
102
}
330
1101
100
AcDbEntity
  8
HILF
100
AcDbLine
 10
275.8123029715146
 20
317.9436219968311
 30
0.0
 11
275.8123029715146
 21
328.5571219968332
 31
0.0
  0
LINE
  5
2A4F
102
{ACAD_REACTORS
330
2B61
102
}
330
1101
100
AcDbEntity
  8
HILF
100
AcDbLine
 10
281.8123029715145
 20
317.9436219968311
 30
0.0
 11
281.8123029715145
 21
328.5571219968332
 31
0.0
  0
LINE
  5
2A50
102
{ACAD_REACTORS
330
2B61
102
}
330
1101
100
AcDbEntity
  8
STEMPEL
100
AcDbLine
 10
280.8123029715146
 20
317.9436219968311
 30
0.0
 11
280.8123029715146
 21
327.9436219968332
 31
0.0
  0
LINE
  5
2A51
102
{ACAD_REACTORS
330
2B61
102
}
330
1101
100
AcDbEntity
  8
STEMPEL
100
AcDbLine
 10
276.8123029715146
 20
317.9436219968311
 30
0.0
 11
276.8123029715145
 21
327.9436219968332
 31
0.0
  0
LINE
  5
2A52
102
{ACAD_REACTORS
330
2ACC
330
2B61
102
}
330
1101
100
AcDbEntity
  8
STEMPEL
100
AcDbLine
 10
275.3123029715146
 20
321.9436219968337
 30
0.0
 11
275.3123029715147
 21
324.9436219968337
 31
0.0
  0
LINE
  5
2A53
102
{ACAD_REACTORS
330
2ACC
330
2B61
102
}
330
1101
100
AcDbEntity
  8
STEMPEL
100
AcDbLine
 10
275.3123029715146
 20
321.9436219968338
 30
0.0
 11
274.8123029715146
 21
321.9436219968338
 31
0.0
  0
LINE
  5
2A54
102
{ACAD_REACTORS
330
2ACC
330
2B61
102
}
330
1101
100
AcDbEntity
  8
STEMPEL
100
AcDbLine
 10
274.8123029715147
 20
317.9436219968311
 30
0.0
 11
274.8123029715147
 21
321.9436219968338
 31
0.0
  0
LINE
  5
2A55
102
{ACAD_REACTORS
330
2ACC
330
2B61
102
}
330
1101
100
AcDbEntity
  8
STEMPEL
100
AcDbLine
 10
275.3123029715146
 20
332.9436219968337
 30
0.0
 11
274.8123029715145
 21
332.9436219968337
 31
0.0
  0
LINE
  5
2A56
102
{ACAD_REACTORS
330
2ACC
330
2B61
102
}
330
1101
100
AcDbEntity
  8
STEMPEL
100
AcDbLine
 10
275.3123029715147
 20
324.9436219968337
 30
0.0
 11
274.8123029715146
 21
324.9436219968337
 31
0.0
  0
LINE
  5
2A57
102
{ACAD_REACTORS
330
2ACC
330
2B61
102
}
330
1101
100
AcDbEntity
  8
STEMPEL
100
AcDbLine
 10
274.8123029715146
 20
324.9436219968335
 30
0.0
 11
274.8123029715145
 21
332.9436219968337
 31
0.0
  0
LINE
  5
2A58
102
{ACAD_REACTORS
330
2ACC
330
2B61
102
}
330
1101
100
AcDbEntity
  8
STEMPEL
100
AcDbLine
 10
282.3123029715146
 20
321.9436219968338
 30
0.0
 11
282.3123029715146
 21
324.9436219968339
 31
0.0
  0
LINE
  5
2A59
102
{ACAD_REACTORS
330
2ACC
330
2B61
102
}
330
1101
100
AcDbEntity
  8
STEMPEL
100
AcDbLine
 10
282.8123029715147
 20
321.9436219968338
 30
0.0
 11
282.3123029715146
 21
321.9436219968338
 31
0.0
  0
LINE
  5
2A5A
102
{ACAD_REACTORS
330
2ACC
330
2B61
102
}
330
1101
100
AcDbEntity
  8
STEMPEL
100
AcDbLine
 10
282.8123029715146
 20
317.9436219968311
 30
0.0
 11
282.8123029715146
 21
321.9436219968338
 31
0.0
  0
LINE
  5
2A5B
102
{ACAD_REACTORS
330
2ACC
330
2B61
102
}
330
1101
100
AcDbEntity
  8
STEMPEL
100
AcDbLine
 10
282.8123029715146
 20
324.9436219968338
 30
0.0
 11
282.8123029715145
 21
332.9436219968337
 31
0.0
  0
LINE
  5
2A5C
102
{ACAD_REACTORS
330
2ACC
330
2B61
102
}
330
1101
100
AcDbEntity
  8
STEMPEL
100
AcDbLine
 10
282.8123029715145
 20
332.9436219968337
 30
0.0
 11
282.3123029715146
 21
332.9436219968337
 31
0.0
  0
LINE
  5
2A5D
102
{ACAD_REACTORS
330
2ACC
330
2B61
102
}
330
1101
100
AcDbEntity
  8
STEMPEL
100
AcDbLine
 10
282.8123029715147
 20
324.9436219968339
 30
0.0
 11
282.3123029715146
 21
324.9436219968338
 31
0.0
  0
LINE
  5
2A5E
102
{ACAD_REACTORS
330
2ACC
330
2B61
102
}
330
1101
100
AcDbEntity
  8
STEMPEL
100
AcDbLine
 10
275.3123029715146
 20
335.9436219968336
 30
0.0
 11
274.8123029715145
 21
335.9436219968336
 31
0.0
  0
LINE
  5
2A5F
102
{ACAD_REACTORS
330
2ACC
330
2B61
102
}
330
1101
100
AcDbEntity
  8
STEMPEL
100
AcDbLine
 10
274.8123029715145
 20
335.9436219968336
 30
0.0
 11
274.8123029715145
 21
338.9436219968337
 31
0.0
  0
LINE
  5
2A60
102
{ACAD_REACTORS
330
2ACC
330
2B61
102
}
330
1101
100
AcDbEntity
  8
STEMPEL
100
AcDbLine
 10
282.8123029715145
 20
335.9436219968336
 30
0.0
 11
282.8123029715145
 21
338.9436219968337
 31
0.0
  0
LINE
  5
2A61
102
{ACAD_REACTORS
330
2ACC
330
2B61
102
}
330
1101
100
AcDbEntity
  8
STEMPEL
100
AcDbLine
 10
282.8123029715145
 20
335.9436219968336
 30
0.0
 11
282.3123029715146
 21
335.9436219968336
 31
0.0
  0
HATCH
  5
2ACC
330
1101
100
AcDbEntity
  8
SCHRAFF
100
AcDbHatch
 10
0.0
 20
0.0
 30
0.0
210
0.0
220
0.0
230
1.0
  2
_USER
 70
     0
 71
     1
 91
        5
 92
        7
 72
     1
 73
     1
 93
        4
 10
483.0847163310362
 20
323.9436219968313
 42
0.0
 10
483.0847163310362
 20
317.9436219968311
 42
0.0
 10
527.8123029715145
 20
317.9436219968311
 42
1.0
 10
527.8123029715145
 20
323.9436219968313
 42
0.0
 97
        4
330
2071
330
20F5
330
2073
330
2155
 92
        7
 72
     1
 73
     1
 93
        4
 10
483.0847163310361
 20
317.9436219968311
 42
0.0
 10
483.0847163310361
 20
323.9436219968313
 42
0.0
 10
467.8123029715146
 20
323.9436219968313
 42
1.0
 10
467.8123029715144
 20
317.9436219968311
 42
0.0
 97
        4
330
2071
330
210A
330
2073
330
20F5
 92
        7
 72
     1
 73
     1
 93
        4
 10
333.8123029715145
 20
317.9436219968311
 42
1.0
 10
333.8123029715145
 20
323.9436219968315
 42
0.0
 10
318.539889611993
 20
323.9436219968315
 42
0.0
 10
318.539889611993
 20
317.9436219968311
 42
0.0
 97
        4
330
2071
330
20B1
330
2073
330
20F3
 92
        7
 72
     1
 73
     1
 93
       15
 10
318.539889611993
 20
317.9436219968311
 42
0.0
 10
318.539889611993
 20
323.9436219968315
 42
0.0
 10
291.4876152610164
 20
323.9436219968315
 42
-0.4091108014277108
 10
286.4883767852343
 20
328.856359964645
 42
0.0
 10
286.3123029715145
 20
338.9436219968335
 42
0.0
 10
282.8123029715145
 20
338.9436219968335
 42
0.0
 10
282.8123029715145
 20
335.9436219968337
 42
0.0
 10
282.3123029715146
 20
335.9436219968336
 42
0.0
 10
282.3123029715146
 20
332.9436219968337
 42
0.0
 10
282.8123029715144
 20
332.9436219968337
 42
0.0
 10
282.8123029715146
 20
324.9436219968339
 42
0.0
 10
282.3123029715146
 20
324.9436219968338
 42
0.0
 10
282.3123029715146
 20
321.9436219968338
 42
0.0
 10
282.8123029715146
 20
321.9436219968338
 42
0.0
 10
282.8123029715146
 20
317.9436219968311
 42
0.0
 97
       15
330
2071
330
220F
330
220E
330
2081
330
2A60
330
2A61
330
2A4D
330
2A5C
330
2A5B
330
2A5D
330
2A58
330
2A59
330
2A5A
330
2073
330
20B1
 92
        7
 72
     1
 73
     1
 93
       14
 10
274.8123029715145
 20
332.9436219968337
 42
0.0
 10
275.3123029715146
 20
332.9436219968336
 42
0.0
 10
275.3123029715145
 20
335.9436219968336
 42
0.0
 10
274.8123029715145
 20
335.9436219968336
 42
0.0
 10
274.8123029715145
 20
338.9436219968337
 42
0.0
 10
271.3123029715146
 20
338.9436219968338
 42
0.0
 10
271.0289196296267
 20
322.7086012132754
 42
-0.0541019412914326
 10
270.8938197898884
 20
321.638212465068
 42
0.4844268511314706
 10
273.8123029715146
 20
317.9436219968311
 42
0.0
 10
274.8123029715147
 20
317.9436219968311
 42
0.0
 10
274.8123029715147
 20
321.9436219968338
 42
0.0
 10
275.3123029715146
 20
321.9436219968338
 42
0.0
 10
275.3123029715146
 20
324.9436219968337
 42
0.0
 10
274.8123029715146
 20
324.9436219968337
 42
0.0
 97
       14
330
2A55
330
2A4C
330
2A5E
330
2A5F
330
2081
330
220D
330
2210
330
20A3
330
2073
330
2A54
330
2A53
330
2A52
330
2A56
330
2A57
 75
     0
 76
     0
 52
45.0
 41
5.0
 77
     0
 78
     1
 53
45.0
 43
0.0
 44
0.0
 45
-3.535533905932737
 46
3.535533905932737
 79
     0
 47
0.3951223398405065
 98
        5
 10
500.4005330759566
 20
321.9922646060957
 10
476.6851475959363
 20
320.0166526780972
 10
331.6260475596962
 20
320.4117753403207
 10
305.9343791746853
 20
320.8068980025444
 10
273.1280974906342
 20
332.660568187416
  0
TEXT
  5
2AF3
330
1101
100
AcDbEntity
  8
VOLL
100
AcDbText
 10
304.9488474030442
 20
217.8426631506714
 30
0.0
 40
1.8
  1

 50
270.0
  7
GREEKS
100
AcDbText
  0
LINE
  5
2AF4
102
{ACAD_REACTORS
330
2B61
102
}
330
1101
100
AcDbEntity
  8
STEMPEL
100
AcDbLine
 10
281.8123029715145
 20
328.5571219968332
 30
0.0
 11
281.8123029715145
 21
339.9436219968332
 31
0.0
  0
LINE
  5
2AF5
102
{ACAD_REACTORS
330
2B61
102
}
330
1101
100
AcDbEntity
  8
STEMPEL
100
AcDbLine
 10
275.8123029715146
 20
339.9436219968332
 30
0.0
 11
275.8123029715146
 21
328.5571219968332
 31
0.0
  0
LINE
  5
2AF6
102
{ACAD_REACTORS
330
2B61
102
}
330
1101
100
AcDbEntity
  8
STEMPEL
100
AcDbLine
 10
281.1988029715146
 20
327.9436219968332
 30
0.0
 11
281.8123029715145
 21
328.5571219968332
 31
0.0
  0
LINE
  5
2AF7
102
{ACAD_REACTORS
330
2B61
102
}
330
1101
100
AcDbEntity
  8
STEMPEL
100
AcDbLine
 10
275.8123029715146
 20
328.5571219968332
 30
0.0
 11
276.4258029715145
 21
327.9436219968332
 31
0.0
  0
ARC
  5
2AF8
330
1101
100
AcDbEntity
  8
STEMPEL
100
AcDbCircle
 10
272.2623029715145
 20
340.4936219968332
 30
0.0
 40
0.5500000000000003
100
AcDbArc
 50
109.9999999999995
 51
270.0
  0
ARC
  5
2AF9
330
1101
100
AcDbEntity
  8
STEMPEL
100
AcDbCircle
 10
285.3623029715146
 20
340.4936219968332
 30
0.0
 40
0.5500000000000009
100
AcDbArc
 50
270.0
 51
70.00000000000047
  0
LINE
  5
2AFA
330
1101
100
AcDbEntity
  8
STEMPEL
100
AcDbLine
 10
285.5504140503437
 20
341.0104529382654
 30
0.0
 11
284.5858056634108
 21
341.3615416788325
 31
0.0
  0
LINE
  5
2AFB
330
1101
100
AcDbEntity
  8
STEMPEL
100
AcDbLine
 10
273.0388002796183
 20
341.3615416788325
 30
0.0
 11
272.0741918926854
 21
341.0104529382654
 31
0.0
  0
LINE
  5
2AFC
330
1101
100
AcDbEntity
  8
STEMPEL
100
AcDbLine
 10
281.8123029715145
 20
328.5571219968332
 30
0.0
 11
275.8123029715146
 21
328.5571219968332
 31
0.0
  0
LINE
  5
2AFD
102
{ACAD_REACTORS
330
2B61
102
}
330
1101
100
AcDbEntity
  8
STEMPEL
100
AcDbLine
 10
281.1988029715146
 20
327.9436219968332
 30
0.0
 11
276.4258029715145
 21
327.9436219968332
 31
0.0
  0
LINE
  5
2AFE
330
1101
100
AcDbEntity
  8
STEMPEL
100
AcDbLine
 10
283.8123029715145
 20
346.5436219968332
 30
0.0
 11
273.8123029715146
 21
346.5436219968332
 31
0.0
  0
LINE
  5
2AFF
330
1101
100
AcDbEntity
  8
STEMPEL
100
AcDbLine
 10
284.5858056634108
 20
346.3363625751962
 30
0.0
 11
284.5858056634108
 21
341.3615416788325
 31
0.0
  0
LINE
  5
2B00
330
1101
100
AcDbEntity
  8
STEMPEL
100
AcDbLine
 10
281.6990543174627
 20
346.3363625751962
 30
0.0
 11
281.6990543174627
 21
341.3615416788325
 31
0.0
  0
LINE
  5
2B01
330
1101
100
AcDbEntity
  8
STEMPEL
100
AcDbLine
 10
275.9255516255664
 20
346.3363625751962
 30
0.0
 11
275.9255516255664
 21
341.3615416788325
 31
0.0
  0
LINE
  5
2B02
330
1101
100
AcDbEntity
  8
STEMPEL
100
AcDbLine
 10
273.0388002796183
 20
346.3363625751962
 30
0.0
 11
273.0388002796183
 21
341.3615416788325
 31
0.0
  0
LINE
  5
2B03
102
{ACAD_REACTORS
330
2C36
102
}
330
1101
100
AcDbEntity
  8
STEMPEL
100
AcDbLine
 10
285.3623029715146
 20
339.9436219968332
 30
0.0
 11
272.2623029715145
 21
339.9436219968332
 31
0.0
  0
LINE
  5
2B04
330
1101
100
AcDbEntity
  8
STEMPEL
100
AcDbLine
 10
285.5504140503437
 20
341.0104529382654
 30
0.0
 11
272.0741918926854
 21
341.0104529382654
 31
0.0
  0
LINE
  5
2B05
330
1101
100
AcDbEntity
  8
HILF
100
AcDbLine
 10
281.1988029715146
 20
336.9436219968331
 30
0.0
 11
281.1988029715146
 21
327.9436219968332
 31
0.0
  0
LINE
  5
2B06
330
1101
100
AcDbEntity
  8
HILF
100
AcDbLine
 10
281.1988029715146
 20
336.9436219968331
 30
0.0
 11
281.8123029715145
 21
339.9436219968332
 31
0.0
  0
LINE
  5
2B07
330
1101
100
AcDbEntity
  8
HILF
100
AcDbLine
 10
275.8123029715146
 20
336.9436219968331
 30
0.0
 11
281.8123029715145
 21
336.9436219968331
 31
0.0
  0
LINE
  5
2B08
330
1101
100
AcDbEntity
  8
HILF
100
AcDbLine
 10
276.4258029715145
 20
336.9436219968331
 30
0.0
 11
276.4258029715145
 21
327.9436219968332
 31
0.0
  0
LINE
  5
2B09
330
1101
100
AcDbEntity
  8
HILF
100
AcDbLine
 10
276.4258029715145
 20
336.9436219968331
 30
0.0
 11
275.8123029715146
 21
339.9436219968332
 31
0.0
  0
POINT
  5
2B0B
330
1101
100
AcDbEntity
  8
0
100
AcDbPoint
 10
278.8123029715146
 20
327.9436219968332
 30
0.0
210
-0.0000000000000002
220
-1.0
230
0.0
  0
ARC
  5
2B0C
330
1101
100
AcDbEntity
  8
STEMPEL
100
AcDbCircle
 10
283.1424299904368
 20
341.41408485831
 30
0.0
 40
5.129537138523076
100
AcDbArc
 50
73.65710669401657
 51
106.3428933059834
  0
LINE
  5
2B0D
330
1101
100
AcDbEntity
  8
STEMPEL
100
AcDbLine
 10
283.8123029715145
 20
346.5436219968332
 30
0.0
 11
284.5858056634108
 21
346.3363625751962
 31
0.0
  0
LINE
  5
2B0E
330
1101
100
AcDbEntity
  8
STEMPEL
100
AcDbLine
 10
273.8123029715146
 20
346.5436219968332
 30
0.0
 11
273.0388002796183
 21
346.3363625751962
 31
0.0
  0
ARC
  5
2B0F
330
1101
100
AcDbEntity
  8
STEMPEL
100
AcDbCircle
 10
274.4821759525923
 20
341.41408485831
 30
0.0
 40
5.129537138523076
100
AcDbArc
 50
73.65710669401657
 51
106.3428933059834
  0
ARC
  5
2B10
330
1101
100
AcDbEntity
  8
STEMPEL
100
AcDbCircle
 10
278.8123029715146
 20
326.3363625751962
 30
0.0
 40
20.20725942163691
100
AcDbArc
 50
81.78678929826059
 51
98.2132107017394
  0
ARC
  5
2B11
330
1101
100
AcDbEntity
  8
HILF
100
AcDbCircle
 10
283.1424299904368
 20
337.8011486731285
 30
0.0
 40
3.841839622940954
100
AcDbArc
 50
67.93247218100944
 51
112.0675278189905
  0
ARC
  5
2B12
330
1101
100
AcDbEntity
  8
HILF
100
AcDbCircle
 10
274.4821759525923
 20
337.8023132350167
 30
0.0
 40
3.840760399790701
100
AcDbArc
 50
67.92594526323878
 51
112.0740547367612
  0
ARC
  5
2B13
330
1101
100
AcDbEntity
  8
HILF
100
AcDbCircle
 10
278.8123029715146
 20
326.702329969607
 30
0.0
 40
14.94074366520046
100
AcDbArc
 50
78.85962783889434
 51
101.1403721611056
  0
ARC
  5
2B27
330
1101
100
AcDbEntity
  8
HILF
100
AcDbCircle
 10
461.8127248774444
 20
326.7023299696068
 30
0.0
 40
14.94074366520046
100
AcDbArc
 50
78.85962783889434
 51
88.1631771066905
  0
ARC
  5
2B28
330
1101
100
AcDbEntity
  8
STEMPEL
100
AcDbCircle
 10
461.8127248774444
 20
326.336362575196
 30
0.0
 40
20.20725942163691
100
AcDbArc
 50
81.78678929826059
 51
90.40446069628941
  0
LINE
  5
2B29
330
1101
100
AcDbEntity
  8
STEMPEL
100
AcDbLine
 10
468.5508359562735
 20
341.0104529382652
 30
0.0
 11
462.582056166975
 21
341.0104529382653
 31
0.0
  0
LINE
  5
2B2A
330
1101
100
AcDbEntity
  8
STEMPEL
100
AcDbLine
 10
466.8127248774444
 20
346.543621996833
 30
0.0
 11
461.6700795655957
 21
346.5436219968331
 31
0.0
  0
LINE
  5
2B32
330
1101
100
AcDbEntity
  8
STEMPEL
100
AcDbLine
 10
464.6994762233926
 20
346.3363625751961
 30
0.0
 11
464.6994762233926
 21
341.3615416788323
 31
0.0
  0
LINE
  5
2B33
330
1101
100
AcDbEntity
  8
STEMPEL
100
AcDbLine
 10
467.5862275693407
 20
346.3363625751961
 30
0.0
 11
467.5862275693407
 21
341.3615416788323
 31
0.0
  0
ARC
  5
2B34
330
1101
100
AcDbEntity
  8
HILF
100
AcDbCircle
 10
466.1428518963666
 20
337.8011486731284
 30
0.0
 40
3.841839622940954
100
AcDbArc
 50
67.93247218100944
 51
112.0675278189905
  0
LINE
  5
2B35
330
1101
100
AcDbEntity
  8
STEMPEL
100
AcDbLine
 10
468.5508359562735
 20
341.0104529382652
 30
0.0
 11
467.5862275693407
 21
341.3615416788323
 31
0.0
  0
ARC
  5
2B36
330
1101
100
AcDbEntity
  8
STEMPEL
100
AcDbCircle
 10
468.3627248774445
 20
340.493621996833
 30
0.0
 40
0.5500000000000009
100
AcDbArc
 50
270.0
 51
70.00000000000047
  0
LINE
  5
2B37
330
1101
100
AcDbEntity
  8
STEMPEL
100
AcDbLine
 10
466.8127248774444
 20
346.543621996833
 30
0.0
 11
467.5862275693407
 21
346.3363625751961
 31
0.0
  0
ARC
  5
2B38
330
1101
100
AcDbEntity
  8
STEMPEL
100
AcDbCircle
 10
466.1428518963666
 20
341.4140848583099
 30
0.0
 40
5.129537138523076
100
AcDbArc
 50
73.65710669401657
 51
106.3428933059834
  0
HATCH
  5
2B61
330
1101
100
AcDbEntity
  8
SCHRAFF
100
AcDbHatch
 10
0.0
 20
0.0
 30
0.0
210
0.0
220
0.0
230
1.0
  2
_USER
 70
     0
 71
     1
 91
        4
 92
        7
 72
     0
 73
     1
 93
       13
 10
282.8123029715146
 20
338.9436219968336
 10
281.8123029715145
 20
338.9436219968336
 10
281.8123029715145
 20
328.5571219968332
 10
281.8123029715145
 20
317.9436219968311
 10
282.8123029715145
 20
317.9436219968311
 10
282.8123029715146
 20
321.9436219968338
 10
282.3123029715146
 20
321.9436219968338
 10
282.3123029715146
 20
324.9436219968338
 10
282.8123029715146
 20
324.9436219968339
 10
282.8123029715145
 20
332.9436219968337
 10
282.3123029715146
 20
332.9436219968336
 10
282.3123029715146
 20
335.9436219968336
 10
282.8123029715145
 20
335.9436219968336
 97
       13
330
2081
330
2AF4
330
2A4F
330
2073
330
2A5A
330
2A59
330
2A58
330
2A5D
330
2A5B
330
2A5C
330
2A4D
330
2A61
330
2A60
 92
        7
 72
     0
 73
     1
 93
        5
 10
281.8123029715145
 20
328.5571219968332
 10
281.1988029715146
 20
327.9436219968332
 10
280.8123029715146
 20
327.9436219968332
 10
280.8123029715146
 20
317.9436219968311
 10
281.8123029715145
 20
317.9436219968311
 97
        5
330
2AF6
330
2AFD
330
2A50
330
2073
330
2A4F
 92
        7
 72
     0
 73
     1
 93
        5
 10
275.8123029715146
 20
317.9436219968311
 10
276.8123029715146
 20
317.9436219968311
 10
276.8123029715145
 20
327.9436219968332
 10
276.4258029715145
 20
327.9436219968332
 10
275.8123029715146
 20
328.5571219968332
 97
        5
330
2AFD
330
2AF7
330
2A4E
330
2073
330
2A51
 92
        7
 72
     0
 73
     1
 93
       13
 10
275.8123029715146
 20
328.5571219968332
 10
275.8123029715146
 20
338.9436219968337
 10
274.8123029715145
 20
338.9436219968338
 10
274.8123029715145
 20
335.9436219968336
 10
275.3123029715146
 20
335.9436219968336
 10
275.3123029715146
 20
332.9436219968337
 10
274.8123029715145
 20
332.9436219968337
 10
274.8123029715147
 20
324.9436219968337
 10
275.3123029715147
 20
324.9436219968337
 10
275.3123029715146
 20
321.9436219968337
 10
274.8123029715147
 20
321.9436219968338
 10
274.8123029715147
 20
317.9436219968311
 10
275.8123029715146
 20
317.9436219968311
 97
       13
330
2AF5
330
2081
330
2A5F
330
2A5E
330
2A4C
330
2A55
330
2A57
330
2A56
330
2A52
330
2A53
330
2A54
330
2073
330
2A4E
 75
     0
 76
     0
 52
135.0
 41
1.0
 77
     0
 78
     1
 53
135.0
 43
0.0
 44
0.0
 45
-0.7071067811865476
 46
-0.7071067811865475
 79
     0
 47
0.0548546548914123
 98
        4
 10
282.3613330944502
 20
336.7552727106436
 10
281.4833616338995
 20
326.8265798321154
 10
276.2155281806638
 20
326.6620162743964
 10
275.6119223618541
 20
327.4848354461105
  0
TEXT
  5
2B7D
330
1101
100
AcDbEntity
  8
VOLL
100
AcDbText
 10
431.5197154936132
 20
313.9767821550341
 30
0.0
 40
1.8
  1

  7
GREEKS
100
AcDbText
  0
ARC
  5
2B7E
330
1101
100
AcDbEntity
  8
STEMPEL
100
AcDbCircle
 10
328.689889611993
 20
324.6936219968314
 30
0.0
 40
0.750000000000001
100
AcDbArc
 50
269.9999991462263
 51
70.00000000000047
  0
ARC
  5
2B7F
330
1101
100
AcDbEntity
  8
STEMPEL
100
AcDbCircle
 10
308.389889611993
 20
324.6936219968314
 30
0.0
 40
0.7500000000000013
100
AcDbArc
 50
109.9999999999995
 51
269.9999991462263
  0
LINE
  5
2B80
330
1101
100
AcDbEntity
  8
STEMPEL
100
AcDbLine
 10
309.8796355741486
 20
326.0339785130313
 30
0.0
 11
308.1333745044988
 21
325.3983914624209
 31
0.0
  0
LINE
  5
2B81
330
1101
100
AcDbEntity
  8
STEMPEL
100
AcDbLine
 10
328.9464047194873
 20
325.3983914624209
 30
0.0
 11
327.2001436498373
 21
326.0339785130313
 31
0.0
  0
LINE
  5
2B82
330
1101
100
AcDbEntity
  8
STEMPEL
100
AcDbLine
 10
327.2001436498373
 20
333.6327328643761
 30
0.0
 11
326.039889611993
 21
333.9436219968314
 31
0.0
  0
LINE
  5
2B83
330
1101
100
AcDbEntity
  8
STEMPEL
100
AcDbLine
 10
311.039889611993
 20
333.9436219968314
 30
0.0
 11
309.8796355741486
 21
333.6327328643761
 31
0.0
  0
LINE
  5
2B84
330
1101
100
AcDbEntity
  8
STEMPEL
100
AcDbLine
 10
309.8796355741486
 20
326.0339785130313
 30
0.0
 11
309.8796355741486
 21
333.6327328643761
 31
0.0
  0
LINE
  5
2B85
330
1101
100
AcDbEntity
  8
STEMPEL
100
AcDbLine
 10
328.689889611993
 20
323.9436219968315
 30
0.0
 11
308.389889611993
 21
323.9436219968315
 31
0.0
  0
LINE
  5
2B86
330
1101
100
AcDbEntity
  8
STEMPEL
100
AcDbLine
 10
328.9464047194873
 20
325.3983914624209
 30
0.0
 11
308.1333745044987
 21
325.3983914624209
 31
0.0
  0
LINE
  5
2B87
330
1101
100
AcDbEntity
  8
STEMPEL
100
AcDbLine
 10
314.2097625930708
 20
326.0339785130313
 30
0.0
 11
314.2097625930708
 21
333.6327328643761
 31
0.0
  0
LINE
  5
2B88
330
1101
100
AcDbEntity
  8
STEMPEL
100
AcDbLine
 10
322.8700166309152
 20
326.0339785130313
 30
0.0
 11
322.8700166309152
 21
333.6327328643761
 31
0.0
  0
LINE
  5
2B89
330
1101
100
AcDbEntity
  8
STEMPEL
100
AcDbLine
 10
327.2001436498373
 20
326.0339785130313
 30
0.0
 11
327.2001436498373
 21
333.6327328643761
 31
0.0
  0
LINE
  5
2B8A
330
1101
100
AcDbEntity
  8
STEMPEL
100
AcDbLine
 10
311.039889611993
 20
333.9436219968314
 30
0.0
 11
326.039889611993
 21
333.9436219968314
 31
0.0
  0
POINT
  5
2B8C
330
1101
100
AcDbEntity
  8
0
100
AcDbPoint
 10
318.539889611993
 20
323.9436219968315
 30
0.0
210
0.0000000000000001
220
1.0
230
0.0
  0
ARC
  5
2B8D
330
1101
100
AcDbEntity
  8
HILF
100
AcDbCircle
 10
312.0446990836097
 20
320.6951358473018
 30
0.0
 40
5.761140599691502
100
AcDbArc
 50
67.92594526326054
 51
112.0740547367394
  0
ARC
  5
2B8E
330
1101
100
AcDbEntity
  8
HILF
100
AcDbCircle
 10
325.0350801403763
 20
320.6951358473018
 30
0.0
 40
5.761140599691502
100
AcDbArc
 50
67.92594526326054
 51
112.0740547367394
  0
ARC
  5
2B8F
330
1101
100
AcDbEntity
  8
HILF
100
AcDbCircle
 10
318.539889611993
 20
304.0451609491702
 30
0.0
 40
22.41111549782308
100
AcDbArc
 50
78.85962783890455
 51
101.1403721610954
  0
ARC
  5
2B90
330
1101
100
AcDbEntity
  8
STEMPEL
100
AcDbCircle
 10
325.0350801403763
 20
326.249316289047
 30
0.0
 40
7.694305707784447
100
AcDbArc
 50
73.65710669401345
 51
106.3428933059834
  0
ARC
  5
2B91
330
1101
100
AcDbEntity
  8
STEMPEL
100
AcDbCircle
 10
312.0446990836097
 20
326.249316289047
 30
0.0
 40
7.694305707784447
100
AcDbArc
 50
73.65710669401657
 51
106.3428933059865
  0
ARC
  5
2B92
330
1101
100
AcDbEntity
  8
STEMPEL
100
AcDbCircle
 10
318.539889611993
 20
303.6327328643766
 30
0.0
 40
30.31088913245485
100
AcDbArc
 50
81.78678929826059
 51
98.2132107017394
  0
LINE
  5
2B93
330
1101
100
AcDbEntity
  8
STEMPEL
100
AcDbLine
 10
409.4725570093589
 20
326.0339785130312
 30
0.0
 11
409.4725570093589
 21
333.632732864376
 31
0.0
  0
LINE
  5
2B94
330
1101
100
AcDbEntity
  8
STEMPEL
100
AcDbLine
 10
405.1424299904367
 20
326.0339785130312
 30
0.0
 11
405.1424299904367
 21
333.632732864376
 31
0.0
  0
LINE
  5
2B95
330
1101
100
AcDbEntity
  8
STEMPEL
100
AcDbLine
 10
396.4821759525923
 20
326.0339785130312
 30
0.0
 11
396.4821759525923
 21
333.632732864376
 31
0.0
  0
LINE
  5
2B96
330
1101
100
AcDbEntity
  8
STEMPEL
100
AcDbLine
 10
392.1520489336702
 20
326.0339785130312
 30
0.0
 11
392.1520489336702
 21
333.632732864376
 31
0.0
  0
ARC
  5
2B97
330
1101
100
AcDbEntity
  8
HILF
100
AcDbCircle
 10
400.8123029715145
 20
304.0451609491702
 30
0.0
 40
22.41111549782308
100
AcDbArc
 50
78.85962783890455
 51
101.1403721610954
  0
LINE
  5
2B98
330
1101
100
AcDbEntity
  8
STEMPEL
100
AcDbLine
 10
411.2188180790088
 20
325.3983914624208
 30
0.0
 11
390.4057878640203
 21
325.3983914624208
 31
0.0
  0
LINE
  5
2B99
330
1101
100
AcDbEntity
  8
STEMPEL
100
AcDbLine
 10
410.9623029715145
 20
323.9436219968314
 30
0.0
 11
390.6623029715146
 21
323.9436219968314
 31
0.0
  0
LINE
  5
2B9A
330
1101
100
AcDbEntity
  8
STEMPEL
100
AcDbLine
 10
392.1520489336702
 20
326.0339785130312
 30
0.0
 11
390.4057878640204
 21
325.3983914624208
 31
0.0
  0
ARC
  5
2B9B
330
1101
100
AcDbEntity
  8
STEMPEL
100
AcDbCircle
 10
390.6623029715146
 20
324.6936219968314
 30
0.0
 40
0.7500000000000013
100
AcDbArc
 50
109.9999999999995
 51
269.9999991462263
  0
ARC
  5
2B9C
330
1101
100
AcDbEntity
  8
HILF
100
AcDbCircle
 10
394.3171124431313
 20
320.6951358473018
 30
0.0
 40
5.761140599691502
100
AcDbArc
 50
67.92594526326054
 51
112.0740547367394
  0
ARC
  5
2B9D
330
1101
100
AcDbEntity
  8
HILF
100
AcDbCircle
 10
407.3074934998978
 20
320.6951358473018
 30
0.0
 40
5.761140599691502
100
AcDbArc
 50
67.92594526326054
 51
112.0740547367394
  0
POINT
  5
2B9E
330
1101
100
AcDbEntity
  8
0
100
AcDbPoint
 10
400.8123029715145
 20
323.9436219968314
 30
0.0
210
0.0000000000000001
220
1.0
230
0.0
  0
LINE
  5
2B9F
330
1101
100
AcDbEntity
  8
STEMPEL
100
AcDbLine
 10
411.2188180790088
 20
325.3983914624208
 30
0.0
 11
409.4725570093589
 21
326.0339785130312
 31
0.0
  0
ARC
  5
2BA0
330
1101
100
AcDbEntity
  8
STEMPEL
100
AcDbCircle
 10
410.9623029715145
 20
324.6936219968314
 30
0.0
 40
0.750000000000001
100
AcDbArc
 50
269.9999991462263
 51
70.00000000000047
  0
ARC
  5
2BA1
330
1101
100
AcDbEntity
  8
STEMPEL
100
AcDbCircle
 10
400.8123029715145
 20
303.6327328643765
 30
0.0
 40
30.31088913245485
100
AcDbArc
 50
81.78678929826059
 51
98.2132107017394
  0
LINE
  5
2BA2
330
1101
100
AcDbEntity
  8
STEMPEL
100
AcDbLine
 10
393.3123029715146
 20
333.9436219968314
 30
0.0
 11
408.3123029715145
 21
333.9436219968314
 31
0.0
  0
ARC
  5
2BA3
330
1101
100
AcDbEntity
  8
STEMPEL
100
AcDbCircle
 10
394.3171124431313
 20
326.2493162890469
 30
0.0
 40
7.694305707784447
100
AcDbArc
 50
73.65710669401657
 51
106.3428933059865
  0
LINE
  5
2BA4
330
1101
100
AcDbEntity
  8
STEMPEL
100
AcDbLine
 10
393.3123029715146
 20
333.9436219968314
 30
0.0
 11
392.1520489336702
 21
333.632732864376
 31
0.0
  0
ARC
  5
2BA5
330
1101
100
AcDbEntity
  8
STEMPEL
100
AcDbCircle
 10
407.3074934998978
 20
326.2493162890469
 30
0.0
 40
7.694305707784447
100
AcDbArc
 50
73.65710669401345
 51
106.3428933059834
  0
LINE
  5
2BA6
330
1101
100
AcDbEntity
  8
STEMPEL
100
AcDbLine
 10
409.4725570093589
 20
333.632732864376
 30
0.0
 11
408.3123029715145
 21
333.9436219968314
 31
0.0
  0
LINE
  5
2BA7
330
1101
100
AcDbEntity
  8
STEMPEL
100
AcDbLine
 10
491.7449703688805
 20
326.0339785130312
 30
0.0
 11
491.7449703688805
 21
333.632732864376
 31
0.0
  0
LINE
  5
2BA8
330
1101
100
AcDbEntity
  8
STEMPEL
100
AcDbLine
 10
487.4148433499583
 20
326.0339785130312
 30
0.0
 11
487.4148433499583
 21
333.632732864376
 31
0.0
  0
LINE
  5
2BA9
330
1101
100
AcDbEntity
  8
STEMPEL
100
AcDbLine
 10
478.7545893121139
 20
326.0339785130312
 30
0.0
 11
478.7545893121139
 21
333.632732864376
 31
0.0
  0
LINE
  5
2BAA
330
1101
100
AcDbEntity
  8
STEMPEL
100
AcDbLine
 10
474.4244622931917
 20
326.0339785130312
 30
0.0
 11
474.4244622931917
 21
333.632732864376
 31
0.0
  0
ARC
  5
2BAB
330
1101
100
AcDbEntity
  8
HILF
100
AcDbCircle
 10
483.0847163310361
 20
304.0451609491701
 30
0.0
 40
22.41111549782308
100
AcDbArc
 50
78.85962783890455
 51
101.1403721610954
  0
LINE
  5
2BAC
330
1101
100
AcDbEntity
  8
STEMPEL
100
AcDbLine
 10
493.4912314385304
 20
325.3983914624208
 30
0.0
 11
472.6782012235418
 21
325.3983914624208
 31
0.0
  0
LINE
  5
2BAD
330
1101
100
AcDbEntity
  8
STEMPEL
100
AcDbLine
 10
493.234716331036
 20
323.9436219968313
 30
0.0
 11
472.9347163310361
 21
323.9436219968313
 31
0.0
  0
LINE
  5
2BAE
330
1101
100
AcDbEntity
  8
STEMPEL
100
AcDbLine
 10
474.4244622931917
 20
326.0339785130312
 30
0.0
 11
472.6782012235418
 21
325.3983914624208
 31
0.0
  0
ARC
  5
2BAF
330
1101
100
AcDbEntity
  8
STEMPEL
100
AcDbCircle
 10
472.9347163310361
 20
324.6936219968313
 30
0.0
 40
0.7500000000000013
100
AcDbArc
 50
109.9999999999995
 51
269.9999991462263
  0
ARC
  5
2BB0
330
1101
100
AcDbEntity
  8
HILF
100
AcDbCircle
 10
476.5895258026528
 20
320.6951358473017
 30
0.0
 40
5.761140599691502
100
AcDbArc
 50
67.92594526326054
 51
112.0740547367394
  0
ARC
  5
2BB1
330
1101
100
AcDbEntity
  8
HILF
100
AcDbCircle
 10
489.5799068594194
 20
320.6951358473017
 30
0.0
 40
5.761140599691502
100
AcDbArc
 50
67.92594526326054
 51
112.0740547367394
  0
POINT
  5
2BB2
330
1101
100
AcDbEntity
  8
0
100
AcDbPoint
 10
483.0847163310361
 20
323.9436219968313
 30
0.0
210
0.0000000000000001
220
1.0
230
0.0
  0
LINE
  5
2BB3
330
1101
100
AcDbEntity
  8
STEMPEL
100
AcDbLine
 10
493.4912314385304
 20
325.3983914624208
 30
0.0
 11
491.7449703688805
 21
326.0339785130312
 31
0.0
  0
ARC
  5
2BB4
330
1101
100
AcDbEntity
  8
STEMPEL
100
AcDbCircle
 10
493.234716331036
 20
324.6936219968313
 30
0.0
 40
0.750000000000001
100
AcDbArc
 50
269.9999991462263
 51
70.00000000000047
  0
ARC
  5
2BB5
330
1101
100
AcDbEntity
  8
STEMPEL
100
AcDbCircle
 10
483.0847163310361
 20
303.6327328643765
 30
0.0
 40
30.31088913245485
100
AcDbArc
 50
81.78678929826059
 51
98.2132107017394
  0
LINE
  5
2BB6
330
1101
100
AcDbEntity
  8
STEMPEL
100
AcDbLine
 10
475.5847163310361
 20
333.9436219968313
 30
0.0
 11
490.5847163310361
 21
333.9436219968313
 31
0.0
  0
ARC
  5
2BB7
330
1101
100
AcDbEntity
  8
STEMPEL
100
AcDbCircle
 10
476.5895258026528
 20
326.2493162890469
 30
0.0
 40
7.694305707784447
100
AcDbArc
 50
73.65710669401657
 51
106.3428933059865
  0
LINE
  5
2BB8
330
1101
100
AcDbEntity
  8
STEMPEL
100
AcDbLine
 10
475.5847163310361
 20
333.9436219968313
 30
0.0
 11
474.4244622931917
 21
333.632732864376
 31
0.0
  0
ARC
  5
2BB9
330
1101
100
AcDbEntity
  8
STEMPEL
100
AcDbCircle
 10
489.5799068594194
 20
326.2493162890469
 30
0.0
 40
7.694305707784447
100
AcDbArc
 50
73.65710669401345
 51
106.3428933059834
  0
LINE
  5
2BBA
330
1101
100
AcDbEntity
  8
STEMPEL
100
AcDbLine
 10
491.7449703688805
 20
333.632732864376
 30
0.0
 11
490.5847163310361
 21
333.9436219968313
 31
0.0
  0
LINE
  5
2BDF
102
{ACAD_REACTORS
330
2C4A
102
}
330
1101
100
AcDbEntity
  8
STEMPEL
100
AcDbLine
 10
265.8123029715146
 20
312.9436219968311
 30
0.0
 11
535.8123029715145
 21
312.9436219968311
 31
0.0
  0
LINE
  5
2BE0
102
{ACAD_REACTORS
330
2C4A
102
}
330
1101
100
AcDbEntity
  8
STEMPEL
100
AcDbLine
 10
535.8123029715145
 20
312.9436219968311
 30
0.0
 11
535.8123029715145
 21
315.9436219968311
 31
0.0
  0
LINE
  5
2BE2
102
{ACAD_REACTORS
330
2C4A
102
}
330
1101
100
AcDbEntity
  8
STEMPEL
100
AcDbLine
 10
465.8123029715146
 20
312.9436219968311
 30
0.0
 11
465.8123029715146
 21
315.9436219968311
 31
0.0
  0
LINE
  5
2BE3
102
{ACAD_REACTORS
330
2C4A
102
}
330
1101
100
AcDbEntity
  8
STEMPEL
100
AcDbLine
 10
335.8123029715145
 20
312.9436219968311
 30
0.0
 11
335.8123029715145
 21
315.9436219968311
 31
0.0
  0
LINE
  5
2BE5
102
{ACAD_REACTORS
330
2C4A
102
}
330
1101
100
AcDbEntity
  8
STEMPEL
100
AcDbLine
 10
265.8123029715146
 20
312.9436219968311
 30
0.0
 11
265.8123029715146
 21
315.9436219968311
 31
0.0
  0
LINE
  5
2BE6
102
{ACAD_REACTORS
330
2C4A
102
}
330
1101
100
AcDbEntity
  8
STEMPEL
100
AcDbLine
 10
265.8123029715146
 20
315.9436219968311
 30
0.0
 11
535.8123029715145
 21
315.9436219968311
 31
0.0
  0
LINE
  5
2BF3
330
1101
100
AcDbEntity
  8
TEXT
 62
     2
100
AcDbLine
 10
242.6220149856234
 20
342.1527492804866
 30
0.0
 11
272.4954282297292
 21
322.9604036763185
 31
0.0
  0
LINE
  5
2BF4
102
{ACAD_REACTORS
330
2C36
102
}
330
1101
100
AcDbEntity
  8
STEMPEL
100
AcDbLine
 10
274.8123029715146
 20
339.9436219968331
 30
0.0
 11
274.8123029715147
 21
338.9436219968338
 31
0.0
  0
LINE
  5
2BF5
102
{ACAD_REACTORS
330
2C36
102
}
330
1101
100
AcDbEntity
  8
STEMPEL
100
AcDbLine
 10
282.8123029715145
 20
339.9436219968333
 30
0.0
 11
282.8123029715145
 21
338.9436219968336
 31
0.0
  0
LINE
  5
2BF6
102
{ACAD_REACTORS
330
2C36
102
}
330
1101
100
AcDbEntity
  8
STEMPEL
100
AcDbLine
 10
275.8123029715146
 20
338.9436219968337
 30
0.0
 11
270.8123029715145
 21
338.9436219968338
 31
0.0
  0
HATCH
  5
2C36
330
1101
100
AcDbEntity
  8
SCHRAFF
100
AcDbHatch
 10
0.0
 20
0.0
 30
0.0
210
0.0
220
0.0
230
1.0
  2
_USER
 70
     0
 71
     1
 91
        5
 92
        7
 72
     1
 73
     1
 93
        8
 10
515.8123029715141
 20
339.9436219968334
 42
-0.4142135623730667
 10
510.8123029715145
 20
344.9436219968334
 42
0.0
 10
510.8123029715145
 20
363.943621996832
 42
0.0
 10
509.8123029715146
 20
363.943621996832
 42
0.0
 10
509.8123029715146
 20
344.9436219968334
 42
0.4142135623733447
 10
515.8123029715144
 20
338.9436219968282
 42
0.0
 10
530.8123029715142
 20
338.9436219968279
 42
0.0
 10
530.812302971514
 20
339.9436219968329
 42
0.0
 97
        8
330
2154
330
2157
330
214D
330
215A
330
214E
330
206F
330
2081
330
215B
 92
        7
 72
     1
 73
     1
 93
       18
 10
480.8123029715146
 20
427.9436219968322
 42
-0.1340385084113051
 10
483.3528026466904
 20
427.2501126098991
 42
0.0
 10
507.3316565396415
 20
413.2624594437136
 42
-0.2667503951501012
 10
509.8123029715146
 20
408.9435640295173
 42
0.0
 10
509.8123029715146
 20
403.9436219968321
 42
0.0
 10
510.8123029715145
 20
403.943621996832
 42
0.0
 10
510.8123029715145
 20
408.9435640295173
 42
0.2662608607096123
 10
507.8449975932369
 20
414.1207025568678
 42
0.0
 10
483.8586947177552
 20
428.1127125675648
 42
0.1339297957670008
 10
480.8123029715142
 20
428.9436219968322
 42
0.0
 10
409.4785004895141
 20
428.9436219968327
 42
-0.3419987131196467
 10
408.9943775712381
 20
429.3186219968326
 42
0.3419987131195727
 10
407.5420088164107
 20
430.4436219968327
 42
0.0
 10
400.8123029715145
 20
430.4436219968326
 42
0.0
 10
400.8123029715145
 20
429.4436219968327
 42
0.0
 10
407.5420088164107
 20
429.4436219968327
 42
-0.3419987131196467
 10
408.0261317346867
 20
429.0686219968327
 42
0.3419987131196713
 10
409.4785004895144
 20
427.9436219968324
 42
0.0
 97
       18
330
2138
330
2141
330
2142
330
213A
330
353
330
2139
330
2144
330
2143
330
212B
330
2148
330
2146
330
206A
330
214E
330
215C
330
214D
330
2069
330
2145
330
2147
 92
        7
 72
     1
 73
     1
 93
       19
 10
392.1461054535146
 20
427.9436219968327
 42
0.3419987131196196
 10
393.5984742083423
 20
429.0686219968326
 42
-0.3419987131196712
 10
394.0825971266182
 20
429.4436219968327
 42
0.0
 10
400.8123029715146
 20
429.4436219968327
 42
0.0
 10
400.8123029715147
 20
430.4436219968327
 42
0.0
 10
394.0825971266179
 20
430.4436219968327
 42
0.3419987131196173
 10
392.6302283717902
 20
429.3186219968327
 42
-0.3419987131196712
 10
392.1461054535143
 20
428.9436219968327
 42
0.0
 10
391.9573562609155
 20
428.9436219968327
 42
0.0
 10
320.8123029715141
 20
428.9436219968329
 42
0.1339297957669967
 10
317.7659112252734
 20
428.1127125675648
 42
0.0
 10
293.7796083498922
 20
414.1207025569263
 42
0.2662608607147952
 10
290.8123029715141
 20
408.9435640295173
 42
0.0
 10
290.8123029715142
 20
403.943621996832
 42
0.0
 10
291.8123029715146
 20
403.9436219968321
 42
0.0
 10
291.8123029715145
 20
408.9435640295173
 42
-0.2667503951500908
 10
294.2929494033873
 20
413.2624594437136
 42
0.0
 10
318.2718032963383
 20
427.2501126098991
 42
-0.1340385084113146
 10
320.8123029715141
 20
427.9436219968329
 42
0.0
 97
       19
330
213C
330
2139
330
353
330
213A
330
213F
330
213D
330
213E
330
212C
330
2137
330
212E
330
2133
330
207E
330
212F
330
207F
330
2132
330
212D
330
2136
330
212B
330
213B
 92
        7
 72
     1
 73
     1
 93
        8
 10
291.8123029715145
 20
363.943621996832
 42
0.0
 10
290.8123029715141
 20
363.9436219968321
 42
0.0
 10
290.8123029715141
 20
344.9436219968334
 42
-0.4142135623730667
 10
285.8123029715145
 20
339.9436219968334
 42
0.0
 10
282.8123029715144
 20
339.9436219968332
 42
0.0
 10
282.8123029715145
 20
338.9436219968335
 42
0.0
 10
285.8123029715144
 20
338.9436219968334
 42
0.4142135623730977
 10
291.8123029715145
 20
344.9436219968334
 42
0.0
 97
        8
330
20CF
330
207E
330
2085
330
208D
330
2BF5
330
2081
330
2084
330
207F
 92
        7
 72
     0
 73
     1
 93
        5
 10
272.2623029715145
 20
339.9436219968332
 10
270.8123029715145
 20
339.9436219968329
 10
270.8123029715145
 20
338.9436219968339
 10
274.8123029715147
 20
338.9436219968338
 10
274.8123029715145
 20
339.9436219968331
 97
        5
330
2B03
330
208D
330
2097
330
2BF6
330
2BF4
 75
     0
 76
     0
 52
135.0
 41
2.0
 77
     0
 78
     1
 53
135.0
 43
0.0
 44
0.0
 45
-1.414213562373095
 46
-1.414213562373094
 79
     0
 47
0.2793141299771194
 98
        5
 10
520.8246564384755
 20
339.5675861807449
 10
419.9580427030935
 20
428.3894801584229
 10
388.664244942376
 20
428.3894801584229
 10
291.4299474372494
 20
359.6782031370963
 10
272.9889589686197
 20
339.5675861807449
  0
HATCH
  5
2C4A
330
1101
100
AcDbEntity
  8
SCHRAFF
100
AcDbHatch
 10
0.0
 20
0.0
 30
0.0
210
0.0
220
0.0
230
1.0
  2
NET
 70
     0
 71
     1
 91
        4
 92
        7
 72
     0
 73
     1
 93
        4
 10
535.8123029715145
 20
312.9436219968312
 10
535.8123029715145
 20
315.9436219968311
 10
483.0847163310362
 20
315.9436219968311
 10
483.0847163310362
 20
312.9436219968311
 97
        4
330
2BE6
330
20F5
330
2BDF
330
2BE0
 92
        7
 72
     0
 73
     1
 93
        4
 10
465.8123029715145
 20
315.9436219968311
 10
465.8123029715146
 20
312.943621996831
 10
483.0847163310362
 20
312.9436219968311
 10
483.0847163310362
 20
315.9436219968311
 97
        4
330
2BE6
330
2BE2
330
2BDF
330
20F5
 92
        7
 72
     0
 73
     1
 93
        4
 10
335.8123029715145
 20
312.943621996831
 10
335.8123029715145
 20
315.9436219968311
 10
318.539889611993
 20
315.9436219968311
 10
318.5398896119929
 20
312.9436219968311
 97
        4
330
2BE6
330
20B1
330
2BDF
330
2BE3
 92
        7
 72
     0
 73
     1
 93
        4
 10
265.8123029715146
 20
315.9436219968311
 10
265.8123029715146
 20
312.9436219968311
 10
318.539889611993
 20
312.9436219968311
 10
318.539889611993
 20
315.9436219968311
 97
        4
330
2BE6
330
2BE5
330
2BDF
330
20B1
 75
     0
 76
     1
 52
45.0
 41
15.0
 77
     0
 78
     2
 53
45.0
 43
0.0
 44
0.0
 45
-1.325825214724776
 46
1.325825214724776
 79
     0
 53
135.0
 43
0.0
 44
0.0
 45
-1.325825214724776
 46
-1.325825214724776
 79
     0
 47
0.4422310307501775
 98
        4
 10
491.9979686356062
 20
314.2875213780812
 10
474.3027260635123
 20
314.7297517072434
 10
326.989823502078
 20
314.2875213780812
 10
306.1979134212436
 20
314.7297517072434
  0
HATCH
  5
2CBE
330
1101
100
AcDbEntity
  8
SCHRAFF
100
AcDbHatch
 10
0.0
 20
0.0
 30
0.0
210
0.0
220
0.0
230
1.0
  2
_USER
 70
     0
 71
     0
 91
        2
 92
        7
 72
     0
 73
     1
 93
        6
 10
537.8123029715145
 20
274.6363485630427
 10
537.8123029715145
 20
273.034152809446
 10
658.7751782687371
 20
266.6947571394271
 10
663.7495819544572
 20
265.9956502932895
 10
663.8338294411494
 20
267.599534197218
 10
658.9286775700934
 20
268.2889083355183
 97
        0
 92
        7
 72
     0
 73
     1
 93
        6
 10
448.3234752127672
 20
238.4702675798061
 10
448.2397376827784
 20
236.8724603241988
 10
656.7046942272165
 20
225.9472748933689
 10
661.655034382388
 20
226.1201445808335
 10
661.7392836242918
 20
227.7240619000679
 10
656.7186699858403
 20
227.5487382084924
 97
        0
 75
     0
 76
     0
 52
135.0
 41
2.0
 77
     0
 78
     1
 53
135.0
 43
166.4446130569717
 44
-156.3344029003764
 45
-1.414213562373095
 46
-1.414213562373094
 79
     0
 47
0.282861381299933
 98
        2
 10
563.0768593170587
 20
272.5513004198743
 10
552.3247717916679
 20
232.1021225338676
  0
HATCH
  5
2CBF
330
1101
100
AcDbEntity
  8
SCHRAFF
100
AcDbHatch
 10
0.0
 20
0.0
 30
0.0
210
0.0
220
0.0
230
1.0
  2
_USER
 70
     0
 71
     1
 91
        2
 92
        7
 72
     0
 73
     1
 93
        4
 10
537.8123029715145
 20
309.9436219968313
 10
536.3123029715145
 20
309.9436219968313
 10
536.3123029715145
 20
273.0341528094462
 10
537.8123029715145
 20
273.0341528094461
 97
        4
330
2CE5
330
2CFC
330
2CFE
330
2D04
 92
        7
 72
     1
 73
     1
 93
       11
 10
437.8123029715146
 20
256.4436219968314
 42
0.0
 10
346.8123029715146
 20
256.4436219968312
 42
-0.4142135623730956
 10
339.3123029715146
 20
263.9436219968311
 42
0.0
 10
339.3123029715146
 20
309.9436219968311
 42
0.0
 10
337.8123029715145
 20
309.9436219968311
 42
0.0
 10
337.8123029715145
 20
263.9436219968311
 42
0.4142135623730949
 10
346.8123029715146
 20
254.9436219968312
 42
0.0
 10
436.3689272985405
 20
254.9436219968314
 42
-0.2679491924311236
 10
437.2349527023249
 20
254.4436219968314
 42
0.0
 10
447.0132648658378
 20
237.5070885173583
 42
0.0
 10
448.3123029715145
 20
238.2570885173582
 42
0.0
 97
       11
330
2CFA
330
2CF9
330
2CF8
330
2CE5
330
2D06
330
2D05
330
2CF6
330
2CF5
330
2CF7
330
2CC1
330
2CFD
 75
     0
 76
     0
 52
45.0
 41
2.0
 77
     0
 78
     1
 53
45.0
 43
166.4446130569717
 44
-156.3344029003764
 45
-1.414213562373094
 46
1.414213562373095
 79
     0
 47
0.3641730972859762
 98
        2
 10
537.3558410128566
 20
289.5861897723895
 10
406.5768821130403
 20
256.0822636979093
  0
HATCH
  5
2CC0
330
1101
100
AcDbEntity
  8
SCHRAFF
100
AcDbHatch
 10
0.0
 20
0.0
 30
0.0
210
0.0
220
0.0
230
1.0
  2
_USER
 70
     0
 71
     1
 91
        1
 92
        7
 72
     1
 73
     1
 93
        5
 10
450.6445737498821
 20
236.7464282063821
 42
0.0
 10
448.2397376827785
 20
236.8724603241988
 42
0.0
 10
448.3123029715147
 20
238.2570885173582
 42
0.0
 10
447.0132648658378
 20
237.5070885173583
 42
0.0
 10
445.6115759379762
 20
239.9348849568213
 42
1.126055474046494
 97
        5
330
2CC7
330
2CC2
330
2CC1
330
2CF7
330
2CF2
 75
     0
 76
     0
 52
0.0
 41
0.1
 77
     0
 78
     1
 53
0.0
 43
166.4446130569717
 44
-156.3344029003764
 45
0.0
 46
0.1
 79
     0
 47
0.0822489946878523
 98
        1
 10
446.1217081184044
 20
236.595487989152
  0
LINE
  5
2CC1
102
{ACAD_REACTORS
330
2CC0
330
2CBF
102
}
330
1101
100
AcDbEntity
  8
STEMPEL
100
AcDbLine
 10
448.3123029715146
 20
238.2570885173582
 30
0.0
 11
447.0132648658379
 21
237.5070885173583
 31
0.0
  0
LINE
  5
2CC2
102
{ACAD_REACTORS
330
2CC0
102
}
330
1101
100
AcDbEntity
  8
STEMPEL
100
AcDbLine
 10
448.2397376827784
 20
236.8724603241988
 30
0.0
 11
448.3234752127672
 21
238.4702675798061
 31
0.0
  0
LINE
  5
2CC3
330
1101
100
AcDbEntity
  8
STEMPEL
100
AcDbLine
 10
656.7186699858402
 20
227.5487382084924
 30
0.0
 11
661.5991951876639
 21
227.719169904064
 31
0.0
  0
LINE
  5
2CC4
330
1101
100
AcDbEntity
  8
STEMPEL
100
AcDbLine
 10
658.7751782687373
 20
266.694757139427
 30
0.0
 11
663.7495819544572
 21
265.9956502932895
 31
0.0
  0
LINE
  5
2CC5
330
1101
100
AcDbEntity
  8
STEMPEL
100
AcDbLine
 10
537.8123029715145
 20
273.0341528094461
 30
0.0
 11
658.7751782687373
 21
266.694757139427
 31
0.0
  0
LINE
  5
2CC6
330
1101
100
AcDbEntity
  8
STEMPEL
100
AcDbLine
 10
448.3234752127672
 20
238.4702675798061
 30
0.0
 11
656.7186699858402
 21
227.5487382084924
 31
0.0
  0
LINE
  5
2CC7
102
{ACAD_REACTORS
330
2CC0
102
}
330
1101
100
AcDbEntity
  8
STEMPEL
100
AcDbLine
 10
448.2397376827784
 20
236.8724603241988
 30
0.0
 11
656.7046942272164
 21
225.9472748933689
 31
0.0
  0
LINE
  5
2CC8
330
1101
100
AcDbEntity
  8
STEMPEL
100
AcDbLine
 10
537.8123029715145
 20
274.6363485630427
 30
0.0
 11
658.9286775700929
 21
268.2889083355182
 31
0.0
  0
HATCH
  5
2CC9
330
1101
100
AcDbEntity
  8
SCHRAFF
100
AcDbHatch
 10
0.0
 20
0.0
 30
0.0
210
0.0
220
0.0
230
1.0
  2
_USER
 70
     0
 71
     1
 91
        4
 92
        7
 72
     0
 73
     1
 93
        4
 10
545.8123029715145
 20
309.9436219968313
 10
545.8123029715145
 20
312.943621996831
 10
483.0847163310361
 20
312.9436219968309
 10
483.0847163310361
 20
309.9436219968313
 97
        4
330
2CF0
330
2CD2
330
2CE5
330
2CCF
 92
        7
 72
     0
 73
     1
 93
        4
 10
483.0847163310361
 20
309.9436219968313
 10
483.0847163310361
 20
312.9436219968311
 10
461.8123029715146
 20
312.9436219968311
 10
461.8123029715146
 20
309.9436219968313
 97
        4
330
2CF0
330
2CD1
330
2CE5
330
2CD2
 92
        7
 72
     0
 73
     1
 93
        4
 10
318.539889611993
 20
312.9436219968312
 10
318.539889611993
 20
309.9436219968311
 10
339.8123029715145
 20
309.9436219968313
 10
339.8123029715145
 20
312.943621996831
 97
        4
330
2CF0
330
2CE6
330
2CE5
330
2CD0
 92
        7
 72
     0
 73
     1
 93
        4
 10
265.8123029715146
 20
312.9436219968312
 10
265.8123029715146
 20
309.9436219968311
 10
318.539889611993
 20
309.9436219968311
 10
318.539889611993
 20
312.9436219968311
 97
        4
330
2CF0
330
2CF1
330
2CE5
330
2CE6
 75
     0
 76
     0
 52
135.0
 41
2.0
 77
     0
 78
     1
 53
135.0
 43
166.4446130569717
 44
-156.3344029003764
 45
-1.414213562373095
 46
-1.414213562373094
 79
     0
 47
0.4799055138873383
 98
        4
 10
513.2038786368171
 20
311.1228645523332
 10
480.0800593239531
 20
311.1228645523332
 10
331.2629054495378
 20
311.602769843806
 10
312.5407473877753
 20
311.602769843806
  0
LINE
  5
2CCA
330
1101
100
AcDbEntity
  8
HILF
100
AcDbLine
 10
658.6953065347979
 20
265.0902582635543
 30
0.0
 11
656.8072633676505
 21
229.1528072284352
 31
0.0
  0
LINE
  5
2CCB
330
1101
100
AcDbEntity
  8
STEMPEL
100
AcDbLine
 10
663.8338294411494
 20
267.599534197218
 30
0.0
 11
661.655034382388
 21
226.1201445808335
 31
0.0
  0
LINE
  5
2CCC
330
1101
100
AcDbEntity
  8
STEMPEL
100
AcDbLine
 10
656.7046942272164
 20
225.9472748933689
 30
0.0
 11
661.655034382388
 21
226.1201445808335
 31
0.0
  0
LINE
  5
2CCD
330
1101
100
AcDbEntity
  8
STEMPEL
100
AcDbLine
 10
658.9286775700929
 20
268.2889083355182
 30
0.0
 11
663.8338294411494
 21
267.599534197218
 31
0.0
  0
HATCH
  5
2CCE
330
1101
100
AcDbEntity
  8
SCHRAFF
100
AcDbHatch
 10
0.0
 20
0.0
 30
0.0
210
0.0
220
0.0
230
1.0
  2
_USER
 70
     0
 71
     1
 91
        1
 92
        7
 72
     1
 73
     1
 93
        3
 10
537.8123029715145
 20
306.9436219968312
 42
0.4142135623731005
 10
540.8123029715145
 20
309.9436219968312
 42
0.0
 10
537.8123029715145
 20
309.9436219968312
 42
0.0
 97
        3
330
2CE5
330
2D04
330
2D02
 75
     0
 76
     0
 52
0.0
 41
0.1
 77
     0
 78
     1
 53
0.0
 43
166.4446130569717
 44
-136.3554589396336
 45
0.0
 46
0.1
 79
     0
 47
0.0810155056182539
 98
        1
 10
538.6383029587273
 20
308.6337083560615
  0
LINE
  5
2CCF
102
{ACAD_REACTORS
330
2CC9
102
}
330
1101
100
AcDbEntity
  8
STEMPEL
100
AcDbLine
 10
545.8123029715145
 20
309.9436219968312
 30
0.0
 11
545.8123029715145
 21
312.943621996831
 31
0.0
  0
LINE
  5
2CD0
102
{ACAD_REACTORS
330
2CC9
102
}
330
1101
100
AcDbEntity
  8
STEMPEL
100
AcDbLine
 10
339.8123029715145
 20
309.9436219968311
 30
0.0
 11
339.8123029715145
 21
312.9436219968311
 31
0.0
  0
LINE
  5
2CD1
102
{ACAD_REACTORS
330
2CC9
102
}
330
1101
100
AcDbEntity
  8
STEMPEL
100
AcDbLine
 10
461.8123029715145
 20
309.9436219968311
 30
0.0
 11
461.8123029715145
 21
312.9436219968311
 31
0.0
  0
LINE
  5
2CD2
102
{ACAD_REACTORS
330
2CC9
102
}
330
1101
100
AcDbEntity
  8
MITTEL
100
AcDbLine
 10
483.0847163310361
 20
342.9436219968307
 30
0.0
 11
483.0847163310361
 21
309.9436219968311
 31
0.0
  0
LINE
  5
2CD3
330
1101
100
AcDbEntity
  8
STEMPEL
100
AcDbLine
 10
478.0847163310361
 20
336.9436219968307
 30
0.0
 11
488.0847163310361
 21
336.9436219968307
 31
0.0
  0
LINE
  5
2CD4
330
1101
100
AcDbEntity
  8
STEMPEL
100
AcDbLine
 10
479.0847163310361
 20
337.9436219968308
 30
0.0
 11
487.0847163310361
 21
337.9436219968308
 31
0.0
  0
LINE
  5
2CD5
330
1101
100
AcDbEntity
  8
STEMPEL
100
AcDbLine
 10
479.0847163310361
 20
337.9436219968308
 30
0.0
 11
487.0847163310361
 21
337.9436219968308
 31
0.0
  0
LINE
  5
2CD6
330
1101
100
AcDbEntity
  8
STEMPEL
100
AcDbLine
 10
478.0847163310361
 20
336.9436219968307
 30
0.0
 11
478.0847163310361
 21
333.9436219968313
 31
0.0
  0
LINE
  5
2CD7
330
1101
100
AcDbEntity
  8
HILF
100
AcDbLine
 10
479.0847163310361
 20
337.9436219968308
 30
0.0
 11
479.0847163310361
 21
333.9436219968313
 31
0.0
  0
LINE
  5
2CD8
330
1101
100
AcDbEntity
  8
STEMPEL
100
AcDbLine
 10
478.0847163310361
 20
336.9436219968307
 30
0.0
 11
479.0847163310361
 21
337.9436219968308
 31
0.0
  0
LINE
  5
2CD9
330
1101
100
AcDbEntity
  8
STEMPEL
100
AcDbLine
 10
488.0847163310361
 20
336.9436219968307
 30
0.0
 11
488.0847163310361
 21
333.9436219968313
 31
0.0
  0
LINE
  5
2CDA
330
1101
100
AcDbEntity
  8
HILF
100
AcDbLine
 10
487.0847163310361
 20
337.9436219968308
 30
0.0
 11
487.0847163310361
 21
333.9436219968313
 31
0.0
  0
LINE
  5
2CDB
330
1101
100
AcDbEntity
  8
STEMPEL
100
AcDbLine
 10
487.0847163310361
 20
337.9436219968308
 30
0.0
 11
488.0847163310361
 21
336.9436219968307
 31
0.0
  0
LINE
  5
2CDC
330
1101
100
AcDbEntity
  8
STEMPEL
100
AcDbLine
 10
395.8123029715146
 20
336.9436219968307
 30
0.0
 11
405.8123029715146
 21
336.9436219968307
 31
0.0
  0
LINE
  5
2CDD
330
1101
100
AcDbEntity
  8
STEMPEL
100
AcDbLine
 10
396.8123029715146
 20
337.9436219968308
 30
0.0
 11
404.8123029715145
 21
337.9436219968308
 31
0.0
  0
LINE
  5
2CDE
330
1101
100
AcDbEntity
  8
STEMPEL
100
AcDbLine
 10
396.8123029715146
 20
337.9436219968308
 30
0.0
 11
404.8123029715145
 21
337.9436219968308
 31
0.0
  0
LINE
  5
2CDF
330
1101
100
AcDbEntity
  8
STEMPEL
100
AcDbLine
 10
395.8123029715146
 20
336.9436219968307
 30
0.0
 11
395.8123029715145
 21
333.9436219968314
 31
0.0
  0
LINE
  5
2CE0
330
1101
100
AcDbEntity
  8
HILF
100
AcDbLine
 10
396.8123029715146
 20
337.9436219968308
 30
0.0
 11
396.8123029715146
 21
333.9436219968314
 31
0.0
  0
LINE
  5
2CE1
330
1101
100
AcDbEntity
  8
STEMPEL
100
AcDbLine
 10
395.8123029715146
 20
336.9436219968307
 30
0.0
 11
396.8123029715146
 21
337.9436219968308
 31
0.0
  0
LINE
  5
2CE2
330
1101
100
AcDbEntity
  8
STEMPEL
100
AcDbLine
 10
405.8123029715146
 20
336.9436219968307
 30
0.0
 11
405.8123029715146
 21
333.9436219968314
 31
0.0
  0
LINE
  5
2CE3
330
1101
100
AcDbEntity
  8
HILF
100
AcDbLine
 10
404.8123029715145
 20
337.9436219968308
 30
0.0
 11
404.8123029715144
 21
333.9436219968314
 31
0.0
  0
LINE
  5
2CE4
330
1101
100
AcDbEntity
  8
STEMPEL
100
AcDbLine
 10
404.8123029715145
 20
337.9436219968308
 30
0.0
 11
405.8123029715146
 21
336.9436219968307
 31
0.0
  0
LINE
  5
2CE5
102
{ACAD_REACTORS
330
2CCE
330
2CC9
330
2CBF
102
}
330
1101
100
AcDbEntity
  8
STEMPEL
100
AcDbLine
 10
265.8123029715146
 20
309.9436219968311
 30
0.0
 11
545.8123029715145
 21
309.9436219968312
 31
0.0
  0
LINE
  5
2CE6
102
{ACAD_REACTORS
330
2CC9
102
}
330
1101
100
AcDbEntity
  8
MITTEL
100
AcDbLine
 10
318.539889611993
 20
342.943621996831
 30
0.0
 11
318.539889611993
 21
309.9436219968311
 31
0.0
  0
LINE
  5
2CE7
330
1101
100
AcDbEntity
  8
STEMPEL
100
AcDbLine
 10
323.539889611993
 20
336.9436219968307
 30
0.0
 11
323.539889611993
 21
333.9436219968314
 31
0.0
  0
LINE
  5
2CE8
330
1101
100
AcDbEntity
  8
HILF
100
AcDbLine
 10
322.539889611993
 20
337.9436219968308
 30
0.0
 11
322.539889611993
 21
333.9436219968315
 31
0.0
  0
LINE
  5
2CE9
330
1101
100
AcDbEntity
  8
STEMPEL
100
AcDbLine
 10
313.539889611993
 20
336.9436219968307
 30
0.0
 11
313.539889611993
 21
333.9436219968314
 31
0.0
  0
LINE
  5
2CEA
330
1101
100
AcDbEntity
  8
HILF
100
AcDbLine
 10
314.539889611993
 20
337.9436219968308
 30
0.0
 11
314.5398896119929
 21
333.9436219968315
 31
0.0
  0
LINE
  5
2CEB
330
1101
100
AcDbEntity
  8
STEMPEL
100
AcDbLine
 10
313.539889611993
 20
336.9436219968307
 30
0.0
 11
323.539889611993
 21
336.9436219968307
 31
0.0
  0
LINE
  5
2CEC
330
1101
100
AcDbEntity
  8
STEMPEL
100
AcDbLine
 10
314.539889611993
 20
337.9436219968308
 30
0.0
 11
322.539889611993
 21
337.9436219968308
 31
0.0
  0
LINE
  5
2CED
330
1101
100
AcDbEntity
  8
STEMPEL
100
AcDbLine
 10
314.539889611993
 20
337.9436219968308
 30
0.0
 11
322.539889611993
 21
337.9436219968308
 31
0.0
  0
LINE
  5
2CEE
330
1101
100
AcDbEntity
  8
STEMPEL
100
AcDbLine
 10
313.539889611993
 20
336.9436219968307
 30
0.0
 11
314.539889611993
 21
337.9436219968308
 31
0.0
  0
LINE
  5
2CEF
330
1101
100
AcDbEntity
  8
STEMPEL
100
AcDbLine
 10
322.539889611993
 20
337.9436219968308
 30
0.0
 11
323.539889611993
 21
336.9436219968307
 31
0.0
  0
LINE
  5
2CF0
102
{ACAD_REACTORS
330
2CC9
102
}
330
1101
100
AcDbEntity
  8
STEMPEL
100
AcDbLine
 10
265.8123029715146
 20
312.9436219968312
 30
0.0
 11
545.8123029715145
 21
312.943621996831
 31
0.0
  0
LINE
  5
2CF1
102
{ACAD_REACTORS
330
2CC9
102
}
330
1101
100
AcDbEntity
  8
STEMPEL
100
AcDbLine
 10
265.8123029715146
 20
309.9436219968311
 30
0.0
 11
265.8123029715146
 21
312.9436219968312
 31
0.0
  0
ARC
  5
2CF2
102
{ACAD_REACTORS
330
2CC0
102
}
330
1101
100
AcDbEntity
  8
SCHRAFF
100
AcDbCircle
 10
447.9383618599583
 20
238.0411935159403
 30
0.0
 40
3.0
100
AcDbArc
 50
140.8590364033335
 51
334.4315913790256
  0
HATCH
  5
2CF3
330
1101
100
AcDbEntity
  8
SCHRAFF
100
AcDbHatch
 10
0.0
 20
0.0
 30
0.0
210
0.0
220
0.0
230
1.0
  2
_USER
 70
     0
 71
     0
 91
        1
 92
        7
 72
     1
 73
     1
 93
        3
 10
540.8081915757782
 20
274.4793406943139
 42
0.429633905966831
 10
537.8123029715145
 20
277.6363485630427
 42
0.0
 10
537.8123029715145
 20
274.6363485630427
 42
0.0
 97
        0
 75
     0
 76
     0
 52
0.0
 41
0.1
 77
     0
 78
     1
 53
0.0
 43
166.4446130569717
 44
-141.6627323734224
 45
0.0
 46
0.1
 79
     0
 47
0.0152637475306799
 98
        1
 10
539.053258367282
 20
275.3710165057154
  0
ARC
  5
2CF4
330
1101
100
AcDbEntity
  8
SCHRAFF
100
AcDbCircle
 10
537.8123029715145
 20
274.6363485630427
 30
0.0
 40
3.0
100
AcDbArc
 50
357.0000000000009
 51
90.0
  0
ARC
  5
2CF5
102
{ACAD_REACTORS
330
2CBF
102
}
330
1101
100
AcDbEntity
  8
STEMPEL
100
AcDbCircle
 10
436.3689272985405
 20
253.9436219968314
 30
0.0
 40
1.0
100
AcDbArc
 50
30.00000000000055
 51
90.0
  0
LINE
  5
2CF6
102
{ACAD_REACTORS
330
2CBF
102
}
330
1101
100
AcDbEntity
  8
STEMPEL
100
AcDbLine
 10
436.3689272985405
 20
254.9436219968314
 30
0.0
 11
346.8123029715146
 21
254.9436219968312
 31
0.0
  0
LINE
  5
2CF7
102
{ACAD_REACTORS
330
2CC0
330
2CBF
102
}
330
1101
100
AcDbEntity
  8
STEMPEL
100
AcDbLine
 10
437.2349527023249
 20
254.4436219968314
 30
0.0
 11
447.0132648658379
 21
237.5070885173583
 31
0.0
  0
LINE
  5
2CF8
102
{ACAD_REACTORS
330
2CBF
102
}
330
1101
100
AcDbEntity
  8
STEMPEL
100
AcDbLine
 10
339.3123029715146
 20
309.9436219968311
 30
0.0
 11
339.3123029715146
 21
263.9436219968311
 31
0.0
  0
ARC
  5
2CF9
102
{ACAD_REACTORS
330
2CBF
102
}
330
1101
100
AcDbEntity
  8
STEMPEL
100
AcDbCircle
 10
346.8123029715146
 20
263.9436219968311
 30
0.0
 40
7.5
100
AcDbArc
 50
180.0
 51
270.0
  0
LINE
  5
2CFA
102
{ACAD_REACTORS
330
2CBF
102
}
330
1101
100
AcDbEntity
  8
STEMPEL
100
AcDbLine
 10
528.8123029715145
 20
256.4436219968316
 30
0.0
 11
346.8123029715146
 21
256.4436219968312
 31
0.0
  0
ARC
  5
2CFB
330
1101
100
AcDbEntity
  8
STEMPEL
100
AcDbCircle
 10
528.8123029715145
 20
263.9436219968316
 30
0.0
 40
7.5
100
AcDbArc
 50
270.0
 51
0.0
  0
LINE
  5
2CFC
102
{ACAD_REACTORS
330
2CBF
102
}
330
1101
100
AcDbEntity
  8
STEMPEL
100
AcDbLine
 10
536.3123029715145
 20
309.9436219968311
 30
0.0
 11
536.3123029715145
 21
263.9436219968316
 31
0.0
  0
LINE
  5
2CFD
102
{ACAD_REACTORS
330
2CBF
102
}
330
1101
100
AcDbEntity
  8
STEMPEL
100
AcDbLine
 10
437.8123029715145
 20
256.4436219968314
 30
0.0
 11
448.3123029715146
 21
238.2570885173582
 31
0.0
  0
LINE
  5
2CFE
102
{ACAD_REACTORS
330
2CBF
102
}
330
1101
100
AcDbEntity
  8
STEMPEL
100
AcDbLine
 10
537.8123029715145
 20
273.0341528094461
 30
0.0
 11
536.3123029715145
 21
273.0341528094461
 31
0.0
  0
LINE
  5
2CFF
330
1101
100
AcDbEntity
  8
MITTEL
100
AcDbLine
 10
508.49667101834
 20
254.9436219968316
 30
0.0
 11
667.8054506452873
 21
246.5946026362918
 31
0.0
  0
INSERT
  5
2D00
330
1101
100
AcDbEntity
  8
SCHRAFF
100
AcDbBlockReference
  2
*X5
 10
128.7477463580177
 20
-133.0410302003544
 30
0.0
1001
ACAD
1000
HATCH
1002
{
1070
    16
1000
_U,I
1040
0.1
1040
0.0
1070
     0
1002
}
  0
ARC
  5
2D01
330
1101
100
AcDbEntity
  8
SCHRAFF
100
AcDbCircle
 10
337.8123029715145
 20
309.9436219968311
 30
0.0
 40
3.0
100
AcDbArc
 50
180.0
 51
270.0
  0
ARC
  5
2D02
102
{ACAD_REACTORS
330
2CCE
102
}
330
1101
100
AcDbEntity
  8
SCHRAFF
100
AcDbCircle
 10
537.8123029715145
 20
309.9436219968311
 30
0.0
 40
3.0
100
AcDbArc
 50
270.0
 51
0.0
  0
ARC
  5
2D03
330
1101
100
AcDbEntity
  8
STEMPEL
100
AcDbCircle
 10
528.8123029715145
 20
263.9436219968316
 30
0.0
 40
9.0
100
AcDbArc
 50
270.0
 51
0.0
  0
LINE
  5
2D04
102
{ACAD_REACTORS
330
2CCE
330
2CBF
102
}
330
1101
100
AcDbEntity
  8
STEMPEL
100
AcDbLine
 10
537.8123029715145
 20
309.9436219968311
 30
0.0
 11
537.8123029715145
 21
263.9436219968316
 31
0.0
  0
ARC
  5
2D05
102
{ACAD_REACTORS
330
2CBF
102
}
330
1101
100
AcDbEntity
  8
STEMPEL
100
AcDbCircle
 10
346.8123029715146
 20
263.9436219968311
 30
0.0
 40
9.0
100
AcDbArc
 50
180.0
 51
270.0
  0
LINE
  5
2D06
102
{ACAD_REACTORS
330
2CBF
102
}
330
1101
100
AcDbEntity
  8
STEMPEL
100
AcDbLine
 10
337.8123029715145
 20
309.9436219968311
 30
0.0
 11
337.8123029715145
 21
263.9436219968311
 31
0.0
  0
LINE
  5
2D07
330
1101
100
AcDbEntity
  8
STEMPEL
100
AcDbLine
 10
528.8123029715145
 20
254.9436219968316
 30
0.0
 11
438.6783283752989
 21
254.9436219968314
 31
0.0
  0
DIMENSION
  5
2D08
330
1101
100
AcDbEntity
  8
BEM
100
AcDbDimension
  2
*D6
 10
240.9393508638568
 20
309.9436219968311
 30
0.0
 11
234.4393508638567
 21
282.4436219968312
 31
0.0
 70
    32
 71
     5
 42
54.99999999999997
  3
STANDARD
100
AcDbAlignedDimension
 13
346.8123029715146
 23
254.9436219968312
 33
0.0
 14
265.8123029715146
 24
309.9436219968311
 34
0.0
 50
90.0
100
AcDbRotatedDimension
  0
DIMENSION
  5
2D27
330
1101
100
AcDbEntity
  8
BEM
100
AcDbDimension
  2
*D7
 10
679.450076276709
 20
224.7525795853915
 30
0.0
 11
674.0710156957472
 21
246.2643371468049
 31
0.0
 70
    33
  1
%%c42
 71
     5
 42
42.40000028842837
  3
STANDARD
100
AcDbAlignedDimension
 13
658.9286775700929
 23
268.2889083355182
 33
0.0
 14
656.7046942272164
 24
225.9472748933689
 34
0.0
  0
DIMENSION
  5
2D3D
330
1101
100
AcDbEntity
  8
BEM
100
AcDbDimension
  2
*D8
 10
545.8123029715145
 20
205.7894911546741
 30
0.0
 11
405.8123029715146
 21
212.2894911546741
 31
0.0
 70
    32
 71
     5
 42
280.0
  3
STANDARD
100
AcDbAlignedDimension
 13
265.8123029715146
 23
309.9436219968311
 33
0.0
 14
545.8123029715145
 24
309.9436219968312
 34
0.0
100
AcDbRotatedDimension
  0
TEXT
  5
2D4A
330
1101
100
AcDbEntity
  8
TEXT
 62
     1
100
AcDbText
 10
618.0103025325646
 20
254.1256062307484
 30
0.0
 40
7.0
  1
DN40
 50
357.0
 41
0.8
  7
GREEKS
100
AcDbText
  0
DIMENSION
  5
2D4B
330
1101
100
AcDbEntity
  8
BEM
100
AcDbDimension
  2
*D9
 10
438.6783283752989
 20
254.9436219968314
 30
0.0
 11
599.1158098942666
 21
240.2141915880472
 31
0.0
 70
   162
 71
     5
 42
0.0523598775598329
  3
STANDARD
100
AcDb2LineAngularDimension
 13
508.49667101834
 23
254.9436219968316
 33
0.0
 14
667.8054506452873
 24
246.5946026362918
 34
0.0
 15
528.8123029715145
 25
254.9436219968316
 35
0.0
 16
600.2910998084744
 26
253.3413442822513
 36
0.0
  0
DIMENSION
  5
2D77
330
1101
100
AcDbEntity
  8
BEM
100
AcDbDimension
  2
*D10
 10
698.7438785643533
 20
246.8598393890254
 30
0.0
 11
692.2438785643532
 21
278.4017306929284
 31
0.0
 70
    32
  1
63
 71
     5
 42
63.08378260780577
  3
STANDARD
100
AcDbAlignedDimension
 13
545.8123029715145
 23
309.9436219968312
 33
0.0
 14
680.6112543788034
 24
246.8598393890254
 34
0.0
 50
90.0
100
AcDbRotatedDimension
  0
LINE
  5
2DB4
330
1101
100
AcDbEntity
  8
HILF
100
AcDbLine
 10
314.539889611993
 20
317.9436219968311
 30
0.0
 11
314.539889611993
 21
315.9436219968311
 31
0.0
  0
LINE
  5
2DB5
330
1101
100
AcDbEntity
  8
STEMPEL
100
AcDbLine
 10
313.539889611993
 20
317.9436219968311
 30
0.0
 11
313.539889611993
 21
315.9436219968311
 31
0.0
  0
LINE
  5
2DB6
330
1101
100
AcDbEntity
  8
HILF
100
AcDbLine
 10
322.539889611993
 20
317.9436219968311
 30
0.0
 11
322.539889611993
 21
315.9436219968311
 31
0.0
  0
LINE
  5
2DB7
330
1101
100
AcDbEntity
  8
STEMPEL
100
AcDbLine
 10
323.539889611993
 20
317.9436219968311
 30
0.0
 11
323.5398896119929
 21
315.9436219968311
 31
0.0
  0
LINE
  5
2DB8
330
1101
100
AcDbEntity
  8
STEMPEL
100
AcDbLine
 10
405.8123029715145
 20
317.9436219968311
 30
0.0
 11
405.8123029715145
 21
315.9436219968311
 31
0.0
  0
LINE
  5
2DB9
330
1101
100
AcDbEntity
  8
HILF
100
AcDbLine
 10
404.8123029715143
 20
317.9436219968311
 30
0.0
 11
404.8123029715145
 21
315.9436219968311
 31
0.0
  0
LINE
  5
2DBA
330
1101
100
AcDbEntity
  8
HILF
100
AcDbLine
 10
396.8123029715146
 20
317.9436219968311
 30
0.0
 11
396.8123029715146
 21
315.9436219968311
 31
0.0
  0
LINE
  5
2DBB
330
1101
100
AcDbEntity
  8
STEMPEL
100
AcDbLine
 10
395.8123029715145
 20
317.9436219968311
 30
0.0
 11
395.8123029715145
 21
315.9436219968311
 31
0.0
  0
LINE
  5
2DBC
330
1101
100
AcDbEntity
  8
HILF
100
AcDbLine
 10
479.0847163310361
 20
317.9436219968311
 30
0.0
 11
479.0847163310361
 21
315.9436219968311
 31
0.0
  0
LINE
  5
2DBD
330
1101
100
AcDbEntity
  8
STEMPEL
100
AcDbLine
 10
478.084716331036
 20
317.9436219968311
 30
0.0
 11
478.0847163310361
 21
315.9436219968311
 31
0.0
  0
LINE
  5
2DBE
330
1101
100
AcDbEntity
  8
HILF
100
AcDbLine
 10
487.0847163310361
 20
317.9436219968311
 30
0.0
 11
487.0847163310361
 21
315.9436219968311
 31
0.0
  0
LINE
  5
2DBF
330
1101
100
AcDbEntity
  8
STEMPEL
100
AcDbLine
 10
488.084716331036
 20
317.9436219968311
 30
0.0
 11
488.084716331036
 21
315.9436219968311
 31
0.0
  0
LWPOLYLINE
  5
2DCF
330
1101
100
AcDbEntity
  8
STEMPEL
100
AcDbPolyline
 90
        7
 70
   128
 43
0.0
 10
316.3606517482353
 20
339.9436219968329
 10
316.9225807214995
 20
340.5529598986738
 10
317.4045186610866
 20
341.2803901719631
 10
317.7935032408365
 20
342.1063476659067
 10
318.079072231943
 20
343.008617216369
 10
318.2535448977388
 20
343.9629311506122
 10
318.3122285767538
 20
344.9436219968334
  0
LINE
  5
2DD0
330
1101
100
AcDbEntity
  8
STEMPEL
100
AcDbLine
 10
319.1074494635744
 20
351.4436219968311
 30
0.0
 11
319.1074494635744
 21
344.9436219968345
 31
0.0
  0
LINE
  5
2DD1
330
1101
100
AcDbEntity
  8
STEMPEL
100
AcDbLine
 10
318.3122285767537
 20
351.4436219968311
 30
0.0
 11
318.3122285767537
 21
344.9436219968345
 31
0.0
  0
LINE
  5
2DD2
330
1101
100
AcDbEntity
  8
STEMPEL
100
AcDbLine
 10
309.9760280284426
 20
351.4436219968311
 30
0.0
 11
309.9760280284426
 21
344.9436219968345
 31
0.0
  0
LINE
  5
2DD3
330
1101
100
AcDbEntity
  8
STEMPEL
100
AcDbLine
 10
308.0244511999241
 20
339.9436219968329
 30
0.0
 11
316.360651748236
 21
339.9436219968329
 31
0.0
  0
LWPOLYLINE
  5
2DD4
330
1101
100
AcDbEntity
  8
STEMPEL
100
AcDbPolyline
 90
       10
 70
   128
 43
0.0
 10
314.7437432889685
 20
338.9436219968329
 10
315.5014929140627
 20
339.0347754787597
 10
316.2362187002383
 20
339.3054662721175
 10
316.9255963762714
 20
339.7474695741264
 10
317.5486795503177
 20
340.3473553381191
 10
318.0865361554293
 20
341.0868963387139
 10
318.5228236908282
 20
341.9436219968332
 10
318.8442857805235
 20
342.8915011368792
 10
319.0411549615875
 20
343.9017329308317
 10
319.1074494635743
 20
344.9436219968334
  0
LWPOLYLINE
  5
2DD5
330
1101
100
AcDbEntity
  8
STEMPEL
100
AcDbPolyline
 90
       10
 70
   128
 43
0.0
 10
-314.0722214814678
 20
358.8968132253501
 10
-314.5393452050473
 20
358.8296801444258
 10
-315.308082893193
 20
358.4913166527285
 10
-316.0293732179706
 20
357.9388125252174
 10
-316.6813001378521
 20
357.1889553202262
 10
-317.2440551832677
 20
356.2645290694828
 10
-317.7005393269307
 20
355.1936219968335
 10
-318.0368825291274
 20
354.0087730717758
 10
-318.2428651718575
 20
352.7459833293349
 10
-318.3122285767536
 20
351.4436219968327
210
0.0
220
0.0
230
-1.0
  0
LWPOLYLINE
  5
2DD6
330
1101
100
AcDbEntity
  8
STEMPEL
100
AcDbPolyline
 90
       18
 70
   128
 43
0.0
 10
-309.9760280284427
 20
351.4436219968311
 10
-310.0537679297028
 20
352.8217433804556
 10
-310.2843402943846
 20
354.1529344932353
 10
-310.6598932571497
 20
355.3918632184121
 10
-311.1676378122774
 20
356.4963393241813
 10
-311.7902833279154
 20
357.4287512014342
 10
-312.5066263578094
 20
358.1573466819955
 10
-313.2922726992354
 20
358.6573143206288
 10
-314.1204681083148
 20
358.9116283190455
 10
-314.9630093837024
 20
358.9116283190455
 10
-315.7912047927819
 20
358.6573143206288
 10
-316.5768511342078
 20
358.1573466819955
 10
-317.2931941641018
 20
357.4287512014342
 10
-317.9158396797398
 20
356.4963393241813
 10
-318.4235842348674
 20
355.3918632184121
 10
-318.7991371976326
 20
354.1529344932353
 10
-319.0297095623145
 20
352.8217433804556
 10
-319.1074494635746
 20
351.4436219968311
210
0.0
220
0.0
230
-1.0
  0
LWPOLYLINE
  5
2DD7
330
1101
100
AcDbEntity
  8
STEMPEL
100
AcDbPolyline
 90
       10
 70
   128
 43
0.0
 10
305.6123218538366
 20
338.9436219968329
 10
306.3700714789309
 20
339.0347754787597
 10
307.1047972651064
 20
339.3054662721175
 10
307.7941749411396
 20
339.7474695741264
 10
308.4172581151859
 20
340.3473553381191
 10
308.9551147202974
 20
341.0868963387139
 10
309.3914022556963
 20
341.9436219968332
 10
309.7128643453916
 20
342.8915011368792
 10
309.9097335264556
 20
343.9017329308317
 10
309.9760280284424
 20
344.9436219968334
  0
LINE
  5
2DE6
330
1101
100
AcDbEntity
  8
STEMPEL
100
AcDbLine
 10
491.6485779145858
 20
351.4436219968311
 30
0.0
 11
491.6485779145858
 21
344.9436219968345
 31
0.0
  0
LWPOLYLINE
  5
2DE7
330
1101
100
AcDbEntity
  8
STEMPEL
100
AcDbPolyline
 90
       10
 70
   128
 43
0.0
 10
-496.0122840891918
 20
338.9436219968329
 10
-495.2545344640975
 20
339.0347754787597
 10
-494.519808677922
 20
339.3054662721175
 10
-493.8304310018889
 20
339.7474695741264
 10
-493.2073478278424
 20
340.3473553381191
 10
-492.669491222731
 20
341.0868963387139
 10
-492.2332036873321
 20
341.9436219968332
 10
-491.9117415976367
 20
342.8915011368792
 10
-491.7148724165728
 20
343.9017329308317
 10
-491.6485779145859
 20
344.9436219968334
210
0.0
220
0.0
230
-1.0
  0
LWPOLYLINE
  5
2DE8
330
1101
100
AcDbEntity
  8
STEMPEL
100
AcDbPolyline
 90
        7
 70
   128
 43
0.0
 10
-485.263954194793
 20
339.9436219968329
 10
-484.702025221529
 20
340.5529598986738
 10
-484.2200872819417
 20
341.2803901719631
 10
-483.8311027021919
 20
342.1063476659067
 10
-483.5455337110856
 20
343.008617216369
 10
-483.3710610452896
 20
343.9629311506122
 10
-483.3123773662746
 20
344.9436219968334
210
0.0
220
0.0
230
-1.0
  0
LWPOLYLINE
  5
2DE9
330
1101
100
AcDbEntity
  8
STEMPEL
100
AcDbPolyline
 90
       10
 70
   128
 43
0.0
 10
-486.8808626540599
 20
338.9436219968329
 10
-486.1231130289657
 20
339.0347754787597
 10
-485.3883872427901
 20
339.3054662721175
 10
-484.699009566757
 20
339.7474695741264
 10
-484.0759263927106
 20
340.3473553381191
 10
-483.5380697875991
 20
341.0868963387139
 10
-483.1017822522002
 20
341.9436219968332
 10
-482.7803201625049
 20
342.8915011368792
 10
-482.5834509814409
 20
343.9017329308317
 10
-482.5171564794541
 20
344.9436219968334
210
0.0
220
0.0
230
-1.0
  0
LINE
  5
2DEA
330
1101
100
AcDbEntity
  8
STEMPEL
100
AcDbLine
 10
483.3123773662747
 20
351.4436219968311
 30
0.0
 11
483.3123773662747
 21
344.9436219968345
 31
0.0
  0
LINE
  5
2DEB
330
1101
100
AcDbEntity
  8
STEMPEL
100
AcDbLine
 10
482.517156479454
 20
351.4436219968311
 30
0.0
 11
482.517156479454
 21
344.9436219968345
 31
0.0
  0
LINE
  5
2DEC
330
1101
100
AcDbEntity
  8
STEMPEL
100
AcDbLine
 10
493.6001547431043
 20
339.9436219968329
 30
0.0
 11
485.2639541947923
 21
339.9436219968329
 31
0.0
  0
LWPOLYLINE
  5
2DED
330
1101
100
AcDbEntity
  8
STEMPEL
100
AcDbPolyline
 90
       18
 70
   128
 43
0.0
 10
491.6485779145857
 20
351.4436219968311
 10
491.5708380133256
 20
352.8217433804556
 10
491.3402656486438
 20
354.1529344932353
 10
490.9647126858787
 20
355.3918632184121
 10
490.4569681307509
 20
356.4963393241813
 10
489.834322615113
 20
357.4287512014342
 10
489.1179795852188
 20
358.1573466819955
 10
488.3323332437931
 20
358.6573143206288
 10
487.5041378347137
 20
358.9116283190455
 10
486.6615965593259
 20
358.9116283190455
 10
485.8334011502465
 20
358.6573143206288
 10
485.0477548088207
 20
358.1573466819955
 10
484.3314117789266
 20
357.4287512014342
 10
483.7087662632886
 20
356.4963393241813
 10
483.2010217081609
 20
355.3918632184121
 10
482.8254687453958
 20
354.1529344932353
 10
482.594896380714
 20
352.8217433804556
 10
482.5171564794539
 20
351.4436219968311
  0
LWPOLYLINE
  5
2DEE
330
1101
100
AcDbEntity
  8
STEMPEL
100
AcDbPolyline
 90
       10
 70
   128
 43
0.0
 10
487.5523844615606
 20
358.8968132253501
 10
487.0852607379811
 20
358.8296801444258
 10
486.3165230498354
 20
358.4913166527285
 10
485.5952327250578
 20
357.9388125252174
 10
484.9433058051763
 20
357.1889553202262
 10
484.3805507597607
 20
356.2645290694828
 10
483.9240666160978
 20
355.1936219968335
 10
483.587723413901
 20
354.0087730717758
 10
483.3817407711709
 20
352.7459833293349
 10
483.3123773662748
 20
351.4436219968327
  0
ENDSEC
  0
SECTION
  2
OBJECTS
  0
DICTIONARY
  5
10EF
330
0
100
AcDbDictionary
281
     1
  3
ACAD_COLOR
350
1802
  3
ACAD_GROUP
350
10F0
  3
ACAD_LAYOUT
350
10FC
  3
ACAD_MATERIAL
350
1801
  3
ACAD_MLINESTYLE
350
10F9
  3
ACAD_PLOTSETTINGS
350
10FB
  3
ACAD_PLOTSTYLENAME
350
10F1
  3
AcDbVariableDictionary
350
112B
  0
DICTIONARY
  5
2C6D
330
10E5
100
AcDbDictionary
280
     1
281
     1
  3
ACAD_LAYERSTATES
360
2C6E
  0
DICTIONARY
  5
1561
330
1101
100
AcDbDictionary
280
     1
281
     1
  3
ACAD_LAYOUTSELFREF
360
17A3
  0
DICTIONARY
  5
1563
330
10FD
100
AcDbDictionary
280
     1
281
     1
  3
ACAD_LAYOUTSELFREF
360
17A2
  0
DICTIONARY
  5
1802
102
{ACAD_REACTORS
330
10EF
102
}
330
10EF
100
AcDbDictionary
281
     1
  0
DICTIONARY
  5
10F0
102
{ACAD_REACTORS
330
10EF
102
}
330
10EF
100
AcDbDictionary
281
     1
  0
DICTIONARY
  5
10FC
102
{ACAD_REACTORS
330
10EF
102
}
330
10EF
100
AcDbDictionary
281
     1
  3
Layout1
350
1100
  3
Model
350
1104
  0
DICTIONARY
  5
1801
102
{ACAD_REACTORS
330
10EF
102
}
330
10EF
100
AcDbDictionary
281
     1
  0
DICTIONARY
  5
10F9
102
{ACAD_REACTORS
330
10EF
102
}
330
10EF
100
AcDbDictionary
281
     1
  3
Standard
350
10FA
  0
DICTIONARY
  5
10FB
102
{ACAD_REACTORS
330
10EF
102
}
330
10EF
100
AcDbDictionary
281
     1
  0
ACDBDICTIONARYWDFLT
  5
10F1
102
{ACAD_REACTORS
330
10EF
102
}
330
10EF
100
AcDbDictionary
281
     1
  3
Normal
350
10F2
100
AcDbDictionaryWithDefault
340
10F2
  0
DICTIONARY
  5
112B
102
{ACAD_REACTORS
330
10EF
102
}
330
10EF
100
AcDbDictionary
281
     1
  3
DIMASSOC
350
180D
  3
PROJECTNAME
350
180E
  3
SORTENTS
350
112C
  0
DICTIONARY
  5
2C6E
102
{ACAD_REACTORS
330
2C6D
102
}
330
2C6D
100
AcDbDictionary
281
     1
  0
XRECORD
  5
17A3
102
{ACAD_REACTORS
330
1561
102
}
330
1561
100
AcDbXrecord
280
     1
340
1101
  0
XRECORD
  5
17A2
102
{ACAD_REACTORS
330
1563
102
}
330
1563
100
AcDbXrecord
280
     1
340
10FD
  0
LAYOUT
  5
1100
102
{ACAD_REACTORS
330
10FC
102
}
330
10FC
100
AcDbPlotSettings
  1

  2
\\NT_WORK01\HP LaserJet 5000 PCL 6
  4

  6

 40
0.0
 41
0.0
 42
0.0
 43
0.0
 44
0.0
 45
0.0
 46
0.0
 47
0.0
 48
0.0
 49
0.0
140
0.0
141
0.0
142
1.0
143
1.0
 70
   688
 72
     0
 73
     0
 74
     5
  7
monochrome.ctb
 75
    16
147
1.0
 76
     0
 77
     2
 78
   300
148
0.0
149
0.0
100
AcDbLayout
  1
Layout1
 70
     0
 71
     1
 10
0.0
 20
0.0
 11
12.0
 21
9.0
 12
0.0
 22
0.0
 32
0.0
 14
1.000000000000000E+20
 24
1.000000000000000E+20
 34
1.000000000000000E+20
 15
-1.000000000000000E+20
 25
-1.000000000000000E+20
 35
-1.000000000000000E+20
146
0.0
 13
0.0
 23
0.0
 33
0.0
 16
1.0
 26
0.0
 36
0.0
 17
0.0
 27
1.0
 37
0.0
 76
     0
330
10FD
  0
LAYOUT
  5
1104
102
{ACAD_REACTORS
330
10FC
102
}
330
10FC
100
AcDbPlotSettings
  1

  2
RICOH Aficio 2027 PCL 6
  4
A4
  6

 40
5.027083
 41
5.027084999999999
 42
5.027084
 43
5.027069
 44
209.973328
 45
296.925995
 46
0.0
 47
2.08
 48
0.0
 49
0.0
140
0.0
141
0.0
142
1.0
143
2.971200944565789
 70
 11956
 72
     1
 73
     1
 74
     2
  7
monochrome1.ctb
 75
     0
147
0.3365642441077441
 76
     1
 77
     2
 78
   300
148
0.0
149
0.0
100
AcDbLayout
  1
Model
 70
     1
 71
     0
 10
0.0
 20
0.0
 11
12.0
 21
9.0
 12
0.0
 22
0.0
 32
0.0
 14
0.0
 24
0.0
 34
0.0
 15
0.0
 25
0.0
 35
0.0
146
0.0
 13
0.0
 23
0.0
 33
0.0
 16
1.0
 26
0.0
 36
0.0
 17
0.0
 27
1.0
 37
0.0
 76
     0
330
1101
  0
MLINESTYLE
  5
10FA
102
{ACAD_REACTORS
330
10F9
102
}
330
10F9
100
AcDbMlineStyle
  2
STANDARD
 70
     0
  3

 62
   256
 51
90.0
 52
90.0
 71
     2
 49
0.5
 62
   256
  6
BYLAYER
 49
-0.5
 62
   256
  6
BYLAYER
  0
ACDBPLACEHOLDER
  5
10F2
102
{ACAD_REACTORS
330
10F1
102
}
330
10F1
  0
DICTIONARYVAR
  5
180D
102
{ACAD_REACTORS
330
112B
102
}
330
112B
100
DictionaryVariables
280
     0
  1
1
  0
DICTIONARYVAR
  5
180E
102
{ACAD_REACTORS
330
112B
102
}
330
112B
100
DictionaryVariables
280
     0
  1

  0
DICTIONARYVAR
  5
112C
102
{ACAD_REACTORS
330
112B
102
}
330
112B
100
DictionaryVariables
280
     0
  1
96
  0
ENDSEC
  0
EOF
