  0
SECTION
  2
HEADER
  9
$ACADVER
  1
AC1018
  9
$ACADMAINTVER
 70
     2
  9
$DWGCODEPAGE
  3
ANSI_1252
  9
$INSBASE
 10
0.0
 20
0.0
 30
0.0
  9
$EXTMIN
 10
0.0
 20
0.0
 30
0.0
  9
$EXTMAX
 10
1188.0
 20
840.0
 30
0.0
  9
$LIMMIN
 10
0.0
 20
0.0
  9
$LIMMAX
 10
1189.0
 20
841.0
  9
$ORTHOMODE
 70
     1
  9
$REGENMODE
 70
     1
  9
$FILLMODE
 70
     1
  9
$QTEXTMODE
 70
     0
  9
$MIRRTEXT
 70
     1
  9
$LTSCALE
 40
20.0
  9
$ATTMODE
 70
     1
  9
$TEXTSIZE
 40
3.5
  9
$TRACEWID
 40
1.0
  9
$TEXTSTYLE
  7
STANDARD
  9
$CLAYER
  8
VOLL
  9
$CELTYPE
  6
ByLayer
  9
$CECOLOR
 62
   256
  9
$CELTSCALE
 40
1.0
  9
$DISPSILH
 70
     0
  9
$DIMSCALE
 40
2.0
  9
$DIMASZ
 40
3.5
  9
$DIMEXO
 40
1.0
  9
$DIMDLI
 40
7.0
  9
$DIMRND
 40
0.0
  9
$DIMDLE
 40
0.0
  9
$DIMEXE
 40
1.0
  9
$DIMTP
 40
1.0
  9
$DIMTM
 40
0.0
  9
$DIMTXT
 40
3.5
  9
$DIMCEN
 40
1.5
  9
$DIMTSZ
 40
0.0
  9
$DIMTOL
 70
     0
  9
$DIMLIM
 70
     0
  9
$DIMTIH
 70
     0
  9
$DIMTOH
 70
     0
  9
$DIMSE1
 70
     0
  9
$DIMSE2
 70
     0
  9
$DIMTAD
 70
     1
  9
$DIMZIN
 70
     8
  9
$DIMBLK
  1

  9
$DIMASO
 70
     1
  9
$DIMSHO
 70
     0
  9
$DIMPOST
  1

  9
$DIMAPOST
  1

  9
$DIMALT
 70
     0
  9
$DIMALTD
 70
     2
  9
$DIMALTF
 40
25.4
  9
$DIMLFAC
 40
1.0
  9
$DIMTOFL
 70
     1
  9
$DIMTVP
 40
0.0
  9
$DIMTIX
 70
     0
  9
$DIMSOXD
 70
     0
  9
$DIMSAH
 70
     0
  9
$DIMBLK1
  1

  9
$DIMBLK2
  1

  9
$DIMSTYLE
  2
Standard
  9
$DIMCLRD
 70
     0
  9
$DIMCLRE
 70
     0
  9
$DIMCLRT
 70
     1
  9
$DIMTFAC
 40
0.5
  9
$DIMGAP
 40
1.5
  9
$DIMJUST
 70
     0
  9
$DIMSD1
 70
     0
  9
$DIMSD2
 70
     0
  9
$DIMTOLJ
 70
     1
  9
$DIMTZIN
 70
     8
  9
$DIMALTZ
 70
     8
  9
$DIMALTTZ
 70
     8
  9
$DIMUPT
 70
     0
  9
$DIMDEC
 70
     2
  9
$DIMTDEC
 70
     2
  9
$DIMALTU
 70
     2
  9
$DIMALTTD
 70
     2
  9
$DIMTXSTY
  7
STANDARD
  9
$DIMAUNIT
 70
     0
  9
$DIMADEC
 70
     2
  9
$DIMALTRND
 40
0.0
  9
$DIMAZIN
 70
     2
  9
$DIMDSEP
 70
    46
  9
$DIMATFIT
 70
     3
  9
$DIMFRAC
 70
     0
  9
$DIMLDRBLK
  1

  9
$DIMLUNIT
 70
     2
  9
$DIMLWD
 70
    -2
  9
$DIMLWE
 70
    -2
  9
$DIMTMOVE
 70
     0
  9
$LUNITS
 70
     2
  9
$LUPREC
 70
     2
  9
$SKETCHINC
 40
1.0
  9
$FILLETRAD
 40
0.0
  9
$AUNITS
 70
     0
  9
$AUPREC
 70
     0
  9
$MENU
  1
ACAD
  9
$ELEVATION
 40
0.0
  9
$PELEVATION
 40
0.0
  9
$THICKNESS
 40
0.0
  9
$LIMCHECK
 70
     0
  9
$CHAMFERA
 40
0.0
  9
$CHAMFERB
 40
0.0
  9
$CHAMFERC
 40
0.0
  9
$CHAMFERD
 40
0.0
  9
$SKPOLY
 70
     0
  9
$TDCREATE
 40
2452150.597451621
  9
$TDUCREATE
 40
2452150.514118287
  9
$TDUPDATE
 40
2456094.311887280
  9
$TDUUPDATE
 40
2456094.228553947
  9
$TDINDWG
 40
0.0665746644
  9
$TDUSRTIMER
 40
0.0665746644
  9
$USRTIMER
 70
     1
  9
$ANGBASE
 50
0.0
  9
$ANGDIR
 70
     0
  9
$PDMODE
 70
     0
  9
$PDSIZE
 40
0.0
  9
$PLINEWID
 40
0.0
  9
$SPLFRAME
 70
     0
  9
$SPLINETYPE
 70
     6
  9
$SPLINESEGS
 70
     8
  9
$HANDSEED
  5
193E
  9
$SURFTAB1
 70
     6
  9
$SURFTAB2
 70
     6
  9
$SURFTYPE
 70
     6
  9
$SURFU
 70
     6
  9
$SURFV
 70
     6
  9
$UCSBASE
  2

  9
$UCSNAME
  2

  9
$UCSORG
 10
0.0
 20
0.0
 30
0.0
  9
$UCSXDIR
 10
1.0
 20
0.0
 30
0.0
  9
$UCSYDIR
 10
0.0
 20
1.0
 30
0.0
  9
$UCSORTHOREF
  2

  9
$UCSORTHOVIEW
 70
     0
  9
$UCSORGTOP
 10
0.0
 20
0.0
 30
0.0
  9
$UCSORGBOTTOM
 10
0.0
 20
0.0
 30
0.0
  9
$UCSORGLEFT
 10
0.0
 20
0.0
 30
0.0
  9
$UCSORGRIGHT
 10
0.0
 20
0.0
 30
0.0
  9
$UCSORGFRONT
 10
0.0
 20
0.0
 30
0.0
  9
$UCSORGBACK
 10
0.0
 20
0.0
 30
0.0
  9
$PUCSBASE
  2

  9
$PUCSNAME
  2

  9
$PUCSORG
 10
0.0
 20
0.0
 30
0.0
  9
$PUCSXDIR
 10
1.0
 20
0.0
 30
0.0
  9
$PUCSYDIR
 10
0.0
 20
1.0
 30
0.0
  9
$PUCSORTHOREF
  2

  9
$PUCSORTHOVIEW
 70
     0
  9
$PUCSORGTOP
 10
0.0
 20
0.0
 30
0.0
  9
$PUCSORGBOTTOM
 10
0.0
 20
0.0
 30
0.0
  9
$PUCSORGLEFT
 10
0.0
 20
0.0
 30
0.0
  9
$PUCSORGRIGHT
 10
0.0
 20
0.0
 30
0.0
  9
$PUCSORGFRONT
 10
0.0
 20
0.0
 30
0.0
  9
$PUCSORGBACK
 10
0.0
 20
0.0
 30
0.0
  9
$USERI1
 70
     0
  9
$USERI2
 70
     0
  9
$USERI3
 70
     0
  9
$USERI4
 70
     0
  9
$USERI5
 70
     0
  9
$USERR1
 40
0.0
  9
$USERR2
 40
0.0
  9
$USERR3
 40
0.0
  9
$USERR4
 40
0.0
  9
$USERR5
 40
0.0
  9
$WORLDVIEW
 70
     1
  9
$SHADEDGE
 70
     3
  9
$SHADEDIF
 70
    70
  9
$TILEMODE
 70
     1
  9
$MAXACTVP
 70
    16
  9
$PINSBASE
 10
0.0
 20
0.0
 30
0.0
  9
$PLIMCHECK
 70
     0
  9
$PEXTMIN
 10
1.000000000000000E+20
 20
1.000000000000000E+20
 30
1.000000000000000E+20
  9
$PEXTMAX
 10
-1.000000000000000E+20
 20
-1.000000000000000E+20
 30
-1.000000000000000E+20
  9
$PLIMMIN
 10
0.0
 20
0.0
  9
$PLIMMAX
 10
12.0
 20
9.0
  9
$UNITMODE
 70
     0
  9
$VISRETAIN
 70
     0
  9
$PLINEGEN
 70
     0
  9
$PSLTSCALE
 70
     0
  9
$TREEDEPTH
 70
  3020
  9
$CMLSTYLE
  2
Standard
  9
$CMLJUST
 70
     0
  9
$CMLSCALE
 40
1.0
  9
$PROXYGRAPHICS
 70
     1
  9
$MEASUREMENT
 70
     0
  9
$CELWEIGHT
370
    -1
  9
$ENDCAPS
280
     0
  9
$JOINSTYLE
280
     0
  9
$LWDISPLAY
290
     0
  9
$INSUNITS
 70
     0
  9
$HYPERLINKBASE
  1

  9
$STYLESHEET
  1
monochrome1.ctb
  9
$XEDIT
290
     1
  9
$CEPSNTYPE
380
     0
  9
$PSTYLEMODE
290
     1
  9
$FINGERPRINTGUID
  2
{821DEDE9-8BEF-44C6-9E9D-073ED449B498}
  9
$VERSIONGUID
  2
{18AC1391-866D-4444-BB58-169B4E8618AF}
  9
$EXTNAMES
290
     1
  9
$PSVPSCALE
 40
0.0
  9
$OLESTARTUP
290
     0
  9
$SORTENTS
280
   127
  9
$INDEXCTL
280
     0
  9
$HIDETEXT
280
     1
  9
$XCLIPFRAME
290
     0
  9
$HALOGAP
280
     0
  9
$OBSCOLOR
 70
   257
  9
$OBSLTYPE
280
     0
  9
$INTERSECTIONDISPLAY
280
     0
  9
$INTERSECTIONCOLOR
 70
   257
  9
$DIMASSOC
280
     2
  9
$PROJECTNAME
  1

  0
ENDSEC
  0
SECTION
  2
CLASSES
  0
CLASS
  1
ACDBDICTIONARYWDFLT
  2
AcDbDictionaryWithDefault
  3
ObjectDBX Classes
 90
        0
 91
        1
280
     0
281
     0
  0
CLASS
  1
DICTIONARYVAR
  2
AcDbDictionaryVar
  3
ObjectDBX Classes
 90
        0
 91
        3
280
     0
281
     0
  0
CLASS
  1
DIMASSOC
  2
AcDbDimAssoc
  3
"AcDbDimAssoc|Product Desc:     AcDim ARX App For Dimension|Company:          Autodesk, Inc.|WEB Address:      www.autodesk.com"
 90
        0
 91
        7
280
     0
281
     0
  0
ENDSEC
  0
SECTION
  2
TABLES
  0
TABLE
  2
VPORT
  5
8
330
0
100
AcDbSymbolTable
 70
     3
  0
VPORT
  5
193D
330
8
100
AcDbSymbolTableRecord
100
AcDbViewportTableRecord
  2
*Active
 70
     0
 10
0.0
 20
0.0
 11
1.0
 21
1.0
 12
594.0
 22
420.0
 13
0.0
 23
0.0
 14
1.0
 24
1.0
 15
10.0
 25
10.0
 16
0.0
 26
0.0
 36
1.0
 17
0.0
 27
0.0
 37
0.0
 40
864.420233463035
 41
1.374331550802138
 42
50.0
 43
0.0
 44
0.0
 50
0.0
 51
0.0
 71
     0
 72
  1500
 73
     1
 74
     0
 75
     0
 76
     0
 77
     0
 78
     0
281
     0
 65
     1
110
0.0
120
0.0
130
0.0
111
1.0
121
0.0
131
0.0
112
0.0
122
1.0
132
0.0
 79
     0
146
0.0
  0
ENDTAB
  0
TABLE
  2
LTYPE
  5
5
330
0
100
AcDbSymbolTable
 70
     3
  0
LTYPE
  5
13
330
5
100
AcDbSymbolTableRecord
100
AcDbLinetypeTableRecord
  2
ByBlock
 70
     0
  3

 72
    65
 73
     0
 40
0.0
  0
LTYPE
  5
14
330
5
100
AcDbSymbolTableRecord
100
AcDbLinetypeTableRecord
  2
ByLayer
 70
     0
  3

 72
    65
 73
     0
 40
0.0
  0
LTYPE
  5
15
330
5
100
AcDbSymbolTableRecord
100
AcDbLinetypeTableRecord
  2
Continuous
 70
     0
  3
Solid line
 72
    65
 73
     0
 40
0.0
  0
LTYPE
  5
55
330
5
100
AcDbSymbolTableRecord
100
AcDbLinetypeTableRecord
  2
STRICHPUNKT
 70
     0
  3
__ . __ . __ . __ . __ . __ . __ . __ . __ . __
 72
    65
 73
     4
 40
1.0
 49
0.5
 74
     0
 49
-0.25
 74
     0
 49
0.0
 74
     0
 49
-0.25
 74
     0
  0
LTYPE
  5
B08
330
5
100
AcDbSymbolTableRecord
100
AcDbLinetypeTableRecord
  2
VERDECKT
 70
     0
  3
_ _ _ _ _ _ _ _ _ _ _ _ _ _ _ _ _ _ _ _ _ _ _
 72
    65
 73
     2
 40
0.375
 49
0.25
 74
     0
 49
-0.125
 74
     0
  0
ENDTAB
  0
TABLE
  2
LAYER
  5
2
330
0
100
AcDbSymbolTable
 70
    10
  0
LAYER
  5
10
330
2
100
AcDbSymbolTableRecord
100
AcDbLayerTableRecord
  2
0
 70
     0
 62
     7
  6
Continuous
370
    -3
390
F
  0
LAYER
  5
58
330
2
100
AcDbSymbolTableRecord
100
AcDbLayerTableRecord
  2
VOLL
 70
     0
 62
     1
  6
Continuous
370
    -3
390
F
  0
LAYER
  5
59
330
2
100
AcDbSymbolTableRecord
100
AcDbLayerTableRecord
  2
HILF
 70
     0
 62
     2
  6
Continuous
370
    -3
390
F
  0
LAYER
  5
5A
330
2
100
AcDbSymbolTableRecord
100
AcDbLayerTableRecord
  2
MITTEL
 70
     0
 62
     2
  6
STRICHPUNKT
370
    -3
390
F
  0
LAYER
  5
5B
330
2
100
AcDbSymbolTableRecord
100
AcDbLayerTableRecord
  2
BEM
 70
     0
 62
     7
  6
Continuous
370
    -3
390
F
  0
LAYER
  5
5C
330
2
100
AcDbSymbolTableRecord
100
AcDbLayerTableRecord
  2
STEMPEL
 70
     0
 62
     3
  6
Continuous
370
    -3
390
F
  0
LAYER
  5
5D
330
2
100
AcDbSymbolTableRecord
100
AcDbLayerTableRecord
  2
TEXT
 70
     0
 62
     7
  6
Continuous
370
    -3
390
F
  0
LAYER
  5
5E
330
2
100
AcDbSymbolTableRecord
100
AcDbLayerTableRecord
  2
SCHRAFF
 70
     0
 62
     7
  6
Continuous
370
    -3
390
F
  0
LAYER
  5
5F
330
2
100
AcDbSymbolTableRecord
100
AcDbLayerTableRecord
  2
DEFPOINTS
 70
     0
 62
     7
  6
Continuous
290
     0
370
    -3
390
F
  0
LAYER
  5
B09
330
2
100
AcDbSymbolTableRecord
100
AcDbLayerTableRecord
  2
VERDECKT
 70
     0
 62
     6
  6
VERDECKT
370
    -3
390
F
  0
ENDTAB
  0
TABLE
  2
STYLE
  5
3
330
0
100
AcDbSymbolTable
 70
     2
  0
STYLE
  5
11
330
3
100
AcDbSymbolTableRecord
100
AcDbTextStyleTableRecord
  2
STANDARD
 70
     0
 40
0.0
 41
0.8
 50
0.0
 71
     0
 42
3.5
  3
simplex.shx
  4

  0
STYLE
  5
54
330
3
100
AcDbSymbolTableRecord
100
AcDbTextStyleTableRecord
  2
GREEKS
 70
     0
 40
0.0
 41
0.8
 50
0.0
 71
     0
 42
2.5
  3
SIMPLEX.shx
  4

  0
ENDTAB
  0
TABLE
  2
VIEW
  5
6
330
0
100
AcDbSymbolTable
 70
     0
  0
ENDTAB
  0
TABLE
  2
UCS
  5
7
330
0
100
AcDbSymbolTable
 70
     0
  0
ENDTAB
  0
TABLE
  2
APPID
  5
9
330
0
100
AcDbSymbolTable
 70
     1
  0
APPID
  5
12
330
9
100
AcDbSymbolTableRecord
100
AcDbRegAppTableRecord
  2
ACAD
 70
     0
  0
ENDTAB
  0
TABLE
  2
DIMSTYLE
  5
A
330
0
100
AcDbSymbolTable
 70
     1
100
AcDbDimStyleTable
 71
     1
340
70A
  0
DIMSTYLE
105
70A
102
{ACAD_REACTORS
330
554
330
1737
330
174F
330
178B
330
17BE
330
17DF
330
187F
330
18B1
102
}
330
A
100
AcDbSymbolTableRecord
100
AcDbDimStyleTableRecord
  2
Standard
 70
     0
340
11
  0
ENDTAB
  0
TABLE
  2
BLOCK_RECORD
  5
1
330
0
100
AcDbSymbolTable
 70
    17
  0
BLOCK_RECORD
  5
20
330
1
100
AcDbSymbolTableRecord
100
AcDbBlockTableRecord
  2
*Model_Space
340
23
  0
BLOCK_RECORD
  5
1C
330
1
100
AcDbSymbolTableRecord
100
AcDbBlockTableRecord
  2
*Paper_Space
340
1F
  0
BLOCK_RECORD
  5
24
330
1
100
AcDbSymbolTableRecord
100
AcDbBlockTableRecord
  2
LOGO
340
0
102
{BLKREFS
331
82
102
}
  0
BLOCK_RECORD
  5
25
330
1
100
AcDbSymbolTableRecord
100
AcDbBlockTableRecord
  2
LORO
340
0
102
{BLKREFS
331
652
102
}
  0
BLOCK_RECORD
  5
26
330
1
100
AcDbSymbolTableRecord
100
AcDbBlockTableRecord
  2
*X2
340
0
102
{BLKREFS
331
5F9
102
}
  0
BLOCK_RECORD
  5
27
330
1
100
AcDbSymbolTableRecord
100
AcDbBlockTableRecord
  2
*X3
340
0
102
{BLKREFS
331
609
102
}
  0
BLOCK_RECORD
  5
28
330
1
100
AcDbSymbolTableRecord
100
AcDbBlockTableRecord
  2
*X4
340
0
102
{BLKREFS
331
5F2
102
}
  0
BLOCK_RECORD
  5
29
330
1
100
AcDbSymbolTableRecord
100
AcDbBlockTableRecord
  2
*X5
340
0
102
{BLKREFS
331
6D3
102
}
  0
BLOCK_RECORD
  5
2B
330
1
100
AcDbSymbolTableRecord
100
AcDbBlockTableRecord
  2
*X6
340
0
102
{BLKREFS
331
5A7
102
}
  0
BLOCK_RECORD
  5
2C
330
1
100
AcDbSymbolTableRecord
100
AcDbBlockTableRecord
  2
*X7
340
0
102
{BLKREFS
331
637
102
}
  0
BLOCK_RECORD
  5
3D
330
1
100
AcDbSymbolTableRecord
100
AcDbBlockTableRecord
  2
*X8
340
0
102
{BLKREFS
331
6EA
102
}
  0
BLOCK_RECORD
  5
783
330
1
100
AcDbSymbolTableRecord
100
AcDbBlockTableRecord
  2
*D9
340
0
  0
BLOCK_RECORD
  5
1738
330
1
100
AcDbSymbolTableRecord
100
AcDbBlockTableRecord
  2
*D10
340
0
  0
BLOCK_RECORD
  5
1750
330
1
100
AcDbSymbolTableRecord
100
AcDbBlockTableRecord
  2
*D11
340
0
  0
BLOCK_RECORD
  5
178C
330
1
100
AcDbSymbolTableRecord
100
AcDbBlockTableRecord
  2
*D12
340
0
  0
BLOCK_RECORD
  5
17BF
330
1
100
AcDbSymbolTableRecord
100
AcDbBlockTableRecord
  2
*D13
340
0
  0
BLOCK_RECORD
  5
17E0
330
1
100
AcDbSymbolTableRecord
100
AcDbBlockTableRecord
  2
*D14
340
0
  0
BLOCK_RECORD
  5
188B
330
1
100
AcDbSymbolTableRecord
100
AcDbBlockTableRecord
  2
*D15
340
0
  0
BLOCK_RECORD
  5
18B6
330
1
100
AcDbSymbolTableRecord
100
AcDbBlockTableRecord
  2
*D16
340
0
  0
ENDTAB
  0
ENDSEC
  0
SECTION
  2
BLOCKS
  0
BLOCK
  5
63
330
20
100
AcDbEntity
  8
0
100
AcDbBlockBegin
  2
*Model_Space
 70
     0
 10
0.0
 20
0.0
 30
0.0
  3
*Model_Space
  1

  0
ENDBLK
  5
64
330
20
100
AcDbEntity
  8
0
100
AcDbBlockEnd
  0
BLOCK
  5
61
330
1C
100
AcDbEntity
 67
     1
  8
0
100
AcDbBlockBegin
  2
*Paper_Space
 70
     0
 10
0.0
 20
0.0
 30
0.0
  3
*Paper_Space
  1

  0
ENDBLK
  5
62
330
1C
100
AcDbEntity
 67
     1
  8
0
100
AcDbBlockEnd
  0
BLOCK
  5
65
330
24
100
AcDbEntity
  8
0
100
AcDbBlockBegin
  2
LOGO
 70
     0
 10
0.0
 20
0.0
 30
0.0
  3
LOGO
  1

  0
ARC
  5
66
330
24
100
AcDbEntity
  8
0
100
AcDbCircle
 10
11.59973089678112
 20
-9.271599258481501
 30
0.0
 40
4.5
100
AcDbArc
 50
270.0
 51
231.0575587310159
  0
LINE
  5
67
330
24
100
AcDbEntity
  8
0
100
AcDbLine
 10
3.599730896781125
 20
-4.771599258481529
 30
0.0
 11
3.599730896781153
 21
-11.77159925848133
 31
0.0
  0
LINE
  5
68
330
24
100
AcDbEntity
  8
0
100
AcDbLine
 10
2.599730896781125
 20
-4.771599258481529
 30
0.0
 11
2.599730896781153
 21
-11.77159925848133
 31
0.0
  0
CIRCLE
  5
69
330
24
100
AcDbEntity
  8
0
100
AcDbCircle
 10
11.59973089678112
 20
-9.271599258481501
 30
0.0
 40
3.5
  0
ARC
  5
6A
330
24
100
AcDbEntity
  8
0
100
AcDbCircle
 10
31.59973089678115
 20
-9.271599258481472
 30
0.0
 40
4.5
100
AcDbArc
 50
270.0
 51
231.0575587310182
  0
LINE
  5
6B
330
24
100
AcDbEntity
  8
0
100
AcDbLine
 10
17.59973089678112
 20
-4.771599258481472
 30
0.0
 11
17.59973089678115
 21
-13.77159925848147
 31
0.0
  0
ARC
  5
6C
330
24
100
AcDbEntity
  8
0
100
AcDbCircle
 10
22.59973089678116
 20
-7.271599258481472
 30
0.0
 40
2.5
100
AcDbArc
 50
293.1161887722295
 51
90.0
  0
CIRCLE
  5
6D
330
24
100
AcDbEntity
  8
0
100
AcDbCircle
 10
31.59973089678115
 20
-9.271599258481472
 30
0.0
 40
3.5
  0
ARC
  5
6E
330
24
100
AcDbEntity
  8
0
100
AcDbCircle
 10
4.599730896781153
 20
-11.77159925848133
 30
0.0
 40
1.0
100
AcDbArc
 50
180.0
 51
270.0
  0
ARC
  5
6F
330
24
100
AcDbEntity
  8
0
100
AcDbCircle
 10
4.599730896781153
 20
-11.77159925848133
 30
0.0
 40
2.0
100
AcDbArc
 50
179.9999999999992
 51
270.0
  0
LINE
  5
70
330
24
100
AcDbEntity
  8
0
100
AcDbLine
 10
11.59973089678115
 20
-13.77159925848144
 30
0.0
 11
4.599730896781153
 21
-13.77159925848147
 31
0.0
  0
LINE
  5
71
330
24
100
AcDbEntity
  8
0
100
AcDbLine
 10
8.771303772034769
 20
-12.77159925848136
 30
0.0
 11
4.599730896781153
 21
-12.77159925848133
 31
0.0
  0
LINE
  5
72
330
24
100
AcDbEntity
  8
0
100
AcDbLine
 10
31.59973089678115
 20
-13.77159925848147
 30
0.0
 11
23.6715276665056
 21
-13.77159925848144
 31
0.0
  0
LINE
  5
73
330
24
100
AcDbEntity
  8
0
100
AcDbLine
 10
23.56565672307022
 20
-9.51278021337896
 30
0.0
 11
24.4388546544846
 21
-12.77159925848144
 31
0.0
  0
LINE
  5
74
330
24
100
AcDbEntity
  8
0
100
AcDbLine
 10
22.59973089678116
 20
-9.771599258481472
 30
0.0
 11
18.59973089678112
 21
-9.771599258481472
 31
0.0
  0
LINE
  5
75
330
24
100
AcDbEntity
  8
0
100
AcDbLine
 10
18.59973089678115
 20
-13.77159925848144
 30
0.0
 11
17.59973089678115
 21
-13.77159925848144
 31
0.0
  0
LINE
  5
76
330
24
100
AcDbEntity
  8
0
100
AcDbLine
 10
18.59973089678115
 20
-9.771599258481472
 30
0.0
 11
18.59973089678115
 21
-13.77159925848144
 31
0.0
  0
LINE
  5
77
330
24
100
AcDbEntity
  8
0
100
AcDbLine
 10
22.59973089678116
 20
-9.771599258481472
 30
0.0
 11
23.67152766650562
 21
-13.77159925848147
 31
0.0
  0
ARC
  5
78
330
24
100
AcDbEntity
  8
0
100
AcDbCircle
 10
22.59973089678116
 20
-7.271599258481472
 30
0.0
 40
2.5
100
AcDbArc
 50
270.0
 51
270.0000000000007
  0
LINE
  5
79
330
24
100
AcDbEntity
  8
0
100
AcDbLine
 10
28.77130377203494
 20
-12.77159925848147
 30
0.0
 11
24.43885465448463
 21
-12.77159925848144
 31
0.0
  0
LINE
  5
7A
330
24
100
AcDbEntity
  8
0
100
AcDbLine
 10
3.599730896781125
 20
-4.771599258481472
 30
0.0
 11
2.599730896781125
 21
-4.771599258481472
 31
0.0
  0
LINE
  5
7B
330
24
100
AcDbEntity
  8
0
100
AcDbLine
 10
22.59973089678116
 20
-8.771599258481472
 30
0.0
 11
18.59973089678115
 21
-8.771599258481472
 31
0.0
  0
LINE
  5
7C
330
24
100
AcDbEntity
  8
0
100
AcDbLine
 10
22.59973089678116
 20
-5.771599258481472
 30
0.0
 11
18.59973089678115
 21
-5.771599258481472
 31
0.0
  0
LINE
  5
7D
330
24
100
AcDbEntity
  8
0
100
AcDbLine
 10
22.59973089678116
 20
-4.771599258481472
 30
0.0
 11
17.59973089678115
 21
-4.771599258481472
 31
0.0
  0
LINE
  5
7E
330
24
100
AcDbEntity
  8
0
100
AcDbLine
 10
18.59973089678115
 20
-5.771599258481472
 30
0.0
 11
18.59973089678115
 21
-8.771599258481472
 31
0.0
  0
ARC
  5
7F
330
24
100
AcDbEntity
  8
0
100
AcDbCircle
 10
22.59973089678116
 20
-7.271599258481472
 30
0.0
 40
1.5
100
AcDbArc
 50
270.0
 51
90.0
  0
ENDBLK
  5
80
330
24
100
AcDbEntity
  8
0
100
AcDbBlockEnd
  0
BLOCK
  5
81
330
25
100
AcDbEntity
  8
0
100
AcDbBlockBegin
  2
LORO
 70
     0
 10
0.0
 20
0.0
 30
0.0
  3
LORO
  1

  0
INSERT
  5
82
330
25
100
AcDbEntity
  8
STEMPEL
100
AcDbBlockReference
  2
LOGO
 10
-1.748032802467321
 20
3.771489518552062
 30
0.0
  0
ENDBLK
  5
83
330
25
100
AcDbEntity
  8
0
100
AcDbBlockEnd
  0
BLOCK
  5
84
330
26
100
AcDbEntity
  8
0
100
AcDbBlockBegin
  2
*X2
 70
     1
 10
0.0
 20
0.0
 30
0.0
  3
*X2
  1

  0
LINE
  5
85
330
26
100
AcDbEntity
  8
0
 62
     0
100
AcDbLine
 10
2673.498531159874
 20
1068.510554879335
 30
0.0
 11
2671.498531159874
 21
1070.510554879335
 31
0.0
  0
LINE
  5
86
330
26
100
AcDbEntity
  8
0
 62
     0
100
AcDbLine
 10
2670.670104035128
 20
1068.510554879335
 30
0.0
 11
2668.670104035128
 21
1070.510554879335
 31
0.0
  0
LINE
  5
87
330
26
100
AcDbEntity
  8
0
 62
     0
100
AcDbLine
 10
2667.841676910382
 20
1068.510554879335
 30
0.0
 11
2666.716426167625
 21
1069.635805622092
 31
0.0
  0
LINE
  5
88
330
26
100
AcDbEntity
  8
0
 62
     0
100
AcDbLine
 10
2666.716426167625
 20
1069.635805622092
 30
0.0
 11
2665.841676910382
 21
1070.510554879335
 31
0.0
  0
LINE
  5
89
330
26
100
AcDbEntity
  8
0
 62
     0
100
AcDbLine
 10
2665.013249785636
 20
1068.510554879335
 30
0.0
 11
2663.013249785635
 21
1070.510554879335
 31
0.0
  0
LINE
  5
8A
330
26
100
AcDbEntity
  8
0
 62
     0
100
AcDbLine
 10
2662.184822660889
 20
1068.510554879335
 30
0.0
 11
2660.184822660889
 21
1070.510554879335
 31
0.0
  0
LINE
  5
8B
330
26
100
AcDbEntity
  8
0
 62
     0
100
AcDbLine
 10
2659.356395536143
 20
1068.510554879335
 30
0.0
 11
2657.356395536143
 21
1070.510554879335
 31
0.0
  0
LINE
  5
8C
330
26
100
AcDbEntity
  8
0
 62
     0
100
AcDbLine
 10
2656.527968411397
 20
1068.510554879335
 30
0.0
 11
2654.527968411397
 21
1070.510554879335
 31
0.0
  0
LINE
  5
8D
330
26
100
AcDbEntity
  8
0
 62
     0
100
AcDbLine
 10
2653.699541286651
 20
1068.510554879335
 30
0.0
 11
2651.699541286651
 21
1070.510554879335
 31
0.0
  0
LINE
  5
8E
330
26
100
AcDbEntity
  8
0
 62
     0
100
AcDbLine
 10
2650.871114161905
 20
1068.510554879335
 30
0.0
 11
2648.871114161905
 21
1070.510554879335
 31
0.0
  0
LINE
  5
8F
330
26
100
AcDbEntity
  8
0
 62
     0
100
AcDbLine
 10
2648.042687037158
 20
1068.510554879335
 30
0.0
 11
2646.042687037159
 21
1070.510554879335
 31
0.0
  0
LINE
  5
90
330
26
100
AcDbEntity
  8
0
 62
     0
100
AcDbLine
 10
2645.214259912413
 20
1068.510554879335
 30
0.0
 11
2643.214259912412
 21
1070.510554879335
 31
0.0
  0
LINE
  5
91
330
26
100
AcDbEntity
  8
0
 62
     0
100
AcDbLine
 10
2642.385832787666
 20
1068.510554879335
 30
0.0
 11
2640.385832787667
 21
1070.510554879335
 31
0.0
  0
LINE
  5
92
330
26
100
AcDbEntity
  8
0
 62
     0
100
AcDbLine
 10
2639.55740566292
 20
1068.510554879335
 30
0.0
 11
2637.55740566292
 21
1070.510554879335
 31
0.0
  0
LINE
  5
93
330
26
100
AcDbEntity
  8
0
 62
     0
100
AcDbLine
 10
2636.728978538174
 20
1068.510554879335
 30
0.0
 11
2634.728978538174
 21
1070.510554879335
 31
0.0
  0
LINE
  5
94
330
26
100
AcDbEntity
  8
0
 62
     0
100
AcDbLine
 10
2633.900551413427
 20
1068.510554879335
 30
0.0
 11
2631.900551413428
 21
1070.510554879335
 31
0.0
  0
LINE
  5
95
330
26
100
AcDbEntity
  8
0
 62
     0
100
AcDbLine
 10
2631.072124288682
 20
1068.510554879335
 30
0.0
 11
2629.072124288681
 21
1070.510554879335
 31
0.0
  0
LINE
  5
96
330
26
100
AcDbEntity
  8
0
 62
     0
100
AcDbLine
 10
2628.243697163935
 20
1068.510554879335
 30
0.0
 11
2626.243697163935
 21
1070.510554879335
 31
0.0
  0
LINE
  5
97
330
26
100
AcDbEntity
  8
0
 62
     0
100
AcDbLine
 10
2625.415270039189
 20
1068.510554879335
 30
0.0
 11
2623.415270039189
 21
1070.510554879335
 31
0.0
  0
LINE
  5
98
330
26
100
AcDbEntity
  8
0
 62
     0
100
AcDbLine
 10
2622.586842914443
 20
1068.510554879335
 30
0.0
 11
2620.586842914443
 21
1070.510554879335
 31
0.0
  0
LINE
  5
99
330
26
100
AcDbEntity
  8
0
 62
     0
100
AcDbLine
 10
2619.758415789696
 20
1068.510554879335
 30
0.0
 11
2617.758415789696
 21
1070.510554879335
 31
0.0
  0
LINE
  5
9A
330
26
100
AcDbEntity
  8
0
 62
     0
100
AcDbLine
 10
2616.92998866495
 20
1068.510554879335
 30
0.0
 11
2616.716426167625
 21
1068.72411737666
 31
0.0
  0
LINE
  5
9B
330
26
100
AcDbEntity
  8
0
 62
     0
100
AcDbLine
 10
2676.32695828462
 20
1068.510554879335
 30
0.0
 11
2674.32695828462
 21
1070.510554879335
 31
0.0
  0
LINE
  5
9C
330
26
100
AcDbEntity
  8
0
 62
     0
100
AcDbLine
 10
2679.155385409366
 20
1068.510554879335
 30
0.0
 11
2677.155385409367
 21
1070.510554879335
 31
0.0
  0
LINE
  5
9D
330
26
100
AcDbEntity
  8
0
 62
     0
100
AcDbLine
 10
2681.983812534113
 20
1068.510554879335
 30
0.0
 11
2679.983812534113
 21
1070.510554879335
 31
0.0
  0
LINE
  5
9E
330
26
100
AcDbEntity
  8
0
 62
     0
100
AcDbLine
 10
2684.812239658859
 20
1068.510554879335
 30
0.0
 11
2682.812239658859
 21
1070.510554879335
 31
0.0
  0
LINE
  5
9F
330
26
100
AcDbEntity
  8
0
 62
     0
100
AcDbLine
 10
2687.640666783605
 20
1068.510554879335
 30
0.0
 11
2685.640666783605
 21
1070.510554879335
 31
0.0
  0
LINE
  5
A0
330
26
100
AcDbEntity
  8
0
 62
     0
100
AcDbLine
 10
2690.469093908351
 20
1068.510554879335
 30
0.0
 11
2688.469093908351
 21
1070.510554879335
 31
0.0
  0
LINE
  5
A1
330
26
100
AcDbEntity
  8
0
 62
     0
100
AcDbLine
 10
2693.297521033097
 20
1068.510554879335
 30
0.0
 11
2691.297521033098
 21
1070.510554879335
 31
0.0
  0
LINE
  5
A2
330
26
100
AcDbEntity
  8
0
 62
     0
100
AcDbLine
 10
2696.125948157844
 20
1068.510554879335
 30
0.0
 11
2694.125948157844
 21
1070.510554879335
 31
0.0
  0
LINE
  5
A3
330
26
100
AcDbEntity
  8
0
 62
     0
100
AcDbLine
 10
2698.95437528259
 20
1068.510554879335
 30
0.0
 11
2696.95437528259
 21
1070.510554879335
 31
0.0
  0
LINE
  5
A4
330
26
100
AcDbEntity
  8
0
 62
     0
100
AcDbLine
 10
2701.782802407336
 20
1068.510554879335
 30
0.0
 11
2699.782802407336
 21
1070.510554879335
 31
0.0
  0
LINE
  5
A5
330
26
100
AcDbEntity
  8
0
 62
     0
100
AcDbLine
 10
2704.611229532082
 20
1068.510554879335
 30
0.0
 11
2702.611229532082
 21
1070.510554879335
 31
0.0
  0
LINE
  5
A6
330
26
100
AcDbEntity
  8
0
 62
     0
100
AcDbLine
 10
2707.439656656828
 20
1068.510554879335
 30
0.0
 11
2705.439656656828
 21
1070.510554879335
 31
0.0
  0
LINE
  5
A7
330
26
100
AcDbEntity
  8
0
 62
     0
100
AcDbLine
 10
2710.268083781575
 20
1068.510554879335
 30
0.0
 11
2708.268083781574
 21
1070.510554879335
 31
0.0
  0
LINE
  5
A8
330
26
100
AcDbEntity
  8
0
 62
     0
100
AcDbLine
 10
2713.09651090632
 20
1068.510554879335
 30
0.0
 11
2711.096510906321
 21
1070.510554879335
 31
0.0
  0
LINE
  5
A9
330
26
100
AcDbEntity
  8
0
 62
     0
100
AcDbLine
 10
2715.924938031067
 20
1068.510554879335
 30
0.0
 11
2713.924938031067
 21
1070.510554879335
 31
0.0
  0
LINE
  5
AA
330
26
100
AcDbEntity
  8
0
 62
     0
100
AcDbLine
 10
2718.753365155813
 20
1068.510554879335
 30
0.0
 11
2716.753365155813
 21
1070.510554879335
 31
0.0
  0
LINE
  5
AB
330
26
100
AcDbEntity
  8
0
 62
     0
100
AcDbLine
 10
2721.581792280559
 20
1068.510554879335
 30
0.0
 11
2719.581792280559
 21
1070.510554879335
 31
0.0
  0
LINE
  5
AC
330
26
100
AcDbEntity
  8
0
 62
     0
100
AcDbLine
 10
2724.410219405305
 20
1068.510554879335
 30
0.0
 11
2722.410219405305
 21
1070.510554879335
 31
0.0
  0
LINE
  5
AD
330
26
100
AcDbEntity
  8
0
 62
     0
100
AcDbLine
 10
2727.238646530051
 20
1068.510554879335
 30
0.0
 11
2725.238646530052
 21
1070.510554879335
 31
0.0
  0
LINE
  5
AE
330
26
100
AcDbEntity
  8
0
 62
     0
100
AcDbLine
 10
2730.067073654798
 20
1068.510554879335
 30
0.0
 11
2728.067073654798
 21
1070.510554879335
 31
0.0
  0
LINE
  5
AF
330
26
100
AcDbEntity
  8
0
 62
     0
100
AcDbLine
 10
2731.716426167625
 20
1069.689629491254
 30
0.0
 11
2730.895500779544
 21
1070.510554879335
 31
0.0
  0
ENDBLK
  5
B0
330
26
100
AcDbEntity
  8
0
100
AcDbBlockEnd
  0
BLOCK
  5
B1
330
27
100
AcDbEntity
  8
0
100
AcDbBlockBegin
  2
*X3
 70
     1
 10
0.0
 20
0.0
 30
0.0
  3
*X3
  1

  0
LINE
  5
B2
330
27
100
AcDbEntity
  8
0
 62
     0
100
AcDbLine
 10
2966.507170980485
 20
1225.221827893368
 30
0.0
 11
2964.507170980485
 21
1227.221827893368
 31
0.0
  0
LINE
  5
B3
330
27
100
AcDbEntity
  8
0
 62
     0
100
AcDbLine
 10
2966.507170980485
 20
1222.393400768622
 30
0.0
 11
2964.507170980485
 21
1224.393400768622
 31
0.0
  0
LINE
  5
B4
330
27
100
AcDbEntity
  8
0
 62
     0
100
AcDbLine
 10
2966.507170980485
 20
1219.564973643876
 30
0.0
 11
2964.507170980485
 21
1221.564973643876
 31
0.0
  0
LINE
  5
B5
330
27
100
AcDbEntity
  8
0
 62
     0
100
AcDbLine
 10
2966.507170980485
 20
1216.736546519129
 30
0.0
 11
2964.507170980485
 21
1218.736546519129
 31
0.0
  0
LINE
  5
B6
330
27
100
AcDbEntity
  8
0
 62
     0
100
AcDbLine
 10
2966.507170980485
 20
1213.908119394383
 30
0.0
 11
2964.507170980485
 21
1215.908119394383
 31
0.0
  0
LINE
  5
B7
330
27
100
AcDbEntity
  8
0
 62
     0
100
AcDbLine
 10
2966.507170980485
 20
1211.079692269637
 30
0.0
 11
2964.507170980485
 21
1213.079692269637
 31
0.0
  0
LINE
  5
B8
330
27
100
AcDbEntity
  8
0
 62
     0
100
AcDbLine
 10
2966.507170980485
 20
1208.251265144891
 30
0.0
 11
2964.507170980485
 21
1210.251265144891
 31
0.0
  0
LINE
  5
B9
330
27
100
AcDbEntity
  8
0
 62
     0
100
AcDbLine
 10
2966.507170980485
 20
1205.422838020145
 30
0.0
 11
2964.507170980485
 21
1207.422838020145
 31
0.0
  0
LINE
  5
BA
330
27
100
AcDbEntity
  8
0
 62
     0
100
AcDbLine
 10
2966.507170980485
 20
1202.594410895399
 30
0.0
 11
2964.507170980485
 21
1204.594410895399
 31
0.0
  0
LINE
  5
BB
330
27
100
AcDbEntity
  8
0
 62
     0
100
AcDbLine
 10
2966.507170980485
 20
1199.765983770652
 30
0.0
 11
2964.507170980485
 21
1201.765983770652
 31
0.0
  0
LINE
  5
BC
330
27
100
AcDbEntity
  8
0
 62
     0
100
AcDbLine
 10
2966.507170980485
 20
1196.937556645906
 30
0.0
 11
2964.507170980485
 21
1198.937556645906
 31
0.0
  0
LINE
  5
BD
330
27
100
AcDbEntity
  8
0
 62
     0
100
AcDbLine
 10
2966.507170980485
 20
1194.10912952116
 30
0.0
 11
2964.507170980485
 21
1196.10912952116
 31
0.0
  0
LINE
  5
BE
330
27
100
AcDbEntity
  8
0
 62
     0
100
AcDbLine
 10
2966.507170980485
 20
1191.280702396414
 30
0.0
 11
2964.507170980485
 21
1193.280702396414
 31
0.0
  0
LINE
  5
BF
330
27
100
AcDbEntity
  8
0
 62
     0
100
AcDbLine
 10
2966.507170980485
 20
1188.452275271668
 30
0.0
 11
2964.507170980485
 21
1190.452275271668
 31
0.0
  0
LINE
  5
C0
330
27
100
AcDbEntity
  8
0
 62
     0
100
AcDbLine
 10
2966.507170980485
 20
1185.623848146922
 30
0.0
 11
2964.507170980485
 21
1187.623848146921
 31
0.0
  0
LINE
  5
C1
330
27
100
AcDbEntity
  8
0
 62
     0
100
AcDbLine
 10
2966.507170980485
 20
1182.795421022175
 30
0.0
 11
2964.507170980485
 21
1184.795421022175
 31
0.0
  0
LINE
  5
C2
330
27
100
AcDbEntity
  8
0
 62
     0
100
AcDbLine
 10
2966.507170980485
 20
1179.966993897429
 30
0.0
 11
2964.507170980485
 21
1181.966993897429
 31
0.0
  0
LINE
  5
C3
330
27
100
AcDbEntity
  8
0
 62
     0
100
AcDbLine
 10
2966.507170980485
 20
1177.138566772683
 30
0.0
 11
2964.507170980485
 21
1179.138566772683
 31
0.0
  0
LINE
  5
C4
330
27
100
AcDbEntity
  8
0
 62
     0
100
AcDbLine
 10
2966.507170980485
 20
1174.310139647937
 30
0.0
 11
2964.507170980485
 21
1176.310139647937
 31
0.0
  0
LINE
  5
C5
330
27
100
AcDbEntity
  8
0
 62
     0
100
AcDbLine
 10
2966.507170980485
 20
1171.48171252319
 30
0.0
 11
2964.507170980485
 21
1173.481712523191
 31
0.0
  0
LINE
  5
C6
330
27
100
AcDbEntity
  8
0
 62
     0
100
AcDbLine
 10
2964.649901499594
 20
1170.510554879335
 30
0.0
 11
2964.507170980485
 21
1170.653285398445
 31
0.0
  0
LINE
  5
C7
330
27
100
AcDbEntity
  8
0
 62
     0
100
AcDbLine
 10
2966.507170980485
 20
1228.050255018114
 30
0.0
 11
2964.507170980485
 21
1230.050255018114
 31
0.0
  0
LINE
  5
C8
330
27
100
AcDbEntity
  8
0
 62
     0
100
AcDbLine
 10
2966.507170980485
 20
1230.87868214286
 30
0.0
 11
2964.507170980485
 21
1232.878682142861
 31
0.0
  0
LINE
  5
C9
330
27
100
AcDbEntity
  8
0
 62
     0
100
AcDbLine
 10
2966.507170980485
 20
1233.707109267607
 30
0.0
 11
2964.507170980485
 21
1235.707109267607
 31
0.0
  0
LINE
  5
CA
330
27
100
AcDbEntity
  8
0
 62
     0
100
AcDbLine
 10
2966.507170980485
 20
1236.535536392353
 30
0.0
 11
2964.507170980485
 21
1238.535536392353
 31
0.0
  0
LINE
  5
CB
330
27
100
AcDbEntity
  8
0
 62
     0
100
AcDbLine
 10
2966.507170980485
 20
1239.363963517099
 30
0.0
 11
2964.507170980485
 21
1241.363963517099
 31
0.0
  0
LINE
  5
CC
330
27
100
AcDbEntity
  8
0
 62
     0
100
AcDbLine
 10
2966.507170980485
 20
1242.192390641845
 30
0.0
 11
2964.507170980485
 21
1244.192390641845
 31
0.0
  0
LINE
  5
CD
330
27
100
AcDbEntity
  8
0
 62
     0
100
AcDbLine
 10
2966.507170980485
 20
1245.020817766591
 30
0.0
 11
2964.507170980485
 21
1247.020817766591
 31
0.0
  0
LINE
  5
CE
330
27
100
AcDbEntity
  8
0
 62
     0
100
AcDbLine
 10
2966.507170980485
 20
1247.849244891337
 30
0.0
 11
2964.507170980485
 21
1249.849244891337
 31
0.0
  0
LINE
  5
CF
330
27
100
AcDbEntity
  8
0
 62
     0
100
AcDbLine
 10
2966.507170980485
 20
1250.677672016084
 30
0.0
 11
2964.507170980485
 21
1252.677672016084
 31
0.0
  0
LINE
  5
D0
330
27
100
AcDbEntity
  8
0
 62
     0
100
AcDbLine
 10
2966.507170980485
 20
1253.50609914083
 30
0.0
 11
2964.507170980485
 21
1255.50609914083
 31
0.0
  0
LINE
  5
D1
330
27
100
AcDbEntity
  8
0
 62
     0
100
AcDbLine
 10
2966.507170980485
 20
1256.334526265576
 30
0.0
 11
2964.507170980485
 21
1258.334526265576
 31
0.0
  0
LINE
  5
D2
330
27
100
AcDbEntity
  8
0
 62
     0
100
AcDbLine
 10
2966.507170980485
 20
1259.162953390322
 30
0.0
 11
2964.507170980485
 21
1261.162953390322
 31
0.0
  0
LINE
  5
D3
330
27
100
AcDbEntity
  8
0
 62
     0
100
AcDbLine
 10
2966.507170980485
 20
1261.991380515068
 30
0.0
 11
2964.507170980485
 21
1263.991380515068
 31
0.0
  0
LINE
  5
D4
330
27
100
AcDbEntity
  8
0
 62
     0
100
AcDbLine
 10
2966.507170980485
 20
1264.819807639815
 30
0.0
 11
2964.507170980485
 21
1266.819807639814
 31
0.0
  0
LINE
  5
D5
330
27
100
AcDbEntity
  8
0
 62
     0
100
AcDbLine
 10
2966.507170980485
 20
1267.648234764561
 30
0.0
 11
2964.507170980485
 21
1269.648234764561
 31
0.0
  0
LINE
  5
D6
330
27
100
AcDbEntity
  8
0
 62
     0
100
AcDbLine
 10
2966.507170980485
 20
1270.476661889307
 30
0.0
 11
2964.507170980485
 21
1272.476661889307
 31
0.0
  0
LINE
  5
D7
330
27
100
AcDbEntity
  8
0
 62
     0
100
AcDbLine
 10
2966.507170980485
 20
1273.305089014053
 30
0.0
 11
2964.507170980485
 21
1275.305089014053
 31
0.0
  0
LINE
  5
D8
330
27
100
AcDbEntity
  8
0
 62
     0
100
AcDbLine
 10
2966.507170980485
 20
1276.133516138799
 30
0.0
 11
2964.507170980485
 21
1278.133516138799
 31
0.0
  0
LINE
  5
D9
330
27
100
AcDbEntity
  8
0
 62
     0
100
AcDbLine
 10
2966.507170980485
 20
1278.961943263545
 30
0.0
 11
2964.507170980485
 21
1280.961943263546
 31
0.0
  0
LINE
  5
DA
330
27
100
AcDbEntity
  8
0
 62
     0
100
AcDbLine
 10
2966.507170980486
 20
1281.790370388292
 30
0.0
 11
2964.507170980486
 21
1283.790370388292
 31
0.0
  0
LINE
  5
DB
330
27
100
AcDbEntity
  8
0
 62
     0
100
AcDbLine
 10
2966.507170980486
 20
1284.618797513038
 30
0.0
 11
2965.615413614188
 21
1285.510554879335
 31
0.0
  0
ENDBLK
  5
DC
330
27
100
AcDbEntity
  8
0
100
AcDbBlockEnd
  0
BLOCK
  5
DD
330
28
100
AcDbEntity
  8
0
100
AcDbBlockBegin
  2
*X4
 70
     1
 10
0.0
 20
0.0
 30
0.0
  3
*X4
  1

  0
LINE
  5
DE
330
28
100
AcDbEntity
  8
0
 62
     0
100
AcDbLine
 10
2729.682870864236
 20
1064.510695626541
 30
0.0
 11
2725.71656691483
 21
1068.476999575946
 31
0.0
  0
LINE
  5
DF
330
28
100
AcDbEntity
  8
0
 62
     0
100
AcDbLine
 10
2729.537590480107
 20
1064.514554654433
 30
0.0
 11
2725.720425942722
 21
1068.331719191817
 31
0.0
  0
LINE
  5
E0
330
28
100
AcDbEntity
  8
0
 62
     0
100
AcDbLine
 10
2729.386542811689
 20
1064.524180966614
 30
0.0
 11
2725.730052254903
 21
1068.180671523399
 31
0.0
  0
LINE
  5
E1
330
28
100
AcDbEntity
  8
0
 62
     0
100
AcDbLine
 10
2729.228929819548
 20
1064.540372602517
 30
0.0
 11
2725.746243890807
 21
1068.023058531258
 31
0.0
  0
LINE
  5
E2
330
28
100
AcDbEntity
  8
0
 62
     0
100
AcDbLine
 10
2729.06371248986
 20
1064.564168575967
 30
0.0
 11
2725.770039864257
 21
1067.85784120157
 31
0.0
  0
LINE
  5
E3
330
28
100
AcDbEntity
  8
0
 62
     0
100
AcDbLine
 10
2728.889494486149
 20
1064.596965223441
 30
0.0
 11
2725.802836511731
 21
1067.683623197859
 31
0.0
  0
LINE
  5
E4
330
28
100
AcDbEntity
  8
0
 62
     0
100
AcDbLine
 10
2728.704321114202
 20
1064.640717239151
 30
0.0
 11
2725.846588527441
 21
1067.498449825912
 31
0.0
  0
LINE
  5
E5
330
28
100
AcDbEntity
  8
0
 62
     0
100
AcDbLine
 10
2728.50530302486
 20
1064.698313972256
 30
0.0
 11
2725.904185260546
 21
1067.29943173657
 31
0.0
  0
LINE
  5
E6
330
28
100
AcDbEntity
  8
0
 62
     0
100
AcDbLine
 10
2728.287830642409
 20
1064.774364998469
 30
0.0
 11
2725.980236286759
 21
1067.081959354119
 31
0.0
  0
LINE
  5
E7
330
28
100
AcDbEntity
  8
0
 62
     0
100
AcDbLine
 10
2728.043650511848
 20
1064.877123772792
 30
0.0
 11
2726.082995061082
 21
1066.837779223558
 31
0.0
  0
LINE
  5
E8
330
28
100
AcDbEntity
  8
0
 62
     0
100
AcDbLine
 10
2727.754738719057
 20
1065.024614209346
 30
0.0
 11
2726.230485497636
 21
1066.548867430767
 31
0.0
  0
LINE
  5
E9
330
28
100
AcDbEntity
  8
0
 62
     0
100
AcDbLine
 10
2727.358515095099
 20
1065.279416477067
 30
0.0
 11
2726.485287765357
 21
1066.152643806809
 31
0.0
  0
LINE
  5
EA
330
28
100
AcDbEntity
  8
0
 62
     0
100
AcDbLine
 10
2729.716426167625
 20
1064.618561679389
 30
0.0
 11
2725.824432967678
 21
1068.510554879335
 31
0.0
  0
LINE
  5
EB
330
28
100
AcDbEntity
  8
0
 62
     0
100
AcDbLine
 10
2729.716426167625
 20
1064.759983035626
 30
0.0
 11
2725.965854323916
 21
1068.510554879335
 31
0.0
  0
LINE
  5
EC
330
28
100
AcDbEntity
  8
0
 62
     0
100
AcDbLine
 10
2729.716426167625
 20
1064.901404391864
 30
0.0
 11
2726.107275680153
 21
1068.510554879335
 31
0.0
  0
LINE
  5
ED
330
28
100
AcDbEntity
  8
0
 62
     0
100
AcDbLine
 10
2729.716426167625
 20
1065.042825748101
 30
0.0
 11
2726.248697036391
 21
1068.510554879335
 31
0.0
  0
LINE
  5
EE
330
28
100
AcDbEntity
  8
0
 62
     0
100
AcDbLine
 10
2729.716426167625
 20
1065.184247104338
 30
0.0
 11
2726.390118392628
 21
1068.510554879335
 31
0.0
  0
LINE
  5
EF
330
28
100
AcDbEntity
  8
0
 62
     0
100
AcDbLine
 10
2729.716426167625
 20
1065.325668460575
 30
0.0
 11
2726.531539748865
 21
1068.510554879335
 31
0.0
  0
LINE
  5
F0
330
28
100
AcDbEntity
  8
0
 62
     0
100
AcDbLine
 10
2729.716426167625
 20
1065.467089816813
 30
0.0
 11
2726.672961105103
 21
1068.510554879335
 31
0.0
  0
LINE
  5
F1
330
28
100
AcDbEntity
  8
0
 62
     0
100
AcDbLine
 10
2729.716426167625
 20
1065.60851117305
 30
0.0
 11
2726.81438246134
 21
1068.510554879335
 31
0.0
  0
LINE
  5
F2
330
28
100
AcDbEntity
  8
0
 62
     0
100
AcDbLine
 10
2729.716426167625
 20
1065.749932529287
 30
0.0
 11
2726.955803817577
 21
1068.510554879335
 31
0.0
  0
LINE
  5
F3
330
28
100
AcDbEntity
  8
0
 62
     0
100
AcDbLine
 10
2729.716426167625
 20
1065.891353885525
 30
0.0
 11
2727.097225173814
 21
1068.510554879335
 31
0.0
  0
LINE
  5
F4
330
28
100
AcDbEntity
  8
0
 62
     0
100
AcDbLine
 10
2729.716426167625
 20
1066.032775241762
 30
0.0
 11
2727.238646530051
 21
1068.510554879335
 31
0.0
  0
LINE
  5
F5
330
28
100
AcDbEntity
  8
0
 62
     0
100
AcDbLine
 10
2729.716426167625
 20
1066.174196598
 30
0.0
 11
2727.38006788629
 21
1068.510554879335
 31
0.0
  0
LINE
  5
F6
330
28
100
AcDbEntity
  8
0
 62
     0
100
AcDbLine
 10
2729.716426167625
 20
1066.315617954237
 30
0.0
 11
2727.521489242527
 21
1068.510554879335
 31
0.0
  0
LINE
  5
F7
330
28
100
AcDbEntity
  8
0
 62
     0
100
AcDbLine
 10
2729.716426167625
 20
1066.457039310474
 30
0.0
 11
2727.662910598764
 21
1068.510554879335
 31
0.0
  0
LINE
  5
F8
330
28
100
AcDbEntity
  8
0
 62
     0
100
AcDbLine
 10
2729.716426167625
 20
1066.598460666711
 30
0.0
 11
2727.804331955001
 21
1068.510554879335
 31
0.0
  0
LINE
  5
F9
330
28
100
AcDbEntity
  8
0
 62
     0
100
AcDbLine
 10
2729.716426167625
 20
1066.739882022948
 30
0.0
 11
2727.945753311238
 21
1068.510554879335
 31
0.0
  0
LINE
  5
FA
330
28
100
AcDbEntity
  8
0
 62
     0
100
AcDbLine
 10
2729.716426167625
 20
1066.881303379186
 30
0.0
 11
2728.087174667476
 21
1068.510554879335
 31
0.0
  0
LINE
  5
FB
330
28
100
AcDbEntity
  8
0
 62
     0
100
AcDbLine
 10
2729.716426167625
 20
1067.022724735423
 30
0.0
 11
2728.228596023714
 21
1068.510554879335
 31
0.0
  0
LINE
  5
FC
330
28
100
AcDbEntity
  8
0
 62
     0
100
AcDbLine
 10
2729.716426167625
 20
1067.16414609166
 30
0.0
 11
2728.37001737995
 21
1068.510554879335
 31
0.0
  0
LINE
  5
FD
330
28
100
AcDbEntity
  8
0
 62
     0
100
AcDbLine
 10
2729.716426167625
 20
1067.305567447898
 30
0.0
 11
2728.511438736187
 21
1068.510554879335
 31
0.0
  0
LINE
  5
FE
330
28
100
AcDbEntity
  8
0
 62
     0
100
AcDbLine
 10
2729.716426167625
 20
1067.446988804135
 30
0.0
 11
2728.652860092424
 21
1068.510554879335
 31
0.0
  0
LINE
  5
FF
330
28
100
AcDbEntity
  8
0
 62
     0
100
AcDbLine
 10
2729.716426167625
 20
1067.588410160372
 30
0.0
 11
2728.794281448662
 21
1068.510554879335
 31
0.0
  0
LINE
  5
100
330
28
100
AcDbEntity
  8
0
 62
     0
100
AcDbLine
 10
2729.716426167625
 20
1067.72983151661
 30
0.0
 11
2728.935702804899
 21
1068.510554879335
 31
0.0
  0
LINE
  5
101
330
28
100
AcDbEntity
  8
0
 62
     0
100
AcDbLine
 10
2729.716426167625
 20
1067.871252872847
 30
0.0
 11
2729.077124161137
 21
1068.510554879335
 31
0.0
  0
LINE
  5
102
330
28
100
AcDbEntity
  8
0
 62
     0
100
AcDbLine
 10
2729.716426167625
 20
1068.012674229084
 30
0.0
 11
2729.218545517374
 21
1068.510554879335
 31
0.0
  0
LINE
  5
103
330
28
100
AcDbEntity
  8
0
 62
     0
100
AcDbLine
 10
2729.716426167625
 20
1068.154095585321
 30
0.0
 11
2729.359966873611
 21
1068.510554879335
 31
0.0
  0
LINE
  5
104
330
28
100
AcDbEntity
  8
0
 62
     0
100
AcDbLine
 10
2729.716426167625
 20
1068.295516941559
 30
0.0
 11
2729.501388229849
 21
1068.510554879335
 31
0.0
  0
LINE
  5
105
330
28
100
AcDbEntity
  8
0
 62
     0
100
AcDbLine
 10
2729.716426167625
 20
1068.436938297796
 30
0.0
 11
2729.642809586086
 21
1068.510554879335
 31
0.0
  0
ENDBLK
  5
106
330
28
100
AcDbEntity
  8
0
100
AcDbBlockEnd
  0
BLOCK
  5
107
330
29
100
AcDbEntity
  8
0
100
AcDbBlockBegin
  2
*X5
 70
     1
 10
0.0
 20
0.0
 30
0.0
  3
*X5
  1

  0
LINE
  5
108
330
29
100
AcDbEntity
  8
0
 62
     0
100
AcDbLine
 10
1827.396051104738
 20
1043.497473481331
 30
0.0
 11
1830.203014426632
 21
1046.304436803225
 31
0.0
  0
LINE
  5
109
330
29
100
AcDbEntity
  8
0
 62
     0
100
AcDbLine
 10
1827.326759280865
 20
1043.569603013696
 30
0.0
 11
1830.061593070395
 21
1046.304436803225
 31
0.0
  0
LINE
  5
10A
330
29
100
AcDbEntity
  8
0
 62
     0
100
AcDbLine
 10
1827.25923831734
 20
1043.643503406408
 30
0.0
 11
1829.920171714157
 21
1046.304436803225
 31
0.0
  0
LINE
  5
10B
330
29
100
AcDbEntity
  8
0
 62
     0
100
AcDbLine
 10
1827.193494225861
 20
1043.719180671166
 30
0.0
 11
1829.77875035792
 21
1046.304436803225
 31
0.0
  0
LINE
  5
10C
330
29
100
AcDbEntity
  8
0
 62
     0
100
AcDbLine
 10
1827.129536421345
 20
1043.796644222888
 30
0.0
 11
1829.637329001683
 21
1046.304436803225
 31
0.0
  0
LINE
  5
10D
330
29
100
AcDbEntity
  8
0
 62
     0
100
AcDbLine
 10
1827.067377811967
 20
1043.875906969747
 30
0.0
 11
1829.495907645446
 21
1046.304436803225
 31
0.0
  0
LINE
  5
10E
330
29
100
AcDbEntity
  8
0
 62
     0
100
AcDbLine
 10
1827.007034924314
 20
1043.956985438331
 30
0.0
 11
1829.354486289208
 21
1046.304436803225
 31
0.0
  0
LINE
  5
10F
330
29
100
AcDbEntity
  8
0
 62
     0
100
AcDbLine
 10
1826.948528066548
 20
1044.039899936802
 30
0.0
 11
1829.213064932971
 21
1046.304436803225
 31
0.0
  0
LINE
  5
110
330
29
100
AcDbEntity
  8
0
 62
     0
100
AcDbLine
 10
1826.891881533415
 20
1044.124674759907
 30
0.0
 11
1829.071643576734
 21
1046.304436803225
 31
0.0
  0
LINE
  5
111
330
29
100
AcDbEntity
  8
0
 62
     0
100
AcDbLine
 10
1826.837123858073
 20
1044.211338440802
 30
0.0
 11
1828.930222220497
 21
1046.304436803225
 31
0.0
  0
LINE
  5
112
330
29
100
AcDbEntity
  8
0
 62
     0
100
AcDbLine
 10
1826.784288117079
 20
1044.299924056045
 30
0.0
 11
1828.788800864259
 21
1046.304436803225
 31
0.0
  0
LINE
  5
113
330
29
100
AcDbEntity
  8
0
 62
     0
100
AcDbLine
 10
1826.733412296528
 20
1044.390469591732
 30
0.0
 11
1828.647379508021
 21
1046.304436803225
 31
0.0
  0
LINE
  5
114
330
29
100
AcDbEntity
  8
0
 62
     0
100
AcDbLine
 10
1826.684539729386
 20
1044.483018380828
 30
0.0
 11
1828.505958151784
 21
1046.304436803225
 31
0.0
  0
LINE
  5
115
330
29
100
AcDbEntity
  8
0
 62
     0
100
AcDbLine
 10
1826.63771961663
 20
1044.577619624308
 30
0.0
 11
1828.364536795547
 21
1046.304436803225
 31
0.0
  0
LINE
  5
116
330
29
100
AcDbEntity
  8
0
 62
     0
100
AcDbLine
 10
1826.593007648079
 20
1044.674329011995
 30
0.0
 11
1828.22311543931
 21
1046.304436803225
 31
0.0
  0
LINE
  5
117
330
29
100
AcDbEntity
  8
0
 62
     0
100
AcDbLine
 10
1826.550466743018
 20
1044.773209463171
 30
0.0
 11
1828.081694083072
 21
1046.304436803225
 31
0.0
  0
LINE
  5
118
330
29
100
AcDbEntity
  8
0
 62
     0
100
AcDbLine
 10
1826.510167936143
 20
1044.874332012533
 30
0.0
 11
1827.940272726835
 21
1046.304436803225
 31
0.0
  0
LINE
  5
119
330
29
100
AcDbEntity
  8
0
 62
     0
100
AcDbLine
 10
1826.472191441572
 20
1044.9777768742
 30
0.0
 11
1827.798851370598
 21
1046.304436803225
 31
0.0
  0
LINE
  5
11A
330
29
100
AcDbEntity
  8
0
 62
     0
100
AcDbLine
 10
1826.436627937217
 20
1045.083634726082
 30
0.0
 11
1827.657430014361
 21
1046.304436803225
 31
0.0
  0
LINE
  5
11B
330
29
100
AcDbEntity
  8
0
 62
     0
100
AcDbLine
 10
1826.403580124649
 20
1045.192008269751
 30
0.0
 11
1827.516008658123
 21
1046.304436803225
 31
0.0
  0
LINE
  5
11C
330
29
100
AcDbEntity
  8
0
 62
     0
100
AcDbLine
 10
1826.373164637207
 20
1045.303014138547
 30
0.0
 11
1827.374587301886
 21
1046.304436803225
 31
0.0
  0
LINE
  5
11D
330
29
100
AcDbEntity
  8
0
 62
     0
100
AcDbLine
 10
1826.345514393343
 20
1045.41678525092
 30
0.0
 11
1827.233165945649
 21
1046.304436803225
 31
0.0
  0
LINE
  5
11E
330
29
100
AcDbEntity
  8
0
 62
     0
100
AcDbLine
 10
1826.320781526402
 20
1045.533473740216
 30
0.0
 11
1827.091744589411
 21
1046.304436803225
 31
0.0
  0
LINE
  5
11F
330
29
100
AcDbEntity
  8
0
 62
     0
100
AcDbLine
 10
1826.2991410708
 20
1045.653254640851
 30
0.0
 11
1826.950323233174
 21
1046.304436803225
 31
0.0
  0
LINE
  5
120
330
29
100
AcDbEntity
  8
0
 62
     0
100
AcDbLine
 10
1826.2807956556
 20
1045.776330581889
 30
0.0
 11
1826.808901876936
 21
1046.304436803225
 31
0.0
  0
LINE
  5
121
330
29
100
AcDbEntity
  8
0
 62
     0
100
AcDbLine
 10
1826.265981561964
 20
1045.90293784449
 30
0.0
 11
1826.667480520699
 21
1046.304436803225
 31
0.0
  0
LINE
  5
122
330
29
100
AcDbEntity
  8
0
 62
     0
100
AcDbLine
 10
1826.254976661144
 20
1046.033354299908
 30
0.0
 11
1826.526059164462
 21
1046.304436803225
 31
0.0
  0
LINE
  5
123
330
29
100
AcDbEntity
  8
0
 62
     0
100
AcDbLine
 10
1826.2481109994
 20
1046.167909994401
 30
0.0
 11
1826.384637808225
 21
1046.304436803225
 31
0.0
  0
LINE
  5
124
330
29
100
AcDbEntity
  8
0
 62
     0
100
AcDbLine
 10
1827.539939993051
 20
1043.35851965717
 30
0.0
 11
1830.245780374176
 21
1046.064360038294
 31
0.0
  0
LINE
  5
125
330
29
100
AcDbEntity
  8
0
 62
     0
100
AcDbLine
 10
1827.614541696363
 20
1043.291700004245
 30
0.0
 11
1830.245780374176
 21
1045.922938682057
 31
0.0
  0
LINE
  5
126
330
29
100
AcDbEntity
  8
0
 62
     0
100
AcDbLine
 10
1827.690923581519
 20
1043.226660533163
 30
0.0
 11
1830.245780374176
 21
1045.78151732582
 31
0.0
  0
LINE
  5
127
330
29
100
AcDbEntity
  8
0
 62
     0
100
AcDbLine
 10
1827.769096431305
 20
1043.163412026712
 30
0.0
 11
1830.245780374176
 21
1045.640095969583
 31
0.0
  0
LINE
  5
128
330
29
100
AcDbEntity
  8
0
 62
     0
100
AcDbLine
 10
1827.84907456689
 20
1043.10196880606
 30
0.0
 11
1830.245780374176
 21
1045.498674613345
 31
0.0
  0
LINE
  5
129
330
29
100
AcDbEntity
  8
0
 62
     0
100
AcDbLine
 10
1827.930875987606
 20
1043.042348870538
 30
0.0
 11
1830.245780374176
 21
1045.357253257108
 31
0.0
  0
LINE
  5
12A
330
29
100
AcDbEntity
  8
0
 62
     0
100
AcDbLine
 10
1828.014522550127
 20
1042.984574076821
 30
0.0
 11
1830.245780374176
 21
1045.215831900871
 31
0.0
  0
LINE
  5
12B
330
29
100
AcDbEntity
  8
0
 62
     0
100
AcDbLine
 10
1828.100040191318
 20
1042.928670361776
 30
0.0
 11
1830.245780374176
 21
1045.074410544633
 31
0.0
  0
LINE
  5
12C
330
29
100
AcDbEntity
  8
0
 62
     0
100
AcDbLine
 10
1828.187459200232
 20
1042.874668014452
 30
0.0
 11
1830.245780374176
 21
1044.932989188396
 31
0.0
  0
LINE
  5
12D
330
29
100
AcDbEntity
  8
0
 62
     0
100
AcDbLine
 10
1828.276814546201
 20
1042.822602004184
 30
0.0
 11
1830.245780374176
 21
1044.791567832159
 31
0.0
  0
LINE
  5
12E
330
29
100
AcDbEntity
  8
0
 62
     0
100
AcDbLine
 10
1828.368146271784
 20
1042.77251237353
 30
0.0
 11
1830.245780374176
 21
1044.650146475921
 31
0.0
  0
LINE
  5
12F
330
29
100
AcDbEntity
  8
0
 62
     0
100
AcDbLine
 10
1828.461499961546
 20
1042.724444707054
 30
0.0
 11
1830.245780374176
 21
1044.508725119684
 31
0.0
  0
LINE
  5
130
330
29
100
AcDbEntity
  8
0
 62
     0
100
AcDbLine
 10
1828.556927300489
 20
1042.67845068976
 30
0.0
 11
1830.245780374176
 21
1044.367303763447
 31
0.0
  0
LINE
  5
131
330
29
100
AcDbEntity
  8
0
 62
     0
100
AcDbLine
 10
1828.654486739555
 20
1042.634588772589
 30
0.0
 11
1830.245780374176
 21
1044.225882407209
 31
0.0
  0
LINE
  5
132
330
29
100
AcDbEntity
  8
0
 62
     0
100
AcDbLine
 10
1828.754244290269
 20
1042.592924967066
 30
0.0
 11
1830.245780374176
 21
1044.084461050972
 31
0.0
  0
LINE
  5
133
330
29
100
AcDbEntity
  8
0
 62
     0
100
AcDbLine
 10
1828.856274476675
 20
1042.553533797234
 30
0.0
 11
1830.245780374176
 21
1043.943039694735
 31
0.0
  0
LINE
  5
134
330
29
100
AcDbEntity
  8
0
 62
     0
100
AcDbLine
 10
1828.960661480749
 20
1042.516499445071
 30
0.0
 11
1830.245780374176
 21
1043.801618338497
 31
0.0
  0
LINE
  5
135
330
29
100
AcDbEntity
  8
0
 62
     0
100
AcDbLine
 10
1829.067500528203
 20
1042.481917136288
 30
0.0
 11
1830.245780374176
 21
1043.66019698226
 31
0.0
  0
LINE
  5
136
330
29
100
AcDbEntity
  8
0
 62
     0
100
AcDbLine
 10
1829.176899576113
 20
1042.44989482796
 30
0.0
 11
1830.245780374176
 21
1043.518775626023
 31
0.0
  0
LINE
  5
137
330
29
100
AcDbEntity
  8
0
 62
     0
100
AcDbLine
 10
1829.288981383745
 20
1042.420555279355
 30
0.0
 11
1830.245780374176
 21
1043.377354269785
 31
0.0
  0
LINE
  5
138
330
29
100
AcDbEntity
  8
0
 62
     0
100
AcDbLine
 10
1829.403886075718
 20
1042.39403861509
 30
0.0
 11
1830.245780374176
 21
1043.235932913548
 31
0.0
  0
LINE
  5
139
330
29
100
AcDbEntity
  8
0
 62
     0
100
AcDbLine
 10
1829.521774345844
 20
1042.37050552898
 30
0.0
 11
1830.245780374176
 21
1043.094511557311
 31
0.0
  0
LINE
  5
13A
330
29
100
AcDbEntity
  8
0
 62
     0
100
AcDbLine
 10
1829.64283150652
 20
1042.350141333418
 30
0.0
 11
1830.245780374176
 21
1042.953090201073
 31
0.0
  0
LINE
  5
13B
330
29
100
AcDbEntity
  8
0
 62
     0
100
AcDbLine
 10
1829.767272671291
 20
1042.333161141951
 30
0.0
 11
1830.245780374176
 21
1042.811668844836
 31
0.0
  0
LINE
  5
13C
330
29
100
AcDbEntity
  8
0
 62
     0
100
AcDbLine
 10
1829.895349482357
 20
1042.319816596781
 30
0.0
 11
1830.245780374176
 21
1042.670247488599
 31
0.0
  0
LINE
  5
13D
330
29
100
AcDbEntity
  8
0
 62
     0
100
AcDbLine
 10
1830.027358985039
 20
1042.310404743224
 30
0.0
 11
1830.245780374176
 21
1042.528826132362
 31
0.0
  0
ENDBLK
  5
13E
330
29
100
AcDbEntity
  8
0
100
AcDbBlockEnd
  0
BLOCK
  5
149
330
2B
100
AcDbEntity
  8
0
100
AcDbBlockBegin
  2
*X6
 70
     1
 10
0.0
 20
0.0
 30
0.0
  3
*X6
  1

  0
LINE
  5
14A
330
2B
100
AcDbEntity
  8
0
 62
     0
100
AcDbLine
 10
394.9240531869208
 20
141.4969828096622
 30
0.0
 11
397.7861557501288
 21
144.3590853728702
 31
0.0
  0
LINE
  5
14B
330
2B
100
AcDbEntity
  8
0
 62
     0
100
AcDbLine
 10
394.9918098664426
 20
141.7061608454212
 30
0.0
 11
397.7137135758378
 21
144.4280645548164
 31
0.0
  0
LINE
  5
14C
330
2B
100
AcDbEntity
  8
0
 62
     0
100
AcDbLine
 10
394.9918098664426
 20
141.8475822016586
 30
0.0
 11
397.6394997234858
 21
144.4952720587018
 31
0.0
  0
LINE
  5
14D
330
2B
100
AcDbEntity
  8
0
 62
     0
100
AcDbLine
 10
394.9918098664426
 20
141.9890035578958
 30
0.0
 11
397.5635075850537
 21
144.560701276507
 31
0.0
  0
LINE
  5
14E
330
2B
100
AcDbEntity
  8
0
 62
     0
100
AcDbLine
 10
394.9918098664426
 20
142.1304249141332
 30
0.0
 11
397.4857271358467
 21
144.6243421835372
 31
0.0
  0
LINE
  5
14F
330
2B
100
AcDbEntity
  8
0
 62
     0
100
AcDbLine
 10
394.9918098664426
 20
142.2718462703705
 30
0.0
 11
397.4061448384234
 21
144.6861812423513
 31
0.0
  0
LINE
  5
150
330
2B
100
AcDbEntity
  8
0
 62
     0
100
AcDbLine
 10
394.9918098664426
 20
142.4132676266077
 30
0.0
 11
397.3247435109567
 21
144.7462012711219
 31
0.0
  0
LINE
  5
151
330
2B
100
AcDbEntity
  8
0
 62
     0
100
AcDbLine
 10
394.9918098664426
 20
142.5546889828451
 30
0.0
 11
397.2415021569866
 21
144.8043812733891
 31
0.0
  0
LINE
  5
152
330
2B
100
AcDbEntity
  8
0
 62
     0
100
AcDbLine
 10
394.9918098664426
 20
142.6961103390824
 30
0.0
 11
397.1563957525373
 21
144.8606962251772
 31
0.0
  0
LINE
  5
153
330
2B
100
AcDbEntity
  8
0
 62
     0
100
AcDbLine
 10
394.9918098664426
 20
142.8375316953197
 30
0.0
 11
397.069394985398
 21
144.9151168142751
 31
0.0
  0
LINE
  5
154
330
2B
100
AcDbEntity
  8
0
 62
     0
100
AcDbLine
 10
394.9918098664426
 20
142.978953051557
 30
0.0
 11
396.9804659399624
 21
144.9676091250768
 31
0.0
  0
LINE
  5
155
330
2B
100
AcDbEntity
  8
0
 62
     0
100
AcDbLine
 10
394.9918098664426
 20
143.1203744077943
 30
0.0
 11
396.8895697193067
 21
145.0181342606585
 31
0.0
  0
LINE
  5
156
330
2B
100
AcDbEntity
  8
0
 62
     0
100
AcDbLine
 10
394.9918098664426
 20
143.2617957640316
 30
0.0
 11
396.7966619940483
 21
145.0666478916374
 31
0.0
  0
LINE
  5
157
330
2B
100
AcDbEntity
  8
0
 62
     0
100
AcDbLine
 10
394.9918098664426
 20
143.4032171202689
 30
0.0
 11
396.7016924648501
 21
145.1130997186765
 31
0.0
  0
LINE
  5
158
330
2B
100
AcDbEntity
  8
0
 62
     0
100
AcDbLine
 10
394.9918098664426
 20
143.5446384765062
 30
0.0
 11
396.604604222017
 21
145.1574328320807
 31
0.0
  0
LINE
  5
159
330
2B
100
AcDbEntity
  8
0
 62
     0
100
AcDbLine
 10
394.9918098664426
 20
143.6860598327436
 30
0.0
 11
396.5053329812352
 21
145.1995829475362
 31
0.0
  0
LINE
  5
15A
330
2B
100
AcDbEntity
  8
0
 62
     0
100
AcDbLine
 10
394.9918098664426
 20
143.8274811889808
 30
0.0
 11
396.4038061687759
 21
145.2394774913142
 31
0.0
  0
LINE
  5
15B
330
2B
100
AcDbEntity
  8
0
 62
     0
100
AcDbLine
 10
394.9918098664426
 20
143.9689025452182
 30
0.0
 11
396.2999418219368
 21
145.2770345007124
 31
0.0
  0
LINE
  5
15C
330
2B
100
AcDbEntity
  8
0
 62
     0
100
AcDbLine
 10
394.9918098664426
 20
144.1103239014555
 30
0.0
 11
396.1936472604346
 21
145.3121612954475
 31
0.0
  0
LINE
  5
15D
330
2B
100
AcDbEntity
  8
0
 62
     0
100
AcDbLine
 10
394.9918098664426
 20
144.2517452576928
 30
0.0
 11
396.0848174708768
 21
145.344752862127
 31
0.0
  0
LINE
  5
15E
330
2B
100
AcDbEntity
  8
0
 62
     0
100
AcDbLine
 10
394.9918098664426
 20
144.3931666139301
 30
0.0
 11
395.9733331278627
 21
145.3746898753503
 31
0.0
  0
LINE
  5
15F
330
2B
100
AcDbEntity
  8
0
 62
     0
100
AcDbLine
 10
394.9918098664426
 20
144.5345879701674
 30
0.0
 11
395.8590581494819
 21
145.4018362532067
 31
0.0
  0
LINE
  5
160
330
2B
100
AcDbEntity
  8
0
 62
     0
100
AcDbLine
 10
394.9918098664426
 20
144.6760093264047
 30
0.0
 11
395.7418366486477
 21
145.4260361086099
 31
0.0
  0
LINE
  5
161
330
2B
100
AcDbEntity
  8
0
 62
     0
100
AcDbLine
 10
394.9918098664426
 20
144.817430682642
 30
0.0
 11
395.6214890896308
 21
145.4471099058303
 31
0.0
  0
LINE
  5
162
330
2B
100
AcDbEntity
  8
0
 62
     0
100
AcDbLine
 10
394.9918098664426
 20
144.9588520388793
 30
0.0
 11
395.497807383113
 21
145.4648495555497
 31
0.0
  0
LINE
  5
163
330
2B
100
AcDbEntity
  8
0
 62
     0
100
AcDbLine
 10
394.9918098664426
 20
145.1002733951166
 30
0.0
 11
395.3705485397159
 21
145.4790120683899
 31
0.0
  0
LINE
  5
164
330
2B
100
AcDbEntity
  8
0
 62
     0
100
AcDbLine
 10
394.9918098664426
 20
145.241694751354
 30
0.0
 11
395.2394263290109
 21
145.4893112139223
 31
0.0
  0
LINE
  5
165
330
2B
100
AcDbEntity
  8
0
 62
     0
100
AcDbLine
 10
394.9918098664426
 20
145.3831161075913
 30
0.0
 11
395.1041001202275
 21
145.4954063613763
 31
0.0
  0
LINE
  5
166
330
2B
100
AcDbEntity
  8
0
 62
     0
100
AcDbLine
 10
394.9918098664426
 20
141.4233181329466
 30
0.0
 11
397.8568295003749
 21
144.2883377668789
 31
0.0
  0
LINE
  5
167
330
2B
100
AcDbEntity
  8
0
 62
     0
100
AcDbLine
 10
395.2068958993955
 20
141.4969828096622
 30
0.0
 11
397.9257347572603
 21
144.2158216675271
 31
0.0
  0
LINE
  5
168
330
2B
100
AcDbEntity
  8
0
 62
     0
100
AcDbLine
 10
395.3483172556328
 20
141.4969828096622
 30
0.0
 11
397.9928681274859
 21
144.1415336815154
 31
0.0
  0
LINE
  5
169
330
2B
100
AcDbEntity
  8
0
 62
     0
100
AcDbLine
 10
395.4897386118701
 20
141.4969828096622
 30
0.0
 11
398.0582228617788
 21
144.0654670595709
 31
0.0
  0
LINE
  5
16A
330
2B
100
AcDbEntity
  8
0
 62
     0
100
AcDbLine
 10
395.6311599681074
 20
141.4969828096622
 30
0.0
 11
398.1217887908576
 21
143.9876116324124
 31
0.0
  0
LINE
  5
16B
330
2B
100
AcDbEntity
  8
0
 62
     0
100
AcDbLine
 10
395.7725813243447
 20
141.4969828096622
 30
0.0
 11
398.1835522279253
 21
143.9079537132428
 31
0.0
  0
LINE
  5
16C
330
2B
100
AcDbEntity
  8
0
 62
     0
100
AcDbLine
 10
395.914002680582
 20
141.4969828096622
 30
0.0
 11
398.243495835484
 21
143.8264759645642
 31
0.0
  0
LINE
  5
16D
330
2B
100
AcDbEntity
  8
0
 62
     0
100
AcDbLine
 10
396.0554240368193
 20
141.4969828096622
 30
0.0
 11
398.3015984533947
 21
143.7431572262376
 31
0.0
  0
LINE
  5
16E
330
2B
100
AcDbEntity
  8
0
 62
     0
100
AcDbLine
 10
396.1968453930566
 20
141.4969828096622
 30
0.0
 11
398.3578348841091
 21
143.6579723007146
 31
0.0
  0
LINE
  5
16F
330
2B
100
AcDbEntity
  8
0
 62
     0
100
AcDbLine
 10
396.338266749294
 20
141.4969828096622
 30
0.0
 11
398.4121756298188
 21
143.570891690187
 31
0.0
  0
LINE
  5
170
330
2B
100
AcDbEntity
  8
0
 62
     0
100
AcDbLine
 10
396.4796881055312
 20
141.4969828096622
 30
0.0
 11
398.4645865748532
 21
143.4818812789841
 31
0.0
  0
LINE
  5
171
330
2B
100
AcDbEntity
  8
0
 62
     0
100
AcDbLine
 10
396.6211094617685
 20
141.4969828096622
 30
0.0
 11
398.5150286049239
 21
143.3909019528175
 31
0.0
  0
LINE
  5
172
330
2B
100
AcDbEntity
  8
0
 62
     0
100
AcDbLine
 10
396.7625308180059
 20
141.4969828096622
 30
0.0
 11
398.5634571526601
 21
143.2979091443164
 31
0.0
  0
LINE
  5
173
330
2B
100
AcDbEntity
  8
0
 62
     0
100
AcDbLine
 10
396.9039521742432
 20
141.4969828096622
 30
0.0
 11
398.6098216561719
 21
143.2028522915909
 31
0.0
  0
LINE
  5
174
330
2B
100
AcDbEntity
  8
0
 62
     0
100
AcDbLine
 10
397.0453735304805
 20
141.4969828096622
 30
0.0
 11
398.6540649139266
 21
143.1056741931083
 31
0.0
  0
LINE
  5
175
330
2B
100
AcDbEntity
  8
0
 62
     0
100
AcDbLine
 10
397.1867948867178
 20
141.4969828096622
 30
0.0
 11
398.6961223147788
 21
143.0063102377232
 31
0.0
  0
LINE
  5
176
330
2B
100
AcDbEntity
  8
0
 62
     0
100
AcDbLine
 10
397.3282162429551
 20
141.4969828096622
 30
0.0
 11
398.7359209162004
 21
142.9046874829076
 31
0.0
  0
LINE
  5
177
330
2B
100
AcDbEntity
  8
0
 62
     0
100
AcDbLine
 10
397.4696375991925
 20
141.4969828096622
 30
0.0
 11
398.7733783361213
 21
142.800723546591
 31
0.0
  0
LINE
  5
178
330
2B
100
AcDbEntity
  8
0
 62
     0
100
AcDbLine
 10
397.6110589554297
 20
141.4969828096622
 30
0.0
 11
398.8084014136025
 21
142.694325267835
 31
0.0
  0
LINE
  5
179
330
2B
100
AcDbEntity
  8
0
 62
     0
100
AcDbLine
 10
397.7524803116671
 20
141.4969828096622
 30
0.0
 11
398.8408845798099
 21
142.5853870778051
 31
0.0
  0
LINE
  5
17A
330
2B
100
AcDbEntity
  8
0
 62
     0
100
AcDbLine
 10
397.8939016679044
 20
141.4969828096622
 30
0.0
 11
398.870707861921
 21
142.4737890036788
 31
0.0
  0
LINE
  5
17B
330
2B
100
AcDbEntity
  8
0
 62
     0
100
AcDbLine
 10
398.0353230241417
 20
141.4969828096622
 30
0.0
 11
398.8977344164565
 21
142.359394201977
 31
0.0
  0
LINE
  5
17C
330
2B
100
AcDbEntity
  8
0
 62
     0
100
AcDbLine
 10
398.1767443803789
 20
141.4969828096622
 30
0.0
 11
398.9218074516594
 21
142.2420458809426
 31
0.0
  0
LINE
  5
17D
330
2B
100
AcDbEntity
  8
0
 62
     0
100
AcDbLine
 10
398.3181657366163
 20
141.4969828096622
 30
0.0
 11
398.9427463456591
 21
142.121563418705
 31
0.0
  0
LINE
  5
17E
330
2B
100
AcDbEntity
  8
0
 62
     0
100
AcDbLine
 10
398.4595870928536
 20
141.4969828096622
 30
0.0
 11
398.9603416898707
 21
141.9977374066793
 31
0.0
  0
LINE
  5
17F
330
2B
100
AcDbEntity
  8
0
 62
     0
100
AcDbLine
 10
398.6010084490909
 20
141.4969828096622
 30
0.0
 11
398.9743488717511
 21
141.8703232323224
 31
0.0
  0
LINE
  5
180
330
2B
100
AcDbEntity
  8
0
 62
     0
100
AcDbLine
 10
398.7424298053282
 20
141.4969828096622
 30
0.0
 11
398.9844796349054
 21
141.7390326392395
 31
0.0
  0
LINE
  5
181
330
2B
100
AcDbEntity
  8
0
 62
     0
100
AcDbLine
 10
398.8838511615655
 20
141.4969828096622
 30
0.0
 11
398.9903907784695
 21
141.6035224265661
 31
0.0
  0
ENDBLK
  5
182
330
2B
100
AcDbEntity
  8
0
100
AcDbBlockEnd
  0
BLOCK
  5
183
330
2C
100
AcDbEntity
  8
0
100
AcDbBlockBegin
  2
*X7
 70
     1
 10
0.0
 20
0.0
 30
0.0
  3
*X7
  1

  0
LINE
  5
184
330
2C
100
AcDbEntity
  8
0
 62
     0
100
AcDbLine
 10
394.9918098664424
 20
460.6
 30
0.0
 11
396.9916070644475
 21
460.6
 31
0.0
  0
LINE
  5
185
330
2C
100
AcDbEntity
  8
0
 62
     0
100
AcDbLine
 10
394.9918098664424
 20
460.7
 30
0.0
 11
396.9905307152098
 21
460.7
 31
0.0
  0
LINE
  5
186
330
2C
100
AcDbEntity
  8
0
 62
     0
100
AcDbLine
 10
394.9918098664424
 20
460.8
 30
0.0
 11
396.9844416009698
 21
460.8
 31
0.0
  0
LINE
  5
187
330
2C
100
AcDbEntity
  8
0
 62
     0
100
AcDbLine
 10
394.9918098664424
 20
460.9
 30
0.0
 11
396.9732935094721
 21
460.9
 31
0.0
  0
LINE
  5
188
330
2C
100
AcDbEntity
  8
0
 62
     0
100
AcDbLine
 10
394.9918098664424
 20
461.0
 30
0.0
 11
396.957000347221
 21
461.0
 31
0.0
  0
LINE
  5
189
330
2C
100
AcDbEntity
  8
0
 62
     0
100
AcDbLine
 10
394.9918098664424
 20
461.1
 30
0.0
 11
396.9354327269508
 21
461.1
 31
0.0
  0
LINE
  5
18A
330
2C
100
AcDbEntity
  8
0
 62
     0
100
AcDbLine
 10
394.9918098664424
 20
461.2
 30
0.0
 11
396.908412595763
 21
461.2
 31
0.0
  0
LINE
  5
18B
330
2C
100
AcDbEntity
  8
0
 62
     0
100
AcDbLine
 10
394.9918098664424
 20
461.3
 30
0.0
 11
396.8757053572241
 21
461.3
 31
0.0
  0
LINE
  5
18C
330
2C
100
AcDbEntity
  8
0
 62
     0
100
AcDbLine
 10
394.9918098664424
 20
461.4
 30
0.0
 11
396.8370086140943
 21
461.4
 31
0.0
  0
LINE
  5
18D
330
2C
100
AcDbEntity
  8
0
 62
     0
100
AcDbLine
 10
394.9918098664424
 20
461.5
 30
0.0
 11
396.7919361443697
 21
461.5
 31
0.0
  0
LINE
  5
18E
330
2C
100
AcDbEntity
  8
0
 62
     0
100
AcDbLine
 10
394.9918098664424
 20
461.6
 30
0.0
 11
396.7399948722793
 21
461.6
 31
0.0
  0
LINE
  5
18F
330
2C
100
AcDbEntity
  8
0
 62
     0
100
AcDbLine
 10
394.9918098664424
 20
461.7
 30
0.0
 11
396.6805511174282
 21
461.7
 31
0.0
  0
LINE
  5
190
330
2C
100
AcDbEntity
  8
0
 62
     0
100
AcDbLine
 10
394.9918098664424
 20
461.8
 30
0.0
 11
396.6127797029691
 21
461.8
 31
0.0
  0
LINE
  5
191
330
2C
100
AcDbEntity
  8
0
 62
     0
100
AcDbLine
 10
394.9918098664424
 20
461.9
 30
0.0
 11
396.5355842699994
 21
461.9
 31
0.0
  0
LINE
  5
192
330
2C
100
AcDbEntity
  8
0
 62
     0
100
AcDbLine
 10
394.9918098664424
 20
462.0
 30
0.0
 11
396.4474662844293
 21
462.0
 31
0.0
  0
LINE
  5
193
330
2C
100
AcDbEntity
  8
0
 62
     0
100
AcDbLine
 10
394.9918098664424
 20
462.1
 30
0.0
 11
396.3462956749228
 21
462.1
 31
0.0
  0
LINE
  5
194
330
2C
100
AcDbEntity
  8
0
 62
     0
100
AcDbLine
 10
394.9918098664424
 20
462.2
 30
0.0
 11
396.2288741345882
 21
462.2
 31
0.0
  0
LINE
  5
195
330
2C
100
AcDbEntity
  8
0
 62
     0
100
AcDbLine
 10
394.9918098664424
 20
462.3
 30
0.0
 11
396.0900011984385
 21
462.3
 31
0.0
  0
LINE
  5
196
330
2C
100
AcDbEntity
  8
0
 62
     0
100
AcDbLine
 10
394.9918098664424
 20
462.4
 30
0.0
 11
395.9200988299768
 21
462.4
 31
0.0
  0
LINE
  5
197
330
2C
100
AcDbEntity
  8
0
 62
     0
100
AcDbLine
 10
394.9918098664424
 20
462.5
 30
0.0
 11
395.6970875408149
 21
462.5
 31
0.0
  0
LINE
  5
198
330
2C
100
AcDbEntity
  8
0
 62
     0
100
AcDbLine
 10
394.9918098664424
 20
460.5
 30
0.0
 11
396.9876787586798
 21
460.5
 31
0.0
  0
LINE
  5
199
330
2C
100
AcDbEntity
  8
0
 62
     0
100
AcDbLine
 10
394.9918098664424
 20
460.4
 30
0.0
 11
396.9787161140677
 21
460.4
 31
0.0
  0
LINE
  5
19A
330
2C
100
AcDbEntity
  8
0
 62
     0
100
AcDbLine
 10
394.9918098664424
 20
460.3
 30
0.0
 11
396.9646505185742
 21
460.3
 31
0.0
  0
LINE
  5
19B
330
2C
100
AcDbEntity
  8
0
 62
     0
100
AcDbLine
 10
394.9918098664424
 20
460.2
 30
0.0
 11
396.9453717519622
 21
460.2
 31
0.0
  0
LINE
  5
19C
330
2C
100
AcDbEntity
  8
0
 62
     0
100
AcDbLine
 10
394.9918098664424
 20
460.0999999999999
 30
0.0
 11
396.9207235095087
 21
460.0999999999999
 31
0.0
  0
LINE
  5
19D
330
2C
100
AcDbEntity
  8
0
 62
     0
100
AcDbLine
 10
394.9918098664424
 20
460.0
 30
0.0
 11
396.8904966874476
 21
460.0
 31
0.0
  0
LINE
  5
19E
330
2C
100
AcDbEntity
  8
0
 62
     0
100
AcDbLine
 10
394.9918098664424
 20
459.9
 30
0.0
 11
396.8544197145079
 21
459.9
 31
0.0
  0
LINE
  5
19F
330
2C
100
AcDbEntity
  8
0
 62
     0
100
AcDbLine
 10
394.9918098664424
 20
459.7999999999999
 30
0.0
 11
396.8121447938561
 21
459.7999999999999
 31
0.0
  0
LINE
  5
1A0
330
2C
100
AcDbEntity
  8
0
 62
     0
100
AcDbLine
 10
394.9918098664424
 20
459.7
 30
0.0
 11
396.7632282387683
 21
459.7
 31
0.0
  0
LINE
  5
1A1
330
2C
100
AcDbEntity
  8
0
 62
     0
100
AcDbLine
 10
394.9918098664424
 20
459.6
 30
0.0
 11
396.7071019266075
 21
459.6
 31
0.0
  0
LINE
  5
1A2
330
2C
100
AcDbEntity
  8
0
 62
     0
100
AcDbLine
 10
394.9918098664424
 20
459.4999999999999
 30
0.0
 11
396.6430308248598
 21
459.4999999999999
 31
0.0
  0
LINE
  5
1A3
330
2C
100
AcDbEntity
  8
0
 62
     0
100
AcDbLine
 10
394.9918098664424
 20
459.4
 30
0.0
 11
396.5700476354014
 21
459.4
 31
0.0
  0
LINE
  5
1A4
330
2C
100
AcDbEntity
  8
0
 62
     0
100
AcDbLine
 10
394.9918098664424
 20
459.2999999999999
 30
0.0
 11
396.4868477446315
 21
459.2999999999999
 31
0.0
  0
LINE
  5
1A5
330
2C
100
AcDbEntity
  8
0
 62
     0
100
AcDbLine
 10
394.9918098664424
 20
459.2
 30
0.0
 11
396.3916105876424
 21
459.2
 31
0.0
  0
LINE
  5
1A6
330
2C
100
AcDbEntity
  8
0
 62
     0
100
AcDbLine
 10
394.9918098664424
 20
459.1
 30
0.0
 11
396.2816725959309
 21
459.1
 31
0.0
  0
LINE
  5
1A7
330
2C
100
AcDbEntity
  8
0
 62
     0
100
AcDbLine
 10
394.9918098664424
 20
459.0
 30
0.0
 11
396.1528652754454
 21
459.0
 31
0.0
  0
LINE
  5
1A8
330
2C
100
AcDbEntity
  8
0
 62
     0
100
AcDbLine
 10
394.9918098664424
 20
458.9
 30
0.0
 11
395.9979676396703
 21
458.9
 31
0.0
  0
LINE
  5
1A9
330
2C
100
AcDbEntity
  8
0
 62
     0
100
AcDbLine
 10
394.9918098664424
 20
458.8
 30
0.0
 11
395.8021537850834
 21
458.8
 31
0.0
  0
ENDBLK
  5
1AA
330
2C
100
AcDbEntity
  8
0
100
AcDbBlockEnd
  0
BLOCK
  5
41A
330
3D
100
AcDbEntity
  8
0
100
AcDbBlockBegin
  2
*X8
 70
     1
 10
0.0
 20
0.0
 30
0.0
  3
*X8
  1

  0
LINE
  5
41B
330
3D
100
AcDbEntity
  8
0
 62
     0
100
AcDbLine
 10
1060.52057971681
 20
500.2
 30
0.0
 11
1063.076048417501
 21
500.2
 31
0.0
  0
LINE
  5
41C
330
3D
100
AcDbEntity
  8
0
 62
     0
100
AcDbLine
 10
1063.076048417501
 20
500.2
 30
0.0
 11
1063.138751559447
 21
500.2
 31
0.0
  0
LINE
  5
41D
330
3D
100
AcDbEntity
  8
0
 62
     0
100
AcDbLine
 10
1060.461719017791
 20
500.3
 30
0.0
 11
1063.076048417501
 21
500.3
 31
0.0
  0
LINE
  5
41E
330
3D
100
AcDbEntity
  8
0
 62
     0
100
AcDbLine
 10
1063.076048417501
 20
500.3
 30
0.0
 11
1063.133880117435
 21
500.3
 31
0.0
  0
LINE
  5
41F
330
3D
100
AcDbEntity
  8
0
 62
     0
100
AcDbLine
 10
1060.407899969576
 20
500.4
 30
0.0
 11
1063.076048417501
 21
500.4
 31
0.0
  0
LINE
  5
420
330
3D
100
AcDbEntity
  8
0
 62
     0
100
AcDbLine
 10
1063.076048417501
 20
500.4
 30
0.0
 11
1063.12920595875
 21
500.4
 31
0.0
  0
LINE
  5
421
330
3D
100
AcDbEntity
  8
0
 62
     0
100
AcDbLine
 10
1060.358822981483
 20
500.4999999999999
 30
0.0
 11
1063.076048417501
 21
500.4999999999999
 31
0.0
  0
LINE
  5
422
330
3D
100
AcDbEntity
  8
0
 62
     0
100
AcDbLine
 10
1063.076048417501
 20
500.4999999999999
 30
0.0
 11
1063.12472902895
 21
500.4999999999999
 31
0.0
  0
LINE
  5
423
330
3D
100
AcDbEntity
  8
0
 62
     0
100
AcDbLine
 10
1060.314235244942
 20
500.6
 30
0.0
 11
1063.076048417501
 21
500.6
 31
0.0
  0
LINE
  5
424
330
3D
100
AcDbEntity
  8
0
 62
     0
100
AcDbLine
 10
1063.076048417501
 20
500.6
 30
0.0
 11
1063.120449275908
 21
500.6
 31
0.0
  0
LINE
  5
425
330
3D
100
AcDbEntity
  8
0
 62
     0
100
AcDbLine
 10
1060.273922451364
 20
500.7
 30
0.0
 11
1063.076048417501
 21
500.7
 31
0.0
  0
LINE
  5
426
330
3D
100
AcDbEntity
  8
0
 62
     0
100
AcDbLine
 10
1063.076048417501
 20
500.7
 30
0.0
 11
1063.11636664981
 21
500.7
 31
0.0
  0
LINE
  5
427
330
3D
100
AcDbEntity
  8
0
 62
     0
100
AcDbLine
 10
1060.237702444918
 20
500.8
 30
0.0
 11
1063.076048417501
 21
500.8
 31
0.0
  0
LINE
  5
428
330
3D
100
AcDbEntity
  8
0
 62
     0
100
AcDbLine
 10
1063.076048417501
 20
500.8
 30
0.0
 11
1063.112481103152
 21
500.8
 31
0.0
  0
LINE
  5
429
330
3D
100
AcDbEntity
  8
0
 62
     0
100
AcDbLine
 10
1060.205420299815
 20
500.9
 30
0.0
 11
1063.076048417501
 21
500.9
 31
0.0
  0
LINE
  5
42A
330
3D
100
AcDbEntity
  8
0
 62
     0
100
AcDbLine
 10
1063.076048417501
 20
500.9
 30
0.0
 11
1063.108792590739
 21
500.9
 31
0.0
  0
LINE
  5
42B
330
3D
100
AcDbEntity
  8
0
 62
     0
100
AcDbLine
 10
1060.176944466272
 20
501.0
 30
0.0
 11
1063.076048417501
 21
501.0
 31
0.0
  0
LINE
  5
42C
330
3D
100
AcDbEntity
  8
0
 62
     0
100
AcDbLine
 10
1063.076048417501
 20
501.0
 30
0.0
 11
1063.105301069679
 21
501.0
 31
0.0
  0
LINE
  5
42D
330
3D
100
AcDbEntity
  8
0
 62
     0
100
AcDbLine
 10
1060.152163732701
 20
501.1
 30
0.0
 11
1063.076048417501
 21
501.1
 31
0.0
  0
LINE
  5
42E
330
3D
100
AcDbEntity
  8
0
 62
     0
100
AcDbLine
 10
1063.076048417501
 20
501.1
 30
0.0
 11
1063.102006499383
 21
501.1
 31
0.0
  0
LINE
  5
42F
330
3D
100
AcDbEntity
  8
0
 62
     0
100
AcDbLine
 10
1060.130984822265
 20
501.2
 30
0.0
 11
1063.076048417501
 21
501.2
 31
0.0
  0
LINE
  5
430
330
3D
100
AcDbEntity
  8
0
 62
     0
100
AcDbLine
 10
1063.076048417501
 20
501.2
 30
0.0
 11
1063.09890884156
 21
501.2
 31
0.0
  0
LINE
  5
431
330
3D
100
AcDbEntity
  8
0
 62
     0
100
AcDbLine
 10
1060.113330491346
 20
501.2999999999999
 30
0.0
 11
1063.076048417501
 21
501.2999999999999
 31
0.0
  0
LINE
  5
432
330
3D
100
AcDbEntity
  8
0
 62
     0
100
AcDbLine
 10
1063.076048417501
 20
501.2999999999999
 30
0.0
 11
1063.09600806022
 21
501.2999999999999
 31
0.0
  0
LINE
  5
433
330
3D
100
AcDbEntity
  8
0
 62
     0
100
AcDbLine
 10
1060.099138032565
 20
501.4
 30
0.0
 11
1063.076048417501
 21
501.4
 31
0.0
  0
LINE
  5
434
330
3D
100
AcDbEntity
  8
0
 62
     0
100
AcDbLine
 10
1063.076048417501
 20
501.4
 30
0.0
 11
1063.093304121665
 21
501.4
 31
0.0
  0
LINE
  5
435
330
3D
100
AcDbEntity
  8
0
 62
     0
100
AcDbLine
 10
1060.088358110605
 20
501.4999999999999
 30
0.0
 11
1063.076048417501
 21
501.4999999999999
 31
0.0
  0
LINE
  5
436
330
3D
100
AcDbEntity
  8
0
 62
     0
100
AcDbLine
 10
1063.076048417501
 20
501.4999999999999
 30
0.0
 11
1063.090796994493
 21
501.4999999999999
 31
0.0
  0
LINE
  5
437
330
3D
100
AcDbEntity
  8
0
 62
     0
100
AcDbLine
 10
1060.080953878109
 20
501.6
 30
0.0
 11
1063.076048417501
 21
501.6
 31
0.0
  0
LINE
  5
438
330
3D
100
AcDbEntity
  8
0
 62
     0
100
AcDbLine
 10
1063.076048417501
 20
501.6
 30
0.0
 11
1063.088486649592
 21
501.6
 31
0.0
  0
LINE
  5
439
330
3D
100
AcDbEntity
  8
0
 62
     0
100
AcDbLine
 10
1060.076900333482
 20
501.7
 30
0.0
 11
1063.076048417501
 21
501.7
 31
0.0
  0
LINE
  5
43A
330
3D
100
AcDbEntity
  8
0
 62
     0
100
AcDbLine
 10
1063.076048417501
 20
501.7
 30
0.0
 11
1063.08637306014
 21
501.7
 31
0.0
  0
LINE
  5
43B
330
3D
100
AcDbEntity
  8
0
 62
     0
100
AcDbLine
 10
1060.584839403743
 20
500.1
 30
0.0
 11
1063.076048417501
 21
500.1
 31
0.0
  0
LINE
  5
43C
330
3D
100
AcDbEntity
  8
0
 62
     0
100
AcDbLine
 10
1063.076048417501
 20
500.1
 30
0.0
 11
1063.143820341547
 21
500.1
 31
0.0
  0
LINE
  5
43D
330
3D
100
AcDbEntity
  8
0
 62
     0
100
AcDbLine
 10
1060.654927928914
 20
500.0
 30
0.0
 11
1063.076048417501
 21
500.0
 31
0.0
  0
LINE
  5
43E
330
3D
100
AcDbEntity
  8
0
 62
     0
100
AcDbLine
 10
1063.076048417501
 20
500.0
 30
0.0
 11
1063.149086522821
 21
500.0
 31
0.0
  0
LINE
  5
43F
330
3D
100
AcDbEntity
  8
0
 62
     0
100
AcDbLine
 10
1060.731367950939
 20
499.9
 30
0.0
 11
1063.076048417501
 21
499.9
 31
0.0
  0
LINE
  5
440
330
3D
100
AcDbEntity
  8
0
 62
     0
100
AcDbLine
 10
1063.076048417501
 20
499.9
 30
0.0
 11
1063.154550164678
 21
499.9
 31
0.0
  0
LINE
  5
441
330
3D
100
AcDbEntity
  8
0
 62
     0
100
AcDbLine
 10
1060.814803503676
 20
499.8
 30
0.0
 11
1063.076048417501
 21
499.8
 31
0.0
  0
LINE
  5
442
330
3D
100
AcDbEntity
  8
0
 62
     0
100
AcDbLine
 10
1063.076048417501
 20
499.8
 30
0.0
 11
1063.160211330858
 21
499.8
 31
0.0
  0
LINE
  5
443
330
3D
100
AcDbEntity
  8
0
 62
     0
100
AcDbLine
 10
1060.906041359835
 20
499.7
 30
0.0
 11
1063.076048417501
 21
499.7
 31
0.0
  0
LINE
  5
444
330
3D
100
AcDbEntity
  8
0
 62
     0
100
AcDbLine
 10
1063.076048417501
 20
499.7
 30
0.0
 11
1063.166070087434
 21
499.7
 31
0.0
  0
LINE
  5
445
330
3D
100
AcDbEntity
  8
0
 62
     0
100
AcDbLine
 10
1061.006112983642
 20
499.6
 30
0.0
 11
1063.076048417501
 21
499.6
 31
0.0
  0
LINE
  5
446
330
3D
100
AcDbEntity
  8
0
 62
     0
100
AcDbLine
 10
1063.076048417501
 20
499.6
 30
0.0
 11
1063.172126502817
 21
499.6
 31
0.0
  0
LINE
  5
447
330
3D
100
AcDbEntity
  8
0
 62
     0
100
AcDbLine
 10
1061.116371206743
 20
499.5
 30
0.0
 11
1063.076048417501
 21
499.5
 31
0.0
  0
LINE
  5
448
330
3D
100
AcDbEntity
  8
0
 62
     0
100
AcDbLine
 10
1063.076048417501
 20
499.5
 30
0.0
 11
1063.178380647758
 21
499.5
 31
0.0
  0
LINE
  5
449
330
3D
100
AcDbEntity
  8
0
 62
     0
100
AcDbLine
 10
1061.238648939873
 20
499.4
 30
0.0
 11
1063.076048417501
 21
499.4
 31
0.0
  0
LINE
  5
44A
330
3D
100
AcDbEntity
  8
0
 62
     0
100
AcDbLine
 10
1063.076048417501
 20
499.4
 30
0.0
 11
1063.184832595353
 21
499.4
 31
0.0
  0
LINE
  5
44B
330
3D
100
AcDbEntity
  8
0
 62
     0
100
AcDbLine
 10
1061.375537050173
 20
499.3
 30
0.0
 11
1063.076048417501
 21
499.3
 31
0.0
  0
LINE
  5
44C
330
3D
100
AcDbEntity
  8
0
 62
     0
100
AcDbLine
 10
1063.076048417501
 20
499.3
 30
0.0
 11
1063.19148242105
 21
499.3
 31
0.0
  0
LINE
  5
44D
330
3D
100
AcDbEntity
  8
0
 62
     0
100
AcDbLine
 10
1061.530913801866
 20
499.2
 30
0.0
 11
1063.076048417501
 21
499.2
 31
0.0
  0
LINE
  5
44E
330
3D
100
AcDbEntity
  8
0
 62
     0
100
AcDbLine
 10
1063.076048417501
 20
499.2
 30
0.0
 11
1063.198330202648
 21
499.2
 31
0.0
  0
LINE
  5
44F
330
3D
100
AcDbEntity
  8
0
 62
     0
100
AcDbLine
 10
1061.711078435979
 20
499.1
 30
0.0
 11
1063.076048417501
 21
499.1
 31
0.0
  0
LINE
  5
450
330
3D
100
AcDbEntity
  8
0
 62
     0
100
AcDbLine
 10
1063.076048417501
 20
499.1
 30
0.0
 11
1063.205376020307
 21
499.1
 31
0.0
  0
LINE
  5
451
330
3D
100
AcDbEntity
  8
0
 62
     0
100
AcDbLine
 10
1061.927638594974
 20
499.0
 30
0.0
 11
1063.076048417501
 21
499.0
 31
0.0
  0
LINE
  5
452
330
3D
100
AcDbEntity
  8
0
 62
     0
100
AcDbLine
 10
1063.076048417501
 20
499.0
 30
0.0
 11
1063.21261995655
 21
499.0
 31
0.0
  0
LINE
  5
453
330
3D
100
AcDbEntity
  8
0
 62
     0
100
AcDbLine
 10
1062.207401659319
 20
498.9
 30
0.0
 11
1063.076048417501
 21
498.9
 31
0.0
  0
LINE
  5
454
330
3D
100
AcDbEntity
  8
0
 62
     0
100
AcDbLine
 10
1063.076048417501
 20
498.9
 30
0.0
 11
1063.220062096267
 21
498.9
 31
0.0
  0
LINE
  5
455
330
3D
100
AcDbEntity
  8
0
 62
     0
100
AcDbLine
 10
1062.663435692877
 20
498.8
 30
0.0
 11
1063.076048417501
 21
498.8
 31
0.0
  0
LINE
  5
456
330
3D
100
AcDbEntity
  8
0
 62
     0
100
AcDbLine
 10
1063.076048417501
 20
498.8
 30
0.0
 11
1063.227702526721
 21
498.8
 31
0.0
  0
ENDBLK
  5
457
330
3D
100
AcDbEntity
  8
0
100
AcDbBlockEnd
  0
BLOCK
  5
78D
330
783
100
AcDbEntity
  8
0
100
AcDbBlockBegin
  2
*D9
 70
     1
 10
0.0
 20
0.0
 30
0.0
  3
*D9
  1

  0
LINE
  5
1917
330
783
100
AcDbEntity
  8
BEM
 62
     0
370
    -2
100
AcDbLine
 10
61.82412830001436
 20
550.7714896498871
 30
0.0
 11
61.82412830001435
 21
379.6724639428299
 31
0.0
  0
LINE
  5
1918
330
783
100
AcDbEntity
  8
BEM
 62
     0
370
    -2
100
AcDbLine
 10
728.2759422018436
 20
482.4574961168591
 30
0.0
 11
728.2759422018436
 21
379.6724639428299
 31
0.0
  0
LINE
  5
1919
330
783
100
AcDbEntity
  8
BEM
 62
     0
370
    -2
100
AcDbLine
 10
68.82412830001436
 20
381.6724639428299
 30
0.0
 11
721.2759422018437
 21
381.6724639428299
 31
0.0
  0
SOLID
  5
191A
330
783
100
AcDbEntity
  8
BEM
 62
     0
100
AcDbTrace
 10
68.82412830001436
 20
382.8391306094967
 30
0.0
 11
68.82412830001436
 21
380.5057972761633
 31
0.0
 12
61.82412830001435
 22
381.6724639428299
 32
0.0
 13
61.82412830001435
 23
381.6724639428299
 33
0.0
  0
SOLID
  5
191B
330
783
100
AcDbEntity
  8
BEM
 62
     0
100
AcDbTrace
 10
721.2759422018437
 20
382.8391306094967
 30
0.0
 11
721.2759422018437
 21
380.5057972761633
 31
0.0
 12
728.2759422018436
 22
381.6724639428299
 32
0.0
 13
728.2759422018436
 23
381.6724639428299
 33
0.0
  0
MTEXT
  5
191C
330
783
100
AcDbEntity
  8
BEM
 62
     1
100
AcDbMText
 10
395.050035250929
 20
388.1724639428299
 30
0.0
 40
7.0
 41
0.0
 71
     5
 72
     1
  1
\A1;667
 73
     1
 44
1.0
  0
POINT
  5
191D
330
783
100
AcDbEntity
  8
DEFPOINTS
 62
     0
100
AcDbPoint
 10
61.82412830001436
 20
552.7714896498871
 30
0.0
  0
POINT
  5
191E
330
783
100
AcDbEntity
  8
DEFPOINTS
 62
     0
100
AcDbPoint
 10
728.2759422018436
 20
484.4574961168591
 30
0.0
  0
POINT
  5
191F
330
783
100
AcDbEntity
  8
DEFPOINTS
 62
     0
100
AcDbPoint
 10
728.2759422018436
 20
381.6724639428299
 30
0.0
  0
ENDBLK
  5
78E
330
783
100
AcDbEntity
  8
0
100
AcDbBlockEnd
  0
BLOCK
  5
1742
330
1738
100
AcDbEntity
  8
0
100
AcDbBlockBegin
  2
*D10
 70
     1
 10
0.0
 20
0.0
 30
0.0
  3
*D10
  1

  0
LINE
  5
1782
330
1738
100
AcDbEntity
  8
BEM
 62
     0
370
    -2
100
AcDbLine
 10
891.0760484175
 20
769.7714896498871
 30
0.0
 11
856.3258830262368
 21
769.7714896498871
 31
0.0
  0
LINE
  5
1783
330
1738
100
AcDbEntity
  8
BEM
 62
     0
370
    -2
100
AcDbLine
 10
871.0760484175001
 20
552.7714896498871
 30
0.0
 11
856.3258830262366
 21
552.7714896498871
 31
0.0
  0
LINE
  5
1784
330
1738
100
AcDbEntity
  8
BEM
 62
     0
370
    -2
100
AcDbLine
 10
858.3258830262366
 20
762.7714896498871
 30
0.0
 11
858.3258830262366
 21
559.7714896498871
 31
0.0
  0
SOLID
  5
1785
330
1738
100
AcDbEntity
  8
BEM
 62
     0
100
AcDbTrace
 10
857.1592163595699
 20
762.7714896498871
 30
0.0
 11
859.4925496929032
 21
762.7714896498871
 31
0.0
 12
858.3258830262368
 22
769.7714896498871
 32
0.0
 13
858.3258830262368
 23
769.7714896498871
 33
0.0
  0
SOLID
  5
1786
330
1738
100
AcDbEntity
  8
BEM
 62
     0
100
AcDbTrace
 10
857.1592163595699
 20
559.7714896498871
 30
0.0
 11
859.4925496929032
 21
559.7714896498871
 31
0.0
 12
858.3258830262366
 22
552.7714896498871
 32
0.0
 13
858.3258830262366
 23
552.7714896498871
 33
0.0
  0
MTEXT
  5
1787
330
1738
100
AcDbEntity
  8
BEM
 62
     1
100
AcDbMText
 10
851.8258830262364
 20
661.2714896498873
 30
0.0
 40
7.0
 41
0.0
 71
     5
 72
     1
  1
\A1;217
 11
0.0000000000000001
 21
1.0
 31
0.0
 73
     1
 44
1.0
  0
POINT
  5
1788
330
1738
100
AcDbEntity
  8
DEFPOINTS
 62
     0
100
AcDbPoint
 10
893.0760484174999
 20
769.7714896498871
 30
0.0
  0
POINT
  5
1789
330
1738
100
AcDbEntity
  8
DEFPOINTS
 62
     0
100
AcDbPoint
 10
873.0760484175
 20
552.7714896498871
 30
0.0
  0
POINT
  5
178A
330
1738
100
AcDbEntity
  8
DEFPOINTS
 62
     0
100
AcDbPoint
 10
858.3258830262366
 20
552.7714896498871
 30
0.0
  0
ENDBLK
  5
1743
330
1738
100
AcDbEntity
  8
0
100
AcDbBlockEnd
  0
BLOCK
  5
175A
330
1750
100
AcDbEntity
  8
0
100
AcDbBlockBegin
  2
*D11
 70
     1
 10
0.0
 20
0.0
 30
0.0
  3
*D11
  1

  0
LINE
  5
1779
330
1750
100
AcDbEntity
  8
BEM
 62
     0
370
    -2
100
AcDbLine
 10
871.0760484175001
 20
552.7714896498871
 30
0.0
 11
856.3258830262366
 21
552.7714896498871
 31
0.0
  0
LINE
  5
177A
330
1750
100
AcDbEntity
  8
BEM
 62
     0
370
    -2
100
AcDbLine
 10
988.0760484175004
 20
500.7714896498876
 30
0.0
 11
856.3258830262366
 21
500.7714896498877
 31
0.0
  0
LINE
  5
177B
330
1750
100
AcDbEntity
  8
BEM
 62
     0
370
    -2
100
AcDbLine
 10
858.3258830262366
 20
545.7714896498871
 30
0.0
 11
858.3258830262366
 21
507.7714896498878
 31
0.0
  0
SOLID
  5
177C
330
1750
100
AcDbEntity
  8
BEM
 62
     0
100
AcDbTrace
 10
857.1592163595699
 20
545.7714896498871
 30
0.0
 11
859.4925496929032
 21
545.7714896498871
 31
0.0
 12
858.3258830262366
 22
552.7714896498871
 32
0.0
 13
858.3258830262366
 23
552.7714896498871
 33
0.0
  0
SOLID
  5
177D
330
1750
100
AcDbEntity
  8
BEM
 62
     0
100
AcDbTrace
 10
857.1592163595699
 20
507.7714896498878
 30
0.0
 11
859.4925496929032
 21
507.7714896498878
 31
0.0
 12
858.3258830262366
 22
500.7714896498877
 32
0.0
 13
858.3258830262366
 23
500.7714896498877
 33
0.0
  0
MTEXT
  5
177E
330
1750
100
AcDbEntity
  8
BEM
 62
     1
100
AcDbMText
 10
851.8258830262364
 20
526.7714896498875
 30
0.0
 40
7.0
 41
0.0
 71
     5
 72
     1
  1
\A1;52
 11
0.0000000000000001
 21
1.0
 31
0.0
 73
     1
 44
1.0
  0
POINT
  5
177F
330
1750
100
AcDbEntity
  8
DEFPOINTS
 62
     0
100
AcDbPoint
 10
873.0760484175
 20
552.7714896498871
 30
0.0
  0
POINT
  5
1780
330
1750
100
AcDbEntity
  8
DEFPOINTS
 62
     0
100
AcDbPoint
 10
990.0760484175005
 20
500.7714896498876
 30
0.0
  0
POINT
  5
1781
330
1750
100
AcDbEntity
  8
DEFPOINTS
 62
     0
100
AcDbPoint
 10
858.3258830262366
 20
500.7714896498877
 30
0.0
  0
ENDBLK
  5
175B
330
1750
100
AcDbEntity
  8
0
100
AcDbBlockEnd
  0
BLOCK
  5
1796
330
178C
100
AcDbEntity
  8
0
100
AcDbBlockBegin
  2
*D12
 70
     1
 10
0.0
 20
0.0
 30
0.0
  3
*D12
  1

  0
LINE
  5
17B5
330
178C
100
AcDbEntity
  8
BEM
 62
     0
370
    -2
100
AcDbLine
 10
267.8241283000145
 20
649.2706178363863
 30
0.0
 11
267.8241283000145
 21
781.5563103161446
 31
0.0
  0
LINE
  5
17B6
330
178C
100
AcDbEntity
  8
BEM
 62
     0
370
    -2
100
AcDbLine
 10
376.8241283000135
 20
771.7714896498871
 30
0.0
 11
376.8241283000135
 21
781.5563103161446
 31
0.0
  0
LINE
  5
17B7
330
178C
100
AcDbEntity
  8
BEM
 62
     0
370
    -2
100
AcDbLine
 10
274.8241283000145
 20
779.5563103161446
 30
0.0
 11
369.8241283000135
 21
779.5563103161446
 31
0.0
  0
SOLID
  5
17B8
330
178C
100
AcDbEntity
  8
BEM
 62
     0
100
AcDbTrace
 10
274.8241283000145
 20
780.7229769828112
 30
0.0
 11
274.8241283000145
 21
778.389643649478
 31
0.0
 12
267.8241283000145
 22
779.5563103161446
 32
0.0
 13
267.8241283000145
 23
779.5563103161446
 33
0.0
  0
SOLID
  5
17B9
330
178C
100
AcDbEntity
  8
BEM
 62
     0
100
AcDbTrace
 10
369.8241283000135
 20
780.7229769828112
 30
0.0
 11
369.8241283000135
 21
778.389643649478
 31
0.0
 12
376.8241283000135
 22
779.5563103161446
 32
0.0
 13
376.8241283000135
 23
779.5563103161446
 33
0.0
  0
MTEXT
  5
17BA
330
178C
100
AcDbEntity
  8
BEM
 62
     1
100
AcDbMText
 10
322.324128300014
 20
791.889643649478
 30
0.0
 40
7.0
 41
0.0
 71
     5
 72
     1
  1
\A1;\P107
 73
     1
 44
1.0
  0
POINT
  5
17BB
330
178C
100
AcDbEntity
  8
DEFPOINTS
 62
     0
100
AcDbPoint
 10
267.8241283000145
 20
647.2706178363863
 30
0.0
  0
POINT
  5
17BC
330
178C
100
AcDbEntity
  8
DEFPOINTS
 62
     0
100
AcDbPoint
 10
376.8241283000135
 20
769.7714896498871
 30
0.0
  0
POINT
  5
17BD
330
178C
100
AcDbEntity
  8
DEFPOINTS
 62
     0
100
AcDbPoint
 10
376.8241283000135
 20
779.5563103161446
 30
0.0
  0
ENDBLK
  5
1797
330
178C
100
AcDbEntity
  8
0
100
AcDbBlockEnd
  0
BLOCK
  5
17C9
330
17BF
100
AcDbEntity
  8
0
100
AcDbBlockBegin
  2
*D13
 70
     1
 10
0.0
 20
0.0
 30
0.0
  3
*D13
  1

  0
LINE
  5
17D6
330
17BF
100
AcDbEntity
  8
BEM
 62
     0
370
    -2
100
AcDbLine
 10
59.82412830001436
 20
554.7714896498871
 30
0.0
 11
47.52417634661559
 21
554.7714896498871
 31
0.0
  0
LINE
  5
17D7
330
17BF
100
AcDbEntity
  8
BEM
 62
     0
370
    -2
100
AcDbLine
 10
270.3241283000141
 20
651.7706178363863
 30
0.0
 11
47.5241763466156
 21
651.7706178363864
 31
0.0
  0
LINE
  5
17D8
330
17BF
100
AcDbEntity
  8
BEM
 62
     0
370
    -2
100
AcDbLine
 10
49.5241763466156
 20
561.7714896498871
 30
0.0
 11
49.52417634661561
 21
644.7706178363865
 31
0.0
  0
SOLID
  5
17D9
330
17BF
100
AcDbEntity
  8
BEM
 62
     0
100
AcDbTrace
 10
48.35750967994894
 20
561.7714896498871
 30
0.0
 11
50.69084301328226
 21
561.7714896498871
 31
0.0
 12
49.52417634661559
 22
554.7714896498871
 32
0.0
 13
49.52417634661559
 23
554.7714896498871
 33
0.0
  0
SOLID
  5
17DA
330
17BF
100
AcDbEntity
  8
BEM
 62
     0
100
AcDbTrace
 10
48.35750967994894
 20
644.7706178363865
 30
0.0
 11
50.69084301328228
 21
644.7706178363865
 31
0.0
 12
49.52417634661561
 22
651.7706178363864
 32
0.0
 13
49.52417634661561
 23
651.7706178363864
 33
0.0
  0
MTEXT
  5
17DB
330
17BF
100
AcDbEntity
  8
BEM
 62
     1
100
AcDbMText
 10
43.02417634661551
 20
603.2710537431368
 30
0.0
 40
7.0
 41
0.0
 71
     5
 72
     1
  1
\A1;97
 11
0.0000000000000001
 21
1.0
 31
0.0
 73
     1
 44
1.0
  0
POINT
  5
17DC
330
17BF
100
AcDbEntity
  8
DEFPOINTS
 62
     0
100
AcDbPoint
 10
61.82412830001436
 20
554.7714896498871
 30
0.0
  0
POINT
  5
17DD
330
17BF
100
AcDbEntity
  8
DEFPOINTS
 62
     0
100
AcDbPoint
 10
272.3241283000141
 20
651.7706178363863
 30
0.0
  0
POINT
  5
17DE
330
17BF
100
AcDbEntity
  8
DEFPOINTS
 62
     0
100
AcDbPoint
 10
49.52417634661561
 20
651.7706178363864
 30
0.0
  0
ENDBLK
  5
17CA
330
17BF
100
AcDbEntity
  8
0
100
AcDbBlockEnd
  0
BLOCK
  5
17EA
330
17E0
100
AcDbEntity
  8
0
100
AcDbBlockBegin
  2
*D14
 70
     1
 10
0.0
 20
0.0
 30
0.0
  3
*D14
  1

  0
LINE
  5
17F7
330
17E0
100
AcDbEntity
  8
BEM
 62
     0
370
    -2
100
AcDbLine
 10
61.82412830001436
 20
311.0705899877878
 30
0.0
 11
61.82412830001436
 21
347.533438790231
 31
0.0
  0
LINE
  5
17F8
330
17E0
100
AcDbEntity
  8
BEM
 62
     0
370
    -2
100
AcDbLine
 10
378.8241283000143
 20
331.0705899877878
 30
0.0
 11
378.8241283000143
 21
347.533438790231
 31
0.0
  0
LINE
  5
17F9
330
17E0
100
AcDbEntity
  8
BEM
 62
     0
370
    -2
100
AcDbLine
 10
68.82412830001436
 20
345.533438790231
 30
0.0
 11
371.8241283000144
 21
345.533438790231
 31
0.0
  0
SOLID
  5
17FA
330
17E0
100
AcDbEntity
  8
BEM
 62
     0
100
AcDbTrace
 10
68.82412830001436
 20
346.7001054568977
 30
0.0
 11
68.82412830001436
 21
344.3667721235643
 31
0.0
 12
61.82412830001436
 22
345.533438790231
 32
0.0
 13
61.82412830001436
 23
345.533438790231
 33
0.0
  0
SOLID
  5
17FB
330
17E0
100
AcDbEntity
  8
BEM
 62
     0
100
AcDbTrace
 10
371.8241283000144
 20
346.7001054568977
 30
0.0
 11
371.8241283000144
 21
344.3667721235643
 31
0.0
 12
378.8241283000143
 22
345.533438790231
 32
0.0
 13
378.8241283000143
 23
345.533438790231
 33
0.0
  0
MTEXT
  5
17FC
330
17E0
100
AcDbEntity
  8
BEM
 62
     1
100
AcDbMText
 10
220.3241283000143
 20
352.033438790231
 30
0.0
 40
7.0
 41
0.0
 71
     5
 72
     1
  1
\A1;317
 73
     1
 44
1.0
  0
POINT
  5
17FD
330
17E0
100
AcDbEntity
  8
DEFPOINTS
 62
     0
100
AcDbPoint
 10
61.82412830001436
 20
309.0705899877878
 30
0.0
  0
POINT
  5
17FE
330
17E0
100
AcDbEntity
  8
DEFPOINTS
 62
     0
100
AcDbPoint
 10
378.8241283000143
 20
329.0705899877878
 30
0.0
  0
POINT
  5
17FF
330
17E0
100
AcDbEntity
  8
DEFPOINTS
 62
     0
100
AcDbPoint
 10
378.8241283000143
 20
345.533438790231
 30
0.0
  0
ENDBLK
  5
17EB
330
17E0
100
AcDbEntity
  8
0
100
AcDbBlockEnd
  0
BLOCK
  5
1895
330
188B
100
AcDbEntity
  8
0
100
AcDbBlockBegin
  2
*D15
 70
     1
 10
0.0
 20
0.0
 30
0.0
  3
*D15
  1

  0
LINE
  5
18FA
330
188B
100
AcDbEntity
  8
BEM
 62
     0
370
    -2
100
AcDbLine
 10
718.1659582535868
 20
432.8473586323876
 30
0.0
 11
749.1007232968192
 21
431.2261362938273
 31
0.0
  0
LINE
  5
18FB
330
188B
100
AcDbEntity
  8
BEM
 62
     0
370
    -2
100
AcDbLine
 10
723.5042257903731
 20
534.7075711773539
 30
0.0
 11
754.4389908336053
 21
533.0863488387936
 31
0.0
  0
LINE
  5
18FC
330
188B
100
AcDbEntity
  8
BEM
 62
     0
370
    -2
100
AcDbLine
 10
747.469815921011
 20
438.3212149495953
 30
0.0
 11
752.0753800703951
 21
526.2006140079974
 31
0.0
  0
SOLID
  5
18FD
330
188B
100
AcDbEntity
  8
BEM
 62
     0
100
AcDbTrace
 10
746.3047481304641
 20
438.3822735652122
 30
0.0
 11
748.6348837115579
 21
438.2601563339785
 31
0.0
 12
747.10346422731
 22
431.3308082063134
 32
0.0
 13
747.10346422731
 23
431.3308082063134
 33
0.0
  0
SOLID
  5
18FE
330
188B
100
AcDbEntity
  8
BEM
 62
     0
100
AcDbTrace
 10
750.9103122798482
 20
526.2616726236143
 30
0.0
 11
753.2404478609421
 21
526.1395553923807
 31
0.0
 12
752.4417317640962
 22
533.1910207512795
 32
0.0
 13
752.4417317640962
 23
533.1910207512795
 33
0.0
  0
MTEXT
  5
18FF
330
188B
100
AcDbEntity
  8
BEM
 62
     1
100
AcDbMText
 10
743.2815060197982
 20
482.601098194376
 30
0.0
 40
7.0
 41
0.0
 71
     5
 72
     1
  1
\A1;%%c102
 11
0.0523359562430014
 21
0.9986295347545707
 31
0.0
 73
     1
 44
1.0
  0
POINT
  5
1900
330
188B
100
AcDbEntity
  8
DEFPOINTS
 62
     0
100
AcDbPoint
 10
716.1686991840777
 20
432.9520305448737
 30
0.0
  0
POINT
  5
1901
330
188B
100
AcDbEntity
  8
DEFPOINTS
 62
     0
100
AcDbPoint
 10
721.5069667208639
 20
534.8122430898398
 30
0.0
  0
POINT
  5
1902
330
188B
100
AcDbEntity
  8
DEFPOINTS
 62
     0
100
AcDbPoint
 10
752.4417317640962
 20
533.1910207512795
 30
0.0
  0
ENDBLK
  5
1896
330
188B
100
AcDbEntity
  8
0
100
AcDbBlockEnd
  0
BLOCK
  5
18C5
330
18B6
100
AcDbEntity
  8
0
100
AcDbBlockBegin
  2
*D16
 70
     1
 10
0.0
 20
0.0
 30
0.0
  3
*D16
  1

  0
LINE
  5
18EC
330
18B6
100
AcDbEntity
  8
BEM
 62
     0
370
    -2
100
AcDbLine
 10
376.8241283000143
 20
502.7714896498872
 30
0.0
 11
463.608389135247
 21
502.7714896498871
 31
0.0
  0
ARC
  5
18ED
330
18B6
100
AcDbEntity
  8
BEM
 62
     0
370
    -2
100
AcDbCircle
 10
358.4075096122433
 20
502.7714896498871
 30
0.0
 40
103.2008795230037
100
AcDbArc
 50
349.2214106149676
 51
356.9999999999999
  0
LINE
  5
18EE
330
18B6
100
AcDbEntity
  8
BEM
 62
     0
370
    -2
100
AcDbLine
 10
459.787637056958
 20
483.4714561365762
 30
0.0
 11
457.4686605456027
 21
471.2902268086397
 31
0.0
  0
ARC
  5
18EF
330
18B6
100
AcDbEntity
  8
BEM
 62
     0
370
    -2
100
AcDbCircle
 10
358.4075096122433
 20
502.7714896498871
 30
0.0
 40
103.2008795230037
100
AcDbArc
 50
349.2258922064826
 51
353.1129461032412
  0
ARC
  5
18F0
330
18B6
100
AcDbEntity
  8
BEM
 62
     0
370
    -2
100
AcDbCircle
 10
358.4075096122433
 20
502.7714896498871
 30
0.0
 40
103.2008795230037
100
AcDbArc
 50
3.887053896758701
 51
7.774107793517402
  0
ARC
  5
18F1
330
18B6
100
AcDbEntity
  8
BEM
 62
     0
370
    -2
100
AcDbCircle
 10
358.4075096122433
 20
502.7714896498871
 30
0.0
 40
103.2008795230037
100
AcDbArc
 50
356.9999999999999
 51
0.0
  0
SOLID
  5
18F2
330
18B6
100
AcDbEntity
  8
BEM
 62
     0
100
AcDbTrace
 10
459.7014124379338
 20
490.4969482182349
 30
0.0
 11
462.0260660476012
 21
490.2958759936364
 31
0.0
 12
461.4669559165633
 22
497.3703729349376
 32
0.0
 13
461.4669559165633
 23
497.3703729349376
 33
0.0
  0
SOLID
  5
18F3
330
18B6
100
AcDbEntity
  8
BEM
 62
     0
100
AcDbTrace
 10
462.5369835876427
 20
509.8070296756485
 30
0.0
 11
460.2049925278068
 21
509.7278959831411
 31
0.0
 12
461.608389135247
 22
502.7714896498871
 32
0.0
 13
461.608389135247
 23
502.7714896498871
 33
0.0
  0
MTEXT
  5
18F4
330
18B6
100
AcDbEntity
  8
BEM
 62
     1
100
AcDbMText
 10
452.2428269761523
 20
478.5964339987217
 30
0.0
 40
7.0
 41
0.0
 71
     5
 72
     1
  1
\A1;3°
 11
0.1870142347867193
 21
0.9823572038658536
 31
0.0
 73
     1
 44
1.0
  0
POINT
  5
18F5
330
18B6
100
AcDbEntity
  8
DEFPOINTS
 62
     0
100
AcDbPoint
 10
461.5926711414309
 20
500.9703859557665
 30
0.0
  0
POINT
  5
18F6
330
18B6
100
AcDbEntity
  8
DEFPOINTS
 62
     0
100
AcDbPoint
 10
178.8241283000142
 20
502.7714896498871
 30
0.0
  0
POINT
  5
18F7
330
18B6
100
AcDbEntity
  8
DEFPOINTS
 62
     0
100
AcDbPoint
 10
371.9766063604796
 20
502.0603634224353
 30
0.0
  0
POINT
  5
18F8
330
18B6
100
AcDbEntity
  8
DEFPOINTS
 62
     0
100
AcDbPoint
 10
733.817275973787
 20
483.0970974737126
 30
0.0
  0
POINT
  5
18F9
330
18B6
100
AcDbEntity
  8
DEFPOINTS
 62
     0
100
AcDbPoint
 10
374.8241283000144
 20
502.7714896498872
 30
0.0
  0
ENDBLK
  5
18C6
330
18B6
100
AcDbEntity
  8
0
100
AcDbBlockEnd
  0
ENDSEC
  0
SECTION
  2
ENTITIES
  0
DIMENSION
  5
554
330
20
100
AcDbEntity
  8
BEM
100
AcDbDimension
  2
*D9
 10
728.2759422018436
 20
381.6724639428299
 30
0.0
 11
395.050035250929
 21
388.1724639428299
 31
0.0
 70
    32
  1
667
 71
     5
 42
666.4518139018293
  3
Standard
100
AcDbAlignedDimension
 13
61.82412830001436
 23
552.7714896498871
 33
0.0
 14
728.2759422018436
 24
484.4574961168591
 34
0.0
100
AcDbRotatedDimension
1001
ACAD
1000
DSTYLE
1002
{
1070
    40
1040
2.0
1070
    41
1040
3.5
1070
    42
1040
1.0
1070
    43
1040
7.0
1070
    44
1040
1.0
1070
    47
1040
1.0
1070
    73
1070
     0
1070
    74
1070
     0
1070
    77
1070
     1
1070
    78
1070
     8
1070
    79
1070
     2
1070
   140
1040
3.5
1070
   141
1040
1.5
1070
   146
1040
0.5
1070
   147
1040
1.5
1070
   172
1070
     1
1070
   178
1070
     1
1070
   179
1070
     2
1070
   271
1070
     2
1070
   272
1070
     2
1070
   284
1070
     8
1070
   285
1070
     8
1070
   286
1070
     8
1002
}
  0
LINE
  5
55D
330
20
100
AcDbEntity
  8
MITTEL
100
AcDbLine
 10
733.2759422018437
 20
89.07058998778756
 30
0.0
 11
56.82412830001436
 21
89.07058998778754
 31
0.0
  0
LINE
  5
55E
330
20
100
AcDbEntity
  8
STEMPEL
100
AcDbLine
 10
718.289646854298
 20
140.0705899877875
 30
0.0
 11
378.8241283000146
 21
140.0705899877875
 31
0.0
  0
LINE
  5
560
330
20
100
AcDbEntity
  8
HILF
100
AcDbLine
 10
0.0
 20
0.0
 30
0.0
 11
1188.0
 21
0.0
 31
0.0
  0
LINE
  5
561
330
20
100
AcDbEntity
  8
HILF
100
AcDbLine
 10
1188.0
 20
840.0
 30
0.0
 11
0.0
 21
840.0
 31
0.0
  0
LINE
  5
562
330
20
100
AcDbEntity
  8
STEMPEL
100
AcDbLine
 10
1178.0
 20
830.0
 30
0.0
 11
10.0
 21
830.0
 31
0.0
  0
LINE
  5
563
330
20
100
AcDbEntity
  8
STEMPEL
100
AcDbLine
 10
10.0
 20
10.0
 30
0.0
 11
1178.0
 21
10.0
 31
0.0
  0
LINE
  5
565
330
20
100
AcDbEntity
  8
HILF
100
AcDbLine
 10
0.0
 20
840.0
 30
0.0
 11
0.0
 21
0.0
 31
0.0
  0
LINE
  5
566
330
20
100
AcDbEntity
  8
STEMPEL
100
AcDbLine
 10
10.0
 20
830.0
 30
0.0
 11
10.0
 21
10.0
 31
0.0
  0
CIRCLE
  5
56B
330
20
100
AcDbEntity
  8
STEMPEL
100
AcDbCircle
 10
226.821068039998
 20
289.0705899877876
 30
0.0
 40
6.5
  0
LINE
  5
56E
102
{ACAD_REACTORS
330
17F6
102
}
330
20
100
AcDbEntity
  8
STEMPEL
100
AcDbLine
 10
378.8241283000143
 20
329.0705899877878
 30
0.0
 11
81.82412830001437
 21
329.0705899877878
 31
0.0
  0
LINE
  5
56F
330
20
100
AcDbEntity
  8
MITTEL
100
AcDbLine
 10
100.3241283000143
 20
289.0705899877878
 30
0.0
 11
123.3241283000143
 21
289.0705899877878
 31
0.0
  0
LINE
  5
577
330
20
100
AcDbEntity
  8
STEMPEL
100
AcDbLine
 10
61.82412830001436
 20
309.0705899877878
 30
0.0
 11
61.82412830001436
 21
89.07058998778754
 31
0.0
  0
CIRCLE
  5
57E
330
20
100
AcDbEntity
  8
STEMPEL
100
AcDbCircle
 10
111.8241283000143
 20
289.0705899877878
 30
0.0
 40
3.5
  0
CIRCLE
  5
57F
330
20
100
AcDbEntity
  8
STEMPEL
100
AcDbCircle
 10
111.8241283000143
 20
289.0705899877878
 30
0.0
 40
6.5
  0
LINE
  5
580
330
20
100
AcDbEntity
  8
MITTEL
100
AcDbLine
 10
111.8241283000143
 20
277.5705899877878
 30
0.0
 11
111.8241283000143
 21
300.5705899877878
 31
0.0
  0
POINT
  5
586
330
20
100
AcDbEntity
  8
DEFPOINTS
  6
ByBlock
 62
     0
100
AcDbPoint
 10
176.8241283000143
 20
214.0705899877873
 30
0.0
  0
POINT
  5
587
330
20
100
AcDbEntity
  8
DEFPOINTS
  6
ByBlock
 62
     0
100
AcDbPoint
 10
176.8241283000143
 20
214.0705899877873
 30
0.0
  0
LINE
  5
589
102
{ACAD_REACTORS
330
17F6
102
}
330
20
100
AcDbEntity
  8
STEMPEL
100
AcDbLine
 10
81.82412830001437
 20
329.0705899877878
 30
0.0
 11
61.82412830001436
 21
309.0705899877878
 31
0.0
  0
POINT
  5
58C
330
20
100
AcDbEntity
  8
DEFPOINTS
  6
ByBlock
 62
     0
100
AcDbPoint
 10
81.82412830001437
 20
329.0705899877878
 30
0.0
  0
POINT
  5
58D
330
20
100
AcDbEntity
  8
DEFPOINTS
  6
ByBlock
 62
     0
100
AcDbPoint
 10
100.3241283000143
 20
289.0705899877878
 30
0.0
  0
POINT
  5
58E
330
20
100
AcDbEntity
  8
DEFPOINTS
  6
ByBlock
 62
     0
100
AcDbPoint
 10
100.3241283000143
 20
289.0705899877878
 30
0.0
  0
LINE
  5
590
330
20
100
AcDbEntity
  8
STEMPEL
100
AcDbLine
 10
378.8241283000143
 20
329.0705899877878
 30
0.0
 11
378.8241283000146
 21
89.07058998778754
 31
0.0
  0
LINE
  5
591
330
20
100
AcDbEntity
  8
STEMPEL
100
AcDbLine
 10
376.8241283000144
 20
329.0705899877878
 30
0.0
 11
376.8241283000146
 21
89.07058998778754
 31
0.0
  0
LWPOLYLINE
  5
592
330
20
100
AcDbEntity
  8
STEMPEL
100
AcDbPolyline
 90
        2
 70
     0
 43
0.0
 10
376.8241283000145
 20
138.0705899877875
 42
0.016466455133457
 10
365.8241283000141
 20
137.7082297229873
 42
0.016466455133457
  0
ARC
  5
599
330
20
100
AcDbEntity
  8
SCHRAFF
100
AcDbCircle
 10
380.8241283000143
 20
93.39113060762654
 30
0.0
 40
2.612129785912539
100
AcDbArc
 50
220.034367929562
 51
319.9656320704389
  0
ARC
  5
5A1
330
20
100
AcDbEntity
  8
SCHRAFF
100
AcDbCircle
 10
380.8241283000143
 20
98.39113060762654
 30
0.0
 40
2.612129785912539
100
AcDbArc
 50
220.034367929562
 51
319.9656320704389
  0
ARC
  5
5A2
330
20
100
AcDbEntity
  8
SCHRAFF
100
AcDbCircle
 10
380.8241283000143
 20
103.3911306076265
 30
0.0
 40
2.612129785912539
100
AcDbArc
 50
220.034367929562
 51
319.9656320704389
  0
ARC
  5
5A3
330
20
100
AcDbEntity
  8
SCHRAFF
100
AcDbCircle
 10
380.8241283000143
 20
108.3911306076265
 30
0.0
 40
2.612129785912539
100
AcDbArc
 50
220.034367929562
 51
319.9656320704389
  0
ARC
  5
5A4
330
20
100
AcDbEntity
  8
SCHRAFF
100
AcDbCircle
 10
380.8241283000143
 20
118.3911306076263
 30
0.0
 40
2.612129785912539
100
AcDbArc
 50
220.034367929562
 51
319.9656320704389
  0
ARC
  5
5A5
330
20
100
AcDbEntity
  8
SCHRAFF
100
AcDbCircle
 10
380.8241283000143
 20
123.3911306076263
 30
0.0
 40
2.612129785912539
100
AcDbArc
 50
220.034367929562
 51
319.9656320704389
  0
ARC
  5
5A6
330
20
100
AcDbEntity
  8
SCHRAFF
100
AcDbCircle
 10
380.8241283000143
 20
113.3911306076263
 30
0.0
 40
2.612129785912539
100
AcDbArc
 50
220.034367929562
 51
319.9656320704389
  0
INSERT
  5
5A7
330
20
100
AcDbEntity
  8
SCHRAFF
100
AcDbBlockReference
  2
*X6
 10
-16.16768156642803
 20
-1.426392821874657
 30
0.0
1001
ACAD
1000
HATCH
1002
{
1070
    16
1000
_U,I
1040
0.1
1040
0.7853981633974483
1070
     0
1002
}
  0
ARC
  5
5A8
330
20
100
AcDbEntity
  8
SCHRAFF
100
AcDbCircle
 10
378.8241283000143
 20
140.0705899877875
 30
0.0
 40
4.0
100
AcDbArc
 50
0.0
 51
90.0
  0
ARC
  5
5A9
330
20
100
AcDbEntity
  8
SCHRAFF
100
AcDbCircle
 10
380.8241283000143
 20
138.3911306076265
 30
0.0
 40
2.612129785912539
100
AcDbArc
 50
220.034367929562
 51
319.9656320704389
  0
ARC
  5
5AA
330
20
100
AcDbEntity
  8
SCHRAFF
100
AcDbCircle
 10
380.8241283000143
 20
133.3911306076265
 30
0.0
 40
2.612129785912539
100
AcDbArc
 50
220.034367929562
 51
319.9656320704389
  0
ARC
  5
5AB
330
20
100
AcDbEntity
  8
SCHRAFF
100
AcDbCircle
 10
380.8241283000143
 20
128.3911306076263
 30
0.0
 40
2.612129785912539
100
AcDbArc
 50
220.034367929562
 51
319.9656320704389
  0
LINE
  5
5AC
330
20
100
AcDbEntity
  8
BEM
100
AcDbLine
 10
420.0
 20
10.0
 30
0.0
 11
420.0
 21
0.0
 31
0.0
  0
CIRCLE
  5
5B0
330
20
100
AcDbEntity
  8
STEMPEL
100
AcDbCircle
 10
226.821068039998
 20
289.0705899877876
 30
0.0
 40
3.5
  0
LINE
  5
5B1
330
20
100
AcDbEntity
  8
MITTEL
100
AcDbLine
 10
226.821068039998
 20
277.5705899877876
 30
0.0
 11
226.821068039998
 21
300.5705899877876
 31
0.0
  0
LINE
  5
5B2
330
20
100
AcDbEntity
  8
HILF
100
AcDbLine
 10
276.7610680399981
 20
329.0705899877878
 30
0.0
 11
276.7610680399981
 21
229.0705899877874
 31
0.0
  0
LINE
  5
5B3
330
20
100
AcDbEntity
  8
STEMPEL
100
AcDbLine
 10
376.8241283000144
 20
214.0705899877873
 30
0.0
 11
365.824128300014
 21
214.0705899877873
 31
0.0
  0
LINE
  5
5B7
330
20
100
AcDbEntity
  8
MITTEL
100
AcDbLine
 10
261.8241283000141
 20
207.4705899877873
 30
0.0
 11
261.8241283000141
 21
200.6705899877873
 31
0.0
  0
POINT
  5
5BD
330
20
100
AcDbEntity
  8
DEFPOINTS
  6
ByBlock
 62
     0
100
AcDbPoint
 10
261.8241283000143
 20
203.0705899877875
 30
0.0
  0
POINT
  5
5BF
330
20
100
AcDbEntity
  8
DEFPOINTS
  6
ByBlock
 62
     0
100
AcDbPoint
 10
258.4241283000141
 20
204.0705899877873
 30
0.0
  0
LINE
  5
5C0
330
20
100
AcDbEntity
  8
MITTEL
100
AcDbLine
 10
265.2241283000142
 20
204.0705899877873
 30
0.0
 11
258.4241283000141
 21
204.0705899877873
 31
0.0
  0
LINE
  5
5D3
330
20
100
AcDbEntity
  8
MITTEL
100
AcDbLine
 10
371.8241283000143
 20
289.0705899877877
 30
0.0
 11
383.8241283000144
 21
289.0705899877878
 31
0.0
  0
LINE
  5
5E4
330
20
100
AcDbEntity
  8
STEMPEL
100
AcDbLine
 10
378.8241283000143
 20
309.0705899877878
 30
0.0
 11
376.8241283000144
 21
309.0705899877878
 31
0.0
  0
LINE
  5
5E7
102
{ACAD_REACTORS
330
1932
102
}
330
20
100
AcDbEntity
  8
STEMPEL
100
AcDbLine
 10
178.8241283000143
 20
502.7714896498872
 30
0.0
 11
378.8241283000143
 21
502.7714896498872
 31
0.0
  0
LINE
  5
5E8
330
20
100
AcDbEntity
  8
STEMPEL
100
AcDbLine
 10
178.8241283000143
 20
504.7714896498872
 30
0.0
 11
378.8241283000143
 21
504.7714896498872
 31
0.0
  0
LINE
  5
5E9
330
20
100
AcDbEntity
  8
STEMPEL
100
AcDbLine
 10
61.82412830001436
 20
552.7714896498871
 30
0.0
 11
188.824128300014
 21
552.771489649887
 31
0.0
  0
LINE
  5
5EA
330
20
100
AcDbEntity
  8
STEMPEL
100
AcDbLine
 10
176.8241283000143
 20
552.7714896498871
 30
0.0
 11
188.8241283000141
 21
552.7714896498871
 31
0.0
  0
LINE
  5
5EB
330
20
100
AcDbEntity
  8
STEMPEL
100
AcDbLine
 10
61.82412830001436
 20
554.7714896498871
 30
0.0
 11
188.9957011752674
 21
554.7714896498871
 31
0.0
  0
LINE
  5
5F0
330
20
100
AcDbEntity
  8
BEM
100
AcDbLine
 10
0.0
 20
594.0
 30
0.0
 11
10.0
 21
594.0
 31
0.0
  0
ARC
  5
5F1
330
20
100
AcDbEntity
  8
SCHRAFF
100
AcDbCircle
 10
174.8241283000143
 20
552.7714896498871
 30
0.0
 40
4.0
100
AcDbArc
 50
180.0
 51
270.0
  0
INSERT
  5
5F2
330
20
100
AcDbEntity
  8
SCHRAFF
100
AcDbBlockReference
  2
*X4
 10
-2554.89229786761
 20
-515.7390652294481
 30
0.0
1001
ACAD
1000
HATCH
1002
{
1070
    16
1000
_U,I
1040
0.1
1040
2.356194490192344
1070
     0
1002
}
  0
LINE
  5
5F3
330
20
100
AcDbEntity
  8
STEMPEL
100
AcDbLine
 10
176.8241283000143
 20
506.7714896498872
 30
0.0
 11
176.8241283000143
 21
554.7714896498871
 31
0.0
  0
LINE
  5
5F4
330
20
100
AcDbEntity
  8
STEMPEL
100
AcDbLine
 10
174.8241283000143
 20
506.7714896498872
 30
0.0
 11
174.8241283000143
 21
552.7714896498871
 31
0.0
  0
LINE
  5
5F5
330
20
100
AcDbEntity
  8
MITTEL
100
AcDbLine
 10
111.8241283000143
 20
547.7714896498871
 30
0.0
 11
111.8241283000143
 21
559.7714896498871
 31
0.0
  0
ARC
  5
5F7
330
20
100
AcDbEntity
  8
STEMPEL
100
AcDbCircle
 10
178.8241283000143
 20
506.7714896498872
 30
0.0
 40
4.0
100
AcDbArc
 50
180.0
 51
270.0
  0
ARC
  5
5F8
330
20
100
AcDbEntity
  8
STEMPEL
100
AcDbCircle
 10
178.8241283000143
 20
506.7714896498872
 30
0.0
 40
2.0
100
AcDbArc
 50
180.0
 51
270.0
  0
INSERT
  5
5F9
330
20
100
AcDbEntity
  8
SCHRAFF
100
AcDbBlockReference
  2
*X2
 10
-2554.89229786761
 20
-515.7390652294481
 30
0.0
1001
ACAD
1000
HATCH
1002
{
1070
    16
1000
_U,I
1040
2.0
1040
2.356194490192344
1070
     0
1002
}
  0
POINT
  5
5FE
330
20
100
AcDbEntity
  8
BEM
100
AcDbPoint
 10
61.82412830001436
 20
554.7714896498871
 30
0.0
  0
POINT
  5
5FF
330
20
100
AcDbEntity
  8
BEM
100
AcDbPoint
 10
61.82412830001436
 20
554.7714896498871
 30
0.0
  0
POINT
  5
600
330
20
100
AcDbEntity
  8
BEM
100
AcDbPoint
 10
61.82412830001436
 20
554.7714896498871
 30
0.0
  0
POINT
  5
601
330
20
100
AcDbEntity
  8
BEM
100
AcDbPoint
 10
61.82412830001436
 20
554.7714896498871
 30
0.0
  0
POINT
  5
602
330
20
100
AcDbEntity
  8
BEM
100
AcDbPoint
 10
61.82412830001436
 20
554.7714896498871
 30
0.0
  0
POINT
  5
603
330
20
100
AcDbEntity
  8
BEM
100
AcDbPoint
 10
61.82412830001436
 20
554.7714896498871
 30
0.0
  0
LINE
  5
604
102
{ACAD_REACTORS
330
17D5
102
}
330
20
100
AcDbEntity
  8
STEMPEL
100
AcDbLine
 10
61.82412830001436
 20
552.7714896498871
 30
0.0
 11
61.82412830001436
 21
554.7714896498871
 31
0.0
  0
INSERT
  5
609
330
20
100
AcDbEntity
  8
SCHRAFF
100
AcDbBlockReference
  2
*X3
 10
-2587.683042680471
 20
-515.7390652294481
 30
0.0
1001
ACAD
1000
HATCH
1002
{
1070
    16
1000
_U,I
1040
2.0
1040
2.356194490192344
1070
     0
1002
}
  0
LINE
  5
60A
102
{ACAD_REACTORS
330
1932
102
}
330
20
100
AcDbEntity
  8
STEMPEL
100
AcDbLine
 10
378.8241283000143
 20
502.7015000039933
 30
0.0
 11
378.8241283000143
 21
769.7714896498871
 31
0.0
  0
LINE
  5
60B
102
{ACAD_REACTORS
330
17A2
102
}
330
20
100
AcDbEntity
  8
STEMPEL
100
AcDbLine
 10
376.8241283000144
 20
506.7714896498872
 30
0.0
 11
376.8241283000135
 21
769.7714896498871
 31
0.0
  0
LINE
  5
611
102
{ACAD_REACTORS
330
172C
102
}
330
20
100
AcDbEntity
  8
HILF
100
AcDbLine
 10
260.8241283000142
 20
566.771489649887
 30
0.0
 11
260.8241283000142
 21
542.771489649887
 31
0.0
  0
LINE
  5
612
330
20
100
AcDbEntity
  8
MITTEL
100
AcDbLine
 10
226.821068039998
 20
547.7714896498871
 30
0.0
 11
226.821068039998
 21
559.7714896498871
 31
0.0
  0
ARC
  5
61C
330
20
100
AcDbEntity
  8
STEMPEL
100
AcDbCircle
 10
374.8241283000144
 20
506.7714896498872
 30
0.0
 40
4.0
100
AcDbArc
 50
330.0000000000003
 51
0.0
  0
ARC
  5
61D
330
20
100
AcDbEntity
  8
STEMPEL
100
AcDbCircle
 10
374.8241283000144
 20
506.7714896498872
 30
0.0
 40
2.0
100
AcDbArc
 50
270.0
 51
0.0
  0
LINE
  5
61F
330
20
100
AcDbEntity
  8
STEMPEL
100
AcDbLine
 10
277.409914737641
 20
555.3572760875137
 30
0.0
 11
376.2383418623867
 21
654.1857032122615
 31
0.0
  0
LINE
  5
621
330
20
100
AcDbEntity
  8
STEMPEL
100
AcDbLine
 10
278.8241283000143
 20
553.9430625251409
 30
0.0
 11
376.8241283000139
 21
651.9430625251405
 31
0.0
  0
LINE
  5
624
330
20
100
AcDbEntity
  8
STEMPEL
100
AcDbLine
 10
255.8241283000141
 20
554.7714896498871
 30
0.0
 11
255.8241283000141
 21
552.7714896498871
 31
0.0
  0
LINE
  5
625
330
20
100
AcDbEntity
  8
STEMPEL
100
AcDbLine
 10
267.8241283000144
 20
554.7714896498871
 30
0.0
 11
267.8241283000144
 21
552.7714896498871
 31
0.0
  0
POINT
  5
628
330
20
100
AcDbEntity
  8
DEFPOINTS
  6
ByBlock
 62
     0
100
AcDbPoint
 10
276.8241283000143
 20
554.9511302076383
 30
0.0
  0
POINT
  5
629
330
20
100
AcDbEntity
  8
DEFPOINTS
  6
ByBlock
 62
     0
100
AcDbPoint
 10
276.8241283000143
 20
554.9511302076383
 30
0.0
  0
ARC
  5
62A
330
20
100
AcDbEntity
  8
STEMPEL
100
AcDbCircle
 10
275.9957011752677
 20
556.7714896498871
 30
0.0
 40
2.0
100
AcDbArc
 50
270.0
 51
315.0
  0
ARC
  5
62B
330
20
100
AcDbEntity
  8
STEMPEL
100
AcDbCircle
 10
275.9957011752677
 20
556.7714896498871
 30
0.0
 40
4.0
100
AcDbArc
 50
270.0
 51
315.0
  0
LINE
  5
632
330
20
100
AcDbEntity
  8
STEMPEL
100
AcDbLine
 10
376.8241283000139
 20
654.7714896498871
 30
0.0
 11
378.8241283000143
 21
654.7714896498871
 31
0.0
  0
POINT
  5
633
330
20
100
AcDbEntity
  8
DEFPOINTS
  6
ByBlock
 62
     0
100
AcDbPoint
 10
376.8241283000139
 20
654.7714896498871
 30
0.0
  0
POINT
  5
634
330
20
100
AcDbEntity
  8
DEFPOINTS
  6
ByBlock
 62
     0
100
AcDbPoint
 10
376.8241283000139
 20
654.7714896498889
 30
0.0
  0
POINT
  5
635
330
20
100
AcDbEntity
  8
DEFPOINTS
  6
ByBlock
 62
     0
100
AcDbPoint
 10
376.8241283000139
 20
654.7714896498871
 30
0.0
  0
ARC
  5
636
330
20
100
AcDbEntity
  8
STEMPEL
100
AcDbCircle
 10
374.8241283000144
 20
655.5999167746338
 30
0.0
 40
2.0
100
AcDbArc
 50
315.0
 51
0.0
  0
INSERT
  5
637
330
20
100
AcDbEntity
  8
SCHRAFF
100
AcDbBlockReference
  2
*X7
 10
-16.16768156642803
 20
194.1430086591452
 30
0.0
1001
ACAD
1000
HATCH
1002
{
1070
    16
1000
_U,I
1040
0.1
1040
0.0
1070
     0
1002
}
  0
ARC
  5
638
330
20
100
AcDbEntity
  8
SCHRAFF
100
AcDbCircle
 10
378.8241283000139
 20
654.7714896498871
 30
0.0
 40
2.0
100
AcDbArc
 50
270.000000000013
 51
90.0
  0
POINT
  5
643
330
20
100
AcDbEntity
  8
DEFPOINTS
  6
ByBlock
 62
     0
100
AcDbPoint
 10
376.8241283000144
 20
769.7714896498871
 30
0.0
  0
POINT
  5
644
330
20
100
AcDbEntity
  8
DEFPOINTS
  6
ByBlock
 62
     0
100
AcDbPoint
 10
376.8241283000144
 20
769.7714896498871
 30
0.0
  0
LINE
  5
645
330
20
100
AcDbEntity
  8
STEMPEL
100
AcDbLine
 10
376.8241283000144
 20
769.7714896498871
 30
0.0
 11
378.8241283000143
 21
769.7714896498871
 31
0.0
  0
LINE
  5
646
330
20
100
AcDbEntity
  8
BEM
100
AcDbLine
 10
420.0
 20
840.0
 30
0.0
 11
420.0
 21
830.0
 31
0.0
  0
LINE
  5
647
330
20
100
AcDbEntity
  8
BEM
100
AcDbLine
 10
986.0760484175004
 20
502.7714896498874
 30
0.0
 11
986.0760484175004
 21
397.5476548228611
 31
0.0
  0
TEXT
  5
648
330
20
100
AcDbEntity
  8
TEXT
100
AcDbText
 10
1185.037532261935
 20
11.17566956175294
 30
0.0
 40
5.0
  1
Diese Zeichnung ist urheberrechtlich geschützt und bleibt unser Eigentum. Sie darf weder ganz noch teilweise vervielfältigt und nicht an Dritte weitergegeben werden.
 50
90.0
 41
0.8
  7
GREEKS
100
AcDbText
  0
LINE
  5
649
330
20
100
AcDbEntity
  8
BEM
100
AcDbLine
 10
873.0760484175
 20
550.7714896498871
 30
0.0
 11
873.0760484175
 21
382.1822738287138
 31
0.0
  0
LINE
  5
64A
330
20
100
AcDbEntity
  8
HILF
100
AcDbLine
 10
1188.0
 20
0.0
 30
0.0
 11
1188.0
 21
840.0
 31
0.0
  0
LINE
  5
64B
330
20
100
AcDbEntity
  8
STEMPEL
100
AcDbLine
 10
1178.0
 20
10.0
 30
0.0
 11
1178.0
 21
830.0
 31
0.0
  0
TEXT
  5
64C
330
20
100
AcDbEntity
  8
TEXT
100
AcDbText
 10
960.9995916839586
 20
88.36683844968408
 30
0.0
 40
4.0
  1
DIN EN1123-2
 41
0.8
  7
GREEKS
100
AcDbText
  0
LINE
  5
64E
330
20
100
AcDbEntity
  8
BEM
100
AcDbLine
 10
880.0760484175
 20
384.1822738287138
 30
0.0
 11
1117.41969018601
 21
384.1822738287138
 31
0.0
  0
LINE
  5
64F
330
20
100
AcDbEntity
  8
HILF
100
AcDbLine
 10
914.0000000000002
 20
70.0
 30
0.0
 11
998.0000000000002
 21
70.0
 31
0.0
  0
LINE
  5
650
330
20
100
AcDbEntity
  8
HILF
100
AcDbLine
 10
914.0000000000002
 20
60.0
 30
0.0
 11
998.0000000000002
 21
60.0
 31
0.0
  0
LINE
  5
651
330
20
100
AcDbEntity
  8
HILF
100
AcDbLine
 10
914.0000000000002
 20
50.0
 30
0.0
 11
998.0000000000002
 21
50.0
 31
0.0
  0
INSERT
  5
652
330
20
100
AcDbEntity
  8
HILF
100
AcDbBlockReference
  2
LORO
 10
921.0624985962354
 20
36.9805930029896
 30
0.0
 41
2.0
 42
2.0
 43
2.0
  0
LINE
  5
653
330
20
100
AcDbEntity
  8
STEMPEL
100
AcDbLine
 10
1178.0
 20
110.0
 30
0.0
 11
818.0000000000003
 21
110.0
 31
0.0
  0
LINE
  5
654
330
20
100
AcDbEntity
  8
STEMPEL
100
AcDbLine
 10
1178.0
 20
40.0
 30
0.0
 11
914.0
 21
40.0
 31
0.0
  0
LINE
  5
655
330
20
100
AcDbEntity
  8
STEMPEL
100
AcDbLine
 10
1178.0
 20
80.0
 30
0.0
 11
914.0000000000002
 21
80.0
 31
0.0
  0
LWPOLYLINE
  5
656
330
20
100
AcDbEntity
  8
STEMPEL
100
AcDbPolyline
 90
        5
 70
     0
 43
0.0
 10
730.8992879415736
 20
89.07058998778756
 42
0.0054187822765235
 10
730.6743306455476
 20
109.8271621363224
 42
0.0076535124478842
 10
730.1309277638035
 20
124.5143173947632
 42
0.0183510817093953
 10
728.8675710909483
 20
138.6740098690682
 42
0.353093160201403
 10
728.3279958512458
 20
139.193313772207
 42
0.3778625831796378
  0
LWPOLYLINE
  5
65D
330
20
100
AcDbEntity
  8
HILF
100
AcDbPolyline
 90
        5
 70
     0
 43
0.0
 10
720.9587806226932
 20
89.07058998778756
 42
0.0054187700248182
 10
720.7298969085627
 20
110.1894963405244
 42
0.0076534951877856
 10
720.1770094418243
 20
125.1330358283014
 42
0.0183510408890344
 10
718.8916019581877
 20
139.5399061260902
 42
0.377862663536734
 10
718.289646854298
 20
140.0705899877875
 42
0.3778626635364477
  0
LINE
  5
664
330
20
100
AcDbEntity
  8
STEMPEL
100
AcDbLine
 10
718.3426090395417
 20
140.0682740435144
 30
0.0
 11
728.3279958512458
 21
139.193313772207
 31
0.0
  0
LINE
  5
665
330
20
100
AcDbEntity
  8
STEMPEL
100
AcDbLine
 10
914.0000000000002
 20
109.9999999999999
 30
0.0
 11
914.0
 21
9.999999999999886
 31
0.0
  0
LINE
  5
666
330
20
100
AcDbEntity
  8
VOLL
100
AcDbLine
 10
872.0000000000002
 20
109.9999999999999
 30
0.0
 11
872.0
 21
9.999999999999943
 31
0.0
  0
LINE
  5
667
330
20
100
AcDbEntity
  8
VOLL
100
AcDbLine
 10
892.0000000000001
 20
109.9999999999999
 30
0.0
 11
892.0000000000001
 21
9.999999999999914
 31
0.0
  0
LINE
  5
668
330
20
100
AcDbEntity
  8
STEMPEL
100
AcDbLine
 10
818.0000000000003
 20
110.0
 30
0.0
 11
818.0000000000001
 21
10.0
 31
0.0
  0
LINE
  5
669
330
20
100
AcDbEntity
  8
VOLL
100
AcDbLine
 10
832.0000000000002
 20
110.0
 30
0.0
 11
832.0000000000002
 21
9.999999999999985
 31
0.0
  0
TEXT
  5
66A
330
20
100
AcDbEntity
  8
TEXT
100
AcDbText
 10
826.2664110704577
 20
13.65465846027187
 30
0.0
 40
4.0
  1
Index
 50
90.0
 41
0.8
  7
GREEKS
100
AcDbText
  0
LINE
  5
66B
330
20
100
AcDbEntity
  8
BEM
100
AcDbLine
 10
804.0
 20
0.0
 30
0.0
 11
804.0
 21
10.0
 31
0.0
  0
TEXT
  5
66C
330
20
100
AcDbEntity
  8
TEXT
100
AcDbText
 10
840.4465089582874
 20
18.67381894984129
 30
0.0
 40
4.0
  1
Änderung
 41
0.8
  7
GREEKS
 72
     1
 11
851.1893661011447
 21
18.67381894984129
 31
0.0
100
AcDbText
  0
TEXT
  5
66D
330
20
100
AcDbEntity
  8
TEXT
100
AcDbText
 10
878.4635771332375
 20
18.67156269339808
 30
0.0
 40
4.0
  1
Tag
 41
0.8
  7
GREEKS
 72
     1
 11
882.196910466571
 21
18.67156269339808
 31
0.0
100
AcDbText
  0
TEXT
  5
66E
330
20
100
AcDbEntity
  8
TEXT
100
AcDbText
 10
897.1721580923055
 20
18.59324216966404
 30
0.0
 40
4.0
  1
Name
 41
0.8
  7
GREEKS
 72
     1
 11
903.495967616115
 21
18.59324216966404
 31
0.0
100
AcDbText
  0
LINE
  5
66F
330
20
100
AcDbEntity
  8
HILF
100
AcDbLine
 10
818.0000000000003
 20
100.0
 30
0.0
 11
914.0000000000002
 21
100.0
 31
0.0
  0
LINE
  5
670
330
20
100
AcDbEntity
  8
HILF
100
AcDbLine
 10
818.0000000000003
 20
90.0
 30
0.0
 11
914.0000000000002
 21
90.0
 31
0.0
  0
LINE
  5
671
330
20
100
AcDbEntity
  8
HILF
100
AcDbLine
 10
818.0000000000003
 20
80.0
 30
0.0
 11
914.0000000000002
 21
80.0
 31
0.0
  0
LINE
  5
672
330
20
100
AcDbEntity
  8
HILF
100
AcDbLine
 10
818.0000000000003
 20
70.0
 30
0.0
 11
914.0000000000002
 21
70.0
 31
0.0
  0
LINE
  5
673
330
20
100
AcDbEntity
  8
HILF
100
AcDbLine
 10
818.0000000000003
 20
60.0
 30
0.0
 11
914.0000000000002
 21
60.0
 31
0.0
  0
LINE
  5
674
330
20
100
AcDbEntity
  8
HILF
100
AcDbLine
 10
818.0000000000003
 20
50.0
 30
0.0
 11
914.0000000000002
 21
50.0
 31
0.0
  0
LINE
  5
675
330
20
100
AcDbEntity
  8
HILF
100
AcDbLine
 10
818.0000000000003
 20
40.0
 30
0.0
 11
914.0000000000002
 21
40.0
 31
0.0
  0
TEXT
  5
676
330
20
100
AcDbEntity
  8
TEXT
100
AcDbText
 10
818.0441139350127
 20
114.1143585051043
 30
0.0
 40
5.0
  1
Erstellt mit AUTOCAD 2004
 41
0.8
  7
GREEKS
100
AcDbText
  0
LINE
  5
677
330
20
100
AcDbEntity
  8
STEMPEL
100
AcDbLine
 10
914.0
 20
30.0
 30
0.0
 11
818.0000000000001
 21
30.0
 31
0.0
  0
TEXT
  5
678
330
20
100
AcDbEntity
  8
TEXT
 62
     1
100
AcDbText
 10
930.7034912034222
 20
87.47077088414977
 30
0.0
 40
7.0
  1
1:2
 41
0.8
  7
GREEKS
100
AcDbText
  0
LINE
  5
679
330
20
100
AcDbEntity
  8
VOLL
100
AcDbLine
 10
958.0000000000001
 20
109.9999999999998
 30
0.0
 11
958.0000000000001
 21
40.0
 31
0.0
  0
TEXT
  5
67A
330
20
100
AcDbEntity
  8
TEXT
100
AcDbText
 10
915.5836127167615
 20
63.62990369617961
 30
0.0
 40
4.0
  1
Gez.
 41
0.8
  7
GREEKS
100
AcDbText
  0
TEXT
  5
67B
330
20
100
AcDbEntity
  8
TEXT
100
AcDbText
 10
915.5515086571673
 20
53.68926291428373
 30
0.0
 40
4.0
  1
Gepr.
 41
0.8
  7
GREEKS
100
AcDbText
  0
TEXT
  5
67C
330
20
100
AcDbEntity
  8
TEXT
100
AcDbText
 10
916.8693027807323
 20
72.96682596523723
 30
0.0
 40
4.0
  1
2012
 41
0.8
  7
GREEKS
100
AcDbText
  0
TEXT
  5
67D
330
20
100
AcDbEntity
  8
TEXT
100
AcDbText
 10
915.6006777387304
 20
43.52946389649804
 30
0.0
 40
4.0
  1
Norm.
 41
0.8
  7
GREEKS
100
AcDbText
  0
LINE
  5
67E
330
20
100
AcDbEntity
  8
VOLL
100
AcDbLine
 10
932.0000000000002
 20
80.0
 30
0.0
 11
932.0000000000002
 21
40.0
 31
0.0
  0
TEXT
  5
67F
330
20
100
AcDbEntity
  8
TEXT
100
AcDbText
 10
938.4612856559488
 20
63.1508587612022
 30
0.0
 40
4.0
  1
15.06.
 41
0.8
  7
GREEKS
 72
     1
 11
945.1660475607107
 21
63.1508587612022
 31
0.0
100
AcDbText
  0
TEXT
  5
680
330
20
100
AcDbEntity
  8
TEXT
100
AcDbText
 10
940.3311673153652
 20
73.31880501229919
 30
0.0
 40
4.0
  1
Tag
 41
0.8
  7
GREEKS
100
AcDbText
  0
TEXT
  5
681
330
20
100
AcDbEntity
  8
TEXT
100
AcDbText
 10
921.5163572150379
 20
102.4620895087088
 30
0.0
 40
5.0
  1
Maßstab
 41
0.8
  7
GREEKS
100
AcDbText
  0
SOLID
  5
682
330
20
100
AcDbEntity
  8
BEM
100
AcDbTrace
 10
880.0760484175
 20
385.3489404953804
 30
0.0
 11
880.0760484175
 21
383.0156071620472
 31
0.0
 12
873.0760484175
 22
384.1822738287138
 32
0.0
 13
873.0760484175
 23
384.1822738287138
 33
0.0
  0
LINE
  5
683
330
20
100
AcDbEntity
  8
HILF
100
AcDbLine
 10
1104.723861629699
 20
83.77983636955823
 30
0.0
 11
1172.858883932673
 21
83.77983636955823
 31
0.0
  0
LINE
  5
684
330
20
100
AcDbEntity
  8
VOLL
100
AcDbLine
 10
1100.0
 20
60.0
 30
0.0
 11
1178.0
 21
60.0
 31
0.0
  0
LINE
  5
685
330
20
100
AcDbEntity
  8
HILF
100
AcDbLine
 10
1002.773680109695
 20
14.89398258028305
 30
0.0
 11
1172.858883932673
 21
14.89398258028305
 31
0.0
  0
LINE
  5
686
330
20
100
AcDbEntity
  8
STEMPEL
100
AcDbLine
 10
998.0000000000002
 20
110.0
 30
0.0
 11
998.0000000000002
 21
10.0
 31
0.0
  0
TEXT
  5
687
330
20
100
AcDbEntity
  8
TEXT
100
AcDbText
 10
1002.341094088499
 20
62.34559085209035
 30
0.0
 40
5.0
  1
Klebefl.. Bitumen.-Abdeckbahnen
 41
0.75
  7
GREEKS
100
AcDbText
  0
TEXT
  5
688
330
20
100
AcDbEntity
  8
TEXT
100
AcDbText
 10
1002.341094088499
 20
72.10021383107525
 30
0.0
 40
5.0
  1
DN100 für Attika mit
 41
0.8
  7
GREEKS
100
AcDbText
  0
TEXT
  5
689
330
20
100
AcDbEntity
  8
TEXT
 62
     1
100
AcDbText
 10
1003.039057247319
 20
87.37343075652544
 30
0.0
 40
7.0
  1
LORO-Drainlet-Dachablauf
 41
0.65
  7
GREEKS
100
AcDbText
  0
LINE
  5
68B
330
20
100
AcDbEntity
  8
HILF
100
AcDbLine
 10
1002.773680109695
 20
84.03758247564136
 30
0.0
 11
1094.629784251481
 21
84.03758247564136
 31
0.0
  0
LINE
  5
68C
330
20
100
AcDbEntity
  8
HILF
100
AcDbLine
 10
1002.773680109695
 20
70.0
 30
0.0
 11
1094.629784251481
 21
70.0
 31
0.0
  0
LINE
  5
68D
330
20
100
AcDbEntity
  8
HILF
100
AcDbLine
 10
1002.773680109695
 20
60.0
 30
0.0
 11
1094.629784251481
 21
60.0
 31
0.0
  0
LINE
  5
68E
330
20
100
AcDbEntity
  8
HILF
100
AcDbLine
 10
1002.773680109695
 20
50.0
 30
0.0
 11
1094.629784251481
 21
50.0
 31
0.0
  0
TEXT
  5
68F
330
20
100
AcDbEntity
  8
TEXT
100
AcDbText
 10
1002.341094088499
 20
52.59097337846058
 30
0.0
 40
5.0
  1
EDV-Art.Nr. 01350.100X
 41
0.8
  7
GREEKS
100
AcDbText
  0
TEXT
  5
690
330
20
100
AcDbEntity
  8
TEXT
100
AcDbText
 10
1002.742238391136
 20
30.84560570193055
 30
0.0
 40
5.0
  1
Bauvorhaben
 41
0.8
  7
GREEKS
100
AcDbText
  0
TEXT
  5
691
330
20
100
AcDbEntity
  8
TEXT
100
AcDbText
 10
1002.167605010935
 20
43.31127624791508
 30
0.0
 40
4.0
  1
01350100W.DWG
 41
0.8
  7
GREEKS
100
AcDbText
  0
TEXT
  5
692
330
20
100
AcDbEntity
  8
TEXT
100
AcDbText
 10
970.4626584226296
 20
73.3096109191522
 30
0.0
 40
4.0
  1
Name
 41
0.8
  7
GREEKS
100
AcDbText
  0
TEXT
  5
693
330
20
100
AcDbEntity
  8
TEXT
100
AcDbText
 10
972.023175322661
 20
62.94297655165468
 30
0.0
 40
4.0
  1
Koeh
 41
0.8
  7
GREEKS
 72
     1
 11
977.2803181798039
 21
62.94297655165468
 31
0.0
100
AcDbText
  0
TEXT
  5
694
330
20
100
AcDbEntity
  8
TEXT
100
AcDbText
 10
1002.877940380901
 20
102.5489328011779
 30
0.0
 40
5.0
  1
Benennung
 41
0.8
  7
GREEKS
100
AcDbText
  0
TEXT
  5
695
330
20
100
AcDbEntity
  8
TEXT
100
AcDbText
 10
966.5090226415831
 20
102.83989611379
 30
0.0
 40
5.0
  1
Zul.Abw.
 41
0.8
  7
GREEKS
100
AcDbText
  0
TEXT
  5
696
330
20
100
AcDbEntity
  8
TEXT
 62
     1
100
AcDbText
 10
1115.196142218414
 20
87.37343075652544
 30
0.0
 40
7.0
  1
01350100W
 41
0.8
  7
GREEKS
 72
     1
 11
1138.129475551747
 21
87.37343075652544
 31
0.0
100
AcDbText
  0
LINE
  5
697
330
20
100
AcDbEntity
  8
STEMPEL
100
AcDbLine
 10
1100.0
 20
109.9999999999997
 30
0.0
 11
1100.0
 21
40.0
 31
0.0
  0
TEXT
  5
698
330
20
100
AcDbEntity
  8
TEXT
100
AcDbText
 10
1105.2400861497
 20
52.07416177878596
 30
0.0
 40
5.0
  1
ersetzt durch:
 41
0.8
  7
GREEKS
100
AcDbText
  0
TEXT
  5
699
330
20
100
AcDbEntity
  8
TEXT
100
AcDbText
 10
1104.723861629699
 20
73.18118237099965
 30
0.0
 40
5.0
  1
Ersatz für:
 41
0.8
  7
GREEKS
100
AcDbText
  0
TEXT
  5
69A
330
20
100
AcDbEntity
  8
TEXT
100
AcDbText
 10
1104.178754957634
 20
102.3132034537135
 30
0.0
 40
5.0
  1
Zeichnungs Nr.
 41
0.8
  7
GREEKS
100
AcDbText
  0
LINE
  5
69B
330
20
100
AcDbEntity
  8
BEM
100
AcDbLine
 10
993.0760484175005
 20
399.547654822861
 30
0.0
 11
1117.41969018601
 21
399.547654822861
 31
0.0
  0
SOLID
  5
69C
330
20
100
AcDbEntity
  8
BEM
100
AcDbTrace
 10
993.0760484175005
 20
400.7143214895277
 30
0.0
 11
993.0760484175005
 21
398.3809881561944
 31
0.0
 12
986.0760484175004
 22
399.547654822861
 32
0.0
 13
986.0760484175004
 23
399.547654822861
 33
0.0
  0
TEXT
  5
69D
330
20
100
AcDbEntity
  8
BEM
 62
     1
100
AcDbText
 10
1103.378724338998
 20
387.6822738287138
 30
0.0
 40
7.0
  1
480
 41
0.8
  7
GREEKS
 72
     1
 11
1110.578724338998
 21
391.1822738287138
 31
0.0
100
AcDbText
 73
     2
  0
TEXT
  5
69E
330
20
100
AcDbEntity
  8
BEM
 62
     1
100
AcDbText
 10
1102.872026254534
 20
403.047654822861
 30
0.0
 40
7.0
  1
254
 41
0.8
  7
GREEKS
 72
     1
 11
1110.205359587867
 21
406.547654822861
 31
0.0
100
AcDbText
 73
     2
  0
LINE
  5
69F
330
20
100
AcDbEntity
  8
HILF
100
AcDbLine
 10
875.0760484175
 20
654.7745499099039
 30
0.0
 11
986.0760484175004
 21
654.7745499099039
 31
0.0
  0
LINE
  5
6A0
102
{ACAD_REACTORS
330
174E
102
}
330
20
100
AcDbEntity
  8
STEMPEL
100
AcDbLine
 10
893.0760484174999
 20
769.7714896498871
 30
0.0
 11
1113.0760484175
 21
769.7714896498871
 31
0.0
  0
LINE
  5
6A1
102
{ACAD_REACTORS
330
174E
330
1766
102
}
330
20
100
AcDbEntity
  8
STEMPEL
100
AcDbLine
 10
873.0760484175
 20
552.7714896498871
 30
0.0
 11
1113.076048417501
 21
552.7714896498873
 31
0.0
  0
LINE
  5
6A2
330
20
100
AcDbEntity
  8
STEMPEL
100
AcDbLine
 10
873.0760484175
 20
554.7714896498871
 30
0.0
 11
1113.076048417501
 21
554.7714896498873
 31
0.0
  0
LINE
  5
6A4
330
20
100
AcDbEntity
  8
STEMPEL
100
AcDbLine
 10
873.0760484175
 20
552.7714896498871
 30
0.0
 11
873.0760484175
 21
749.7714896498871
 31
0.0
  0
LINE
  5
6AC
330
20
100
AcDbEntity
  8
MITTEL
100
AcDbLine
 10
913.0760484175
 20
547.7714896498871
 30
0.0
 11
913.0760484175004
 21
559.7714896498875
 31
0.0
  0
POINT
  5
6AD
330
20
100
AcDbEntity
  8
DEFPOINTS
  6
ByBlock
 62
     0
100
AcDbPoint
 10
873.0760484175
 20
552.7714896498871
 30
0.0
  0
LINE
  5
6AE
330
20
100
AcDbEntity
  8
STEMPEL
100
AcDbLine
 10
893.0760484174999
 20
552.7714896498871
 30
0.0
 11
893.0760484174999
 21
554.7714896498871
 31
0.0
  0
CIRCLE
  5
6B1
330
20
100
AcDbEntity
  8
STEMPEL
100
AcDbCircle
 10
913.0760484175
 20
719.7714896498871
 30
0.0
 40
6.5
  0
LINE
  5
6B2
330
20
100
AcDbEntity
  8
MITTEL
100
AcDbLine
 10
901.5760484175
 20
719.7714896498871
 30
0.0
 11
924.5760484175001
 21
719.7714896498871
 31
0.0
  0
LINE
  5
6B3
330
20
100
AcDbEntity
  8
MITTEL
100
AcDbLine
 10
913.0760484175
 20
708.2714896498871
 30
0.0
 11
913.0760484175
 21
731.2714896498871
 31
0.0
  0
CIRCLE
  5
6B4
330
20
100
AcDbEntity
  8
STEMPEL
100
AcDbCircle
 10
913.0760484175
 20
719.7714896498871
 30
0.0
 40
3.5
  0
LINE
  5
6B5
330
20
100
AcDbEntity
  8
STEMPEL
100
AcDbLine
 10
893.0760484174999
 20
769.7714896498871
 30
0.0
 11
873.0760484175
 21
749.7714896498871
 31
0.0
  0
LINE
  5
6B6
330
20
100
AcDbEntity
  8
BEM
100
AcDbLine
 10
804.0
 20
830.0
 30
0.0
 11
804.0
 21
840.0
 31
0.0
  0
LINE
  5
6B8
330
20
100
AcDbEntity
  8
MITTEL
100
AcDbLine
 10
1113.0760484175
 20
426.4303604426542
 30
0.0
 11
1113.0760484175
 21
774.7714896498871
 31
0.0
  0
ARC
  5
6B9
330
20
100
AcDbEntity
  8
SCHRAFF
100
AcDbCircle
 10
1108.248623024375
 20
550.7714896498874
 30
0.0
 40
3.102491019955858
100
AcDbArc
 50
319.8610645955816
 51
40.1389354044184
  0
ARC
  5
6BA
330
20
100
AcDbEntity
  8
SCHRAFF
100
AcDbCircle
 10
1103.248623024374
 20
550.7714896498874
 30
0.0
 40
3.102491019955858
100
AcDbArc
 50
319.8610645955816
 51
40.1389354044184
  0
ARC
  5
6BB
330
20
100
AcDbEntity
  8
SCHRAFF
100
AcDbCircle
 10
1098.248623024375
 20
550.7714896498874
 30
0.0
 40
3.102491019955858
100
AcDbArc
 50
319.8610645955816
 51
40.1389354044184
  0
ARC
  5
6BC
330
20
100
AcDbEntity
  8
SCHRAFF
100
AcDbCircle
 10
1093.248623024375
 20
550.7714896498874
 30
0.0
 40
3.102491019955858
100
AcDbArc
 50
319.8610645955816
 51
40.1389354044184
  0
ARC
  5
6BD
330
20
100
AcDbEntity
  8
SCHRAFF
100
AcDbCircle
 10
1088.248623024375
 20
550.7714896498874
 30
0.0
 40
3.102491019955858
100
AcDbArc
 50
319.8610645955816
 51
40.1389354044184
  0
ARC
  5
6BE
330
20
100
AcDbEntity
  8
SCHRAFF
100
AcDbCircle
 10
1083.248623024375
 20
550.7714896498874
 30
0.0
 40
3.102491019955858
100
AcDbArc
 50
319.8610645955816
 51
40.1389354044184
  0
ARC
  5
6BF
330
20
100
AcDbEntity
  8
SCHRAFF
100
AcDbCircle
 10
1073.248623024375
 20
550.7714896498874
 30
0.0
 40
3.102491019955858
100
AcDbArc
 50
319.8610645955816
 51
40.1389354044184
  0
ARC
  5
6C0
330
20
100
AcDbEntity
  8
SCHRAFF
100
AcDbCircle
 10
1068.248623024375
 20
550.7714896498874
 30
0.0
 40
3.102491019955858
100
AcDbArc
 50
319.8610645955816
 51
40.1389354044184
  0
ARC
  5
6C1
330
20
100
AcDbEntity
  8
SCHRAFF
100
AcDbCircle
 10
1058.248623024375
 20
550.7714896498874
 30
0.0
 40
3.102491019955858
100
AcDbArc
 50
319.8610645955816
 51
40.1389354044184
  0
ARC
  5
6C2
330
20
100
AcDbEntity
  8
SCHRAFF
100
AcDbCircle
 10
1063.248623024375
 20
550.7714896498874
 30
0.0
 40
3.102491019955858
100
AcDbArc
 50
319.8610645955816
 51
40.1389354044184
  0
ARC
  5
6C3
330
20
100
AcDbEntity
  8
SCHRAFF
100
AcDbCircle
 10
1078.248623024375
 20
550.7714896498874
 30
0.0
 40
3.102491019955858
100
AcDbArc
 50
319.8610645955816
 51
40.1389354044184
  0
ARC
  5
6C4
330
20
100
AcDbEntity
  8
SCHRAFF
100
AcDbCircle
 10
1048.248623024375
 20
550.7714896498874
 30
0.0
 40
3.102491019955858
100
AcDbArc
 50
319.8610645955816
 51
40.1389354044184
  0
ARC
  5
6C5
330
20
100
AcDbEntity
  8
SCHRAFF
100
AcDbCircle
 10
1053.248623024375
 20
550.7714896498874
 30
0.0
 40
3.102491019955858
100
AcDbArc
 50
319.8610645955816
 51
40.1389354044184
  0
ARC
  5
6C6
330
20
100
AcDbEntity
  8
SCHRAFF
100
AcDbCircle
 10
1038.248623024375
 20
550.7714896498874
 30
0.0
 40
3.102491019955858
100
AcDbArc
 50
319.8610645955816
 51
40.1389354044184
  0
ARC
  5
6C7
330
20
100
AcDbEntity
  8
SCHRAFF
100
AcDbCircle
 10
1033.248623024375
 20
550.7714896498874
 30
0.0
 40
3.102491019955858
100
AcDbArc
 50
319.8610645955816
 51
40.1389354044184
  0
ARC
  5
6C8
330
20
100
AcDbEntity
  8
SCHRAFF
100
AcDbCircle
 10
1043.248623024375
 20
550.7714896498874
 30
0.0
 40
3.102491019955858
100
AcDbArc
 50
319.8610645955816
 51
40.1389354044184
  0
ARC
  5
6C9
330
20
100
AcDbEntity
  8
SCHRAFF
100
AcDbCircle
 10
1023.248623024375
 20
550.7714896498874
 30
0.0
 40
3.102491019955858
100
AcDbArc
 50
319.8610645955816
 51
40.1389354044184
  0
ARC
  5
6CA
330
20
100
AcDbEntity
  8
SCHRAFF
100
AcDbCircle
 10
1028.248623024375
 20
550.7714896498874
 30
0.0
 40
3.102491019955858
100
AcDbArc
 50
319.8610645955816
 51
40.1389354044184
  0
ARC
  5
6CB
330
20
100
AcDbEntity
  8
SCHRAFF
100
AcDbCircle
 10
1013.248623024375
 20
550.7714896498874
 30
0.0
 40
3.102491019955858
100
AcDbArc
 50
319.8610645955816
 51
40.1389354044184
  0
ARC
  5
6CC
330
20
100
AcDbEntity
  8
SCHRAFF
100
AcDbCircle
 10
1018.248623024375
 20
550.7714896498874
 30
0.0
 40
3.102491019955858
100
AcDbArc
 50
319.8610645955816
 51
40.1389354044184
  0
ARC
  5
6CD
330
20
100
AcDbEntity
  8
SCHRAFF
100
AcDbCircle
 10
998.2486230243749
 20
550.7714896498874
 30
0.0
 40
3.102491019955858
100
AcDbArc
 50
319.8610645955816
 51
40.1389354044184
  0
ARC
  5
6CE
330
20
100
AcDbEntity
  8
SCHRAFF
100
AcDbCircle
 10
1003.248623024375
 20
550.7714896498874
 30
0.0
 40
3.102491019955858
100
AcDbArc
 50
319.8610645955816
 51
40.1389354044184
  0
ARC
  5
6CF
330
20
100
AcDbEntity
  8
SCHRAFF
100
AcDbCircle
 10
1008.248623024375
 20
550.7714896498874
 30
0.0
 40
3.102491019955858
100
AcDbArc
 50
319.8610645955816
 51
40.1389354044184
  0
ARC
  5
6D0
330
20
100
AcDbEntity
  8
SCHRAFF
100
AcDbCircle
 10
993.2486230243748
 20
550.7714896498874
 30
0.0
 40
3.102491019955858
100
AcDbArc
 50
319.8610645955816
 51
40.1389354044184
  0
ARC
  5
6D1
330
20
100
AcDbEntity
  8
SCHRAFF
100
AcDbCircle
 10
988.2486230243749
 20
550.7714896498874
 30
0.0
 40
3.102491019955858
100
AcDbArc
 50
319.8610645955816
 51
40.1389354044184
  0
ARC
  5
6D2
330
20
100
AcDbEntity
  8
SCHRAFF
100
AcDbCircle
 10
986.0760484175004
 20
552.7714896498871
 30
0.0
 40
4.0
100
AcDbArc
 50
180.0
 51
270.0
  0
INSERT
  5
6D3
330
20
100
AcDbEntity
  8
SCHRAFF
100
AcDbBlockReference
  2
*X5
 10
-844.1697319566751
 20
-493.5329471533383
 30
0.0
1001
ACAD
1000
HATCH
1002
{
1070
    16
1000
_U,I
1040
0.1
1040
0.7853981633974483
1070
     0
1002
}
  0
LINE
  5
6D4
330
20
100
AcDbEntity
  8
STEMPEL
100
AcDbLine
 10
986.0760484175004
 20
504.7714896498875
 30
0.0
 11
986.0760484175004
 21
552.7714896498871
 31
0.0
  0
LINE
  5
6D5
102
{ACAD_REACTORS
330
1766
102
}
330
20
100
AcDbEntity
  8
STEMPEL
100
AcDbLine
 10
990.0760484175005
 20
500.7714896498876
 30
0.0
 11
1113.0760484175
 21
500.7714896498876
 31
0.0
  0
ARC
  5
6D6
330
20
100
AcDbEntity
  8
STEMPEL
100
AcDbCircle
 10
990.0760484175005
 20
504.7714896498875
 30
0.0
 40
4.0
100
AcDbArc
 50
180.0
 51
270.0
  0
POINT
  5
6D7
330
20
100
AcDbEntity
  8
DEFPOINTS
  6
ByBlock
 62
     0
100
AcDbPoint
 10
986.0760484175004
 20
504.7714896498875
 30
0.0
  0
POINT
  5
6D8
330
20
100
AcDbEntity
  8
DEFPOINTS
  6
ByBlock
 62
     0
100
AcDbPoint
 10
986.0760484175004
 20
504.7714896498875
 30
0.0
  0
LINE
  5
6D9
330
20
100
AcDbEntity
  8
STEMPEL
100
AcDbLine
 10
1062.0760484175
 20
482.3604667151365
 30
0.0
 11
1062.0760484175
 21
500.7714896498876
 31
0.0
  0
LWPOLYLINE
  5
6DA
330
20
100
AcDbEntity
  8
STEMPEL
100
AcDbPolyline
 90
        5
 70
     0
 43
0.0
 10
1062.084982657226
 20
500.7714896498876
 42
0.0938845272872377
 10
1065.957125118549
 20
482.237983533615
 42
0.0985420406787842
 10
1077.013602576986
 20
465.7117470132037
 42
0.0984406478497063
 10
1093.555872857001
 20
454.672551642878
 42
0.0983690720561284
 10
1113.0760484175
 20
450.7946642525448
 42
0.0983690720561279
  0
LWPOLYLINE
  5
6E1
330
20
100
AcDbEntity
  8
STEMPEL
100
AcDbPolyline
 90
        5
 70
     0
 43
0.0
 10
1062.0760484175
 20
482.3604667151365
 42
0.0986138562678672
 10
1065.957125118549
 20
462.8736797237233
 42
0.0985420406787809
 10
1077.013602576986
 20
446.3474432033121
 42
0.0984406478497105
 10
1093.555872857001
 20
435.3082478329863
 42
0.0983690720561277
 10
1113.0760484175
 20
431.4303604426533
 42
0.0983690720561265
  0
ARC
  5
6E8
330
20
100
AcDbEntity
  8
SCHRAFF
100
AcDbCircle
 10
1079.446124890033
 20
499.2714896498876
 30
0.0
 40
1.904989154296651
100
AcDbArc
 50
308.0562399600348
 51
51.9437600399652
  0
ARC
  5
6E9
330
20
100
AcDbEntity
  8
SCHRAFF
100
AcDbCircle
 10
1064.446124890033
 20
499.2714896498876
 30
0.0
 40
1.904989154296651
100
AcDbArc
 50
308.0562399600348
 51
51.9437600399652
  0
INSERT
  5
6EA
330
20
100
AcDbEntity
  8
SCHRAFF
100
AcDbBlockReference
  2
*X8
 10
-1.0
 20
-1.0
 30
0.0
1001
ACAD
1000
HATCH
1002
{
1070
    16
1000
_U,I
1040
0.1
1040
0.0
1070
     0
1002
}
  0
ARC
  5
6EB
330
20
100
AcDbEntity
  8
SCHRAFF
100
AcDbCircle
 10
1062.0760484175
 20
500.7714896498876
 30
0.0
 40
3.0
100
AcDbArc
 50
180.0
 51
272.9341062602153
  0
ARC
  5
6EC
330
20
100
AcDbEntity
  8
SCHRAFF
100
AcDbCircle
 10
1074.446124890033
 20
499.2714896498876
 30
0.0
 40
1.904989154296651
100
AcDbArc
 50
308.0562399600348
 51
51.9437600399652
  0
ARC
  5
6ED
330
20
100
AcDbEntity
  8
SCHRAFF
100
AcDbCircle
 10
1069.446124890033
 20
499.2714896498876
 30
0.0
 40
1.904989154296651
100
AcDbArc
 50
308.0562399600348
 51
51.9437600399652
  0
ARC
  5
6EE
330
20
100
AcDbEntity
  8
SCHRAFF
100
AcDbCircle
 10
1089.446124890034
 20
499.2714896498876
 30
0.0
 40
1.904989154296651
100
AcDbArc
 50
308.0562399600348
 51
51.9437600399652
  0
ARC
  5
6EF
330
20
100
AcDbEntity
  8
SCHRAFF
100
AcDbCircle
 10
1084.446124890033
 20
499.2714896498876
 30
0.0
 40
1.904989154296651
100
AcDbArc
 50
308.0562399600348
 51
51.9437600399652
  0
ARC
  5
6F0
330
20
100
AcDbEntity
  8
SCHRAFF
100
AcDbCircle
 10
1099.446124890033
 20
499.2714896498876
 30
0.0
 40
1.904989154296651
100
AcDbArc
 50
308.0562399600348
 51
51.9437600399652
  0
ARC
  5
6F1
330
20
100
AcDbEntity
  8
SCHRAFF
100
AcDbCircle
 10
1094.446124890033
 20
499.2714896498876
 30
0.0
 40
1.904989154296651
100
AcDbArc
 50
308.0562399600348
 51
51.9437600399652
  0
ARC
  5
6F2
330
20
100
AcDbEntity
  8
SCHRAFF
100
AcDbCircle
 10
1109.446124890033
 20
499.2714896498876
 30
0.0
 40
1.904989154296651
100
AcDbArc
 50
308.0562399600348
 51
51.9437600399652
  0
ARC
  5
6F3
330
20
100
AcDbEntity
  8
SCHRAFF
100
AcDbCircle
 10
1104.446124890033
 20
499.2714896498876
 30
0.0
 40
1.904989154296651
100
AcDbArc
 50
308.0562399600348
 51
51.9437600399652
  0
LINE
  5
6F4
330
20
100
AcDbEntity
  8
STEMPEL
100
AcDbLine
 10
988.0760484175004
 20
654.7714896498871
 30
0.0
 11
1113.0760484175
 21
654.7714896498871
 31
0.0
  0
LINE
  5
6F5
330
20
100
AcDbEntity
  8
STEMPEL
100
AcDbLine
 10
988.0760484175004
 20
651.7706178363864
 30
0.0
 11
988.0760484175004
 21
654.7714896498871
 31
0.0
  0
LINE
  5
6F6
330
20
100
AcDbEntity
  8
BEM
100
AcDbLine
 10
1178.0
 20
594.0
 30
0.0
 11
1188.0
 21
594.0
 31
0.0
  0
LINE
  5
7B1
330
20
100
AcDbEntity
  8
MITTEL
100
AcDbLine
 10
215.321068039998
 20
289.0705899877878
 30
0.0
 11
238.321068039998
 21
289.0705899877878
 31
0.0
  0
LINE
  5
D20
330
20
100
AcDbEntity
  8
VERDECKT
100
AcDbLine
 10
190.8241283000138
 20
212.0705899877871
 30
0.0
 11
190.8241283000141
 21
144.0705899877875
 31
0.0
  0
LINE
  5
D21
330
20
100
AcDbEntity
  8
VERDECKT
100
AcDbLine
 10
210.8241283000138
 20
212.0705899877872
 30
0.0
 11
210.8241283000141
 21
144.0705899877876
 31
0.0
  0
LINE
  5
D22
330
20
100
AcDbEntity
  8
VERDECKT
100
AcDbLine
 10
230.8241283000139
 20
212.0705899877872
 30
0.0
 11
230.8241283000141
 21
144.0705899877876
 31
0.0
  0
LINE
  5
D23
330
20
100
AcDbEntity
  8
VERDECKT
100
AcDbLine
 10
250.8241283000138
 20
212.0705899877872
 30
0.0
 11
250.8241283000141
 21
144.0705899877876
 31
0.0
  0
LINE
  5
D24
330
20
100
AcDbEntity
  8
STEMPEL
100
AcDbLine
 10
208.8241283000138
 20
212.0705899877872
 30
0.0
 11
208.8241283000141
 21
144.0705899877876
 31
0.0
  0
LINE
  5
D25
330
20
100
AcDbEntity
  8
STEMPEL
100
AcDbLine
 10
197.8241283000141
 20
214.0705899877872
 30
0.0
 11
197.8241283000141
 21
142.0705899877873
 31
0.0
  0
LINE
  5
D26
330
20
100
AcDbEntity
  8
STEMPEL
100
AcDbLine
 10
177.8241283000141
 20
214.0705899877873
 30
0.0
 11
177.8241283000141
 21
142.0705899877873
 31
0.0
  0
LINE
  5
D27
330
20
100
AcDbEntity
  8
STEMPEL
100
AcDbLine
 10
188.8241283000138
 20
212.0705899877871
 30
0.0
 11
188.8241283000141
 21
144.0705899877875
 31
0.0
  0
LINE
  5
D28
330
20
100
AcDbEntity
  8
STEMPEL
100
AcDbLine
 10
217.8241283000141
 20
214.0705899877872
 30
0.0
 11
217.8241283000141
 21
142.0705899877873
 31
0.0
  0
LINE
  5
D29
330
20
100
AcDbEntity
  8
STEMPEL
100
AcDbLine
 10
228.8241283000139
 20
212.0705899877872
 30
0.0
 11
228.8241283000141
 21
144.0705899877876
 31
0.0
  0
LINE
  5
D2A
330
20
100
AcDbEntity
  8
STEMPEL
100
AcDbLine
 10
237.8241283000141
 20
214.0705899877872
 30
0.0
 11
237.8241283000141
 21
142.0705899877873
 31
0.0
  0
LINE
  5
D2B
330
20
100
AcDbEntity
  8
STEMPEL
100
AcDbLine
 10
248.8241283000139
 20
212.0705899877872
 30
0.0
 11
248.8241283000141
 21
144.0705899877876
 31
0.0
  0
LINE
  5
D2C
330
20
100
AcDbEntity
  8
VERDECKT
100
AcDbLine
 10
269.8241283000141
 20
89.07058998778756
 30
0.0
 11
269.8241283000143
 21
227.0705899877874
 31
0.0
  0
LINE
  5
D2D
330
20
100
AcDbEntity
  8
VERDECKT
100
AcDbLine
 10
363.8241283000141
 20
89.07058998778756
 30
0.0
 11
363.8241283000141
 21
227.0705899877874
 31
0.0
  0
LINE
  5
D2E
330
20
100
AcDbEntity
  8
MITTEL
100
AcDbLine
 10
261.8241283000141
 20
215.0705899877873
 30
0.0
 11
261.8241283000141
 21
193.0705899877873
 31
0.0
  0
LINE
  5
D32
330
20
100
AcDbEntity
  8
STEMPEL
100
AcDbLine
 10
365.824128300014
 20
89.07058998778756
 30
0.0
 11
365.8241283000141
 21
227.0705899877874
 31
0.0
  0
LINE
  5
D33
330
20
100
AcDbEntity
  8
STEMPEL
100
AcDbLine
 10
162.8241283000141
 20
229.0705899877874
 30
0.0
 11
162.8241283000141
 21
89.07058998778753
 31
0.0
  0
LINE
  5
D34
330
20
100
AcDbEntity
  8
STEMPEL
100
AcDbLine
 10
267.8241283000141
 20
229.0705899877874
 30
0.0
 11
267.8241283000141
 21
89.07058998778754
 31
0.0
  0
LINE
  5
D35
330
20
100
AcDbEntity
  8
STEMPEL
100
AcDbLine
 10
267.8241283000141
 20
89.07058998778754
 30
0.0
 11
267.8241283000141
 21
229.0705899877874
 31
0.0
  0
LINE
  5
D3C
330
20
100
AcDbEntity
  8
STEMPEL
100
AcDbLine
 10
190.8241283000138
 20
129.0705899877869
 30
0.0
 11
177.8241283000141
 21
129.0705899877871
 31
0.0
  0
LINE
  5
D3D
330
20
100
AcDbEntity
  8
STEMPEL
100
AcDbLine
 10
190.8241283000141
 20
142.0705899877873
 30
0.0
 11
177.8241283000141
 21
142.0705899877873
 31
0.0
  0
LINE
  5
D45
330
20
100
AcDbEntity
  8
STEMPEL
100
AcDbLine
 10
177.8241283000141
 20
129.0705899877873
 30
0.0
 11
177.8241283000141
 21
89.07058998778754
 31
0.0
  0
LINE
  5
D57
330
20
100
AcDbEntity
  8
MITTEL
100
AcDbLine
 10
278.2232950431699
 20
194.2460716727235
 30
0.0
 11
300.4676730265119
 21
133.6369352426185
 31
0.0
  0
LINE
  5
D58
330
20
100
AcDbEntity
  8
MITTEL
100
AcDbLine
 10
355.4249615568585
 20
194.2460716727235
 30
0.0
 11
316.8241283000142
 21
89.07058998778754
 31
0.0
  0
ARC
  5
D72
330
20
100
AcDbEntity
  8
STEMPEL
100
AcDbCircle
 10
316.8241283000141
 20
89.07058998778737
 30
0.0
 40
7.0
100
AcDbArc
 50
0.0000000000013958
 51
179.9999999999986
  0
LINE
  5
D76
330
20
100
AcDbEntity
  8
VERDECKT
100
AcDbLine
 10
190.8241283000138
 20
127.0705899877871
 30
0.0
 11
190.8241283000139
 21
89.07058998778753
 31
0.0
  0
LINE
  5
D77
330
20
100
AcDbEntity
  8
VERDECKT
100
AcDbLine
 10
210.8241283000138
 20
127.0705899877872
 30
0.0
 11
210.824128300014
 21
89.07058998778753
 31
0.0
  0
LINE
  5
D78
330
20
100
AcDbEntity
  8
VERDECKT
100
AcDbLine
 10
230.8241283000139
 20
127.0705899877872
 30
0.0
 11
230.8241283000139
 21
89.07058998778754
 31
0.0
  0
LINE
  5
D79
330
20
100
AcDbEntity
  8
VERDECKT
100
AcDbLine
 10
250.8241283000138
 20
127.0705899877872
 30
0.0
 11
250.824128300014
 21
89.07058998778754
 31
0.0
  0
LINE
  5
D7A
330
20
100
AcDbEntity
  8
STEMPEL
100
AcDbLine
 10
208.8241283000138
 20
127.0705899877872
 30
0.0
 11
208.8241283000139
 21
89.07058998778753
 31
0.0
  0
LINE
  5
D7B
330
20
100
AcDbEntity
  8
STEMPEL
100
AcDbLine
 10
197.8241283000141
 20
129.0705899877872
 30
0.0
 11
197.8241283000141
 21
89.07058998778754
 31
0.0
  0
LINE
  5
D7C
330
20
100
AcDbEntity
  8
STEMPEL
100
AcDbLine
 10
188.8241283000138
 20
127.0705899877871
 30
0.0
 11
188.8241283000139
 21
89.07058998778753
 31
0.0
  0
LINE
  5
D7D
330
20
100
AcDbEntity
  8
STEMPEL
100
AcDbLine
 10
217.8241283000141
 20
129.0705899877872
 30
0.0
 11
217.8241283000141
 21
89.07058998778756
 31
0.0
  0
LINE
  5
D7E
330
20
100
AcDbEntity
  8
STEMPEL
100
AcDbLine
 10
228.8241283000139
 20
127.0705899877872
 30
0.0
 11
228.8241283000139
 21
89.07058998778754
 31
0.0
  0
LINE
  5
D7F
330
20
100
AcDbEntity
  8
STEMPEL
100
AcDbLine
 10
237.8241283000141
 20
129.0705899877872
 30
0.0
 11
237.8241283000141
 21
89.07058998778756
 31
0.0
  0
LINE
  5
D80
330
20
100
AcDbEntity
  8
STEMPEL
100
AcDbLine
 10
248.8241283000139
 20
127.0705899877872
 30
0.0
 11
248.8241283000139
 21
89.07058998778754
 31
0.0
  0
LINE
  5
D81
330
20
100
AcDbEntity
  8
STEMPEL
100
AcDbLine
 10
313.3438358800045
 20
110.1629479562844
 30
0.0
 11
285.0214714226056
 21
187.1172344908766
 31
0.0
  0
LINE
  5
D82
330
20
100
AcDbEntity
  8
STEMPEL
100
AcDbLine
 10
305.8336678684789
 20
107.4066140797997
 30
0.0
 11
277.51130341108
 21
184.3609006143918
 31
0.0
  0
LINE
  5
D9C
330
20
100
AcDbEntity
  8
MITTEL
100
AcDbLine
 10
316.8241283000141
 20
89.07058998778731
 30
0.0
 11
316.8241283000141
 21
100.1623284566355
 31
0.0
  0
ARC
  5
D9F
330
20
100
AcDbEntity
  8
STEMPEL
100
AcDbCircle
 10
309.5887518742415
 20
108.7847810180421
 30
0.0
 40
4.0
100
AcDbArc
 50
200.1538240580522
 51
20.15382405805301
  0
LINE
  5
DA0
330
20
100
AcDbEntity
  8
STEMPEL
100
AcDbLine
 10
230.8241283000139
 20
129.0705899877871
 30
0.0
 11
217.8241283000141
 21
129.0705899877872
 31
0.0
  0
LINE
  5
DA1
330
20
100
AcDbEntity
  8
STEMPEL
100
AcDbLine
 10
230.8241283000141
 20
142.0705899877873
 30
0.0
 11
217.8241283000141
 21
142.0705899877873
 31
0.0
  0
LINE
  5
DA2
330
20
100
AcDbEntity
  8
STEMPEL
100
AcDbLine
 10
210.8241283000138
 20
129.0705899877871
 30
0.0
 11
197.8241283000141
 21
129.0705899877872
 31
0.0
  0
LINE
  5
DA3
330
20
100
AcDbEntity
  8
STEMPEL
100
AcDbLine
 10
190.8241283000138
 20
129.0705899877869
 30
0.0
 11
190.8241283000138
 21
127.0705899877871
 31
0.0
  0
LINE
  5
DA4
330
20
100
AcDbEntity
  8
STEMPEL
100
AcDbLine
 10
190.8241283000138
 20
127.0705899877871
 30
0.0
 11
188.8241283000141
 21
127.0705899877871
 31
0.0
  0
LINE
  5
DA5
330
20
100
AcDbEntity
  8
STEMPEL
100
AcDbLine
 10
210.8241283000138
 20
129.0705899877871
 30
0.0
 11
210.8241283000138
 21
127.0705899877872
 31
0.0
  0
LINE
  5
DA6
330
20
100
AcDbEntity
  8
STEMPEL
100
AcDbLine
 10
210.8241283000141
 20
127.0705899877872
 30
0.0
 11
208.8241283000141
 21
127.0705899877872
 31
0.0
  0
LINE
  5
DA7
330
20
100
AcDbEntity
  8
STEMPEL
100
AcDbLine
 10
210.8241283000141
 20
142.0705899877873
 30
0.0
 11
197.8241283000141
 21
142.0705899877873
 31
0.0
  0
LINE
  5
DA8
330
20
100
AcDbEntity
  8
STEMPEL
100
AcDbLine
 10
190.8241283000141
 20
144.0705899877872
 30
0.0
 11
190.8241283000141
 21
142.0705899877872
 31
0.0
  0
LINE
  5
DA9
330
20
100
AcDbEntity
  8
STEMPEL
100
AcDbLine
 10
190.8241283000141
 20
144.0705899877875
 30
0.0
 11
188.8241283000141
 21
144.0705899877875
 31
0.0
  0
LINE
  5
DAA
330
20
100
AcDbEntity
  8
STEMPEL
100
AcDbLine
 10
210.8241283000141
 20
144.0705899877872
 30
0.0
 11
210.8241283000141
 21
142.0705899877873
 31
0.0
  0
LINE
  5
DAB
330
20
100
AcDbEntity
  8
STEMPEL
100
AcDbLine
 10
210.8241283000141
 20
144.0705899877876
 30
0.0
 11
208.8241283000141
 21
144.0705899877876
 31
0.0
  0
LINE
  5
DAC
330
20
100
AcDbEntity
  8
STEMPEL
100
AcDbLine
 10
230.8241283000139
 20
129.0705899877871
 30
0.0
 11
230.8241283000139
 21
127.0705899877872
 31
0.0
  0
LINE
  5
DAD
330
20
100
AcDbEntity
  8
STEMPEL
100
AcDbLine
 10
230.8241283000141
 20
127.0705899877872
 30
0.0
 11
228.8241283000141
 21
127.0705899877872
 31
0.0
  0
LINE
  5
DAE
330
20
100
AcDbEntity
  8
STEMPEL
100
AcDbLine
 10
250.8241283000138
 20
129.0705899877871
 30
0.0
 11
250.8241283000138
 21
127.0705899877872
 31
0.0
  0
LINE
  5
DAF
330
20
100
AcDbEntity
  8
STEMPEL
100
AcDbLine
 10
250.8241283000141
 20
127.0705899877872
 30
0.0
 11
248.8241283000141
 21
127.0705899877872
 31
0.0
  0
LINE
  5
DB0
330
20
100
AcDbEntity
  8
STEMPEL
100
AcDbLine
 10
250.8241283000138
 20
129.0705899877871
 30
0.0
 11
237.8241283000141
 21
129.0705899877872
 31
0.0
  0
LINE
  5
DB1
330
20
100
AcDbEntity
  8
STEMPEL
100
AcDbLine
 10
230.8241283000141
 20
144.0705899877876
 30
0.0
 11
228.8241283000141
 21
144.0705899877876
 31
0.0
  0
LINE
  5
DB2
330
20
100
AcDbEntity
  8
STEMPEL
100
AcDbLine
 10
230.8241283000141
 20
144.0705899877872
 30
0.0
 11
230.8241283000141
 21
142.0705899877873
 31
0.0
  0
LINE
  5
DB3
330
20
100
AcDbEntity
  8
STEMPEL
100
AcDbLine
 10
250.8241283000141
 20
142.0705899877873
 30
0.0
 11
237.8241283000141
 21
142.0705899877873
 31
0.0
  0
LINE
  5
DB4
330
20
100
AcDbEntity
  8
STEMPEL
100
AcDbLine
 10
250.8241283000141
 20
144.0705899877872
 30
0.0
 11
250.8241283000141
 21
142.0705899877873
 31
0.0
  0
LINE
  5
DB5
330
20
100
AcDbEntity
  8
STEMPEL
100
AcDbLine
 10
250.8241283000141
 20
144.0705899877876
 30
0.0
 11
248.8241283000141
 21
144.0705899877876
 31
0.0
  0
ARC
  5
DB7
330
20
100
AcDbEntity
  8
STEMPEL
100
AcDbCircle
 10
281.2545037762263
 20
185.771888902884
 30
0.0
 40
4.0
100
AcDbArc
 50
19.65382405805331
 51
199.6538240580533
  0
LINE
  5
DB9
330
20
100
AcDbEntity
  8
MITTEL
100
AcDbLine
 10
250.8241283000141
 20
204.0705899877873
 30
0.0
 11
272.8241283000141
 21
204.0705899877873
 31
0.0
  0
LINE
  5
DBA
330
20
100
AcDbEntity
  8
STEMPEL
100
AcDbLine
 10
327.8145887315493
 20
107.4066140797997
 30
0.0
 11
356.1369531889482
 21
184.3609006143917
 31
0.0
  0
LINE
  5
DBB
330
20
100
AcDbEntity
  8
STEMPEL
100
AcDbLine
 10
320.3044207200237
 20
110.1629479562844
 30
0.0
 11
348.6267851774226
 21
187.1172344908765
 31
0.0
  0
ARC
  5
DBE
330
20
100
AcDbEntity
  8
STEMPEL
100
AcDbCircle
 10
324.0595047257866
 20
108.784781018042
 30
0.0
 40
4.0
100
AcDbArc
 50
159.846175941947
 51
339.8461759419478
  0
ARC
  5
DBF
330
20
100
AcDbEntity
  8
STEMPEL
100
AcDbCircle
 10
352.3937528238018
 20
185.7718889028839
 30
0.0
 40
4.0
100
AcDbArc
 50
340.3461759419467
 51
160.3461759419467
  0
LINE
  5
DC0
330
20
100
AcDbEntity
  8
STEMPEL
100
AcDbLine
 10
190.8241283000138
 20
214.070589987787
 30
0.0
 11
177.8241283000141
 21
214.0705899877871
 31
0.0
  0
LINE
  5
DC6
330
20
100
AcDbEntity
  8
STEMPEL
100
AcDbLine
 10
363.8241283000141
 20
229.0705899877874
 30
0.0
 11
162.8241283000141
 21
229.0705899877874
 31
0.0
  0
LINE
  5
DD9
330
20
100
AcDbEntity
  8
VERDECKT
100
AcDbLine
 10
363.8241283000139
 20
227.0705899877874
 30
0.0
 11
269.8241283000143
 21
227.0705899877874
 31
0.0
  0
LINE
  5
DDC
330
20
100
AcDbEntity
  8
STEMPEL
100
AcDbLine
 10
363.8241283000141
 20
229.0705899877874
 30
0.0
 11
264.3241283000141
 21
229.0705899877874
 31
0.0
  0
LINE
  5
DE5
330
20
100
AcDbEntity
  8
STEMPEL
100
AcDbLine
 10
230.8241283000139
 20
214.0705899877871
 30
0.0
 11
217.8241283000141
 21
214.0705899877872
 31
0.0
  0
LINE
  5
DE8
330
20
100
AcDbEntity
  8
STEMPEL
100
AcDbLine
 10
210.8241283000138
 20
214.0705899877871
 30
0.0
 11
197.8241283000141
 21
214.0705899877872
 31
0.0
  0
LINE
  5
DE9
330
20
100
AcDbEntity
  8
STEMPEL
100
AcDbLine
 10
190.8241283000138
 20
214.070589987787
 30
0.0
 11
190.8241283000138
 21
212.0705899877871
 31
0.0
  0
LINE
  5
DEA
330
20
100
AcDbEntity
  8
STEMPEL
100
AcDbLine
 10
190.8241283000138
 20
212.0705899877871
 30
0.0
 11
188.8241283000141
 21
212.0705899877871
 31
0.0
  0
LINE
  5
DEB
330
20
100
AcDbEntity
  8
STEMPEL
100
AcDbLine
 10
210.8241283000138
 20
214.0705899877871
 30
0.0
 11
210.8241283000138
 21
212.0705899877872
 31
0.0
  0
LINE
  5
DEC
330
20
100
AcDbEntity
  8
STEMPEL
100
AcDbLine
 10
210.8241283000141
 20
212.0705899877872
 30
0.0
 11
208.8241283000141
 21
212.0705899877872
 31
0.0
  0
LINE
  5
DEF
330
20
100
AcDbEntity
  8
STEMPEL
100
AcDbLine
 10
230.8241283000141
 20
212.0705899877872
 30
0.0
 11
228.8241283000141
 21
212.0705899877872
 31
0.0
  0
LINE
  5
DF0
330
20
100
AcDbEntity
  8
STEMPEL
100
AcDbLine
 10
230.8241283000139
 20
214.0705899877871
 30
0.0
 11
230.8241283000139
 21
212.0705899877872
 31
0.0
  0
LINE
  5
DF1
330
20
100
AcDbEntity
  8
STEMPEL
100
AcDbLine
 10
250.8241283000138
 20
214.0705899877871
 30
0.0
 11
237.8241283000141
 21
214.0705899877872
 31
0.0
  0
LINE
  5
DF2
330
20
100
AcDbEntity
  8
STEMPEL
100
AcDbLine
 10
250.8241283000138
 20
214.0705899877871
 30
0.0
 11
250.8241283000138
 21
212.0705899877872
 31
0.0
  0
LINE
  5
DF3
330
20
100
AcDbEntity
  8
STEMPEL
100
AcDbLine
 10
250.8241283000141
 20
212.0705899877872
 30
0.0
 11
248.8241283000141
 21
212.0705899877872
 31
0.0
  0
ARC
  5
DF8
330
20
100
AcDbEntity
  8
STEMPEL
100
AcDbCircle
 10
267.0055518248517
 20
227.5026467878004
 30
0.0
 40
2.818576475162739
100
AcDbArc
 50
323.0861251430328
 51
0.0
  0
LINE
  5
DF9
330
20
100
AcDbEntity
  8
STEMPEL
100
AcDbLine
 10
269.8241283000141
 20
227.0705899877874
 30
0.0
 11
269.8241283000141
 21
229.0705899877874
 31
0.0
  0
ARC
  5
DFA
330
20
100
AcDbEntity
  8
STEMPEL
100
AcDbCircle
 10
267.5662382077335
 20
228.0633331706823
 30
0.0
 40
2.818576475162739
100
AcDbArc
 50
275.249709769939
 51
306.9138748569637
  0
LINE
  5
E2A
330
20
100
AcDbEntity
  8
STEMPEL
100
AcDbLine
 10
365.8241283000141
 20
227.0705899877874
 30
0.0
 11
363.8241283000141
 21
227.0705899877874
 31
0.0
  0
LINE
  5
E2B
330
20
100
AcDbEntity
  8
STEMPEL
100
AcDbLine
 10
363.8241283000141
 20
227.0705899877874
 30
0.0
 11
363.8241283000141
 21
229.0705899877874
 31
0.0
  0
ARC
  5
E2C
330
20
100
AcDbEntity
  8
STEMPEL
100
AcDbCircle
 10
364.8168714829089
 20
227.5026467878004
 30
0.0
 40
2.818576475162739
100
AcDbArc
 50
146.2004534126627
 51
216.9138748569671
  0
ARC
  5
E2D
330
20
100
AcDbEntity
  8
STEMPEL
100
AcDbCircle
 10
364.2561851000271
 20
228.0633331706823
 30
0.0
 40
2.818576475162739
100
AcDbArc
 50
233.0861251430363
 51
303.7995465873341
  0
LINE
  5
EA5
330
20
100
AcDbEntity
  8
STEMPEL
100
AcDbLine
 10
1113.076048417501
 20
556.7714896498874
 30
0.0
 11
973.0760484175007
 21
556.7714896498874
 31
0.0
  0
LINE
  5
EA6
330
20
100
AcDbEntity
  8
HILF
100
AcDbLine
 10
1113.0760484175
 20
647.2706178363868
 30
0.0
 11
975.0760484175007
 21
647.2706178363867
 31
0.0
  0
LINE
  5
EA7
330
20
100
AcDbEntity
  8
STEMPEL
100
AcDbLine
 10
1113.076048417501
 20
564.7714896498874
 30
0.0
 11
1073.076048417501
 21
564.7714896498874
 31
0.0
  0
LINE
  5
EA8
330
20
100
AcDbEntity
  8
STEMPEL
100
AcDbLine
 10
1113.076048417501
 20
569.7714896498874
 30
0.0
 11
1073.076048417501
 21
569.7714896498874
 31
0.0
  0
LINE
  5
EA9
330
20
100
AcDbEntity
  8
STEMPEL
100
AcDbLine
 10
1113.076048417501
 20
579.7714896498876
 30
0.0
 11
1073.076048417501
 21
579.7714896498875
 31
0.0
  0
LINE
  5
EAA
330
20
100
AcDbEntity
  8
STEMPEL
100
AcDbLine
 10
1113.076048417501
 20
584.7714896498875
 30
0.0
 11
1073.076048417501
 21
584.7714896498874
 31
0.0
  0
LINE
  5
EAB
330
20
100
AcDbEntity
  8
STEMPEL
100
AcDbLine
 10
1073.076048417501
 20
641.7706178363866
 30
0.0
 11
1113.076048417501
 21
641.7706178363869
 31
0.0
  0
LINE
  5
EAC
330
20
100
AcDbEntity
  8
STEMPEL
100
AcDbLine
 10
1113.076048417501
 20
624.7714896498873
 30
0.0
 11
1073.076048417501
 21
624.7714896498873
 31
0.0
  0
LINE
  5
EAD
330
20
100
AcDbEntity
  8
STEMPEL
100
AcDbLine
 10
1113.076048417501
 20
629.7714896498875
 30
0.0
 11
1073.076048417501
 21
629.7714896498874
 31
0.0
  0
LINE
  5
EAE
330
20
100
AcDbEntity
  8
STEMPEL
100
AcDbLine
 10
1113.076048417501
 20
642.7706178363864
 30
0.0
 11
1073.076048417501
 21
642.7706178363864
 31
0.0
  0
LINE
  5
EAF
330
20
100
AcDbEntity
  8
STEMPEL
100
AcDbLine
 10
1113.076048417501
 20
594.7714896498874
 30
0.0
 11
1073.076048417501
 21
594.7714896498874
 31
0.0
  0
LINE
  5
EB0
330
20
100
AcDbEntity
  8
STEMPEL
100
AcDbLine
 10
1113.076048417501
 20
599.7714896498875
 30
0.0
 11
1073.076048417501
 21
599.7714896498875
 31
0.0
  0
LINE
  5
EB1
330
20
100
AcDbEntity
  8
STEMPEL
100
AcDbLine
 10
1113.076048417501
 20
609.7714896498874
 30
0.0
 11
1073.076048417501
 21
609.7714896498874
 31
0.0
  0
LINE
  5
EB2
330
20
100
AcDbEntity
  8
STEMPEL
100
AcDbLine
 10
1113.076048417501
 20
614.7714896498874
 30
0.0
 11
1073.076048417501
 21
614.7714896498873
 31
0.0
  0
LINE
  5
EB3
330
20
100
AcDbEntity
  8
STEMPEL
100
AcDbLine
 10
1113.0760484175
 20
651.7706178363862
 30
0.0
 11
977.5760484175
 21
651.7706178363864
 31
0.0
  0
LINE
  5
EB4
330
20
100
AcDbEntity
  8
VERDECKT
100
AcDbLine
 10
1113.0760484175
 20
649.7706178363862
 30
0.0
 11
977.5760484175
 21
649.7706178363864
 31
0.0
  0
LINE
  5
EB5
330
20
100
AcDbEntity
  8
VERDECKT
100
AcDbLine
 10
1075.076048417501
 20
544.7714896498873
 30
0.0
 11
1113.0760484175
 21
544.7714896498873
 31
0.0
  0
LINE
  5
EB7
330
20
100
AcDbEntity
  8
STEMPEL
100
AcDbLine
 10
973.0760484175007
 20
647.2706178363889
 30
0.0
 11
973.0760484175007
 21
554.7714896498875
 31
0.0
  0
LINE
  5
EB8
330
20
100
AcDbEntity
  8
VERDECKT
100
AcDbLine
 10
975.0760484175
 20
647.2706178363889
 30
0.0
 11
975.0760484175005
 21
554.7714896498875
 31
0.0
  0
LINE
  5
EBE
330
20
100
AcDbEntity
  8
STEMPEL
100
AcDbLine
 10
1060.076048417501
 20
594.7714896498874
 30
0.0
 11
988.0760484175008
 21
594.7714896498874
 31
0.0
  0
LINE
  5
EBF
330
20
100
AcDbEntity
  8
STEMPEL
100
AcDbLine
 10
1060.076048417501
 20
584.7714896498874
 30
0.0
 11
988.0760484175008
 21
584.7714896498874
 31
0.0
  0
LINE
  5
EC0
330
20
100
AcDbEntity
  8
STEMPEL
100
AcDbLine
 10
1060.076048417501
 20
579.7714896498875
 30
0.0
 11
988.0760484175008
 21
579.7714896498875
 31
0.0
  0
LINE
  5
EC1
330
20
100
AcDbEntity
  8
STEMPEL
100
AcDbLine
 10
1060.076048417501
 20
569.7714896498874
 30
0.0
 11
988.0760484175008
 21
569.7714896498874
 31
0.0
  0
LINE
  5
EC2
330
20
100
AcDbEntity
  8
STEMPEL
100
AcDbLine
 10
1060.076048417501
 20
564.7714896498874
 30
0.0
 11
988.0760484175008
 21
564.7714896498874
 31
0.0
  0
LINE
  5
EC3
330
20
100
AcDbEntity
  8
VERDECKT
100
AcDbLine
 10
990.0760484175009
 20
544.7714896498873
 30
0.0
 11
1058.0760484175
 21
544.7714896498873
 31
0.0
  0
LINE
  5
EC7
330
20
100
AcDbEntity
  8
VERDECKT
100
AcDbLine
 10
990.0760484175009
 20
544.7714896498873
 30
0.0
 11
990.0760484175011
 21
554.7714896498875
 31
0.0
  0
LINE
  5
ECF
330
20
100
AcDbEntity
  8
STEMPEL
100
AcDbLine
 10
988.0760484175008
 20
579.7714896498875
 30
0.0
 11
988.0760484175008
 21
569.7714896498874
 31
0.0
  0
LINE
  5
ED1
330
20
100
AcDbEntity
  8
STEMPEL
100
AcDbLine
 10
988.0760484175008
 20
564.7714896498874
 30
0.0
 11
988.0760484175008
 21
556.7714896498874
 31
0.0
  0
ARC
  5
ED2
330
20
100
AcDbEntity
  8
VERDECKT
100
AcDbCircle
 10
988.0760484175011
 20
554.7714896498875
 30
0.0
 40
2.0
100
AcDbArc
 50
0.0
 51
90.0
  0
LINE
  5
ED3
330
20
100
AcDbEntity
  8
STEMPEL
100
AcDbLine
 10
988.0760484175008
 20
594.7714896498874
 30
0.0
 11
988.0760484175008
 21
584.7714896498874
 31
0.0
  0
LINE
  5
ED4
330
20
100
AcDbEntity
  8
VERDECKT
100
AcDbLine
 10
1058.0760484175
 20
544.7714896498873
 30
0.0
 11
1058.0760484175
 21
554.7714896498875
 31
0.0
  0
LINE
  5
ED5
330
20
100
AcDbEntity
  8
STEMPEL
100
AcDbLine
 10
1060.076048417501
 20
579.7714896498875
 30
0.0
 11
1060.076048417501
 21
569.7714896498874
 31
0.0
  0
LINE
  5
ED6
330
20
100
AcDbEntity
  8
STEMPEL
100
AcDbLine
 10
1060.076048417501
 20
564.7714896498874
 30
0.0
 11
1060.076048417501
 21
556.7714896498874
 31
0.0
  0
ARC
  5
ED7
330
20
100
AcDbEntity
  8
VERDECKT
100
AcDbCircle
 10
1060.0760484175
 20
554.7714896498875
 30
0.0
 40
2.0
100
AcDbArc
 50
90.0
 51
180.0
  0
LINE
  5
ED8
330
20
100
AcDbEntity
  8
STEMPEL
100
AcDbLine
 10
1060.076048417501
 20
594.7714896498874
 30
0.0
 11
1060.076048417501
 21
584.7714896498874
 31
0.0
  0
LINE
  5
ED9
330
20
100
AcDbEntity
  8
VERDECKT
100
AcDbLine
 10
1075.076048417501
 20
544.7714896498873
 30
0.0
 11
1075.076048417501
 21
554.7714896498875
 31
0.0
  0
LINE
  5
EDA
330
20
100
AcDbEntity
  8
STEMPEL
100
AcDbLine
 10
1073.076048417501
 20
579.7714896498875
 30
0.0
 11
1073.076048417501
 21
569.7714896498874
 31
0.0
  0
LINE
  5
EDB
330
20
100
AcDbEntity
  8
STEMPEL
100
AcDbLine
 10
1073.076048417501
 20
564.7714896498874
 30
0.0
 11
1073.076048417501
 21
556.7714896498874
 31
0.0
  0
ARC
  5
EDC
330
20
100
AcDbEntity
  8
VERDECKT
100
AcDbCircle
 10
1073.076048417501
 20
554.7714896498875
 30
0.0
 40
2.0
100
AcDbArc
 50
0.0
 51
90.0
  0
LINE
  5
EDD
330
20
100
AcDbEntity
  8
STEMPEL
100
AcDbLine
 10
1073.076048417501
 20
594.7714896498874
 30
0.0
 11
1073.076048417501
 21
584.7714896498874
 31
0.0
  0
LINE
  5
EDE
330
20
100
AcDbEntity
  8
STEMPEL
100
AcDbLine
 10
988.0760484175008
 20
641.7706178363866
 30
0.0
 11
1060.076048417501
 21
641.7706178363866
 31
0.0
  0
LINE
  5
EDF
330
20
100
AcDbEntity
  8
STEMPEL
100
AcDbLine
 10
1060.076048417501
 20
642.7706178363864
 30
0.0
 11
988.0760484175008
 21
642.7706178363864
 31
0.0
  0
LINE
  5
EE0
330
20
100
AcDbEntity
  8
STEMPEL
100
AcDbLine
 10
1060.076048417501
 20
629.7714896498874
 30
0.0
 11
988.0760484175008
 21
629.7714896498874
 31
0.0
  0
LINE
  5
EE1
330
20
100
AcDbEntity
  8
STEMPEL
100
AcDbLine
 10
1060.076048417501
 20
624.7714896498873
 30
0.0
 11
988.0760484175008
 21
624.7714896498873
 31
0.0
  0
LINE
  5
EE2
330
20
100
AcDbEntity
  8
STEMPEL
100
AcDbLine
 10
1060.076048417501
 20
614.7714896498873
 30
0.0
 11
988.0760484175008
 21
614.7714896498873
 31
0.0
  0
LINE
  5
EE3
330
20
100
AcDbEntity
  8
STEMPEL
100
AcDbLine
 10
1060.076048417501
 20
609.7714896498874
 30
0.0
 11
988.0760484175008
 21
609.7714896498874
 31
0.0
  0
LINE
  5
EE4
330
20
100
AcDbEntity
  8
STEMPEL
100
AcDbLine
 10
1060.076048417501
 20
599.7714896498875
 30
0.0
 11
988.0760484175008
 21
599.7714896498875
 31
0.0
  0
LINE
  5
EEB
330
20
100
AcDbEntity
  8
STEMPEL
100
AcDbLine
 10
988.0760484175008
 20
642.7706178363864
 30
0.0
 11
988.0760484175008
 21
629.7714896498874
 31
0.0
  0
LINE
  5
EF0
330
20
100
AcDbEntity
  8
STEMPEL
100
AcDbLine
 10
988.0760484175008
 20
624.7714896498873
 30
0.0
 11
988.0760484175008
 21
614.7714896498873
 31
0.0
  0
LINE
  5
EF2
330
20
100
AcDbEntity
  8
STEMPEL
100
AcDbLine
 10
988.0760484175008
 20
609.7714896498874
 30
0.0
 11
988.0760484175008
 21
599.7714896498875
 31
0.0
  0
ARC
  5
EF4
330
20
100
AcDbEntity
  8
VERDECKT
100
AcDbCircle
 10
977.5760484175
 20
647.2706178363889
 30
0.0
 40
2.5
100
AcDbArc
 50
90.0
 51
180.0000000000008
  0
ARC
  5
EF5
330
20
100
AcDbEntity
  8
STEMPEL
100
AcDbCircle
 10
970.3080250225152
 20
654.5386412313741
 30
0.0
 40
7.777282146433273
100
AcDbArc
 50
290.8493124594055
 51
339.1506875405938
  0
ARC
  5
EF6
330
20
100
AcDbEntity
  8
STEMPEL
100
AcDbCircle
 10
977.5760484175
 20
647.2706178363889
 30
0.0
 40
4.5
100
AcDbArc
 50
90.0
 51
180.0000000000008
  0
LINE
  5
EF8
330
20
100
AcDbEntity
  8
STEMPEL
100
AcDbLine
 10
1060.076048417501
 20
642.7706178363864
 30
0.0
 11
1060.076048417501
 21
629.7714896498874
 31
0.0
  0
LINE
  5
EF9
330
20
100
AcDbEntity
  8
STEMPEL
100
AcDbLine
 10
1060.076048417501
 20
624.7714896498873
 30
0.0
 11
1060.076048417501
 21
614.7714896498873
 31
0.0
  0
LINE
  5
EFA
330
20
100
AcDbEntity
  8
STEMPEL
100
AcDbLine
 10
1060.076048417501
 20
609.7714896498874
 30
0.0
 11
1060.076048417501
 21
599.7714896498875
 31
0.0
  0
LINE
  5
EFB
330
20
100
AcDbEntity
  8
STEMPEL
100
AcDbLine
 10
1073.076048417501
 20
642.7706178363864
 30
0.0
 11
1073.076048417501
 21
629.7714896498874
 31
0.0
  0
LINE
  5
EFC
330
20
100
AcDbEntity
  8
STEMPEL
100
AcDbLine
 10
1073.076048417501
 20
624.7714896498873
 30
0.0
 11
1073.076048417501
 21
614.7714896498873
 31
0.0
  0
LINE
  5
EFD
330
20
100
AcDbEntity
  8
STEMPEL
100
AcDbLine
 10
1073.076048417501
 20
609.7714896498874
 30
0.0
 11
1073.076048417501
 21
599.7714896498875
 31
0.0
  0
LINE
  5
F28
330
20
100
AcDbEntity
  8
MITTEL
100
AcDbLine
 10
304.8995341933344
 20
121.5614670816127
 30
0.0
 11
316.8241283000138
 21
89.07058998778754
 31
0.0
  0
LWPOLYLINE
  5
14E5
330
20
100
AcDbEntity
  8
STEMPEL
100
AcDbPolyline
 90
        2
 70
     0
 43
0.0
 10
309.1274595961126
 20
121.619202930205
 42
0.0317465490765349
 10
302.385014718705
 20
116.7768996378895
  0
LWPOLYLINE
  5
14E6
330
20
100
AcDbEntity
  8
STEMPEL
100
AcDbPolyline
 90
        2
 70
     0
 43
0.0
 10
337.3546352932345
 20
133.3277365117049
 42
0.0234002207558249
 10
327.7551900473431
 20
130.4073254545022
  0
ARC
  5
14E8
102
{ACAD_REACTORS
330
172C
102
}
330
20
100
AcDbEntity
  8
STEMPEL
100
AcDbCircle
 10
361.3241283000141
 20
647.2706178363863
 30
0.0
 40
2.5
100
AcDbArc
 50
314.9999999999954
 51
90.0
  0
ARC
  5
14E9
102
{ACAD_REACTORS
330
172C
102
}
330
20
100
AcDbEntity
  8
STEMPEL
100
AcDbCircle
 10
368.5921516949989
 20
654.5386412313716
 30
0.0
 40
7.777282146433273
100
AcDbArc
 50
200.8493124594063
 51
249.1506875405945
  0
ARC
  5
14EA
102
{ACAD_REACTORS
330
172C
102
}
330
20
100
AcDbEntity
  8
STEMPEL
100
AcDbCircle
 10
361.3241283000141
 20
647.2706178363863
 30
0.0
 40
4.5
100
AcDbArc
 50
314.9999999999954
 51
90.0
  0
LINE
  5
14EB
330
20
100
AcDbEntity
  8
STEMPEL
100
AcDbLine
 10
353.8241283000145
 20
643.3061517423194
 30
0.0
 11
353.8241283000145
 21
644.771489649887
 31
0.0
  0
ARC
  5
14EC
330
20
100
AcDbEntity
  8
SCHRAFF
100
AcDbCircle
 10
344.9779704410348
 20
648.4770400809269
 30
0.0
 40
2.592830535988874
100
AcDbArc
 50
318.8425098051395
 51
29.92762352415535
  0
ARC
  5
14ED
330
20
100
AcDbEntity
  8
SCHRAFF
100
AcDbCircle
 10
347.5536277980286
 20
648.4770400809269
 30
0.0
 40
2.592830535988874
100
AcDbArc
 50
318.8425098051395
 51
29.92762352415535
  0
ARC
  5
14EE
330
20
100
AcDbEntity
  8
SCHRAFF
100
AcDbCircle
 10
342.402313084041
 20
648.4770400809269
 30
0.0
 40
2.592830535988874
100
AcDbArc
 50
318.8425098051395
 51
29.92762352415535
  0
LINE
  5
14EF
102
{ACAD_REACTORS
330
172C
102
}
330
20
100
AcDbEntity
  8
STEMPEL
100
AcDbLine
 10
359.2028079564546
 20
641.6137635868939
 30
0.0
 11
360.6170215188274
 21
640.1995500245209
 31
0.0
  0
LINE
  5
14F0
330
20
100
AcDbEntity
  8
STEMPEL
100
AcDbLine
 10
335.2894662075816
 20
624.771489649887
 30
0.0
 11
325.2894662075817
 21
614.771489649887
 31
0.0
  0
LINE
  5
14F1
102
{ACAD_REACTORS
330
172C
102
}
330
20
100
AcDbEntity
  8
STEMPEL
100
AcDbLine
 10
364.5061088153536
 20
644.0886373210469
 30
0.0
 11
360.6170215188274
 21
640.1995500245209
 31
0.0
  0
LINE
  5
14F2
330
20
100
AcDbEntity
  8
STEMPEL
100
AcDbLine
 10
353.8241283000145
 20
643.3061517423193
 30
0.0
 11
340.2894662075819
 21
629.771489649887
 31
0.0
  0
ARC
  5
14F3
330
20
100
AcDbEntity
  8
SCHRAFF
100
AcDbCircle
 10
310.9842743781387
 20
648.4770400809269
 30
0.0
 40
2.592830535988874
100
AcDbArc
 50
318.8425098051395
 51
29.92762352415535
  0
ARC
  5
14F4
330
20
100
AcDbEntity
  8
SCHRAFF
100
AcDbCircle
 10
305.8329596641511
 20
648.4770400809269
 30
0.0
 40
2.592830535988874
100
AcDbArc
 50
318.8425098051395
 51
29.92762352415535
  0
ARC
  5
14F5
330
20
100
AcDbEntity
  8
SCHRAFF
100
AcDbCircle
 10
308.4086170211449
 20
648.4770400809269
 30
0.0
 40
2.592830535988874
100
AcDbArc
 50
318.8425098051395
 51
29.92762352415535
  0
ARC
  5
14F6
330
20
100
AcDbEntity
  8
SCHRAFF
100
AcDbCircle
 10
278.232187138283
 20
648.4770400809269
 30
0.0
 40
2.592830535988874
100
AcDbArc
 50
318.8425098051395
 51
29.92762352415535
  0
ARC
  5
14F7
330
20
100
AcDbEntity
  8
SCHRAFF
100
AcDbCircle
 10
275.6565297812892
 20
648.4770400809269
 30
0.0
 40
2.592830535988874
100
AcDbArc
 50
318.8425098051395
 51
29.92762352415535
  0
ARC
  5
14F8
330
20
100
AcDbEntity
  8
SCHRAFF
100
AcDbCircle
 10
273.0808724242956
 20
648.4770400809269
 30
0.0
 40
2.592830535988874
100
AcDbArc
 50
318.8425098051395
 51
29.92762352415535
  0
ARC
  5
14F9
102
{ACAD_REACTORS
330
172C
102
}
330
20
100
AcDbEntity
  8
STEMPEL
100
AcDbCircle
 10
272.3241283000141
 20
647.2706178363863
 30
0.0
 40
2.5
100
AcDbArc
 50
90.0
 51
180.0
  0
ARC
  5
14FA
102
{ACAD_REACTORS
330
172C
102
}
330
20
100
AcDbEntity
  8
STEMPEL
100
AcDbCircle
 10
265.0561049050293
 20
654.5386412313716
 30
0.0
 40
7.777282146433273
100
AcDbArc
 50
290.8493124594055
 51
339.150687540593
  0
ARC
  5
14FB
102
{ACAD_REACTORS
330
17D5
102
}
330
20
100
AcDbEntity
  8
STEMPEL
100
AcDbCircle
 10
272.3241283000141
 20
647.2706178363863
 30
0.0
 40
4.5
100
AcDbArc
 50
90.0
 51
180.0
  0
ARC
  5
14FC
330
20
100
AcDbEntity
  8
SCHRAFF
100
AcDbCircle
 10
271.8658236924759
 20
622.1671544616289
 30
0.0
 40
2.592830535988874
100
AcDbArc
 50
40.95044298616264
 51
141.9468043941339
  0
ARC
  5
14FD
330
20
100
AcDbEntity
  8
SCHRAFF
100
AcDbCircle
 10
271.8658236924759
 20
625.0980462729784
 30
0.0
 40
2.592830535988874
100
AcDbArc
 50
40.95044298616264
 51
141.9468043941339
  0
ARC
  5
14FE
330
20
100
AcDbEntity
  8
SCHRAFF
100
AcDbCircle
 10
271.8658236924759
 20
628.0289380843282
 30
0.0
 40
2.592830535988874
100
AcDbArc
 50
40.95044298616264
 51
141.9468043941339
  0
LINE
  5
14FF
330
20
100
AcDbEntity
  8
STEMPEL
100
AcDbLine
 10
275.8241283000145
 20
599.7714896498871
 30
0.0
 11
275.8241283000145
 21
609.771489649887
 31
0.0
  0
ARC
  5
1500
330
20
100
AcDbEntity
  8
SCHRAFF
100
AcDbCircle
 10
271.8658236924759
 20
595.4479871443309
 30
0.0
 40
2.592830535988874
100
AcDbArc
 50
40.95044298616264
 51
141.9468043941339
  0
ARC
  5
1501
330
20
100
AcDbEntity
  8
SCHRAFF
100
AcDbCircle
 10
271.8658236924759
 20
598.3788789556805
 30
0.0
 40
2.592830535988874
100
AcDbArc
 50
40.95044298616264
 51
141.9468043941339
  0
LINE
  5
1502
330
20
100
AcDbEntity
  8
STEMPEL
100
AcDbLine
 10
275.8241283000145
 20
614.771489649887
 30
0.0
 11
275.8241283000145
 21
624.771489649887
 31
0.0
  0
LINE
  5
1503
330
20
100
AcDbEntity
  8
STEMPEL
100
AcDbLine
 10
310.2894662075816
 20
599.7714896498871
 30
0.0
 11
275.8241283000145
 21
599.7714896498871
 31
0.0
  0
LINE
  5
1504
330
20
100
AcDbEntity
  8
STEMPEL
100
AcDbLine
 10
275.8241283000145
 20
629.771489649887
 30
0.0
 11
275.8241283000145
 21
644.771489649887
 31
0.0
  0
LINE
  5
1505
330
20
100
AcDbEntity
  8
STEMPEL
100
AcDbLine
 10
353.8241283000145
 20
644.771489649887
 30
0.0
 11
275.8241283000145
 21
644.7714896498869
 31
0.0
  0
LINE
  5
1506
102
{ACAD_REACTORS
330
172C
102
}
330
20
100
AcDbEntity
  8
STEMPEL
100
AcDbLine
 10
361.3241283000141
 20
649.7706178363863
 30
0.0
 11
272.3241283000141
 21
649.7706178363863
 31
0.0
  0
LINE
  5
1507
102
{ACAD_REACTORS
330
172C
102
}
330
20
100
AcDbEntity
  8
STEMPEL
100
AcDbLine
 10
361.3241283000141
 20
651.7706178363863
 30
0.0
 11
272.3241283000141
 21
651.7706178363863
 31
0.0
  0
LINE
  5
1508
330
20
100
AcDbEntity
  8
STEMPEL
100
AcDbLine
 10
340.2894662075817
 20
629.771489649887
 30
0.0
 11
275.8241283000145
 21
629.7714896498868
 31
0.0
  0
LINE
  5
1509
330
20
100
AcDbEntity
  8
STEMPEL
100
AcDbLine
 10
335.2894662075816
 20
624.771489649887
 30
0.0
 11
275.8241283000145
 21
624.7714896498869
 31
0.0
  0
LINE
  5
150A
330
20
100
AcDbEntity
  8
STEMPEL
100
AcDbLine
 10
325.2894662075817
 20
614.771489649887
 30
0.0
 11
275.8241283000146
 21
614.7714896498869
 31
0.0
  0
LINE
  5
150B
330
20
100
AcDbEntity
  8
STEMPEL
100
AcDbLine
 10
320.2894662075816
 20
609.771489649887
 30
0.0
 11
275.8241283000145
 21
609.7714896498869
 31
0.0
  0
LINE
  5
150C
330
20
100
AcDbEntity
  8
STEMPEL
100
AcDbLine
 10
320.2894662075816
 20
609.771489649887
 30
0.0
 11
310.2894662075816
 21
599.7714896498871
 31
0.0
  0
LINE
  5
150D
330
20
100
AcDbEntity
  8
STEMPEL
100
AcDbLine
 10
305.2894662075814
 20
594.7714896498872
 30
0.0
 11
295.2894662075812
 21
584.7714896498871
 31
0.0
  0
LINE
  5
150E
330
20
100
AcDbEntity
  8
STEMPEL
100
AcDbLine
 10
275.8241283000145
 20
584.7714896498871
 30
0.0
 11
275.8241283000145
 21
594.7714896498871
 31
0.0
  0
ARC
  5
150F
330
20
100
AcDbEntity
  8
SCHRAFF
100
AcDbCircle
 10
271.8658236924759
 20
592.5170953329812
 30
0.0
 40
2.592830535988874
100
AcDbArc
 50
40.95044298616264
 51
141.9468043941339
  0
LINE
  5
1510
330
20
100
AcDbEntity
  8
STEMPEL
100
AcDbLine
 10
282.3605340194465
 20
564.7714896498871
 30
0.0
 11
275.8241283000145
 21
564.7714896498871
 31
0.0
  0
LINE
  5
1511
330
20
100
AcDbEntity
  8
STEMPEL
100
AcDbLine
 10
280.289466207581
 20
569.7714896498871
 30
0.0
 11
275.8241283000145
 21
569.771489649887
 31
0.0
  0
LINE
  5
1512
330
20
100
AcDbEntity
  8
STEMPEL
100
AcDbLine
 10
275.8241283000145
 20
558.2355912650251
 30
0.0
 11
275.8241283000145
 21
564.7714896498871
 31
0.0
  0
ARC
  5
1513
330
20
100
AcDbEntity
  8
STEMPEL
100
AcDbCircle
 10
265.8241283000141
 20
558.7714896498871
 30
0.0
 40
2.0
100
AcDbArc
 50
270.0
 51
0.0
  0
LINE
  5
1514
330
20
100
AcDbEntity
  8
STEMPEL
100
AcDbLine
 10
269.8241283000141
 20
554.7714896498871
 30
0.0
 11
275.8241283000145
 21
558.2355912650251
 31
0.0
  0
ARC
  5
1515
330
20
100
AcDbEntity
  8
SCHRAFF
100
AcDbCircle
 10
271.8658236924759
 20
562.4254593017722
 30
0.0
 40
2.592830535988874
100
AcDbArc
 50
40.95044298616264
 51
141.9468043941339
  0
ARC
  5
1516
330
20
100
AcDbEntity
  8
SCHRAFF
100
AcDbCircle
 10
271.8658236924759
 20
565.3563511131218
 30
0.0
 40
2.592830535988874
100
AcDbArc
 50
40.95044298616264
 51
141.9468043941339
  0
ARC
  5
1517
330
20
100
AcDbEntity
  8
SCHRAFF
100
AcDbCircle
 10
271.8658236924759
 20
568.2872429244715
 30
0.0
 40
2.592830535988874
100
AcDbArc
 50
40.95044298616264
 51
141.9468043941339
  0
ARC
  5
1518
330
20
100
AcDbEntity
  8
STEMPEL
100
AcDbCircle
 10
265.8241283000141
 20
558.7714896498871
 30
0.0
 40
4.0
100
AcDbArc
 50
270.0
 51
0.0
  0
LINE
  5
1519
330
20
100
AcDbEntity
  8
STEMPEL
100
AcDbLine
 10
275.8241283000145
 20
569.7714896498871
 30
0.0
 11
275.8241283000145
 21
579.7714896498871
 31
0.0
  0
LINE
  5
151A
330
20
100
AcDbEntity
  8
STEMPEL
100
AcDbLine
 10
305.2894662075814
 20
594.7714896498871
 30
0.0
 11
275.8241283000145
 21
594.7714896498871
 31
0.0
  0
LINE
  5
151B
330
20
100
AcDbEntity
  8
STEMPEL
100
AcDbLine
 10
295.2894662075812
 20
584.7714896498871
 30
0.0
 11
275.8241283000145
 21
584.7714896498872
 31
0.0
  0
LINE
  5
151C
330
20
100
AcDbEntity
  8
STEMPEL
100
AcDbLine
 10
290.2894662075812
 20
579.7714896498871
 30
0.0
 11
275.8241283000145
 21
579.771489649887
 31
0.0
  0
LINE
  5
151D
330
20
100
AcDbEntity
  8
STEMPEL
100
AcDbLine
 10
290.2894662075812
 20
579.7714896498871
 30
0.0
 11
280.289466207581
 21
569.7714896498871
 31
0.0
  0
ARC
  5
151E
102
{ACAD_REACTORS
330
172C
102
}
330
20
100
AcDbEntity
  8
STEMPEL
100
AcDbCircle
 10
251.8241283000141
 20
553.7714896498871
 30
0.0
 40
3.0
100
AcDbArc
 50
90.0
 51
180.0
  0
ARC
  5
1520
102
{ACAD_REACTORS
330
172C
102
}
330
20
100
AcDbEntity
  8
STEMPEL
100
AcDbCircle
 10
251.8241283000141
 20
553.7714896498871
 30
0.0
 40
1.0
100
AcDbArc
 50
90.0
 51
180.0
  0
LINE
  5
1521
102
{ACAD_REACTORS
330
172C
102
}
330
20
100
AcDbEntity
  8
STEMPEL
100
AcDbLine
 10
237.8241283000141
 20
556.7714896498871
 30
0.0
 11
237.8241283000141
 21
554.7714896498871
 31
0.0
  0
ARC
  5
1522
102
{ACAD_REACTORS
330
172C
102
}
330
20
100
AcDbEntity
  8
STEMPEL
100
AcDbCircle
 10
231.8241283000145
 20
553.7714896498871
 30
0.0
 40
1.0
100
AcDbArc
 50
90.0
 51
180.0
  0
ARC
  5
1523
102
{ACAD_REACTORS
330
172C
102
}
330
20
100
AcDbEntity
  8
STEMPEL
100
AcDbCircle
 10
231.8241283000145
 20
553.7714896498871
 30
0.0
 40
3.0
100
AcDbArc
 50
90.0
 51
180.0
  0
LINE
  5
1525
102
{ACAD_REACTORS
330
172C
102
}
330
20
100
AcDbEntity
  8
STEMPEL
100
AcDbLine
 10
217.8241283000145
 20
556.7714896498871
 30
0.0
 11
217.8241283000146
 21
554.7714896498871
 31
0.0
  0
ARC
  5
1526
102
{ACAD_REACTORS
330
172C
102
}
330
20
100
AcDbEntity
  8
STEMPEL
100
AcDbCircle
 10
211.8241283000145
 20
553.7714896498871
 30
0.0
 40
3.0
100
AcDbArc
 50
90.0
 51
180.0
  0
ARC
  5
1528
102
{ACAD_REACTORS
330
172C
102
}
330
20
100
AcDbEntity
  8
STEMPEL
100
AcDbCircle
 10
211.8241283000145
 20
553.7714896498871
 30
0.0
 40
1.0
100
AcDbArc
 50
90.0
 51
180.0
  0
LINE
  5
1529
102
{ACAD_REACTORS
330
172C
102
}
330
20
100
AcDbEntity
  8
STEMPEL
100
AcDbLine
 10
197.8241283000145
 20
556.7714896498871
 30
0.0
 11
197.8241283000145
 21
554.7714896498871
 31
0.0
  0
ARC
  5
152B
102
{ACAD_REACTORS
330
172C
102
}
330
20
100
AcDbEntity
  8
STEMPEL
100
AcDbCircle
 10
191.824128300014
 20
553.7714896498886
 30
0.0
 40
3.0
100
AcDbArc
 50
90.0
 51
180.0
  0
ARC
  5
152C
102
{ACAD_REACTORS
330
172C
102
}
330
20
100
AcDbEntity
  8
STEMPEL
100
AcDbCircle
 10
191.824128300014
 20
553.7714896498886
 30
0.0
 40
1.0
100
AcDbArc
 50
90.0
 51
180.0
  0
LINE
  5
152D
102
{ACAD_REACTORS
330
172C
102
}
330
20
100
AcDbEntity
  8
STEMPEL
100
AcDbLine
 10
250.8241283000141
 20
544.771489649887
 30
0.0
 11
248.8241283000141
 21
544.7714896498871
 31
0.0
  0
LINE
  5
152E
102
{ACAD_REACTORS
330
172C
102
}
330
20
100
AcDbEntity
  8
STEMPEL
100
AcDbLine
 10
230.8241283000145
 20
544.771489649887
 30
0.0
 11
228.8241283000145
 21
544.7714896498871
 31
0.0
  0
LINE
  5
152F
102
{ACAD_REACTORS
330
172C
102
}
330
20
100
AcDbEntity
  8
STEMPEL
100
AcDbLine
 10
210.8241283000146
 20
544.771489649887
 30
0.0
 11
208.8241283000145
 21
544.7714896498871
 31
0.0
  0
LINE
  5
1530
102
{ACAD_REACTORS
330
172C
102
}
330
20
100
AcDbEntity
  8
STEMPEL
100
AcDbLine
 10
190.8241283000141
 20
544.7714896498885
 30
0.0
 11
188.8241283000141
 21
544.7714896498886
 31
0.0
  0
LINE
  5
1531
102
{ACAD_REACTORS
330
172C
102
}
330
20
100
AcDbEntity
  8
STEMPEL
100
AcDbLine
 10
188.8241283000141
 20
553.7714896498886
 30
0.0
 11
188.8241283000141
 21
544.7714896498886
 31
0.0
  0
LINE
  5
1532
102
{ACAD_REACTORS
330
172C
102
}
330
20
100
AcDbEntity
  8
STEMPEL
100
AcDbLine
 10
190.8241283000141
 20
553.7714896498886
 30
0.0
 11
190.8241283000141
 21
544.7714896498886
 31
0.0
  0
LINE
  5
1533
102
{ACAD_REACTORS
330
172C
102
}
330
20
100
AcDbEntity
  8
STEMPEL
100
AcDbLine
 10
210.8241283000146
 20
553.7714896498871
 30
0.0
 11
210.8241283000146
 21
544.7714896498871
 31
0.0
  0
LINE
  5
1534
102
{ACAD_REACTORS
330
172C
102
}
330
20
100
AcDbEntity
  8
STEMPEL
100
AcDbLine
 10
208.8241283000145
 20
553.7714896498871
 30
0.0
 11
208.8241283000145
 21
544.7714896498871
 31
0.0
  0
LINE
  5
1535
102
{ACAD_REACTORS
330
172C
102
}
330
20
100
AcDbEntity
  8
STEMPEL
100
AcDbLine
 10
230.8241283000145
 20
553.7714896498871
 30
0.0
 11
230.8241283000145
 21
544.7714896498871
 31
0.0
  0
LINE
  5
1536
102
{ACAD_REACTORS
330
172C
102
}
330
20
100
AcDbEntity
  8
STEMPEL
100
AcDbLine
 10
228.8241283000145
 20
553.7714896498871
 30
0.0
 11
228.8241283000145
 21
544.7714896498871
 31
0.0
  0
LINE
  5
1537
102
{ACAD_REACTORS
330
172C
102
}
330
20
100
AcDbEntity
  8
STEMPEL
100
AcDbLine
 10
248.8241283000141
 20
553.7714896498871
 30
0.0
 11
248.8241283000141
 21
544.7714896498871
 31
0.0
  0
LINE
  5
1538
102
{ACAD_REACTORS
330
172C
102
}
330
20
100
AcDbEntity
  8
STEMPEL
100
AcDbLine
 10
250.8241283000141
 20
553.7714896498871
 30
0.0
 11
250.8241283000141
 21
544.7714896498871
 31
0.0
  0
LINE
  5
1539
102
{ACAD_REACTORS
330
172C
102
}
330
20
100
AcDbEntity
  8
STEMPEL
100
AcDbLine
 10
269.8241283000145
 20
647.2706178363863
 30
0.0
 11
269.8241283000141
 21
554.7714896498871
 31
0.0
  0
LINE
  5
153A
102
{ACAD_REACTORS
330
172C
330
17A2
102
}
330
20
100
AcDbEntity
  8
STEMPEL
100
AcDbLine
 10
267.8241283000145
 20
647.2706178363863
 30
0.0
 11
267.8241283000141
 21
558.7714896498871
 31
0.0
  0
LINE
  5
153B
102
{ACAD_REACTORS
330
172C
102
}
330
20
100
AcDbEntity
  8
STEMPEL
100
AcDbLine
 10
363.0918952529803
 20
645.5028508834199
 30
0.0
 11
282.3605340194465
 21
564.7714896498871
 31
0.0
  0
LINE
  5
153C
102
{ACAD_REACTORS
330
172C
102
}
330
20
100
AcDbEntity
  8
STEMPEL
100
AcDbLine
 10
177.8241283000141
 20
556.7714896498886
 30
0.0
 11
177.8241283000141
 21
554.8810137026514
 31
0.0
  0
LINE
  5
153D
102
{ACAD_REACTORS
330
172C
102
}
330
20
100
AcDbEntity
  8
STEMPEL
100
AcDbLine
 10
162.8241283000141
 20
556.7714896498872
 30
0.0
 11
162.8241283000141
 21
554.7714896498871
 31
0.0
  0
LINE
  5
153E
330
20
100
AcDbEntity
  8
STEMPEL
100
AcDbLine
 10
265.8241283000141
 20
554.7714896498871
 30
0.0
 11
251.8241283000141
 21
554.7714896498871
 31
0.0
  0
LINE
  5
153F
102
{ACAD_REACTORS
330
172C
102
}
330
20
100
AcDbEntity
  8
STEMPEL
100
AcDbLine
 10
265.8241283000141
 20
556.7714896498871
 30
0.0
 11
162.8241283000141
 21
556.7714896498872
 31
0.0
  0
LINE
  5
1541
330
20
100
AcDbEntity
  8
STEMPEL
100
AcDbLine
 10
190.8241283000141
 20
552.7714896498871
 30
0.0
 11
208.8241283000145
 21
552.7714896498871
 31
0.0
  0
LINE
  5
1542
330
20
100
AcDbEntity
  8
STEMPEL
100
AcDbLine
 10
210.8241283000146
 20
552.7714896498871
 30
0.0
 11
228.8241283000145
 21
552.7714896498872
 31
0.0
  0
LINE
  5
1543
330
20
100
AcDbEntity
  8
STEMPEL
100
AcDbLine
 10
190.8241283000141
 20
552.771489649887
 30
0.0
 11
208.8241283000145
 21
552.7714896498871
 31
0.0
  0
LINE
  5
1544
330
20
100
AcDbEntity
  8
STEMPEL
100
AcDbLine
 10
210.8241283000146
 20
552.7714896498871
 30
0.0
 11
228.8241283000145
 21
552.7714896498871
 31
0.0
  0
LINE
  5
1545
330
20
100
AcDbEntity
  8
STEMPEL
100
AcDbLine
 10
230.8241283000145
 20
552.7714896498871
 30
0.0
 11
248.8241283000141
 21
552.7714896498871
 31
0.0
  0
LINE
  5
1546
330
20
100
AcDbEntity
  8
STEMPEL
100
AcDbLine
 10
230.8241283000145
 20
552.7714896498872
 30
0.0
 11
248.8241283000141
 21
552.7714896498871
 31
0.0
  0
LINE
  5
1547
330
20
100
AcDbEntity
  8
STEMPEL
100
AcDbLine
 10
250.8241283000141
 20
552.7714896498871
 30
0.0
 11
274.8241283000144
 21
552.7714896498871
 31
0.0
  0
LINE
  5
1548
330
20
100
AcDbEntity
  8
STEMPEL
100
AcDbLine
 10
250.8241283000141
 20
552.7714896498871
 30
0.0
 11
275.9957011752677
 21
552.7714896498871
 31
0.0
  0
LINE
  5
1549
330
20
100
AcDbEntity
  8
STEMPEL
100
AcDbLine
 10
248.9957011752679
 20
554.7714896498871
 30
0.0
 11
231.8241283000145
 21
554.7714896498872
 31
0.0
  0
LINE
  5
154A
102
{ACAD_REACTORS
330
172C
102
}
330
20
100
AcDbEntity
  8
STEMPEL
100
AcDbLine
 10
251.8241283000141
 20
554.7714896498871
 30
0.0
 11
275.9957011752677
 21
554.7714896498871
 31
0.0
  0
LINE
  5
154B
330
20
100
AcDbEntity
  8
STEMPEL
100
AcDbLine
 10
228.9957011752684
 20
554.7714896498872
 30
0.0
 11
211.8241283000145
 21
554.7714896498871
 31
0.0
  0
LINE
  5
154C
102
{ACAD_REACTORS
330
172C
102
}
330
20
100
AcDbEntity
  8
STEMPEL
100
AcDbLine
 10
231.8241283000145
 20
554.7714896498871
 30
0.0
 11
248.9957011752679
 21
554.7714896498871
 31
0.0
  0
LINE
  5
154D
330
20
100
AcDbEntity
  8
STEMPEL
100
AcDbLine
 10
208.9957011752683
 20
554.7714896498871
 30
0.0
 11
191.824128300014
 21
554.7714896498871
 31
0.0
  0
LINE
  5
154E
102
{ACAD_REACTORS
330
172C
102
}
330
20
100
AcDbEntity
  8
STEMPEL
100
AcDbLine
 10
211.8241283000145
 20
554.7714896498871
 30
0.0
 11
228.9957011752683
 21
554.7714896498871
 31
0.0
  0
LINE
  5
154F
102
{ACAD_REACTORS
330
172C
102
}
330
20
100
AcDbEntity
  8
STEMPEL
100
AcDbLine
 10
188.9957011752674
 20
554.7714896498871
 30
0.0
 11
162.8241283000141
 21
554.7714896498871
 31
0.0
  0
LINE
  5
1550
102
{ACAD_REACTORS
330
172C
102
}
330
20
100
AcDbEntity
  8
STEMPEL
100
AcDbLine
 10
191.824128300014
 20
554.7714896498871
 30
0.0
 11
208.9957011752683
 21
554.7714896498871
 31
0.0
  0
CIRCLE
  5
1590
330
20
100
AcDbEntity
  8
STEMPEL
100
AcDbCircle
 10
261.8241283000141
 20
204.0705899877873
 30
0.0
 40
6.0
  0
LINE
  5
1591
330
20
100
AcDbEntity
  8
STEMPEL
100
AcDbLine
 10
262.3241283000141
 20
203.5705899877873
 30
0.0
 11
265.0741283000142
 21
203.5705899877873
 31
0.0
  0
LINE
  5
1592
330
20
100
AcDbEntity
  8
STEMPEL
100
AcDbLine
 10
262.3241283000141
 20
204.5705899877873
 30
0.0
 11
262.3241283000143
 21
207.3205899877873
 31
0.0
  0
LINE
  5
1593
330
20
100
AcDbEntity
  8
STEMPEL
100
AcDbLine
 10
262.3241283000141
 20
204.5705899877873
 30
0.0
 11
265.0741283000142
 21
204.5705899877873
 31
0.0
  0
LINE
  5
1594
330
20
100
AcDbEntity
  8
STEMPEL
100
AcDbLine
 10
261.3241283000141
 20
204.5705899877873
 30
0.0
 11
261.3241283000141
 21
207.3205899877873
 31
0.0
  0
LINE
  5
1595
330
20
100
AcDbEntity
  8
STEMPEL
100
AcDbLine
 10
258.5741283000142
 20
203.5705899877873
 30
0.0
 11
261.3241283000141
 21
203.5705899877873
 31
0.0
  0
LINE
  5
1596
330
20
100
AcDbEntity
  8
STEMPEL
100
AcDbLine
 10
258.5741283000142
 20
204.5705899877872
 30
0.0
 11
261.3241283000141
 21
204.5705899877873
 31
0.0
  0
LINE
  5
1597
330
20
100
AcDbEntity
  8
STEMPEL
100
AcDbLine
 10
261.324128300014
 20
200.8205899877873
 30
0.0
 11
261.3241283000141
 21
203.5705899877873
 31
0.0
  0
LINE
  5
1598
330
20
100
AcDbEntity
  8
STEMPEL
100
AcDbLine
 10
262.3241283000141
 20
200.8205899877873
 30
0.0
 11
262.3241283000141
 21
203.5705899877873
 31
0.0
  0
LINE
  5
1599
330
20
100
AcDbEntity
  8
STEMPEL
100
AcDbLine
 10
261.324128300014
 20
200.8205899877873
 30
0.0
 11
262.3241283000141
 21
200.8205899877874
 31
0.0
  0
LINE
  5
159A
330
20
100
AcDbEntity
  8
STEMPEL
100
AcDbLine
 10
261.3241283000141
 20
207.3205899877873
 30
0.0
 11
262.3241283000143
 21
207.3205899877872
 31
0.0
  0
LINE
  5
159B
330
20
100
AcDbEntity
  8
STEMPEL
100
AcDbLine
 10
258.5741283000142
 20
203.5705899877873
 30
0.0
 11
258.5741283000142
 21
204.5705899877872
 31
0.0
  0
LINE
  5
159C
330
20
100
AcDbEntity
  8
STEMPEL
100
AcDbLine
 10
265.0741283000142
 20
203.5705899877873
 30
0.0
 11
265.0741283000142
 21
204.5705899877873
 31
0.0
  0
CIRCLE
  5
159D
330
20
100
AcDbEntity
  8
STEMPEL
100
AcDbCircle
 10
261.8241283000141
 20
204.0705899877873
 30
0.0
 40
5.399999999999863
  0
ARC
  5
15B5
330
20
100
AcDbEntity
  8
STEMPEL
100
AcDbCircle
 10
260.8241283000144
 20
554.1714896498871
 30
0.0
 40
8.199999999999999
100
AcDbArc
 50
93.49581363238984
 51
131.1883597477421
  0
LINE
  5
15B6
330
20
100
AcDbEntity
  8
STEMPEL
100
AcDbLine
 10
260.3241283000144
 20
561.5848230861387
 30
0.0
 11
261.3241283000144
 21
561.5848230861387
 31
0.0
  0
LINE
  5
15B7
330
20
100
AcDbEntity
  8
STEMPEL
100
AcDbLine
 10
261.3241283000144
 20
562.3562315517432
 30
0.0
 11
261.3241283000144
 21
561.5848230861387
 31
0.0
  0
LINE
  5
15B8
330
20
100
AcDbEntity
  8
STEMPEL
100
AcDbLine
 10
260.3241283000144
 20
562.3562315517432
 30
0.0
 11
260.3241283000144
 21
561.5848230861387
 31
0.0
  0
ARC
  5
15B9
330
20
100
AcDbEntity
  8
STEMPEL
100
AcDbCircle
 10
260.8241283000144
 20
554.1714896498871
 30
0.0
 40
8.199999999999999
100
AcDbArc
 50
48.81164025226026
 51
86.50418636761015
  0
LINE
  5
15BA
330
20
100
AcDbEntity
  8
STEMPEL
100
AcDbLine
 10
255.4241283000143
 20
558.3714896498872
 30
0.0
 11
266.224128300014
 21
558.3714896498872
 31
0.0
  0
LINE
  5
15BB
330
20
100
AcDbEntity
  8
STEMPEL
100
AcDbLine
 10
255.424128300014
 20
560.3423890981034
 30
0.0
 11
255.424128300014
 21
558.3714896498872
 31
0.0
  0
LINE
  5
15BC
330
20
100
AcDbEntity
  8
STEMPEL
100
AcDbLine
 10
266.2241283000142
 20
560.3423890981039
 30
0.0
 11
266.2241283000142
 21
558.3714896498872
 31
0.0
  0
LINE
  5
15BD
330
20
100
AcDbEntity
  8
STEMPEL
100
AcDbLine
 10
266.8241283000144
 20
558.3714896498872
 30
0.0
 11
254.8241283000144
 21
558.3714896498872
 31
0.0
  0
LINE
  5
15BE
330
20
100
AcDbEntity
  8
STEMPEL
100
AcDbLine
 10
254.8241283000144
 20
556.7714896498872
 30
0.0
 11
254.8241283000144
 21
558.3714896498872
 31
0.0
  0
LINE
  5
15BF
330
20
100
AcDbEntity
  8
STEMPEL
100
AcDbLine
 10
266.8241283000144
 20
557.0394388423184
 30
0.0
 11
266.8241283000144
 21
558.3714896498872
 31
0.0
  0
LINE
  5
15C0
330
20
100
AcDbEntity
  8
HILF
100
AcDbLine
 10
258.8741283000143
 20
552.7714896498872
 30
0.0
 11
258.8741283000143
 21
548.7489887246463
 31
0.0
  0
LINE
  5
15C1
330
20
100
AcDbEntity
  8
STEMPEL
100
AcDbLine
 10
260.8241283000144
 20
545.3714896498872
 30
0.0
 11
258.0741283000141
 21
550.1346293707017
 31
0.0
  0
LINE
  5
15C2
330
20
100
AcDbEntity
  8
STEMPEL
100
AcDbLine
 10
258.0741283000143
 20
552.7714896498872
 30
0.0
 11
258.0741283000143
 21
550.1346293707013
 31
0.0
  0
LINE
  5
15C3
330
20
100
AcDbEntity
  8
HILF
100
AcDbLine
 10
262.7741283000146
 20
552.7714896498872
 30
0.0
 11
262.7741283000146
 21
548.7489887246469
 31
0.0
  0
LINE
  5
15C4
330
20
100
AcDbEntity
  8
STEMPEL
100
AcDbLine
 10
260.8241283000144
 20
545.3714896498872
 30
0.0
 11
263.5741283000146
 21
550.1346293707017
 31
0.0
  0
LINE
  5
15C5
330
20
100
AcDbEntity
  8
STEMPEL
100
AcDbLine
 10
263.5741283000146
 20
552.7714896498872
 30
0.0
 11
263.5741283000146
 21
550.1346293707017
 31
0.0
  0
ARC
  5
15DE
330
20
100
AcDbEntity
  8
STEMPEL
100
AcDbCircle
 10
998.0760484175005
 20
554.1714896498873
 30
0.0
 40
8.199999999999999
100
AcDbArc
 50
93.49581363239307
 51
131.1883597477446
  0
LINE
  5
15DF
330
20
100
AcDbEntity
  8
STEMPEL
100
AcDbLine
 10
997.5760484175005
 20
561.5848230861389
 30
0.0
 11
998.5760484175004
 21
561.5848230861389
 31
0.0
  0
LINE
  5
15E0
330
20
100
AcDbEntity
  8
STEMPEL
100
AcDbLine
 10
998.5760484175004
 20
562.3562315517435
 30
0.0
 11
998.5760484175004
 21
561.5848230861389
 31
0.0
  0
LINE
  5
15E1
330
20
100
AcDbEntity
  8
STEMPEL
100
AcDbLine
 10
997.5760484175005
 20
562.3562315517435
 30
0.0
 11
997.5760484175005
 21
561.5848230861389
 31
0.0
  0
ARC
  5
15E2
330
20
100
AcDbEntity
  8
STEMPEL
100
AcDbCircle
 10
998.0760484175005
 20
554.1714896498873
 30
0.0
 40
8.199999999999999
100
AcDbArc
 50
48.81164025226026
 51
86.50418636760692
  0
LINE
  5
15E3
330
20
100
AcDbEntity
  8
STEMPEL
100
AcDbLine
 10
992.6760484175003
 20
558.3714896498873
 30
0.0
 11
1003.4760484175
 21
558.3714896498873
 31
0.0
  0
LINE
  5
15E4
330
20
100
AcDbEntity
  8
STEMPEL
100
AcDbLine
 10
992.6760484175002
 20
560.3423890981036
 30
0.0
 11
992.6760484175002
 21
558.3714896498874
 31
0.0
  0
LINE
  5
15E5
330
20
100
AcDbEntity
  8
STEMPEL
100
AcDbLine
 10
1003.4760484175
 20
560.3423890981041
 30
0.0
 11
1003.4760484175
 21
558.3714896498874
 31
0.0
  0
LINE
  5
15E6
330
20
100
AcDbEntity
  8
STEMPEL
100
AcDbLine
 10
1004.0760484175
 20
558.3714896498873
 30
0.0
 11
992.0760484175005
 21
558.3714896498873
 31
0.0
  0
LINE
  5
15E7
330
20
100
AcDbEntity
  8
STEMPEL
100
AcDbLine
 10
992.0760484175005
 20
556.7714896498874
 30
0.0
 11
992.0760484175005
 21
558.3714896498873
 31
0.0
  0
LINE
  5
15E8
330
20
100
AcDbEntity
  8
STEMPEL
100
AcDbLine
 10
1004.0760484175
 20
556.7714896498874
 30
0.0
 11
1004.0760484175
 21
558.3714896498873
 31
0.0
  0
LINE
  5
15EF
330
20
100
AcDbEntity
  8
MITTEL
100
AcDbLine
 10
998.0760484175005
 20
565.3377138158388
 30
0.0
 11
998.0760484175005
 21
542.9364524627183
 31
0.0
  0
LINE
  5
15F2
102
{ACAD_REACTORS
330
172C
102
}
330
20
100
AcDbEntity
  8
STEMPEL
100
AcDbLine
 10
269.8241283000141
 20
569.7714896498871
 30
0.0
 11
267.8241283000141
 21
569.7714896498871
 31
0.0
  0
LINE
  5
15F3
102
{ACAD_REACTORS
330
172C
102
}
330
20
100
AcDbEntity
  8
STEMPEL
100
AcDbLine
 10
269.8241283000142
 20
579.771489649887
 30
0.0
 11
267.8241283000143
 21
579.7714896498871
 31
0.0
  0
LINE
  5
15F4
102
{ACAD_REACTORS
330
172C
102
}
330
20
100
AcDbEntity
  8
STEMPEL
100
AcDbLine
 10
269.8241283000143
 20
584.7714896498871
 30
0.0
 11
267.8241283000143
 21
584.7714896498871
 31
0.0
  0
LINE
  5
15F5
102
{ACAD_REACTORS
330
172C
102
}
330
20
100
AcDbEntity
  8
STEMPEL
100
AcDbLine
 10
269.8241283000143
 20
594.7714896498872
 30
0.0
 11
267.8241283000143
 21
594.7714896498871
 31
0.0
  0
LINE
  5
15F6
102
{ACAD_REACTORS
330
172C
102
}
330
20
100
AcDbEntity
  8
STEMPEL
100
AcDbLine
 10
269.8241283000143
 20
599.771489649887
 30
0.0
 11
267.8241283000143
 21
599.7714896498871
 31
0.0
  0
LINE
  5
15F7
102
{ACAD_REACTORS
330
172C
102
}
330
20
100
AcDbEntity
  8
STEMPEL
100
AcDbLine
 10
269.8241283000143
 20
609.7714896498869
 30
0.0
 11
267.8241283000144
 21
609.771489649887
 31
0.0
  0
LINE
  5
15F8
102
{ACAD_REACTORS
330
172C
102
}
330
20
100
AcDbEntity
  8
STEMPEL
100
AcDbLine
 10
269.8241283000144
 20
614.7714896498869
 30
0.0
 11
267.8241283000143
 21
614.7714896498869
 31
0.0
  0
LINE
  5
15F9
102
{ACAD_REACTORS
330
172C
102
}
330
20
100
AcDbEntity
  8
STEMPEL
100
AcDbLine
 10
269.8241283000144
 20
624.771489649887
 30
0.0
 11
267.8241283000144
 21
624.7714896498869
 31
0.0
  0
LINE
  5
15FA
102
{ACAD_REACTORS
330
172C
102
}
330
20
100
AcDbEntity
  8
STEMPEL
100
AcDbLine
 10
269.8241283000144
 20
629.7714896498868
 30
0.0
 11
267.8241283000145
 21
629.7714896498868
 31
0.0
  0
LINE
  5
15FB
102
{ACAD_REACTORS
330
172C
102
}
330
20
100
AcDbEntity
  8
STEMPEL
100
AcDbLine
 10
269.8241283000145
 20
644.7714896498869
 30
0.0
 11
267.8241283000145
 21
644.7714896498869
 31
0.0
  0
LINE
  5
16CF
330
20
100
AcDbEntity
  8
TEXT
 62
     2
100
AcDbLine
 10
400.7581089928116
 20
639.3185663705994
 30
0.0
 11
377.7735747713375
 21
628.4555581812721
 31
0.0
  0
LINE
  5
16D0
330
20
100
AcDbEntity
  8
TEXT
 62
     2
100
AcDbLine
 10
504.2862422868842
 20
683.6065927153526
 30
0.0
 11
399.7202500422422
 21
683.6065927153526
 31
0.0
  0
TEXT
  5
16D1
330
20
100
AcDbEntity
  8
TEXT
 62
     1
100
AcDbText
 10
400.4394094755694
 20
673.8048149686435
 30
0.0
 40
7.0
  1
EDV-Art.Nr. 13204.000X
 41
0.8
  7
GREEKS
100
AcDbText
  0
TEXT
  5
16D2
330
20
100
AcDbEntity
  8
TEXT
 62
     1
100
AcDbText
 10
400.526584570287
 20
686.4994036194005
 30
0.0
 40
7.0
  1
Sieb
 41
0.8
  7
GREEKS
100
AcDbText
  0
LINE
  5
16D3
330
20
100
AcDbEntity
  8
TEXT
 62
     2
100
AcDbLine
 10
399.7202500422422
 20
683.6065927153526
 30
0.0
 11
356.7051851673539
 21
650.767914061636
 31
0.0
  0
TEXT
  5
16D4
330
20
100
AcDbEntity
  8
TEXT
 62
     1
100
AcDbText
 10
401.6285478901652
 20
629.5033537018684
 30
0.0
 40
7.0
  1
EDV-Art.Nr. 13305.100X
 41
0.8
  7
GREEKS
100
AcDbText
  0
LINE
  5
16D5
330
20
100
AcDbEntity
  8
TEXT
 62
     2
100
AcDbLine
 10
503.1476015836691
 20
639.3185663705994
 30
0.0
 11
400.7581089928116
 21
639.3185663705994
 31
0.0
  0
TEXT
  5
16D6
330
20
100
AcDbEntity
  8
TEXT
 62
     1
100
AcDbText
 10
401.6285478901652
 20
642.3843883316139
 30
0.0
 40
7.0
  1
Ablauftopf
 41
0.8
  7
GREEKS
100
AcDbText
  0
LINE
  5
16D7
330
20
100
AcDbEntity
  8
TEXT
 62
     2
100
AcDbLine
 10
261.8241283000141
 20
204.0705899877873
 30
0.0
 11
412.3903560678895
 21
273.4699715775924
 31
0.0
  0
TEXT
  5
16D8
330
20
100
AcDbEntity
  8
TEXT
 62
     1
100
AcDbText
 10
413.2869847870047
 20
263.8678354387613
 30
0.0
 40
7.0
  1
Scheibe DIN 125-A6,4-1.4301
 41
0.8
  7
GREEKS
100
AcDbText
  0
TEXT
  5
16D9
330
20
100
AcDbEntity
  8
TEXT
 62
     1
100
AcDbText
 10
413.2869847870047
 20
276.5500040303401
 30
0.0
 40
7.0
  1
Blechschraube DIN 7981-St5.5x13-C-H-1.4301 
 41
0.8
  7
GREEKS
100
AcDbText
  0
LINE
  5
16DA
330
20
100
AcDbEntity
  8
TEXT
 62
     2
100
AcDbLine
 10
618.5491515592624
 20
273.4699715775924
 30
0.0
 11
412.3903560678895
 21
273.4699715775924
 31
0.0
  0
LINE
  5
16DB
102
{ACAD_REACTORS
330
172C
102
}
330
20
100
AcDbEntity
  8
STEMPEL
100
AcDbLine
 10
269.8241283000141
 20
564.7714896498871
 30
0.0
 11
267.8241283000142
 21
564.7714896498871
 31
0.0
  0
LINE
  5
16DC
102
{ACAD_REACTORS
330
172C
102
}
330
20
100
AcDbEntity
  8
STEMPEL
100
AcDbLine
 10
265.8241283000141
 20
556.7714896498871
 30
0.0
 11
265.8241283000141
 21
554.7714896498871
 31
0.0
  0
LINE
  5
16DD
102
{ACAD_REACTORS
330
172C
102
}
330
20
100
AcDbEntity
  8
STEMPEL
100
AcDbLine
 10
309.8241283000141
 20
649.7706178363863
 30
0.0
 11
309.8241283000141
 21
651.7706178363863
 31
0.0
  0
LINE
  5
16DE
102
{ACAD_REACTORS
330
172C
102
}
330
20
100
AcDbEntity
  8
STEMPEL
100
AcDbLine
 10
323.8241283000141
 20
649.7706178363863
 30
0.0
 11
323.8241283000141
 21
651.7706178363863
 31
0.0
  0
HATCH
  5
172C
330
20
100
AcDbEntity
  8
SCHRAFF
100
AcDbHatch
 10
0.0
 20
0.0
 30
0.0
210
0.0
220
0.0
230
1.0
  2
_USER
 70
     0
 71
     1
 91
       13
 92
        7
 72
     1
 73
     1
 93
        9
 10
323.8241283000141
 20
651.7706178363863
 42
0.0
 10
323.8241283000141
 20
649.7706178363863
 42
0.0
 10
361.3241283000141
 20
649.7706178363863
 42
-0.6681786379192653
 10
363.0918952529804
 20
645.50285088342
 42
0.0
 10
359.2028079564544
 20
641.6137635868942
 42
0.0
 10
360.6170215188275
 20
640.1995500245208
 42
0.0
 10
364.5061088153536
 20
644.0886373210469
 42
0.1989123673796727
 10
365.8241283000141
 20
647.2706178363867
 42
-0.2139313555374216
 10
361.3241283000141
 20
651.7706178363863
 42
0.0
 97
        9
330
1507
330
16DE
330
1506
330
14E8
330
153B
330
14EF
330
14F1
330
14EA
330
14E9
 92
        7
 72
     1
 73
     1
 93
        8
 10
309.8241283000141
 20
649.7706178363863
 42
0.0
 10
309.8241283000141
 20
651.7706178363863
 42
0.0
 10
272.3241283000141
 20
651.7706178363863
 42
-0.2139313555374051
 10
267.8241283000145
 20
647.2706178363869
 42
0.0
 10
267.8241283000145
 20
644.7714896498869
 42
0.0
 10
269.8241283000145
 20
644.771489649887
 42
0.0
 10
269.8241283000145
 20
647.2706178363863
 42
-0.4142135623730418
 10
272.3241283000141
 20
649.7706178363863
 42
0.0
 97
        8
330
1507
330
14FA
330
153A
330
15FB
330
1539
330
14F9
330
1506
330
16DD
 92
        7
 72
     0
 73
     1
 93
        4
 10
269.8241283000145
 20
629.7714896498868
 10
267.8241283000145
 20
629.7714896498868
 10
267.8241283000144
 20
624.7714896498869
 10
269.8241283000144
 20
624.7714896498871
 97
        4
330
15FA
330
153A
330
15F9
330
1539
 92
        7
 72
     0
 73
     1
 93
        4
 10
269.8241283000144
 20
614.771489649887
 10
267.8241283000144
 20
614.7714896498868
 10
267.8241283000144
 20
609.7714896498871
 10
269.8241283000144
 20
609.771489649887
 97
        4
330
15F8
330
153A
330
15F7
330
1539
 92
        7
 72
     0
 73
     1
 93
        4
 10
267.8241283000143
 20
594.7714896498871
 10
269.8241283000143
 20
594.7714896498871
 10
269.8241283000143
 20
599.771489649887
 10
267.8241283000143
 20
599.7714896498871
 97
        4
330
15F6
330
153A
330
15F5
330
1539
 92
        7
 72
     0
 73
     1
 93
        4
 10
267.8241283000142
 20
579.771489649887
 10
269.8241283000141
 20
579.771489649887
 10
269.8241283000142
 20
584.7714896498872
 10
267.8241283000143
 20
584.7714896498871
 97
        4
330
15F4
330
153A
330
15F3
330
1539
 92
        7
 72
     0
 73
     1
 93
        4
 10
267.8241283000142
 20
564.7714896498871
 10
269.8241283000141
 20
564.7714896498871
 10
269.8241283000141
 20
569.7714896498871
 10
267.8241283000141
 20
569.7714896498871
 97
        4
330
15F2
330
153A
330
16DB
330
1539
 92
        7
 72
     0
 73
     1
 93
        4
 10
260.8241283000142
 20
556.771489649887
 10
260.8241283000142
 20
554.7714896498871
 10
265.8241283000141
 20
554.7714896498871
 10
265.824128300014
 20
556.7714896498871
 97
        4
330
153F
330
611
330
154A
330
16DC
 92
        7
 72
     1
 73
     1
 93
        8
 10
248.8241283000141
 20
553.7714896498871
 42
0.0
 10
248.8241283000141
 20
544.771489649887
 42
0.0
 10
250.8241283000141
 20
544.771489649887
 42
0.0
 10
250.8241283000141
 20
553.7714896498871
 42
-0.4142135623730951
 10
251.8241283000141
 20
554.7714896498871
 42
0.0
 10
260.8241283000142
 20
554.7714896498871
 42
0.0
 10
260.8241283000142
 20
556.7714896498871
 42
0.0
 10
251.8241283000141
 20
556.7714896498871
 42
0.4142135623730951
 97
        8
330
153F
330
151E
330
1537
330
152D
330
1538
330
1520
330
154A
330
611
 92
        7
 72
     1
 73
     1
 93
        8
 10
231.8241283000145
 20
556.7714896498871
 42
0.4142135623730951
 10
228.8241283000145
 20
553.7714896498871
 42
0.0
 10
228.8241283000145
 20
544.771489649887
 42
0.0
 10
230.8241283000145
 20
544.771489649887
 42
0.0
 10
230.8241283000145
 20
553.7714896498871
 42
-0.4142135623730951
 10
231.8241283000145
 20
554.7714896498871
 42
0.0
 10
237.8241283000141
 20
554.7714896498871
 42
0.0
 10
237.8241283000141
 20
556.7714896498871
 42
0.0
 97
        8
330
153F
330
1523
330
1536
330
152E
330
1535
330
1522
330
154C
330
1521
 92
        7
 72
     1
 73
     1
 93
        8
 10
211.8241283000145
 20
556.7714896498872
 42
0.4142135623730952
 10
208.8241283000145
 20
553.7714896498872
 42
0.0
 10
208.8241283000145
 20
544.7714896498871
 42
0.0
 10
210.8241283000146
 20
544.7714896498869
 42
0.0
 10
210.8241283000146
 20
553.7714896498871
 42
-0.4142135623730951
 10
211.8241283000145
 20
554.7714896498871
 42
0.0
 10
217.8241283000146
 20
554.7714896498871
 42
0.0
 10
217.8241283000145
 20
556.7714896498871
 42
0.0
 97
        8
330
153F
330
1526
330
1534
330
152F
330
1533
330
1528
330
154E
330
1525
 92
        7
 72
     1
 73
     1
 93
        8
 10
191.824128300014
 20
556.7714896498872
 42
0.4142135623730951
 10
188.8241283000141
 20
553.7714896498872
 42
0.0
 10
188.8241283000141
 20
544.7714896498886
 42
0.0
 10
190.8241283000141
 20
544.7714896498885
 42
0.0
 10
190.8241283000141
 20
553.7714896498886
 42
-0.4142135623726622
 10
191.824128300014
 20
554.7714896498871
 42
0.0
 10
197.8241283000145
 20
554.7714896498871
 42
0.0
 10
197.8241283000145
 20
556.7714896498871
 42
0.0
 97
        8
330
153F
330
152B
330
1531
330
1530
330
1532
330
152C
330
1550
330
1529
 92
        7
 72
     0
 73
     1
 93
        4
 10
177.824128300014
 20
554.771489649887
 10
177.8241283000141
 20
556.7714896498872
 10
162.8241283000141
 20
556.7714896498872
 10
162.824128300014
 20
554.771489649887
 97
        4
330
153F
330
153D
330
154F
330
153C
 75
     0
 76
     0
 52
45.0
 41
2.0
 77
     0
 78
     1
 53
45.0
 43
0.0
 44
0.0
 45
-1.414213562373094
 46
1.414213562373095
 79
     0
 47
0.2888808185219742
 98
       13
 10
346.5290110717969
 20
650.8406910521728
 10
298.5384708575048
 20
650.5518114660197
 10
269.3394067221175
 20
627.7302251933027
 10
269.3394067221175
 20
612.4195418092174
 10
268.4721083600684
 20
597.6866195767713
 10
268.7612078140846
 20
582.9536973443248
 10
268.7612078140846
 20
567.9318955257251
 10
263.2683143318272
 20
555.7988994653189
 10
251.4152290052625
 20
555.7988994653189
 10
233.2019518343904
 20
555.7988994653189
 10
213.5431773934361
 20
556.0877810308045
 10
192.4389056823997
 20
556.0877810308045
 10
173.9365290575115
 20
555.5100198791658
  0
DIMENSION
  5
1737
102
{ACAD_XDICTIONARY
360
1744
102
}
102
{ACAD_REACTORS
330
174E
102
}
330
20
100
AcDbEntity
  8
BEM
100
AcDbDimension
  2
*D10
 10
858.3258830262366
 20
552.7714896498871
 30
0.0
 11
851.8258830262364
 21
661.2714896498873
 31
0.0
 70
    32
 71
     5
 42
217.0
  3
Standard
100
AcDbAlignedDimension
 13
893.0760484174999
 23
769.7714896498871
 33
0.0
 14
873.0760484175
 24
552.7714896498871
 34
0.0
 50
90.0
100
AcDbRotatedDimension
1001
ACAD
1000
DSTYLE
1002
{
1070
    40
1040
2.0
1070
    41
1040
3.5
1070
    42
1040
1.0
1070
    43
1040
7.0
1070
    44
1040
1.0
1070
    47
1040
1.0
1070
    73
1070
     0
1070
    74
1070
     0
1070
    77
1070
     1
1070
    78
1070
     8
1070
    79
1070
     2
1070
   140
1040
3.5
1070
   141
1040
1.5
1070
   146
1040
0.5
1070
   147
1040
1.5
1070
   172
1070
     1
1070
   178
1070
     1
1070
   179
1070
     2
1070
   271
1070
     2
1070
   272
1070
     2
1070
   284
1070
     8
1070
   285
1070
     8
1070
   286
1070
     8
1002
}
  0
DIMENSION
  5
174F
102
{ACAD_XDICTIONARY
360
175C
102
}
102
{ACAD_REACTORS
330
1766
102
}
330
20
100
AcDbEntity
  8
BEM
100
AcDbDimension
  2
*D11
 10
858.3258830262366
 20
500.7714896498877
 30
0.0
 11
851.8258830262364
 21
526.7714896498875
 31
0.0
 70
    32
 71
     5
 42
51.99999999999943
  3
Standard
100
AcDbAlignedDimension
 13
873.0760484175
 23
552.7714896498871
 33
0.0
 14
990.0760484175005
 24
500.7714896498876
 34
0.0
 50
90.0
100
AcDbRotatedDimension
1001
ACAD
1000
DSTYLE
1002
{
1070
   279
1070
     1
1070
    40
1040
2.0
1070
    41
1040
3.5
1070
    42
1040
1.0
1070
    43
1040
7.0
1070
    44
1040
1.0
1070
    47
1040
1.0
1070
    73
1070
     0
1070
    74
1070
     0
1070
    77
1070
     1
1070
    78
1070
     8
1070
    79
1070
     2
1070
   140
1040
3.5
1070
   141
1040
1.5
1070
   146
1040
0.5
1070
   147
1040
1.5
1070
   172
1070
     1
1070
   178
1070
     1
1070
   179
1070
     2
1070
   271
1070
     2
1070
   272
1070
     2
1070
   284
1070
     8
1070
   285
1070
     8
1070
   286
1070
     8
1002
}
  0
DIMENSION
  5
178B
102
{ACAD_XDICTIONARY
360
1798
102
}
102
{ACAD_REACTORS
330
17A2
102
}
330
20
100
AcDbEntity
  8
BEM
100
AcDbDimension
  2
*D12
 10
376.8241283000135
 20
779.5563103161446
 30
0.0
 11
322.324128300014
 21
791.889643649478
 31
0.0
 70
    32
  1
\P107
 71
     5
 42
108.9999999999989
  3
Standard
100
AcDbAlignedDimension
 13
267.8241283000145
 23
647.2706178363863
 33
0.0
 14
376.8241283000135
 24
769.7714896498871
 34
0.0
100
AcDbRotatedDimension
1001
ACAD
1000
DSTYLE
1002
{
1070
    40
1040
2.0
1070
    41
1040
3.5
1070
    42
1040
1.0
1070
    43
1040
7.0
1070
    44
1040
1.0
1070
    47
1040
1.0
1070
    73
1070
     0
1070
    74
1070
     0
1070
    77
1070
     1
1070
    78
1070
     8
1070
    79
1070
     2
1070
   140
1040
3.5
1070
   141
1040
1.5
1070
   146
1040
0.5
1070
   147
1040
1.5
1070
   172
1070
     1
1070
   178
1070
     1
1070
   179
1070
     2
1070
   271
1070
     2
1070
   272
1070
     2
1070
   284
1070
     8
1070
   285
1070
     8
1070
   286
1070
     8
1002
}
  0
DIMENSION
  5
17BE
102
{ACAD_XDICTIONARY
360
17CB
102
}
102
{ACAD_REACTORS
330
17D5
102
}
330
20
100
AcDbEntity
  8
BEM
100
AcDbDimension
  2
*D13
 10
49.52417634661561
 20
651.7706178363864
 30
0.0
 11
43.02417634661551
 21
603.2710537431368
 31
0.0
 70
    32
 71
     5
 42
96.99912818649933
  3
Standard
100
AcDbAlignedDimension
 13
61.82412830001436
 23
554.7714896498871
 33
0.0
 14
272.3241283000141
 24
651.7706178363863
 34
0.0
 50
90.0
100
AcDbRotatedDimension
1001
ACAD
1000
DSTYLE
1002
{
1070
    40
1040
2.0
1070
    41
1040
3.5
1070
    42
1040
1.0
1070
    43
1040
7.0
1070
    44
1040
1.0
1070
    47
1040
1.0
1070
    73
1070
     0
1070
    74
1070
     0
1070
    77
1070
     1
1070
    78
1070
     8
1070
    79
1070
     2
1070
   140
1040
3.5
1070
   141
1040
1.5
1070
   146
1040
0.5
1070
   147
1040
1.5
1070
   172
1070
     1
1070
   178
1070
     1
1070
   179
1070
     2
1070
   271
1070
     2
1070
   272
1070
     2
1070
   284
1070
     8
1070
   285
1070
     8
1070
   286
1070
     8
1002
}
  0
DIMENSION
  5
17DF
102
{ACAD_XDICTIONARY
360
17EC
102
}
102
{ACAD_REACTORS
330
17F6
102
}
330
20
100
AcDbEntity
  8
BEM
100
AcDbDimension
  2
*D14
 10
378.8241283000143
 20
345.533438790231
 30
0.0
 11
220.3241283000143
 21
352.033438790231
 31
0.0
 70
    32
 71
     5
 42
317.0
  3
Standard
100
AcDbAlignedDimension
 13
61.82412830001436
 23
309.0705899877878
 33
0.0
 14
378.8241283000143
 24
329.0705899877878
 34
0.0
100
AcDbRotatedDimension
1001
ACAD
1000
DSTYLE
1002
{
1070
    40
1040
2.0
1070
    41
1040
3.5
1070
    42
1040
1.0
1070
    43
1040
7.0
1070
    44
1040
1.0
1070
    47
1040
1.0
1070
    73
1070
     0
1070
    74
1070
     0
1070
    77
1070
     1
1070
    78
1070
     8
1070
    79
1070
     2
1070
   140
1040
3.5
1070
   141
1040
1.5
1070
   146
1040
0.5
1070
   147
1040
1.5
1070
   172
1070
     1
1070
   178
1070
     1
1070
   179
1070
     2
1070
   271
1070
     2
1070
   272
1070
     2
1070
   284
1070
     8
1070
   285
1070
     8
1070
   286
1070
     8
1002
}
  0
TEXT
  5
180A
330
20
100
AcDbEntity
  8
TEXT
 62
     1
100
AcDbText
 10
654.2037611336609
 20
511.0615940638476
 30
0.0
 40
7.0
  1
DN100
 50
357.0
 41
0.8
  7
GREEKS
100
AcDbText
  0
LINE
  5
1876
330
20
100
AcDbEntity
  8
HILF
100
AcDbLine
 10
716.3780430090498
 20
436.9465486838917
 30
0.0
 11
721.2976228958876
 21
530.8177249508219
 31
0.0
  0
LINE
  5
1877
102
{ACAD_REACTORS
330
1932
102
}
330
20
100
AcDbEntity
  8
STEMPEL
100
AcDbLine
 10
726.2007825602843
 20
433.3023586159761
 30
0.0
 11
731.4474740397443
 21
533.4151958938789
 31
0.0
  0
LINE
  5
1879
102
{ACAD_REACTORS
330
1932
102
}
330
20
100
AcDbEntity
  8
STEMPEL
100
AcDbLine
 10
376.8241283000142
 20
550.8735605164571
 30
0.0
 11
721.3150925941724
 21
532.8195540947258
 31
0.0
  0
LINE
  5
187A
102
{ACAD_REACTORS
330
1881
330
1932
102
}
330
20
100
AcDbEntity
  8
STEMPEL
100
AcDbLine
 10
378.8241283000143
 20
552.7714896498869
 30
0.0
 11
721.5069667208638
 21
534.8122430898398
 31
0.0
  0
LINE
  5
187B
102
{ACAD_REACTORS
330
1881
330
1932
102
}
330
20
100
AcDbEntity
  8
STEMPEL
100
AcDbLine
 10
369.3074725920894
 20
451.1302571499525
 30
0.0
 11
716.1686991840777
 21
432.9520305448737
 31
0.0
  0
LINE
  5
187C
102
{ACAD_REACTORS
330
1932
102
}
330
20
100
AcDbEntity
  8
STEMPEL
100
AcDbLine
 10
369.4121445045753
 20
453.1275162194616
 30
0.0
 11
716.1861688823551
 21
434.9538596887779
 31
0.0
  0
LINE
  5
187D
102
{ACAD_REACTORS
330
1932
102
}
330
20
100
AcDbEntity
  8
STEMPEL
100
AcDbLine
 10
716.098900190673
 20
434.950812198912
 30
0.0
 11
726.305854302471
 21
435.3072468906625
 31
0.0
  0
LINE
  5
187E
102
{ACAD_REACTORS
330
1932
102
}
330
20
100
AcDbEntity
  8
STEMPEL
100
AcDbLine
 10
716.1686991840777
 20
432.9520305448737
 30
0.0
 11
726.2007825602843
 21
433.3023586159761
 31
0.0
  0
DIMENSION
  5
187F
102
{ACAD_XDICTIONARY
360
1880
102
}
102
{ACAD_REACTORS
330
1881
102
}
330
20
100
AcDbEntity
  8
BEM
100
AcDbDimension
  2
*D15
 10
752.4417317640962
 20
533.1910207512795
 30
0.0
 11
743.2815060197982
 21
482.601098194376
 31
0.0
 70
    33
  1
%%c<>
 71
     5
 42
101.9999999999999
  3
Standard
100
AcDbAlignedDimension
 13
716.1686991840777
 23
432.9520305448737
 33
0.0
 14
721.5069667208638
 24
534.8122430898398
 34
0.0
1001
ACAD
1000
DSTYLE
1002
{
1070
    40
1040
2.0
1070
    41
1040
3.5
1070
    42
1040
1.0
1070
    43
1040
7.0
1070
    44
1040
1.0
1070
    47
1040
1.0
1070
    73
1070
     0
1070
    74
1070
     0
1070
    77
1070
     1
1070
    78
1070
     8
1070
    79
1070
     2
1070
   140
1040
3.5
1070
   141
1040
1.5
1070
   146
1040
0.5
1070
   147
1040
1.5
1070
   172
1070
     1
1070
   178
1070
     1
1070
   179
1070
     2
1070
   271
1070
     2
1070
   272
1070
     2
1070
   284
1070
     8
1070
   285
1070
     8
1070
   286
1070
     8
1002
}
  0
ARC
  5
1883
102
{ACAD_REACTORS
330
1932
102
}
330
20
100
AcDbEntity
  8
STEMPEL
100
AcDbCircle
 10
375.6401232974858
 20
571.9644308552558
 30
0.0
 40
119.0
100
AcDbArc
 50
215.5528241840487
 51
266.9999999999944
  0
ARC
  5
1884
102
{ACAD_REACTORS
330
1932
102
}
330
20
100
AcDbEntity
  8
STEMPEL
100
AcDbCircle
 10
375.6401232974858
 20
571.9644308552558
 30
0.0
 40
121.0
100
AcDbArc
 50
214.8788083283956
 51
266.9999999999944
  0
HATCH
  5
1885
330
20
100
AcDbEntity
  8
SCHRAFF
100
AcDbHatch
 10
0.0
 20
0.0
 30
0.0
210
0.0
220
0.0
230
1.0
  2
_USER
 70
     0
 71
     0
 91
        1
 92
        7
 72
     1
 73
     1
 93
        3
 10
276.3761475190071
 20
502.7714896498872
 42
0.0
 10
273.3761475190082
 20
502.7714896498872
 42
0.1489303920051763
 10
278.1220525463969
 20
500.3318553257831
 42
-0.0061985852631813
 97
        0
 75
     0
 76
     0
 52
0.0
 41
0.1
 77
     0
 78
     1
 53
0.0
 43
0.0
 44
0.0
 45
0.0
 46
0.1
 79
     0
 47
0.0384338662345716
 98
        1
 10
275.4957037494469
 20
501.7324581425914
  0
ARC
  5
1886
330
20
100
AcDbEntity
  8
SCHRAFF
100
AcDbCircle
 10
279.753525463126
 20
509.341619773902
 30
0.0
 40
9.156285234122311
100
AcDbArc
 50
225.8529108898227
 51
259.7361938905886
  0
LINE
  5
1887
330
20
100
AcDbEntity
  8
STEMPEL
100
AcDbLine
 10
278.824128300016
 20
502.771489649885
 30
0.0
 11
278.8241283000159
 21
504.7714896498872
 31
0.0
  0
HATCH
  5
1888
330
20
100
AcDbEntity
  8
SCHRAFF
100
AcDbHatch
 10
0.0
 20
0.0
 30
0.0
210
0.0
220
0.0
230
1.0
  2
_USER
 70
     0
 71
     0
 91
        1
 92
        7
 72
     1
 73
     1
 93
        3
 10
378.8241283000143
 20
555.7714896498869
 42
0.0
 10
378.8241283000144
 20
552.7714896498869
 42
0.0
 10
381.820016904278
 20
552.6144817811581
 42
0.4296339059668258
 97
        0
 75
     0
 76
     0
 52
0.0
 41
0.1
 77
     0
 78
     1
 53
0.0
 43
0.0
 44
0.0
 45
0.0
 46
0.1
 79
     0
 47
0.0618218030959793
 98
        1
 10
380.3327117949075
 20
554.0607429535193
  0
ARC
  5
1889
330
20
100
AcDbEntity
  8
SCHRAFF
100
AcDbCircle
 10
378.8241283000143
 20
552.7714896498869
 30
0.0
 40
3.0
100
AcDbArc
 50
357.0000000000009
 51
89.99999999999836
  0
HATCH
  5
188A
330
20
100
AcDbEntity
  8
SCHRAFF
100
AcDbHatch
 10
0.0
 20
0.0
 30
0.0
210
0.0
220
0.0
230
1.0
  2
_USER
 70
     0
 71
     0
 91
        2
 92
        7
 72
     0
 73
     1
 93
        4
 10
378.8241283000144
 20
654.7714896498872
 10
376.8241283000139
 20
654.7714896498872
 10
376.8241283000142
 20
550.8735605164571
 10
378.8241283000143
 20
550.768744957891
 97
        0
 92
        7
 72
     1
 73
     1
 93
        8
 10
178.8241283000143
 20
504.7714896498872
 42
-0.4142135623730951
 10
176.8241283000143
 20
506.7714896498872
 42
0.0
 10
176.8241283000143
 20
552.7714896498871
 42
0.0
 10
174.8241283000144
 20
552.7714896498871
 42
0.0
 10
174.8241283000143
 20
506.7714896498872
 42
0.4142135623730951
 10
178.8241283000143
 20
502.7714896498872
 42
0.0
 10
278.8241283000159
 20
502.7714896498872
 42
0.0
 10
278.8241283000159
 20
504.7714896498872
 42
0.0
 97
        0
 75
     0
 76
     0
 52
45.0
 41
2.0
 77
     0
 78
     1
 53
45.0
 43
0.0
 44
0.0
 45
-1.414213562373094
 46
1.414213562373095
 79
     0
 47
0.3352956059995153
 98
        2
 10
377.8500588797524
 20
632.3495599853795
 10
235.2450490074916
 20
504.2666355347233
  0
DIMENSION
  5
18B1
102
{ACAD_XDICTIONARY
360
18B2
102
}
102
{ACAD_REACTORS
330
18B3
102
}
330
20
100
AcDbEntity
  8
BEM
100
AcDbDimension
  2
*D16
 10
374.8241283000144
 20
502.7714896498872
 30
0.0
 11
452.2428269761523
 21
478.5964339987216
 31
0.0
 70
    34
 71
     5
 42
0.052359877559832
  3
Standard
100
AcDb2LineAngularDimension
 13
371.9766063604796
 23
502.0603634224354
 33
0.0
 14
733.8172759737872
 24
483.0970974737128
 34
0.0
 15
178.8241283000143
 25
502.7714896498872
 35
0.0
 16
461.5926711414309
 26
500.9703859557665
 36
0.0
1001
ACAD
1000
DSTYLE
1002
{
1070
    40
1040
2.0
1070
    41
1040
3.5
1070
    42
1040
1.0
1070
    43
1040
7.0
1070
    44
1040
1.0
1070
    47
1040
1.0
1070
    73
1070
     0
1070
    74
1070
     0
1070
    77
1070
     1
1070
    78
1070
     8
1070
    79
1070
     2
1070
   140
1040
3.5
1070
   141
1040
1.5
1070
   146
1040
0.5
1070
   147
1040
1.5
1070
   172
1070
     1
1070
   178
1070
     1
1070
   179
1070
     2
1070
   271
1070
     2
1070
   272
1070
     2
1070
   284
1070
     8
1070
   285
1070
     8
1070
   286
1070
     8
1002
}
  0
LINE
  5
18B4
102
{ACAD_REACTORS
330
18B3
102
}
330
20
100
AcDbEntity
  8
MITTEL
100
AcDbLine
 10
371.9766063604796
 20
502.0603634224354
 30
0.0
 11
733.8172759737872
 21
483.0970974737128
 31
0.0
  0
ARC
  5
18B5
330
20
100
AcDbEntity
  8
MITTEL
100
AcDbCircle
 10
375.6401232974858
 20
571.9644308552558
 30
0.0
 40
69.99999999999999
100
AcDbArc
 50
207.2605789881864
 51
267.0000000000009
  0
LINE
  5
190C
102
{ACAD_REACTORS
330
1932
102
}
330
20
100
AcDbEntity
  8
STEMPEL
100
AcDbLine
 10
721.5069667208585
 20
534.8122430898404
 30
0.0
 11
731.4474740397443
 21
533.4151958938789
 31
0.0
  0
LINE
  5
190D
102
{ACAD_REACTORS
330
1932
102
}
330
20
100
AcDbEntity
  8
STEMPEL
100
AcDbLine
 10
721.2286205189387
 20
532.8317069523571
 30
0.0
 11
731.3424022975571
 21
531.4103076191925
 31
0.0
  0
HATCH
  5
1932
330
20
100
AcDbEntity
  8
SCHRAFF
100
AcDbHatch
 10
0.0
 20
0.0
 30
0.0
210
0.0
220
0.0
230
1.0
  2
_USER
 70
     0
 71
     1
 91
        2
 92
        7
 72
     1
 73
     1
 93
        8
 10
369.4121445045753
 20
453.1275162194616
 42
-0.2283288818467444
 10
278.8241283000144
 20
502.7714896498872
 42
0.0
 10
276.3761475190072
 20
502.7714896498872
 42
0.231425242628068
 10
369.3074725920893
 20
451.1302571499525
 42
0.0
 10
716.1686991840785
 20
432.9520305448737
 42
0.0
 10
726.2007825602842
 20
433.3023586159761
 42
0.0
 10
726.305854302471
 20
435.3072468906625
 42
0.0
 10
716.1861688823539
 20
434.953859688778
 42
0.0
 97
        8
330
1883
330
5E7
330
1884
330
187B
330
187E
330
1877
330
187D
330
187C
 92
        7
 72
     0
 73
     1
 93
        6
 10
721.315092594168
 20
532.8195540947262
 10
731.3424022975573
 20
531.4103076191924
 10
731.4474740397443
 20
533.4151958938789
 10
721.5069667208609
 20
534.8122430898399
 10
378.8241283000144
 20
552.7714896498868
 10
378.8241283000145
 20
550.7687449578911
 97
        6
330
60A
330
1879
330
190D
330
1877
330
190C
330
187A
 75
     0
 76
     0
 52
135.0
 41
2.0
 77
     0
 78
     1
 53
135.0
 43
0.0
 44
0.0
 45
-1.414213562373095
 46
-1.414213562373094
 79
     0
 47
0.5983593765875316
 98
        2
 10
438.1900121843146
 20
448.9181101597496
 10
423.2255888850841
 20
549.4424841468585
  0
ENDSEC
  0
SECTION
  2
OBJECTS
  0
DICTIONARY
  5
C
330
0
100
AcDbDictionary
281
     1
  3
ACAD_COLOR
350
1B
  3
ACAD_GROUP
350
D
  3
ACAD_LAYOUT
350
19
  3
ACAD_MATERIAL
350
1A
  3
ACAD_MLINESTYLE
350
16
  3
ACAD_PLOTSETTINGS
350
18
  3
ACAD_PLOTSTYLENAME
350
E
  3
AcDbVariableDictionary
350
714
  0
DICTIONARY
  5
1744
330
1737
100
AcDbDictionary
280
     1
281
     1
  3
ACAD_DIMASSOC
360
174E
  0
DICTIONARY
  5
175C
330
174F
100
AcDbDictionary
280
     1
281
     1
  3
ACAD_DIMASSOC
360
1766
  0
DICTIONARY
  5
1798
330
178B
100
AcDbDictionary
280
     1
281
     1
  3
ACAD_DIMASSOC
360
17A2
  0
DICTIONARY
  5
17CB
330
17BE
100
AcDbDictionary
280
     1
281
     1
  3
ACAD_DIMASSOC
360
17D5
  0
DICTIONARY
  5
17EC
330
17DF
100
AcDbDictionary
280
     1
281
     1
  3
ACAD_DIMASSOC
360
17F6
  0
DICTIONARY
  5
1880
330
187F
100
AcDbDictionary
280
     1
281
     1
  3
ACAD_DIMASSOC
360
1881
  0
DICTIONARY
  5
18B2
330
18B1
100
AcDbDictionary
280
     1
281
     1
  3
ACAD_DIMASSOC
360
18B3
  0
DICTIONARY
  5
1B
102
{ACAD_REACTORS
330
C
102
}
330
C
100
AcDbDictionary
281
     1
  0
DICTIONARY
  5
D
102
{ACAD_REACTORS
330
C
102
}
330
C
100
AcDbDictionary
281
     1
  0
DICTIONARY
  5
19
102
{ACAD_REACTORS
330
C
102
}
330
C
100
AcDbDictionary
281
     1
  3
Layout1
350
1F
  3
Model
350
23
  0
DICTIONARY
  5
1A
102
{ACAD_REACTORS
330
C
102
}
330
C
100
AcDbDictionary
281
     1
  0
DICTIONARY
  5
16
102
{ACAD_REACTORS
330
C
102
}
330
C
100
AcDbDictionary
281
     1
  3
Standard
350
17
  0
DICTIONARY
  5
18
102
{ACAD_REACTORS
330
C
102
}
330
C
100
AcDbDictionary
281
     1
  0
ACDBDICTIONARYWDFLT
  5
E
102
{ACAD_REACTORS
330
C
102
}
330
C
100
AcDbDictionary
281
     1
  3
Normal
350
F
100
AcDbDictionaryWithDefault
340
F
  0
DICTIONARY
  5
714
102
{ACAD_REACTORS
330
C
102
}
330
C
100
AcDbDictionary
281
     1
  3
DIMASSOC
350
716
  3
HIDETEXT
350
715
  3
PROJECTNAME
350
717
  0
DIMASSOC
  5
174E
102
{ACAD_REACTORS
330
1744
102
}
330
1744
100
AcDbDimAssoc
330
1737
 90
        3
 70
     0
 71
     0
  1
AcDbOsnapPointRef
 72
    13
331
6A0
 73
     2
 91
        0
 40
0.0
 10
0.0
 20
0.0
 30
2.000000000000000E+50
 75
     0
  1
AcDbOsnapPointRef
 72
    13
331
6A1
 73
     2
 91
        0
 40
0.0
 10
0.0
 20
0.0
 30
2.000000000000000E+50
 75
     0
  0
DIMASSOC
  5
1766
102
{ACAD_REACTORS
330
175C
102
}
330
175C
100
AcDbDimAssoc
330
174F
 90
        3
 70
     0
 71
     0
  1
AcDbOsnapPointRef
 72
    13
331
6A1
 73
     2
 91
        0
 40
0.0
 10
0.0
 20
0.0
 30
2.000000000000000E+50
 75
     0
  1
AcDbOsnapPointRef
 72
    13
331
6D5
 73
     2
 91
        0
 40
0.0
 10
0.0
 20
0.0
 30
2.000000000000000E+50
 75
     0
  0
DIMASSOC
  5
17A2
102
{ACAD_REACTORS
330
1798
102
}
330
1798
100
AcDbDimAssoc
330
178B
 90
        3
 70
     0
 71
     0
  1
AcDbOsnapPointRef
 72
    13
331
153A
 73
     2
 91
        0
 40
0.0
 10
0.0
 20
0.0
 30
2.000000000000000E+50
 75
     0
  1
AcDbOsnapPointRef
 72
     1
331
60B
 73
     2
 91
        0
 40
1.0
 10
0.0
 20
0.0
 30
2.000000000000000E+50
 75
     0
  0
DIMASSOC
  5
17D5
102
{ACAD_REACTORS
330
17CB
102
}
330
17CB
100
AcDbDimAssoc
330
17BE
 90
        3
 70
     0
 71
     0
  1
AcDbOsnapPointRef
 72
     1
331
604
 73
     2
 91
        0
 40
1.0
 10
0.0
 20
0.0
 30
2.000000000000000E+50
 75
     0
  1
AcDbOsnapPointRef
 72
    13
331
14FB
 73
     2
 91
        0
 40
1.570796326794896
 10
0.0
 20
0.0
 30
2.000000000000000E+50
 75
     0
  0
DIMASSOC
  5
17F6
102
{ACAD_REACTORS
330
17EC
102
}
330
17EC
100
AcDbDimAssoc
330
17DF
 90
        3
 70
     0
 71
     0
  1
AcDbOsnapPointRef
 72
     1
331
589
 73
     2
 91
        0
 40
1.0
 10
0.0
 20
0.0
 30
2.000000000000000E+50
 75
     0
  1
AcDbOsnapPointRef
 72
    13
331
56E
 73
     2
 91
        0
 40
0.0
 10
0.0
 20
0.0
 30
2.000000000000000E+50
 75
     0
  0
DIMASSOC
  5
1881
102
{ACAD_REACTORS
330
1880
102
}
330
1880
100
AcDbDimAssoc
330
187F
 90
        3
 70
     0
 71
     0
  1
AcDbOsnapPointRef
 72
     1
331
187B
 73
     2
 91
        0
 40
1.0
 10
0.0
 20
0.0
 30
2.000000000000000E+50
 75
     0
  1
AcDbOsnapPointRef
 72
     1
331
187A
 73
     2
 91
        0
 40
1.0
 10
0.0
 20
0.0
 30
2.000000000000000E+50
 75
     0
  0
DIMASSOC
  5
18B3
102
{ACAD_REACTORS
330
18B2
102
}
330
18B2
100
AcDbDimAssoc
330
18B1
 90
        3
 70
     0
 71
     0
  1
AcDbOsnapPointRef
 72
    13
331
18B4
 73
     2
 91
        0
 40
0.0
 10
0.0
 20
0.0
 30
2.000000000000000E+50
 75
     0
  1
AcDbOsnapPointRef
 72
     1
331
18B4
 73
     2
 91
        0
 40
1.0
 10
0.0
 20
0.0
 30
2.000000000000000E+50
 75
     0
  0
LAYOUT
  5
1F
102
{ACAD_REACTORS
330
19
102
}
330
19
100
AcDbPlotSettings
  1

  2
RICOH Aficio 2027 PCL 6
  4

  6

 40
0.0
 41
0.0
 42
0.0
 43
0.0
 44
0.0
 45
0.0
 46
0.0
 47
0.0
 48
0.0
 49
0.0
140
0.0
141
0.0
142
1.0
143
1.0
 70
   688
 72
     0
 73
     0
 74
     5
  7
monochrome1.ctb
 75
    16
147
1.0
 76
     0
 77
     2
 78
   300
148
0.0
149
0.0
100
AcDbLayout
  1
Layout1
 70
     0
 71
     1
 10
0.0
 20
0.0
 11
12.0
 21
9.0
 12
0.0
 22
0.0
 32
0.0
 14
1.000000000000000E+20
 24
1.000000000000000E+20
 34
1.000000000000000E+20
 15
-1.000000000000000E+20
 25
-1.000000000000000E+20
 35
-1.000000000000000E+20
146
0.0
 13
0.0
 23
0.0
 33
0.0
 16
1.0
 26
0.0
 36
0.0
 17
0.0
 27
1.0
 37
0.0
 76
     0
330
1C
  0
LAYOUT
  5
23
102
{ACAD_REACTORS
330
19
102
}
330
19
100
AcDbPlotSettings
  1

  2
RICOH Aficio 2027 PCL 6
  4
A4
  6

 40
5.027083396911621
 41
5.027085304260253
 42
5.027084350585937
 43
5.027069091796875
 44
209.9733276367187
 45
296.9259948730469
 46
0.0
 47
0.0
 48
0.0
 49
0.0
140
0.0
141
0.0
142
1.0
143
1.0
 70
 11952
 72
     0
 73
     1
 74
     0
  7
monochrome1.ctb
 75
     0
147
1.0
 76
     0
 77
     2
 78
   300
148
-4290.979119347269
149
128.1713162716358
100
AcDbLayout
  1
Model
 70
     1
 71
     0
 10
0.0
 20
0.0
 11
12.0
 21
9.0
 12
0.0
 22
0.0
 32
0.0
 14
0.0
 24
0.0
 34
0.0
 15
0.0
 25
0.0
 35
0.0
146
0.0
 13
0.0
 23
0.0
 33
0.0
 16
1.0
 26
0.0
 36
0.0
 17
0.0
 27
1.0
 37
0.0
 76
     0
330
20
  0
MLINESTYLE
  5
17
102
{ACAD_REACTORS
330
16
102
}
330
16
100
AcDbMlineStyle
  2
STANDARD
 70
     0
  3

 62
   256
 51
90.0
 52
90.0
 71
     2
 49
0.5
 62
   256
  6
BYLAYER
 49
-0.5
 62
   256
  6
BYLAYER
  0
ACDBPLACEHOLDER
  5
F
102
{ACAD_REACTORS
330
E
102
}
330
E
  0
DICTIONARYVAR
  5
716
102
{ACAD_REACTORS
330
714
102
}
330
714
100
DictionaryVariables
280
     0
  1
2
  0
DICTIONARYVAR
  5
715
102
{ACAD_REACTORS
330
714
102
}
330
714
100
DictionaryVariables
280
     0
  1
1
  0
DICTIONARYVAR
  5
717
102
{ACAD_REACTORS
330
714
102
}
330
714
100
DictionaryVariables
280
     0
  1

  0
ENDSEC
  0
EOF
