  0
SECTION
  2
HEADER
  9
$ACADVER
  1
AC1018
  9
$ACADMAINTVER
 70
     2
  9
$DWGCODEPAGE
  3
ANSI_1252
  9
$INSBASE
 10
0.0
 20
0.0
 30
0.0
  9
$EXTMIN
 10
-0.0181365906848896
 20
-0.0051206511520832
 30
-0.0000000000000129
  9
$EXTMAX
 10
840.0213772511767
 20
594.0468161694561
 30
0.0000000000000023
  9
$LIMMIN
 10
0.0
 20
0.0
  9
$LIMMAX
 10
840.0
 20
594.0
  9
$ORTHOMODE
 70
     1
  9
$REGENMODE
 70
     1
  9
$FILLMODE
 70
     1
  9
$QTEXTMODE
 70
     0
  9
$MIRRTEXT
 70
     1
  9
$LTSCALE
 40
20.0
  9
$ATTMODE
 70
     1
  9
$TEXTSIZE
 40
3.5
  9
$TRACEWID
 40
1.0
  9
$TEXTSTYLE
  7
STANDARD
  9
$CLAYER
  8
BEM
  9
$CELTYPE
  6
ByLayer
  9
$CECOLOR
 62
   256
  9
$CELTSCALE
 40
1.0
  9
$DISPSILH
 70
     0
  9
$DIMSCALE
 40
2.0
  9
$DIMASZ
 40
3.5
  9
$DIMEXO
 40
1.0
  9
$DIMDLI
 40
7.0
  9
$DIMRND
 40
0.0
  9
$DIMDLE
 40
0.0
  9
$DIMEXE
 40
1.0
  9
$DIMTP
 40
0.0
  9
$DIMTM
 40
0.0
  9
$DIMTXT
 40
3.5
  9
$DIMCEN
 40
1.5
  9
$DIMTSZ
 40
0.0
  9
$DIMTOL
 70
     0
  9
$DIMLIM
 70
     0
  9
$DIMTIH
 70
     0
  9
$DIMTOH
 70
     0
  9
$DIMSE1
 70
     0
  9
$DIMSE2
 70
     0
  9
$DIMTAD
 70
     1
  9
$DIMZIN
 70
     8
  9
$DIMBLK
  1

  9
$DIMASO
 70
     1
  9
$DIMSHO
 70
     0
  9
$DIMPOST
  1

  9
$DIMAPOST
  1

  9
$DIMALT
 70
     0
  9
$DIMALTD
 70
     2
  9
$DIMALTF
 40
25.4
  9
$DIMLFAC
 40
1.0
  9
$DIMTOFL
 70
     1
  9
$DIMTVP
 40
0.0
  9
$DIMTIX
 70
     0
  9
$DIMSOXD
 70
     0
  9
$DIMSAH
 70
     0
  9
$DIMBLK1
  1

  9
$DIMBLK2
  1

  9
$DIMSTYLE
  2
Standard
  9
$DIMCLRD
 70
     0
  9
$DIMCLRE
 70
     0
  9
$DIMCLRT
 70
     1
  9
$DIMTFAC
 40
0.5142857142857144
  9
$DIMGAP
 40
1.5
  9
$DIMJUST
 70
     0
  9
$DIMSD1
 70
     0
  9
$DIMSD2
 70
     0
  9
$DIMTOLJ
 70
     1
  9
$DIMTZIN
 70
     8
  9
$DIMALTZ
 70
     8
  9
$DIMALTTZ
 70
     8
  9
$DIMUPT
 70
     0
  9
$DIMDEC
 70
     2
  9
$DIMTDEC
 70
     2
  9
$DIMALTU
 70
     2
  9
$DIMALTTD
 70
     2
  9
$DIMTXSTY
  7
STANDARD
  9
$DIMAUNIT
 70
     0
  9
$DIMADEC
 70
     2
  9
$DIMALTRND
 40
0.0
  9
$DIMAZIN
 70
     2
  9
$DIMDSEP
 70
    46
  9
$DIMATFIT
 70
     3
  9
$DIMFRAC
 70
     0
  9
$DIMLDRBLK
  1

  9
$DIMLUNIT
 70
     2
  9
$DIMLWD
 70
    -2
  9
$DIMLWE
 70
    -2
  9
$DIMTMOVE
 70
     0
  9
$LUNITS
 70
     2
  9
$LUPREC
 70
     2
  9
$SKETCHINC
 40
1.0
  9
$FILLETRAD
 40
0.0
  9
$AUNITS
 70
     0
  9
$AUPREC
 70
     0
  9
$MENU
  1
ACAD
  9
$ELEVATION
 40
0.0
  9
$PELEVATION
 40
0.0
  9
$THICKNESS
 40
0.0
  9
$LIMCHECK
 70
     0
  9
$CHAMFERA
 40
0.0
  9
$CHAMFERB
 40
0.0
  9
$CHAMFERC
 40
0.0
  9
$CHAMFERD
 40
0.0
  9
$SKPOLY
 70
     0
  9
$TDCREATE
 40
2455397.867059838
  9
$TDUCREATE
 40
2455397.783726505
  9
$TDUPDATE
 40
2455453.496292072
  9
$TDUUPDATE
 40
2455453.412958739
  9
$TDINDWG
 40
0.0472490509
  9
$TDUSRTIMER
 40
0.0472490509
  9
$USRTIMER
 70
     1
  9
$ANGBASE
 50
0.0
  9
$ANGDIR
 70
     0
  9
$PDMODE
 70
     0
  9
$PDSIZE
 40
0.0
  9
$PLINEWID
 40
0.0
  9
$SPLFRAME
 70
     0
  9
$SPLINETYPE
 70
     6
  9
$SPLINESEGS
 70
     8
  9
$HANDSEED
  5
4598
  9
$SURFTAB1
 70
     6
  9
$SURFTAB2
 70
     6
  9
$SURFTYPE
 70
     6
  9
$SURFU
 70
     6
  9
$SURFV
 70
     6
  9
$UCSBASE
  2

  9
$UCSNAME
  2

  9
$UCSORG
 10
0.0
 20
0.0
 30
0.0
  9
$UCSXDIR
 10
1.0
 20
0.0
 30
0.0
  9
$UCSYDIR
 10
0.0
 20
1.0
 30
0.0
  9
$UCSORTHOREF
  2

  9
$UCSORTHOVIEW
 70
     0
  9
$UCSORGTOP
 10
0.0
 20
0.0
 30
0.0
  9
$UCSORGBOTTOM
 10
0.0
 20
0.0
 30
0.0
  9
$UCSORGLEFT
 10
0.0
 20
0.0
 30
0.0
  9
$UCSORGRIGHT
 10
0.0
 20
0.0
 30
0.0
  9
$UCSORGFRONT
 10
0.0
 20
0.0
 30
0.0
  9
$UCSORGBACK
 10
0.0
 20
0.0
 30
0.0
  9
$PUCSBASE
  2

  9
$PUCSNAME
  2

  9
$PUCSORG
 10
0.0
 20
0.0
 30
0.0
  9
$PUCSXDIR
 10
1.0
 20
0.0
 30
0.0
  9
$PUCSYDIR
 10
0.0
 20
1.0
 30
0.0
  9
$PUCSORTHOREF
  2

  9
$PUCSORTHOVIEW
 70
     0
  9
$PUCSORGTOP
 10
0.0
 20
0.0
 30
0.0
  9
$PUCSORGBOTTOM
 10
0.0
 20
0.0
 30
0.0
  9
$PUCSORGLEFT
 10
0.0
 20
0.0
 30
0.0
  9
$PUCSORGRIGHT
 10
0.0
 20
0.0
 30
0.0
  9
$PUCSORGFRONT
 10
0.0
 20
0.0
 30
0.0
  9
$PUCSORGBACK
 10
0.0
 20
0.0
 30
0.0
  9
$USERI1
 70
     0
  9
$USERI2
 70
     0
  9
$USERI3
 70
     0
  9
$USERI4
 70
     0
  9
$USERI5
 70
     0
  9
$USERR1
 40
0.0
  9
$USERR2
 40
0.0
  9
$USERR3
 40
0.0
  9
$USERR4
 40
0.0
  9
$USERR5
 40
0.0
  9
$WORLDVIEW
 70
     1
  9
$SHADEDGE
 70
     3
  9
$SHADEDIF
 70
    70
  9
$TILEMODE
 70
     1
  9
$MAXACTVP
 70
    16
  9
$PINSBASE
 10
0.0
 20
0.0
 30
0.0
  9
$PLIMCHECK
 70
     0
  9
$PEXTMIN
 10
1.000000000000000E+20
 20
1.000000000000000E+20
 30
1.000000000000000E+20
  9
$PEXTMAX
 10
-1.000000000000000E+20
 20
-1.000000000000000E+20
 30
-1.000000000000000E+20
  9
$PLIMMIN
 10
0.0
 20
0.0
  9
$PLIMMAX
 10
12.0
 20
9.0
  9
$UNITMODE
 70
     0
  9
$VISRETAIN
 70
     0
  9
$PLINEGEN
 70
     0
  9
$PSLTSCALE
 70
     0
  9
$TREEDEPTH
 70
  3020
  9
$CMLSTYLE
  2
Standard
  9
$CMLJUST
 70
     0
  9
$CMLSCALE
 40
1.0
  9
$PROXYGRAPHICS
 70
     1
  9
$MEASUREMENT
 70
     0
  9
$CELWEIGHT
370
    -1
  9
$ENDCAPS
280
     0
  9
$JOINSTYLE
280
     0
  9
$LWDISPLAY
290
     0
  9
$INSUNITS
 70
     0
  9
$HYPERLINKBASE
  1

  9
$STYLESHEET
  1
monochrome 1.ctb
  9
$XEDIT
290
     1
  9
$CEPSNTYPE
380
     0
  9
$PSTYLEMODE
290
     1
  9
$FINGERPRINTGUID
  2
{D68B0D0D-A558-11D7-B632-000102183313}
  9
$VERSIONGUID
  2
{51ADA965-77B4-46B9-8738-BB594E3F1BC5}
  9
$EXTNAMES
290
     1
  9
$PSVPSCALE
 40
0.0
  9
$OLESTARTUP
290
     0
  9
$SORTENTS
280
   127
  9
$INDEXCTL
280
     0
  9
$HIDETEXT
280
     0
  9
$XCLIPFRAME
290
     0
  9
$HALOGAP
280
     0
  9
$OBSCOLOR
 70
   257
  9
$OBSLTYPE
280
     0
  9
$INTERSECTIONDISPLAY
280
     0
  9
$INTERSECTIONCOLOR
 70
   257
  9
$DIMASSOC
280
     1
  9
$PROJECTNAME
  1

  0
ENDSEC
  0
SECTION
  2
CLASSES
  0
CLASS
  1
ACDBDICTIONARYWDFLT
  2
AcDbDictionaryWithDefault
  3
ObjectDBX Classes
 90
        0
 91
        1
280
     0
281
     0
  0
CLASS
  1
DICTIONARYVAR
  2
AcDbDictionaryVar
  3
ObjectDBX Classes
 90
        0
 91
        2
280
     0
281
     0
  0
ENDSEC
  0
SECTION
  2
TABLES
  0
TABLE
  2
VPORT
  5
8
330
0
100
AcDbSymbolTable
 70
     2
  0
VPORT
  5
4597
330
8
100
AcDbSymbolTableRecord
100
AcDbViewportTableRecord
  2
*Active
 70
     0
 10
0.0
 20
0.0
 11
1.0
 21
1.0
 12
420.0016203302459
 22
297.020847759152
 13
0.0
 23
0.0
 14
1.0
 24
1.0
 15
10.0
 25
10.0
 16
0.0
 26
0.0
 36
1.0
 17
0.0
 27
0.0
 37
0.0
 40
632.1313117629208
 41
1.336927223719676
 42
50.0
 43
0.0
 44
0.0
 50
0.0
 51
0.0
 71
     0
 72
  1500
 73
     1
 74
     0
 75
     0
 76
     0
 77
     0
 78
     0
281
     0
 65
     1
110
0.0
120
0.0
130
0.0
111
1.0
121
0.0
131
0.0
112
0.0
122
1.0
132
0.0
 79
     0
146
0.0
  0
ENDTAB
  0
TABLE
  2
LTYPE
  5
5
330
0
100
AcDbSymbolTable
 70
     3
  0
LTYPE
  5
13
330
5
100
AcDbSymbolTableRecord
100
AcDbLinetypeTableRecord
  2
ByBlock
 70
     0
  3

 72
    65
 73
     0
 40
0.0
  0
LTYPE
  5
14
330
5
100
AcDbSymbolTableRecord
100
AcDbLinetypeTableRecord
  2
ByLayer
 70
     0
  3

 72
    65
 73
     0
 40
0.0
  0
LTYPE
  5
15
330
5
100
AcDbSymbolTableRecord
100
AcDbLinetypeTableRecord
  2
Continuous
 70
     0
  3
Solid line
 72
    65
 73
     0
 40
0.0
  0
LTYPE
  5
25
330
5
100
AcDbSymbolTableRecord
100
AcDbLinetypeTableRecord
  2
STRICHPUNKT
 70
     0
  3
__ . __ . __ . __ . __ . __ . __ . __ . __ . __
 72
    65
 73
     4
 40
1.0
 49
0.5
 74
     0
 49
-0.25
 74
     0
 49
0.0
 74
     0
 49
-0.25
 74
     0
  0
LTYPE
  5
34
330
5
100
AcDbSymbolTableRecord
100
AcDbLinetypeTableRecord
  2
AUSGEZOGEN
 70
     0
  3
Ausgezogene Linie
 72
    65
 73
     0
 40
0.0
  0
ENDTAB
  0
TABLE
  2
LAYER
  5
2
330
0
100
AcDbSymbolTable
 70
     9
  0
LAYER
  5
10
330
2
100
AcDbSymbolTableRecord
100
AcDbLayerTableRecord
  2
0
 70
     0
 62
     7
  6
Continuous
370
    -3
390
F
  0
LAYER
  5
2B
330
2
100
AcDbSymbolTableRecord
100
AcDbLayerTableRecord
  2
VOLL
 70
     0
 62
     1
  6
Continuous
370
    -3
390
F
  0
LAYER
  5
2C
330
2
100
AcDbSymbolTableRecord
100
AcDbLayerTableRecord
  2
HILF
 70
     0
 62
     2
  6
Continuous
370
    -3
390
F
  0
LAYER
  5
2D
330
2
100
AcDbSymbolTableRecord
100
AcDbLayerTableRecord
  2
MITTEL
 70
     0
 62
     2
  6
STRICHPUNKT
370
    -3
390
F
  0
LAYER
  5
2F
330
2
100
AcDbSymbolTableRecord
100
AcDbLayerTableRecord
  2
BEM
 70
     0
 62
     7
  6
Continuous
370
    -3
390
F
  0
LAYER
  5
30
330
2
100
AcDbSymbolTableRecord
100
AcDbLayerTableRecord
  2
STEMPEL
 70
     0
 62
     3
  6
Continuous
370
    -3
390
F
  0
LAYER
  5
33
330
2
100
AcDbSymbolTableRecord
100
AcDbLayerTableRecord
  2
TEXT
 70
     0
 62
     7
  6
Continuous
370
    -3
390
F
  0
LAYER
  5
428
330
2
100
AcDbSymbolTableRecord
100
AcDbLayerTableRecord
  2
SCHRAFF
 70
     0
 62
     7
  6
AUSGEZOGEN
370
    -3
390
F
  0
LAYER
  5
429
330
2
100
AcDbSymbolTableRecord
100
AcDbLayerTableRecord
  2
DEFPOINTS
 70
     0
 62
     7
  6
AUSGEZOGEN
290
     0
370
    -3
390
F
  0
ENDTAB
  0
TABLE
  2
STYLE
  5
3
330
0
100
AcDbSymbolTable
 70
     2
  0
STYLE
  5
11
330
3
100
AcDbSymbolTableRecord
100
AcDbTextStyleTableRecord
  2
STANDARD
 70
     0
 40
0.0
 41
0.8
 50
0.0
 71
     0
 42
3.5
  3
simplex.shx
  4

  0
STYLE
  5
24
330
3
100
AcDbSymbolTableRecord
100
AcDbTextStyleTableRecord
  2
GREEKS
 70
     0
 40
0.0
 41
0.8
 50
0.0
 71
     0
 42
2.5
  3
SIMPLEX.shx
  4

  0
ENDTAB
  0
TABLE
  2
VIEW
  5
6
330
0
100
AcDbSymbolTable
 70
     0
  0
ENDTAB
  0
TABLE
  2
UCS
  5
7
330
0
100
AcDbSymbolTable
 70
     0
  0
ENDTAB
  0
TABLE
  2
APPID
  5
9
330
0
100
AcDbSymbolTable
 70
     1
  0
APPID
  5
12
330
9
100
AcDbSymbolTableRecord
100
AcDbRegAppTableRecord
  2
ACAD
 70
     0
  0
ENDTAB
  0
TABLE
  2
DIMSTYLE
  5
A
330
0
100
AcDbSymbolTable
 70
     1
100
AcDbDimStyleTable
 71
     1
340
A2
  0
DIMSTYLE
105
A2
102
{ACAD_REACTORS
330
436E
330
4368
330
4337
330
42B4
330
42B3
330
423F
330
41C8
330
41C7
330
4378
330
456A
102
}
330
A
100
AcDbSymbolTableRecord
100
AcDbDimStyleTableRecord
  2
Standard
 70
     0
340
11
  0
ENDTAB
  0
TABLE
  2
BLOCK_RECORD
  5
1
330
0
100
AcDbSymbolTable
 70
    21
  0
BLOCK_RECORD
  5
1E
102
{ACAD_XDICTIONARY
360
DB
102
}
330
1
100
AcDbSymbolTableRecord
100
AcDbBlockTableRecord
  2
*Model_Space
340
21
  0
BLOCK_RECORD
  5
1A
102
{ACAD_XDICTIONARY
360
DD
102
}
330
1
100
AcDbSymbolTableRecord
100
AcDbBlockTableRecord
  2
*Paper_Space
340
1D
  0
BLOCK_RECORD
  5
22
330
1
100
AcDbSymbolTableRecord
100
AcDbBlockTableRecord
  2
LOGO
340
0
102
{BLKREFS
331
56
102
}
  0
BLOCK_RECORD
  5
23
330
1
100
AcDbSymbolTableRecord
100
AcDbBlockTableRecord
  2
LORO
340
0
102
{BLKREFS
331
9B
102
}
  0
BLOCK_RECORD
  5
39E2
330
1
100
AcDbSymbolTableRecord
100
AcDbBlockTableRecord
  2
*X2
340
0
102
{BLKREFS
331
4242
102
}
  0
BLOCK_RECORD
  5
3A0C
330
1
100
AcDbSymbolTableRecord
100
AcDbBlockTableRecord
  2
*X3
340
0
102
{BLKREFS
331
4324
102
}
  0
BLOCK_RECORD
  5
3A43
330
1
100
AcDbSymbolTableRecord
100
AcDbBlockTableRecord
  2
*X4
340
0
102
{BLKREFS
331
4359
102
}
  0
BLOCK_RECORD
  5
3AC4
330
1
100
AcDbSymbolTableRecord
100
AcDbBlockTableRecord
  2
*X5
340
0
102
{BLKREFS
331
4349
102
}
  0
BLOCK_RECORD
  5
3AE4
330
1
100
AcDbSymbolTableRecord
100
AcDbBlockTableRecord
  2
*X6
340
0
102
{BLKREFS
331
436D
102
}
  0
BLOCK_RECORD
  5
3B3B
330
1
100
AcDbSymbolTableRecord
100
AcDbBlockTableRecord
  2
*X7
340
0
  0
BLOCK_RECORD
  5
3C4C
330
1
100
AcDbSymbolTableRecord
100
AcDbBlockTableRecord
  2
*X8
340
0
102
{BLKREFS
331
435B
102
}
  0
BLOCK_RECORD
  5
3CF6
330
1
100
AcDbSymbolTableRecord
100
AcDbBlockTableRecord
  2
*X9
340
0
102
{BLKREFS
331
41BA
102
}
  0
BLOCK_RECORD
  5
3D3E
330
1
100
AcDbSymbolTableRecord
100
AcDbBlockTableRecord
  2
*X10
340
0
102
{BLKREFS
331
437D
102
}
  0
BLOCK_RECORD
  5
4411
330
1
100
AcDbSymbolTableRecord
100
AcDbBlockTableRecord
  2
*D11
340
0
  0
BLOCK_RECORD
  5
441E
330
1
100
AcDbSymbolTableRecord
100
AcDbBlockTableRecord
  2
*D12
340
0
  0
BLOCK_RECORD
  5
442B
330
1
100
AcDbSymbolTableRecord
100
AcDbBlockTableRecord
  2
*D13
340
0
  0
BLOCK_RECORD
  5
4436
330
1
100
AcDbSymbolTableRecord
100
AcDbBlockTableRecord
  2
*D14
340
0
  0
BLOCK_RECORD
  5
4443
330
1
100
AcDbSymbolTableRecord
100
AcDbBlockTableRecord
  2
*D15
340
0
  0
BLOCK_RECORD
  5
4450
330
1
100
AcDbSymbolTableRecord
100
AcDbBlockTableRecord
  2
*D16
340
0
  0
BLOCK_RECORD
  5
445D
330
1
100
AcDbSymbolTableRecord
100
AcDbBlockTableRecord
  2
*D17
340
0
  0
BLOCK_RECORD
  5
446A
330
1
100
AcDbSymbolTableRecord
100
AcDbBlockTableRecord
  2
*D18
340
0
  0
BLOCK_RECORD
  5
4477
330
1
100
AcDbSymbolTableRecord
100
AcDbBlockTableRecord
  2
*D19
340
0
  0
BLOCK_RECORD
  5
456B
330
1
100
AcDbSymbolTableRecord
100
AcDbBlockTableRecord
  2
*D20
340
0
  0
ENDTAB
  0
ENDSEC
  0
SECTION
  2
BLOCKS
  0
BLOCK
  5
37
330
1E
100
AcDbEntity
  8
0
100
AcDbBlockBegin
  2
*Model_Space
 70
     0
 10
0.0
 20
0.0
 30
0.0
  3
*Model_Space
  1

  0
ENDBLK
  5
38
330
1E
100
AcDbEntity
  8
0
100
AcDbBlockEnd
  0
BLOCK
  5
35
330
1A
100
AcDbEntity
 67
     1
  8
0
100
AcDbBlockBegin
  2
*Paper_Space
 70
     0
 10
0.0
 20
0.0
 30
0.0
  3
*Paper_Space
  1

  0
ENDBLK
  5
36
330
1A
100
AcDbEntity
 67
     1
  8
0
100
AcDbBlockEnd
  0
BLOCK
  5
39
330
22
100
AcDbEntity
  8
0
100
AcDbBlockBegin
  2
LOGO
 70
     0
 10
0.0
 20
0.0
 30
0.0
  3
LOGO
  1

  0
ARC
  5
3A
330
22
100
AcDbEntity
  8
0
100
AcDbCircle
 10
11.59973089678112
 20
-9.271599258481501
 30
0.0
 40
4.5
100
AcDbArc
 50
270.0
 51
231.0575587310159
  0
LINE
  5
3B
330
22
100
AcDbEntity
  8
0
100
AcDbLine
 10
3.599730896781125
 20
-4.771599258481529
 30
0.0
 11
3.599730896781153
 21
-11.77159925848133
 31
0.0
  0
LINE
  5
3C
330
22
100
AcDbEntity
  8
0
100
AcDbLine
 10
2.599730896781125
 20
-4.771599258481529
 30
0.0
 11
2.599730896781153
 21
-11.77159925848133
 31
0.0
  0
CIRCLE
  5
3D
330
22
100
AcDbEntity
  8
0
100
AcDbCircle
 10
11.59973089678112
 20
-9.271599258481501
 30
0.0
 40
3.5
  0
ARC
  5
3E
330
22
100
AcDbEntity
  8
0
100
AcDbCircle
 10
31.59973089678115
 20
-9.271599258481472
 30
0.0
 40
4.5
100
AcDbArc
 50
270.0
 51
231.0575587310182
  0
LINE
  5
3F
330
22
100
AcDbEntity
  8
0
100
AcDbLine
 10
17.59973089678112
 20
-4.771599258481472
 30
0.0
 11
17.59973089678115
 21
-13.77159925848147
 31
0.0
  0
ARC
  5
40
330
22
100
AcDbEntity
  8
0
100
AcDbCircle
 10
22.59973089678116
 20
-7.271599258481472
 30
0.0
 40
2.5
100
AcDbArc
 50
293.1161887722295
 51
90.0
  0
CIRCLE
  5
41
330
22
100
AcDbEntity
  8
0
100
AcDbCircle
 10
31.59973089678115
 20
-9.271599258481472
 30
0.0
 40
3.5
  0
ARC
  5
42
330
22
100
AcDbEntity
  8
0
100
AcDbCircle
 10
4.599730896781153
 20
-11.77159925848133
 30
0.0
 40
1.0
100
AcDbArc
 50
180.0
 51
270.0
  0
ARC
  5
43
330
22
100
AcDbEntity
  8
0
100
AcDbCircle
 10
4.599730896781153
 20
-11.77159925848133
 30
0.0
 40
2.0
100
AcDbArc
 50
179.9999999999992
 51
270.0
  0
LINE
  5
44
330
22
100
AcDbEntity
  8
0
100
AcDbLine
 10
11.59973089678115
 20
-13.77159925848144
 30
0.0
 11
4.599730896781153
 21
-13.77159925848147
 31
0.0
  0
LINE
  5
45
330
22
100
AcDbEntity
  8
0
100
AcDbLine
 10
8.771303772034769
 20
-12.77159925848136
 30
0.0
 11
4.599730896781153
 21
-12.77159925848133
 31
0.0
  0
LINE
  5
46
330
22
100
AcDbEntity
  8
0
100
AcDbLine
 10
31.59973089678115
 20
-13.77159925848147
 30
0.0
 11
23.6715276665056
 21
-13.77159925848144
 31
0.0
  0
LINE
  5
47
330
22
100
AcDbEntity
  8
0
100
AcDbLine
 10
23.56565672307022
 20
-9.51278021337896
 30
0.0
 11
24.4388546544846
 21
-12.77159925848144
 31
0.0
  0
LINE
  5
48
330
22
100
AcDbEntity
  8
0
100
AcDbLine
 10
22.59973089678116
 20
-9.771599258481472
 30
0.0
 11
18.59973089678112
 21
-9.771599258481472
 31
0.0
  0
LINE
  5
49
330
22
100
AcDbEntity
  8
0
100
AcDbLine
 10
18.59973089678115
 20
-13.77159925848144
 30
0.0
 11
17.59973089678115
 21
-13.77159925848144
 31
0.0
  0
LINE
  5
4A
330
22
100
AcDbEntity
  8
0
100
AcDbLine
 10
18.59973089678115
 20
-9.771599258481472
 30
0.0
 11
18.59973089678115
 21
-13.77159925848144
 31
0.0
  0
LINE
  5
4B
330
22
100
AcDbEntity
  8
0
100
AcDbLine
 10
22.59973089678116
 20
-9.771599258481472
 30
0.0
 11
23.67152766650562
 21
-13.77159925848147
 31
0.0
  0
ARC
  5
4C
330
22
100
AcDbEntity
  8
0
100
AcDbCircle
 10
22.59973089678116
 20
-7.271599258481472
 30
0.0
 40
2.5
100
AcDbArc
 50
270.0
 51
270.0000000000007
  0
LINE
  5
4D
330
22
100
AcDbEntity
  8
0
100
AcDbLine
 10
28.77130377203494
 20
-12.77159925848147
 30
0.0
 11
24.43885465448463
 21
-12.77159925848144
 31
0.0
  0
LINE
  5
4E
330
22
100
AcDbEntity
  8
0
100
AcDbLine
 10
3.599730896781125
 20
-4.771599258481472
 30
0.0
 11
2.599730896781125
 21
-4.771599258481472
 31
0.0
  0
LINE
  5
4F
330
22
100
AcDbEntity
  8
0
100
AcDbLine
 10
22.59973089678116
 20
-8.771599258481472
 30
0.0
 11
18.59973089678115
 21
-8.771599258481472
 31
0.0
  0
LINE
  5
50
330
22
100
AcDbEntity
  8
0
100
AcDbLine
 10
22.59973089678116
 20
-5.771599258481472
 30
0.0
 11
18.59973089678115
 21
-5.771599258481472
 31
0.0
  0
LINE
  5
51
330
22
100
AcDbEntity
  8
0
100
AcDbLine
 10
22.59973089678116
 20
-4.771599258481472
 30
0.0
 11
17.59973089678115
 21
-4.771599258481472
 31
0.0
  0
LINE
  5
52
330
22
100
AcDbEntity
  8
0
100
AcDbLine
 10
18.59973089678115
 20
-5.771599258481472
 30
0.0
 11
18.59973089678115
 21
-8.771599258481472
 31
0.0
  0
ARC
  5
53
330
22
100
AcDbEntity
  8
0
100
AcDbCircle
 10
22.59973089678116
 20
-7.271599258481472
 30
0.0
 40
1.5
100
AcDbArc
 50
270.0
 51
90.0
  0
ENDBLK
  5
54
330
22
100
AcDbEntity
  8
0
100
AcDbBlockEnd
  0
BLOCK
  5
55
330
23
100
AcDbEntity
  8
0
100
AcDbBlockBegin
  2
LORO
 70
     0
 10
0.0
 20
0.0
 30
0.0
  3
LORO
  1

  0
INSERT
  5
56
330
23
100
AcDbEntity
  8
STEMPEL
100
AcDbBlockReference
  2
LOGO
 10
-1.748032802467321
 20
3.771489518552062
 30
0.0
  0
ENDBLK
  5
57
330
23
100
AcDbEntity
  8
0
100
AcDbBlockEnd
  0
BLOCK
  5
39E3
330
39E2
100
AcDbEntity
  8
0
100
AcDbBlockBegin
  2
*X2
 70
     1
 10
0.0
 20
0.0
 30
0.0
  3
*X2
  1

  0
LINE
  5
39E4
330
39E2
100
AcDbEntity
  8
0
 62
     0
100
AcDbLine
 10
466.9248806924029
 20
296.7504429890683
 30
0.0
 11
464.9911876527124
 21
298.6841360287588
 31
0.0
  0
LINE
  5
39E5
330
39E2
100
AcDbEntity
  8
0
 62
     0
100
AcDbLine
 10
462.8253971259432
 20
296.6072858684086
 30
0.0
 11
460.8917040862523
 21
298.5409789080995
 31
0.0
  0
LINE
  5
39E6
330
39E2
100
AcDbEntity
  8
0
 62
     0
100
AcDbLine
 10
458.7259135594837
 20
296.4641287477489
 30
0.0
 11
456.7025506297046
 21
298.4874916775281
 31
0.0
  0
LINE
  5
39E7
330
39E2
100
AcDbEntity
  8
0
 62
     0
100
AcDbLine
 10
441.818216904279
 20
313.3718254029536
 30
0.0
 11
439.7047078988113
 21
315.4853344084214
 31
0.0
  0
LINE
  5
39E8
330
39E2
100
AcDbEntity
  8
0
 62
     0
100
AcDbLine
 10
454.3387743700933
 20
296.6086272500199
 30
0.0
 11
452.2252653646258
 21
298.7221362554875
 31
0.0
  0
LINE
  5
39E9
330
39E2
100
AcDbEntity
  8
0
 62
     0
100
AcDbLine
 10
437.3409316392002
 20
313.6064699809131
 30
0.0
 11
435.2274226337326
 21
315.7199789863808
 31
0.0
  0
LINE
  5
39EA
330
39E2
100
AcDbEntity
  8
0
 62
     0
100
AcDbLine
 10
432.8636463741215
 20
313.8411145588726
 30
0.0
 11
430.7501373686538
 21
315.9546235643403
 31
0.0
  0
LINE
  5
39EB
330
39E2
100
AcDbEntity
  8
0
 62
     0
100
AcDbLine
 10
428.3863611090427
 20
314.0757591368321
 30
0.0
 11
426.272852103575
 21
316.1892681422997
 31
0.0
  0
LINE
  5
39EC
330
39E2
100
AcDbEntity
  8
0
 62
     0
100
AcDbLine
 10
423.9090758439639
 20
314.3104037147915
 30
0.0
 11
421.7955668384963
 21
316.4239127202592
 31
0.0
  0
LINE
  5
39ED
330
39E2
100
AcDbEntity
  8
0
 62
     0
100
AcDbLine
 10
419.4317905788851
 20
314.5450482927511
 30
0.0
 11
417.3182815734175
 21
316.6585572982187
 31
0.0
  0
LINE
  5
39EE
330
39E2
100
AcDbEntity
  8
0
 62
     0
100
AcDbLine
 10
414.9545053138064
 20
314.7796928707105
 30
0.0
 11
412.8409963083388
 21
316.8932018761782
 31
0.0
  0
LINE
  5
39EF
330
39E2
100
AcDbEntity
  8
0
 62
     0
100
AcDbLine
 10
410.4772200487276
 20
315.0143374486701
 30
0.0
 11
408.3637110432601
 21
317.1278464541376
 31
0.0
  0
LINE
  5
39F0
330
39E2
100
AcDbEntity
  8
0
 62
     0
100
AcDbLine
 10
405.9999347836487
 20
315.2489820266296
 30
0.0
 11
403.8864257781813
 21
317.3624910320971
 31
0.0
  0
LINE
  5
39F1
330
39E2
100
AcDbEntity
  8
0
 62
     0
100
AcDbLine
 10
401.52264951857
 20
315.483626604589
 30
0.0
 11
399.4091405131026
 21
317.5971356100566
 31
0.0
  0
LINE
  5
39F2
330
39E2
100
AcDbEntity
  8
0
 62
     0
100
AcDbLine
 10
397.0453642534913
 20
315.7182711825485
 30
0.0
 11
394.9318552480238
 21
317.8317801880161
 31
0.0
  0
LINE
  5
39F3
330
39E2
100
AcDbEntity
  8
0
 62
     0
100
AcDbLine
 10
392.5680789884125
 20
315.952915760508
 30
0.0
 11
390.454569982945
 21
318.0664247659755
 31
0.0
  0
LINE
  5
39F4
330
39E2
100
AcDbEntity
  8
0
 62
     0
100
AcDbLine
 10
388.0907937233338
 20
316.1875603384675
 30
0.0
 11
385.9772847178663
 21
318.301069343935
 31
0.0
  0
LINE
  5
39F5
330
39E2
100
AcDbEntity
  8
0
 62
     0
100
AcDbLine
 10
383.6135084582549
 20
316.422204916427
 30
0.0
 11
381.4999994527875
 21
318.5357139218945
 31
0.0
  0
LINE
  5
39F6
330
39E2
100
AcDbEntity
  8
0
 62
     0
100
AcDbLine
 10
379.1362231931762
 20
316.6568494943864
 30
0.0
 11
377.7434956020943
 21
318.0495770854683
 31
0.0
  0
LINE
  5
39F7
330
39E2
100
AcDbEntity
  8
0
 62
     0
100
AcDbLine
 10
380.9156192817118
 20
416.7008298967136
 30
0.0
 11
378.8021102762447
 21
418.8143389021809
 31
0.0
  0
LINE
  5
39F8
330
39E2
100
AcDbEntity
  8
0
 62
     0
100
AcDbLine
 10
385.3929045467906
 20
416.4661853187541
 30
0.0
 11
383.2793955413234
 21
418.5796943242214
 31
0.0
  0
LINE
  5
39F9
330
39E2
100
AcDbEntity
  8
0
 62
     0
100
AcDbLine
 10
389.8701898118693
 20
416.2315407407946
 30
0.0
 11
387.7566808064022
 21
418.345049746262
 31
0.0
  0
LINE
  5
39FA
330
39E2
100
AcDbEntity
  8
0
 62
     0
100
AcDbLine
 10
394.347475076948
 20
415.9968961628352
 30
0.0
 11
392.2339660714809
 21
418.1104051683024
 31
0.0
  0
LINE
  5
39FB
330
39E2
100
AcDbEntity
  8
0
 62
     0
100
AcDbLine
 10
398.8247603420268
 20
415.7622515848758
 30
0.0
 11
396.7112513365598
 21
417.8757605903429
 31
0.0
  0
LINE
  5
39FC
330
39E2
100
AcDbEntity
  8
0
 62
     0
100
AcDbLine
 10
403.3020456071056
 20
415.5276070069163
 30
0.0
 11
401.1885366016385
 21
417.6411160123834
 31
0.0
  0
LINE
  5
39FD
330
39E2
100
AcDbEntity
  8
0
 62
     0
100
AcDbLine
 10
407.7793308721842
 20
415.2929624289568
 30
0.0
 11
405.6658218667172
 21
417.4064714344239
 31
0.0
  0
LINE
  5
39FE
330
39E2
100
AcDbEntity
  8
0
 62
     0
100
AcDbLine
 10
412.256616137263
 20
415.0583178509974
 30
0.0
 11
410.1431071317961
 21
417.1718268564645
 31
0.0
  0
LINE
  5
39FF
330
39E2
100
AcDbEntity
  8
0
 62
     0
100
AcDbLine
 10
416.7339014023418
 20
414.823673273038
 30
0.0
 11
414.6203923968748
 21
416.937182278505
 31
0.0
  0
LINE
  5
3A00
330
39E2
100
AcDbEntity
  8
0
 62
     0
100
AcDbLine
 10
421.2111866674205
 20
414.5890286950784
 30
0.0
 11
419.0976776619536
 21
416.7025377005455
 31
0.0
  0
LINE
  5
3A01
330
39E2
100
AcDbEntity
  8
0
 62
     0
100
AcDbLine
 10
425.6884719324992
 20
414.354384117119
 30
0.0
 11
423.5749629270324
 21
416.467893122586
 31
0.0
  0
LINE
  5
3A02
330
39E2
100
AcDbEntity
  8
0
 62
     0
100
AcDbLine
 10
430.165757197578
 20
414.1197395391595
 30
0.0
 11
428.0522481921112
 21
416.2332485446265
 31
0.0
  0
LINE
  5
3A03
330
39E2
100
AcDbEntity
  8
0
 62
     0
100
AcDbLine
 10
451.6408851935505
 20
396.8872522303065
 30
0.0
 11
449.5273761880828
 21
399.0007612357741
 31
0.0
  0
LINE
  5
3A04
330
39E2
100
AcDbEntity
  8
0
 62
     0
100
AcDbLine
 10
434.6430424626567
 20
413.8850949612001
 30
0.0
 11
432.5295334571899
 21
415.9986039666669
 31
0.0
  0
LINE
  5
3A05
330
39E2
100
AcDbEntity
  8
0
 62
     0
100
AcDbLine
 10
456.1181704586291
 20
396.6526076523471
 30
0.0
 11
454.0046614531616
 21
398.7661166578146
 31
0.0
  0
LINE
  5
3A06
330
39E2
100
AcDbEntity
  8
0
 62
     0
100
AcDbLine
 10
438.0209513045774
 20
414.7498268063988
 30
0.0
 11
437.0068187222687
 21
415.7639593887075
 31
0.0
  0
LINE
  5
3A07
330
39E2
100
AcDbEntity
  8
0
 62
     0
100
AcDbLine
 10
460.5954557237078
 20
396.4179630743878
 30
0.0
 11
458.4819467182405
 21
398.531472079855
 31
0.0
  0
LINE
  5
3A08
330
39E2
100
AcDbEntity
  8
0
 62
     0
100
AcDbLine
 10
465.2961449454802
 20
395.9599145397346
 30
0.0
 11
462.9592319833192
 21
398.2968275018955
 31
0.0
  0
LINE
  5
3A09
330
39E2
100
AcDbEntity
  8
0
 62
     0
100
AcDbLine
 10
470.2325524659591
 20
395.266147706375
 30
0.0
 11
467.8826384425999
 21
397.6160617297341
 31
0.0
  0
LINE
  5
3A0A
330
39E2
100
AcDbEntity
  8
0
 62
     0
100
AcDbLine
 10
473.0176436276206
 20
396.7236972318327
 30
0.0
 11
472.8190459630784
 21
396.9222948963749
 31
0.0
  0
ENDBLK
  5
3A0B
330
39E2
100
AcDbEntity
  8
0
100
AcDbBlockEnd
  0
BLOCK
  5
3A0D
330
3A0C
100
AcDbEntity
  8
0
100
AcDbBlockBegin
  2
*X3
 70
     1
 10
0.0
 20
0.0
 30
0.0
  3
*X3
  1

  0
LINE
  5
3A0E
330
3A0C
100
AcDbEntity
  8
0
 62
     0
100
AcDbLine
 10
906.1004775388632
 20
358.7998289004754
 30
0.0
 11
907.4691188900338
 21
360.1684702516461
 31
0.0
  0
LINE
  5
3A0F
330
3A0C
100
AcDbEntity
  8
0
 62
     0
100
AcDbLine
 10
1011.099605725362
 20
463.798957086974
 30
0.0
 11
1013.099605725362
 21
465.7989570869741
 31
0.0
  0
LINE
  5
3A10
330
3A0C
100
AcDbEntity
  8
0
 62
     0
100
AcDbLine
 10
905.4691188900338
 20
362.4111109387655
 30
0.0
 11
907.4691188900338
 21
364.4111109387655
 31
0.0
  0
LINE
  5
3A11
330
3A0C
100
AcDbEntity
  8
0
 62
     0
100
AcDbLine
 10
1006.856965038242
 20
463.798957086974
 30
0.0
 11
1008.856965038242
 21
465.7989570869741
 31
0.0
  0
LINE
  5
3A12
330
3A0C
100
AcDbEntity
  8
0
 62
     0
100
AcDbLine
 10
911.8578368517438
 20
368.7998289004754
 30
0.0
 11
913.8578368517439
 21
370.7998289004754
 31
0.0
  0
LINE
  5
3A13
330
3A0C
100
AcDbEntity
  8
0
 62
     0
100
AcDbLine
 10
905.4691188900338
 20
366.6537516258847
 30
0.0
 11
909.6151961646246
 21
370.7998289004754
 31
0.0
  0
LINE
  5
3A14
330
3A0C
100
AcDbEntity
  8
0
 62
     0
100
AcDbLine
 10
1002.614324351123
 20
463.798957086974
 30
0.0
 11
1004.614324351123
 21
465.7989570869741
 31
0.0
  0
LINE
  5
3A15
330
3A0C
100
AcDbEntity
  8
0
 62
     0
100
AcDbLine
 10
964.4691188900335
 20
425.6537516258844
 30
0.0
 11
966.4691188900334
 21
427.6537516258843
 31
0.0
  0
LINE
  5
3A16
330
3A0C
100
AcDbEntity
  8
0
 62
     0
100
AcDbLine
 10
998.371683664004
 20
463.798957086974
 30
0.0
 11
1000.371683664004
 21
465.7989570869741
 31
0.0
  0
LINE
  5
3A17
330
3A0C
100
AcDbEntity
  8
0
 62
     0
100
AcDbLine
 10
994.1290429768846
 20
463.798957086974
 30
0.0
 11
996.1290429768848
 21
465.7989570869741
 31
0.0
  0
LINE
  5
3A18
330
3A0C
100
AcDbEntity
  8
0
 62
     0
100
AcDbLine
 10
885.4691188900336
 20
359.3816736872422
 30
0.0
 11
887.4691188900333
 21
361.3816736872421
 31
0.0
  0
LINE
  5
3A19
330
3A0C
100
AcDbEntity
  8
0
 62
     0
100
AcDbLine
 10
964.8872741032661
 20
438.7998289004749
 30
0.0
 11
966.4691188900336
 21
440.3816736872423
 31
0.0
  0
LINE
  5
3A1A
330
3A0C
100
AcDbEntity
  8
0
 62
     0
100
AcDbLine
 10
885.4691188900336
 20
363.6243143743615
 30
0.0
 11
887.4691188900333
 21
365.6243143743613
 31
0.0
  0
LINE
  5
3A1B
330
3A0C
100
AcDbEntity
  8
0
 62
     0
100
AcDbLine
 10
964.4691188900337
 20
442.6243143743617
 30
0.0
 11
965.6446334161465
 21
443.7998289004744
 31
0.0
  0
LINE
  5
3A1C
330
3A0C
100
AcDbEntity
  8
0
 62
     0
100
AcDbLine
 10
890.6446334161474
 20
368.7998289004753
 30
0.0
 11
892.6446334161475
 21
370.7998289004754
 31
0.0
  0
LINE
  5
3A1D
330
3A0C
100
AcDbEntity
  8
0
 62
     0
100
AcDbLine
 10
885.4698872664675
 20
367.8677234379149
 30
0.0
 11
888.401224352594
 21
370.7990605240413
 31
0.0
  0
LINE
  5
3A1E
330
3A0C
100
AcDbEntity
  8
0
 62
     0
100
AcDbLine
 10
981.4011209155268
 20
463.798957086974
 30
0.0
 11
983.4011209155267
 21
465.798957086974
 31
0.0
  0
LINE
  5
3A1F
330
3A0C
100
AcDbEntity
  8
0
 62
     0
100
AcDbLine
 10
977.1584802284074
 20
463.798957086974
 30
0.0
 11
979.1584802284075
 21
465.798957086974
 31
0.0
  0
LINE
  5
3A20
330
3A0C
100
AcDbEntity
  8
0
 62
     0
100
AcDbLine
 10
965.9167113547887
 20
456.7998289004744
 30
0.0
 11
966.4691188900338
 21
457.3522364357197
 31
0.0
  0
LINE
  5
3A21
330
3A0C
100
AcDbEntity
  8
0
 62
     0
100
AcDbLine
 10
972.9158395412881
 20
463.798957086974
 30
0.0
 11
974.9158395412882
 21
465.798957086974
 31
0.0
  0
LINE
  5
3A22
330
3A0C
100
AcDbEntity
  8
0
 62
     0
100
AcDbLine
 10
873.6740706676702
 20
368.7998289004753
 30
0.0
 11
874.4691188900334
 21
369.5948771228386
 31
0.0
  0
LINE
  5
3A23
330
3A0C
100
AcDbEntity
  8
0
 62
     0
100
AcDbLine
 10
968.653151380491
 20
463.7789096132961
 30
0.0
 11
970.6731988541688
 21
465.798957086974
 31
0.0
  0
LINE
  5
3A24
330
3A0C
100
AcDbEntity
  8
0
 62
     0
100
AcDbLine
 10
964.4691188900338
 20
459.5948771228389
 30
0.0
 11
966.4891663637117
 21
461.6149245965168
 31
0.0
  0
LINE
  5
3A25
330
3A0C
100
AcDbEntity
  8
0
 62
     0
100
AcDbLine
 10
869.431429980551
 20
368.7998289004754
 30
0.0
 11
871.431429980551
 21
370.7998289004754
 31
0.0
  0
LINE
  5
3A26
330
3A0C
100
AcDbEntity
  8
0
 62
     0
100
AcDbLine
 10
865.1887892934317
 20
368.7998289004754
 30
0.0
 11
867.1887892934318
 21
370.7998289004754
 31
0.0
  0
LINE
  5
3A27
330
3A0C
100
AcDbEntity
  8
0
 62
     0
100
AcDbLine
 10
860.9461486063125
 20
368.7998289004754
 30
0.0
 11
862.9461486063124
 21
370.7998289004754
 31
0.0
  0
LINE
  5
3A28
330
3A0C
100
AcDbEntity
  8
0
 62
     0
100
AcDbLine
 10
964.4691188900337
 20
412.9258295645266
 30
0.0
 11
965.3431182259824
 21
413.7998289004753
 31
0.0
  0
LINE
  5
3A29
330
3A0C
100
AcDbEntity
  8
0
 62
     0
100
AcDbLine
 10
1015.342246412481
 20
463.798957086974
 30
0.0
 11
1017.342246412481
 21
465.7989570869741
 31
0.0
  0
LINE
  5
3A2A
330
3A0C
100
AcDbEntity
  8
0
 62
     0
100
AcDbLine
 10
964.5857589131017
 20
408.7998289004754
 30
0.0
 11
966.4691188900336
 21
410.6831888774073
 31
0.0
  0
LINE
  5
3A2B
330
3A0C
100
AcDbEntity
  8
0
 62
     0
100
AcDbLine
 10
1019.5848870996
 20
463.798957086974
 30
0.0
 11
1021.5848870996
 21
465.7989570869741
 31
0.0
  0
LINE
  5
3A2C
330
3A0C
100
AcDbEntity
  8
0
 62
     0
100
AcDbLine
 10
925.4691188900338
 20
365.4405481902882
 30
0.0
 11
927.4691188900337
 21
367.4405481902882
 31
0.0
  0
LINE
  5
3A2D
330
3A0C
100
AcDbEntity
  8
0
 62
     0
100
AcDbLine
 10
1023.827527786719
 20
463.798957086974
 30
0.0
 11
1025.827527786719
 21
465.7989570869741
 31
0.0
  0
LINE
  5
3A2E
330
3A0C
100
AcDbEntity
  8
0
 62
     0
100
AcDbLine
 10
928.828399600221
 20
368.7998289004754
 30
0.0
 11
930.8283996002209
 21
370.7998289004754
 31
0.0
  0
LINE
  5
3A2F
330
3A0C
100
AcDbEntity
  8
0
 62
     0
100
AcDbLine
 10
925.4691188900338
 20
361.1979075031689
 30
0.0
 11
927.4691188900337
 21
363.1979075031689
 31
0.0
  0
LINE
  5
3A30
330
3A0C
100
AcDbEntity
  8
0
 62
     0
100
AcDbLine
 10
1028.070168473839
 20
463.798957086974
 30
0.0
 11
1030.070168473839
 21
465.7989570869741
 31
0.0
  0
LINE
  5
3A31
330
3A0C
100
AcDbEntity
  8
0
 62
     0
100
AcDbLine
 10
933.0710402873402
 20
368.7998289004754
 30
0.0
 11
934.4691188900334
 21
370.1979075031685
 31
0.0
  0
LINE
  5
3A32
330
3A0C
100
AcDbEntity
  8
0
 62
     0
100
AcDbLine
 10
927.3136809744595
 20
358.7998289004754
 30
0.0
 11
927.4691188900337
 21
358.9552668160497
 31
0.0
  0
LINE
  5
3A33
330
3A0C
100
AcDbEntity
  8
0
 62
     0
100
AcDbLine
 10
1032.312809160958
 20
463.798957086974
 30
0.0
 11
1034.312809160958
 21
465.7989570869741
 31
0.0
  0
LINE
  5
3A34
330
3A0C
100
AcDbEntity
  8
0
 62
     0
100
AcDbLine
 10
964.4691188900335
 20
395.9552668160493
 30
0.0
 11
966.4691188900334
 21
397.9552668160493
 31
0.0
  0
LINE
  5
3A35
330
3A0C
100
AcDbEntity
  8
0
 62
     0
100
AcDbLine
 10
945.5698565466921
 20
368.5707230984694
 30
0.0
 11
947.6982246920394
 21
370.6990912438167
 31
0.0
  0
LINE
  5
3A36
330
3A0C
100
AcDbEntity
  8
0
 62
     0
100
AcDbLine
 10
945.4691188900333
 20
364.2273447546913
 30
0.0
 11
947.4691188900333
 21
366.2273447546913
 31
0.0
  0
LINE
  5
3A37
330
3A0C
100
AcDbEntity
  8
0
 62
     0
100
AcDbLine
 10
1045.040731222316
 20
463.798957086974
 30
0.0
 11
1047.040731222316
 21
465.798957086974
 31
0.0
  0
LINE
  5
3A38
330
3A0C
100
AcDbEntity
  8
0
 62
     0
100
AcDbLine
 10
950.0416030358174
 20
368.7998289004754
 30
0.0
 11
952.0416030358173
 21
370.7998289004754
 31
0.0
  0
LINE
  5
3A39
330
3A0C
100
AcDbEntity
  8
0
 62
     0
100
AcDbLine
 10
964.4691188900335
 20
383.2273447546914
 30
0.0
 11
965.0416030358174
 21
383.7998289004754
 31
0.0
  0
LINE
  5
3A3A
330
3A0C
100
AcDbEntity
  8
0
 62
     0
100
AcDbLine
 10
945.4691188900333
 20
359.9847040675721
 30
0.0
 11
947.4691188900333
 21
361.9847040675721
 31
0.0
  0
LINE
  5
3A3B
330
3A0C
100
AcDbEntity
  8
0
 62
     0
100
AcDbLine
 10
1049.283371909435
 20
463.798957086974
 30
0.0
 11
1051.283371909435
 21
465.798957086974
 31
0.0
  0
LINE
  5
3A3C
330
3A0C
100
AcDbEntity
  8
0
 62
     0
100
AcDbLine
 10
954.2842437229367
 20
368.7998289004754
 30
0.0
 11
954.469118890033
 21
368.9847040675717
 31
0.0
  0
LINE
  5
3A3D
330
3A0C
100
AcDbEntity
  8
0
 62
     0
100
AcDbLine
 10
964.4691188900335
 20
378.9847040675722
 30
0.0
 11
966.4691188900334
 21
380.9847040675722
 31
0.0
  0
LINE
  5
3A3E
330
3A0C
100
AcDbEntity
  8
0
 62
     0
100
AcDbLine
 10
1053.526012596554
 20
463.798957086974
 30
0.0
 11
1055.526012596554
 21
465.798957086974
 31
0.0
  0
LINE
  5
3A3F
330
3A0C
100
AcDbEntity
  8
0
 62
     0
100
AcDbLine
 10
1057.768653283674
 20
463.798957086974
 30
0.0
 11
1059.500182908989
 21
465.5304867122894
 31
0.0
  0
LINE
  5
3A40
330
3A0C
100
AcDbEntity
  8
0
 62
     0
100
AcDbLine
 10
1060.330937081732
 20
462.1186001979128
 30
0.0
 11
1061.827344912098
 21
463.6150080282791
 31
0.0
  0
LINE
  5
3A41
330
3A0C
100
AcDbEntity
  8
0
 62
     0
100
AcDbLine
 10
1056.972439477447
 20
454.5174619065088
 30
0.0
 11
1062.187790938065
 21
459.732813367126
 31
0.0
  0
ENDBLK
  5
3A42
330
3A0C
100
AcDbEntity
  8
0
100
AcDbBlockEnd
  0
BLOCK
  5
3A44
330
3A43
100
AcDbEntity
  8
0
100
AcDbBlockBegin
  2
*X4
 70
     1
 10
0.0
 20
0.0
 30
0.0
  3
*X4
  1

  0
LINE
  5
3A45
330
3A43
100
AcDbEntity
  8
0
 62
     0
100
AcDbLine
 10
669.533720720848
 20
1203.399340516691
 30
0.0
 11
669.6715369520066
 21
1203.53715674785
 31
0.0
  0
LINE
  5
3A46
330
3A43
100
AcDbEntity
  8
0
 62
     0
100
AcDbLine
 10
669.3993418621762
 20
1203.406383014257
 30
0.0
 11
669.671323724926
 21
1203.678364877007
 31
0.0
  0
LINE
  5
3A47
330
3A43
100
AcDbEntity
  8
0
 62
     0
100
AcDbLine
 10
669.2649630035044
 20
1203.413425511822
 30
0.0
 11
669.6663766476826
 21
1203.814839156001
 31
0.0
  0
LINE
  5
3A48
330
3A43
100
AcDbEntity
  8
0
 62
     0
100
AcDbLine
 10
669.1305841448328
 20
1203.420468009388
 30
0.0
 11
669.6571271109716
 21
1203.947010975527
 31
0.0
  0
LINE
  5
3A49
330
3A43
100
AcDbEntity
  8
0
 62
     0
100
AcDbLine
 10
668.996205286161
 20
1203.427510506954
 30
0.0
 11
669.6439320535477
 21
1204.07523727434
 31
0.0
  0
LINE
  5
3A4A
330
3A43
100
AcDbEntity
  8
0
 62
     0
100
AcDbLine
 10
668.8618264274894
 20
1203.434553004519
 30
0.0
 11
669.6270905366068
 21
1204.199817113637
 31
0.0
  0
LINE
  5
3A4B
330
3A43
100
AcDbEntity
  8
0
 62
     0
100
AcDbLine
 10
668.7274475688176
 20
1203.441595502084
 30
0.0
 11
669.6068558120217
 21
1204.321003745289
 31
0.0
  0
LINE
  5
3A4C
330
3A43
100
AcDbEntity
  8
0
 62
     0
100
AcDbLine
 10
668.5930687101459
 20
1203.44863799965
 30
0.0
 11
669.5834442977416
 21
1204.439013587246
 31
0.0
  0
LINE
  5
3A4D
330
3A43
100
AcDbEntity
  8
0
 62
     0
100
AcDbLine
 10
668.4586898514741
 20
1203.455680497216
 30
0.0
 11
669.5570423771885
 21
1204.55403302293
 31
0.0
  0
LINE
  5
3A4E
330
3A43
100
AcDbEntity
  8
0
 62
     0
100
AcDbLine
 10
668.3243109928023
 20
1203.462722994781
 30
0.0
 11
669.5278116340899
 21
1204.666223636069
 31
0.0
  0
LINE
  5
3A4F
330
3A43
100
AcDbEntity
  8
0
 62
     0
100
AcDbLine
 10
668.1899321341306
 20
1203.469765492347
 30
0.0
 11
669.4958929405364
 21
1204.775726298753
 31
0.0
  0
LINE
  5
3A50
330
3A43
100
AcDbEntity
  8
0
 62
     0
100
AcDbLine
 10
668.0555532754588
 20
1203.476807989912
 30
0.0
 11
669.4614096899205
 21
1204.882664404374
 31
0.0
  0
LINE
  5
3A51
330
3A43
100
AcDbEntity
  8
0
 62
     0
100
AcDbLine
 10
667.9211744167871
 20
1203.483850487478
 30
0.0
 11
669.4244703822964
 21
1204.987146452987
 31
0.0
  0
LINE
  5
3A52
330
3A43
100
AcDbEntity
  8
0
 62
     0
100
AcDbLine
 10
667.7867955581155
 20
1203.490892985044
 30
0.0
 11
669.3851707123857
 21
1205.089268139314
 31
0.0
  0
LINE
  5
3A53
330
3A43
100
AcDbEntity
  8
0
 62
     0
100
AcDbLine
 10
667.6524166994437
 20
1203.497935482609
 30
0.0
 11
669.3435952706555
 21
1205.189114053821
 31
0.0
  0
LINE
  5
3A54
330
3A43
100
AcDbEntity
  8
0
 62
     0
100
AcDbLine
 10
667.5180378407719
 20
1203.504977980175
 30
0.0
 11
669.2998189397735
 21
1205.286759079176
 31
0.0
  0
LINE
  5
3A55
330
3A43
100
AcDbEntity
  8
0
 62
     0
100
AcDbLine
 10
667.3836589821002
 20
1203.51202047774
 30
0.0
 11
669.2539080485509
 21
1205.382269544191
 31
0.0
  0
LINE
  5
3A56
330
3A43
100
AcDbEntity
  8
0
 62
     0
100
AcDbLine
 10
667.2492801234284
 20
1203.519062975306
 30
0.0
 11
669.205921330782
 21
1205.47570418266
 31
0.0
  0
LINE
  5
3A57
330
3A43
100
AcDbEntity
  8
0
 62
     0
100
AcDbLine
 10
667.1149012647568
 20
1203.526105472872
 30
0.0
 11
669.1559107255243
 21
1205.567114933639
 31
0.0
  0
LINE
  5
3A58
330
3A43
100
AcDbEntity
  8
0
 62
     0
100
AcDbLine
 10
666.980522406085
 20
1203.533147970437
 30
0.0
 11
669.1039220472513
 21
1205.656547611603
 31
0.0
  0
LINE
  5
3A59
330
3A43
100
AcDbEntity
  8
0
 62
     0
100
AcDbLine
 10
666.8461435474133
 20
1203.540190468003
 30
0.0
 11
669.049995548159
 21
1205.744042468748
 31
0.0
  0
LINE
  5
3A5A
330
3A43
100
AcDbEntity
  8
0
 62
     0
100
AcDbLine
 10
666.7117646887415
 20
1203.547232965568
 30
0.0
 11
668.9941663902068
 21
1205.829634667034
 31
0.0
  0
LINE
  5
3A5B
330
3A43
100
AcDbEntity
  8
0
 62
     0
100
AcDbLine
 10
666.5773858300698
 20
1203.554275463134
 30
0.0
 11
668.9364650408353
 21
1205.913354673899
 31
0.0
  0
LINE
  5
3A5C
330
3A43
100
AcDbEntity
  8
0
 62
     0
100
AcDbLine
 10
666.443006971398
 20
1203.5613179607
 30
0.0
 11
668.8769176034452
 21
1205.995228592747
 31
0.0
  0
LINE
  5
3A5D
330
3A43
100
AcDbEntity
  8
0
 62
     0
100
AcDbLine
 10
666.3086281127263
 20
1203.568360458265
 30
0.0
 11
668.8155460914688
 21
1206.075278437008
 31
0.0
  0
LINE
  5
3A5E
330
3A43
100
AcDbEntity
  8
0
 62
     0
100
AcDbLine
 10
666.1742492540546
 20
1203.57540295583
 30
0.0
 11
668.7523686530458
 21
1206.153522354822
 31
0.0
  0
LINE
  5
3A5F
330
3A43
100
AcDbEntity
  8
0
 62
     0
100
AcDbLine
 10
666.0398703953829
 20
1203.582445453396
 30
0.0
 11
668.6873997518422
 21
1206.229974809856
 31
0.0
  0
LINE
  5
3A60
330
3A43
100
AcDbEntity
  8
0
 62
     0
100
AcDbLine
 10
665.9054915367111
 20
1203.589487950962
 30
0.0
 11
668.6206503083232
 21
1206.304646722574
 31
0.0
  0
LINE
  5
3A61
330
3A43
100
AcDbEntity
  8
0
 62
     0
100
AcDbLine
 10
665.7711126780395
 20
1203.596530448527
 30
0.0
 11
668.5521278047599
 21
1206.377545575248
 31
0.0
  0
LINE
  5
3A62
330
3A43
100
AcDbEntity
  8
0
 62
     0
100
AcDbLine
 10
665.6720580647824
 20
1203.638897191508
 30
0.0
 11
668.4818363563564
 21
1206.448675483082
 31
0.0
  0
LINE
  5
3A63
330
3A43
100
AcDbEntity
  8
0
 62
     0
100
AcDbLine
 10
665.6720580647824
 20
1203.780318547745
 30
0.0
 11
668.4097767500847
 21
1206.518037233047
 31
0.0
  0
LINE
  5
3A64
330
3A43
100
AcDbEntity
  8
0
 62
     0
100
AcDbLine
 10
665.6720580647824
 20
1203.921739903982
 30
0.0
 11
668.3359464520881
 21
1206.585628291288
 31
0.0
  0
LINE
  5
3A65
330
3A43
100
AcDbEntity
  8
0
 62
     0
100
AcDbLine
 10
665.6720580647824
 20
1204.06316126022
 30
0.0
 11
668.2603395838177
 21
1206.651442779255
 31
0.0
  0
LINE
  5
3A66
330
3A43
100
AcDbEntity
  8
0
 62
     0
100
AcDbLine
 10
665.6720580647824
 20
1204.204582616457
 30
0.0
 11
668.1829468663716
 21
1206.715471418046
 31
0.0
  0
LINE
  5
3A67
330
3A43
100
AcDbEntity
  8
0
 62
     0
100
AcDbLine
 10
665.6720580647824
 20
1204.346003972694
 30
0.0
 11
668.103755531803
 21
1206.777701439715
 31
0.0
  0
LINE
  5
3A68
330
3A43
100
AcDbEntity
  8
0
 62
     0
100
AcDbLine
 10
665.6720580647824
 20
1204.487425328931
 30
0.0
 11
668.0227491993981
 21
1206.838116463547
 31
0.0
  0
LINE
  5
3A69
330
3A43
100
AcDbEntity
  8
0
 62
     0
100
AcDbLine
 10
665.6720580647824
 20
1204.628846685169
 30
0.0
 11
667.9399077140832
 21
1206.896696334469
 31
0.0
  0
LINE
  5
3A6A
330
3A43
100
AcDbEntity
  8
0
 62
     0
100
AcDbLine
 10
665.6720580647824
 20
1204.770268041406
 30
0.0
 11
667.8552069431577
 21
1206.953416919781
 31
0.0
  0
LINE
  5
3A6B
330
3A43
100
AcDbEntity
  8
0
 62
     0
100
AcDbLine
 10
665.6720580647824
 20
1204.911689397643
 30
0.0
 11
667.7686185264272
 21
1207.008249859288
 31
0.0
  0
LINE
  5
3A6C
330
3A43
100
AcDbEntity
  8
0
 62
     0
100
AcDbLine
 10
665.6720580647824
 20
1205.053110753881
 30
0.0
 11
667.6801095734556
 21
1207.061162262554
 31
0.0
  0
LINE
  5
3A6D
330
3A43
100
AcDbEntity
  8
0
 62
     0
100
AcDbLine
 10
665.6720580647824
 20
1205.194532110118
 30
0.0
 11
667.5896423000202
 21
1207.112116345356
 31
0.0
  0
LINE
  5
3A6E
330
3A43
100
AcDbEntity
  8
0
 62
     0
100
AcDbLine
 10
665.6720580647824
 20
1205.335953466355
 30
0.0
 11
667.4971735938147
 21
1207.161068995388
 31
0.0
  0
LINE
  5
3A6F
330
3A43
100
AcDbEntity
  8
0
 62
     0
100
AcDbLine
 10
665.6720580647824
 20
1205.477374822593
 30
0.0
 11
667.4026544968995
 21
1207.20797125471
 31
0.0
  0
LINE
  5
3A70
330
3A43
100
AcDbEntity
  8
0
 62
     0
100
AcDbLine
 10
665.6720580647824
 20
1205.61879617883
 30
0.0
 11
667.3060295891571
 21
1207.252767703205
 31
0.0
  0
LINE
  5
3A71
330
3A43
100
AcDbEntity
  8
0
 62
     0
100
AcDbLine
 10
665.6720580647824
 20
1205.760217535067
 30
0.0
 11
667.2072362528548
 21
1207.29539572314
 31
0.0
  0
LINE
  5
3A72
330
3A43
100
AcDbEntity
  8
0
 62
     0
100
AcDbLine
 10
665.6720580647824
 20
1205.901638891305
 30
0.0
 11
667.1062037930084
 21
1207.335784619531
 31
0.0
  0
LINE
  5
3A73
330
3A43
100
AcDbEntity
  8
0
 62
     0
100
AcDbLine
 10
665.6720580647824
 20
1206.043060247542
 30
0.0
 11
667.0028523811383
 21
1207.373854563898
 31
0.0
  0
LINE
  5
3A74
330
3A43
100
AcDbEntity
  8
0
 62
     0
100
AcDbLine
 10
665.6720580647824
 20
1206.184481603779
 30
0.0
 11
666.8970917805646
 21
1207.409515319562
 31
0.0
  0
LINE
  5
3A75
330
3A43
100
AcDbEntity
  8
0
 62
     0
100
AcDbLine
 10
665.6720580647824
 20
1206.325902960017
 30
0.0
 11
666.7888197986709
 21
1207.442664693905
 31
0.0
  0
LINE
  5
3A76
330
3A43
100
AcDbEntity
  8
0
 62
     0
100
AcDbLine
 10
665.6720580647824
 20
1206.467324316254
 30
0.0
 11
666.6779203942237
 21
1207.473186645695
 31
0.0
  0
LINE
  5
3A77
330
3A43
100
AcDbEntity
  8
0
 62
     0
100
AcDbLine
 10
665.6720580647824
 20
1206.608745672491
 30
0.0
 11
666.5642613438494
 21
1207.500948951558
 31
0.0
  0
LINE
  5
3A78
330
3A43
100
AcDbEntity
  8
0
 62
     0
100
AcDbLine
 10
665.6720580647824
 20
1206.750167028728
 30
0.0
 11
666.4476913380793
 21
1207.525800302025
 31
0.0
  0
LINE
  5
3A79
330
3A43
100
AcDbEntity
  8
0
 62
     0
100
AcDbLine
 10
665.6720580647824
 20
1206.891588384966
 30
0.0
 11
666.3280363292784
 21
1207.547566649462
 31
0.0
  0
LINE
  5
3A7A
330
3A43
100
AcDbEntity
  8
0
 62
     0
100
AcDbLine
 10
665.6720580647824
 20
1207.033009741203
 30
0.0
 11
666.2050948838206
 21
1207.566046560241
 31
0.0
  0
LINE
  5
3A7B
330
3A43
100
AcDbEntity
  8
0
 62
     0
100
AcDbLine
 10
665.6720580647824
 20
1207.17443109744
 30
0.0
 11
666.0786321870826
 21
1207.581005219741
 31
0.0
  0
LINE
  5
3A7C
330
3A43
100
AcDbEntity
  8
0
 62
     0
100
AcDbLine
 10
665.6720580647824
 20
1207.315852453678
 30
0.0
 11
665.9483721923061
 21
1207.592166581201
 31
0.0
  0
LINE
  5
3A7D
330
3A43
100
AcDbEntity
  8
0
 62
     0
100
AcDbLine
 10
665.6720580647824
 20
1207.457273809915
 30
0.0
 11
665.8139871591845
 21
1207.599202904317
 31
0.0
  0
LINE
  5
3A7E
330
3A43
100
AcDbEntity
  8
0
 62
     0
100
AcDbLine
 10
661.6721770516039
 20
1101.492594949636
 30
0.0
 11
661.7113141369092
 21
1101.531732034941
 31
0.0
  0
LINE
  5
3A7F
330
3A43
100
AcDbEntity
  8
0
 62
     0
100
AcDbLine
 10
661.67354884085
 20
1101.352545382645
 30
0.0
 11
661.8527354931464
 21
1101.531732034941
 31
0.0
  0
LINE
  5
3A80
330
3A43
100
AcDbEntity
  8
0
 62
     0
100
AcDbLine
 10
661.6795450701911
 20
1101.217120255749
 30
0.0
 11
661.9941568493837
 21
1101.531732034941
 31
0.0
  0
LINE
  5
3A81
330
3A43
100
AcDbEntity
  8
0
 62
     0
100
AcDbLine
 10
661.6897536880077
 20
1101.085907517328
 30
0.0
 11
662.1355782056211
 21
1101.531732034941
 31
0.0
  0
LINE
  5
3A82
330
3A43
100
AcDbEntity
  8
0
 62
     0
100
AcDbLine
 10
661.7038326839299
 20
1100.958565157013
 30
0.0
 11
662.2769995618583
 21
1101.531732034941
 31
0.0
  0
LINE
  5
3A83
330
3A43
100
AcDbEntity
  8
0
 62
     0
100
AcDbLine
 10
661.7214947398302
 20
1100.834805856676
 30
0.0
 11
662.4184209180957
 21
1101.531732034941
 31
0.0
  0
LINE
  5
3A84
330
3A43
100
AcDbEntity
  8
0
 62
     0
100
AcDbLine
 10
661.7424959947583
 20
1100.714385755367
 30
0.0
 11
662.5598422743329
 21
1101.531732034941
 31
0.0
  0
LINE
  5
3A85
330
3A43
100
AcDbEntity
  8
0
 62
     0
100
AcDbLine
 10
661.7666276509116
 20
1100.597096055283
 30
0.0
 11
662.7012636305703
 21
1101.531732034941
 31
0.0
  0
LINE
  5
3A86
330
3A43
100
AcDbEntity
  8
0
 62
     0
100
AcDbLine
 10
661.7937095892033
 20
1100.482756637337
 30
0.0
 11
662.8426849868076
 21
1101.531732034941
 31
0.0
  0
LINE
  5
3A87
330
3A43
100
AcDbEntity
  8
0
 62
     0
100
AcDbLine
 10
661.823585436603
 20
1100.3712111285
 30
0.0
 11
662.9841063430449
 21
1101.531732034941
 31
0.0
  0
LINE
  5
3A88
330
3A43
100
AcDbEntity
  8
0
 62
     0
100
AcDbLine
 10
661.8561187020835
 20
1100.262323037743
 30
0.0
 11
663.1255276992823
 21
1101.531732034941
 31
0.0
  0
LINE
  5
3A89
330
3A43
100
AcDbEntity
  8
0
 62
     0
100
AcDbLine
 10
661.8911897124158
 20
1100.155972691838
 30
0.0
 11
663.2669490555194
 21
1101.531732034941
 31
0.0
  0
LINE
  5
3A8A
330
3A43
100
AcDbEntity
  8
0
 62
     0
100
AcDbLine
 10
661.9286931557696
 20
1100.052054778954
 30
0.0
 11
663.4083704117569
 21
1101.531732034941
 31
0.0
  0
LINE
  5
3A8B
330
3A43
100
AcDbEntity
  8
0
 62
     0
100
AcDbLine
 10
661.9685360935857
 20
1099.950476360533
 30
0.0
 11
663.5497917679941
 21
1101.531732034941
 31
0.0
  0
LINE
  5
3A8C
330
3A43
100
AcDbEntity
  8
0
 62
     0
100
AcDbLine
 10
662.0106363378005
 20
1099.851155248511
 30
0.0
 11
663.6912131242314
 21
1101.531732034941
 31
0.0
  0
LINE
  5
3A8D
330
3A43
100
AcDbEntity
  8
0
 62
     0
100
AcDbLine
 10
662.0549211164838
 20
1099.754018670956
 30
0.0
 11
663.8326344804688
 21
1101.531732034941
 31
0.0
  0
LINE
  5
3A8E
330
3A43
100
AcDbEntity
  8
0
 62
     0
100
AcDbLine
 10
662.1013259696618
 20
1099.659002167897
 30
0.0
 11
663.974055836706
 21
1101.531732034941
 31
0.0
  0
LINE
  5
3A8F
330
3A43
100
AcDbEntity
  8
0
 62
     0
100
AcDbLine
 10
662.1497938307761
 20
1099.566048672774
 30
0.0
 11
664.1154771929434
 21
1101.531732034941
 31
0.0
  0
LINE
  5
3A90
330
3A43
100
AcDbEntity
  8
0
 62
     0
100
AcDbLine
 10
662.2002742593569
 20
1099.475107745118
 30
0.0
 11
664.2568985491807
 21
1101.531732034941
 31
0.0
  0
LINE
  5
3A91
330
3A43
100
AcDbEntity
  8
0
 62
     0
100
AcDbLine
 10
662.2527227980835
 20
1099.386134927607
 30
0.0
 11
664.398319905418
 21
1101.531732034941
 31
0.0
  0
LINE
  5
3A92
330
3A43
100
AcDbEntity
  8
0
 62
     0
100
AcDbLine
 10
662.307100433173
 20
1099.299091206459
 30
0.0
 11
664.5397412616554
 21
1101.531732034941
 31
0.0
  0
LINE
  5
3A93
330
3A43
100
AcDbEntity
  8
0
 62
     0
100
AcDbLine
 10
662.3633731414522
 20
1099.213942558501
 30
0.0
 11
664.6811626178926
 21
1101.531732034941
 31
0.0
  0
LINE
  5
3A94
330
3A43
100
AcDbEntity
  8
0
 62
     0
100
AcDbLine
 10
662.4215115109142
 20
1099.130659571726
 30
0.0
 11
664.82258397413
 21
1101.531732034941
 31
0.0
  0
LINE
  5
3A95
330
3A43
100
AcDbEntity
  8
0
 62
     0
100
AcDbLine
 10
662.4814904242456
 20
1099.04921712882
 30
0.0
 11
664.9640053303673
 21
1101.531732034941
 31
0.0
  0
LINE
  5
3A96
330
3A43
100
AcDbEntity
  8
0
 62
     0
100
AcDbLine
 10
662.5432887969619
 20
1098.969594145299
 30
0.0
 11
665.1054266866045
 21
1101.531732034941
 31
0.0
  0
LINE
  5
3A97
330
3A43
100
AcDbEntity
  8
0
 62
     0
100
AcDbLine
 10
662.6068893635111
 20
1098.891773355611
 30
0.0
 11
665.2468480428418
 21
1101.531732034941
 31
0.0
  0
LINE
  5
3A98
330
3A43
100
AcDbEntity
  8
0
 62
     0
100
AcDbLine
 10
662.6722785061168
 20
1098.815741141979
 30
0.0
 11
665.3882693990791
 21
1101.531732034941
 31
0.0
  0
LINE
  5
3A99
330
3A43
100
AcDbEntity
  8
0
 62
     0
100
AcDbLine
 10
662.7394461223069
 20
1098.741487401932
 30
0.0
 11
665.5296907553165
 21
1101.531732034941
 31
0.0
  0
LINE
  5
3A9A
330
3A43
100
AcDbEntity
  8
0
 62
     0
100
AcDbLine
 10
662.808385528072
 20
1098.66900545146
 30
0.0
 11
665.6711121115537
 21
1101.531732034941
 31
0.0
  0
LINE
  5
3A9B
330
3A43
100
AcDbEntity
  8
0
 62
     0
100
AcDbLine
 10
662.8790933944586
 20
1098.598291961609
 30
0.0
 11
665.7390337737257
 21
1101.458232340876
 31
0.0
  0
LINE
  5
3A9C
330
3A43
100
AcDbEntity
  8
0
 62
     0
100
AcDbLine
 10
662.9515697161886
 20
1098.529346927102
 30
0.0
 11
665.8734126323975
 21
1101.45118984331
 31
0.0
  0
LINE
  5
3A9D
330
3A43
100
AcDbEntity
  8
0
 62
     0
100
AcDbLine
 10
663.0258178116104
 20
1098.462173666286
 30
0.0
 11
666.0077914910691
 21
1101.444147345745
 31
0.0
  0
LINE
  5
3A9E
330
3A43
100
AcDbEntity
  8
0
 62
     0
100
AcDbLine
 10
663.1018443539788
 20
1098.396778852417
 30
0.0
 11
666.1421703497409
 21
1101.437104848179
 31
0.0
  0
LINE
  5
3A9F
330
3A43
100
AcDbEntity
  8
0
 62
     0
100
AcDbLine
 10
663.1796594347564
 20
1098.333172576958
 30
0.0
 11
666.2765492084126
 21
1101.430062350614
 31
0.0
  0
LINE
  5
3AA0
330
3A43
100
AcDbEntity
  8
0
 62
     0
100
AcDbLine
 10
663.2592766603476
 20
1098.271368446312
 30
0.0
 11
666.4109280670844
 21
1101.423019853048
 31
0.0
  0
LINE
  5
3AA1
330
3A43
100
AcDbEntity
  8
0
 62
     0
100
AcDbLine
 10
663.3407132844515
 20
1098.211383714178
 30
0.0
 11
666.5453069257562
 21
1101.415977355483
 31
0.0
  0
LINE
  5
3AA2
330
3A43
100
AcDbEntity
  8
0
 62
     0
100
AcDbLine
 10
663.4239903790899
 20
1098.153239452579
 30
0.0
 11
666.6796857844278
 21
1101.408934857917
 31
0.0
  0
LINE
  5
3AA3
330
3A43
100
AcDbEntity
  8
0
 62
     0
100
AcDbLine
 10
663.50913304836
 20
1098.096960765612
 30
0.0
 11
666.8140646430996
 21
1101.401892360351
 31
0.0
  0
LINE
  5
3AA4
330
3A43
100
AcDbEntity
  8
0
 62
     0
100
AcDbLine
 10
663.5961706901375
 20
1098.042577051152
 30
0.0
 11
666.9484435017713
 21
1101.394849862786
 31
0.0
  0
LINE
  5
3AA5
330
3A43
100
AcDbEntity
  8
0
 62
     0
100
AcDbLine
 10
663.685137312362
 20
1097.990122317139
 30
0.0
 11
667.0828223604431
 21
1101.38780736522
 31
0.0
  0
LINE
  5
3AA6
330
3A43
100
AcDbEntity
  8
0
 62
     0
100
AcDbLine
 10
663.7760719122663
 20
1097.939635560806
 30
0.0
 11
667.2172012191148
 21
1101.380764867655
 31
0.0
  0
LINE
  5
3AA7
330
3A43
100
AcDbEntity
  8
0
 62
     0
100
AcDbLine
 10
663.8690189290504
 20
1097.891161221353
 30
0.0
 11
667.3515800777866
 21
1101.373722370089
 31
0.0
  0
LINE
  5
3AA8
330
3A43
100
AcDbEntity
  8
0
 62
     0
100
AcDbLine
 10
663.964028783193
 20
1097.844749719258
 30
0.0
 11
667.4859589364583
 21
1101.366679872524
 31
0.0
  0
LINE
  5
3AA9
330
3A43
100
AcDbEntity
  8
0
 62
     0
100
AcDbLine
 10
664.0611585190318
 20
1097.80045809886
 30
0.0
 11
667.62033779513
 21
1101.359637374958
 31
0.0
  0
LINE
  5
3AAA
330
3A43
100
AcDbEntity
  8
0
 62
     0
100
AcDbLine
 10
664.160472571655
 20
1097.758350795245
 30
0.0
 11
667.7547166538017
 21
1101.352594877393
 31
0.0
  0
LINE
  5
3AAB
330
3A43
100
AcDbEntity
  8
0
 62
     0
100
AcDbLine
 10
664.2620436849122
 20
1097.718500552266
 30
0.0
 11
667.8890955124735
 21
1101.345552379827
 31
0.0
  0
LINE
  5
3AAC
330
3A43
100
AcDbEntity
  8
0
 62
     0
100
AcDbLine
 10
664.3659540149358
 20
1097.680989526052
 30
0.0
 11
668.0234743711451
 21
1101.338509882261
 31
0.0
  0
LINE
  5
3AAD
330
3A43
100
AcDbEntity
  8
0
 62
     0
100
AcDbLine
 10
664.4722964636875
 20
1097.645910618566
 30
0.0
 11
668.157853229817
 21
1101.331467384696
 31
0.0
  0
LINE
  5
3AAE
330
3A43
100
AcDbEntity
  8
0
 62
     0
100
AcDbLine
 10
664.5811763007055
 20
1097.613369099347
 30
0.0
 11
668.2922320884887
 21
1101.32442488713
 31
0.0
  0
LINE
  5
3AAF
330
3A43
100
AcDbEntity
  8
0
 62
     0
100
AcDbLine
 10
664.6927131499238
 20
1097.583484592328
 30
0.0
 11
668.4266109471605
 21
1101.317382389565
 31
0.0
  0
LINE
  5
3AB0
330
3A43
100
AcDbEntity
  8
0
 62
     0
100
AcDbLine
 10
664.8070434443829
 20
1097.55639353055
 30
0.0
 11
668.5609898058323
 21
1101.310339891999
 31
0.0
  0
LINE
  5
3AB1
330
3A43
100
AcDbEntity
  8
0
 62
     0
100
AcDbLine
 10
664.9243234882302
 20
1097.53225221816
 30
0.0
 11
668.6953686645039
 21
1101.303297394434
 31
0.0
  0
LINE
  5
3AB2
330
3A43
100
AcDbEntity
  8
0
 62
     0
100
AcDbLine
 10
665.0447333178534
 20
1097.511240691546
 30
0.0
 11
668.8297475231756
 21
1101.296254896868
 31
0.0
  0
LINE
  5
3AB3
330
3A43
100
AcDbEntity
  8
0
 62
     0
100
AcDbLine
 10
665.1684816306045
 20
1097.49356764806
 30
0.0
 11
668.9641263818473
 21
1101.289212399302
 31
0.0
  0
LINE
  5
3AB4
330
3A43
100
AcDbEntity
  8
0
 62
     0
100
AcDbLine
 10
665.2958121638447
 20
1097.479476825062
 30
0.0
 11
669.098505240519
 21
1101.282169901737
 31
0.0
  0
LINE
  5
3AB5
330
3A43
100
AcDbEntity
  8
0
 62
     0
100
AcDbLine
 10
665.4270120814429
 20
1097.469255386423
 30
0.0
 11
669.2328840991908
 21
1101.275127404171
 31
0.0
  0
LINE
  5
3AB6
330
3A43
100
AcDbEntity
  8
0
 62
     0
100
AcDbLine
 10
665.5624231980798
 20
1097.463245146823
 30
0.0
 11
669.3672629578626
 21
1101.268084906606
 31
0.0
  0
LINE
  5
3AB7
330
3A43
100
AcDbEntity
  8
0
 62
     0
100
AcDbLine
 10
665.7024573124831
 20
1097.461857904989
 30
0.0
 11
669.5016418165343
 21
1101.26104240904
 31
0.0
  0
LINE
  5
3AB8
330
3A43
100
AcDbEntity
  8
0
 62
     0
100
AcDbLine
 10
665.8476176561861
 20
1097.465596892454
 30
0.0
 11
669.6360206752061
 21
1101.253999911474
 31
0.0
  0
LINE
  5
3AB9
330
3A43
100
AcDbEntity
  8
0
 62
     0
100
AcDbLine
 10
665.9985297402686
 20
1097.4750876203
 30
0.0
 11
669.6587128335309
 21
1101.135270713562
 31
0.0
  0
LINE
  5
3ABA
330
3A43
100
AcDbEntity
  8
0
 62
     0
100
AcDbLine
 10
666.155987198953
 20
1097.491123722747
 30
0.0
 11
669.6426767310837
 21
1100.977813254877
 31
0.0
  0
LINE
  5
3ABB
330
3A43
100
AcDbEntity
  8
0
 62
     0
100
AcDbLine
 10
666.3210226682173
 20
1097.514737835774
 30
0.0
 11
669.6190626180566
 21
1100.812777785613
 31
0.0
  0
LINE
  5
3ABC
330
3A43
100
AcDbEntity
  8
0
 62
     0
100
AcDbLine
 10
666.4950228201654
 20
1097.547316631485
 30
0.0
 11
669.5864838223459
 21
1100.638777633665
 31
0.0
  0
LINE
  5
3ABD
330
3A43
100
AcDbEntity
  8
0
 62
     0
100
AcDbLine
 10
666.6799268233577
 20
1097.59079927844
 30
0.0
 11
669.5430011753909
 21
1100.453873630473
 31
0.0
  0
LINE
  5
3ABE
330
3A43
100
AcDbEntity
  8
0
 62
     0
100
AcDbLine
 10
666.8785970654445
 20
1097.648048164289
 30
0.0
 11
669.4857522895414
 21
1100.255203388386
 31
0.0
  0
LINE
  5
3ABF
330
3A43
100
AcDbEntity
  8
0
 62
     0
100
AcDbLine
 10
667.0955908835992
 20
1097.723620626206
 30
0.0
 11
669.4101798276241
 21
1100.038209570231
 31
0.0
  0
LINE
  5
3AC0
330
3A43
100
AcDbEntity
  8
0
 62
     0
100
AcDbLine
 10
667.3390421249638
 20
1097.825650511334
 30
0.0
 11
669.3081499424968
 21
1099.794758328867
 31
0.0
  0
LINE
  5
3AC1
330
3A43
100
AcDbEntity
  8
0
 62
     0
100
AcDbLine
 10
667.6266073542981
 20
1097.971794384431
 30
0.0
 11
669.1620060693998
 21
1099.507193099532
 31
0.0
  0
LINE
  5
3AC2
330
3A43
100
AcDbEntity
  8
0
 62
     0
100
AcDbLine
 10
668.0184995203355
 20
1098.222265194231
 30
0.0
 11
668.9115352595996
 21
1099.115300933495
 31
0.0
  0
ENDBLK
  5
3AC3
330
3A43
100
AcDbEntity
  8
0
100
AcDbBlockEnd
  0
BLOCK
  5
3AC5
330
3AC4
100
AcDbEntity
  8
0
100
AcDbBlockBegin
  2
*X5
 70
     1
 10
0.0
 20
0.0
 30
0.0
  3
*X5
  1

  0
LINE
  5
3AC6
330
3AC4
100
AcDbEntity
  8
BEM
 62
     0
100
AcDbLine
 10
643.0322288945217
 20
1061.356600644483
 30
0.0
 11
643.0437690115133
 21
1061.368140761475
 31
0.0
  0
LINE
  5
3AC7
330
3AC4
100
AcDbEntity
  8
BEM
 62
     0
100
AcDbLine
 10
642.7594845324972
 20
1061.366698994933
 30
0.0
 11
643.0437690115133
 21
1061.650983473949
 31
0.0
  0
LINE
  5
3AC8
330
3AC4
100
AcDbEntity
  8
BEM
 62
     0
100
AcDbLine
 10
642.5032193566744
 20
1061.393276531585
 30
0.0
 11
643.0437690115134
 21
1061.933826186424
 31
0.0
  0
LINE
  5
3AC9
330
3AC4
100
AcDbEntity
  8
BEM
 62
     0
100
AcDbLine
 10
642.261018909455
 20
1061.43391879684
 30
0.0
 11
643.0437690115134
 21
1062.216668898898
 31
0.0
  0
LINE
  5
3ACA
330
3AC4
100
AcDbEntity
  8
BEM
 62
     0
100
AcDbLine
 10
642.0311406577906
 20
1061.48688325765
 30
0.0
 11
643.0437690115131
 21
1062.499511611373
 31
0.0
  0
LINE
  5
3ACB
330
3AC4
100
AcDbEntity
  8
BEM
 62
     0
100
AcDbLine
 10
641.8122859454955
 20
1061.55087125783
 30
0.0
 11
643.0437690115133
 21
1062.782354323847
 31
0.0
  0
LINE
  5
3ACC
330
3AC4
100
AcDbEntity
  8
BEM
 62
     0
100
AcDbLine
 10
641.6034643389829
 20
1061.624892363792
 30
0.0
 11
643.0437690115133
 21
1063.065197036322
 31
0.0
  0
LINE
  5
3ACD
330
3AC4
100
AcDbEntity
  8
BEM
 62
     0
100
AcDbLine
 10
641.4039084804061
 20
1061.70817921769
 30
0.0
 11
643.0437690115134
 21
1063.348039748797
 31
0.0
  0
LINE
  5
3ACE
330
3AC4
100
AcDbEntity
  8
BEM
 62
     0
100
AcDbLine
 10
641.2130183704741
 20
1061.800131820232
 30
0.0
 11
643.0437690115134
 21
1063.630882461271
 31
0.0
  0
LINE
  5
3ACF
330
3AC4
100
AcDbEntity
  8
BEM
 62
     0
100
AcDbLine
 10
641.030323727335
 20
1061.900279889568
 30
0.0
 11
643.0437690115131
 21
1063.913725173746
 31
0.0
  0
LINE
  5
3AD0
330
3AC4
100
AcDbEntity
  8
BEM
 62
     0
100
AcDbLine
 10
640.8554579643661
 20
1062.008256839074
 30
0.0
 11
643.0437690115133
 21
1064.196567886221
 31
0.0
  0
LINE
  5
3AD1
330
3AC4
100
AcDbEntity
  8
BEM
 62
     0
100
AcDbLine
 10
640.6881399521404
 20
1062.123781539322
 30
0.0
 11
643.0437690115133
 21
1064.479410598695
 31
0.0
  0
LINE
  5
3AD2
330
3AC4
100
AcDbEntity
  8
BEM
 62
     0
100
AcDbLine
 10
640.5281612109068
 20
1062.246645510563
 30
0.0
 11
643.0437690115131
 21
1064.76225331117
 31
0.0
  0
LINE
  5
3AD3
330
3AC4
100
AcDbEntity
  8
BEM
 62
     0
100
AcDbLine
 10
640.375377058006
 20
1062.376704070137
 30
0.0
 11
643.0437690115134
 21
1065.045096023645
 31
0.0
  0
LINE
  5
3AD4
330
3AC4
100
AcDbEntity
  8
BEM
 62
     0
100
AcDbLine
 10
640.2297007813443
 20
1062.51387050595
 30
0.0
 11
643.0437690115131
 21
1065.327938736119
 31
0.0
  0
LINE
  5
3AD5
330
3AC4
100
AcDbEntity
  8
BEM
 62
     0
100
AcDbLine
 10
640.0911002702827
 20
1062.658112707363
 30
0.0
 11
642.7895715605801
 21
1065.356583997661
 31
0.0
  0
LINE
  5
3AD6
330
3AC4
100
AcDbEntity
  8
BEM
 62
     0
100
AcDbLine
 10
639.9595967911883
 20
1062.809451940744
 30
0.0
 11
642.5067288481057
 21
1065.356583997661
 31
0.0
  0
LINE
  5
3AD7
330
3AC4
100
AcDbEntity
  8
BEM
 62
     0
100
AcDbLine
 10
639.8352657969699
 20
1062.967963659
 30
0.0
 11
642.2238861356309
 21
1065.35658399766
 31
0.0
  0
LINE
  5
3AD8
330
3AC4
100
AcDbEntity
  8
BEM
 62
     0
100
AcDbLine
 10
639.7182398435939
 20
1063.133780418098
 30
0.0
 11
641.9410434231564
 21
1065.356583997661
 31
0.0
  0
LINE
  5
3AD9
330
3AC4
100
AcDbEntity
  8
BEM
 62
     0
100
AcDbLine
 10
639.6087138823406
 20
1063.30709716932
 30
0.0
 11
641.6582007106817
 21
1065.356583997661
 31
0.0
  0
LINE
  5
3ADA
330
3AC4
100
AcDbEntity
  8
BEM
 62
     0
100
AcDbLine
 10
639.5069534381526
 20
1063.488179437606
 30
0.0
 11
641.3753579982071
 21
1065.356583997661
 31
0.0
  0
LINE
  5
3ADB
330
3AC4
100
AcDbEntity
  8
BEM
 62
     0
100
AcDbLine
 10
639.4133065182294
 20
1063.677375230158
 30
0.0
 11
641.0925152857325
 21
1065.356583997661
 31
0.0
  0
LINE
  5
3ADC
330
3AC4
100
AcDbEntity
  8
BEM
 62
     0
100
AcDbLine
 10
639.3282205949364
 20
1063.875132019339
 30
0.0
 11
640.8096725732579
 21
1065.356583997661
 31
0.0
  0
LINE
  5
3ADD
330
3AC4
100
AcDbEntity
  8
BEM
 62
     0
100
AcDbLine
 10
639.2522668015617
 20
1064.082020938439
 30
0.0
 11
640.5268298607833
 21
1065.356583997661
 31
0.0
  0
LINE
  5
3ADE
330
3AC4
100
AcDbEntity
  8
BEM
 62
     0
100
AcDbLine
 10
639.1861748066053
 20
1064.298771655957
 30
0.0
 11
640.2439871483086
 21
1065.356583997661
 31
0.0
  0
LINE
  5
3ADF
330
3AC4
100
AcDbEntity
  8
BEM
 62
     0
100
AcDbLine
 10
639.1308841586116
 20
1064.526323720438
 30
0.0
 11
639.9611444358339
 21
1065.356583997661
 31
0.0
  0
LINE
  5
3AE0
330
3AC4
100
AcDbEntity
  8
BEM
 62
     0
100
AcDbLine
 10
639.0876221882954
 20
1064.765904462597
 30
0.0
 11
639.6783017233595
 21
1065.356583997661
 31
0.0
  0
LINE
  5
3AE1
330
3AC4
100
AcDbEntity
  8
BEM
 62
     0
100
AcDbLine
 10
639.0580269704281
 20
1065.019151957204
 30
0.0
 11
639.3954590108847
 21
1065.356583997661
 31
0.0
  0
LINE
  5
3AE2
330
3AC4
100
AcDbEntity
  8
BEM
 62
     0
100
AcDbLine
 10
639.0443515631934
 20
1065.288319262444
 30
0.0
 11
639.1126162984102
 21
1065.356583997661
 31
0.0
  0
ENDBLK
  5
3AE3
330
3AC4
100
AcDbEntity
  8
0
100
AcDbBlockEnd
  0
BLOCK
  5
3AE5
330
3AE4
100
AcDbEntity
  8
0
100
AcDbBlockBegin
  2
*X6
 70
     1
 10
0.0
 20
0.0
 30
0.0
  3
*X6
  1

  0
LINE
  5
3AE6
330
3AE4
100
AcDbEntity
  8
0
 62
     0
100
AcDbLine
 10
589.27328397886
 20
1065.356583997661
 30
0.0
 11
587.27328397886
 21
1067.356583997661
 31
0.0
  0
LINE
  5
3AE7
330
3AE4
100
AcDbEntity
  8
0
 62
     0
100
AcDbLine
 10
586.4448568541139
 20
1065.356583997661
 30
0.0
 11
584.4448568541139
 21
1067.356583997661
 31
0.0
  0
LINE
  5
3AE8
330
3AE4
100
AcDbEntity
  8
0
 62
     0
100
AcDbLine
 10
583.6164297293676
 20
1065.356583997661
 30
0.0
 11
581.6164297293677
 21
1067.356583997661
 31
0.0
  0
LINE
  5
3AE9
330
3AE4
100
AcDbEntity
  8
0
 62
     0
100
AcDbLine
 10
580.7880026046214
 20
1065.356583997661
 30
0.0
 11
578.7880026046215
 21
1067.356583997661
 31
0.0
  0
LINE
  5
3AEA
330
3AE4
100
AcDbEntity
  8
0
 62
     0
100
AcDbLine
 10
577.9595754798752
 20
1065.356583997661
 30
0.0
 11
575.9595754798753
 21
1067.356583997661
 31
0.0
  0
LINE
  5
3AEB
330
3AE4
100
AcDbEntity
  8
0
 62
     0
100
AcDbLine
 10
575.131148355129
 20
1065.356583997661
 30
0.0
 11
573.1311483551291
 21
1067.356583997661
 31
0.0
  0
LINE
  5
3AEC
330
3AE4
100
AcDbEntity
  8
0
 62
     0
100
AcDbLine
 10
572.3027212303829
 20
1065.356583997661
 30
0.0
 11
570.302721230383
 21
1067.356583997661
 31
0.0
  0
LINE
  5
3AED
330
3AE4
100
AcDbEntity
  8
0
 62
     0
100
AcDbLine
 10
569.4742941056367
 20
1065.356583997661
 30
0.0
 11
567.4742941056368
 21
1067.356583997661
 31
0.0
  0
LINE
  5
3AEE
330
3AE4
100
AcDbEntity
  8
0
 62
     0
100
AcDbLine
 10
566.6458669808905
 20
1065.356583997661
 30
0.0
 11
564.6458669808906
 21
1067.356583997661
 31
0.0
  0
LINE
  5
3AEF
330
3AE4
100
AcDbEntity
  8
0
 62
     0
100
AcDbLine
 10
563.8174398561443
 20
1065.356583997661
 30
0.0
 11
561.8174398561443
 21
1067.356583997661
 31
0.0
  0
LINE
  5
3AF0
330
3AE4
100
AcDbEntity
  8
0
 62
     0
100
AcDbLine
 10
560.9890127313981
 20
1065.356583997661
 30
0.0
 11
558.9890127313981
 21
1067.356583997661
 31
0.0
  0
LINE
  5
3AF1
330
3AE4
100
AcDbEntity
  8
0
 62
     0
100
AcDbLine
 10
558.160585606652
 20
1065.356583997661
 30
0.0
 11
556.160585606652
 21
1067.356583997661
 31
0.0
  0
LINE
  5
3AF2
330
3AE4
100
AcDbEntity
  8
0
 62
     0
100
AcDbLine
 10
555.3321584819058
 20
1065.356583997661
 30
0.0
 11
553.3321584819058
 21
1067.356583997661
 31
0.0
  0
LINE
  5
3AF3
330
3AE4
100
AcDbEntity
  8
0
 62
     0
100
AcDbLine
 10
552.5037313571596
 20
1065.356583997661
 30
0.0
 11
550.5037313571595
 21
1067.356583997661
 31
0.0
  0
LINE
  5
3AF4
330
3AE4
100
AcDbEntity
  8
0
 62
     0
100
AcDbLine
 10
549.6753042324134
 20
1065.356583997661
 30
0.0
 11
547.6753042324133
 21
1067.356583997661
 31
0.0
  0
LINE
  5
3AF5
330
3AE4
100
AcDbEntity
  8
0
 62
     0
100
AcDbLine
 10
546.8468771076671
 20
1065.356583997661
 30
0.0
 11
544.8468771076671
 21
1067.356583997661
 31
0.0
  0
LINE
  5
3AF6
330
3AE4
100
AcDbEntity
  8
0
 62
     0
100
AcDbLine
 10
544.0184499829211
 20
1065.356583997661
 30
0.0
 11
542.018449982921
 21
1067.356583997661
 31
0.0
  0
LINE
  5
3AF7
330
3AE4
100
AcDbEntity
  8
0
 62
     0
100
AcDbLine
 10
541.1900228581749
 20
1065.356583997661
 30
0.0
 11
539.1900228581748
 21
1067.356583997661
 31
0.0
  0
LINE
  5
3AF8
330
3AE4
100
AcDbEntity
  8
0
 62
     0
100
AcDbLine
 10
538.3615957334286
 20
1065.356583997661
 30
0.0
 11
536.3615957334286
 21
1067.356583997661
 31
0.0
  0
LINE
  5
3AF9
330
3AE4
100
AcDbEntity
  8
0
 62
     0
100
AcDbLine
 10
535.5331686086824
 20
1065.356583997661
 30
0.0
 11
533.5331686086824
 21
1067.356583997661
 31
0.0
  0
LINE
  5
3AFA
330
3AE4
100
AcDbEntity
  8
0
 62
     0
100
AcDbLine
 10
532.7047414839362
 20
1065.356583997661
 30
0.0
 11
530.7047414839362
 21
1067.356583997661
 31
0.0
  0
LINE
  5
3AFB
330
3AE4
100
AcDbEntity
  8
0
 62
     0
100
AcDbLine
 10
529.8763143591901
 20
1065.356583997661
 30
0.0
 11
527.8763143591901
 21
1067.356583997661
 31
0.0
  0
LINE
  5
3AFC
330
3AE4
100
AcDbEntity
  8
0
 62
     0
100
AcDbLine
 10
527.0478872344439
 20
1065.356583997661
 30
0.0
 11
525.0478872344439
 21
1067.356583997661
 31
0.0
  0
LINE
  5
3AFD
330
3AE4
100
AcDbEntity
  8
0
 62
     0
100
AcDbLine
 10
524.2194601096977
 20
1065.356583997661
 30
0.0
 11
522.2194601096978
 21
1067.356583997661
 31
0.0
  0
LINE
  5
3AFE
330
3AE4
100
AcDbEntity
  8
0
 62
     0
100
AcDbLine
 10
521.3910329849515
 20
1065.356583997661
 30
0.0
 11
519.3910329849516
 21
1067.356583997661
 31
0.0
  0
LINE
  5
3AFF
330
3AE4
100
AcDbEntity
  8
0
 62
     0
100
AcDbLine
 10
518.5626058602053
 20
1065.356583997661
 30
0.0
 11
516.5626058602054
 21
1067.356583997661
 31
0.0
  0
LINE
  5
3B00
330
3AE4
100
AcDbEntity
  8
0
 62
     0
100
AcDbLine
 10
515.7341787354591
 20
1065.356583997661
 30
0.0
 11
513.7341787354592
 21
1067.356583997661
 31
0.0
  0
LINE
  5
3B01
330
3AE4
100
AcDbEntity
  8
0
 62
     0
100
AcDbLine
 10
512.9057516107129
 20
1065.356583997661
 30
0.0
 11
510.905751610713
 21
1067.356583997661
 31
0.0
  0
LINE
  5
3B02
330
3AE4
100
AcDbEntity
  8
0
 62
     0
100
AcDbLine
 10
510.0773244859667
 20
1065.356583997661
 30
0.0
 11
508.0773244859668
 21
1067.356583997661
 31
0.0
  0
LINE
  5
3B03
330
3AE4
100
AcDbEntity
  8
0
 62
     0
100
AcDbLine
 10
507.2488973612205
 20
1065.356583997661
 30
0.0
 11
505.2488973612206
 21
1067.356583997661
 31
0.0
  0
LINE
  5
3B04
330
3AE4
100
AcDbEntity
  8
0
 62
     0
100
AcDbLine
 10
504.4204702364744
 20
1065.356583997661
 30
0.0
 11
502.4204702364744
 21
1067.356583997661
 31
0.0
  0
LINE
  5
3B05
330
3AE4
100
AcDbEntity
  8
0
 62
     0
100
AcDbLine
 10
501.5920431117282
 20
1065.356583997661
 30
0.0
 11
499.5920431117282
 21
1067.356583997661
 31
0.0
  0
LINE
  5
3B06
330
3AE4
100
AcDbEntity
  8
0
 62
     0
100
AcDbLine
 10
498.763615986982
 20
1065.356583997661
 30
0.0
 11
496.7636159869821
 21
1067.356583997661
 31
0.0
  0
LINE
  5
3B07
330
3AE4
100
AcDbEntity
  8
0
 62
     0
100
AcDbLine
 10
495.9351888622358
 20
1065.356583997661
 30
0.0
 11
493.9351888622359
 21
1067.356583997661
 31
0.0
  0
LINE
  5
3B08
330
3AE4
100
AcDbEntity
  8
0
 62
     0
100
AcDbLine
 10
493.1067617374896
 20
1065.356583997661
 30
0.0
 11
491.1067617374896
 21
1067.356583997661
 31
0.0
  0
LINE
  5
3B09
330
3AE4
100
AcDbEntity
  8
0
 62
     0
100
AcDbLine
 10
490.2783346127434
 20
1065.356583997661
 30
0.0
 11
488.2783346127435
 21
1067.356583997661
 31
0.0
  0
LINE
  5
3B0A
330
3AE4
100
AcDbEntity
  8
0
 62
     0
100
AcDbLine
 10
487.4499074879972
 20
1065.356583997661
 30
0.0
 11
485.4499074879973
 21
1067.356583997661
 31
0.0
  0
LINE
  5
3B0B
330
3AE4
100
AcDbEntity
  8
0
 62
     0
100
AcDbLine
 10
484.6214803632511
 20
1065.356583997661
 30
0.0
 11
482.621480363251
 21
1067.356583997661
 31
0.0
  0
LINE
  5
3B0C
330
3AE4
100
AcDbEntity
  8
0
 62
     0
100
AcDbLine
 10
481.7930532385049
 20
1065.356583997661
 30
0.0
 11
479.7930532385048
 21
1067.356583997661
 31
0.0
  0
LINE
  5
3B0D
330
3AE4
100
AcDbEntity
  8
0
 62
     0
100
AcDbLine
 10
478.9646261137587
 20
1065.356583997661
 30
0.0
 11
476.9646261137586
 21
1067.356583997661
 31
0.0
  0
LINE
  5
3B0E
330
3AE4
100
AcDbEntity
  8
0
 62
     0
100
AcDbLine
 10
476.1361989890125
 20
1065.356583997661
 30
0.0
 11
474.5089900578525
 21
1066.983792928821
 31
0.0
  0
LINE
  5
3B0F
330
3AE4
100
AcDbEntity
  8
0
 62
     0
100
AcDbLine
 10
789.9149863267024
 20
1167.356583997661
 30
0.0
 11
789.4715799369923
 21
1167.799990387371
 31
0.0
  0
LINE
  5
3B10
330
3AE4
100
AcDbEntity
  8
0
 62
     0
100
AcDbLine
 10
791.5089900578525
 20
1168.591007391257
 30
0.0
 11
789.5089900578524
 21
1170.591007391257
 31
0.0
  0
LINE
  5
3B11
330
3AE4
100
AcDbEntity
  8
0
 62
     0
100
AcDbLine
 10
791.5089900578525
 20
1171.419434516003
 30
0.0
 11
789.5089900578524
 21
1173.419434516003
 31
0.0
  0
LINE
  5
3B12
330
3AE4
100
AcDbEntity
  8
0
 62
     0
100
AcDbLine
 10
791.5089900578525
 20
1174.247861640749
 30
0.0
 11
789.5089900578524
 21
1176.247861640749
 31
0.0
  0
LINE
  5
3B13
330
3AE4
100
AcDbEntity
  8
0
 62
     0
100
AcDbLine
 10
791.5089900578525
 20
1177.076288765495
 30
0.0
 11
789.5089900578524
 21
1179.076288765495
 31
0.0
  0
LINE
  5
3B14
330
3AE4
100
AcDbEntity
  8
0
 62
     0
100
AcDbLine
 10
791.5089900578525
 20
1179.904715890242
 30
0.0
 11
789.5089900578524
 21
1181.904715890242
 31
0.0
  0
LINE
  5
3B15
330
3AE4
100
AcDbEntity
  8
0
 62
     0
100
AcDbLine
 10
791.5089900578525
 20
1182.733143014988
 30
0.0
 11
790.2255118093913
 21
1184.016621263449
 31
0.0
  0
LINE
  5
3B16
330
3AE4
100
AcDbEntity
  8
0
 62
     0
100
AcDbLine
 10
790.2255118093915
 20
1184.016621263449
 30
0.0
 11
789.5089900578526
 21
1184.733143014988
 31
0.0
  0
LINE
  5
3B17
330
3AE4
100
AcDbEntity
  8
0
 62
     0
100
AcDbLine
 10
791.4731543797492
 20
1185.597405817837
 30
0.0
 11
789.5089900578526
 21
1187.561570139734
 31
0.0
  0
LINE
  5
3B18
330
3AE4
100
AcDbEntity
  8
0
 62
     0
100
AcDbLine
 10
791.5089900578524
 20
1188.38999726448
 30
0.0
 11
789.5089900578526
 21
1190.38999726448
 31
0.0
  0
LINE
  5
3B19
330
3AE4
100
AcDbEntity
  8
0
 62
     0
100
AcDbLine
 10
791.5089900578524
 20
1191.218424389226
 30
0.0
 11
789.5089900578526
 21
1193.218424389226
 31
0.0
  0
LINE
  5
3B1A
330
3AE4
100
AcDbEntity
  8
0
 62
     0
100
AcDbLine
 10
791.5089900578524
 20
1194.046851513972
 30
0.0
 11
789.5089900578526
 21
1196.046851513973
 31
0.0
  0
LINE
  5
3B1B
330
3AE4
100
AcDbEntity
  8
0
 62
     0
100
AcDbLine
 10
791.5089900578524
 20
1196.875278638719
 30
0.0
 11
789.5089900578526
 21
1198.875278638719
 31
0.0
  0
LINE
  5
3B1C
330
3AE4
100
AcDbEntity
  8
0
 62
     0
100
AcDbLine
 10
791.5089900578524
 20
1199.703705763465
 30
0.0
 11
789.5089900578526
 21
1201.703705763465
 31
0.0
  0
LINE
  5
3B1D
330
3AE4
100
AcDbEntity
  8
0
 62
     0
100
AcDbLine
 10
791.5089900578524
 20
1202.532132888211
 30
0.0
 11
789.5089900578526
 21
1204.532132888211
 31
0.0
  0
LINE
  5
3B1E
330
3AE4
100
AcDbEntity
  8
0
 62
     0
100
AcDbLine
 10
791.5089900578524
 20
1205.360560012957
 30
0.0
 11
789.5089900578526
 21
1207.360560012957
 31
0.0
  0
LINE
  5
3B1F
330
3AE4
100
AcDbEntity
  8
0
 62
     0
100
AcDbLine
 10
791.5089900578524
 20
1208.188987137704
 30
0.0
 11
789.5089900578526
 21
1210.188987137703
 31
0.0
  0
LINE
  5
3B20
330
3AE4
100
AcDbEntity
  8
0
 62
     0
100
AcDbLine
 10
791.5089900578524
 20
1211.01741426245
 30
0.0
 11
789.5089900578526
 21
1213.01741426245
 31
0.0
  0
LINE
  5
3B21
330
3AE4
100
AcDbEntity
  8
0
 62
     0
100
AcDbLine
 10
791.5089900578524
 20
1213.845841387196
 30
0.0
 11
789.5089900578526
 21
1215.845841387196
 31
0.0
  0
LINE
  5
3B22
330
3AE4
100
AcDbEntity
  8
0
 62
     0
100
AcDbLine
 10
791.5089900578524
 20
1216.674268511942
 30
0.0
 11
789.5089900578526
 21
1218.674268511942
 31
0.0
  0
LINE
  5
3B23
330
3AE4
100
AcDbEntity
  8
0
 62
     0
100
AcDbLine
 10
791.5089900578524
 20
1219.502695636688
 30
0.0
 11
789.5089900578526
 21
1221.502695636688
 31
0.0
  0
LINE
  5
3B24
330
3AE4
100
AcDbEntity
  8
0
 62
     0
100
AcDbLine
 10
791.5089900578524
 20
1222.331122761434
 30
0.0
 11
789.5089900578526
 21
1224.331122761435
 31
0.0
  0
LINE
  5
3B25
330
3AE4
100
AcDbEntity
  8
0
 62
     0
100
AcDbLine
 10
791.5089900578524
 20
1225.15954988618
 30
0.0
 11
789.5089900578526
 21
1227.159549886181
 31
0.0
  0
LINE
  5
3B26
330
3AE4
100
AcDbEntity
  8
0
 62
     0
100
AcDbLine
 10
791.5089900578524
 20
1227.987977010927
 30
0.0
 11
789.5089900578526
 21
1229.987977010927
 31
0.0
  0
LINE
  5
3B27
330
3AE4
100
AcDbEntity
  8
0
 62
     0
100
AcDbLine
 10
791.5089900578524
 20
1230.816404135673
 30
0.0
 11
789.5089900578526
 21
1232.816404135673
 31
0.0
  0
LINE
  5
3B28
330
3AE4
100
AcDbEntity
  8
0
 62
     0
100
AcDbLine
 10
791.5089900578524
 20
1233.644831260419
 30
0.0
 11
789.5089900578526
 21
1235.644831260419
 31
0.0
  0
LINE
  5
3B29
330
3AE4
100
AcDbEntity
  8
0
 62
     0
100
AcDbLine
 10
791.5089900578524
 20
1236.473258385165
 30
0.0
 11
789.5089900578526
 21
1238.473258385165
 31
0.0
  0
LINE
  5
3B2A
330
3AE4
100
AcDbEntity
  8
0
 62
     0
100
AcDbLine
 10
791.5089900578524
 20
1239.301685509912
 30
0.0
 11
789.5089900578526
 21
1241.301685509912
 31
0.0
  0
LINE
  5
3B2B
330
3AE4
100
AcDbEntity
  8
0
 62
     0
100
AcDbLine
 10
791.5089900578524
 20
1242.130112634658
 30
0.0
 11
789.5089900578526
 21
1244.130112634658
 31
0.0
  0
LINE
  5
3B2C
330
3AE4
100
AcDbEntity
  8
0
 62
     0
100
AcDbLine
 10
791.5089900578524
 20
1244.958539759404
 30
0.0
 11
789.5089900578526
 21
1246.958539759404
 31
0.0
  0
LINE
  5
3B2D
330
3AE4
100
AcDbEntity
  8
0
 62
     0
100
AcDbLine
 10
791.5089900578524
 20
1247.78696688415
 30
0.0
 11
789.5089900578526
 21
1249.78696688415
 31
0.0
  0
LINE
  5
3B2E
330
3AE4
100
AcDbEntity
  8
0
 62
     0
100
AcDbLine
 10
791.5089900578524
 20
1250.615394008896
 30
0.0
 11
789.5089900578526
 21
1252.615394008896
 31
0.0
  0
LINE
  5
3B2F
330
3AE4
100
AcDbEntity
  8
0
 62
     0
100
AcDbLine
 10
791.5089900578524
 20
1253.443821133642
 30
0.0
 11
789.5089900578526
 21
1255.443821133643
 31
0.0
  0
LINE
  5
3B30
330
3AE4
100
AcDbEntity
  8
0
 62
     0
100
AcDbLine
 10
791.5089900578524
 20
1256.272248258389
 30
0.0
 11
789.5089900578526
 21
1258.272248258389
 31
0.0
  0
LINE
  5
3B31
330
3AE4
100
AcDbEntity
  8
0
 62
     0
100
AcDbLine
 10
791.5089900578524
 20
1259.100675383135
 30
0.0
 11
789.5089900578526
 21
1261.100675383135
 31
0.0
  0
LINE
  5
3B32
330
3AE4
100
AcDbEntity
  8
0
 62
     0
100
AcDbLine
 10
791.5089900578524
 20
1261.929102507881
 30
0.0
 11
789.5089900578526
 21
1263.929102507881
 31
0.0
  0
LINE
  5
3B33
330
3AE4
100
AcDbEntity
  8
0
 62
     0
100
AcDbLine
 10
791.5089900578524
 20
1264.757529632627
 30
0.0
 11
789.5089900578526
 21
1266.757529632627
 31
0.0
  0
LINE
  5
3B34
330
3AE4
100
AcDbEntity
  8
0
 62
     0
100
AcDbLine
 10
791.5089900578524
 20
1267.585956757373
 30
0.0
 11
789.5089900578526
 21
1269.585956757373
 31
0.0
  0
LINE
  5
3B35
330
3AE4
100
AcDbEntity
  8
0
 62
     0
100
AcDbLine
 10
791.5089900578524
 20
1270.41438388212
 30
0.0
 11
789.5089900578526
 21
1272.41438388212
 31
0.0
  0
LINE
  5
3B36
330
3AE4
100
AcDbEntity
  8
0
 62
     0
100
AcDbLine
 10
791.5089900578524
 20
1273.242811006866
 30
0.0
 11
789.5089900578526
 21
1275.242811006866
 31
0.0
  0
LINE
  5
3B37
330
3AE4
100
AcDbEntity
  8
0
 62
     0
100
AcDbLine
 10
791.5089900578524
 20
1276.071238131612
 30
0.0
 11
789.5089900578526
 21
1278.071238131612
 31
0.0
  0
LINE
  5
3B38
330
3AE4
100
AcDbEntity
  8
0
 62
     0
100
AcDbLine
 10
791.5089900578524
 20
1278.899665256358
 30
0.0
 11
789.5089900578526
 21
1280.899665256358
 31
0.0
  0
LINE
  5
3B39
330
3AE4
100
AcDbEntity
  8
0
 62
     0
100
AcDbLine
 10
791.5089900578524
 20
1281.728092381104
 30
0.0
 11
790.8804984412963
 21
1282.356583997661
 31
0.0
  0
ENDBLK
  5
3B3A
330
3AE4
100
AcDbEntity
  8
0
100
AcDbBlockEnd
  0
BLOCK
  5
3B3C
330
3B3B
100
AcDbEntity
  8
0
100
AcDbBlockBegin
  2
*X7
 70
     1
 10
0.0
 20
0.0
 30
0.0
  3
*X7
  1

  0
LINE
  5
3B3D
330
3B3B
100
AcDbEntity
  8
0
 62
     0
100
AcDbLine
 10
1045.822658572659
 20
1001.958579743583
 30
0.0
 11
1043.709149567191
 21
1004.07208874905
 31
0.0
  0
LINE
  5
3B3E
330
3B3B
100
AcDbEntity
  8
0
 62
     0
100
AcDbLine
 10
940.1472082993047
 20
1107.634030016937
 30
0.0
 11
938.0336992938376
 21
1109.747539022404
 31
0.0
  0
LINE
  5
3B3F
330
3B3B
100
AcDbEntity
  8
0
 62
     0
100
AcDbLine
 10
1042.837801729273
 20
1002.115009462222
 30
0.0
 11
1040.724292723806
 21
1004.228518467689
 31
0.0
  0
LINE
  5
3B40
330
3B3B
100
AcDbEntity
  8
0
 62
     0
100
AcDbLine
 10
937.1623514559187
 20
1107.790459735576
 30
0.0
 11
935.0488424504519
 21
1109.903968741043
 31
0.0
  0
LINE
  5
3B41
330
3B3B
100
AcDbEntity
  8
0
 62
     0
100
AcDbLine
 10
1039.852944885887
 20
1002.271439180862
 30
0.0
 11
1037.73943588042
 21
1004.384948186329
 31
0.0
  0
LINE
  5
3B42
330
3B3B
100
AcDbEntity
  8
0
 62
     0
100
AcDbLine
 10
934.177494612533
 20
1107.946889454216
 30
0.0
 11
932.0639856070659
 21
1110.060398459683
 31
0.0
  0
LINE
  5
3B43
330
3B3B
100
AcDbEntity
  8
0
 62
     0
100
AcDbLine
 10
1036.868088042501
 20
1002.427868899501
 30
0.0
 11
1034.754579037034
 21
1004.541377904969
 31
0.0
  0
LINE
  5
3B44
330
3B3B
100
AcDbEntity
  8
0
 62
     0
100
AcDbLine
 10
931.1926377691472
 20
1108.103319172855
 30
0.0
 11
929.0791287636801
 21
1110.216828178323
 31
0.0
  0
LINE
  5
3B45
330
3B3B
100
AcDbEntity
  8
0
 62
     0
100
AcDbLine
 10
1033.883231199115
 20
1002.584298618141
 30
0.0
 11
1031.769722193648
 21
1004.697807623608
 31
0.0
  0
LINE
  5
3B46
330
3B3B
100
AcDbEntity
  8
0
 62
     0
100
AcDbLine
 10
928.2077809257613
 20
1108.259748891495
 30
0.0
 11
926.0942719202942
 21
1110.373257896962
 31
0.0
  0
LINE
  5
3B47
330
3B3B
100
AcDbEntity
  8
0
 62
     0
100
AcDbLine
 10
1030.89837435573
 20
1002.740728336781
 30
0.0
 11
1028.784865350262
 21
1004.854237342248
 31
0.0
  0
LINE
  5
3B48
330
3B3B
100
AcDbEntity
  8
0
 62
     0
100
AcDbLine
 10
925.2229240823755
 20
1108.416178610135
 30
0.0
 11
923.1094150769086
 21
1110.529687615602
 31
0.0
  0
LINE
  5
3B49
330
3B3B
100
AcDbEntity
  8
0
 62
     0
100
AcDbLine
 10
1027.913517512343
 20
1002.89715805542
 30
0.0
 11
1025.800008506876
 21
1005.010667060888
 31
0.0
  0
LINE
  5
3B4A
330
3B3B
100
AcDbEntity
  8
0
 62
     0
100
AcDbLine
 10
922.2380672389896
 20
1108.572608328774
 30
0.0
 11
920.1245582335227
 21
1110.686117334242
 31
0.0
  0
LINE
  5
3B4B
330
3B3B
100
AcDbEntity
  8
0
 62
     0
100
AcDbLine
 10
1024.928660668958
 20
1003.05358777406
 30
0.0
 11
1022.815151663491
 21
1005.167096779527
 31
0.0
  0
LINE
  5
3B4C
330
3B3B
100
AcDbEntity
  8
0
 62
     0
100
AcDbLine
 10
919.2532103956038
 20
1108.729038047414
 30
0.0
 11
917.1397013901369
 21
1110.842547052881
 31
0.0
  0
LINE
  5
3B4D
330
3B3B
100
AcDbEntity
  8
0
 62
     0
100
AcDbLine
 10
1021.943803825572
 20
1003.2100174927
 30
0.0
 11
1019.830294820105
 21
1005.323526498167
 31
0.0
  0
LINE
  5
3B4E
330
3B3B
100
AcDbEntity
  8
0
 62
     0
100
AcDbLine
 10
916.2683535522178
 20
1108.885467766054
 30
0.0
 11
914.154844546751
 21
1110.998976771521
 31
0.0
  0
LINE
  5
3B4F
330
3B3B
100
AcDbEntity
  8
0
 62
     0
100
AcDbLine
 10
1018.958946982186
 20
1003.366447211339
 30
0.0
 11
1016.845437976719
 21
1005.479956216806
 31
0.0
  0
LINE
  5
3B50
330
3B3B
100
AcDbEntity
  8
0
 62
     0
100
AcDbLine
 10
913.2834967088323
 20
1109.041897484693
 30
0.0
 11
911.1699877033652
 21
1111.15540649016
 31
0.0
  0
LINE
  5
3B51
330
3B3B
100
AcDbEntity
  8
0
 62
     0
100
AcDbLine
 10
1015.9740901388
 20
1003.522876929979
 30
0.0
 11
1013.860581133333
 21
1005.636385935446
 31
0.0
  0
LINE
  5
3B52
330
3B3B
100
AcDbEntity
  8
0
 62
     0
100
AcDbLine
 10
910.2986398654463
 20
1109.198327203333
 30
0.0
 11
908.1851308599793
 21
1111.3118362088
 31
0.0
  0
LINE
  5
3B53
330
3B3B
100
AcDbEntity
  8
0
 62
     0
100
AcDbLine
 10
1012.989233295415
 20
1003.679306648619
 30
0.0
 11
1010.875724289947
 21
1005.792815654086
 31
0.0
  0
LINE
  5
3B54
330
3B3B
100
AcDbEntity
  8
0
 62
     0
100
AcDbLine
 10
907.3137830220606
 20
1109.354756921972
 30
0.0
 11
905.2002740165935
 21
1111.46826592744
 31
0.0
  0
LINE
  5
3B55
330
3B3B
100
AcDbEntity
  8
0
 62
     0
100
AcDbLine
 10
1010.004376452029
 20
1003.835736367258
 30
0.0
 11
1007.890867446561
 21
1005.949245372725
 31
0.0
  0
LINE
  5
3B56
330
3B3B
100
AcDbEntity
  8
0
 62
     0
100
AcDbLine
 10
904.3289261786746
 20
1109.511186640612
 30
0.0
 11
902.2154171732077
 21
1111.624695646079
 31
0.0
  0
LINE
  5
3B57
330
3B3B
100
AcDbEntity
  8
0
 62
     0
100
AcDbLine
 10
1007.019519608643
 20
1003.992166085898
 30
0.0
 11
1004.906010603176
 21
1006.105675091365
 31
0.0
  0
LINE
  5
3B58
330
3B3B
100
AcDbEntity
  8
0
 62
     0
100
AcDbLine
 10
901.3440693352888
 20
1109.667616359252
 30
0.0
 11
899.230560329822
 21
1111.781125364719
 31
0.0
  0
LINE
  5
3B59
330
3B3B
100
AcDbEntity
  8
0
 62
     0
100
AcDbLine
 10
1004.034662765257
 20
1004.148595804537
 30
0.0
 11
1001.92115375979
 21
1006.262104810005
 31
0.0
  0
LINE
  5
3B5A
330
3B3B
100
AcDbEntity
  8
0
 62
     0
100
AcDbLine
 10
898.3592124919029
 20
1109.824046077892
 30
0.0
 11
896.245703486436
 21
1111.937555083359
 31
0.0
  0
LINE
  5
3B5B
330
3B3B
100
AcDbEntity
  8
0
 62
     0
100
AcDbLine
 10
1001.049805921871
 20
1004.305025523177
 30
0.0
 11
998.9362969164041
 21
1006.418534528644
 31
0.0
  0
LINE
  5
3B5C
330
3B3B
100
AcDbEntity
  8
0
 62
     0
100
AcDbLine
 10
895.3743556485171
 20
1109.980475796531
 30
0.0
 11
893.2608466430503
 21
1112.093984801998
 31
0.0
  0
LINE
  5
3B5D
330
3B3B
100
AcDbEntity
  8
0
 62
     0
100
AcDbLine
 10
998.0649490784855
 20
1004.461455241817
 30
0.0
 11
995.9514400730183
 21
1006.574964247284
 31
0.0
  0
LINE
  5
3B5E
330
3B3B
100
AcDbEntity
  8
0
 62
     0
100
AcDbLine
 10
892.3894988051314
 20
1110.136905515171
 30
0.0
 11
890.2759897996643
 21
1112.250414520638
 31
0.0
  0
LINE
  5
3B5F
330
3B3B
100
AcDbEntity
  8
0
 62
     0
100
AcDbLine
 10
995.0800922350998
 20
1004.617884960457
 30
0.0
 11
992.9665832296324
 21
1006.731393965924
 31
0.0
  0
LINE
  5
3B60
330
3B3B
100
AcDbEntity
  8
0
 62
     0
100
AcDbLine
 10
889.4046419617456
 20
1110.29333523381
 30
0.0
 11
887.2911329562786
 21
1112.406844239278
 31
0.0
  0
LINE
  5
3B61
330
3B3B
100
AcDbEntity
  8
0
 62
     0
100
AcDbLine
 10
992.0952353917138
 20
1004.774314679096
 30
0.0
 11
989.9817263862466
 21
1006.887823684563
 31
0.0
  0
LINE
  5
3B62
330
3B3B
100
AcDbEntity
  8
0
 62
     0
100
AcDbLine
 10
886.4197851183597
 20
1110.44976495245
 30
0.0
 11
884.3062761128928
 21
1112.563273957917
 31
0.0
  0
LINE
  5
3B63
330
3B3B
100
AcDbEntity
  8
0
 62
     0
100
AcDbLine
 10
989.1103785483281
 20
1004.930744397736
 30
0.0
 11
986.9968695428607
 21
1007.044253403203
 31
0.0
  0
LINE
  5
3B64
330
3B3B
100
AcDbEntity
  8
0
 62
     0
100
AcDbLine
 10
883.4349282749739
 20
1110.60619467109
 30
0.0
 11
881.3214192695069
 21
1112.719703676557
 31
0.0
  0
LINE
  5
3B65
330
3B3B
100
AcDbEntity
  8
0
 62
     0
100
AcDbLine
 10
986.1255217049421
 20
1005.087174116375
 30
0.0
 11
984.0120126994749
 21
1007.200683121842
 31
0.0
  0
LINE
  5
3B66
330
3B3B
100
AcDbEntity
  8
0
 62
     0
100
AcDbLine
 10
880.450071431588
 20
1110.762624389729
 30
0.0
 11
878.3365624261211
 21
1112.876133395196
 31
0.0
  0
LINE
  5
3B67
330
3B3B
100
AcDbEntity
  8
0
 62
     0
100
AcDbLine
 10
983.1406648615564
 20
1005.243603835015
 30
0.0
 11
981.027155856089
 21
1007.357112840482
 31
0.0
  0
LINE
  5
3B68
330
3B3B
100
AcDbEntity
  8
0
 62
     0
100
AcDbLine
 10
877.4652145882022
 20
1110.919054108369
 30
0.0
 11
875.3517055827352
 21
1113.032563113836
 31
0.0
  0
LINE
  5
3B69
330
3B3B
100
AcDbEntity
  8
0
 62
     0
100
AcDbLine
 10
980.1558080181704
 20
1005.400033553655
 30
0.0
 11
978.0422990127032
 21
1007.513542559122
 31
0.0
  0
LINE
  5
3B6A
330
3B3B
100
AcDbEntity
  8
0
 62
     0
100
AcDbLine
 10
874.4803577448164
 20
1111.075483827009
 30
0.0
 11
872.3668487393494
 21
1113.188992832476
 31
0.0
  0
LINE
  5
3B6B
330
3B3B
100
AcDbEntity
  8
0
 62
     0
100
AcDbLine
 10
977.1709511747848
 20
1005.556463272294
 30
0.0
 11
975.0574421693173
 21
1007.669972277762
 31
0.0
  0
LINE
  5
3B6C
330
3B3B
100
AcDbEntity
  8
0
 62
     0
100
AcDbLine
 10
871.4955009014305
 20
1111.231913545648
 30
0.0
 11
869.3819918959636
 21
1113.345422551115
 31
0.0
  0
LINE
  5
3B6D
330
3B3B
100
AcDbEntity
  8
0
 62
     0
100
AcDbLine
 10
974.1860943313989
 20
1005.712892990934
 30
0.0
 11
972.0725853259317
 21
1007.826401996401
 31
0.0
  0
LINE
  5
3B6E
330
3B3B
100
AcDbEntity
  8
0
 62
     0
100
AcDbLine
 10
868.5106440580447
 20
1111.388343264288
 30
0.0
 11
866.3971350525779
 21
1113.501852269755
 31
0.0
  0
LINE
  5
3B6F
330
3B3B
100
AcDbEntity
  8
0
 62
     0
100
AcDbLine
 10
971.2012374880131
 20
1005.869322709574
 30
0.0
 11
969.0877284825457
 21
1007.982831715041
 31
0.0
  0
LINE
  5
3B70
330
3B3B
100
AcDbEntity
  8
0
 62
     0
100
AcDbLine
 10
865.525787214659
 20
1111.544772982927
 30
0.0
 11
863.4122782091919
 21
1113.658281988395
 31
0.0
  0
LINE
  5
3B71
330
3B3B
100
AcDbEntity
  8
0
 62
     0
100
AcDbLine
 10
968.2163806446272
 20
1006.025752428213
 30
0.0
 11
966.10287163916
 21
1008.13926143368
 31
0.0
  0
LINE
  5
3B72
330
3B3B
100
AcDbEntity
  8
0
 62
     0
100
AcDbLine
 10
862.540930371273
 20
1111.701202701567
 30
0.0
 11
860.4274213658062
 21
1113.814711707034
 31
0.0
  0
LINE
  5
3B73
330
3B3B
100
AcDbEntity
  8
0
 62
     0
100
AcDbLine
 10
965.2315238012414
 20
1006.182182146853
 30
0.0
 11
963.118014795774
 21
1008.29569115232
 31
0.0
  0
LINE
  5
3B74
330
3B3B
100
AcDbEntity
  8
0
 62
     0
100
AcDbLine
 10
859.5560735278873
 20
1111.857632420207
 30
0.0
 11
857.4425645224202
 21
1113.971141425674
 31
0.0
  0
LINE
  5
3B75
330
3B3B
100
AcDbEntity
  8
0
 62
     0
100
AcDbLine
 10
962.2466669578555
 20
1006.338611865492
 30
0.0
 11
960.1331579523883
 21
1008.45212087096
 31
0.0
  0
LINE
  5
3B76
330
3B3B
100
AcDbEntity
  8
0
 62
     0
100
AcDbLine
 10
856.5712166845015
 20
1112.014062138847
 30
0.0
 11
854.4577076790345
 21
1114.127571144314
 31
0.0
  0
LINE
  5
3B77
330
3B3B
100
AcDbEntity
  8
0
 62
     0
100
AcDbLine
 10
959.2618101144697
 20
1006.495041584132
 30
0.0
 11
957.1483011090023
 21
1008.608550589599
 31
0.0
  0
LINE
  5
3B78
330
3B3B
100
AcDbEntity
  8
0
 62
     0
100
AcDbLine
 10
853.5863598411156
 20
1112.170491857486
 30
0.0
 11
851.4728508356485
 21
1114.284000862953
 31
0.0
  0
LINE
  5
3B79
330
3B3B
100
AcDbEntity
  8
0
 62
     0
100
AcDbLine
 10
956.276953271084
 20
1006.651471302772
 30
0.0
 11
954.1634442656166
 21
1008.764980308239
 31
0.0
  0
LINE
  5
3B7A
330
3B3B
100
AcDbEntity
  8
0
 62
     0
100
AcDbLine
 10
850.6015029977298
 20
1112.326921576126
 30
0.0
 11
848.4879939922629
 21
1114.440430581593
 31
0.0
  0
LINE
  5
3B7B
330
3B3B
100
AcDbEntity
  8
0
 62
     0
100
AcDbLine
 10
953.292096427698
 20
1006.807901021411
 30
0.0
 11
951.1785874222308
 21
1008.921410026879
 31
0.0
  0
LINE
  5
3B7C
330
3B3B
100
AcDbEntity
  8
0
 62
     0
100
AcDbLine
 10
847.6166461543439
 20
1112.483351294765
 30
0.0
 11
845.503137148877
 21
1114.596860300232
 31
0.0
  0
LINE
  5
3B7D
330
3B3B
100
AcDbEntity
  8
0
 62
     0
100
AcDbLine
 10
950.3072395843123
 20
1006.964330740051
 30
0.0
 11
948.1937305788449
 21
1009.077839745518
 31
0.0
  0
LINE
  5
3B7E
330
3B3B
100
AcDbEntity
  8
0
 62
     0
100
AcDbLine
 10
844.6317893109581
 20
1112.639781013405
 30
0.0
 11
842.5182803054912
 21
1114.753290018872
 31
0.0
  0
LINE
  5
3B7F
330
3B3B
100
AcDbEntity
  8
0
 62
     0
100
AcDbLine
 10
947.3223827409265
 20
1007.120760458691
 30
0.0
 11
945.2088737354591
 21
1009.234269464158
 31
0.0
  0
LINE
  5
3B80
330
3B3B
100
AcDbEntity
  8
0
 62
     0
100
AcDbLine
 10
841.6469324675722
 20
1112.796210732045
 30
0.0
 11
839.5334234621053
 21
1114.909719737512
 31
0.0
  0
LINE
  5
3B81
330
3B3B
100
AcDbEntity
  8
0
 62
     0
100
AcDbLine
 10
944.3375258975406
 20
1007.27719017733
 30
0.0
 11
942.2240168920732
 21
1009.390699182797
 31
0.0
  0
LINE
  5
3B82
330
3B3B
100
AcDbEntity
  8
0
 62
     0
100
AcDbLine
 10
838.6620756241864
 20
1112.952640450684
 30
0.0
 11
836.5485666187195
 21
1115.066149456152
 31
0.0
  0
LINE
  5
3B83
330
3B3B
100
AcDbEntity
  8
0
 62
     0
100
AcDbLine
 10
941.3526690541548
 20
1007.43361989597
 30
0.0
 11
939.2391600486874
 21
1009.547128901437
 31
0.0
  0
LINE
  5
3B84
330
3B3B
100
AcDbEntity
  8
0
 62
     0
100
AcDbLine
 10
835.6772187808006
 20
1113.109070169324
 30
0.0
 11
833.5637097753336
 21
1115.222579174791
 31
0.0
  0
LINE
  5
3B85
330
3B3B
100
AcDbEntity
  8
0
 62
     0
100
AcDbLine
 10
938.367812210769
 20
1007.590049614609
 30
0.0
 11
936.2543032053016
 21
1009.703558620077
 31
0.0
  0
LINE
  5
3B86
330
3B3B
100
AcDbEntity
  8
0
 62
     0
100
AcDbLine
 10
832.6923619374149
 20
1113.265499887964
 30
0.0
 11
830.5788529319478
 21
1115.379008893431
 31
0.0
  0
LINE
  5
3B87
330
3B3B
100
AcDbEntity
  8
0
 62
     0
100
AcDbLine
 10
935.3829553673831
 20
1007.746479333249
 30
0.0
 11
933.2694463619159
 21
1009.859988338716
 31
0.0
  0
LINE
  5
3B88
330
3B3B
100
AcDbEntity
  8
0
 62
     0
100
AcDbLine
 10
829.7075050940289
 20
1113.421929606603
 30
0.0
 11
827.5939960885619
 21
1115.53543861207
 31
0.0
  0
LINE
  5
3B89
330
3B3B
100
AcDbEntity
  8
0
 62
     0
100
AcDbLine
 10
932.3980985239973
 20
1007.902909051889
 30
0.0
 11
930.2845895185299
 21
1010.016418057356
 31
0.0
  0
LINE
  5
3B8A
330
3B3B
100
AcDbEntity
  8
0
 62
     0
100
AcDbLine
 10
826.7226482506432
 20
1113.578359325243
 30
0.0
 11
824.6091392451761
 21
1115.69186833071
 31
0.0
  0
LINE
  5
3B8B
330
3B3B
100
AcDbEntity
  8
0
 62
     0
100
AcDbLine
 10
929.4132416806114
 20
1008.059338770529
 30
0.0
 11
927.2997326751442
 21
1010.172847775996
 31
0.0
  0
LINE
  5
3B8C
330
3B3B
100
AcDbEntity
  8
0
 62
     0
100
AcDbLine
 10
823.7377914072572
 20
1113.734789043883
 30
0.0
 11
821.6242824017903
 21
1115.84829804935
 31
0.0
  0
LINE
  5
3B8D
330
3B3B
100
AcDbEntity
  8
0
 62
     0
100
AcDbLine
 10
926.4283848372256
 20
1008.215768489168
 30
0.0
 11
924.3148758317582
 21
1010.329277494635
 31
0.0
  0
LINE
  5
3B8E
330
3B3B
100
AcDbEntity
  8
0
 62
     0
100
AcDbLine
 10
820.7529345638715
 20
1113.891218762522
 30
0.0
 11
818.6394255584046
 21
1116.004727767989
 31
0.0
  0
LINE
  5
3B8F
330
3B3B
100
AcDbEntity
  8
0
 62
     0
100
AcDbLine
 10
923.4435279938399
 20
1008.372198207808
 30
0.0
 11
921.3300189883725
 21
1010.485707213275
 31
0.0
  0
LINE
  5
3B90
330
3B3B
100
AcDbEntity
  8
0
 62
     0
100
AcDbLine
 10
817.7680777204855
 20
1114.047648481162
 30
0.0
 11
815.6545687150186
 21
1116.161157486629
 31
0.0
  0
LINE
  5
3B91
330
3B3B
100
AcDbEntity
  8
0
 62
     0
100
AcDbLine
 10
920.4586711504541
 20
1008.528627926447
 30
0.0
 11
918.3451621449865
 21
1010.642136931915
 31
0.0
  0
LINE
  5
3B92
330
3B3B
100
AcDbEntity
  8
0
 62
     0
100
AcDbLine
 10
814.7832208770999
 20
1114.204078199801
 30
0.0
 11
812.6697118716329
 21
1116.317587205268
 31
0.0
  0
LINE
  5
3B93
330
3B3B
100
AcDbEntity
  8
0
 62
     0
100
AcDbLine
 10
917.4738143070682
 20
1008.685057645087
 30
0.0
 11
915.3603053016007
 21
1010.798566650554
 31
0.0
  0
LINE
  5
3B94
330
3B3B
100
AcDbEntity
  8
0
 62
     0
100
AcDbLine
 10
811.798364033714
 20
1114.360507918441
 30
0.0
 11
809.6848550282469
 21
1116.474016923908
 31
0.0
  0
LINE
  5
3B95
330
3B3B
100
AcDbEntity
  8
0
 62
     0
100
AcDbLine
 10
914.4889574636824
 20
1008.841487363727
 30
0.0
 11
912.3754484582148
 21
1010.954996369194
 31
0.0
  0
LINE
  5
3B96
330
3B3B
100
AcDbEntity
  8
0
 62
     0
100
AcDbLine
 10
808.8135071903282
 20
1114.516937637081
 30
0.0
 11
806.6999981848612
 21
1116.630446642548
 31
0.0
  0
LINE
  5
3B97
330
3B3B
100
AcDbEntity
  8
0
 62
     0
100
AcDbLine
 10
911.5041006202964
 20
1008.997917082366
 30
0.0
 11
909.390591614829
 21
1011.111426087833
 31
0.0
  0
LINE
  5
3B98
330
3B3B
100
AcDbEntity
  8
0
 62
     0
100
AcDbLine
 10
805.8286503469423
 20
1114.67336735572
 30
0.0
 11
803.7151413414754
 21
1116.786876361187
 31
0.0
  0
LINE
  5
3B99
330
3B3B
100
AcDbEntity
  8
0
 62
     0
100
AcDbLine
 10
908.5192437769107
 20
1009.154346801006
 30
0.0
 11
906.4057347714433
 21
1011.267855806473
 31
0.0
  0
LINE
  5
3B9A
330
3B3B
100
AcDbEntity
  8
0
 62
     0
100
AcDbLine
 10
802.8437935035565
 20
1114.82979707436
 30
0.0
 11
800.7302844980895
 21
1116.943306079827
 31
0.0
  0
LINE
  5
3B9B
330
3B3B
100
AcDbEntity
  8
0
 62
     0
100
AcDbLine
 10
905.5343869335247
 20
1009.310776519646
 30
0.0
 11
903.4208779280573
 21
1011.424285525113
 31
0.0
  0
LINE
  5
3B9C
330
3B3B
100
AcDbEntity
  8
0
 62
     0
100
AcDbLine
 10
799.8589366601707
 20
1114.986226793
 30
0.0
 11
797.7454276547038
 21
1117.099735798467
 31
0.0
  0
LINE
  5
3B9D
330
3B3B
100
AcDbEntity
  8
0
 62
     0
100
AcDbLine
 10
902.549530090139
 20
1009.467206238285
 30
0.0
 11
900.4360210846716
 21
1011.580715243753
 31
0.0
  0
LINE
  5
3B9E
330
3B3B
100
AcDbEntity
  8
0
 62
     0
100
AcDbLine
 10
796.8740798167848
 20
1115.142656511639
 30
0.0
 11
794.7605708113179
 21
1117.256165517106
 31
0.0
  0
LINE
  5
3B9F
330
3B3B
100
AcDbEntity
  8
0
 62
     0
100
AcDbLine
 10
899.5646732467532
 20
1009.623635956925
 30
0.0
 11
897.4511642412858
 21
1011.737144962392
 31
0.0
  0
LINE
  5
3BA0
330
3B3B
100
AcDbEntity
  8
0
 62
     0
100
AcDbLine
 10
793.889222973399
 20
1115.299086230279
 30
0.0
 11
791.7757139679321
 21
1117.412595235746
 31
0.0
  0
LINE
  5
3BA1
330
3B3B
100
AcDbEntity
  8
0
 62
     0
100
AcDbLine
 10
896.5798164033675
 20
1009.780065675564
 30
0.0
 11
894.4663073978999
 21
1011.893574681032
 31
0.0
  0
LINE
  5
3BA2
330
3B3B
100
AcDbEntity
  8
0
 62
     0
100
AcDbLine
 10
893.5949595599815
 20
1009.936495394204
 30
0.0
 11
891.4814505545141
 21
1012.050004399671
 31
0.0
  0
LINE
  5
3BA3
330
3B3B
100
AcDbEntity
  8
0
 62
     0
100
AcDbLine
 10
890.6101027165957
 20
1010.092925112844
 30
0.0
 11
888.4965937111283
 21
1012.206434118311
 31
0.0
  0
LINE
  5
3BA4
330
3B3B
100
AcDbEntity
  8
0
 62
     0
100
AcDbLine
 10
887.6252458732098
 20
1010.249354831483
 30
0.0
 11
885.5117368677424
 21
1012.362863836951
 31
0.0
  0
LINE
  5
3BA5
330
3B3B
100
AcDbEntity
  8
0
 62
     0
100
AcDbLine
 10
884.640389029824
 20
1010.405784550123
 30
0.0
 11
882.5268800243566
 21
1012.51929355559
 31
0.0
  0
LINE
  5
3BA6
330
3B3B
100
AcDbEntity
  8
0
 62
     0
100
AcDbLine
 10
881.6555321864383
 20
1010.562214268763
 30
0.0
 11
879.5420231809707
 21
1012.67572327423
 31
0.0
  0
LINE
  5
3BA7
330
3B3B
100
AcDbEntity
  8
0
 62
     0
100
AcDbLine
 10
878.6706753430523
 20
1010.718643987402
 30
0.0
 11
876.5571663375849
 21
1012.83215299287
 31
0.0
  0
LINE
  5
3BA8
330
3B3B
100
AcDbEntity
  8
0
 62
     0
100
AcDbLine
 10
875.6858184996666
 20
1010.875073706042
 30
0.0
 11
873.572309494199
 21
1012.988582711509
 31
0.0
  0
LINE
  5
3BA9
330
3B3B
100
AcDbEntity
  8
0
 62
     0
100
AcDbLine
 10
872.7009616562808
 20
1011.031503424682
 30
0.0
 11
870.5874526508132
 21
1013.145012430149
 31
0.0
  0
LINE
  5
3BAA
330
3B3B
100
AcDbEntity
  8
0
 62
     0
100
AcDbLine
 10
869.7161048128949
 20
1011.187933143321
 30
0.0
 11
867.6025958074275
 21
1013.301442148788
 31
0.0
  0
LINE
  5
3BAB
330
3B3B
100
AcDbEntity
  8
0
 62
     0
100
AcDbLine
 10
866.7312479695091
 20
1011.344362861961
 30
0.0
 11
864.6177389640415
 21
1013.457871867428
 31
0.0
  0
LINE
  5
3BAC
330
3B3B
100
AcDbEntity
  8
0
 62
     0
100
AcDbLine
 10
863.7463911261233
 20
1011.5007925806
 30
0.0
 11
861.6328821206558
 21
1013.614301586068
 31
0.0
  0
LINE
  5
3BAD
330
3B3B
100
AcDbEntity
  8
0
 62
     0
100
AcDbLine
 10
860.7615342827374
 20
1011.65722229924
 30
0.0
 11
858.64802527727
 21
1013.770731304707
 31
0.0
  0
LINE
  5
3BAE
330
3B3B
100
AcDbEntity
  8
0
 62
     0
100
AcDbLine
 10
857.7766774393516
 20
1011.81365201788
 30
0.0
 11
855.6631684338841
 21
1013.927161023347
 31
0.0
  0
LINE
  5
3BAF
330
3B3B
100
AcDbEntity
  8
0
 62
     0
100
AcDbLine
 10
854.7918205959657
 20
1011.970081736519
 30
0.0
 11
852.6783115904983
 21
1014.083590741987
 31
0.0
  0
LINE
  5
3BB0
330
3B3B
100
AcDbEntity
  8
0
 62
     0
100
AcDbLine
 10
851.8069637525799
 20
1012.126511455159
 30
0.0
 11
849.6934547471123
 21
1014.240020460627
 31
0.0
  0
LINE
  5
3BB1
330
3B3B
100
AcDbEntity
  8
0
 62
     0
100
AcDbLine
 10
848.822106909194
 20
1012.282941173799
 30
0.0
 11
846.7085979037266
 21
1014.396450179266
 31
0.0
  0
LINE
  5
3BB2
330
3B3B
100
AcDbEntity
  8
0
 62
     0
100
AcDbLine
 10
845.8372500658082
 20
1012.439370892438
 30
0.0
 11
843.7237410603408
 21
1014.552879897906
 31
0.0
  0
LINE
  5
3BB3
330
3B3B
100
AcDbEntity
  8
0
 62
     0
100
AcDbLine
 10
842.8523932224225
 20
1012.595800611078
 30
0.0
 11
840.7388842169549
 21
1014.709309616545
 31
0.0
  0
LINE
  5
3BB4
330
3B3B
100
AcDbEntity
  8
0
 62
     0
100
AcDbLine
 10
839.8675363790367
 20
1012.752230329718
 30
0.0
 11
837.7540273735691
 21
1014.865739335185
 31
0.0
  0
LINE
  5
3BB5
330
3B3B
100
AcDbEntity
  8
0
 62
     0
100
AcDbLine
 10
836.8826795356508
 20
1012.908660048357
 30
0.0
 11
834.7691705301832
 21
1015.022169053825
 31
0.0
  0
LINE
  5
3BB6
330
3B3B
100
AcDbEntity
  8
0
 62
     0
100
AcDbLine
 10
833.897822692265
 20
1013.065089766997
 30
0.0
 11
831.7843136867974
 21
1015.178598772464
 31
0.0
  0
LINE
  5
3BB7
330
3B3B
100
AcDbEntity
  8
0
 62
     0
100
AcDbLine
 10
830.9129658488791
 20
1013.221519485637
 30
0.0
 11
828.7994568434115
 21
1015.335028491104
 31
0.0
  0
LINE
  5
3BB8
330
3B3B
100
AcDbEntity
  8
0
 62
     0
100
AcDbLine
 10
827.9281090054933
 20
1013.377949204276
 30
0.0
 11
825.8146000000259
 21
1015.491458209744
 31
0.0
  0
LINE
  5
3BB9
330
3B3B
100
AcDbEntity
  8
0
 62
     0
100
AcDbLine
 10
824.9432521621073
 20
1013.534378922916
 30
0.0
 11
822.8297431566399
 21
1015.647887928383
 31
0.0
  0
LINE
  5
3BBA
330
3B3B
100
AcDbEntity
  8
0
 62
     0
100
AcDbLine
 10
821.9583953187218
 20
1013.690808641555
 30
0.0
 11
819.8448863132542
 21
1015.804317647023
 31
0.0
  0
LINE
  5
3BBB
330
3B3B
100
AcDbEntity
  8
0
 62
     0
100
AcDbLine
 10
818.9735384753358
 20
1013.847238360195
 30
0.0
 11
816.8600294698682
 21
1015.960747365662
 31
0.0
  0
LINE
  5
3BBC
330
3B3B
100
AcDbEntity
  8
0
 62
     0
100
AcDbLine
 10
815.9886816319501
 20
1014.003668078835
 30
0.0
 11
813.8751726264825
 21
1016.117177084302
 31
0.0
  0
LINE
  5
3BBD
330
3B3B
100
AcDbEntity
  8
0
 62
     0
100
AcDbLine
 10
813.0038247885641
 20
1014.160097797474
 30
0.0
 11
810.8903157830965
 21
1016.273606802942
 31
0.0
  0
LINE
  5
3BBE
330
3B3B
100
AcDbEntity
  8
0
 62
     0
100
AcDbLine
 10
810.0189679451784
 20
1014.316527516114
 30
0.0
 11
807.9054589397108
 21
1016.430036521581
 31
0.0
  0
LINE
  5
3BBF
330
3B3B
100
AcDbEntity
  8
0
 62
     0
100
AcDbLine
 10
807.0341111017924
 20
1014.472957234754
 30
0.0
 11
804.920602096325
 21
1016.586466240221
 31
0.0
  0
LINE
  5
3BC0
330
3B3B
100
AcDbEntity
  8
0
 62
     0
100
AcDbLine
 10
804.0492542584066
 20
1014.629386953393
 30
0.0
 11
801.9357452529391
 21
1016.742895958861
 31
0.0
  0
LINE
  5
3BC1
330
3B3B
100
AcDbEntity
  8
0
 62
     0
100
AcDbLine
 10
801.0643974150209
 20
1014.785816672033
 30
0.0
 11
798.9508884095532
 21
1016.8993256775
 31
0.0
  0
LINE
  5
3BC2
330
3B3B
100
AcDbEntity
  8
0
 62
     0
100
AcDbLine
 10
798.0795405716349
 20
1014.942246390672
 30
0.0
 11
795.9660315661674
 21
1017.05575539614
 31
0.0
  0
LINE
  5
3BC3
330
3B3B
100
AcDbEntity
  8
0
 62
     0
100
AcDbLine
 10
795.0946837282493
 20
1015.098676109312
 30
0.0
 11
792.9811747227816
 21
1017.21218511478
 31
0.0
  0
LINE
  5
3BC4
330
3B3B
100
AcDbEntity
  8
0
 62
     0
100
AcDbLine
 10
792.1098268848634
 20
1015.255105827952
 30
0.0
 11
791.5089900578524
 21
1015.855942654963
 31
0.0
  0
LINE
  5
3BC5
330
3B3B
100
AcDbEntity
  8
0
 62
     0
100
AcDbLine
 10
1048.807515416044
 20
1001.802150024943
 30
0.0
 11
1046.694006410577
 21
1003.91565903041
 31
0.0
  0
LINE
  5
3BC6
330
3B3B
100
AcDbEntity
  8
0
 62
     0
100
AcDbLine
 10
943.1320651426904
 20
1107.477600298297
 30
0.0
 11
941.0185561372236
 21
1109.591109303764
 31
0.0
  0
LINE
  5
3BC7
330
3B3B
100
AcDbEntity
  8
0
 62
     0
100
AcDbLine
 10
1051.79237225943
 20
1001.645720306303
 30
0.0
 11
1049.678863253963
 21
1003.75922931177
 31
0.0
  0
LINE
  5
3BC8
330
3B3B
100
AcDbEntity
  8
0
 62
     0
100
AcDbLine
 10
946.1169219860762
 20
1107.321170579657
 30
0.0
 11
944.0034129806093
 21
1109.434679585124
 31
0.0
  0
LINE
  5
3BC9
330
3B3B
100
AcDbEntity
  8
0
 62
     0
100
AcDbLine
 10
1054.777229102816
 20
1001.489290587664
 30
0.0
 11
1052.663720097349
 21
1003.602799593131
 31
0.0
  0
LINE
  5
3BCA
330
3B3B
100
AcDbEntity
  8
0
 62
     0
100
AcDbLine
 10
949.1017788294621
 20
1107.164740861018
 30
0.0
 11
946.9882698239953
 21
1109.278249866485
 31
0.0
  0
LINE
  5
3BCB
330
3B3B
100
AcDbEntity
  8
0
 62
     0
100
AcDbLine
 10
1057.762085946202
 20
1001.332860869024
 30
0.0
 11
1055.648576940735
 21
1003.446369874491
 31
0.0
  0
LINE
  5
3BCC
330
3B3B
100
AcDbEntity
  8
0
 62
     0
100
AcDbLine
 10
952.0866356728479
 20
1107.008311142378
 30
0.0
 11
949.973126667381
 21
1109.121820147845
 31
0.0
  0
LINE
  5
3BCD
330
3B3B
100
AcDbEntity
  8
0
 62
     0
100
AcDbLine
 10
1060.746942789588
 20
1001.176431150384
 30
0.0
 11
1058.633433784121
 21
1003.289940155851
 31
0.0
  0
LINE
  5
3BCE
330
3B3B
100
AcDbEntity
  8
0
 62
     0
100
AcDbLine
 10
955.0714925162337
 20
1106.851881423738
 30
0.0
 11
952.9579835107668
 21
1108.965390429205
 31
0.0
  0
LINE
  5
3BCF
330
3B3B
100
AcDbEntity
  8
0
 62
     0
100
AcDbLine
 10
1063.731799632974
 20
1001.020001431745
 30
0.0
 11
1061.618290627507
 21
1003.133510437212
 31
0.0
  0
LINE
  5
3BD0
330
3B3B
100
AcDbEntity
  8
0
 62
     0
100
AcDbLine
 10
958.0563493596196
 20
1106.695451705099
 30
0.0
 11
955.9428403541526
 21
1108.808960710566
 31
0.0
  0
LINE
  5
3BD1
330
3B3B
100
AcDbEntity
  8
0
 62
     0
100
AcDbLine
 10
1066.716656476359
 20
1000.863571713105
 30
0.0
 11
1064.603147470892
 21
1002.977080718572
 31
0.0
  0
LINE
  5
3BD2
330
3B3B
100
AcDbEntity
  8
0
 62
     0
100
AcDbLine
 10
961.0412062030054
 20
1106.539021986459
 30
0.0
 11
958.9276971975385
 21
1108.652530991926
 31
0.0
  0
LINE
  5
3BD3
330
3B3B
100
AcDbEntity
  8
0
 62
     0
100
AcDbLine
 10
1069.701513319745
 20
1000.707141994465
 30
0.0
 11
1067.588004314278
 21
1002.820650999932
 31
0.0
  0
LINE
  5
3BD4
330
3B3B
100
AcDbEntity
  8
0
 62
     0
100
AcDbLine
 10
964.0260630463913
 20
1106.38259226782
 30
0.0
 11
961.9125540409243
 21
1108.496101273287
 31
0.0
  0
LINE
  5
3BD5
330
3B3B
100
AcDbEntity
  8
0
 62
     0
100
AcDbLine
 10
1072.686370163131
 20
1000.550712275826
 30
0.0
 11
1070.572861157664
 21
1002.664221281293
 31
0.0
  0
LINE
  5
3BD6
330
3B3B
100
AcDbEntity
  8
0
 62
     0
100
AcDbLine
 10
967.0109198897771
 20
1106.22616254918
 30
0.0
 11
964.8974108843102
 21
1108.339671554647
 31
0.0
  0
LINE
  5
3BD7
330
3B3B
100
AcDbEntity
  8
0
 62
     0
100
AcDbLine
 10
1075.671227006517
 20
1000.394282557186
 30
0.0
 11
1073.55771800105
 21
1002.507791562653
 31
0.0
  0
LINE
  5
3BD8
330
3B3B
100
AcDbEntity
  8
0
 62
     0
100
AcDbLine
 10
969.9957767331628
 20
1106.06973283054
 30
0.0
 11
967.882267727696
 21
1108.183241836007
 31
0.0
  0
LINE
  5
3BD9
330
3B3B
100
AcDbEntity
  8
0
 62
     0
100
AcDbLine
 10
1078.656083849903
 20
1000.237852838546
 30
0.0
 11
1076.542574844435
 21
1002.351361844014
 31
0.0
  0
LINE
  5
3BDA
330
3B3B
100
AcDbEntity
  8
0
 62
     0
100
AcDbLine
 10
972.9806335765486
 20
1105.913303111901
 30
0.0
 11
970.8671245710817
 21
1108.026812117368
 31
0.0
  0
LINE
  5
3BDB
330
3B3B
100
AcDbEntity
  8
0
 62
     0
100
AcDbLine
 10
1081.640940693288
 20
1000.081423119907
 30
0.0
 11
1079.527431687821
 21
1002.194932125374
 31
0.0
  0
LINE
  5
3BDC
330
3B3B
100
AcDbEntity
  8
0
 62
     0
100
AcDbLine
 10
975.9654904199345
 20
1105.756873393261
 30
0.0
 11
973.8519814144677
 21
1107.870382398728
 31
0.0
  0
LINE
  5
3BDD
330
3B3B
100
AcDbEntity
  8
0
 62
     0
100
AcDbLine
 10
1084.625797536674
 20
999.9249934012674
 30
0.0
 11
1082.512288531207
 21
1002.038502406734
 31
0.0
  0
LINE
  5
3BDE
330
3B3B
100
AcDbEntity
  8
0
 62
     0
100
AcDbLine
 10
978.9503472633203
 20
1105.600443674621
 30
0.0
 11
976.8368382578534
 21
1107.713952680088
 31
0.0
  0
LINE
  5
3BDF
330
3B3B
100
AcDbEntity
  8
0
 62
     0
100
AcDbLine
 10
1087.61065438006
 20
999.7685636826277
 30
0.0
 11
1085.497145374593
 21
1001.882072688095
 31
0.0
  0
LINE
  5
3BE0
330
3B3B
100
AcDbEntity
  8
0
 62
     0
100
AcDbLine
 10
981.9352041067062
 20
1105.444013955982
 30
0.0
 11
979.8216951012392
 21
1107.557522961449
 31
0.0
  0
LINE
  5
3BE1
330
3B3B
100
AcDbEntity
  8
0
 62
     0
100
AcDbLine
 10
1090.595511223446
 20
999.6121339639882
 30
0.0
 11
1088.482002217979
 21
1001.725642969455
 31
0.0
  0
LINE
  5
3BE2
330
3B3B
100
AcDbEntity
  8
0
 62
     0
100
AcDbLine
 10
984.920060950092
 20
1105.287584237342
 30
0.0
 11
982.8065519446251
 21
1107.401093242809
 31
0.0
  0
LINE
  5
3BE3
330
3B3B
100
AcDbEntity
  8
0
 62
     0
100
AcDbLine
 10
1093.580368066832
 20
999.4557042453486
 30
0.0
 11
1091.466859061365
 21
1001.569213250815
 31
0.0
  0
LINE
  5
3BE4
330
3B3B
100
AcDbEntity
  8
0
 62
     0
100
AcDbLine
 10
987.9049177934779
 20
1105.131154518702
 30
0.0
 11
985.7914087880109
 21
1107.244663524169
 31
0.0
  0
LINE
  5
3BE5
330
3B3B
100
AcDbEntity
  8
0
 62
     0
100
AcDbLine
 10
1096.565224910218
 20
999.2992745267089
 30
0.0
 11
1094.45171590475
 21
1001.412783532176
 31
0.0
  0
LINE
  5
3BE6
330
3B3B
100
AcDbEntity
  8
0
 62
     0
100
AcDbLine
 10
990.8897746368635
 20
1104.974724800062
 30
0.0
 11
988.7762656313967
 21
1107.08823380553
 31
0.0
  0
LINE
  5
3BE7
330
3B3B
100
AcDbEntity
  8
0
 62
     0
100
AcDbLine
 10
1099.550081753604
 20
999.1428448080693
 30
0.0
 11
1097.436572748136
 21
1001.256353813536
 31
0.0
  0
LINE
  5
3BE8
330
3B3B
100
AcDbEntity
  8
0
 62
     0
100
AcDbLine
 10
993.8746314802495
 20
1104.818295081423
 30
0.0
 11
991.7611224747826
 21
1106.93180408689
 31
0.0
  0
LINE
  5
3BE9
330
3B3B
100
AcDbEntity
  8
0
 62
     0
100
AcDbLine
 10
1102.534938596989
 20
998.9864150894296
 30
0.0
 11
1100.421429591522
 21
1001.099924094897
 31
0.0
  0
LINE
  5
3BEA
330
3B3B
100
AcDbEntity
  8
0
 62
     0
100
AcDbLine
 10
996.8594883236352
 20
1104.661865362783
 30
0.0
 11
994.7459793181684
 21
1106.775374368251
 31
0.0
  0
LINE
  5
3BEB
330
3B3B
100
AcDbEntity
  8
0
 62
     0
100
AcDbLine
 10
1105.519795440375
 20
998.82998537079
 30
0.0
 11
1103.406286434908
 21
1000.943494376257
 31
0.0
  0
LINE
  5
3BEC
330
3B3B
100
AcDbEntity
  8
0
 62
     0
100
AcDbLine
 10
999.8443451670212
 20
1104.505435644144
 30
0.0
 11
997.7308361615543
 21
1106.618944649611
 31
0.0
  0
LINE
  5
3BED
330
3B3B
100
AcDbEntity
  8
0
 62
     0
100
AcDbLine
 10
1108.504652283761
 20
998.6735556521503
 30
0.0
 11
1106.391143278294
 21
1000.787064657617
 31
0.0
  0
LINE
  5
3BEE
330
3B3B
100
AcDbEntity
  8
0
 62
     0
100
AcDbLine
 10
1002.829202010407
 20
1104.349005925504
 30
0.0
 11
1000.71569300494
 21
1106.462514930971
 31
0.0
  0
LINE
  5
3BEF
330
3B3B
100
AcDbEntity
  8
0
 62
     0
100
AcDbLine
 10
1111.489509127147
 20
998.5171259335107
 30
0.0
 11
1109.37600012168
 21
1000.630634938977
 31
0.0
  0
LINE
  5
3BF0
330
3B3B
100
AcDbEntity
  8
0
 62
     0
100
AcDbLine
 10
1005.814058853793
 20
1104.192576206864
 30
0.0
 11
1003.700549848326
 21
1106.306085212332
 31
0.0
  0
LINE
  5
3BF1
330
3B3B
100
AcDbEntity
  8
0
 62
     0
100
AcDbLine
 10
1114.474365970533
 20
998.360696214871
 30
0.0
 11
1112.360856965066
 21
1000.474205220338
 31
0.0
  0
LINE
  5
3BF2
330
3B3B
100
AcDbEntity
  8
0
 62
     0
100
AcDbLine
 10
1008.798915697179
 20
1104.036146488225
 30
0.0
 11
1006.685406691711
 21
1106.149655493692
 31
0.0
  0
LINE
  5
3BF3
330
3B3B
100
AcDbEntity
  8
0
 62
     0
100
AcDbLine
 10
1117.459222813919
 20
998.2042664962314
 30
0.0
 11
1115.345713808451
 21
1000.317775501698
 31
0.0
  0
LINE
  5
3BF4
330
3B3B
100
AcDbEntity
  8
0
 62
     0
100
AcDbLine
 10
1011.783772540564
 20
1103.879716769585
 30
0.0
 11
1009.670263535097
 21
1105.993225775052
 31
0.0
  0
LINE
  5
3BF5
330
3B3B
100
AcDbEntity
  8
0
 62
     0
100
AcDbLine
 10
1120.444079657304
 20
998.0478367775917
 30
0.0
 11
1118.330570651837
 21
1000.161345783059
 31
0.0
  0
LINE
  5
3BF6
330
3B3B
100
AcDbEntity
  8
0
 62
     0
100
AcDbLine
 10
1014.76862938395
 20
1103.723287050946
 30
0.0
 11
1012.655120378483
 21
1105.836796056413
 31
0.0
  0
LINE
  5
3BF7
330
3B3B
100
AcDbEntity
  8
0
 62
     0
100
AcDbLine
 10
1123.42893650069
 20
997.8914070589521
 30
0.0
 11
1121.315427495223
 21
1000.004916064419
 31
0.0
  0
LINE
  5
3BF8
330
3B3B
100
AcDbEntity
  8
0
 62
     0
100
AcDbLine
 10
1017.753486227336
 20
1103.566857332306
 30
0.0
 11
1015.639977221869
 21
1105.680366337773
 31
0.0
  0
LINE
  5
3BF9
330
3B3B
100
AcDbEntity
  8
0
 62
     0
100
AcDbLine
 10
1126.413793344076
 20
997.7349773403124
 30
0.0
 11
1124.300284338609
 21
999.8484863457795
 31
0.0
  0
LINE
  5
3BFA
330
3B3B
100
AcDbEntity
  8
0
 62
     0
100
AcDbLine
 10
1020.738343070722
 20
1103.410427613666
 30
0.0
 11
1018.624834065255
 21
1105.523936619133
 31
0.0
  0
LINE
  5
3BFB
330
3B3B
100
AcDbEntity
  8
0
 62
     0
100
AcDbLine
 10
1129.398650187462
 20
997.5785476216728
 30
0.0
 11
1127.285141181995
 21
999.6920566271398
 31
0.0
  0
LINE
  5
3BFC
330
3B3B
100
AcDbEntity
  8
0
 62
     0
100
AcDbLine
 10
1023.723199914108
 20
1103.253997895027
 30
0.0
 11
1021.609690908641
 21
1105.367506900494
 31
0.0
  0
LINE
  5
3BFD
330
3B3B
100
AcDbEntity
  8
0
 62
     0
100
AcDbLine
 10
1132.383507030848
 20
997.4221179030333
 30
0.0
 11
1130.26999802538
 21
999.5356269085002
 31
0.0
  0
LINE
  5
3BFE
330
3B3B
100
AcDbEntity
  8
0
 62
     0
100
AcDbLine
 10
1026.708056757493
 20
1103.097568176387
 30
0.0
 11
1024.594547752027
 21
1105.211077181854
 31
0.0
  0
LINE
  5
3BFF
330
3B3B
100
AcDbEntity
  8
0
 62
     0
100
AcDbLine
 10
1135.368363874234
 20
997.2656881843937
 30
0.0
 11
1133.254854868766
 21
999.3791971898605
 31
0.0
  0
LINE
  5
3C00
330
3B3B
100
AcDbEntity
  8
0
 62
     0
100
AcDbLine
 10
1029.692913600879
 20
1102.941138457747
 30
0.0
 11
1027.579404595412
 21
1105.054647463215
 31
0.0
  0
LINE
  5
3C01
330
3B3B
100
AcDbEntity
  8
0
 62
     0
100
AcDbLine
 10
1138.353220717619
 20
997.109258465754
 30
0.0
 11
1136.239711712152
 21
999.2227674712209
 31
0.0
  0
LINE
  5
3C02
330
3B3B
100
AcDbEntity
  8
0
 62
     0
100
AcDbLine
 10
1032.677770444265
 20
1102.784708739108
 30
0.0
 11
1030.564261438798
 21
1104.898217744575
 31
0.0
  0
LINE
  5
3C03
330
3B3B
100
AcDbEntity
  8
0
 62
     0
100
AcDbLine
 10
1141.338077561005
 20
996.9528287471144
 30
0.0
 11
1139.224568555538
 21
999.0663377525812
 31
0.0
  0
LINE
  5
3C04
330
3B3B
100
AcDbEntity
  8
0
 62
     0
100
AcDbLine
 10
1035.662627287651
 20
1102.628279020468
 30
0.0
 11
1033.549118282184
 21
1104.741788025935
 31
0.0
  0
LINE
  5
3C05
330
3B3B
100
AcDbEntity
  8
0
 62
     0
100
AcDbLine
 10
1144.322934404391
 20
996.7963990284747
 30
0.0
 11
1142.209425398924
 21
998.9099080339416
 31
0.0
  0
LINE
  5
3C06
330
3B3B
100
AcDbEntity
  8
0
 62
     0
100
AcDbLine
 10
1038.647484131037
 20
1102.471849301829
 30
0.0
 11
1036.53397512557
 21
1104.585358307295
 31
0.0
  0
LINE
  5
3C07
330
3B3B
100
AcDbEntity
  8
0
 62
     0
100
AcDbLine
 10
1147.307791247777
 20
996.6399693098351
 30
0.0
 11
1145.19428224231
 21
998.7534783153019
 31
0.0
  0
LINE
  5
3C08
330
3B3B
100
AcDbEntity
  8
0
 62
     0
100
AcDbLine
 10
1041.632340974423
 20
1102.315419583189
 30
0.0
 11
1039.518831968956
 21
1104.428928588656
 31
0.0
  0
LINE
  5
3C09
330
3B3B
100
AcDbEntity
  8
0
 62
     0
100
AcDbLine
 10
1150.292648091163
 20
996.4835395911954
 30
0.0
 11
1148.179139085695
 21
998.5970485966623
 31
0.0
  0
LINE
  5
3C0A
330
3B3B
100
AcDbEntity
  8
0
 62
     0
100
AcDbLine
 10
1044.617197817808
 20
1102.158989864549
 30
0.0
 11
1042.503688812341
 21
1104.272498870016
 31
0.0
  0
LINE
  5
3C0B
330
3B3B
100
AcDbEntity
  8
0
 62
     0
100
AcDbLine
 10
1153.277504934548
 20
996.3271098725558
 30
0.0
 11
1151.163995929081
 21
998.4406188780226
 31
0.0
  0
LINE
  5
3C0C
330
3B3B
100
AcDbEntity
  8
0
 62
     0
100
AcDbLine
 10
1047.602054661194
 20
1102.00256014591
 30
0.0
 11
1045.488545655727
 21
1104.116069151377
 31
0.0
  0
LINE
  5
3C0D
330
3B3B
100
AcDbEntity
  8
0
 62
     0
100
AcDbLine
 10
1156.262361777934
 20
996.1706801539161
 30
0.0
 11
1154.148852772467
 21
998.2841891593832
 31
0.0
  0
LINE
  5
3C0E
330
3B3B
100
AcDbEntity
  8
0
 62
     0
100
AcDbLine
 10
1050.58691150458
 20
1101.84613042727
 30
0.0
 11
1048.473402499113
 21
1103.959639432737
 31
0.0
  0
LINE
  5
3C0F
330
3B3B
100
AcDbEntity
  8
0
 62
     0
100
AcDbLine
 10
1159.24721862132
 20
996.0142504352765
 30
0.0
 11
1157.133709615853
 21
998.1277594407435
 31
0.0
  0
LINE
  5
3C10
330
3B3B
100
AcDbEntity
  8
0
 62
     0
100
AcDbLine
 10
1053.571768347966
 20
1101.689700708631
 30
0.0
 11
1051.458259342499
 21
1103.803209714097
 31
0.0
  0
LINE
  5
3C11
330
3B3B
100
AcDbEntity
  8
0
 62
     0
100
AcDbLine
 10
1162.232075464706
 20
995.8578207166368
 30
0.0
 11
1160.118566459239
 21
997.9713297221037
 31
0.0
  0
LINE
  5
3C12
330
3B3B
100
AcDbEntity
  8
0
 62
     0
100
AcDbLine
 10
1056.556625191352
 20
1101.533270989991
 30
0.0
 11
1054.443116185885
 21
1103.646779995458
 31
0.0
  0
LINE
  5
3C13
330
3B3B
100
AcDbEntity
  8
0
 62
     0
100
AcDbLine
 10
1165.216932308092
 20
995.7013909979972
 30
0.0
 11
1163.103423302625
 21
997.814900003464
 31
0.0
  0
LINE
  5
3C14
330
3B3B
100
AcDbEntity
  8
0
 62
     0
100
AcDbLine
 10
1059.541482034737
 20
1101.376841271351
 30
0.0
 11
1057.427973029271
 21
1103.490350276818
 31
0.0
  0
LINE
  5
3C15
330
3B3B
100
AcDbEntity
  8
0
 62
     0
100
AcDbLine
 10
1168.201789151478
 20
995.5449612793575
 30
0.0
 11
1166.08828014601
 21
997.6584702848244
 31
0.0
  0
LINE
  5
3C16
330
3B3B
100
AcDbEntity
  8
0
 62
     0
100
AcDbLine
 10
1062.526338878123
 20
1101.220411552711
 30
0.0
 11
1060.412829872656
 21
1103.333920558179
 31
0.0
  0
LINE
  5
3C17
330
3B3B
100
AcDbEntity
  8
0
 62
     0
100
AcDbLine
 10
1171.186645994864
 20
995.3885315607179
 30
0.0
 11
1169.073136989396
 21
997.5020405661849
 31
0.0
  0
LINE
  5
3C18
330
3B3B
100
AcDbEntity
  8
0
 62
     0
100
AcDbLine
 10
1065.511195721509
 20
1101.063981834072
 30
0.0
 11
1063.397686716042
 21
1103.177490839539
 31
0.0
  0
LINE
  5
3C19
330
3B3B
100
AcDbEntity
  8
0
 62
     0
100
AcDbLine
 10
1174.171502838249
 20
995.2321018420784
 30
0.0
 11
1172.057993832782
 21
997.3456108475453
 31
0.0
  0
LINE
  5
3C1A
330
3B3B
100
AcDbEntity
  8
0
 62
     0
100
AcDbLine
 10
1068.496052564895
 20
1100.907552115432
 30
0.0
 11
1066.382543559428
 21
1103.021061120899
 31
0.0
  0
LINE
  5
3C1B
330
3B3B
100
AcDbEntity
  8
0
 62
     0
100
AcDbLine
 10
1177.138398528705
 20
995.0936332763694
 30
0.0
 11
1175.042850676168
 21
997.1891811289056
 31
0.0
  0
LINE
  5
3C1C
330
3B3B
100
AcDbEntity
  8
0
 62
     0
100
AcDbLine
 10
1071.480909408281
 20
1100.751122396792
 30
0.0
 11
1069.367400402814
 21
1102.86463140226
 31
0.0
  0
LINE
  5
3C1D
330
3B3B
100
AcDbEntity
  8
0
 62
     0
100
AcDbLine
 10
1179.871387573011
 20
995.189071356809
 30
0.0
 11
1177.93769453332
 21
997.1227643964997
 31
0.0
  0
LINE
  5
3C1E
330
3B3B
100
AcDbEntity
  8
0
 62
     0
100
AcDbLine
 10
1074.465766251667
 20
1100.594692678153
 30
0.0
 11
1072.3522572462
 21
1102.70820168362
 31
0.0
  0
LINE
  5
3C1F
330
3B3B
100
AcDbEntity
  8
0
 62
     0
100
AcDbLine
 10
1182.604376617317
 20
995.2845094372486
 30
0.0
 11
1180.670683577627
 21
997.2182024769393
 31
0.0
  0
LINE
  5
3C20
330
3B3B
100
AcDbEntity
  8
0
 62
     0
100
AcDbLine
 10
1077.450623095053
 20
1100.438262959513
 30
0.0
 11
1075.337114089585
 21
1102.55177196498
 31
0.0
  0
LINE
  5
3C21
330
3B3B
100
AcDbEntity
  8
0
 62
     0
100
AcDbLine
 10
1185.337365661624
 20
995.3799475176882
 30
0.0
 11
1183.403672621933
 21
997.3136405573791
 31
0.0
  0
LINE
  5
3C22
330
3B3B
100
AcDbEntity
  8
0
 62
     0
100
AcDbLine
 10
1080.435479938438
 20
1100.281833240874
 30
0.0
 11
1078.321970932972
 21
1102.395342246341
 31
0.0
  0
LINE
  5
3C23
330
3B3B
100
AcDbEntity
  8
0
 62
     0
100
AcDbLine
 10
1188.070354705931
 20
995.475385598128
 30
0.0
 11
1186.13666166624
 21
997.4090786378187
 31
0.0
  0
LINE
  5
3C24
330
3B3B
100
AcDbEntity
  8
0
 62
     0
100
AcDbLine
 10
1083.420336781824
 20
1100.125403522234
 30
0.0
 11
1081.306827776357
 21
1102.238912527701
 31
0.0
  0
LINE
  5
3C25
330
3B3B
100
AcDbEntity
  8
0
 62
     0
100
AcDbLine
 10
1188.992783146897
 20
997.3813842819076
 30
0.0
 11
1188.869650710546
 21
997.5045167182585
 31
0.0
  0
LINE
  5
3C26
330
3B3B
100
AcDbEntity
  8
0
 62
     0
100
AcDbLine
 10
1086.40519362521
 20
1099.968973803594
 30
0.0
 11
1084.291684619743
 21
1102.082482809061
 31
0.0
  0
LINE
  5
3C27
330
3B3B
100
AcDbEntity
  8
0
 62
     0
100
AcDbLine
 10
1089.390050468596
 20
1099.812544084955
 30
0.0
 11
1087.276541463129
 21
1101.926053090422
 31
0.0
  0
LINE
  5
3C28
330
3B3B
100
AcDbEntity
  8
0
 62
     0
100
AcDbLine
 10
1092.374907311982
 20
1099.656114366315
 30
0.0
 11
1090.261398306515
 21
1101.769623371782
 31
0.0
  0
LINE
  5
3C29
330
3B3B
100
AcDbEntity
  8
0
 62
     0
100
AcDbLine
 10
1095.359764155367
 20
1099.499684647675
 30
0.0
 11
1093.2462551499
 21
1101.613193653142
 31
0.0
  0
LINE
  5
3C2A
330
3B3B
100
AcDbEntity
  8
0
 62
     0
100
AcDbLine
 10
1098.344620998753
 20
1099.343254929036
 30
0.0
 11
1096.231111993286
 21
1101.456763934503
 31
0.0
  0
LINE
  5
3C2B
330
3B3B
100
AcDbEntity
  8
0
 62
     0
100
AcDbLine
 10
1101.329477842139
 20
1099.186825210396
 30
0.0
 11
1099.215968836672
 21
1101.300334215863
 31
0.0
  0
LINE
  5
3C2C
330
3B3B
100
AcDbEntity
  8
0
 62
     0
100
AcDbLine
 10
1104.314334685525
 20
1099.030395491757
 30
0.0
 11
1102.200825680058
 21
1101.143904497223
 31
0.0
  0
LINE
  5
3C2D
330
3B3B
100
AcDbEntity
  8
0
 62
     0
100
AcDbLine
 10
1107.299191528911
 20
1098.873965773117
 30
0.0
 11
1105.185682523444
 21
1100.987474778584
 31
0.0
  0
LINE
  5
3C2E
330
3B3B
100
AcDbEntity
  8
0
 62
     0
100
AcDbLine
 10
1110.284048372297
 20
1098.717536054477
 30
0.0
 11
1108.17053936683
 21
1100.831045059944
 31
0.0
  0
LINE
  5
3C2F
330
3B3B
100
AcDbEntity
  8
0
 62
     0
100
AcDbLine
 10
1113.268905215683
 20
1098.561106335838
 30
0.0
 11
1111.155396210215
 21
1100.674615341305
 31
0.0
  0
LINE
  5
3C30
330
3B3B
100
AcDbEntity
  8
0
 62
     0
100
AcDbLine
 10
1116.253762059068
 20
1098.404676617198
 30
0.0
 11
1114.140253053601
 21
1100.518185622665
 31
0.0
  0
LINE
  5
3C31
330
3B3B
100
AcDbEntity
  8
0
 62
     0
100
AcDbLine
 10
1119.238618902454
 20
1098.248246898558
 30
0.0
 11
1117.125109896987
 21
1100.361755904025
 31
0.0
  0
LINE
  5
3C32
330
3B3B
100
AcDbEntity
  8
0
 62
     0
100
AcDbLine
 10
1122.22347574584
 20
1098.091817179919
 30
0.0
 11
1120.109966740373
 21
1100.205326185386
 31
0.0
  0
LINE
  5
3C33
330
3B3B
100
AcDbEntity
  8
0
 62
     0
100
AcDbLine
 10
1125.208332589226
 20
1097.935387461279
 30
0.0
 11
1123.094823583759
 21
1100.048896466746
 31
0.0
  0
LINE
  5
3C34
330
3B3B
100
AcDbEntity
  8
0
 62
     0
100
AcDbLine
 10
1128.193189432612
 20
1097.778957742639
 30
0.0
 11
1126.079680427145
 21
1099.892466748106
 31
0.0
  0
LINE
  5
3C35
330
3B3B
100
AcDbEntity
  8
0
 62
     0
100
AcDbLine
 10
1131.178046275997
 20
1097.622528024
 30
0.0
 11
1129.064537270531
 21
1099.736037029467
 31
0.0
  0
LINE
  5
3C36
330
3B3B
100
AcDbEntity
  8
0
 62
     0
100
AcDbLine
 10
1134.162903119383
 20
1097.46609830536
 30
0.0
 11
1132.049394113916
 21
1099.579607310827
 31
0.0
  0
LINE
  5
3C37
330
3B3B
100
AcDbEntity
  8
0
 62
     0
100
AcDbLine
 10
1137.147759962769
 20
1097.30966858672
 30
0.0
 11
1135.034250957302
 21
1099.423177592188
 31
0.0
  0
LINE
  5
3C38
330
3B3B
100
AcDbEntity
  8
0
 62
     0
100
AcDbLine
 10
1140.132616806155
 20
1097.153238868081
 30
0.0
 11
1138.019107800688
 21
1099.266747873548
 31
0.0
  0
LINE
  5
3C39
330
3B3B
100
AcDbEntity
  8
0
 62
     0
100
AcDbLine
 10
1143.117473649541
 20
1096.996809149441
 30
0.0
 11
1141.003964644074
 21
1099.110318154908
 31
0.0
  0
LINE
  5
3C3A
330
3B3B
100
AcDbEntity
  8
0
 62
     0
100
AcDbLine
 10
1146.102330492927
 20
1096.840379430801
 30
0.0
 11
1143.98882148746
 21
1098.953888436269
 31
0.0
  0
LINE
  5
3C3B
330
3B3B
100
AcDbEntity
  8
0
 62
     0
100
AcDbLine
 10
1149.087187336312
 20
1096.683949712162
 30
0.0
 11
1146.973678330845
 21
1098.797458717629
 31
0.0
  0
LINE
  5
3C3C
330
3B3B
100
AcDbEntity
  8
0
 62
     0
100
AcDbLine
 10
1152.072044179698
 20
1096.527519993522
 30
0.0
 11
1149.958535174231
 21
1098.641028998989
 31
0.0
  0
LINE
  5
3C3D
330
3B3B
100
AcDbEntity
  8
0
 62
     0
100
AcDbLine
 10
1155.056901023084
 20
1096.371090274883
 30
0.0
 11
1152.943392017617
 21
1098.48459928035
 31
0.0
  0
LINE
  5
3C3E
330
3B3B
100
AcDbEntity
  8
0
 62
     0
100
AcDbLine
 10
1158.04175786647
 20
1096.214660556243
 30
0.0
 11
1155.928248861003
 21
1098.32816956171
 31
0.0
  0
LINE
  5
3C3F
330
3B3B
100
AcDbEntity
  8
0
 62
     0
100
AcDbLine
 10
1161.026614709856
 20
1096.058230837603
 30
0.0
 11
1158.913105704389
 21
1098.17173984307
 31
0.0
  0
LINE
  5
3C40
330
3B3B
100
AcDbEntity
  8
0
 62
     0
100
AcDbLine
 10
1164.011471553242
 20
1095.901801118964
 30
0.0
 11
1161.897962547774
 21
1098.015310124431
 31
0.0
  0
LINE
  5
3C41
330
3B3B
100
AcDbEntity
  8
0
 62
     0
100
AcDbLine
 10
1166.996328396628
 20
1095.745371400324
 30
0.0
 11
1164.88281939116
 21
1097.858880405791
 31
0.0
  0
LINE
  5
3C42
330
3B3B
100
AcDbEntity
  8
0
 62
     0
100
AcDbLine
 10
1169.981185240013
 20
1095.588941681684
 30
0.0
 11
1167.867676234546
 21
1097.702450687151
 31
0.0
  0
LINE
  5
3C43
330
3B3B
100
AcDbEntity
  8
0
 62
     0
100
AcDbLine
 10
1172.966042083399
 20
1095.432511963045
 30
0.0
 11
1170.852533077932
 21
1097.546020968512
 31
0.0
  0
LINE
  5
3C44
330
3B3B
100
AcDbEntity
  8
0
 62
     0
100
AcDbLine
 10
1175.950898926785
 20
1095.276082244405
 30
0.0
 11
1173.837389921318
 21
1097.389591249872
 31
0.0
  0
LINE
  5
3C45
330
3B3B
100
AcDbEntity
  8
0
 62
     0
100
AcDbLine
 10
1178.93575577017
 20
1095.119652525766
 30
0.0
 11
1176.822246764704
 21
1097.233161531232
 31
0.0
  0
LINE
  5
3C46
330
3B3B
100
AcDbEntity
  8
0
 62
     0
100
AcDbLine
 10
1181.920612613557
 20
1094.963222807126
 30
0.0
 11
1179.80710360809
 21
1097.076731812593
 31
0.0
  0
LINE
  5
3C47
330
3B3B
100
AcDbEntity
  8
0
 62
     0
100
AcDbLine
 10
1185.194191678577
 20
1094.518070866852
 30
0.0
 11
1182.844277655218
 21
1096.86798489021
 31
0.0
  0
LINE
  5
3C48
330
3B3B
100
AcDbEntity
  8
0
 62
     0
100
AcDbLine
 10
1188.485130025563
 20
1094.055559644612
 30
0.0
 11
1186.135216002204
 21
1096.405473667971
 31
0.0
  0
LINE
  5
3C49
330
3B3B
100
AcDbEntity
  8
0
 62
     0
100
AcDbLine
 10
1191.776068372548
 20
1093.593048422373
 30
0.0
 11
1189.426154349189
 21
1095.942962445731
 31
0.0
  0
LINE
  5
3C4A
330
3B3B
100
AcDbEntity
  8
0
 62
     0
100
AcDbLine
 10
1194.063381394111
 20
1094.134162525556
 30
0.0
 11
1192.717092696175
 21
1095.480451223492
 31
0.0
  0
ENDBLK
  5
3C4B
330
3B3B
100
AcDbEntity
  8
0
100
AcDbBlockEnd
  0
BLOCK
  5
3C4D
330
3C4C
100
AcDbEntity
  8
0
100
AcDbBlockBegin
  2
*X8
 70
     1
 10
0.0
 20
0.0
 30
0.0
  3
*X8
  1

  0
LINE
  5
3C4E
330
3C4C
100
AcDbEntity
  8
0
 62
     0
100
AcDbLine
 10
613.7199322837021
 20
1015.356583997661
 30
0.0
 11
615.7199322837022
 21
1017.356583997661
 31
0.0
  0
LINE
  5
3C4F
330
3C4C
100
AcDbEntity
  8
0
 62
     0
100
AcDbLine
 10
610.8915051589559
 20
1015.356583997661
 30
0.0
 11
612.8915051589559
 21
1017.356583997661
 31
0.0
  0
LINE
  5
3C50
330
3C4C
100
AcDbEntity
  8
0
 62
     0
100
AcDbLine
 10
608.0630780342097
 20
1015.356583997661
 30
0.0
 11
610.0630780342097
 21
1017.356583997661
 31
0.0
  0
LINE
  5
3C51
330
3C4C
100
AcDbEntity
  8
0
 62
     0
100
AcDbLine
 10
605.2346509094636
 20
1015.356583997661
 30
0.0
 11
607.2346509094636
 21
1017.356583997661
 31
0.0
  0
LINE
  5
3C52
330
3C4C
100
AcDbEntity
  8
0
 62
     0
100
AcDbLine
 10
602.4062237847174
 20
1015.356583997661
 30
0.0
 11
604.4062237847174
 21
1017.356583997661
 31
0.0
  0
LINE
  5
3C53
330
3C4C
100
AcDbEntity
  8
0
 62
     0
100
AcDbLine
 10
599.5777966599712
 20
1015.356583997661
 30
0.0
 11
601.5777966599712
 21
1017.356583997661
 31
0.0
  0
LINE
  5
3C54
330
3C4C
100
AcDbEntity
  8
0
 62
     0
100
AcDbLine
 10
596.749369535225
 20
1015.356583997661
 30
0.0
 11
598.749369535225
 21
1017.356583997661
 31
0.0
  0
LINE
  5
3C55
330
3C4C
100
AcDbEntity
  8
0
 62
     0
100
AcDbLine
 10
593.9209424104787
 20
1015.356583997661
 30
0.0
 11
595.9209424104788
 21
1017.356583997661
 31
0.0
  0
LINE
  5
3C56
330
3C4C
100
AcDbEntity
  8
0
 62
     0
100
AcDbLine
 10
591.1122402237504
 20
1015.376308935679
 30
0.0
 11
593.0925152857327
 21
1017.356583997661
 31
0.0
  0
LINE
  5
3C57
330
3C4C
100
AcDbEntity
  8
0
 62
     0
100
AcDbLine
 10
589.0834235724482
 20
1016.175919409123
 30
0.0
 11
590.5236536727046
 21
1017.616149509379
 31
0.0
  0
LINE
  5
3C58
330
3C4C
100
AcDbEntity
  8
0
 62
     0
100
AcDbLine
 10
587.5089900578525
 20
1020.258340144019
 30
0.0
 11
589.5089900578525
 21
1022.258340144019
 31
0.0
  0
LINE
  5
3C59
330
3C4C
100
AcDbEntity
  8
0
 62
     0
100
AcDbLine
 10
587.5089900578525
 20
1023.086767268766
 30
0.0
 11
589.5089900578525
 21
1025.086767268766
 31
0.0
  0
LINE
  5
3C5A
330
3C4C
100
AcDbEntity
  8
0
 62
     0
100
AcDbLine
 10
587.5089900578525
 20
1025.915194393512
 30
0.0
 11
589.5089900578525
 21
1027.915194393512
 31
0.0
  0
LINE
  5
3C5B
330
3C4C
100
AcDbEntity
  8
0
 62
     0
100
AcDbLine
 10
587.5089900578525
 20
1028.743621518258
 30
0.0
 11
589.5089900578525
 21
1030.743621518258
 31
0.0
  0
LINE
  5
3C5C
330
3C4C
100
AcDbEntity
  8
0
 62
     0
100
AcDbLine
 10
587.5089900578525
 20
1031.572048643004
 30
0.0
 11
589.5089900578525
 21
1033.572048643004
 31
0.0
  0
LINE
  5
3C5D
330
3C4C
100
AcDbEntity
  8
0
 62
     0
100
AcDbLine
 10
587.5089900578525
 20
1034.40047576775
 30
0.0
 11
589.5089900578525
 21
1036.40047576775
 31
0.0
  0
LINE
  5
3C5E
330
3C4C
100
AcDbEntity
  8
0
 62
     0
100
AcDbLine
 10
587.5089900578525
 20
1037.228902892497
 30
0.0
 11
589.5089900578525
 21
1039.228902892497
 31
0.0
  0
LINE
  5
3C5F
330
3C4C
100
AcDbEntity
  8
0
 62
     0
100
AcDbLine
 10
587.5089900578525
 20
1040.057330017243
 30
0.0
 11
589.5089900578525
 21
1042.057330017243
 31
0.0
  0
LINE
  5
3C60
330
3C4C
100
AcDbEntity
  8
0
 62
     0
100
AcDbLine
 10
587.5089900578525
 20
1042.885757141989
 30
0.0
 11
589.5089900578525
 21
1044.885757141989
 31
0.0
  0
LINE
  5
3C61
330
3C4C
100
AcDbEntity
  8
0
 62
     0
100
AcDbLine
 10
587.5089900578525
 20
1045.714184266735
 30
0.0
 11
589.5089900578525
 21
1047.714184266735
 31
0.0
  0
LINE
  5
3C62
330
3C4C
100
AcDbEntity
  8
0
 62
     0
100
AcDbLine
 10
587.5089900578525
 20
1048.542611391481
 30
0.0
 11
589.5089900578525
 21
1050.542611391481
 31
0.0
  0
LINE
  5
3C63
330
3C4C
100
AcDbEntity
  8
0
 62
     0
100
AcDbLine
 10
587.5089900578525
 20
1051.371038516228
 30
0.0
 11
589.5089900578525
 21
1053.371038516228
 31
0.0
  0
LINE
  5
3C64
330
3C4C
100
AcDbEntity
  8
0
 62
     0
100
AcDbLine
 10
587.5089900578525
 20
1054.199465640974
 30
0.0
 11
589.5089900578525
 21
1056.199465640974
 31
0.0
  0
LINE
  5
3C65
330
3C4C
100
AcDbEntity
  8
0
 62
     0
100
AcDbLine
 10
587.5089900578525
 20
1057.02789276572
 30
0.0
 11
589.5089900578525
 21
1059.02789276572
 31
0.0
  0
LINE
  5
3C66
330
3C4C
100
AcDbEntity
  8
0
 62
     0
100
AcDbLine
 10
587.5089900578525
 20
1059.856319890466
 30
0.0
 11
589.5089900578525
 21
1061.856319890466
 31
0.0
  0
LINE
  5
3C67
330
3C4C
100
AcDbEntity
  8
0
 62
     0
100
AcDbLine
 10
587.5089900578525
 20
1062.684747015212
 30
0.0
 11
589.5089900578525
 21
1064.684747015212
 31
0.0
  0
LINE
  5
3C68
330
3C4C
100
AcDbEntity
  8
0
 62
     0
100
AcDbLine
 10
616.5483594084483
 20
1015.356583997661
 30
0.0
 11
618.5483594084484
 21
1017.356583997661
 31
0.0
  0
LINE
  5
3C69
330
3C4C
100
AcDbEntity
  8
0
 62
     0
100
AcDbLine
 10
619.3767865331945
 20
1015.356583997661
 30
0.0
 11
621.3767865331946
 21
1017.356583997661
 31
0.0
  0
LINE
  5
3C6A
330
3C4C
100
AcDbEntity
  8
0
 62
     0
100
AcDbLine
 10
622.2052136579407
 20
1015.356583997661
 30
0.0
 11
624.2052136579407
 21
1017.356583997661
 31
0.0
  0
LINE
  5
3C6B
330
3C4C
100
AcDbEntity
  8
0
 62
     0
100
AcDbLine
 10
625.0336407826869
 20
1015.356583997661
 30
0.0
 11
627.0336407826869
 21
1017.356583997661
 31
0.0
  0
LINE
  5
3C6C
330
3C4C
100
AcDbEntity
  8
0
 62
     0
100
AcDbLine
 10
627.8620679074331
 20
1015.356583997661
 30
0.0
 11
629.8620679074331
 21
1017.356583997661
 31
0.0
  0
LINE
  5
3C6D
330
3C4C
100
AcDbEntity
  8
0
 62
     0
100
AcDbLine
 10
630.6904950321793
 20
1015.356583997661
 30
0.0
 11
632.6904950321793
 21
1017.356583997661
 31
0.0
  0
LINE
  5
3C6E
330
3C4C
100
AcDbEntity
  8
0
 62
     0
100
AcDbLine
 10
633.5189221569256
 20
1015.356583997661
 30
0.0
 11
635.5189221569255
 21
1017.356583997661
 31
0.0
  0
LINE
  5
3C6F
330
3C4C
100
AcDbEntity
  8
0
 62
     0
100
AcDbLine
 10
636.3473492816716
 20
1015.356583997661
 30
0.0
 11
638.3473492816716
 21
1017.356583997661
 31
0.0
  0
LINE
  5
3C70
330
3C4C
100
AcDbEntity
  8
0
 62
     0
100
AcDbLine
 10
639.1757764064179
 20
1015.356583997661
 30
0.0
 11
641.1757764064178
 21
1017.356583997661
 31
0.0
  0
LINE
  5
3C71
330
3C4C
100
AcDbEntity
  8
0
 62
     0
100
AcDbLine
 10
789.5089900578524
 20
1165.689797649095
 30
0.0
 11
791.1757764064177
 21
1167.356583997661
 31
0.0
  0
LINE
  5
3C72
330
3C4C
100
AcDbEntity
  8
0
 62
     0
100
AcDbLine
 10
642.0042035311641
 20
1015.356583997661
 30
0.0
 11
644.004203531164
 21
1017.356583997661
 31
0.0
  0
LINE
  5
3C73
330
3C4C
100
AcDbEntity
  8
0
 62
     0
100
AcDbLine
 10
789.5089900578524
 20
1162.861370524349
 30
0.0
 11
791.5089900578524
 21
1164.861370524349
 31
0.0
  0
LINE
  5
3C74
330
3C4C
100
AcDbEntity
  8
0
 62
     0
100
AcDbLine
 10
644.8326306559103
 20
1015.356583997661
 30
0.0
 11
646.8326306559102
 21
1017.356583997661
 31
0.0
  0
LINE
  5
3C75
330
3C4C
100
AcDbEntity
  8
0
 62
     0
100
AcDbLine
 10
789.5089900578524
 20
1160.032943399603
 30
0.0
 11
791.5089900578524
 21
1162.032943399603
 31
0.0
  0
LINE
  5
3C76
330
3C4C
100
AcDbEntity
  8
0
 62
     0
100
AcDbLine
 10
647.6610577806565
 20
1015.356583997661
 30
0.0
 11
649.6610577806564
 21
1017.356583997661
 31
0.0
  0
LINE
  5
3C77
330
3C4C
100
AcDbEntity
  8
0
 62
     0
100
AcDbLine
 10
789.5089900578524
 20
1157.204516274857
 30
0.0
 11
791.5089900578524
 21
1159.204516274857
 31
0.0
  0
LINE
  5
3C78
330
3C4C
100
AcDbEntity
  8
0
 62
     0
100
AcDbLine
 10
650.4894849054026
 20
1015.356583997661
 30
0.0
 11
652.4894849054025
 21
1017.356583997661
 31
0.0
  0
LINE
  5
3C79
330
3C4C
100
AcDbEntity
  8
0
 62
     0
100
AcDbLine
 10
789.5089900578524
 20
1154.376089150111
 30
0.0
 11
791.5089900578524
 21
1156.376089150111
 31
0.0
  0
LINE
  5
3C7A
330
3C4C
100
AcDbEntity
  8
0
 62
     0
100
AcDbLine
 10
653.3179120301488
 20
1015.356583997661
 30
0.0
 11
655.3179120301487
 21
1017.356583997661
 31
0.0
  0
LINE
  5
3C7B
330
3C4C
100
AcDbEntity
  8
0
 62
     0
100
AcDbLine
 10
789.5089900578524
 20
1151.547662025365
 30
0.0
 11
791.5089900578524
 21
1153.547662025364
 31
0.0
  0
LINE
  5
3C7C
330
3C4C
100
AcDbEntity
  8
0
 62
     0
100
AcDbLine
 10
656.146339154895
 20
1015.356583997661
 30
0.0
 11
658.146339154895
 21
1017.356583997661
 31
0.0
  0
LINE
  5
3C7D
330
3C4C
100
AcDbEntity
  8
0
 62
     0
100
AcDbLine
 10
789.5089900578524
 20
1148.719234900618
 30
0.0
 11
791.5089900578524
 21
1150.719234900618
 31
0.0
  0
LINE
  5
3C7E
330
3C4C
100
AcDbEntity
  8
0
 62
     0
100
AcDbLine
 10
658.9747662796412
 20
1015.356583997661
 30
0.0
 11
660.9747662796412
 21
1017.356583997661
 31
0.0
  0
LINE
  5
3C7F
330
3C4C
100
AcDbEntity
  8
0
 62
     0
100
AcDbLine
 10
789.5089900578524
 20
1145.890807775872
 30
0.0
 11
791.5089900578524
 21
1147.890807775872
 31
0.0
  0
LINE
  5
3C80
330
3C4C
100
AcDbEntity
  8
0
 62
     0
100
AcDbLine
 10
661.8031934043874
 20
1015.356583997661
 30
0.0
 11
663.8031934043874
 21
1017.356583997661
 31
0.0
  0
LINE
  5
3C81
330
3C4C
100
AcDbEntity
  8
0
 62
     0
100
AcDbLine
 10
789.5089900578524
 20
1143.062380651126
 30
0.0
 11
791.5089900578524
 21
1145.062380651126
 31
0.0
  0
LINE
  5
3C82
330
3C4C
100
AcDbEntity
  8
0
 62
     0
100
AcDbLine
 10
664.6316205291335
 20
1015.356583997661
 30
0.0
 11
666.6316205291336
 21
1017.356583997661
 31
0.0
  0
LINE
  5
3C83
330
3C4C
100
AcDbEntity
  8
0
 62
     0
100
AcDbLine
 10
789.5089900578524
 20
1140.23395352638
 30
0.0
 11
791.5089900578524
 21
1142.23395352638
 31
0.0
  0
LINE
  5
3C84
330
3C4C
100
AcDbEntity
  8
0
 62
     0
100
AcDbLine
 10
667.4600476538797
 20
1015.356583997661
 30
0.0
 11
669.4600476538798
 21
1017.356583997661
 31
0.0
  0
LINE
  5
3C85
330
3C4C
100
AcDbEntity
  8
0
 62
     0
100
AcDbLine
 10
789.5089900578524
 20
1137.405526401634
 30
0.0
 11
791.5089900578524
 21
1139.405526401634
 31
0.0
  0
LINE
  5
3C86
330
3C4C
100
AcDbEntity
  8
0
 62
     0
100
AcDbLine
 10
670.2884747786259
 20
1015.356583997661
 30
0.0
 11
672.288474778626
 21
1017.356583997661
 31
0.0
  0
LINE
  5
3C87
330
3C4C
100
AcDbEntity
  8
0
 62
     0
100
AcDbLine
 10
789.5089900578524
 20
1134.577099276887
 30
0.0
 11
791.5089900578524
 21
1136.577099276887
 31
0.0
  0
LINE
  5
3C88
330
3C4C
100
AcDbEntity
  8
0
 62
     0
100
AcDbLine
 10
673.1169019033721
 20
1015.356583997661
 30
0.0
 11
675.1169019033722
 21
1017.356583997661
 31
0.0
  0
LINE
  5
3C89
330
3C4C
100
AcDbEntity
  8
0
 62
     0
100
AcDbLine
 10
789.5089900578524
 20
1131.748672152141
 30
0.0
 11
791.5089900578524
 21
1133.748672152141
 31
0.0
  0
LINE
  5
3C8A
330
3C4C
100
AcDbEntity
  8
0
 62
     0
100
AcDbLine
 10
675.9453290281182
 20
1015.356583997661
 30
0.0
 11
677.9453290281183
 21
1017.356583997661
 31
0.0
  0
LINE
  5
3C8B
330
3C4C
100
AcDbEntity
  8
0
 62
     0
100
AcDbLine
 10
789.5089900578524
 20
1128.920245027395
 30
0.0
 11
791.5089900578524
 21
1130.920245027395
 31
0.0
  0
LINE
  5
3C8C
330
3C4C
100
AcDbEntity
  8
0
 62
     0
100
AcDbLine
 10
678.7737561528644
 20
1015.356583997661
 30
0.0
 11
680.7737561528645
 21
1017.356583997661
 31
0.0
  0
LINE
  5
3C8D
330
3C4C
100
AcDbEntity
  8
0
 62
     0
100
AcDbLine
 10
789.5089900578524
 20
1126.091817902649
 30
0.0
 11
791.5089900578524
 21
1128.091817902649
 31
0.0
  0
LINE
  5
3C8E
330
3C4C
100
AcDbEntity
  8
0
 62
     0
100
AcDbLine
 10
681.6021832776107
 20
1015.356583997661
 30
0.0
 11
683.6021832776107
 21
1017.356583997661
 31
0.0
  0
LINE
  5
3C8F
330
3C4C
100
AcDbEntity
  8
0
 62
     0
100
AcDbLine
 10
789.5089900578525
 20
1123.263390777903
 30
0.0
 11
791.5089900578524
 21
1125.263390777902
 31
0.0
  0
LINE
  5
3C90
330
3C4C
100
AcDbEntity
  8
0
 62
     0
100
AcDbLine
 10
684.4306104023569
 20
1015.356583997661
 30
0.0
 11
686.4306104023569
 21
1017.356583997661
 31
0.0
  0
LINE
  5
3C91
330
3C4C
100
AcDbEntity
  8
0
 62
     0
100
AcDbLine
 10
789.5089900578525
 20
1120.434963653156
 30
0.0
 11
791.5089900578524
 21
1122.434963653156
 31
0.0
  0
LINE
  5
3C92
330
3C4C
100
AcDbEntity
  8
0
 62
     0
100
AcDbLine
 10
687.259037527103
 20
1015.356583997661
 30
0.0
 11
689.259037527103
 21
1017.356583997661
 31
0.0
  0
LINE
  5
3C93
330
3C4C
100
AcDbEntity
  8
0
 62
     0
100
AcDbLine
 10
789.5089900578525
 20
1117.60653652841
 30
0.0
 11
791.5089900578524
 21
1119.60653652841
 31
0.0
  0
LINE
  5
3C94
330
3C4C
100
AcDbEntity
  8
0
 62
     0
100
AcDbLine
 10
690.0874646518492
 20
1015.356583997661
 30
0.0
 11
692.0874646518492
 21
1017.356583997661
 31
0.0
  0
LINE
  5
3C95
330
3C4C
100
AcDbEntity
  8
0
 62
     0
100
AcDbLine
 10
790.1547096057473
 20
1115.423828951559
 30
0.0
 11
791.5089900578524
 21
1116.778109403664
 31
0.0
  0
LINE
  5
3C96
330
3C4C
100
AcDbEntity
  8
0
 62
     0
100
AcDbLine
 10
692.9158917765954
 20
1015.356583997661
 30
0.0
 11
694.9158917765954
 21
1017.356583997661
 31
0.0
  0
LINE
  5
3C97
330
3C4C
100
AcDbEntity
  8
0
 62
     0
100
AcDbLine
 10
695.7443189013416
 20
1015.356583997661
 30
0.0
 11
697.7443189013416
 21
1017.356583997661
 31
0.0
  0
LINE
  5
3C98
330
3C4C
100
AcDbEntity
  8
0
 62
     0
100
AcDbLine
 10
698.5727460260878
 20
1015.356583997661
 30
0.0
 11
700.5727460260878
 21
1017.356583997661
 31
0.0
  0
LINE
  5
3C99
330
3C4C
100
AcDbEntity
  8
0
 62
     0
100
AcDbLine
 10
701.401173150834
 20
1015.356583997661
 30
0.0
 11
703.4011731508339
 21
1017.356583997661
 31
0.0
  0
LINE
  5
3C9A
330
3C4C
100
AcDbEntity
  8
0
 62
     0
100
AcDbLine
 10
704.2296002755802
 20
1015.356583997661
 30
0.0
 11
706.2296002755801
 21
1017.356583997661
 31
0.0
  0
LINE
  5
3C9B
330
3C4C
100
AcDbEntity
  8
0
 62
     0
100
AcDbLine
 10
707.0580274003264
 20
1015.356583997661
 30
0.0
 11
709.0580274003264
 21
1017.356583997661
 31
0.0
  0
LINE
  5
3C9C
330
3C4C
100
AcDbEntity
  8
0
 62
     0
100
AcDbLine
 10
709.8864545250726
 20
1015.356583997661
 30
0.0
 11
711.8864545250726
 21
1017.356583997661
 31
0.0
  0
LINE
  5
3C9D
330
3C4C
100
AcDbEntity
  8
0
 62
     0
100
AcDbLine
 10
712.7148816498188
 20
1015.356583997661
 30
0.0
 11
714.7148816498188
 21
1017.356583997661
 31
0.0
  0
LINE
  5
3C9E
330
3C4C
100
AcDbEntity
  8
0
 62
     0
100
AcDbLine
 10
715.5433087745649
 20
1015.356583997661
 30
0.0
 11
717.5433087745649
 21
1017.356583997661
 31
0.0
  0
LINE
  5
3C9F
330
3C4C
100
AcDbEntity
  8
0
 62
     0
100
AcDbLine
 10
718.3717358993111
 20
1015.356583997661
 30
0.0
 11
720.3717358993111
 21
1017.356583997661
 31
0.0
  0
LINE
  5
3CA0
330
3C4C
100
AcDbEntity
  8
0
 62
     0
100
AcDbLine
 10
721.2001630240573
 20
1015.356583997661
 30
0.0
 11
723.2001630240573
 21
1017.356583997661
 31
0.0
  0
LINE
  5
3CA1
330
3C4C
100
AcDbEntity
  8
0
 62
     0
100
AcDbLine
 10
724.0285901488036
 20
1015.356583997661
 30
0.0
 11
726.0285901488035
 21
1017.356583997661
 31
0.0
  0
LINE
  5
3CA2
330
3C4C
100
AcDbEntity
  8
0
 62
     0
100
AcDbLine
 10
726.8570172735498
 20
1015.356583997661
 30
0.0
 11
728.8570172735497
 21
1017.356583997661
 31
0.0
  0
LINE
  5
3CA3
330
3C4C
100
AcDbEntity
  8
0
 62
     0
100
AcDbLine
 10
729.685444398296
 20
1015.356583997661
 30
0.0
 11
731.6854443982959
 21
1017.356583997661
 31
0.0
  0
LINE
  5
3CA4
330
3C4C
100
AcDbEntity
  8
0
 62
     0
100
AcDbLine
 10
732.5138715230421
 20
1015.356583997661
 30
0.0
 11
734.5138715230421
 21
1017.356583997661
 31
0.0
  0
LINE
  5
3CA5
330
3C4C
100
AcDbEntity
  8
0
 62
     0
100
AcDbLine
 10
735.3422986477883
 20
1015.356583997661
 30
0.0
 11
737.3422986477883
 21
1017.356583997661
 31
0.0
  0
LINE
  5
3CA6
330
3C4C
100
AcDbEntity
  8
0
 62
     0
100
AcDbLine
 10
738.1707257725345
 20
1015.356583997661
 30
0.0
 11
740.1707257725345
 21
1017.356583997661
 31
0.0
  0
LINE
  5
3CA7
330
3C4C
100
AcDbEntity
  8
0
 62
     0
100
AcDbLine
 10
740.9991528972807
 20
1015.356583997661
 30
0.0
 11
742.9991528972807
 21
1017.356583997661
 31
0.0
  0
LINE
  5
3CA8
330
3C4C
100
AcDbEntity
  8
0
 62
     0
100
AcDbLine
 10
743.8275800220269
 20
1015.356583997661
 30
0.0
 11
745.827580022027
 21
1017.356583997661
 31
0.0
  0
LINE
  5
3CA9
330
3C4C
100
AcDbEntity
  8
0
 62
     0
100
AcDbLine
 10
746.656007146773
 20
1015.356583997661
 30
0.0
 11
748.656007146773
 21
1017.356583997661
 31
0.0
  0
LINE
  5
3CAA
330
3C4C
100
AcDbEntity
  8
0
 62
     0
100
AcDbLine
 10
749.4844342715192
 20
1015.356583997661
 30
0.0
 11
751.4844342715193
 21
1017.356583997661
 31
0.0
  0
LINE
  5
3CAB
330
3C4C
100
AcDbEntity
  8
0
 62
     0
100
AcDbLine
 10
752.3128613962654
 20
1015.356583997661
 30
0.0
 11
754.3128613962655
 21
1017.356583997661
 31
0.0
  0
LINE
  5
3CAC
330
3C4C
100
AcDbEntity
  8
0
 62
     0
100
AcDbLine
 10
755.1412885210116
 20
1015.356583997661
 30
0.0
 11
757.1412885210117
 21
1017.356583997661
 31
0.0
  0
LINE
  5
3CAD
330
3C4C
100
AcDbEntity
  8
0
 62
     0
100
AcDbLine
 10
757.9697156457578
 20
1015.356583997661
 30
0.0
 11
759.9697156457579
 21
1017.356583997661
 31
0.0
  0
LINE
  5
3CAE
330
3C4C
100
AcDbEntity
  8
0
 62
     0
100
AcDbLine
 10
760.7981427705039
 20
1015.356583997661
 30
0.0
 11
762.798142770504
 21
1017.356583997661
 31
0.0
  0
LINE
  5
3CAF
330
3C4C
100
AcDbEntity
  8
0
 62
     0
100
AcDbLine
 10
763.6265698952501
 20
1015.356583997661
 30
0.0
 11
765.6265698952502
 21
1017.356583997661
 31
0.0
  0
LINE
  5
3CB0
330
3C4C
100
AcDbEntity
  8
0
 62
     0
100
AcDbLine
 10
766.4549970199963
 20
1015.356583997661
 30
0.0
 11
768.4549970199964
 21
1017.356583997661
 31
0.0
  0
LINE
  5
3CB1
330
3C4C
100
AcDbEntity
  8
0
 62
     0
100
AcDbLine
 10
769.2834241447426
 20
1015.356583997661
 30
0.0
 11
771.2834241447426
 21
1017.356583997661
 31
0.0
  0
LINE
  5
3CB2
330
3C4C
100
AcDbEntity
  8
0
 62
     0
100
AcDbLine
 10
772.1118512694888
 20
1015.356583997661
 30
0.0
 11
774.1118512694888
 21
1017.356583997661
 31
0.0
  0
LINE
  5
3CB3
330
3C4C
100
AcDbEntity
  8
0
 62
     0
100
AcDbLine
 10
774.940278394235
 20
1015.356583997661
 30
0.0
 11
776.9402783942349
 21
1017.356583997661
 31
0.0
  0
LINE
  5
3CB4
330
3C4C
100
AcDbEntity
  8
0
 62
     0
100
AcDbLine
 10
777.7687055189812
 20
1015.356583997661
 30
0.0
 11
779.7687055189811
 21
1017.356583997661
 31
0.0
  0
LINE
  5
3CB5
330
3C4C
100
AcDbEntity
  8
0
 62
     0
100
AcDbLine
 10
780.5971326437274
 20
1015.356583997661
 30
0.0
 11
782.5971326437273
 21
1017.356583997661
 31
0.0
  0
LINE
  5
3CB6
330
3C4C
100
AcDbEntity
  8
0
 62
     0
100
AcDbLine
 10
783.4255597684736
 20
1015.356583997661
 30
0.0
 11
785.4255597684735
 21
1017.356583997661
 31
0.0
  0
LINE
  5
3CB7
330
3C4C
100
AcDbEntity
  8
0
 62
     0
100
AcDbLine
 10
786.2539868932198
 20
1015.356583997661
 30
0.0
 11
788.2539868932198
 21
1017.356583997661
 31
0.0
  0
LINE
  5
3CB8
330
3C4C
100
AcDbEntity
  8
0
 62
     0
100
AcDbLine
 10
789.0824140179659
 20
1015.356583997661
 30
0.0
 11
791.0824140179658
 21
1017.356583997661
 31
0.0
  0
ENDBLK
  5
3CB9
330
3C4C
100
AcDbEntity
  8
0
100
AcDbBlockEnd
  0
BLOCK
  5
3CF7
330
3CF6
100
AcDbEntity
  8
0
100
AcDbBlockBegin
  2
*X9
 70
     1
 10
0.0
 20
0.0
 30
0.0
  3
*X9
  1

  0
LINE
  5
3CF8
330
3CF6
100
AcDbEntity
  8
0
 62
     0
100
AcDbLine
 10
671.5513937463946
 20
355.3332411997707
 30
0.0
 11
674.3787852854343
 21
358.1606327388103
 31
0.0
  0
LINE
  5
3CF9
330
3CF6
100
AcDbEntity
  8
0
 62
     0
100
AcDbLine
 10
671.4815929830797
 20
355.4048617926931
 30
0.0
 11
674.2373639291969
 21
358.1606327388103
 31
0.0
  0
LINE
  5
3CFA
330
3CF6
100
AcDbEntity
  8
0
 62
     0
100
AcDbLine
 10
671.4135619718986
 20
355.4782521377492
 30
0.0
 11
674.0959425729596
 21
358.1606327388103
 31
0.0
  0
LINE
  5
3CFB
330
3CF6
100
AcDbEntity
  8
0
 62
     0
100
AcDbLine
 10
671.3473057572108
 20
355.5534172792988
 30
0.0
 11
673.9545212167223
 21
358.1606327388103
 31
0.0
  0
LINE
  5
3CFC
330
3CF6
100
AcDbEntity
  8
0
 62
     0
100
AcDbLine
 10
671.2828327668911
 20
355.6303656452163
 30
0.0
 11
673.8130998604851
 21
358.1606327388103
 31
0.0
  0
LINE
  5
3CFD
330
3CF6
100
AcDbEntity
  8
0
 62
     0
100
AcDbLine
 10
671.2201548926655
 20
355.7091091272281
 30
0.0
 11
673.6716785042477
 21
358.1606327388103
 31
0.0
  0
LINE
  5
3CFE
330
3CF6
100
AcDbEntity
  8
0
 62
     0
100
AcDbLine
 10
671.1592876049079
 20
355.7896631957078
 30
0.0
 11
673.5302571480104
 21
358.1606327388103
 31
0.0
  0
LINE
  5
3CFF
330
3CF6
100
AcDbEntity
  8
0
 62
     0
100
AcDbLine
 10
671.1002501045174
 20
355.8720470515546
 30
0.0
 11
673.3888357917731
 21
358.1606327388103
 31
0.0
  0
LINE
  5
3D00
330
3CF6
100
AcDbEntity
  8
0
 62
     0
100
AcDbLine
 10
671.0430655154275
 20
355.956283818702
 30
0.0
 11
673.2474144355357
 21
358.1606327388103
 31
0.0
  0
LINE
  5
3D01
330
3CF6
100
AcDbEntity
  8
0
 62
     0
100
AcDbLine
 10
670.9877611223769
 20
356.0424007818886
 30
0.0
 11
673.1059930792985
 21
358.1606327388103
 31
0.0
  0
LINE
  5
3D02
330
3CF6
100
AcDbEntity
  8
0
 62
     0
100
AcDbLine
 10
670.9343686598611
 20
356.1304296756101
 30
0.0
 11
672.9645717230612
 21
358.1606327388103
 31
0.0
  0
LINE
  5
3D03
330
3CF6
100
AcDbEntity
  8
0
 62
     0
100
AcDbLine
 10
670.8829246597441
 20
356.2204070317305
 30
0.0
 11
672.8231503668239
 21
358.1606327388103
 31
0.0
  0
LINE
  5
3D04
330
3CF6
100
AcDbEntity
  8
0
 62
     0
100
AcDbLine
 10
670.8334708669354
 20
356.3123745951592
 30
0.0
 11
672.6817290105865
 21
358.1606327388103
 31
0.0
  0
LINE
  5
3D05
330
3CF6
100
AcDbEntity
  8
0
 62
     0
100
AcDbLine
 10
670.7860547349451
 20
356.406379819406
 30
0.0
 11
672.5403076543492
 21
358.1606327388103
 31
0.0
  0
LINE
  5
3D06
330
3CF6
100
AcDbEntity
  8
0
 62
     0
100
AcDbLine
 10
670.7407300161769
 20
356.5024764568753
 30
0.0
 11
672.3988862981119
 21
358.1606327388103
 31
0.0
  0
LINE
  5
3D07
330
3CF6
100
AcDbEntity
  8
0
 62
     0
100
AcDbLine
 10
670.6975574657284
 20
356.6007252626641
 30
0.0
 11
672.2574649418747
 21
358.1606327388103
 31
0.0
  0
LINE
  5
3D08
330
3CF6
100
AcDbEntity
  8
0
 62
     0
100
AcDbLine
 10
670.6566056825177
 20
356.7011948356906
 30
0.0
 11
672.1160435856374
 21
358.1606327388103
 31
0.0
  0
LINE
  5
3D09
330
3CF6
100
AcDbEntity
  8
0
 62
     0
100
AcDbLine
 10
670.6179521181976
 20
356.8039626276079
 30
0.0
 11
671.9746222293999
 21
358.1606327388103
 31
0.0
  0
LINE
  5
3D0A
330
3CF6
100
AcDbEntity
  8
0
 62
     0
100
AcDbLine
 10
670.5816842931014
 20
356.9091161587489
 30
0.0
 11
671.8332008731627
 21
358.1606327388103
 31
0.0
  0
LINE
  5
3D0B
330
3CF6
100
AcDbEntity
  8
0
 62
     0
100
AcDbLine
 10
670.5479012702621
 20
357.016754492147
 30
0.0
 11
671.6917795169254
 21
358.1606327388103
 31
0.0
  0
LINE
  5
3D0C
330
3CF6
100
AcDbEntity
  8
0
 62
     0
100
AcDbLine
 10
670.5167154545896
 20
357.1269900327118
 30
0.0
 11
671.5503581606881
 21
358.1606327388103
 31
0.0
  0
LINE
  5
3D0D
330
3CF6
100
AcDbEntity
  8
0
 62
     0
100
AcDbLine
 10
670.4882548063819
 20
357.2399507407415
 30
0.0
 11
671.4089368044508
 21
358.1606327388103
 31
0.0
  0
LINE
  5
3D0E
330
3CF6
100
AcDbEntity
  8
0
 62
     0
100
AcDbLine
 10
670.4626655892739
 20
357.3557828798707
 30
0.0
 11
671.2675154482135
 21
358.1606327388103
 31
0.0
  0
LINE
  5
3D0F
330
3CF6
100
AcDbEntity
  8
0
 62
     0
100
AcDbLine
 10
670.4401158166779
 20
357.4746544635119
 30
0.0
 11
671.1260940919761
 21
358.1606327388103
 31
0.0
  0
LINE
  5
3D10
330
3CF6
100
AcDbEntity
  8
0
 62
     0
100
AcDbLine
 10
670.4207996243996
 20
357.596759627471
 30
0.0
 11
670.9846727357388
 21
358.1606327388103
 31
0.0
  0
LINE
  5
3D11
330
3CF6
100
AcDbEntity
  8
0
 62
     0
100
AcDbLine
 10
670.4049428910288
 20
357.7223242503375
 30
0.0
 11
670.8432513795015
 21
358.1606327388103
 31
0.0
  0
LINE
  5
3D12
330
3CF6
100
AcDbEntity
  8
0
 62
     0
100
AcDbLine
 10
670.3928105694148
 20
357.851613284961
 30
0.0
 11
670.7018300232642
 21
358.1606327388103
 31
0.0
  0
LINE
  5
3D13
330
3CF6
100
AcDbEntity
  8
0
 62
     0
100
AcDbLine
 10
670.3847164116703
 20
357.9849404834537
 30
0.0
 11
670.560408667027
 21
358.1606327388103
 31
0.0
  0
LINE
  5
3D14
330
3CF6
100
AcDbEntity
  8
0
 62
     0
100
AcDbLine
 10
670.3810361185006
 20
358.1226815465211
 30
0.0
 11
670.4189873107895
 21
358.1606327388103
 31
0.0
  0
LINE
  5
3D15
330
3CF6
100
AcDbEntity
  8
0
 62
     0
100
AcDbLine
 10
671.6229625533181
 20
355.2633886504568
 30
0.0
 11
674.3808560778289
 21
358.0212821749675
 31
0.0
  0
LINE
  5
3D16
330
3CF6
100
AcDbEntity
  8
0
 62
     0
100
AcDbLine
 10
671.6963010150788
 20
355.1953057559801
 30
0.0
 11
674.3808560778289
 21
357.8798608187302
 31
0.0
  0
LINE
  5
3D17
330
3CF6
100
AcDbEntity
  8
0
 62
     0
100
AcDbLine
 10
671.7714140778233
 20
355.1289974624874
 30
0.0
 11
674.3808560778289
 21
357.7384394624929
 31
0.0
  0
LINE
  5
3D18
330
3CF6
100
AcDbEntity
  8
0
 62
     0
100
AcDbLine
 10
671.8483100693597
 20
355.0644720977865
 30
0.0
 11
674.3808560778289
 21
357.5970181062556
 31
0.0
  0
LINE
  5
3D19
330
3CF6
100
AcDbEntity
  8
0
 62
     0
100
AcDbLine
 10
671.9270007785153
 20
355.0017414507048
 30
0.0
 11
674.3808560778289
 21
357.4555967500183
 31
0.0
  0
LINE
  5
3D1A
330
3CF6
100
AcDbEntity
  8
0
 62
     0
100
AcDbLine
 10
672.0075015688914
 20
354.9408208848435
 30
0.0
 11
674.3808560778289
 21
357.314175393781
 31
0.0
  0
LINE
  5
3D1B
330
3CF6
100
AcDbEntity
  8
0
 62
     0
100
AcDbLine
 10
672.0898315296091
 20
354.8817294893239
 30
0.0
 11
674.3808560778289
 21
357.1727540375436
 31
0.0
  0
LINE
  5
3D1C
330
3CF6
100
AcDbEntity
  8
0
 62
     0
100
AcDbLine
 10
672.1740136665678
 20
354.8244902700453
 30
0.0
 11
674.3808560778289
 21
357.0313326813064
 31
0.0
  0
LINE
  5
3D1D
330
3CF6
100
AcDbEntity
  8
0
 62
     0
100
AcDbLine
 10
672.2600751388141
 20
354.7691303860542
 30
0.0
 11
674.3808560778289
 21
356.889911325069
 31
0.0
  0
LINE
  5
3D1E
330
3CF6
100
AcDbEntity
  8
0
 62
     0
100
AcDbLine
 10
672.3480475458962
 20
354.7156814368991
 30
0.0
 11
674.3808560778289
 21
356.7484899688317
 31
0.0
  0
LINE
  5
3D1F
330
3CF6
100
AcDbEntity
  8
0
 62
     0
100
AcDbLine
 10
672.4379672736345
 20
354.6641798084001
 30
0.0
 11
674.3808560778289
 21
356.6070686125944
 31
0.0
  0
LINE
  5
3D20
330
3CF6
100
AcDbEntity
  8
0
 62
     0
100
AcDbLine
 10
672.5298759076503
 20
354.6146670861786
 30
0.0
 11
674.3808560778289
 21
356.4656472563571
 31
0.0
  0
LINE
  5
3D21
330
3CF6
100
AcDbEntity
  8
0
 62
     0
100
AcDbLine
 10
672.6238207263872
 20
354.5671905486781
 30
0.0
 11
674.3808560778289
 21
356.3242259001198
 31
0.0
  0
LINE
  5
3D22
330
3CF6
100
AcDbEntity
  8
0
 62
     0
100
AcDbLine
 10
672.7198552883849
 20
354.5218037544385
 30
0.0
 11
674.3808560778289
 21
356.1828045438825
 31
0.0
  0
LINE
  5
3D23
330
3CF6
100
AcDbEntity
  8
0
 62
     0
100
AcDbLine
 10
672.8180401324435
 20
354.4785672422599
 30
0.0
 11
674.3808560778289
 21
356.0413831876452
 31
0.0
  0
LINE
  5
3D24
330
3CF6
100
AcDbEntity
  8
0
 62
     0
100
AcDbLine
 10
672.9184436143339
 20
354.437549367913
 30
0.0
 11
674.3808560778289
 21
355.8999618314079
 31
0.0
  0
LINE
  5
3D25
330
3CF6
100
AcDbEntity
  8
0
 62
     0
100
AcDbLine
 10
673.0211429102886
 20
354.3988273076303
 30
0.0
 11
674.3808560778289
 21
355.7585404751705
 31
0.0
  0
LINE
  5
3D26
330
3CF6
100
AcDbEntity
  8
0
 62
     0
100
AcDbLine
 10
673.1262252262249
 20
354.3624882673293
 30
0.0
 11
674.3808560778289
 21
355.6171191189333
 31
0.0
  0
LINE
  5
3D27
330
3CF6
100
AcDbEntity
  8
0
 62
     0
100
AcDbLine
 10
673.233789263345
 20
354.3286309482121
 30
0.0
 11
674.3808560778289
 21
355.475697762696
 31
0.0
  0
LINE
  5
3D28
330
3CF6
100
AcDbEntity
  8
0
 62
     0
100
AcDbLine
 10
673.3439470066469
 20
354.2973673352768
 30
0.0
 11
674.3808560778289
 21
355.3342764064586
 31
0.0
  0
LINE
  5
3D29
330
3CF6
100
AcDbEntity
  8
0
 62
     0
100
AcDbLine
 10
673.4568259247737
 20
354.2688248971662
 30
0.0
 11
674.3808560778289
 21
355.1928550502213
 31
0.0
  0
LINE
  5
3D2A
330
3CF6
100
AcDbEntity
  8
0
 62
     0
100
AcDbLine
 10
673.5725717002309
 20
354.243149316386
 30
0.0
 11
674.3808560778289
 21
355.051433693984
 31
0.0
  0
LINE
  5
3D2B
330
3CF6
100
AcDbEntity
  8
0
 62
     0
100
AcDbLine
 10
673.6913516525069
 20
354.2205079124248
 30
0.0
 11
674.3808560778289
 21
354.9100123377467
 31
0.0
  0
LINE
  5
3D2C
330
3CF6
100
AcDbEntity
  8
0
 62
     0
100
AcDbLine
 10
673.8133590795451
 20
354.2010939832256
 30
0.0
 11
674.3808560778289
 21
354.7685909815094
 31
0.0
  0
LINE
  5
3D2D
330
3CF6
100
AcDbEntity
  8
0
 62
     0
100
AcDbLine
 10
673.938818835847
 20
354.1851323832903
 30
0.0
 11
674.3808560778289
 21
354.6271696252721
 31
0.0
  0
LINE
  5
3D2E
330
3CF6
100
AcDbEntity
  8
0
 62
     0
100
AcDbLine
 10
674.0679946054534
 20
354.1728867966594
 30
0.0
 11
674.3808560778289
 21
354.4857482690347
 31
0.0
  0
LINE
  5
3D2F
330
3CF6
100
AcDbEntity
  8
0
 62
     0
100
AcDbLine
 10
674.2011985443138
 20
354.1646693792824
 30
0.0
 11
674.3808560778289
 21
354.3443269127974
 31
0.0
  0
LINE
  5
3D30
330
3CF6
100
AcDbEntity
  8
0
 62
     0
100
AcDbLine
 10
674.3388043100785
 20
354.1608537888098
 30
0.0
 11
674.3808560778289
 21
354.2029055565602
 31
0.0
  0
ENDBLK
  5
3D31
330
3CF6
100
AcDbEntity
  8
0
100
AcDbBlockEnd
  0
BLOCK
  5
3D3F
330
3D3E
100
AcDbEntity
  8
0
100
AcDbBlockBegin
  2
*X10
 70
     1
 10
0.0
 20
0.0
 30
0.0
  3
*X10
  1

  0
LINE
  5
3D40
330
3D3E
100
AcDbEntity
  8
0
 62
     0
100
AcDbLine
 10
379.3621602025816
 20
69.22512597416186
 30
0.0
 11
382.1523081514371
 21
72.01527392301739
 31
0.0
  0
LINE
  5
3D41
330
3D3E
100
AcDbEntity
  8
0
 62
     0
100
AcDbLine
 10
379.3621602025816
 20
69.36654733039915
 30
0.0
 11
382.0797622390533
 21
72.08414936687084
 31
0.0
  0
LINE
  5
3D42
330
3D3E
100
AcDbEntity
  8
0
 62
     0
100
AcDbLine
 10
379.3621602025816
 20
69.5079686866365
 30
0.0
 11
382.0054443542333
 21
72.15125283828822
 31
0.0
  0
LINE
  5
3D43
330
3D3E
100
AcDbEntity
  8
0
 62
     0
100
AcDbLine
 10
379.3621602025816
 20
69.6493900428738
 30
0.0
 11
381.9293476907103
 21
72.21657753100247
 31
0.0
  0
LINE
  5
3D44
330
3D3E
100
AcDbEntity
  8
0
 62
     0
100
AcDbLine
 10
379.3621602025816
 20
69.79081139911111
 30
0.0
 11
381.8514620208483
 21
72.2801132173778
 31
0.0
  0
LINE
  5
3D45
330
3D3E
100
AcDbEntity
  8
0
 62
     0
100
AcDbLine
 10
379.3621602025816
 20
69.93223275534841
 30
0.0
 11
381.7717735975551
 21
72.34184615032186
 31
0.0
  0
LINE
  5
3D46
330
3D3E
100
AcDbEntity
  8
0
 62
     0
100
AcDbLine
 10
379.3621602025816
 20
70.07365411158571
 30
0.0
 11
381.6902650204712
 21
72.40175892947539
 31
0.0
  0
LINE
  5
3D47
330
3D3E
100
AcDbEntity
  8
0
 62
     0
100
AcDbLine
 10
379.3621602025816
 20
70.21507546782306
 30
0.0
 11
381.6069150633465
 21
72.45983032858797
 31
0.0
  0
LINE
  5
3D48
330
3D3E
100
AcDbEntity
  8
0
 62
     0
100
AcDbLine
 10
379.3621602025816
 20
70.35649682406035
 30
0.0
 11
381.5216984585075
 21
72.51603507998627
 31
0.0
  0
LINE
  5
3D49
330
3D3E
100
AcDbEntity
  8
0
 62
     0
100
AcDbLine
 10
379.3621602025816
 20
70.49791818029766
 30
0.0
 11
381.4345856331446
 21
72.57034361086072
 31
0.0
  0
LINE
  5
3D4A
330
3D3E
100
AcDbEntity
  8
0
 62
     0
100
AcDbLine
 10
379.3621602025816
 20
70.63933953653495
 30
0.0
 11
381.3455423907211
 21
72.62272172467444
 31
0.0
  0
LINE
  5
3D4B
330
3D3E
100
AcDbEntity
  8
0
 62
     0
100
AcDbLine
 10
379.3621602025816
 20
70.78076089277224
 30
0.0
 11
381.2545295290694
 21
72.67313021926002
 31
0.0
  0
LINE
  5
3D4C
330
3D3E
100
AcDbEntity
  8
0
 62
     0
100
AcDbLine
 10
379.3621602025816
 20
70.92218224900959
 30
0.0
 11
381.1615023845801
 21
72.72152443100816
 31
0.0
  0
LINE
  5
3D4D
330
3D3E
100
AcDbEntity
  8
0
 62
     0
100
AcDbLine
 10
379.3621602025816
 20
71.06360360524689
 30
0.0
 11
381.0664102891681
 21
72.76785369183342
 31
0.0
  0
LINE
  5
3D4E
330
3D3E
100
AcDbEntity
  8
0
 62
     0
100
AcDbLine
 10
379.3621602025816
 20
71.2050249614842
 30
0.0
 11
380.9691959232342
 21
72.81206068213676
 31
0.0
  0
LINE
  5
3D4F
330
3D3E
100
AcDbEntity
  8
0
 62
     0
100
AcDbLine
 10
379.3621602025816
 20
71.3464463177215
 30
0.0
 11
380.8697945433801
 21
72.85408065851995
 31
0.0
  0
LINE
  5
3D50
330
3D3E
100
AcDbEntity
  8
0
 62
     0
100
AcDbLine
 10
379.3621602025816
 20
71.4878676739588
 30
0.0
 11
380.7681330578096
 21
72.89384052918676
 31
0.0
  0
LINE
  5
3D51
330
3D3E
100
AcDbEntity
  8
0
 62
     0
100
AcDbLine
 10
379.3621602025816
 20
71.62928903019615
 30
0.0
 11
380.664128914678
 21
72.93125774229257
 31
0.0
  0
LINE
  5
3D52
330
3D3E
100
AcDbEntity
  8
0
 62
     0
100
AcDbLine
 10
379.3621602025816
 20
71.77071038643345
 30
0.0
 11
380.5576887584154
 21
72.96623894226731
 31
0.0
  0
LINE
  5
3D53
330
3D3E
100
AcDbEntity
  8
0
 62
     0
100
AcDbLine
 10
379.3621602025816
 20
71.91213174267075
 30
0.0
 11
380.4487067952178
 21
72.9986783353069
 31
0.0
  0
LINE
  5
3D54
330
3D3E
100
AcDbEntity
  8
0
 62
     0
100
AcDbLine
 10
379.3621602025816
 20
72.05355309890805
 30
0.0
 11
380.3370627899697
 21
73.02845568629615
 31
0.0
  0
LINE
  5
3D55
330
3D3E
100
AcDbEntity
  8
0
 62
     0
100
AcDbLine
 10
379.3621602025816
 20
72.19497445514535
 30
0.0
 11
380.2226195905693
 21
73.05543384313304
 31
0.0
  0
LINE
  5
3D56
330
3D3E
100
AcDbEntity
  8
0
 62
     0
100
AcDbLine
 10
379.3621602025816
 20
72.33639581138269
 30
0.0
 11
380.1052200385356
 21
73.07945564733663
 31
0.0
  0
LINE
  5
3D57
330
3D3E
100
AcDbEntity
  8
0
 62
     0
100
AcDbLine
 10
379.3621602025816
 20
72.47781716761998
 30
0.0
 11
379.9846830715684
 21
73.10034003660679
 31
0.0
  0
LINE
  5
3D58
330
3D3E
100
AcDbEntity
  8
0
 62
     0
100
AcDbLine
 10
379.3621602025816
 20
72.61923852385729
 30
0.0
 11
379.8607987459301
 21
73.11787706720579
 31
0.0
  0
LINE
  5
3D59
330
3D3E
100
AcDbEntity
  8
0
 62
     0
100
AcDbLine
 10
379.3621602025816
 20
72.7606598800946
 30
0.0
 11
379.7333217903877
 21
73.13182146790065
 31
0.0
  0
LINE
  5
3D5A
330
3D3E
100
AcDbEntity
  8
0
 62
     0
100
AcDbLine
 10
379.3621602025816
 20
72.90208123633189
 30
0.0
 11
379.6019631260305
 21
73.14188415978079
 31
0.0
  0
LINE
  5
3D5B
330
3D3E
100
AcDbEntity
  8
0
 62
     0
100
AcDbLine
 10
379.3621602025816
 20
73.04350259256924
 30
0.0
 11
379.4663785080399
 21
73.14772089802751
 31
0.0
  0
LINE
  5
3D5C
330
3D3E
100
AcDbEntity
  8
0
 62
     0
100
AcDbLine
 10
379.4275343950761
 20
69.14907881041897
 30
0.0
 11
382.2230855408678
 21
71.94462995621075
 31
0.0
  0
LINE
  5
3D5D
330
3D3E
100
AcDbEntity
  8
0
 62
     0
100
AcDbLine
 10
379.5689557513134
 20
69.14907881041897
 30
0.0
 11
382.2920945325662
 21
71.87221759167184
 31
0.0
  0
LINE
  5
3D5E
330
3D3E
100
AcDbEntity
  8
0
 62
     0
100
AcDbLine
 10
379.7103771075506
 20
69.14907881041897
 30
0.0
 11
382.3593319286691
 21
71.79803363153749
 31
0.0
  0
LINE
  5
3D5F
330
3D3E
100
AcDbEntity
  8
0
 62
     0
100
AcDbLine
 10
379.851798463788
 20
69.14907881041897
 30
0.0
 11
382.4247911780891
 21
71.72207152472018
 31
0.0
  0
LINE
  5
3D60
330
3D3E
100
AcDbEntity
  8
0
 62
     0
100
AcDbLine
 10
379.9932198200253
 20
69.14907881041897
 30
0.0
 11
382.4884623143904
 21
71.64432130478409
 31
0.0
  0
LINE
  5
3D61
330
3D3E
100
AcDbEntity
  8
0
 62
     0
100
AcDbLine
 10
380.1346411762626
 20
69.14907881041897
 30
0.0
 11
382.5503318602965
 21
71.56476949445295
 31
0.0
  0
LINE
  5
3D62
330
3D3E
100
AcDbEntity
  8
0
 62
     0
100
AcDbLine
 10
380.2760625324999
 20
69.14907881041897
 30
0.0
 11
382.6103826966729
 21
71.48339897459199
 31
0.0
  0
LINE
  5
3D63
330
3D3E
100
AcDbEntity
  8
0
 62
     0
100
AcDbLine
 10
380.4174838887372
 20
69.14907881041897
 30
0.0
 11
382.6685938929604
 21
71.40018881464214
 31
0.0
  0
LINE
  5
3D64
330
3D3E
100
AcDbEntity
  8
0
 62
     0
100
AcDbLine
 10
380.5589052449745
 20
69.14907881041897
 30
0.0
 11
382.7249404950502
 21
71.31511406049462
 31
0.0
  0
LINE
  5
3D65
330
3D3E
100
AcDbEntity
  8
0
 62
     0
100
AcDbLine
 10
380.7003266012118
 20
69.14907881041897
 30
0.0
 11
382.7793932654207
 21
71.22814547462785
 31
0.0
  0
LINE
  5
3D66
330
3D3E
100
AcDbEntity
  8
0
 62
     0
100
AcDbLine
 10
380.8417479574491
 20
69.14907881041897
 30
0.0
 11
382.8319183689584
 21
71.13924922192822
 31
0.0
  0
LINE
  5
3D67
330
3D3E
100
AcDbEntity
  8
0
 62
     0
100
AcDbLine
 10
380.9831693136865
 20
69.14907881041897
 30
0.0
 11
382.8824769961721
 21
71.04838649290472
 31
0.0
  0
LINE
  5
3D68
330
3D3E
100
AcDbEntity
  8
0
 62
     0
100
AcDbLine
 10
381.1245906699237
 20
69.14907881041897
 30
0.0
 11
382.9310249133866
 21
70.9555130538819
 31
0.0
  0
LINE
  5
3D69
330
3D3E
100
AcDbEntity
  8
0
 62
     0
100
AcDbLine
 10
381.2660120261611
 20
69.14907881041897
 30
0.0
 11
382.9775119268271
 21
70.86057871108504
 31
0.0
  0
LINE
  5
3D6A
330
3D3E
100
AcDbEntity
  8
0
 62
     0
100
AcDbLine
 10
381.4074333823984
 20
69.14907881041897
 30
0.0
 11
383.0218812441094
 21
70.76352667213004
 31
0.0
  0
LINE
  5
3D6B
330
3D3E
100
AcDbEntity
  8
0
 62
     0
100
AcDbLine
 10
381.5488547386357
 20
69.14907881041897
 30
0.0
 11
383.0640687122685
 21
70.66429278405185
 31
0.0
  0
LINE
  5
3D6C
330
3D3E
100
AcDbEntity
  8
0
 62
     0
100
AcDbLine
 10
381.690276094873
 20
69.14907881041897
 30
0.0
 11
383.1040019057572
 21
70.56280462130326
 31
0.0
  0
LINE
  5
3D6D
330
3D3E
100
AcDbEntity
  8
0
 62
     0
100
AcDbLine
 10
381.8316974511103
 20
69.14907881041897
 30
0.0
 11
383.1415990303349
 21
70.45898038964364
 31
0.0
  0
LINE
  5
3D6E
330
3D3E
100
AcDbEntity
  8
0
 62
     0
100
AcDbLine
 10
381.9731188073476
 20
69.14907881041897
 30
0.0
 11
383.1767675987538
 21
70.35272760182512
 31
0.0
  0
LINE
  5
3D6F
330
3D3E
100
AcDbEntity
  8
0
 62
     0
100
AcDbLine
 10
382.1145401635849
 20
69.14907881041897
 30
0.0
 11
383.2094028206366
 21
70.24394146747063
 31
0.0
  0
LINE
  5
3D70
330
3D3E
100
AcDbEntity
  8
0
 62
     0
100
AcDbLine
 10
382.2559615198222
 20
69.14907881041897
 30
0.0
 11
383.2393856304615
 21
70.13250292105822
 31
0.0
  0
LINE
  5
3D71
330
3D3E
100
AcDbEntity
  8
0
 62
     0
100
AcDbLine
 10
382.3973828760595
 20
69.14907881041897
 30
0.0
 11
383.2665802519311
 21
70.01827618629057
 31
0.0
  0
LINE
  5
3D72
330
3D3E
100
AcDbEntity
  8
0
 62
     0
100
AcDbLine
 10
382.5388042322968
 20
69.14907881041897
 30
0.0
 11
383.2908311608899
 21
69.90110573901209
 31
0.0
  0
LINE
  5
3D73
330
3D3E
100
AcDbEntity
  8
0
 62
     0
100
AcDbLine
 10
382.6802255885342
 20
69.14907881041897
 30
0.0
 11
383.3119592571994
 21
69.78081247908417
 31
0.0
  0
LINE
  5
3D74
330
3D3E
100
AcDbEntity
  8
0
 62
     0
100
AcDbLine
 10
382.8216469447715
 20
69.14907881041897
 30
0.0
 11
383.3297569804361
 21
69.65718884608361
 31
0.0
  0
LINE
  5
3D75
330
3D3E
100
AcDbEntity
  8
0
 62
     0
100
AcDbLine
 10
382.9630683010088
 20
69.14907881041897
 30
0.0
 11
383.343981991692
 21
69.52999250110223
 31
0.0
  0
LINE
  5
3D76
330
3D3E
100
AcDbEntity
  8
0
 62
     0
100
AcDbLine
 10
383.1044896572461
 20
69.14907881041897
 30
0.0
 11
383.3543488720653
 21
69.39893802523823
 31
0.0
  0
LINE
  5
3D77
330
3D3E
100
AcDbEntity
  8
0
 62
     0
100
AcDbLine
 10
383.2459110134834
 20
69.14907881041897
 30
0.0
 11
383.3605180197484
 21
69.26368581668405
 31
0.0
  0
ENDBLK
  5
3D78
330
3D3E
100
AcDbEntity
  8
0
100
AcDbBlockEnd
  0
BLOCK
  5
441C
330
4411
100
AcDbEntity
  8
0
100
AcDbBlockBegin
  2
*D11
 70
     1
 10
0.0
 20
0.0
 30
0.0
  3
*D11
  1

  0
LINE
  5
4524
330
4411
100
AcDbEntity
  8
BEM
 62
     0
370
    -2
100
AcDbLine
 10
390.4089408921111
 20
361.1204461175744
 30
0.0
 11
394.0680495866417
 21
430.9403992731936
 31
0.0
  0
LINE
  5
4525
330
4411
100
AcDbEntity
  8
BEM
 62
     0
370
    -2
100
AcDbLine
 10
485.7966407305788
 20
390.2457131115653
 30
0.0
 11
487.6722678243917
 21
426.0348100638298
 31
0.0
  0
LINE
  5
4526
330
4411
100
AcDbEntity
  8
BEM
 62
     0
370
    -2
100
AcDbLine
 10
400.9537844174379
 20
428.5767885099839
 30
0.0
 11
480.5771891686238
 21
424.403902688021
 31
0.0
  0
SOLID
  5
4527
330
4411
100
AcDbEntity
  8
BEM
 62
     0
100
AcDbTrace
 10
401.0148430330547
 20
429.7418563005309
 30
0.0
 11
400.8927258018212
 21
427.4117207194369
 31
0.0
 12
393.9633776741559
 22
428.9431402036844
 32
0.0
 13
393.9633776741559
 23
428.9431402036844
 33
0.0
  0
SOLID
  5
4528
330
4411
100
AcDbEntity
  8
BEM
 62
     0
100
AcDbTrace
 10
480.6382477842406
 20
425.568970478568
 30
0.0
 11
480.5161305530071
 21
423.238834897474
 31
0.0
 12
487.5675959119059
 22
424.0375509943206
 32
0.0
 13
487.5675959119059
 23
424.0375509943206
 33
0.0
  0
MTEXT
  5
4529
330
4411
100
AcDbEntity
  8
BEM
 62
     1
100
AcDbMText
 10
441.1056705086099
 20
432.9814375749072
 30
0.0
 40
7.0
 41
0.0
 71
     5
 72
     1
  1
\A1;400
 11
0.998629534754575
 21
-0.0523359562429246
 31
0.0
 73
     1
 44
1.0
  0
POINT
  5
452A
330
4411
100
AcDbEntity
  8
DEFPOINTS
 62
     0
100
AcDbPoint
 10
390.3042689796253
 20
359.1231870480652
 30
0.0
  0
POINT
  5
452B
330
4411
100
AcDbEntity
  8
DEFPOINTS
 62
     0
100
AcDbPoint
 10
485.6919688180929
 20
388.2484540420561
 30
0.0
  0
POINT
  5
452C
330
4411
100
AcDbEntity
  8
DEFPOINTS
 62
     0
100
AcDbPoint
 10
487.5675959119059
 20
424.0375509943206
 30
0.0
  0
ENDBLK
  5
441D
330
4411
100
AcDbEntity
  8
0
100
AcDbBlockEnd
  0
BLOCK
  5
4429
330
441E
100
AcDbEntity
  8
0
100
AcDbBlockBegin
  2
*D12
 70
     1
 10
0.0
 20
0.0
 30
0.0
  3
*D12
  1

  0
LINE
  5
4541
330
441E
100
AcDbEntity
  8
BEM
 62
     0
370
    -2
100
AcDbLine
 10
73.30426897962536
 20
354.2962379235012
 30
0.0
 11
73.30426897962536
 21
272.5329973724591
 31
0.0
  0
LINE
  5
4542
330
441E
100
AcDbEntity
  8
BEM
 62
     0
370
    -2
100
AcDbLine
 10
483.0686230783627
 20
336.1920354031068
 30
0.0
 11
483.0686230783627
 21
272.5329973724591
 31
0.0
  0
LINE
  5
4543
330
441E
100
AcDbEntity
  8
BEM
 62
     0
370
    -2
100
AcDbLine
 10
80.30426897962536
 20
274.5329973724591
 30
0.0
 11
476.0686230783627
 21
274.5329973724591
 31
0.0
  0
SOLID
  5
4544
330
441E
100
AcDbEntity
  8
BEM
 62
     0
100
AcDbTrace
 10
80.30426897962536
 20
275.6996640391258
 30
0.0
 11
80.30426897962536
 21
273.3663307057924
 31
0.0
 12
73.30426897962536
 22
274.5329973724591
 32
0.0
 13
73.30426897962536
 23
274.5329973724591
 33
0.0
  0
SOLID
  5
4545
330
441E
100
AcDbEntity
  8
BEM
 62
     0
100
AcDbTrace
 10
476.0686230783627
 20
275.6996640391258
 30
0.0
 11
476.0686230783627
 21
273.3663307057924
 31
0.0
 12
483.0686230783627
 22
274.5329973724591
 32
0.0
 13
483.0686230783627
 23
274.5329973724591
 33
0.0
  0
MTEXT
  5
4546
330
441E
100
AcDbEntity
  8
BEM
 62
     1
100
AcDbMText
 10
310.9496491044798
 20
281.0329973724591
 30
0.0
 40
7.0
 41
0.0
 71
     5
 72
     1
  1
\A1;717
 73
     1
 44
1.0
  0
POINT
  5
4547
330
441E
100
AcDbEntity
  8
DEFPOINTS
 62
     0
100
AcDbPoint
 10
73.30426897962536
 20
356.2962379235012
 30
0.0
  0
POINT
  5
4548
330
441E
100
AcDbEntity
  8
DEFPOINTS
 62
     0
100
AcDbPoint
 10
483.0686230783627
 20
338.1920354031068
 30
0.0
  0
POINT
  5
4549
330
441E
100
AcDbEntity
  8
DEFPOINTS
 62
     0
100
AcDbPoint
 10
483.0686230783627
 20
274.5329973724591
 30
0.0
  0
ENDBLK
  5
442A
330
441E
100
AcDbEntity
  8
0
100
AcDbBlockEnd
  0
BLOCK
  5
4434
330
442B
100
AcDbEntity
  8
0
100
AcDbBlockBegin
  2
*D13
 70
     1
 10
0.0
 20
0.0
 30
0.0
  3
*D13
  1

  0
LINE
  5
4512
330
442B
100
AcDbEntity
  8
BEM
 62
     0
370
    -2
100
AcDbLine
 10
470.4131939624257
 20
287.7852886930508
 30
0.0
 11
501.8263893364855
 21
286.1389928833117
 31
0.0
  0
LINE
  5
4513
330
442B
100
AcDbEntity
  8
BEM
 62
     0
370
    -2
100
AcDbLine
 10
475.7514614992068
 20
389.6455012380177
 30
0.0
 11
507.1646568732666
 21
387.9992054282787
 31
0.0
  0
LINE
  5
4514
330
442B
100
AcDbEntity
  8
BEM
 62
     0
370
    -2
100
AcDbLine
 10
500.195481960677
 20
293.2340715390796
 30
0.0
 11
504.8010461100568
 21
381.1134705974826
 31
0.0
  0
SOLID
  5
4515
330
442B
100
AcDbEntity
  8
BEM
 62
     0
100
AcDbTrace
 10
499.03041417013
 20
293.2951301546964
 30
0.0
 11
501.3605497512241
 21
293.1730129234628
 31
0.0
 12
499.8291302669763
 22
286.2436647957976
 32
0.0
 13
499.8291302669763
 23
286.2436647957976
 33
0.0
  0
SOLID
  5
4516
330
442B
100
AcDbEntity
  8
BEM
 62
     0
100
AcDbTrace
 10
503.6359783195098
 20
381.1745292130993
 30
0.0
 11
505.9661139006038
 21
381.0524119818658
 31
0.0
 12
505.1673978037575
 22
388.1038773407646
 32
0.0
 13
505.1673978037575
 23
388.1038773407646
 33
0.0
  0
MTEXT
  5
4517
330
442B
100
AcDbEntity
  8
BEM
 62
     1
100
AcDbMText
 10
496.0071720594623
 20
337.5139547838604
 30
0.0
 40
7.0
 41
0.0
 71
     5
 72
     1
  1
\A1;%%c102
 11
0.052335956242952
 21
0.9986295347545734
 31
0.0
 73
     1
 44
1.0
  0
POINT
  5
4518
330
442B
100
AcDbEntity
  8
DEFPOINTS
 62
     0
100
AcDbPoint
 10
468.4159348929165
 20
287.8899606055366
 30
0.0
  0
POINT
  5
4519
330
442B
100
AcDbEntity
  8
DEFPOINTS
 62
     0
100
AcDbPoint
 10
473.7542024296977
 20
389.7501731505036
 30
0.0
  0
POINT
  5
451A
330
442B
100
AcDbEntity
  8
DEFPOINTS
 62
     0
100
AcDbPoint
 10
505.1673978037575
 20
388.1038773407646
 30
0.0
  0
ENDBLK
  5
4435
330
442B
100
AcDbEntity
  8
0
100
AcDbBlockEnd
  0
BLOCK
  5
4441
330
4436
100
AcDbEntity
  8
0
100
AcDbBlockBegin
  2
*D14
 70
     1
 10
0.0
 20
0.0
 30
0.0
  3
*D14
  1

  0
LINE
  5
4509
330
4436
100
AcDbEntity
  8
BEM
 62
     0
370
    -2
100
AcDbLine
 10
280.9394361354456
 20
454.6597609253086
 30
0.0
 11
280.9394361354456
 21
565.6496067587749
 31
0.0
  0
LINE
  5
450A
330
4436
100
AcDbEntity
  8
BEM
 62
     0
370
    -2
100
AcDbLine
 10
388.3042689796253
 20
573.1606327388101
 30
0.0
 11
388.3042689796253
 21
561.6496067587749
 31
0.0
  0
LINE
  5
450B
330
4436
100
AcDbEntity
  8
BEM
 62
     0
370
    -2
100
AcDbLine
 10
287.9394361354456
 20
563.6496067587748
 30
0.0
 11
381.3042689796254
 21
563.6496067587748
 31
0.0
  0
SOLID
  5
450C
330
4436
100
AcDbEntity
  8
BEM
 62
     0
100
AcDbTrace
 10
287.9394361354456
 20
564.8162734254415
 30
0.0
 11
287.9394361354456
 21
562.4829400921083
 31
0.0
 12
280.9394361354456
 22
563.6496067587748
 32
0.0
 13
280.9394361354456
 23
563.6496067587748
 33
0.0
  0
SOLID
  5
450D
330
4436
100
AcDbEntity
  8
BEM
 62
     0
100
AcDbTrace
 10
381.3042689796254
 20
564.8162734254415
 30
0.0
 11
381.3042689796254
 21
562.4829400921083
 31
0.0
 12
388.3042689796253
 22
563.6496067587748
 32
0.0
 13
388.3042689796253
 23
563.6496067587748
 33
0.0
  0
MTEXT
  5
450E
330
4436
100
AcDbEntity
  8
BEM
 62
     1
100
AcDbMText
 10
334.6218525575355
 20
570.1496067587749
 30
0.0
 40
7.0
 41
0.0
 71
     5
 72
     1
  1
\A1;107
 73
     1
 44
1.0
  0
POINT
  5
450F
330
4436
100
AcDbEntity
  8
DEFPOINTS
 62
     0
100
AcDbPoint
 10
280.9394361354456
 20
452.6597609253086
 30
0.0
  0
POINT
  5
4510
330
4436
100
AcDbEntity
  8
DEFPOINTS
 62
     0
100
AcDbPoint
 10
388.3042689796253
 20
575.1606327388101
 30
0.0
  0
POINT
  5
4511
330
4436
100
AcDbEntity
  8
DEFPOINTS
 62
     0
100
AcDbPoint
 10
388.3042689796253
 20
563.6496067587748
 30
0.0
  0
ENDBLK
  5
4442
330
4436
100
AcDbEntity
  8
0
100
AcDbBlockEnd
  0
BLOCK
  5
444E
330
4443
100
AcDbEntity
  8
0
100
AcDbBlockBegin
  2
*D15
 70
     1
 10
0.0
 20
0.0
 30
0.0
  3
*D15
  1

  0
LINE
  5
4500
330
4443
100
AcDbEntity
  8
BEM
 62
     0
370
    -2
100
AcDbLine
 10
69.30426897962536
 20
360.1606327388101
 30
0.0
 11
56.23055015834061
 21
360.1606327388101
 31
0.0
  0
LINE
  5
4501
330
4443
100
AcDbEntity
  8
BEM
 62
     0
370
    -2
100
AcDbLine
 10
289.3861567866998
 20
457.1597609253086
 30
0.0
 11
56.23055015834061
 21
457.1597609253087
 31
0.0
  0
LINE
  5
4502
330
4443
100
AcDbEntity
  8
BEM
 62
     0
370
    -2
100
AcDbLine
 10
58.23055015834061
 20
367.1606327388101
 30
0.0
 11
58.23055015834063
 21
450.1597609253087
 31
0.0
  0
SOLID
  5
4503
330
4443
100
AcDbEntity
  8
BEM
 62
     0
100
AcDbTrace
 10
57.06388349167395
 20
367.1606327388101
 30
0.0
 11
59.39721682500728
 21
367.1606327388101
 31
0.0
 12
58.23055015834061
 22
360.1606327388101
 32
0.0
 13
58.23055015834061
 23
360.1606327388101
 33
0.0
  0
SOLID
  5
4504
330
4443
100
AcDbEntity
  8
BEM
 62
     0
100
AcDbTrace
 10
57.06388349167397
 20
450.1597609253087
 30
0.0
 11
59.3972168250073
 21
450.1597609253087
 31
0.0
 12
58.23055015834063
 22
457.1597609253087
 32
0.0
 13
58.23055015834063
 23
457.1597609253087
 33
0.0
  0
MTEXT
  5
4505
330
4443
100
AcDbEntity
  8
BEM
 62
     1
100
AcDbMText
 10
51.73055015834056
 20
408.6601968320594
 30
0.0
 40
7.0
 41
0.0
 71
     5
 72
     1
  1
\A1;97
 11
0.0000000000000001
 21
1.0
 31
0.0
 73
     1
 44
1.0
  0
POINT
  5
4506
330
4443
100
AcDbEntity
  8
DEFPOINTS
 62
     0
100
AcDbPoint
 10
71.30426897962536
 20
360.1606327388101
 30
0.0
  0
POINT
  5
4507
330
4443
100
AcDbEntity
  8
DEFPOINTS
 62
     0
100
AcDbPoint
 10
291.3861567866998
 20
457.1597609253086
 30
0.0
  0
POINT
  5
4508
330
4443
100
AcDbEntity
  8
DEFPOINTS
 62
     0
100
AcDbPoint
 10
58.23055015834063
 20
457.1597609253087
 30
0.0
  0
ENDBLK
  5
444F
330
4443
100
AcDbEntity
  8
0
100
AcDbBlockEnd
  0
BLOCK
  5
445B
330
4450
100
AcDbEntity
  8
0
100
AcDbBlockBegin
  2
*D16
 70
     1
 10
0.0
 20
0.0
 30
0.0
  3
*D16
  1

  0
LINE
  5
44F7
330
4450
100
AcDbEntity
  8
BEM
 62
     0
370
    -2
100
AcDbLine
 10
559.3808560778283
 20
358.1606327388103
 30
0.0
 11
541.9962096198349
 21
358.1606327388103
 31
0.0
  0
LINE
  5
44F8
330
4450
100
AcDbEntity
  8
BEM
 62
     0
370
    -2
100
AcDbLine
 10
676.3808560778287
 20
308.1606327388111
 30
0.0
 11
541.9962096198349
 21
308.1606327388111
 31
0.0
  0
LINE
  5
44F9
330
4450
100
AcDbEntity
  8
BEM
 62
     0
370
    -2
100
AcDbLine
 10
543.996209619835
 20
351.1606327388102
 30
0.0
 11
543.996209619835
 21
315.1606327388111
 31
0.0
  0
SOLID
  5
44FA
330
4450
100
AcDbEntity
  8
BEM
 62
     0
100
AcDbTrace
 10
542.8295429531683
 20
351.1606327388102
 30
0.0
 11
545.1628762865015
 21
351.1606327388102
 31
0.0
 12
543.996209619835
 22
358.1606327388103
 32
0.0
 13
543.996209619835
 23
358.1606327388103
 33
0.0
  0
SOLID
  5
44FB
330
4450
100
AcDbEntity
  8
BEM
 62
     0
100
AcDbTrace
 10
542.8295429531683
 20
315.1606327388111
 30
0.0
 11
545.1628762865015
 21
315.1606327388111
 31
0.0
 12
543.996209619835
 22
308.1606327388111
 32
0.0
 13
543.996209619835
 23
308.1606327388111
 33
0.0
  0
MTEXT
  5
44FC
330
4450
100
AcDbEntity
  8
BEM
 62
     1
100
AcDbMText
 10
537.4962096198348
 20
333.1606327388108
 30
0.0
 40
7.0
 41
0.0
 71
     5
 72
     1
  1
\A1;50
 11
0.0000000000000001
 21
1.0
 31
0.0
 73
     1
 44
1.0
  0
POINT
  5
44FD
330
4450
100
AcDbEntity
  8
DEFPOINTS
 62
     0
100
AcDbPoint
 10
561.3808560778283
 20
358.1606327388103
 30
0.0
  0
POINT
  5
44FE
330
4450
100
AcDbEntity
  8
DEFPOINTS
 62
     0
100
AcDbPoint
 10
678.3808560778287
 20
308.1606327388111
 30
0.0
  0
POINT
  5
44FF
330
4450
100
AcDbEntity
  8
DEFPOINTS
 62
     0
100
AcDbPoint
 10
543.996209619835
 20
308.1606327388111
 30
0.0
  0
ENDBLK
  5
445C
330
4450
100
AcDbEntity
  8
0
100
AcDbBlockEnd
  0
BLOCK
  5
4468
330
445D
100
AcDbEntity
  8
0
100
AcDbBlockBegin
  2
*D17
 70
     1
 10
0.0
 20
0.0
 30
0.0
  3
*D17
  1

  0
LINE
  5
44EE
330
445D
100
AcDbEntity
  8
BEM
 62
     0
370
    -2
100
AcDbLine
 10
390.3042689796254
 20
306.0906430929166
 30
0.0
 11
390.3042689796254
 21
289.2788428047976
 31
0.0
  0
LINE
  5
44EF
330
445D
100
AcDbEntity
  8
BEM
 62
     0
370
    -2
100
AcDbLine
 10
186.3042689796253
 20
310.1606327388105
 30
0.0
 11
186.3042689796253
 21
289.2788428047976
 31
0.0
  0
LINE
  5
44F0
330
445D
100
AcDbEntity
  8
BEM
 62
     0
370
    -2
100
AcDbLine
 10
383.3042689796254
 20
291.2788428047976
 30
0.0
 11
193.3042689796253
 21
291.2788428047976
 31
0.0
  0
SOLID
  5
44F1
330
445D
100
AcDbEntity
  8
BEM
 62
     0
100
AcDbTrace
 10
383.3042689796254
 20
292.4455094714643
 30
0.0
 11
383.3042689796254
 21
290.1121761381309
 31
0.0
 12
390.3042689796254
 22
291.2788428047976
 32
0.0
 13
390.3042689796254
 23
291.2788428047976
 33
0.0
  0
SOLID
  5
44F2
330
445D
100
AcDbEntity
  8
BEM
 62
     0
100
AcDbTrace
 10
193.3042689796253
 20
292.4455094714643
 30
0.0
 11
193.3042689796253
 21
290.1121761381309
 31
0.0
 12
186.3042689796253
 22
291.2788428047976
 32
0.0
 13
186.3042689796253
 23
291.2788428047976
 33
0.0
  0
MTEXT
  5
44F3
330
445D
100
AcDbEntity
  8
BEM
 62
     1
100
AcDbMText
 10
288.3042689796253
 20
297.7788428047976
 30
0.0
 40
7.0
 41
0.0
 71
     5
 72
     1
  1
\A1;204
 73
     1
 44
1.0
  0
POINT
  5
44F4
330
445D
100
AcDbEntity
  8
DEFPOINTS
 62
     0
100
AcDbPoint
 10
390.3042689796254
 20
308.0906430929166
 30
0.0
  0
POINT
  5
44F5
330
445D
100
AcDbEntity
  8
DEFPOINTS
 62
     0
100
AcDbPoint
 10
186.3042689796253
 20
312.1606327388105
 30
0.0
  0
POINT
  5
44F6
330
445D
100
AcDbEntity
  8
DEFPOINTS
 62
     0
100
AcDbPoint
 10
186.3042689796253
 20
291.2788428047976
 30
0.0
  0
ENDBLK
  5
4469
330
445D
100
AcDbEntity
  8
0
100
AcDbBlockEnd
  0
BLOCK
  5
4475
330
446A
100
AcDbEntity
  8
0
100
AcDbBlockBegin
  2
*D18
 70
     1
 10
0.0
 20
0.0
 30
0.0
  3
*D18
  1

  0
LINE
  5
44E5
330
446A
100
AcDbEntity
  8
BEM
 62
     0
370
    -2
100
AcDbLine
 10
579.3808560778282
 20
575.1606327388101
 30
0.0
 11
541.9962096198349
 21
575.1606327388101
 31
0.0
  0
LINE
  5
44E6
330
446A
100
AcDbEntity
  8
BEM
 62
     0
370
    -2
100
AcDbLine
 10
559.3808560778283
 20
358.1606327388103
 30
0.0
 11
541.9962096198349
 21
358.1606327388103
 31
0.0
  0
LINE
  5
44E7
330
446A
100
AcDbEntity
  8
BEM
 62
     0
370
    -2
100
AcDbLine
 10
543.996209619835
 20
568.1606327388101
 30
0.0
 11
543.996209619835
 21
365.1606327388102
 31
0.0
  0
SOLID
  5
44E8
330
446A
100
AcDbEntity
  8
BEM
 62
     0
100
AcDbTrace
 10
542.8295429531683
 20
568.1606327388101
 30
0.0
 11
545.1628762865015
 21
568.1606327388101
 31
0.0
 12
543.996209619835
 22
575.1606327388101
 32
0.0
 13
543.996209619835
 23
575.1606327388101
 33
0.0
  0
SOLID
  5
44E9
330
446A
100
AcDbEntity
  8
BEM
 62
     0
100
AcDbTrace
 10
542.8295429531683
 20
365.1606327388102
 30
0.0
 11
545.1628762865015
 21
365.1606327388102
 31
0.0
 12
543.996209619835
 22
358.1606327388103
 32
0.0
 13
543.996209619835
 23
358.1606327388103
 33
0.0
  0
MTEXT
  5
44EA
330
446A
100
AcDbEntity
  8
BEM
 62
     1
100
AcDbMText
 10
537.4962096198348
 20
466.6606327388102
 30
0.0
 40
7.0
 41
0.0
 71
     5
 72
     1
  1
\A1;217
 11
0.0000000000000001
 21
1.0
 31
0.0
 73
     1
 44
1.0
  0
POINT
  5
44EB
330
446A
100
AcDbEntity
  8
DEFPOINTS
 62
     0
100
AcDbPoint
 10
581.3808560778283
 20
575.1606327388101
 30
0.0
  0
POINT
  5
44EC
330
446A
100
AcDbEntity
  8
DEFPOINTS
 62
     0
100
AcDbPoint
 10
561.3808560778283
 20
358.1606327388103
 30
0.0
  0
POINT
  5
44ED
330
446A
100
AcDbEntity
  8
DEFPOINTS
 62
     0
100
AcDbPoint
 10
543.996209619835
 20
358.1606327388103
 30
0.0
  0
ENDBLK
  5
4476
330
446A
100
AcDbEntity
  8
0
100
AcDbBlockEnd
  0
BLOCK
  5
4482
330
4477
100
AcDbEntity
  8
0
100
AcDbBlockBegin
  2
*D19
 70
     1
 10
0.0
 20
0.0
 30
0.0
  3
*D19
  1

  0
LINE
  5
4538
330
4477
100
AcDbEntity
  8
BEM
 62
     0
370
    -2
100
AcDbLine
 10
62.36216020258132
 20
158.439007675562
 30
0.0
 11
62.36216020258132
 21
196.1697231535064
 31
0.0
  0
LINE
  5
4539
330
4477
100
AcDbEntity
  8
BEM
 62
     0
370
    -2
100
AcDbLine
 10
379.3621602025818
 20
178.4390076755618
 30
0.0
 11
379.3621602025818
 21
196.1697231535064
 31
0.0
  0
LINE
  5
453A
330
4477
100
AcDbEntity
  8
BEM
 62
     0
370
    -2
100
AcDbLine
 10
69.36216020258132
 20
194.1697231535064
 30
0.0
 11
372.3621602025818
 21
194.1697231535064
 31
0.0
  0
SOLID
  5
453B
330
4477
100
AcDbEntity
  8
BEM
 62
     0
100
AcDbTrace
 10
69.36216020258132
 20
195.3363898201731
 30
0.0
 11
69.36216020258132
 21
193.0030564868397
 31
0.0
 12
62.36216020258132
 22
194.1697231535064
 32
0.0
 13
62.36216020258132
 23
194.1697231535064
 33
0.0
  0
SOLID
  5
453C
330
4477
100
AcDbEntity
  8
BEM
 62
     0
100
AcDbTrace
 10
372.3621602025818
 20
195.3363898201731
 30
0.0
 11
372.3621602025818
 21
193.0030564868397
 31
0.0
 12
379.3621602025818
 22
194.1697231535064
 32
0.0
 13
379.3621602025818
 23
194.1697231535064
 33
0.0
  0
MTEXT
  5
453D
330
4477
100
AcDbEntity
  8
BEM
 62
     1
100
AcDbMText
 10
172.0468109781086
 20
200.6697231535064
 30
0.0
 40
7.0
 41
0.0
 71
     5
 72
     1
  1
\A1;317
 73
     1
 44
1.0
  0
POINT
  5
453E
330
4477
100
AcDbEntity
  8
DEFPOINTS
 62
     0
100
AcDbPoint
 10
62.36216020258132
 20
156.439007675562
 30
0.0
  0
POINT
  5
453F
330
4477
100
AcDbEntity
  8
DEFPOINTS
 62
     0
100
AcDbPoint
 10
379.3621602025818
 20
176.4390076755618
 30
0.0
  0
POINT
  5
4540
330
4477
100
AcDbEntity
  8
DEFPOINTS
 62
     0
100
AcDbPoint
 10
379.3621602025818
 20
194.1697231535064
 30
0.0
  0
ENDBLK
  5
4483
330
4477
100
AcDbEntity
  8
0
100
AcDbBlockEnd
  0
BLOCK
  5
4579
330
456B
100
AcDbEntity
  8
0
100
AcDbBlockBegin
  2
*D20
 70
     1
 10
0.0
 20
0.0
 30
0.0
  3
*D20
  1

  0
ARC
  5
456C
330
456B
100
AcDbEntity
  8
BEM
 62
     0
370
    -2
100
AcDbCircle
 10
390.3042689796253
 20
359.1606327388102
 30
0.0
 40
44.24864801402361
100
AcDbArc
 50
338.7954905927158
 51
356.9999999999997
  0
LINE
  5
456D
330
456B
100
AcDbEntity
  8
BEM
 62
     0
370
    -2
100
AcDbLine
 10
431.5570771928141
 20
343.1559876132593
 30
0.0
 11
427.0720226552397
 21
331.5955254341342
 31
0.0
  0
ARC
  5
456E
330
456B
100
AcDbEntity
  8
BEM
 62
     0
370
    -2
100
AcDbCircle
 10
390.3042689796253
 20
359.1606327388102
 30
0.0
 40
44.24864801402361
100
AcDbArc
 50
338.8530112366175
 51
347.9265056183086
  0
ARC
  5
456F
330
456B
100
AcDbEntity
  8
BEM
 62
     0
370
    -2
100
AcDbCircle
 10
390.3042689796253
 20
359.1606327388102
 30
0.0
 40
44.24864801402361
100
AcDbArc
 50
9.073494381691071
 51
18.14698876338222
  0
ARC
  5
4570
330
456B
100
AcDbEntity
  8
BEM
 62
     0
370
    -2
100
AcDbCircle
 10
390.3042689796253
 20
359.1606327388102
 30
0.0
 40
44.24864801402361
100
AcDbArc
 50
356.9999999999997
 51
0.0000000000000799
  0
SOLID
  5
4571
330
456B
100
AcDbEntity
  8
BEM
 62
     0
100
AcDbTrace
 10
432.417553727073
 20
350.058333207259
 30
0.0
 11
434.7307292613429
 21
349.7522884521989
 31
0.0
 12
434.4922757593886
 22
356.8448374325384
 32
0.0
 13
434.4922757593886
 23
356.8448374325384
 33
0.0
  0
SOLID
  5
4572
330
456B
100
AcDbEntity
  8
BEM
 62
     0
100
AcDbTrace
 10
435.1622390364521
 20
366.2309819352265
 30
0.0
 11
432.8362164839494
 21
366.0464188574104
 31
0.0
 12
434.5529169936489
 22
359.1606327388102
 32
0.0
 13
434.5529169936489
 23
359.1606327388102
 33
0.0
  0
MTEXT
  5
4573
330
456B
100
AcDbEntity
  8
BEM
 62
     1
100
AcDbMText
 10
423.2546302333564
 20
339.7267931764576
 30
0.0
 40
7.0
 41
0.0
 71
     5
 72
     1
  1
\A1;3°
 11
0.361697946578583
 21
0.9322953370262217
 31
0.0
 73
     1
 44
1.0
  0
POINT
  5
4574
330
456B
100
AcDbEntity
  8
DEFPOINTS
 62
     0
100
AcDbPoint
 10
434.5461777102332
 20
358.3883873493689
 30
0.0
  0
POINT
  5
4575
330
456B
100
AcDbEntity
  8
DEFPOINTS
 62
     0
100
AcDbPoint
 10
390.3042689796253
 20
359.1606327388102
 30
0.0
  0
POINT
  5
4576
330
456B
100
AcDbEntity
  8
DEFPOINTS
 62
     0
100
AcDbPoint
 10
390.3042689796253
 20
359.1606327388102
 30
0.0
  0
POINT
  5
4577
330
456B
100
AcDbEntity
  8
DEFPOINTS
 62
     0
100
AcDbPoint
 10
465.056379360039
 20
355.2430406370514
 30
0.0
  0
POINT
  5
4578
330
456B
100
AcDbEntity
  8
DEFPOINTS
 62
     0
100
AcDbPoint
 10
438.2532539884725
 20
359.1606327388102
 30
0.0
  0
ENDBLK
  5
457A
330
456B
100
AcDbEntity
  8
0
100
AcDbBlockEnd
  0
ENDSEC
  0
SECTION
  2
ENTITIES
  0
LINE
  5
58
330
1E
100
AcDbEntity
  8
STEMPEL
100
AcDbLine
 10
830.0000000000002
 20
110.0
 30
0.0
 11
470.0000000000001
 21
110.0
 31
0.0
  0
LINE
  5
59
330
1E
100
AcDbEntity
  8
STEMPEL
100
AcDbLine
 10
470.0000000000001
 20
110.0
 30
0.0
 11
470.0000000000001
 21
10.0
 31
0.0
  0
LINE
  5
5A
330
1E
100
AcDbEntity
  8
STEMPEL
100
AcDbLine
 10
566.0000000000002
 20
109.9999999999999
 30
0.0
 11
566.0000000000001
 21
9.999999999999886
 31
0.0
  0
LINE
  5
5B
330
1E
100
AcDbEntity
  8
STEMPEL
100
AcDbLine
 10
650.0
 20
110.0
 30
0.0
 11
650.0
 21
10.0
 31
0.0
  0
LINE
  5
5C
330
1E
100
AcDbEntity
  8
STEMPEL
100
AcDbLine
 10
752.0000000000002
 20
109.9999999999997
 30
0.0
 11
752.0000000000002
 21
40.0
 31
0.0
  0
LINE
  5
5D
330
1E
100
AcDbEntity
  8
STEMPEL
100
AcDbLine
 10
566.0
 20
30.0
 30
0.0
 11
470.0000000000001
 21
30.0
 31
0.0
  0
LINE
  5
5E
330
1E
100
AcDbEntity
  8
STEMPEL
100
AcDbLine
 10
830.0000000000002
 20
40.0
 30
0.0
 11
566.0000000000001
 21
40.0
 31
0.0
  0
LINE
  5
5F
330
1E
100
AcDbEntity
  8
STEMPEL
100
AcDbLine
 10
830.0000000000002
 20
80.0
 30
0.0
 11
566.0000000000002
 21
80.0
 31
0.0
  0
LINE
  5
60
330
1E
100
AcDbEntity
  8
VOLL
100
AcDbLine
 10
484.0000000000002
 20
110.0
 30
0.0
 11
484.0000000000001
 21
9.999999999999985
 31
0.0
  0
LINE
  5
61
330
1E
100
AcDbEntity
  8
VOLL
100
AcDbLine
 10
524.0000000000001
 20
109.9999999999999
 30
0.0
 11
524.0000000000001
 21
9.999999999999943
 31
0.0
  0
LINE
  5
62
330
1E
100
AcDbEntity
  8
VOLL
100
AcDbLine
 10
544.0000000000002
 20
109.9999999999999
 30
0.0
 11
544.0000000000001
 21
9.999999999999914
 31
0.0
  0
LINE
  5
63
330
1E
100
AcDbEntity
  8
VOLL
100
AcDbLine
 10
584.0000000000002
 20
80.0
 30
0.0
 11
584.0000000000002
 21
40.0
 31
0.0
  0
LINE
  5
64
330
1E
100
AcDbEntity
  8
VOLL
100
AcDbLine
 10
610.0000000000002
 20
109.9999999999998
 30
0.0
 11
610.0000000000001
 21
40.0
 31
0.0
  0
LINE
  5
65
330
1E
100
AcDbEntity
  8
HILF
100
AcDbLine
 10
470.0000000000001
 20
100.0
 30
0.0
 11
566.0000000000002
 21
100.0
 31
0.0
  0
LINE
  5
66
330
1E
100
AcDbEntity
  8
HILF
100
AcDbLine
 10
470.0000000000001
 20
90.0
 30
0.0
 11
566.0000000000002
 21
90.0
 31
0.0
  0
LINE
  5
67
330
1E
100
AcDbEntity
  8
HILF
100
AcDbLine
 10
470.0000000000001
 20
80.0
 30
0.0
 11
566.0000000000002
 21
80.0
 31
0.0
  0
LINE
  5
68
330
1E
100
AcDbEntity
  8
HILF
100
AcDbLine
 10
470.0000000000001
 20
70.0
 30
0.0
 11
566.0000000000002
 21
70.0
 31
0.0
  0
LINE
  5
69
330
1E
100
AcDbEntity
  8
HILF
100
AcDbLine
 10
470.0000000000001
 20
60.0
 30
0.0
 11
566.0000000000002
 21
60.0
 31
0.0
  0
LINE
  5
6A
330
1E
100
AcDbEntity
  8
HILF
100
AcDbLine
 10
470.0000000000001
 20
50.0
 30
0.0
 11
566.0000000000002
 21
50.0
 31
0.0
  0
LINE
  5
6B
330
1E
100
AcDbEntity
  8
HILF
100
AcDbLine
 10
470.0000000000001
 20
40.0
 30
0.0
 11
566.0000000000002
 21
40.0
 31
0.0
  0
LINE
  5
6C
330
1E
100
AcDbEntity
  8
HILF
100
AcDbLine
 10
566.0000000000002
 20
70.0
 30
0.0
 11
650.0
 21
70.0
 31
0.0
  0
LINE
  5
6D
330
1E
100
AcDbEntity
  8
HILF
100
AcDbLine
 10
566.0000000000002
 20
60.0
 30
0.0
 11
650.0
 21
60.0
 31
0.0
  0
LINE
  5
6E
330
1E
100
AcDbEntity
  8
HILF
100
AcDbLine
 10
566.0000000000002
 20
50.0
 30
0.0
 11
650.0
 21
50.0
 31
0.0
  0
LINE
  5
6F
330
1E
100
AcDbEntity
  8
HILF
100
AcDbLine
 10
654.7736801096948
 20
84.03758247564136
 30
0.0
 11
746.6297842514811
 21
84.03758247564136
 31
0.0
  0
LINE
  5
70
330
1E
100
AcDbEntity
  8
HILF
100
AcDbLine
 10
654.7736801096948
 20
70.0
 30
0.0
 11
746.6297842514811
 21
70.0
 31
0.0
  0
LINE
  5
71
330
1E
100
AcDbEntity
  8
HILF
100
AcDbLine
 10
654.7736801096948
 20
60.0
 30
0.0
 11
746.6297842514811
 21
60.0
 31
0.0
  0
LINE
  5
72
330
1E
100
AcDbEntity
  8
HILF
100
AcDbLine
 10
654.7736801096948
 20
50.0
 30
0.0
 11
746.6297842514811
 21
50.0
 31
0.0
  0
LINE
  5
73
330
1E
100
AcDbEntity
  8
VOLL
100
AcDbLine
 10
752.0000000000002
 20
60.0
 30
0.0
 11
830.0000000000002
 21
60.0
 31
0.0
  0
LINE
  5
74
330
1E
100
AcDbEntity
  8
HILF
100
AcDbLine
 10
756.7238616296995
 20
83.77983636955823
 30
0.0
 11
824.858883932673
 21
83.77983636955823
 31
0.0
  0
LINE
  5
75
330
1E
100
AcDbEntity
  8
HILF
100
AcDbLine
 10
654.7736801096948
 20
14.89398258028305
 30
0.0
 11
824.858883932673
 21
14.89398258028305
 31
0.0
  0
TEXT
  5
76
330
1E
100
AcDbEntity
  8
TEXT
100
AcDbText
 10
492.3998239263297
 20
18.67381894984129
 30
0.0
 40
4.0
  1
Änderung
 41
0.8
  7
GREEKS
 72
     1
 11
503.1426810691868
 21
18.67381894984129
 31
0.0
100
AcDbText
  0
TEXT
  5
78
330
1E
100
AcDbEntity
  8
TEXT
100
AcDbText
 10
573.5163572150378
 20
102.4620895087088
 30
0.0
 40
5.0
  1
Maßstab
 41
0.8
  7
GREEKS
100
AcDbText
  0
TEXT
  5
79
330
1E
100
AcDbEntity
  8
TEXT
100
AcDbText
 10
654.8779403809011
 20
102.5489328011779
 30
0.0
 40
5.0
  1
Benennung
 41
0.8
  7
GREEKS
100
AcDbText
  0
TEXT
  5
7A
330
1E
100
AcDbEntity
  8
TEXT
100
AcDbText
 10
756.1787549576343
 20
102.3132034537135
 30
0.0
 40
5.0
  1
Zeichnungs Nr.
 41
0.8
  7
GREEKS
100
AcDbText
  0
TEXT
  5
7B
330
1E
100
AcDbEntity
  8
TEXT
100
AcDbText
 10
654.742238391136
 20
30.84560570193055
 30
0.0
 40
5.0
  1
Bauvorhaben
 41
0.8
  7
GREEKS
100
AcDbText
  0
TEXT
  5
7C
330
1E
100
AcDbEntity
  8
TEXT
100
AcDbText
 10
756.7238616296995
 20
73.18118237099965
 30
0.0
 40
5.0
  1
Ersatz für:
 41
0.8
  7
GREEKS
100
AcDbText
  0
TEXT
  5
7D
330
1E
100
AcDbEntity
  8
TEXT
100
AcDbText
 10
478.2664110704577
 20
13.65465846027187
 30
0.0
 40
4.0
  1
Index
 50
90.0
 41
0.8
  7
GREEKS
100
AcDbText
  0
TEXT
  5
7E
330
1E
100
AcDbEntity
  8
TEXT
100
AcDbText
 10
529.8990113186979
 20
18.67156269339808
 30
0.0
 40
4.0
  1
Tag
 41
0.8
  7
GREEKS
 72
     1
 11
533.6323446520313
 21
18.67156269339808
 31
0.0
100
AcDbText
  0
TEXT
  5
7F
330
1E
100
AcDbEntity
  8
TEXT
100
AcDbText
 10
548.9795678138293
 20
18.59324216966404
 30
0.0
 40
4.0
  1
Name
 41
0.8
  7
GREEKS
 72
     1
 11
555.3033773376388
 21
18.59324216966404
 31
0.0
100
AcDbText
  0
TEXT
  5
80
330
1E
100
AcDbEntity
  8
TEXT
100
AcDbText
 10
592.3311673153651
 20
73.31880501229919
 30
0.0
 40
4.0
  1
Tag
 41
0.8
  7
GREEKS
100
AcDbText
  0
TEXT
  5
81
330
1E
100
AcDbEntity
  8
TEXT
100
AcDbText
 10
622.4626584226296
 20
73.3096109191522
 30
0.0
 40
4.0
  1
Name
 41
0.8
  7
GREEKS
100
AcDbText
  0
TEXT
  5
82
330
1E
100
AcDbEntity
  8
TEXT
100
AcDbText
 10
567.5836127167616
 20
63.62990369617961
 30
0.0
 40
4.0
  1
Gez.
 41
0.8
  7
GREEKS
100
AcDbText
  0
TEXT
  5
83
330
1E
100
AcDbEntity
  8
TEXT
100
AcDbText
 10
567.5515086571673
 20
53.68926291428373
 30
0.0
 40
4.0
  1
Gepr.
 41
0.8
  7
GREEKS
100
AcDbText
  0
TEXT
  5
84
330
1E
100
AcDbEntity
  8
TEXT
100
AcDbText
 10
567.6006777387304
 20
43.52946389649804
 30
0.0
 40
4.0
  1
Norm.
 41
0.8
  7
GREEKS
100
AcDbText
  0
TEXT
  5
85
330
1E
100
AcDbEntity
  8
TEXT
100
AcDbText
 10
757.2400861497007
 20
52.07416177878596
 30
0.0
 40
5.0
  1
ersetzt durch:
 41
0.8
  7
GREEKS
100
AcDbText
  0
TEXT
  5
86
330
1E
100
AcDbEntity
  8
TEXT
100
AcDbText
 10
568.8693027807324
 20
72.96682596523723
 30
0.0
 40
4.0
  1
2008
 41
0.8
  7
GREEKS
100
AcDbText
  0
LINE
  5
87
330
1E
100
AcDbEntity
  8
HILF
100
AcDbLine
 10
0.0
 20
0.0
 30
0.0
 11
840.0
 21
0.0
 31
0.0
  0
LINE
  5
88
330
1E
100
AcDbEntity
  8
HILF
100
AcDbLine
 10
840.0
 20
0.0
 30
0.0
 11
840.0
 21
594.0
 31
0.0
  0
LINE
  5
89
330
1E
100
AcDbEntity
  8
HILF
100
AcDbLine
 10
840.0
 20
594.0
 30
0.0
 11
0.0
 21
594.0
 31
0.0
  0
LINE
  5
8B
330
1E
100
AcDbEntity
  8
STEMPEL
100
AcDbLine
 10
830.0
 20
584.0
 30
0.0
 11
40.0
 21
584.0
 31
0.0
  0
LINE
  5
8D
330
1E
100
AcDbEntity
  8
STEMPEL
100
AcDbLine
 10
40.0
 20
10.0
 30
0.0
 11
830.0
 21
10.0
 31
0.0
  0
LINE
  5
8E
330
1E
100
AcDbEntity
  8
STEMPEL
100
AcDbLine
 10
830.0
 20
10.0
 30
0.0
 11
830.0
 21
584.0
 31
0.0
  0
TEXT
  5
8F
330
1E
100
AcDbEntity
  8
TEXT
 62
     1
100
AcDbText
 10
655.0390572473189
 20
87.37343075652544
 30
0.0
 40
7.0
  1
LORO-Drainlet-Dachablauf
 41
0.65
  7
GREEKS
100
AcDbText
  0
TEXT
  5
90
330
1E
100
AcDbEntity
  8
TEXT
 62
     1
100
AcDbText
 10
767.1961422184136
 20
87.37343075652544
 30
0.0
 40
7.0
  1
01330100W
 41
0.8
  7
GREEKS
 72
     1
 11
790.1294755517469
 21
87.37343075652544
 31
0.0
100
AcDbText
  0
TEXT
  5
91
330
1E
100
AcDbEntity
  8
TEXT
100
AcDbText
 10
618.509022641583
 20
102.83989611379
 30
0.0
 40
5.0
  1
Zul.Abw.
 41
0.8
  7
GREEKS
100
AcDbText
  0
TEXT
  5
93
330
1E
100
AcDbEntity
  8
TEXT
100
AcDbText
 10
590.4612856559488
 20
63.1508587612022
 30
0.0
 40
4.0
  1
14.05.
 41
0.8
  7
GREEKS
 72
     1
 11
597.1660475607107
 21
63.1508587612022
 31
0.0
100
AcDbText
  0
TEXT
  5
94
330
1E
100
AcDbEntity
  8
TEXT
100
AcDbText
 10
624.023175322661
 20
62.94297655165468
 30
0.0
 40
4.0
  1
Koeh
 41
0.8
  7
GREEKS
 72
     1
 11
629.2803181798038
 21
62.94297655165468
 31
0.0
100
AcDbText
  0
TEXT
  5
95
330
1E
100
AcDbEntity
  8
TEXT
100
AcDbText
 10
654.3410940884992
 20
72.10021383107525
 30
0.0
 40
5.0
  1
DN100 für Attika mit Klebeflansch
 41
0.7
  7
GREEKS
100
AcDbText
  0
TEXT
  5
96
330
1E
100
AcDbEntity
  8
TEXT
100
AcDbText
 10
654.3410940884992
 20
62.34559085209035
 30
0.0
 40
5.0
  1
Bitumen-Abdeckbahnen
 41
0.8
  7
GREEKS
100
AcDbText
  0
TEXT
  5
97
330
1E
100
AcDbEntity
  8
TEXT
100
AcDbText
 10
654.3410940884992
 20
52.59097337846058
 30
0.0
 40
5.0
  1
EDV-Art.Nr. 01330.100X
 41
0.8
  7
GREEKS
100
AcDbText
  0
TEXT
  5
98
330
1E
100
AcDbEntity
  8
TEXT
100
AcDbText
 10
654.1676050109348
 20
43.31127624791508
 30
0.0
 40
4.0
  1
01330100W.DWG
 41
0.8
  7
GREEKS
100
AcDbText
  0
TEXT
  5
99
330
1E
100
AcDbEntity
  8
TEXT
 62
     1
100
AcDbText
 10
582.7034912034222
 20
92.23360758171185
 30
0.0
 40
7.0
  1
1:2
 41
0.8
  7
GREEKS
100
AcDbText
  0
TEXT
  5
9A
330
1E
100
AcDbEntity
  8
TEXT
100
AcDbText
 10
470.0441139350127
 20
114.1143585051043
 30
0.0
 40
5.0
  1
Erstellt mit AUTOCAD 2004
 41
0.8
  7
GREEKS
100
AcDbText
  0
INSERT
  5
9B
330
1E
100
AcDbEntity
  8
HILF
100
AcDbBlockReference
  2
LORO
 10
573.0624985962354
 20
36.9805930029896
 30
0.0
 41
2.0
 42
2.0
 43
2.0
  0
LINE
  5
9C
330
1E
100
AcDbEntity
  8
BEM
100
AcDbLine
 10
456.0
 20
0.0
 30
0.0
 11
456.0
 21
10.0
 31
0.0
  0
LINE
  5
13E
330
1E
100
AcDbEntity
  8
HILF
100
AcDbLine
 10
0.0
 20
0.0
 30
0.0
 11
0.0
 21
594.0
 31
0.0
  0
LINE
  5
13F
330
1E
100
AcDbEntity
  8
STEMPEL
100
AcDbLine
 10
40.0
 20
10.0
 30
0.0
 11
40.0
 21
584.0
 31
0.0
  0
LINE
  5
14A
330
1E
100
AcDbEntity
  8
HILF
100
AcDbLine
 10
0.0
 20
297.0
 30
0.0
 11
40.0
 21
297.0
 31
0.0
  0
TEXT
  5
15B
330
1E
100
AcDbEntity
  8
BEM
100
AcDbText
 10
837.3022923857165
 20
10.16790107998861
 30
0.0
 40
4.0
  1
Diese Zeichnung ist urheberrechtlich geschützt und bleibt unser Eigentum. Sie darf weder ganz noch teilweise verfielfältigt und nicht an Dritte weitergegeben werden.
 50
90.0
 41
0.8
  7
GREEKS
100
AcDbText
  0
TEXT
  5
1016
330
1E
100
AcDbEntity
  8
TEXT
 62
     1
100
AcDbText
 10
582.7034912034222
 20
82.23164939917234
 30
0.0
 40
7.0
  1
1:10
 41
0.8
  7
GREEKS
100
AcDbText
  0
TEXT
  5
1017
330
1E
100
AcDbEntity
  8
TEXT
100
AcDbText
 10
612.2898419893276
 20
90.56743414756596
 30
0.0
 40
4.0
  1
DIN EN1123-2
 41
0.8
  7
GREEKS
 72
     1
 11
629.2803181798038
 21
90.56743414756596
 31
0.0
100
AcDbText
  0
LINE
  5
4189
330
1E
100
AcDbEntity
  8
BEM
100
AcDbLine
 10
390.3042689796254
 20
359.1606327388102
 30
0.0
 11
438.2532539884727
 21
359.1606327388102
 31
0.0
  0
ARC
  5
418A
330
1E
100
AcDbEntity
  8
STEMPEL
100
AcDbCircle
 10
801.380856077829
 20
335.0819430683304
 30
0.0
 40
51.0
100
AcDbArc
 50
136.5424119573314
 51
141.6572507395319
  0
LINE
  5
418B
330
1E
100
AcDbEntity
  8
STEMPEL
100
AcDbLine
 10
676.3808560778283
 20
370.1606327388107
 30
0.0
 11
676.3808560778283
 21
362.1606327388107
 31
0.0
  0
LINE
  5
418C
330
1E
100
AcDbEntity
  8
STEMPEL
100
AcDbLine
 10
761.3808560778287
 20
370.1606327388107
 30
0.0
 11
761.3808560778287
 21
362.1606327388107
 31
0.0
  0
LINE
  5
418D
330
1E
100
AcDbEntity
  8
STEMPEL
100
AcDbLine
 10
748.3808560778287
 20
370.1606327388107
 30
0.0
 11
748.3808560778287
 21
362.1606327388107
 31
0.0
  0
LINE
  5
418E
330
1E
100
AcDbEntity
  8
STEMPEL
100
AcDbLine
 10
801.3808560778286
 20
370.1606327388107
 30
0.0
 11
761.3808560778287
 21
370.1606327388107
 31
0.0
  0
LINE
  5
418F
330
1E
100
AcDbEntity
  8
STEMPEL
100
AcDbLine
 10
748.3808560778287
 20
370.1606327388107
 30
0.0
 11
676.3808560778283
 21
370.1606327388107
 31
0.0
  0
ARC
  5
4190
330
1E
100
AcDbEntity
  8
STEMPEL
100
AcDbCircle
 10
801.380856077829
 20
357.2278776927085
 30
0.0
 40
51.0
100
AcDbArc
 50
122.6673261002474
 51
139.7787970381664
  0
ARC
  5
4191
330
1E
100
AcDbEntity
  8
STEMPEL
100
AcDbCircle
 10
686.3808560778287
 20
359.56063273881
 30
0.0
 40
8.199999999999999
100
AcDbArc
 50
93.49581363238657
 51
131.1883597477446
  0
LINE
  5
4192
330
1E
100
AcDbEntity
  8
STEMPEL
100
AcDbLine
 10
685.8808560778287
 20
366.9739661750615
 30
0.0
 11
686.8808560778287
 21
366.9739661750615
 31
0.0
  0
LINE
  5
4193
330
1E
100
AcDbEntity
  8
STEMPEL
100
AcDbLine
 10
685.8808560778287
 20
367.7453746406662
 30
0.0
 11
685.8808560778287
 21
366.9739661750615
 31
0.0
  0
LINE
  5
4194
330
1E
100
AcDbEntity
  8
STEMPEL
100
AcDbLine
 10
686.8808560778287
 20
367.7453746406662
 30
0.0
 11
686.8808560778287
 21
366.9739661750615
 31
0.0
  0
ARC
  5
4195
330
1E
100
AcDbEntity
  8
STEMPEL
100
AcDbCircle
 10
273.3042689796242
 20
359.56063273881
 30
0.0
 40
8.199999999999999
100
AcDbArc
 50
93.49581363238657
 51
131.1883597477446
  0
LINE
  5
4196
330
1E
100
AcDbEntity
  8
STEMPEL
100
AcDbLine
 10
272.8042689796242
 20
366.9739661750615
 30
0.0
 11
273.8042689796242
 21
366.9739661750615
 31
0.0
  0
LINE
  5
4197
330
1E
100
AcDbEntity
  8
STEMPEL
100
AcDbLine
 10
273.8042689796242
 20
367.7453746406662
 30
0.0
 11
273.8042689796242
 21
366.9739661750615
 31
0.0
  0
LINE
  5
4198
330
1E
100
AcDbEntity
  8
STEMPEL
100
AcDbLine
 10
272.8042689796242
 20
367.7453746406662
 30
0.0
 11
272.8042689796242
 21
366.9739661750615
 31
0.0
  0
LINE
  5
4199
330
1E
100
AcDbEntity
  8
MITTEL
100
AcDbLine
 10
686.3808560778287
 20
370.7268569047615
 30
0.0
 11
686.3808560778287
 21
348.325595551641
 31
0.0
  0
LINE
  5
419A
330
1E
100
AcDbEntity
  8
STEMPEL
100
AcDbLine
 10
686.3808560778287
 20
350.7606327388101
 30
0.0
 11
689.130856077829
 21
355.5237724596246
 31
0.0
  0
LINE
  5
419B
330
1E
100
AcDbEntity
  8
STEMPEL
100
AcDbLine
 10
689.130856077829
 20
358.1606327388101
 30
0.0
 11
689.130856077829
 21
355.5237724596246
 31
0.0
  0
LINE
  5
419C
330
1E
100
AcDbEntity
  8
HILF
100
AcDbLine
 10
688.330856077829
 20
358.1606327388101
 30
0.0
 11
688.330856077829
 21
354.1381318135698
 31
0.0
  0
LINE
  5
419D
330
1E
100
AcDbEntity
  8
STEMPEL
100
AcDbLine
 10
683.6308560778287
 20
358.1606327388101
 30
0.0
 11
683.6308560778287
 21
355.5237724596242
 31
0.0
  0
LINE
  5
419E
330
1E
100
AcDbEntity
  8
HILF
100
AcDbLine
 10
684.4308560778287
 20
358.1606327388101
 30
0.0
 11
684.4308560778287
 21
354.1381318135692
 31
0.0
  0
LINE
  5
419F
330
1E
100
AcDbEntity
  8
STEMPEL
100
AcDbLine
 10
686.3808560778287
 20
350.7606327388101
 30
0.0
 11
683.6308560778284
 21
355.5237724596246
 31
0.0
  0
LINE
  5
41A0
330
1E
100
AcDbEntity
  8
STEMPEL
100
AcDbLine
 10
692.3808560778287
 20
362.1606327388101
 30
0.0
 11
692.3808560778287
 21
363.76063273881
 31
0.0
  0
LINE
  5
41A1
330
1E
100
AcDbEntity
  8
STEMPEL
100
AcDbLine
 10
691.7808560778285
 20
365.7315321870268
 30
0.0
 11
691.7808560778285
 21
363.7606327388102
 31
0.0
  0
LINE
  5
41A2
330
1E
100
AcDbEntity
  8
STEMPEL
100
AcDbLine
 10
680.3808560778287
 20
362.1606327388101
 30
0.0
 11
680.3808560778287
 21
363.76063273881
 31
0.0
  0
LINE
  5
41A3
330
1E
100
AcDbEntity
  8
STEMPEL
100
AcDbLine
 10
680.9808560778284
 20
365.7315321870263
 30
0.0
 11
680.9808560778284
 21
363.7606327388102
 31
0.0
  0
LINE
  5
41A4
330
1E
100
AcDbEntity
  8
STEMPEL
100
AcDbLine
 10
692.3808560778287
 20
363.76063273881
 30
0.0
 11
680.3808560778287
 21
363.76063273881
 31
0.0
  0
ARC
  5
41A5
330
1E
100
AcDbEntity
  8
STEMPEL
100
AcDbCircle
 10
686.3808560778287
 20
359.56063273881
 30
0.0
 40
8.199999999999999
100
AcDbArc
 50
48.81164025226026
 51
86.50418636761342
  0
LINE
  5
41A6
330
1E
100
AcDbEntity
  8
STEMPEL
100
AcDbLine
 10
680.9808560778286
 20
363.76063273881
 30
0.0
 11
691.7808560778284
 21
363.76063273881
 31
0.0
  0
LINE
  5
41A7
330
1E
100
AcDbEntity
  8
HILF
100
AcDbLine
 10
275.2542689796245
 20
358.1606327388101
 30
0.0
 11
275.2542689796245
 21
354.1381318135698
 31
0.0
  0
LINE
  5
41A8
330
1E
100
AcDbEntity
  8
HILF
100
AcDbLine
 10
271.3542689796242
 20
358.1606327388101
 30
0.0
 11
271.3542689796242
 21
354.1381318135692
 31
0.0
  0
LINE
  5
41A9
330
1E
100
AcDbEntity
  8
STEMPEL
100
AcDbLine
 10
273.3042689796242
 20
350.7606327388101
 30
0.0
 11
270.554268979624
 21
355.5237724596246
 31
0.0
  0
LINE
  5
41AA
330
1E
100
AcDbEntity
  8
STEMPEL
100
AcDbLine
 10
273.3042689796242
 20
350.7606327388101
 30
0.0
 11
276.0542689796245
 21
355.5237724596246
 31
0.0
  0
ARC
  5
41AB
330
1E
100
AcDbEntity
  8
STEMPEL
100
AcDbCircle
 10
273.3042689796242
 20
359.56063273881
 30
0.0
 40
8.199999999999999
100
AcDbArc
 50
48.81164025226026
 51
86.50418636761342
  0
LINE
  5
41AC
330
1E
100
AcDbEntity
  8
STEMPEL
100
AcDbLine
 10
270.5542689796242
 20
358.1606327388101
 30
0.0
 11
270.5542689796242
 21
355.5237724596242
 31
0.0
  0
LINE
  5
41AD
330
1E
100
AcDbEntity
  8
STEMPEL
100
AcDbLine
 10
276.0542689796245
 20
358.1606327388101
 30
0.0
 11
276.0542689796245
 21
355.5237724596246
 31
0.0
  0
LINE
  5
41AE
330
1E
100
AcDbEntity
  8
STEMPEL
100
AcDbLine
 10
267.9042689796241
 20
363.76063273881
 30
0.0
 11
278.7042689796239
 21
363.76063273881
 31
0.0
  0
LINE
  5
41AF
330
1E
100
AcDbEntity
  8
STEMPEL
100
AcDbLine
 10
267.9042689796239
 20
365.7315321870263
 30
0.0
 11
267.9042689796239
 21
363.7606327388102
 31
0.0
  0
LINE
  5
41B0
330
1E
100
AcDbEntity
  8
STEMPEL
100
AcDbLine
 10
278.7042689796241
 20
365.7315321870268
 30
0.0
 11
278.7042689796241
 21
363.7606327388102
 31
0.0
  0
LINE
  5
41B1
330
1E
100
AcDbEntity
  8
MITTEL
100
AcDbLine
 10
273.3042689796242
 20
370.7268569047615
 30
0.0
 11
273.3042689796242
 21
348.325595551641
 31
0.0
  0
LINE
  5
41B2
330
1E
100
AcDbEntity
  8
TEXT
 62
     2
100
AcDbLine
 10
413.2888032010995
 20
528.3554469010739
 30
0.0
 11
390.3042689796254
 21
517.4924387117466
 31
0.0
  0
LINE
  5
41B3
330
1E
100
AcDbEntity
  8
TEXT
 62
     2
100
AcDbLine
 10
518.1953981666135
 20
499.6403588869195
 30
0.0
 11
413.6294059219715
 21
499.6403588869195
 31
0.0
  0
TEXT
  5
41B4
330
1E
100
AcDbEntity
  8
TEXT
 62
     1
100
AcDbText
 10
414.3485653552987
 20
489.8385811402103
 30
0.0
 40
7.0
  1
EDV-Art.Nr. 13204.000X
 41
0.8
  7
GREEKS
100
AcDbText
  0
TEXT
  5
41B5
330
1E
100
AcDbEntity
  8
TEXT
 62
     1
100
AcDbText
 10
414.4357404500164
 20
502.5331697909673
 30
0.0
 40
7.0
  1
Sieb
 41
0.8
  7
GREEKS
100
AcDbText
  0
LINE
  5
41B6
330
1E
100
AcDbEntity
  8
TEXT
 62
     2
100
AcDbLine
 10
413.6294059219715
 20
499.6403588869195
 30
0.0
 11
323.7466827775093
 21
457.1597609253087
 31
0.0
  0
TEXT
  5
41B7
330
1E
100
AcDbEntity
  8
TEXT
 62
     1
100
AcDbText
 10
414.159242098453
 20
518.5402342323429
 30
0.0
 40
7.0
  1
EDV-Art.Nr. 13301.100X
 41
0.8
  7
GREEKS
100
AcDbText
  0
LINE
  5
41B8
330
1E
100
AcDbEntity
  8
TEXT
 62
     2
100
AcDbLine
 10
515.678295791957
 20
528.3554469010739
 30
0.0
 11
413.2888032010995
 21
528.3554469010739
 31
0.0
  0
TEXT
  5
41B9
330
1E
100
AcDbEntity
  8
TEXT
 62
     1
100
AcDbText
 10
414.159242098453
 20
531.4212688620885
 30
0.0
 40
7.0
  1
Ablauftopf
 41
0.8
  7
GREEKS
100
AcDbText
  0
INSERT
  5
41BA
330
1E
100
AcDbEntity
  8
SCHRAFF
100
AcDbBlockReference
  2
*X9
 10
-0.0000000000001137
 20
0.0
 30
0.0
1001
ACAD
1000
HATCH
1002
{
1070
    16
1000
_U,I
1040
0.1
1040
0.7853981633974483
1070
     0
1002
}
  0
POINT
  5
41BB
330
1E
100
AcDbEntity
  8
DEFPOINTS
  6
ByBlock
 62
     0
100
AcDbPoint
 10
561.3808560778283
 20
303.5725129250537
 30
0.0
  0
TEXT
  5
41BC
330
1E
100
AcDbEntity
  8
0
  6
ByBlock
 62
     1
100
AcDbText
 10
768.2818465947205
 20
250.9473179009901
 30
0.0
 40
7.0
  1
480
 41
0.8
  7
GREEKS
 72
     1
 11
775.4818465947205
 21
254.4473179009901
 31
0.0
100
AcDbText
 73
     2
  0
SOLID
  5
41BD
330
1E
100
AcDbEntity
  8
BEM
100
AcDbTrace
 10
568.3808560778283
 20
248.6139845676567
 30
0.0
 11
568.3808560778283
 21
246.2806512343234
 31
0.0
 12
561.3808560778283
 22
247.4473179009901
 32
0.0
 13
561.3808560778283
 23
247.4473179009901
 33
0.0
  0
LINE
  5
41BE
330
1E
100
AcDbEntity
  8
BEM
100
AcDbLine
 10
568.3808560778283
 20
247.4473179009901
 30
0.0
 11
807.0872074279948
 21
247.44731790099
 31
0.0
  0
LINE
  5
41BF
330
1E
100
AcDbEntity
  8
BEM
100
AcDbLine
 10
561.3808560778283
 20
301.5725129250537
 30
0.0
 11
561.3808560778283
 21
245.4473179009901
 31
0.0
  0
LINE
  5
41C0
330
1E
100
AcDbEntity
  8
BEM
100
AcDbLine
 10
561.3808560778283
 20
358.1606327388103
 30
0.0
 11
561.3808560778283
 21
313.0609683157826
 31
0.0
  0
POINT
  5
41C1
330
1E
100
AcDbEntity
  8
DEFPOINTS
  6
ByBlock
 62
     0
100
AcDbPoint
 10
561.3808560778283
 20
555.1606327388101
 30
0.0
  0
POINT
  5
41C2
330
1E
100
AcDbEntity
  8
DEFPOINTS
  6
ByBlock
 62
     0
100
AcDbPoint
 10
674.3808560778287
 20
312.1606327388108
 30
0.0
  0
TEXT
  5
41C3
330
1E
100
AcDbEntity
  8
0
  6
ByBlock
 62
     1
100
AcDbText
 10
768.4056623195052
 20
266.9473179009901
 30
0.0
 40
7.0
  1
254
 41
0.8
  7
GREEKS
 72
     1
 11
775.7389956528385
 21
270.4473179009901
 31
0.0
100
AcDbText
 73
     2
  0
SOLID
  5
41C4
330
1E
100
AcDbEntity
  8
BEM
100
AcDbTrace
 10
681.3808560778287
 20
264.6139845676567
 30
0.0
 11
681.3808560778287
 21
262.2806512343235
 31
0.0
 12
674.3808560778287
 22
263.4473179009901
 32
0.0
 13
674.3808560778287
 23
263.4473179009901
 33
0.0
  0
LINE
  5
41C5
330
1E
100
AcDbEntity
  8
BEM
100
AcDbLine
 10
681.3808560778287
 20
263.4473179009901
 30
0.0
 11
807.0872074279948
 21
263.4473179009901
 31
0.0
  0
LINE
  5
41C6
330
1E
100
AcDbEntity
  8
BEM
100
AcDbLine
 10
674.3808560778287
 20
310.1606327388108
 30
0.0
 11
674.3808560778287
 21
261.4473179009901
 31
0.0
  0
DIMENSION
  5
41C7
330
1E
100
AcDbEntity
  8
BEM
100
AcDbDimension
  2
*D11
 10
487.5675959119059
 20
424.0375509943206
 30
0.0
 11
441.1056705086099
 21
432.9814375749072
 31
0.0
 70
    32
  1
400
 71
     5
 42
93.73267561203698
  3
Standard
100
AcDbAlignedDimension
 13
390.3042689796254
 23
359.1231870480653
 33
0.0
 14
485.6919688180929
 24
388.2484540420561
 34
0.0
 50
357.0000000000011
100
AcDbRotatedDimension
1001
ACAD
1000
DSTYLE
1002
{
1070
    40
1040
2.0
1070
    41
1040
3.5
1070
    42
1040
1.0
1070
    43
1040
7.0
1070
    44
1040
1.0
1070
    73
1070
     0
1070
    74
1070
     0
1070
    77
1070
     1
1070
    78
1070
     8
1070
    79
1070
     2
1070
   140
1040
3.5
1070
   141
1040
1.5
1070
   146
1040
0.5142857142857144
1070
   147
1040
1.5
1070
   172
1070
     1
1070
   178
1070
     1
1070
   179
1070
     2
1070
   271
1070
     2
1070
   272
1070
     2
1070
   284
1070
     8
1070
   285
1070
     8
1070
   286
1070
     8
1002
}
  0
DIMENSION
  5
41C8
330
1E
100
AcDbEntity
  8
BEM
100
AcDbDimension
  2
*D12
 10
483.0686230783627
 20
274.5329973724591
 30
0.0
 11
310.9496491044798
 21
274.5329973724591
 31
0.0
 70
   160
  1
717
 71
     5
 42
409.7643540987373
  3
Standard
100
AcDbAlignedDimension
 13
73.30426897962536
 23
356.2962379235012
 33
0.0
 14
483.0686230783627
 24
338.1920354031068
 34
0.0
100
AcDbRotatedDimension
1001
ACAD
1000
DSTYLE
1002
{
1070
    40
1040
2.0
1070
    41
1040
3.5
1070
    42
1040
1.0
1070
    43
1040
7.0
1070
    44
1040
1.0
1070
    73
1070
     0
1070
    74
1070
     0
1070
    77
1070
     1
1070
    78
1070
     8
1070
    79
1070
     2
1070
   140
1040
3.5
1070
   141
1040
1.5
1070
   146
1040
0.5142857142857144
1070
   147
1040
1.5
1070
   172
1070
     1
1070
   178
1070
     1
1070
   179
1070
     2
1070
   271
1070
     2
1070
   272
1070
     2
1070
   284
1070
     8
1070
   285
1070
     8
1070
   286
1070
     8
1002
}
  0
LINE
  5
41C9
330
1E
100
AcDbEntity
  8
STEMPEL
100
AcDbLine
 10
463.9615090457452
 20
288.123407172168
 30
0.0
 11
470.4131939624264
 21
287.7852886930506
 31
0.0
  0
LINE
  5
41CA
330
1E
100
AcDbEntity
  8
STEMPEL
100
AcDbLine
 10
470.4131939624264
 20
287.7852886930506
 30
0.0
 11
480.4452773386325
 21
288.1356167641535
 31
0.0
  0
LINE
  5
41CB
330
1E
100
AcDbEntity
  8
STEMPEL
100
AcDbLine
 10
470.3433949690212
 20
289.7840703470894
 30
0.0
 11
480.5503490808193
 21
290.1405050388395
 31
0.0
  0
LINE
  5
41CC
330
1E
100
AcDbEntity
  8
STEMPEL
100
AcDbLine
 10
463.7653984675649
 20
290.1364295840604
 30
0.0
 11
470.5178658749124
 21
289.7825477625603
 31
0.0
  0
LINE
  5
41CD
330
1E
100
AcDbEntity
  8
STEMPEL
100
AcDbLine
 10
390.3042689796254
 20
308.090643092916
 30
0.0
 11
454.9564247910699
 21
304.7023671809767
 31
0.0
  0
LINE
  5
41CE
330
1E
100
AcDbEntity
  8
STEMPEL
100
AcDbLine
 10
390.3042689796254
 20
310.0933877849121
 30
0.0
 11
453.0690404768153
 21
306.8040254935369
 31
0.0
  0
LINE
  5
41CF
330
1E
100
AcDbEntity
  8
STEMPEL
100
AcDbLine
 10
480.4452773386325
 20
288.1356167641535
 30
0.0
 11
485.6919688180929
 21
388.2484540420561
 31
0.0
  0
LINE
  5
41D0
330
1E
100
AcDbEntity
  8
MITTEL
100
AcDbLine
 10
390.3042689796254
 20
359.1606327388102
 30
0.0
 11
465.0563793600391
 21
355.2430406370514
 31
0.0
  0
LINE
  5
41D1
330
1E
100
AcDbEntity
  8
MITTEL
100
AcDbLine
 10
434.4740867735614
 20
340.7387671361286
 30
0.0
 11
486.5084882940033
 21
338.01175970612
 31
0.0
  0
POLYLINE
  5
41D2
330
1E
100
AcDbEntity
  8
HILF
100
AcDb2dPolyline
 66
     1
 10
0.0
 20
0.0
 30
0.0
 70
     4
 75
     6
  0
VERTEX
  5
41D3
330
41D2
100
AcDbEntity
  8
HILF
100
AcDbVertex
100
AcDb2dVertex
 10
461.1574627099277
 20
390.4103403054234
 30
0.0
 70
    16
  0
VERTEX
  5
41D4
330
41D2
100
AcDbEntity
  8
HILF
100
AcDbVertex
100
AcDb2dVertex
 10
461.1574627099277
 20
390.4103403054234
 30
0.0
 70
     8
  0
VERTEX
  5
41D5
330
41D2
100
AcDbEntity
  8
HILF
100
AcDbVertex
100
AcDb2dVertex
 10
461.539374579998
 20
387.585635298377
 30
0.0
 70
     8
  0
VERTEX
  5
41D6
330
41D2
100
AcDbEntity
  8
HILF
100
AcDbVertex
100
AcDb2dVertex
 10
461.8530170972613
 20
385.1453522067387
 30
0.0
 70
     8
  0
VERTEX
  5
41D7
330
41D2
100
AcDbEntity
  8
HILF
100
AcDbVertex
100
AcDb2dVertex
 10
462.1022673977637
 20
383.0371276455604
 30
0.0
 70
     8
  0
VERTEX
  5
41D8
330
41D2
100
AcDbEntity
  8
HILF
100
AcDbVertex
100
AcDb2dVertex
 10
462.2910026175528
 20
381.2085982298946
 30
0.0
 70
     8
  0
VERTEX
  5
41D9
330
41D2
100
AcDbEntity
  8
HILF
100
AcDbVertex
100
AcDb2dVertex
 10
462.4230998926728
 20
379.6074005747938
 30
0.0
 70
     8
  0
VERTEX
  5
41DA
330
41D2
100
AcDbEntity
  8
HILF
100
AcDbVertex
100
AcDb2dVertex
 10
462.5024363591706
 20
378.18117129531
 30
0.0
 70
     8
  0
VERTEX
  5
41DB
330
41D2
100
AcDbEntity
  8
HILF
100
AcDbVertex
100
AcDb2dVertex
 10
462.5328891530922
 20
376.8775470064967
 30
0.0
 70
     8
  0
VERTEX
  5
41DC
330
41D2
100
AcDbEntity
  8
HILF
100
AcDbVertex
100
AcDb2dVertex
 10
462.5183354104843
 20
375.6441643234049
 30
0.0
 70
     8
  0
VERTEX
  5
41DD
330
41D2
100
AcDbEntity
  8
HILF
100
AcDbVertex
100
AcDb2dVertex
 10
462.4625649010673
 20
374.4376918319414
 30
0.0
 70
     8
  0
VERTEX
  5
41DE
330
41D2
100
AcDbEntity
  8
HILF
100
AcDbVertex
100
AcDb2dVertex
 10
462.3690179292603
 20
373.2509260014232
 30
0.0
 70
     8
  0
VERTEX
  5
41DF
330
41D2
100
AcDbEntity
  8
HILF
100
AcDbVertex
100
AcDb2dVertex
 10
462.2410474331578
 20
372.0856952720215
 30
0.0
 70
     8
  0
VERTEX
  5
41E0
330
41D2
100
AcDbEntity
  8
HILF
100
AcDbVertex
100
AcDb2dVertex
 10
462.0820063508541
 20
370.9438280839073
 30
0.0
 70
     8
  0
VERTEX
  5
41E1
330
41D2
100
AcDbEntity
  8
HILF
100
AcDbVertex
100
AcDb2dVertex
 10
461.8952476204428
 20
369.8271528772512
 30
0.0
 70
     8
  0
VERTEX
  5
41E2
330
41D2
100
AcDbEntity
  8
HILF
100
AcDbVertex
100
AcDb2dVertex
 10
461.684124180019
 20
368.7374980922237
 30
0.0
 70
     8
  0
VERTEX
  5
41E3
330
41D2
100
AcDbEntity
  8
HILF
100
AcDbVertex
100
AcDb2dVertex
 10
461.4519889676763
 20
367.676692168996
 30
0.0
 70
     8
  0
VERTEX
  5
41E4
330
41D2
100
AcDbEntity
  8
HILF
100
AcDbVertex
100
AcDb2dVertex
 10
461.2021949215091
 20
366.646563547739
 30
0.0
 70
     8
  0
VERTEX
  5
41E5
330
41D2
100
AcDbEntity
  8
HILF
100
AcDbVertex
100
AcDb2dVertex
 10
460.9377596860564
 20
365.6480264467993
 30
0.0
 70
     8
  0
VERTEX
  5
41E6
330
41D2
100
AcDbEntity
  8
HILF
100
AcDbVertex
100
AcDb2dVertex
 10
460.6603597316421
 20
364.6783381972265
 30
0.0
 70
     8
  0
VERTEX
  5
41E7
330
41D2
100
AcDbEntity
  8
HILF
100
AcDbVertex
100
AcDb2dVertex
 10
460.3713362350332
 20
363.7338419082463
 30
0.0
 70
     8
  0
VERTEX
  5
41E8
330
41D2
100
AcDbEntity
  8
HILF
100
AcDbVertex
100
AcDb2dVertex
 10
460.0720303729982
 20
362.8108806890842
 30
0.0
 70
     8
  0
VERTEX
  5
41E9
330
41D2
100
AcDbEntity
  8
HILF
100
AcDbVertex
100
AcDb2dVertex
 10
459.7637833223058
 20
361.905797648965
 30
0.0
 70
     8
  0
VERTEX
  5
41EA
330
41D2
100
AcDbEntity
  8
HILF
100
AcDbVertex
100
AcDb2dVertex
 10
459.4479362597236
 20
361.0149358971154
 30
0.0
 70
     8
  0
VERTEX
  5
41EB
330
41D2
100
AcDbEntity
  8
HILF
100
AcDbVertex
100
AcDb2dVertex
 10
459.1258303620203
 20
360.1346385427597
 30
0.0
 70
     8
  0
VERTEX
  5
41EC
330
41D2
100
AcDbEntity
  8
HILF
100
AcDbVertex
100
AcDb2dVertex
 10
458.7988068059627
 20
359.261248695124
 30
0.0
 70
     8
  0
VERTEX
  5
41ED
330
41D2
100
AcDbEntity
  8
HILF
100
AcDbVertex
100
AcDb2dVertex
 10
458.4676852000026
 20
358.3907031381797
 30
0.0
 70
     8
  0
VERTEX
  5
41EE
330
41D2
100
AcDbEntity
  8
HILF
100
AcDbVertex
100
AcDb2dVertex
 10
458.1311988793173
 20
357.5173133548798
 30
0.0
 70
     8
  0
VERTEX
  5
41EF
330
41D2
100
AcDbEntity
  8
HILF
100
AcDbVertex
100
AcDb2dVertex
 10
457.7875596107666
 20
356.6349845029237
 30
0.0
 70
     8
  0
VERTEX
  5
41F0
330
41D2
100
AcDbEntity
  8
HILF
100
AcDbVertex
100
AcDb2dVertex
 10
457.4349791612108
 20
355.7376217400112
 30
0.0
 70
     8
  0
VERTEX
  5
41F1
330
41D2
100
AcDbEntity
  8
HILF
100
AcDbVertex
100
AcDb2dVertex
 10
457.0716692975089
 20
354.8191302238407
 30
0.0
 70
     8
  0
VERTEX
  5
41F2
330
41D2
100
AcDbEntity
  8
HILF
100
AcDbVertex
100
AcDb2dVertex
 10
456.6958417865222
 20
353.8734151121117
 30
0.0
 70
     8
  0
VERTEX
  5
41F3
330
41D2
100
AcDbEntity
  8
HILF
100
AcDbVertex
100
AcDb2dVertex
 10
456.3057083951104
 20
352.8943815625245
 30
0.0
 70
     8
  0
VERTEX
  5
41F4
330
41D2
100
AcDbEntity
  8
HILF
100
AcDbVertex
100
AcDb2dVertex
 10
455.8994808901322
 20
351.8759347327765
 30
0.0
 70
     8
  0
VERTEX
  5
41F5
330
41D2
100
AcDbEntity
  8
HILF
100
AcDbVertex
100
AcDb2dVertex
 10
455.4767122145791
 20
350.8148240388015
 30
0.0
 70
     8
  0
VERTEX
  5
41F6
330
41D2
100
AcDbEntity
  8
HILF
100
AcDbVertex
100
AcDb2dVertex
 10
455.0423200159635
 20
349.7191759294657
 30
0.0
 70
     8
  0
VERTEX
  5
41F7
330
41D2
100
AcDbEntity
  8
HILF
100
AcDbVertex
100
AcDb2dVertex
 10
454.6025631179278
 20
348.5999611118683
 30
0.0
 70
     8
  0
VERTEX
  5
41F8
330
41D2
100
AcDbEntity
  8
HILF
100
AcDbVertex
100
AcDb2dVertex
 10
454.1637003441143
 20
347.468150293109
 30
0.0
 70
     8
  0
VERTEX
  5
41F9
330
41D2
100
AcDbEntity
  8
HILF
100
AcDbVertex
100
AcDb2dVertex
 10
453.7319905181663
 20
346.3347141802875
 30
0.0
 70
     8
  0
VERTEX
  5
41FA
330
41D2
100
AcDbEntity
  8
HILF
100
AcDbVertex
100
AcDb2dVertex
 10
453.3136924637261
 20
345.2106234805034
 30
0.0
 70
     8
  0
VERTEX
  5
41FB
330
41D2
100
AcDbEntity
  8
HILF
100
AcDbVertex
100
AcDb2dVertex
 10
452.9150650044363
 20
344.1068489008559
 30
0.0
 70
     8
  0
VERTEX
  5
41FC
330
41D2
100
AcDbEntity
  8
HILF
100
AcDbVertex
100
AcDb2dVertex
 10
452.54236696394
 20
343.0343611484451
 30
0.0
 70
     8
  0
VERTEX
  5
41FD
330
41D2
100
AcDbEntity
  8
HILF
100
AcDbVertex
100
AcDb2dVertex
 10
452.2005159891119
 20
341.999999985641
 30
0.0
 70
     8
  0
VERTEX
  5
41FE
330
41D2
100
AcDbEntity
  8
HILF
100
AcDbVertex
100
AcDb2dVertex
 10
451.8890650197532
 20
340.9940813958971
 30
0.0
 70
     8
  0
VERTEX
  5
41FF
330
41D2
100
AcDbEntity
  8
HILF
100
AcDbVertex
100
AcDb2dVertex
 10
451.6062258188981
 20
340.0027904179379
 30
0.0
 70
     8
  0
VERTEX
  5
4200
330
41D2
100
AcDbEntity
  8
HILF
100
AcDbVertex
100
AcDb2dVertex
 10
451.3502101495811
 20
339.0123120904874
 30
0.0
 70
     8
  0
VERTEX
  5
4201
330
41D2
100
AcDbEntity
  8
HILF
100
AcDbVertex
100
AcDb2dVertex
 10
451.1192297748335
 20
338.0088314522696
 30
0.0
 70
     8
  0
VERTEX
  5
4202
330
41D2
100
AcDbEntity
  8
HILF
100
AcDbVertex
100
AcDb2dVertex
 10
450.9114964576916
 20
336.9785335420094
 30
0.0
 70
     8
  0
VERTEX
  5
4203
330
41D2
100
AcDbEntity
  8
HILF
100
AcDbVertex
100
AcDb2dVertex
 10
450.725221961187
 20
335.9076033984303
 30
0.0
 70
     8
  0
VERTEX
  5
4204
330
41D2
100
AcDbEntity
  8
HILF
100
AcDbVertex
100
AcDb2dVertex
 10
450.5586180483548
 20
334.7822260602571
 30
0.0
 70
     8
  0
VERTEX
  5
4205
330
41D2
100
AcDbEntity
  8
HILF
100
AcDbVertex
100
AcDb2dVertex
 10
450.4113121690294
 20
333.5931915533057
 30
0.0
 70
     8
  0
VERTEX
  5
4206
330
41D2
100
AcDbEntity
  8
HILF
100
AcDbVertex
100
AcDb2dVertex
 10
450.2885945202502
 20
332.3497098517602
 30
0.0
 70
     8
  0
VERTEX
  5
4207
330
41D2
100
AcDbEntity
  8
HILF
100
AcDbVertex
100
AcDb2dVertex
 10
450.1971709858577
 20
331.0655959168963
 30
0.0
 70
     8
  0
VERTEX
  5
4208
330
41D2
100
AcDbEntity
  8
HILF
100
AcDbVertex
100
AcDb2dVertex
 10
450.1437474496939
 20
329.754664709989
 30
0.0
 70
     8
  0
VERTEX
  5
4209
330
41D2
100
AcDbEntity
  8
HILF
100
AcDbVertex
100
AcDb2dVertex
 10
450.1350297955992
 20
328.430731192315
 30
0.0
 70
     8
  0
VERTEX
  5
420A
330
41D2
100
AcDbEntity
  8
HILF
100
AcDbVertex
100
AcDb2dVertex
 10
450.1777239074141
 20
327.10761032515
 30
0.0
 70
     8
  0
VERTEX
  5
420B
330
41D2
100
AcDbEntity
  8
HILF
100
AcDbVertex
100
AcDb2dVertex
 10
450.2785356689797
 20
325.7991170697693
 30
0.0
 70
     8
  0
VERTEX
  5
420C
330
41D2
100
AcDbEntity
  8
HILF
100
AcDbVertex
100
AcDb2dVertex
 10
450.4441709641374
 20
324.5190663874488
 30
0.0
 70
     8
  0
VERTEX
  5
420D
330
41D2
100
AcDbEntity
  8
HILF
100
AcDbVertex
100
AcDb2dVertex
 10
450.6785788131579
 20
323.2789030253326
 30
0.0
 70
     8
  0
VERTEX
  5
420E
330
41D2
100
AcDbEntity
  8
HILF
100
AcDbVertex
100
AcDb2dVertex
 10
450.9746807820353
 20
322.0805908740368
 30
0.0
 70
     8
  0
VERTEX
  5
420F
330
41D2
100
AcDbEntity
  8
HILF
100
AcDbVertex
100
AcDb2dVertex
 10
451.3226415731939
 20
320.9237236100459
 30
0.0
 70
     8
  0
VERTEX
  5
4210
330
41D2
100
AcDbEntity
  8
HILF
100
AcDbVertex
100
AcDb2dVertex
 10
451.7126258890599
 20
319.8078949098441
 30
0.0
 70
     8
  0
VERTEX
  5
4211
330
41D2
100
AcDbEntity
  8
HILF
100
AcDbVertex
100
AcDb2dVertex
 10
452.134798432056
 20
318.7326984499165
 30
0.0
 70
     8
  0
VERTEX
  5
4212
330
41D2
100
AcDbEntity
  8
HILF
100
AcDbVertex
100
AcDb2dVertex
 10
452.5793239046085
 20
317.697727906747
 30
0.0
 70
     8
  0
VERTEX
  5
4213
330
41D2
100
AcDbEntity
  8
HILF
100
AcDbVertex
100
AcDb2dVertex
 10
453.0363670091406
 20
316.7025769568196
 30
0.0
 70
     8
  0
VERTEX
  5
4214
330
41D2
100
AcDbEntity
  8
HILF
100
AcDbVertex
100
AcDb2dVertex
 10
453.4960924480789
 20
315.7468392766197
 30
0.0
 70
     8
  0
VERTEX
  5
4215
330
41D2
100
AcDbEntity
  8
HILF
100
AcDbVertex
100
AcDb2dVertex
 10
453.9503786514166
 20
314.8301085420518
 30
0.0
 70
     8
  0
VERTEX
  5
4216
330
41D2
100
AcDbEntity
  8
HILF
100
AcDbVertex
100
AcDb2dVertex
 10
454.3979589594352
 20
313.9519784267014
 30
0.0
 70
     8
  0
VERTEX
  5
4217
330
41D2
100
AcDbEntity
  8
HILF
100
AcDbVertex
100
AcDb2dVertex
 10
454.8392804399851
 20
313.1120426035769
 30
0.0
 70
     8
  0
VERTEX
  5
4218
330
41D2
100
AcDbEntity
  8
HILF
100
AcDbVertex
100
AcDb2dVertex
 10
455.2747901609169
 20
312.3098947456839
 30
0.0
 70
     8
  0
VERTEX
  5
4219
330
41D2
100
AcDbEntity
  8
HILF
100
AcDbVertex
100
AcDb2dVertex
 10
455.7049351900801
 20
311.5451285260298
 30
0.0
 70
     8
  0
VERTEX
  5
421A
330
41D2
100
AcDbEntity
  8
HILF
100
AcDbVertex
100
AcDb2dVertex
 10
456.130162595327
 20
310.8173376176215
 30
0.0
 70
     8
  0
VERTEX
  5
421B
330
41D2
100
AcDbEntity
  8
HILF
100
AcDbVertex
100
AcDb2dVertex
 10
456.5509194445081
 20
310.1261156934653
 30
0.0
 70
     8
  0
VERTEX
  5
421C
330
41D2
100
AcDbEntity
  8
HILF
100
AcDbVertex
100
AcDb2dVertex
 10
456.967652805473
 20
309.4710564265684
 30
0.0
 70
     8
  0
VERTEX
  5
421D
330
41D2
100
AcDbEntity
  8
HILF
100
AcDbVertex
100
AcDb2dVertex
 10
457.3812195464712
 20
308.8487060748731
 30
0.0
 70
     8
  0
VERTEX
  5
421E
330
41D2
100
AcDbEntity
  8
HILF
100
AcDbVertex
100
AcDb2dVertex
 10
457.7941157373485
 20
308.2434212360632
 30
0.0
 70
     8
  0
VERTEX
  5
421F
330
41D2
100
AcDbEntity
  8
HILF
100
AcDbVertex
100
AcDb2dVertex
 10
458.2092472483479
 20
307.6365110927583
 30
0.0
 70
     8
  0
VERTEX
  5
4220
330
41D2
100
AcDbEntity
  8
HILF
100
AcDbVertex
100
AcDb2dVertex
 10
458.6295199497122
 20
307.0092848275773
 30
0.0
 70
     8
  0
VERTEX
  5
4221
330
41D2
100
AcDbEntity
  8
HILF
100
AcDbVertex
100
AcDb2dVertex
 10
459.0578397116866
 20
306.3430516231402
 30
0.0
 70
     8
  0
VERTEX
  5
4222
330
41D2
100
AcDbEntity
  8
HILF
100
AcDbVertex
100
AcDb2dVertex
 10
459.4971124045128
 20
305.6191206620666
 30
0.0
 70
     8
  0
VERTEX
  5
4223
330
41D2
100
AcDbEntity
  8
HILF
100
AcDbVertex
100
AcDb2dVertex
 10
459.9502438984351
 20
304.8188011269755
 30
0.0
 70
     8
  0
VERTEX
  5
4224
330
41D2
100
AcDbEntity
  8
HILF
100
AcDbVertex
100
AcDb2dVertex
 10
460.4201400636963
 20
303.9234022004863
 30
0.0
 70
     8
  0
VERTEX
  5
4225
330
41D2
100
AcDbEntity
  8
HILF
100
AcDbVertex
100
AcDb2dVertex
 10
460.90742154996
 20
302.9084302381863
 30
0.0
 70
     8
  0
VERTEX
  5
4226
330
41D2
100
AcDbEntity
  8
HILF
100
AcDbVertex
100
AcDb2dVertex
 10
461.4035681245646
 20
301.7261802875356
 30
0.0
 70
     8
  0
VERTEX
  5
4227
330
41D2
100
AcDbEntity
  8
HILF
100
AcDbVertex
100
AcDb2dVertex
 10
461.8977743342663
 20
300.3231445689599
 30
0.0
 70
     8
  0
VERTEX
  5
4228
330
41D2
100
AcDbEntity
  8
HILF
100
AcDbVertex
100
AcDb2dVertex
 10
462.3792347258228
 20
298.6458153028872
 30
0.0
 70
     8
  0
VERTEX
  5
4229
330
41D2
100
AcDbEntity
  8
HILF
100
AcDbVertex
100
AcDb2dVertex
 10
462.8371438459923
 20
296.6406847097447
 30
0.0
 70
     8
  0
VERTEX
  5
422A
330
41D2
100
AcDbEntity
  8
HILF
100
AcDbVertex
100
AcDb2dVertex
 10
463.2606962415308
 20
294.2542450099592
 30
0.0
 70
     8
  0
VERTEX
  5
422B
330
41D2
100
AcDbEntity
  8
HILF
100
AcDbVertex
100
AcDb2dVertex
 10
463.6390864591954
 20
291.4329884239579
 30
0.0
 70
     8
  0
VERTEX
  5
422C
330
41D2
100
AcDbEntity
  8
HILF
100
AcDbVertex
100
AcDb2dVertex
 10
463.9615090457452
 20
288.123407172168
 30
0.0
 70
     8
  0
VERTEX
  5
422D
330
41D2
100
AcDbEntity
  8
HILF
100
AcDbVertex
100
AcDb2dVertex
 10
462.2703665103423
 20
382.3186858350256
 30
0.0
 70
    16
  0
VERTEX
  5
422E
330
41D2
100
AcDbEntity
  8
HILF
100
AcDbVertex
100
AcDb2dVertex
 10
462.9570490156453
 20
375.453463301808
 30
0.0
 70
    16
  0
VERTEX
  5
422F
330
41D2
100
AcDbEntity
  8
HILF
100
AcDbVertex
100
AcDb2dVertex
 10
461.3547911426345
 20
366.2998356315635
 30
0.0
 70
    16
  0
VERTEX
  5
4230
330
41D2
100
AcDbEntity
  8
HILF
100
AcDbVertex
100
AcDb2dVertex
 10
458.8369559428707
 20
359.2265754583733
 30
0.0
 70
    16
  0
VERTEX
  5
4231
330
41D2
100
AcDbEntity
  8
HILF
100
AcDbVertex
100
AcDb2dVertex
 10
456.0902259216588
 20
352.3613547056895
 30
0.0
 70
    16
  0
VERTEX
  5
4232
330
41D2
100
AcDbEntity
  8
HILF
100
AcDbVertex
100
AcDb2dVertex
 10
452.1990257112889
 20
342.583614115527
 30
0.0
 70
    16
  0
VERTEX
  5
4233
330
41D2
100
AcDbEntity
  8
HILF
100
AcDbVertex
100
AcDb2dVertex
 10
450.3678730168282
 20
335.5103557228714
 30
0.0
 70
    16
  0
VERTEX
  5
4234
330
41D2
100
AcDbEntity
  8
HILF
100
AcDbVertex
100
AcDb2dVertex
 10
449.6811905115252
 20
324.0683193545311
 30
0.0
 70
    16
  0
VERTEX
  5
4235
330
41D2
100
AcDbEntity
  8
HILF
100
AcDbVertex
100
AcDb2dVertex
 10
453.5723907218949
 20
315.3307651836973
 30
0.0
 70
    16
  0
VERTEX
  5
4236
330
41D2
100
AcDbEntity
  8
HILF
100
AcDbVertex
100
AcDb2dVertex
 10
457.0058012893656
 20
309.0896555703977
 30
0.0
 70
    16
  0
VERTEX
  5
4237
330
41D2
100
AcDbEntity
  8
HILF
100
AcDbVertex
100
AcDb2dVertex
 10
460.2103209534776
 20
305.1369510941241
 30
0.0
 70
    16
  0
VERTEX
  5
4238
330
41D2
100
AcDbEntity
  8
HILF
100
AcDbVertex
100
AcDb2dVertex
 10
463.1859438370944
 20
297.6476192020574
 30
0.0
 70
    16
  0
VERTEX
  5
4239
330
41D2
100
AcDbEntity
  8
HILF
100
AcDbVertex
100
AcDb2dVertex
 10
463.9615090457452
 20
288.123407172168
 30
0.0
 70
    16
  0
SEQEND
  5
423A
330
41D2
100
AcDbEntity
  8
HILF
  0
LINE
  5
423B
330
1E
100
AcDbEntity
  8
STEMPEL
100
AcDbLine
 10
475.7514614992074
 20
389.6455012380176
 30
0.0
 11
485.6919688180929
 21
388.2484540420561
 31
0.0
  0
LINE
  5
423C
330
1E
100
AcDbEntity
  8
STEMPEL
100
AcDbLine
 10
475.4731152972878
 20
387.6649651005347
 30
0.0
 11
485.5868970759062
 21
386.2435657673692
 31
0.0
  0
LINE
  5
423D
330
1E
100
AcDbEntity
  8
STEMPEL
100
AcDbLine
 10
461.4301744928321
 20
388.3933033945006
 30
0.0
 11
475.6467895867223
 21
387.6482421685083
 31
0.0
  0
LINE
  5
423E
330
1E
100
AcDbEntity
  8
STEMPEL
100
AcDbLine
 10
461.1574627099277
 20
390.4103403054234
 30
0.0
 11
475.7514614992074
 21
389.6455012380176
 31
0.0
  0
DIMENSION
  5
423F
330
1E
100
AcDbEntity
  8
BEM
100
AcDbDimension
  2
*D13
 10
505.1673978037575
 20
388.1038773407646
 30
0.0
 11
496.0071720594623
 21
337.5139547838604
 31
0.0
 70
    33
  1
%%c<>
 71
     5
 42
102.0000000000005
  3
Standard
100
AcDbAlignedDimension
 13
468.4159348929166
 23
287.8899606055366
 33
0.0
 14
473.7542024296978
 24
389.7501731505037
 34
0.0
1001
ACAD
1000
DSTYLE
1002
{
1070
    40
1040
2.0
1070
    41
1040
3.5
1070
    42
1040
1.0
1070
    43
1040
7.0
1070
    44
1040
1.0
1070
    73
1070
     0
1070
    74
1070
     0
1070
    77
1070
     1
1070
    78
1070
     8
1070
    79
1070
     2
1070
   140
1040
3.5
1070
   141
1040
1.5
1070
   146
1040
0.5142857142857144
1070
   147
1040
1.5
1070
   172
1070
     1
1070
   178
1070
     1
1070
   179
1070
     2
1070
   271
1070
     2
1070
   272
1070
     2
1070
   284
1070
     8
1070
   285
1070
     8
1070
   286
1070
     8
1002
}
  0
LINE
  5
4240
330
1E
100
AcDbEntity
  8
STEMPEL
100
AcDbLine
 10
390.3042689796254
 20
410.2306223847043
 30
0.0
 11
450.2137281635874
 21
407.0909006708244
 31
0.0
  0
LINE
  5
4241
330
1E
100
AcDbEntity
  8
STEMPEL
100
AcDbLine
 10
390.3042689796254
 20
408.2278776927084
 30
0.0
 11
451.198795602461
 21
405.0365307819134
 31
0.0
  0
INSERT
  5
4242
330
1E
100
AcDbEntity
  8
SCHRAFF
100
AcDbBlockReference
  2
*X2
 10
12.66544529001623
 20
-8.644681784151885
 30
0.0
1001
ACAD
1000
HATCH
1002
{
1070
    16
1000
_U,I
1040
3.0
1040
2.356194490192344
1070
     0
1002
}
  0
POLYLINE
  5
4243
330
1E
100
AcDbEntity
  8
HILF
100
AcDb2dPolyline
 66
     1
 10
0.0
 20
0.0
 30
0.0
 70
     4
 75
     6
  0
VERTEX
  5
4244
330
4243
100
AcDbEntity
  8
HILF
100
AcDbVertex
100
AcDb2dVertex
 10
450.2137281635866
 20
407.0909006708244
 30
0.0
 70
    16
  0
VERTEX
  5
4245
330
4243
100
AcDbEntity
  8
HILF
100
AcDbVertex
100
AcDb2dVertex
 10
450.2137281635866
 20
407.0909006708244
 30
0.0
 70
     8
  0
VERTEX
  5
4246
330
4243
100
AcDbEntity
  8
HILF
100
AcDbVertex
100
AcDb2dVertex
 10
451.9945258274788
 20
403.3770259100002
 30
0.0
 70
     8
  0
VERTEX
  5
4247
330
4243
100
AcDbEntity
  8
HILF
100
AcDbVertex
100
AcDb2dVertex
 10
453.4579139553576
 20
400.0042895713887
 30
0.0
 70
     8
  0
VERTEX
  5
4248
330
4243
100
AcDbEntity
  8
HILF
100
AcDbVertex
100
AcDb2dVertex
 10
454.6418669950759
 20
396.943095434092
 30
0.0
 70
     8
  0
VERTEX
  5
4249
330
4243
100
AcDbEntity
  8
HILF
100
AcDbVertex
100
AcDb2dVertex
 10
455.5843593944842
 20
394.1638472772139
 30
0.0
 70
     8
  0
VERTEX
  5
424A
330
4243
100
AcDbEntity
  8
HILF
100
AcDbVertex
100
AcDb2dVertex
 10
456.3233656014341
 20
391.6369488798565
 30
0.0
 70
     8
  0
VERTEX
  5
424B
330
4243
100
AcDbEntity
  8
HILF
100
AcDbVertex
100
AcDb2dVertex
 10
456.8968600637778
 20
389.3328040211246
 30
0.0
 70
     8
  0
VERTEX
  5
424C
330
4243
100
AcDbEntity
  8
HILF
100
AcDbVertex
100
AcDb2dVertex
 10
457.3428172293658
 20
387.2218164801208
 30
0.0
 70
     8
  0
VERTEX
  5
424D
330
4243
100
AcDbEntity
  8
HILF
100
AcDbVertex
100
AcDb2dVertex
 10
457.6992115460503
 20
385.2743900359475
 30
0.0
 70
     8
  0
VERTEX
  5
424E
330
4243
100
AcDbEntity
  8
HILF
100
AcDbVertex
100
AcDb2dVertex
 10
457.9970742287447
 20
383.4622329559516
 30
0.0
 70
     8
  0
VERTEX
  5
424F
330
4243
100
AcDbEntity
  8
HILF
100
AcDbVertex
100
AcDb2dVertex
 10
458.2396635606097
 20
381.762271460456
 30
0.0
 70
     8
  0
VERTEX
  5
4250
330
4243
100
AcDbEntity
  8
HILF
100
AcDbVertex
100
AcDb2dVertex
 10
458.4232945918707
 20
380.1527362580256
 30
0.0
 70
     8
  0
VERTEX
  5
4251
330
4243
100
AcDbEntity
  8
HILF
100
AcDbVertex
100
AcDb2dVertex
 10
458.5442823727495
 20
378.6118580572248
 30
0.0
 70
     8
  0
VERTEX
  5
4252
330
4243
100
AcDbEntity
  8
HILF
100
AcDbVertex
100
AcDb2dVertex
 10
458.5989419534704
 20
377.1178675666198
 30
0.0
 70
     8
  0
VERTEX
  5
4253
330
4243
100
AcDbEntity
  8
HILF
100
AcDbVertex
100
AcDb2dVertex
 10
458.5835883842561
 20
375.6489954947757
 30
0.0
 70
     8
  0
VERTEX
  5
4254
330
4243
100
AcDbEntity
  8
HILF
100
AcDbVertex
100
AcDb2dVertex
 10
458.494536715331
 20
374.1834725502578
 30
0.0
 70
     8
  0
VERTEX
  5
4255
330
4243
100
AcDbEntity
  8
HILF
100
AcDbVertex
100
AcDb2dVertex
 10
458.3281019969186
 20
372.6995294416312
 30
0.0
 70
     8
  0
VERTEX
  5
4256
330
4243
100
AcDbEntity
  8
HILF
100
AcDbVertex
100
AcDb2dVertex
 10
458.0816740575043
 20
371.1791646389194
 30
0.0
 70
     8
  0
VERTEX
  5
4257
330
4243
100
AcDbEntity
  8
HILF
100
AcDbVertex
100
AcDb2dVertex
 10
457.7569418386225
 20
369.6194476579727
 30
0.0
 70
     8
  0
VERTEX
  5
4258
330
4243
100
AcDbEntity
  8
HILF
100
AcDbVertex
100
AcDb2dVertex
 10
457.3566690600724
 20
368.0212157760999
 30
0.0
 70
     8
  0
VERTEX
  5
4259
330
4243
100
AcDbEntity
  8
HILF
100
AcDbVertex
100
AcDb2dVertex
 10
456.8836194416514
 20
366.3853062706086
 30
0.0
 70
     8
  0
VERTEX
  5
425A
330
4243
100
AcDbEntity
  8
HILF
100
AcDbVertex
100
AcDb2dVertex
 10
456.3405567031556
 20
364.7125564188073
 30
0.0
 70
     8
  0
VERTEX
  5
425B
330
4243
100
AcDbEntity
  8
HILF
100
AcDbVertex
100
AcDb2dVertex
 10
455.7302445643832
 20
363.0038034980044
 30
0.0
 70
     8
  0
VERTEX
  5
425C
330
4243
100
AcDbEntity
  8
HILF
100
AcDbVertex
100
AcDb2dVertex
 10
455.0554467451326
 20
361.2598847855089
 30
0.0
 70
     8
  0
VERTEX
  5
425D
330
4243
100
AcDbEntity
  8
HILF
100
AcDbVertex
100
AcDb2dVertex
 10
454.3189269651999
 20
359.481637558628
 30
0.0
 70
     8
  0
VERTEX
  5
425E
330
4243
100
AcDbEntity
  8
HILF
100
AcDbVertex
100
AcDb2dVertex
 10
453.5255984577767
 20
357.6717132045516
 30
0.0
 70
     8
  0
VERTEX
  5
425F
330
4243
100
AcDbEntity
  8
HILF
100
AcDbVertex
100
AcDb2dVertex
 10
452.6889725096221
 20
355.8400195499936
 30
0.0
 70
     8
  0
VERTEX
  5
4260
330
4243
100
AcDbEntity
  8
HILF
100
AcDbVertex
100
AcDb2dVertex
 10
451.8247099208907
 20
353.9982785315507
 30
0.0
 70
     8
  0
VERTEX
  5
4261
330
4243
100
AcDbEntity
  8
HILF
100
AcDbVertex
100
AcDb2dVertex
 10
450.9484714917367
 20
352.1582120858167
 30
0.0
 70
     8
  0
VERTEX
  5
4262
330
4243
100
AcDbEntity
  8
HILF
100
AcDbVertex
100
AcDb2dVertex
 10
450.0759180223118
 20
350.3315421493882
 30
0.0
 70
     8
  0
VERTEX
  5
4263
330
4243
100
AcDbEntity
  8
HILF
100
AcDbVertex
100
AcDb2dVertex
 10
449.2227103127703
 20
348.5299906588604
 30
0.0
 70
     8
  0
VERTEX
  5
4264
330
4243
100
AcDbEntity
  8
HILF
100
AcDbVertex
100
AcDb2dVertex
 10
448.4045091632666
 20
346.7652795508285
 30
0.0
 70
     8
  0
VERTEX
  5
4265
330
4243
100
AcDbEntity
  8
HILF
100
AcDbVertex
100
AcDb2dVertex
 10
447.6369753739533
 20
345.0491307618887
 30
0.0
 70
     8
  0
VERTEX
  5
4266
330
4243
100
AcDbEntity
  8
HILF
100
AcDbVertex
100
AcDb2dVertex
 10
446.933313148295
 20
343.3896380088728
 30
0.0
 70
     8
  0
VERTEX
  5
4267
330
4243
100
AcDbEntity
  8
HILF
100
AcDbVertex
100
AcDb2dVertex
 10
446.2969003030072
 20
341.7803821295653
 30
0.0
 70
     8
  0
VERTEX
  5
4268
330
4243
100
AcDbEntity
  8
HILF
100
AcDbVertex
100
AcDb2dVertex
 10
445.7286580581136
 20
340.2113157419873
 30
0.0
 70
     8
  0
VERTEX
  5
4269
330
4243
100
AcDbEntity
  8
HILF
100
AcDbVertex
100
AcDb2dVertex
 10
445.229507633641
 20
338.672391464159
 30
0.0
 70
     8
  0
VERTEX
  5
426A
330
4243
100
AcDbEntity
  8
HILF
100
AcDbVertex
100
AcDb2dVertex
 10
444.8003702496131
 20
337.1535619141028
 30
0.0
 70
     8
  0
VERTEX
  5
426B
330
4243
100
AcDbEntity
  8
HILF
100
AcDbVertex
100
AcDb2dVertex
 10
444.4421671260567
 20
335.6447797098391
 30
0.0
 70
     8
  0
VERTEX
  5
426C
330
4243
100
AcDbEntity
  8
HILF
100
AcDbVertex
100
AcDb2dVertex
 10
444.1558194829973
 20
334.1359974693893
 30
0.0
 70
     8
  0
VERTEX
  5
426D
330
4243
100
AcDbEntity
  8
HILF
100
AcDbVertex
100
AcDb2dVertex
 10
443.9422485404589
 20
332.6171678107741
 30
0.0
 70
     8
  0
VERTEX
  5
426E
330
4243
100
AcDbEntity
  8
HILF
100
AcDbVertex
100
AcDb2dVertex
 10
443.8024522950987
 20
331.0805458781825
 30
0.0
 70
     8
  0
VERTEX
  5
426F
330
4243
100
AcDbEntity
  8
HILF
100
AcDbVertex
100
AcDb2dVertex
 10
443.7377358500922
 20
329.5275969204741
 30
0.0
 70
     8
  0
VERTEX
  5
4270
330
4243
100
AcDbEntity
  8
HILF
100
AcDbVertex
100
AcDb2dVertex
 10
443.7494810852436
 20
327.9620887126758
 30
0.0
 70
     8
  0
VERTEX
  5
4271
330
4243
100
AcDbEntity
  8
HILF
100
AcDbVertex
100
AcDb2dVertex
 10
443.839069880361
 20
326.3877890298146
 30
0.0
 70
     8
  0
VERTEX
  5
4272
330
4243
100
AcDbEntity
  8
HILF
100
AcDbVertex
100
AcDb2dVertex
 10
444.0078841152486
 20
324.8084656469174
 30
0.0
 70
     8
  0
VERTEX
  5
4273
330
4243
100
AcDbEntity
  8
HILF
100
AcDbVertex
100
AcDb2dVertex
 10
444.2573056697125
 20
323.2278863390112
 30
0.0
 70
     8
  0
VERTEX
  5
4274
330
4243
100
AcDbEntity
  8
HILF
100
AcDbVertex
100
AcDb2dVertex
 10
444.5887164235597
 20
321.6498188811225
 30
0.0
 70
     8
  0
VERTEX
  5
4275
330
4243
100
AcDbEntity
  8
HILF
100
AcDbVertex
100
AcDb2dVertex
 10
445.0034982565945
 20
320.0780310482788
 30
0.0
 70
     8
  0
VERTEX
  5
4276
330
4243
100
AcDbEntity
  8
HILF
100
AcDbVertex
100
AcDb2dVertex
 10
445.5098054850346
 20
318.5094945984971
 30
0.0
 70
     8
  0
VERTEX
  5
4277
330
4243
100
AcDbEntity
  8
HILF
100
AcDbVertex
100
AcDb2dVertex
 10
446.1428821707446
 20
316.9139972217509
 30
0.0
 70
     8
  0
VERTEX
  5
4278
330
4243
100
AcDbEntity
  8
HILF
100
AcDbVertex
100
AcDb2dVertex
 10
446.9447448119995
 20
315.2545305910036
 30
0.0
 70
     8
  0
VERTEX
  5
4279
330
4243
100
AcDbEntity
  8
HILF
100
AcDbVertex
100
AcDb2dVertex
 10
447.9574099070738
 20
313.4940863792186
 30
0.0
 70
     8
  0
VERTEX
  5
427A
330
4243
100
AcDbEntity
  8
HILF
100
AcDbVertex
100
AcDb2dVertex
 10
449.2228939542425
 20
311.5956562593602
 30
0.0
 70
     8
  0
VERTEX
  5
427B
330
4243
100
AcDbEntity
  8
HILF
100
AcDbVertex
100
AcDb2dVertex
 10
450.7832134517808
 20
309.5222319043911
 30
0.0
 70
     8
  0
VERTEX
  5
427C
330
4243
100
AcDbEntity
  8
HILF
100
AcDbVertex
100
AcDb2dVertex
 10
452.6803848979649
 20
307.2368049872758
 30
0.0
 70
     8
  0
VERTEX
  5
427D
330
4243
100
AcDbEntity
  8
HILF
100
AcDbVertex
100
AcDb2dVertex
 10
454.9564247910699
 20
304.7023671809767
 30
0.0
 70
     8
  0
VERTEX
  5
427E
330
4243
100
AcDbEntity
  8
HILF
100
AcDbVertex
100
AcDb2dVertex
 10
455.4194897134054
 20
396.7060756604361
 30
0.0
 70
    16
  0
VERTEX
  5
427F
330
4243
100
AcDbEntity
  8
HILF
100
AcDbVertex
100
AcDb2dVertex
 10
458.24948782394
 20
383.8454313593157
 30
0.0
 70
    16
  0
VERTEX
  5
4280
330
4243
100
AcDbEntity
  8
HILF
100
AcDbVertex
100
AcDb2dVertex
 10
459.1928273224017
 20
373.1282169674233
 30
0.0
 70
    16
  0
VERTEX
  5
4281
330
4243
100
AcDbEntity
  8
HILF
100
AcDbVertex
100
AcDb2dVertex
 10
454.9478148679623
 20
359.8388774207789
 30
0.0
 70
    16
  0
VERTEX
  5
4282
330
4243
100
AcDbEntity
  8
HILF
100
AcDbVertex
100
AcDb2dVertex
 10
446.9294749969509
 20
344.4060987012273
 30
0.0
 70
    16
  0
VERTEX
  5
4283
330
4243
100
AcDbEntity
  8
HILF
100
AcDbVertex
100
AcDb2dVertex
 10
443.1561373879536
 20
332.8315123456433
 30
0.0
 70
    16
  0
VERTEX
  5
4284
330
4243
100
AcDbEntity
  8
HILF
100
AcDbVertex
100
AcDb2dVertex
 10
444.0994666939911
 20
319.9708587808447
 30
0.0
 70
    16
  0
VERTEX
  5
4285
330
4243
100
AcDbEntity
  8
HILF
100
AcDbVertex
100
AcDb2dVertex
 10
448.3444791484304
 20
311.8257788073835
 30
0.0
 70
    16
  0
VERTEX
  5
4286
330
4243
100
AcDbEntity
  8
HILF
100
AcDbVertex
100
AcDb2dVertex
 10
454.9564247910699
 20
304.7023671809767
 30
0.0
 70
    16
  0
SEQEND
  5
4287
330
4243
100
AcDbEntity
  8
HILF
  0
LINE
  5
4288
330
1E
100
AcDbEntity
  8
STEMPEL
100
AcDbLine
 10
748.3808560778287
 20
385.1606327388107
 30
0.0
 11
748.3808560778287
 21
375.1606327388107
 31
0.0
  0
ARC
  5
4289
330
1E
100
AcDbEntity
  8
STEMPEL
100
AcDbCircle
 10
801.380856077829
 20
335.0819430683304
 30
0.0
 40
51.0
100
AcDbArc
 50
100.9071548615789
 51
128.2000215847494
  0
ARC
  5
428A
330
1E
100
AcDbEntity
  8
STEMPEL
100
AcDbCircle
 10
801.380856077829
 20
357.2278776927085
 30
0.0
 40
51.0
100
AcDbArc
 50
90.0
 51
109.9722866880711
  0
ARC
  5
428B
330
1E
100
AcDbEntity
  8
STEMPEL
100
AcDbCircle
 10
801.380856077829
 20
338.8908761536313
 30
0.0
 40
51.0
100
AcDbArc
 50
217.0530193452728
 51
270.0
  0
LINE
  5
428C
330
1E
100
AcDbEntity
  8
STEMPEL
100
AcDbLine
 10
801.3808560778283
 20
362.1606327388107
 30
0.0
 11
661.3808560778283
 21
362.1606327388107
 31
0.0
  0
LINE
  5
428D
330
1E
100
AcDbEntity
  8
STEMPEL
100
AcDbLine
 10
661.3808560778283
 20
452.6597609253128
 30
0.0
 11
661.3808560778283
 21
360.1606327388104
 31
0.0
  0
LINE
  5
428E
330
1E
100
AcDbEntity
  8
STEMPEL
100
AcDbLine
 10
748.3808560778287
 20
400.1606327388107
 30
0.0
 11
748.3808560778287
 21
390.1606327388107
 31
0.0
  0
LINE
  5
428F
330
1E
100
AcDbEntity
  8
STEMPEL
100
AcDbLine
 10
676.3808560778283
 20
400.1606327388107
 30
0.0
 11
676.3808560778283
 21
390.1606327388107
 31
0.0
  0
LINE
  5
4290
330
1E
100
AcDbEntity
  8
STEMPEL
100
AcDbLine
 10
676.3808560778283
 20
385.1606327388107
 30
0.0
 11
676.3808560778283
 21
375.1606327388107
 31
0.0
  0
LINE
  5
4291
330
1E
100
AcDbEntity
  8
STEMPEL
100
AcDbLine
 10
748.3808560778287
 20
400.1606327388107
 30
0.0
 11
676.3808560778283
 21
400.1606327388107
 31
0.0
  0
LINE
  5
4292
330
1E
100
AcDbEntity
  8
STEMPEL
100
AcDbLine
 10
748.3808560778287
 20
390.1606327388107
 30
0.0
 11
676.3808560778283
 21
390.1606327388107
 31
0.0
  0
LINE
  5
4293
330
1E
100
AcDbEntity
  8
STEMPEL
100
AcDbLine
 10
748.3808560778287
 20
385.1606327388107
 30
0.0
 11
676.3808560778283
 21
385.1606327388107
 31
0.0
  0
LINE
  5
4294
330
1E
100
AcDbEntity
  8
STEMPEL
100
AcDbLine
 10
748.3808560778287
 20
375.1606327388107
 30
0.0
 11
676.3808560778283
 21
375.1606327388107
 31
0.0
  0
LINE
  5
4295
330
1E
100
AcDbEntity
  8
STEMPEL
100
AcDbLine
 10
761.3808560778287
 20
430.1606327388106
 30
0.0
 11
761.3808560778287
 21
420.1606327388105
 31
0.0
  0
LINE
  5
4296
330
1E
100
AcDbEntity
  8
STEMPEL
100
AcDbLine
 10
761.3808560778287
 20
448.1597609253101
 30
0.0
 11
761.3808560778287
 21
435.1606327388106
 31
0.0
  0
LINE
  5
4297
330
1E
100
AcDbEntity
  8
STEMPEL
100
AcDbLine
 10
761.3808560778287
 20
415.1606327388106
 30
0.0
 11
761.3808560778287
 21
405.1606327388107
 31
0.0
  0
LINE
  5
4298
330
1E
100
AcDbEntity
  8
STEMPEL
100
AcDbLine
 10
761.3808560778287
 20
400.1606327388107
 30
0.0
 11
761.3808560778287
 21
390.1606327388107
 31
0.0
  0
LINE
  5
4299
330
1E
100
AcDbEntity
  8
STEMPEL
100
AcDbLine
 10
761.3808560778287
 20
385.1606327388107
 30
0.0
 11
761.3808560778287
 21
375.1606327388107
 31
0.0
  0
LINE
  5
429A
330
1E
100
AcDbEntity
  8
STEMPEL
100
AcDbLine
 10
801.3808560778286
 20
415.1606327388106
 30
0.0
 11
761.3808560778287
 21
415.1606327388106
 31
0.0
  0
LINE
  5
429B
330
1E
100
AcDbEntity
  8
STEMPEL
100
AcDbLine
 10
801.3808560778286
 20
420.1606327388105
 30
0.0
 11
761.3808560778287
 21
420.1606327388105
 31
0.0
  0
LINE
  5
429C
330
1E
100
AcDbEntity
  8
STEMPEL
100
AcDbLine
 10
801.3808560778286
 20
430.1606327388106
 30
0.0
 11
761.3808560778287
 21
430.1606327388106
 31
0.0
  0
LINE
  5
429D
330
1E
100
AcDbEntity
  8
STEMPEL
100
AcDbLine
 10
801.3808560778286
 20
435.1606327388106
 30
0.0
 11
761.3808560778287
 21
435.1606327388106
 31
0.0
  0
LINE
  5
429E
330
1E
100
AcDbEntity
  8
STEMPEL
100
AcDbLine
 10
801.3808560778286
 20
385.1606327388107
 30
0.0
 11
761.3808560778287
 21
385.1606327388107
 31
0.0
  0
LINE
  5
429F
330
1E
100
AcDbEntity
  8
STEMPEL
100
AcDbLine
 10
801.3808560778286
 20
390.1606327388107
 30
0.0
 11
761.3808560778287
 21
390.1606327388107
 31
0.0
  0
LINE
  5
42A0
330
1E
100
AcDbEntity
  8
STEMPEL
100
AcDbLine
 10
801.3808560778286
 20
400.1606327388107
 30
0.0
 11
761.3808560778287
 21
400.1606327388107
 31
0.0
  0
LINE
  5
42A1
330
1E
100
AcDbEntity
  8
STEMPEL
100
AcDbLine
 10
801.3808560778286
 20
405.1606327388107
 30
0.0
 11
761.3808560778287
 21
405.1606327388107
 31
0.0
  0
LINE
  5
42A2
330
1E
100
AcDbEntity
  8
STEMPEL
100
AcDbLine
 10
801.3808560778286
 20
375.1606327388107
 30
0.0
 11
761.3808560778287
 21
375.1606327388107
 31
0.0
  0
LINE
  5
42A3
330
1E
100
AcDbEntity
  8
STEMPEL
100
AcDbLine
 10
801.3808560778286
 20
448.1597609253101
 30
0.0
 11
761.3808560778287
 21
448.1597609253101
 31
0.0
  0
LINE
  5
42A4
330
1E
100
AcDbEntity
  8
STEMPEL
100
AcDbLine
 10
748.3808560778287
 20
430.1606327388106
 30
0.0
 11
748.3808560778287
 21
420.1606327388105
 31
0.0
  0
LINE
  5
42A5
330
1E
100
AcDbEntity
  8
STEMPEL
100
AcDbLine
 10
748.3808560778287
 20
415.1606327388106
 30
0.0
 11
748.3808560778287
 21
405.1606327388107
 31
0.0
  0
LINE
  5
42A6
330
1E
100
AcDbEntity
  8
STEMPEL
100
AcDbLine
 10
676.3808560778283
 20
430.1606327388106
 30
0.0
 11
676.3808560778283
 21
420.1606327388105
 31
0.0
  0
LINE
  5
42A7
330
1E
100
AcDbEntity
  8
STEMPEL
100
AcDbLine
 10
748.3808560778287
 20
420.1606327388105
 30
0.0
 11
676.3808560778283
 21
420.1606327388105
 31
0.0
  0
LINE
  5
42A8
330
1E
100
AcDbEntity
  8
STEMPEL
100
AcDbLine
 10
748.3808560778287
 20
415.1606327388106
 30
0.0
 11
676.3808560778283
 21
415.1606327388106
 31
0.0
  0
LINE
  5
42A9
330
1E
100
AcDbEntity
  8
STEMPEL
100
AcDbLine
 10
748.3808560778287
 20
430.1606327388106
 30
0.0
 11
676.3808560778283
 21
430.1606327388106
 31
0.0
  0
LINE
  5
42AA
330
1E
100
AcDbEntity
  8
STEMPEL
100
AcDbLine
 10
748.3808560778287
 20
405.1606327388107
 30
0.0
 11
676.3808560778283
 21
405.1606327388107
 31
0.0
  0
LINE
  5
42AB
330
1E
100
AcDbEntity
  8
STEMPEL
100
AcDbLine
 10
676.3808560778283
 20
415.1606327388106
 30
0.0
 11
676.3808560778283
 21
405.1606327388107
 31
0.0
  0
LINE
  5
42AC
330
1E
100
AcDbEntity
  8
STEMPEL
100
AcDbLine
 10
748.3808560778287
 20
448.1597609253101
 30
0.0
 11
748.3808560778287
 21
435.1606327388106
 31
0.0
  0
LINE
  5
42AD
330
1E
100
AcDbEntity
  8
STEMPEL
100
AcDbLine
 10
748.3808560778287
 20
448.1597609253101
 30
0.0
 11
676.3808560778283
 21
448.1597609253101
 31
0.0
  0
LINE
  5
42AE
330
1E
100
AcDbEntity
  8
STEMPEL
100
AcDbLine
 10
676.3808560778283
 20
448.1597609253101
 30
0.0
 11
676.3808560778283
 21
435.1606327388106
 31
0.0
  0
LINE
  5
42AF
330
1E
100
AcDbEntity
  8
STEMPEL
100
AcDbLine
 10
748.3808560778287
 20
435.1606327388106
 30
0.0
 11
676.3808560778283
 21
435.1606327388106
 31
0.0
  0
ARC
  5
42B0
330
1E
100
AcDbEntity
  8
STEMPEL
100
AcDbCircle
 10
665.8808560778278
 20
452.6597609253128
 30
0.0
 40
4.5
100
AcDbArc
 50
90.0
 51
180.0
  0
LINE
  5
42B1
330
1E
100
AcDbEntity
  8
HILF
100
AcDbLine
 10
801.3808560778286
 20
452.6597609253101
 30
0.0
 11
663.3808560778283
 21
452.6597609253101
 31
0.0
  0
LINE
  5
42B2
330
1E
100
AcDbEntity
  8
STEMPEL
100
AcDbLine
 10
801.3808560778286
 20
457.1597609253101
 30
0.0
 11
665.8808560778278
 21
457.1597609253101
 31
0.0
  0
DIMENSION
  5
42B3
330
1E
100
AcDbEntity
  8
BEM
100
AcDbDimension
  2
*D14
 10
388.3042689796253
 20
563.6496067587748
 30
0.0
 11
334.6218525575355
 21
570.1496067587749
 31
0.0
 70
    32
  1
107
 71
     5
 42
107.3648328441797
  3
Standard
100
AcDbAlignedDimension
 13
280.9394361354456
 23
452.6597609253086
 33
0.0
 14
388.3042689796253
 24
575.1606327388101
 34
0.0
100
AcDbRotatedDimension
1001
ACAD
1000
DSTYLE
1002
{
1070
    40
1040
2.0
1070
    41
1040
3.5
1070
    42
1040
1.0
1070
    43
1040
7.0
1070
    44
1040
1.0
1070
    73
1070
     0
1070
    74
1070
     0
1070
    77
1070
     1
1070
    78
1070
     8
1070
    79
1070
     2
1070
   140
1040
3.5
1070
   141
1040
1.5
1070
   146
1040
0.5142857142857144
1070
   147
1040
1.5
1070
   172
1070
     1
1070
   178
1070
     1
1070
   179
1070
     2
1070
   271
1070
     2
1070
   272
1070
     2
1070
   284
1070
     8
1070
   285
1070
     8
1070
   286
1070
     8
1002
}
  0
DIMENSION
  5
42B4
330
1E
100
AcDbEntity
  8
BEM
100
AcDbDimension
  2
*D15
 10
58.23055015834063
 20
457.1597609253087
 30
0.0
 11
51.73055015834056
 21
408.6601968320594
 31
0.0
 70
    32
 71
     5
 42
96.99912818649858
  3
Standard
100
AcDbAlignedDimension
 13
71.30426897962536
 23
360.1606327388101
 33
0.0
 14
291.3861567866998
 24
457.1597609253086
 34
0.0
 50
90.0
100
AcDbRotatedDimension
1001
ACAD
1000
DSTYLE
1002
{
1070
    40
1040
2.0
1070
    41
1040
3.5
1070
    42
1040
1.0
1070
    43
1040
7.0
1070
    44
1040
1.0
1070
    73
1070
     0
1070
    74
1070
     0
1070
    77
1070
     1
1070
    78
1070
     8
1070
    79
1070
     2
1070
   140
1040
3.5
1070
   141
1040
1.5
1070
   146
1040
0.5142857142857144
1070
   147
1040
1.5
1070
   172
1070
     1
1070
   178
1070
     1
1070
   179
1070
     2
1070
   271
1070
     2
1070
   272
1070
     2
1070
   284
1070
     8
1070
   285
1070
     8
1070
   286
1070
     8
1002
}
  0
LINE
  5
42B5
330
1E
100
AcDbEntity
  8
STEMPEL
100
AcDbLine
 10
270.9394361354442
 20
362.1606327388101
 30
0.0
 11
270.9394361354442
 21
360.1606327388104
 31
0.0
  0
LINE
  5
42B6
330
1E
100
AcDbEntity
  8
STEMPEL
100
AcDbLine
 10
279.3042689796242
 20
360.1606327388101
 30
0.0
 11
279.3042689796242
 21
358.1606327388101
 31
0.0
  0
LINE
  5
42B7
330
1E
100
AcDbEntity
  8
STEMPEL
100
AcDbLine
 10
267.3042689796242
 20
360.1606327388101
 30
0.0
 11
267.3042689796242
 21
358.1606327388101
 31
0.0
  0
LINE
  5
42B8
330
1E
100
AcDbEntity
  8
STEMPEL
100
AcDbLine
 10
202.1110090106987
 20
360.1606327388101
 30
0.0
 11
73.30426897962536
 21
360.1606327388101
 31
0.0
  0
LINE
  5
42B9
330
1E
100
AcDbEntity
  8
STEMPEL
100
AcDbLine
 10
223.9394361354456
 20
358.1606327388103
 30
0.0
 11
241.9394361354456
 21
358.1606327388101
 31
0.0
  0
LINE
  5
42BA
330
1E
100
AcDbEntity
  8
STEMPEL
100
AcDbLine
 10
243.9394361354456
 20
358.1606327388101
 30
0.0
 11
261.9394361354451
 21
358.1606327388101
 31
0.0
  0
LINE
  5
42BB
330
1E
100
AcDbEntity
  8
STEMPEL
100
AcDbLine
 10
263.9394361354451
 20
358.1606327388101
 30
0.0
 11
286.3042689796253
 21
358.1606327388101
 31
0.0
  0
LINE
  5
42BC
330
1E
100
AcDbEntity
  8
STEMPEL
100
AcDbLine
 10
243.9394361354456
 20
358.1606327388103
 30
0.0
 11
261.9394361354451
 21
358.1606327388101
 31
0.0
  0
LINE
  5
42BD
330
1E
100
AcDbEntity
  8
STEMPEL
100
AcDbLine
 10
203.9394361354451
 20
358.1606327388101
 30
0.0
 11
221.9394361354456
 21
358.1606327388101
 31
0.0
  0
LINE
  5
42BE
330
1E
100
AcDbEntity
  8
STEMPEL
100
AcDbLine
 10
223.9394361354456
 20
358.1606327388101
 30
0.0
 11
241.9394361354456
 21
358.1606327388103
 31
0.0
  0
LINE
  5
42BF
330
1E
100
AcDbEntity
  8
STEMPEL
100
AcDbLine
 10
263.9394361354451
 20
358.1606327388101
 30
0.0
 11
287.4758418548791
 21
358.1606327388101
 31
0.0
  0
LINE
  5
42C0
330
1E
100
AcDbEntity
  8
STEMPEL
100
AcDbLine
 10
372.3181157918852
 20
447.0029066758162
 30
0.0
 11
373.7323293542585
 21
445.5886931134438
 31
0.0
  0
LINE
  5
42C1
330
1E
100
AcDbEntity
  8
STEMPEL
100
AcDbLine
 10
282.9394361354456
 20
448.1606327388091
 30
0.0
 11
280.9394361354456
 21
448.1606327388091
 31
0.0
  0
ARC
  5
42C2
330
1E
100
AcDbEntity
  8
SCHRAFF
100
AcDbCircle
 10
366.8053056765474
 20
453.8661831698492
 30
0.0
 40
2.592830535988874
100
AcDbArc
 50
318.8425098051346
 51
29.92762352415139
  0
ARC
  5
42C3
330
1E
100
AcDbEntity
  8
SCHRAFF
100
AcDbCircle
 10
361.6539909625597
 20
453.8661831698492
 30
0.0
 40
2.592830535988874
100
AcDbArc
 50
318.8425098051346
 51
29.92762352415139
  0
ARC
  5
42C4
330
1E
100
AcDbEntity
  8
SCHRAFF
100
AcDbCircle
 10
364.2296483195531
 20
453.8661831698492
 30
0.0
 40
2.592830535988874
100
AcDbArc
 50
318.8425098051346
 51
29.92762352415139
  0
ARC
  5
42C5
330
1E
100
AcDbEntity
  8
SCHRAFF
100
AcDbCircle
 10
333.0798432699684
 20
453.8661831698492
 30
0.0
 40
2.592830535988874
100
AcDbArc
 50
318.8425098051346
 51
29.92762352415139
  0
LINE
  5
42C6
330
1E
100
AcDbEntity
  8
STEMPEL
100
AcDbLine
 10
351.4197663018323
 20
455.1597609253086
 30
0.0
 11
351.4197663018323
 21
457.1597609253086
 31
0.0
  0
LINE
  5
42C7
330
1E
100
AcDbEntity
  8
STEMPEL
100
AcDbLine
 10
359.9443793317129
 20
455.1597609253086
 30
0.0
 11
359.9443793317129
 21
457.1597609253086
 31
0.0
  0
ARC
  5
42C8
330
1E
100
AcDbEntity
  8
SCHRAFF
100
AcDbCircle
 10
327.9285285559808
 20
453.8661831698492
 30
0.0
 40
2.592830535988874
100
AcDbArc
 50
318.8425098051346
 51
29.92762352415139
  0
ARC
  5
42C9
330
1E
100
AcDbEntity
  8
SCHRAFF
100
AcDbCircle
 10
296.5560462690781
 20
453.8661831698492
 30
0.0
 40
2.592830535988874
100
AcDbArc
 50
318.8425098051346
 51
29.92762352415139
  0
ARC
  5
42CA
330
1E
100
AcDbEntity
  8
SCHRAFF
100
AcDbCircle
 10
293.9803889120848
 20
453.8661831698492
 30
0.0
 40
2.592830535988874
100
AcDbArc
 50
318.8425098051346
 51
29.92762352415139
  0
ARC
  5
42CB
330
1E
100
AcDbEntity
  8
SCHRAFF
100
AcDbCircle
 10
291.4047315550914
 20
453.8661831698492
 30
0.0
 40
2.592830535988874
100
AcDbArc
 50
318.8425098051346
 51
29.92762352415139
  0
ARC
  5
42CC
330
1E
100
AcDbEntity
  8
STEMPEL
100
AcDbCircle
 10
285.4394361354451
 20
452.6597609253086
 30
0.0
 40
2.5
100
AcDbArc
 50
90.0
 51
180.0
  0
ARC
  5
42CD
330
1E
100
AcDbEntity
  8
STEMPEL
100
AcDbCircle
 10
285.4394361354451
 20
452.6597609253086
 30
0.0
 40
4.5
100
AcDbArc
 50
90.0
 51
180.0
  0
LINE
  5
42CE
330
1E
100
AcDbEntity
  8
STEMPEL
100
AcDbLine
 10
299.9344929391769
 20
455.1597609253086
 30
0.0
 11
299.9344929391767
 21
457.1597609253086
 31
0.0
  0
LINE
  5
42CF
330
1E
100
AcDbEntity
  8
STEMPEL
100
AcDbLine
 10
308.4591059690573
 20
455.1597609253086
 30
0.0
 11
308.4591059690573
 21
457.1597609253091
 31
0.0
  0
ARC
  5
42D0
330
1E
100
AcDbEntity
  8
SCHRAFF
100
AcDbCircle
 10
330.5041859129746
 20
453.8661831698492
 30
0.0
 40
2.592830535988874
100
AcDbArc
 50
318.8425098051346
 51
29.92762352415139
  0
LINE
  5
42D1
330
1E
100
AcDbEntity
  8
STEMPEL
100
AcDbLine
 10
371.233201167758
 20
450.1606327388091
 30
0.0
 11
288.9394361354456
 21
450.1606327388091
 31
0.0
  0
LINE
  5
42D2
330
1E
100
AcDbEntity
  8
STEMPEL
100
AcDbLine
 10
374.4394361354451
 20
455.1597609253086
 30
0.0
 11
285.4394361354451
 21
455.1597609253086
 31
0.0
  0
LINE
  5
42D3
330
1E
100
AcDbEntity
  8
STEMPEL
100
AcDbLine
 10
374.4394361354451
 20
457.1597609253086
 30
0.0
 11
285.4394361354451
 21
457.1597609253086
 31
0.0
  0
LINE
  5
42D4
330
1E
100
AcDbEntity
  8
STEMPEL
100
AcDbLine
 10
376.2072030884113
 20
450.8919939723419
 30
0.0
 11
372.3181157918856
 21
447.0029066758162
 31
0.0
  0
ARC
  5
42D5
330
1E
100
AcDbEntity
  8
STEMPEL
100
AcDbCircle
 10
374.4394361354451
 20
452.6597609253086
 30
0.0
 40
4.5
100
AcDbArc
 50
315.0
 51
90.0
  0
ARC
  5
42D6
330
1E
100
AcDbEntity
  8
STEMPEL
100
AcDbCircle
 10
374.4394361354451
 20
452.6597609253086
 30
0.0
 40
2.5
100
AcDbArc
 50
315.0
 51
90.0
  0
LINE
  5
42D7
330
1E
100
AcDbEntity
  8
STEMPEL
100
AcDbLine
 10
351.2332011677576
 20
430.1606327388086
 30
0.0
 11
341.2332011677589
 21
420.16063273881
 31
0.0
  0
LINE
  5
42D8
330
1E
100
AcDbEntity
  8
STEMPEL
100
AcDbLine
 10
288.9394361354456
 20
420.160632738809
 30
0.0
 11
288.9394361354456
 21
430.1606327388091
 31
0.0
  0
LINE
  5
42D9
330
1E
100
AcDbEntity
  8
STEMPEL
100
AcDbLine
 10
282.9394361354456
 20
420.160632738809
 30
0.0
 11
280.9394361354451
 21
420.160632738809
 31
0.0
  0
LINE
  5
42DA
330
1E
100
AcDbEntity
  8
STEMPEL
100
AcDbLine
 10
282.9394361354451
 20
415.1606327388099
 30
0.0
 11
280.9394361354451
 21
415.1606327388099
 31
0.0
  0
LINE
  5
42DB
330
1E
100
AcDbEntity
  8
STEMPEL
100
AcDbLine
 10
336.2332011677589
 20
415.1606327388099
 30
0.0
 11
288.9394361354456
 21
415.1606327388099
 31
0.0
  0
LINE
  5
42DC
330
1E
100
AcDbEntity
  8
STEMPEL
100
AcDbLine
 10
341.2332011677589
 20
420.16063273881
 30
0.0
 11
288.9394361354456
 21
420.160632738809
 31
0.0
  0
LINE
  5
42DD
330
1E
100
AcDbEntity
  8
STEMPEL
100
AcDbLine
 10
282.9394361354456
 20
435.1606327388091
 30
0.0
 11
280.9394361354451
 21
435.1606327388091
 31
0.0
  0
LINE
  5
42DE
330
1E
100
AcDbEntity
  8
STEMPEL
100
AcDbLine
 10
282.9394361354456
 20
430.1606327388095
 30
0.0
 11
280.9394361354451
 21
430.1606327388095
 31
0.0
  0
ARC
  5
42DF
330
1E
100
AcDbEntity
  8
SCHRAFF
100
AcDbCircle
 10
284.981131527907
 20
433.4180811732505
 30
0.0
 40
2.592830535988874
100
AcDbArc
 50
40.95044298616509
 51
141.9468043941345
  0
ARC
  5
42E0
330
1E
100
AcDbEntity
  8
SCHRAFF
100
AcDbCircle
 10
284.981131527907
 20
430.4871893619012
 30
0.0
 40
2.592830535988874
100
AcDbArc
 50
40.95044298616509
 51
141.9468043941345
  0
ARC
  5
42E1
330
1E
100
AcDbEntity
  8
SCHRAFF
100
AcDbCircle
 10
284.981131527907
 20
427.556297550551
 30
0.0
 40
2.592830535988874
100
AcDbArc
 50
40.95044298616509
 51
141.9468043941345
  0
LINE
  5
42E2
330
1E
100
AcDbEntity
  8
STEMPEL
100
AcDbLine
 10
356.233201167758
 20
435.1606327388091
 30
0.0
 11
288.9394361354456
 21
435.1606327388091
 31
0.0
  0
LINE
  5
42E3
330
1E
100
AcDbEntity
  8
STEMPEL
100
AcDbLine
 10
351.233201167758
 20
430.1606327388091
 30
0.0
 11
288.9394361354456
 21
430.1606327388091
 31
0.0
  0
LINE
  5
42E4
330
1E
100
AcDbEntity
  8
STEMPEL
100
AcDbLine
 10
371.233201167758
 20
450.1606327388091
 30
0.0
 11
356.233201167758
 21
435.1606327388091
 31
0.0
  0
LINE
  5
42E5
330
1E
100
AcDbEntity
  8
STEMPEL
100
AcDbLine
 10
288.9394361354456
 20
435.1606327388091
 30
0.0
 11
288.9394361354456
 21
450.1606327388091
 31
0.0
  0
LINE
  5
42E6
330
1E
100
AcDbEntity
  8
STEMPEL
100
AcDbLine
 10
288.9394361354456
 20
390.1606327388102
 30
0.0
 11
288.9394361354456
 21
400.1606327388101
 31
0.0
  0
LINE
  5
42E7
330
1E
100
AcDbEntity
  8
STEMPEL
100
AcDbLine
 10
321.2332011677585
 20
400.1606327388096
 30
0.0
 11
311.2332011677589
 21
390.1606327388102
 31
0.0
  0
LINE
  5
42E8
330
1E
100
AcDbEntity
  8
STEMPEL
100
AcDbLine
 10
306.2332011677589
 20
385.1606327388101
 30
0.0
 11
288.9394361354456
 21
385.1606327388101
 31
0.0
  0
LINE
  5
42E9
330
1E
100
AcDbEntity
  8
STEMPEL
100
AcDbLine
 10
282.9394361354451
 20
390.1606327388102
 30
0.0
 11
280.9394361354451
 21
390.1606327388102
 31
0.0
  0
LINE
  5
42EA
330
1E
100
AcDbEntity
  8
STEMPEL
100
AcDbLine
 10
282.9394361354451
 20
385.1606327388101
 30
0.0
 11
280.9394361354451
 21
385.1606327388101
 31
0.0
  0
LINE
  5
42EB
330
1E
100
AcDbEntity
  8
STEMPEL
100
AcDbLine
 10
311.2332011677589
 20
390.1606327388102
 30
0.0
 11
288.9394361354456
 21
390.1606327388102
 31
0.0
  0
LINE
  5
42EC
330
1E
100
AcDbEntity
  8
STEMPEL
100
AcDbLine
 10
282.9394361354451
 20
400.1606327388101
 30
0.0
 11
280.9394361354451
 21
400.1606327388101
 31
0.0
  0
LINE
  5
42ED
330
1E
100
AcDbEntity
  8
STEMPEL
100
AcDbLine
 10
282.9394361354451
 20
405.1606327388101
 30
0.0
 11
280.9394361354451
 21
405.1606327388101
 31
0.0
  0
LINE
  5
42EE
330
1E
100
AcDbEntity
  8
STEMPEL
100
AcDbLine
 10
321.2332011677589
 20
400.1606327388101
 30
0.0
 11
288.9394361354456
 21
400.1606327388101
 31
0.0
  0
LINE
  5
42EF
330
1E
100
AcDbEntity
  8
STEMPEL
100
AcDbLine
 10
326.2332011677589
 20
405.1606327388101
 30
0.0
 11
288.9394361354456
 21
405.1606327388101
 31
0.0
  0
ARC
  5
42F0
330
1E
100
AcDbEntity
  8
SCHRAFF
100
AcDbCircle
 10
285.2770882516185
 20
397.9062384219044
 30
0.0
 40
2.592830535988874
100
AcDbArc
 50
40.95044298616509
 51
141.9468043941345
  0
ARC
  5
42F1
330
1E
100
AcDbEntity
  8
SCHRAFF
100
AcDbCircle
 10
285.2770882516185
 20
403.7680220446029
 30
0.0
 40
2.592830535988874
100
AcDbArc
 50
40.95044298616509
 51
141.9468043941345
  0
ARC
  5
42F2
330
1E
100
AcDbEntity
  8
SCHRAFF
100
AcDbCircle
 10
285.2770882516185
 20
400.8371302332537
 30
0.0
 40
2.592830535988874
100
AcDbArc
 50
40.95044298616509
 51
141.9468043941345
  0
LINE
  5
42F3
330
1E
100
AcDbEntity
  8
STEMPEL
100
AcDbLine
 10
282.9394361354451
 20
360.1606327388101
 30
0.0
 11
288.9394361354456
 21
363.6247343539483
 31
0.0
  0
ARC
  5
42F4
330
1E
100
AcDbEntity
  8
STEMPEL
100
AcDbCircle
 10
204.9394361354451
 20
359.160632738811
 30
0.0
 40
3.0
100
AcDbArc
 50
90.0
 51
180.0
  0
ARC
  5
42F5
330
1E
100
AcDbEntity
  8
STEMPEL
100
AcDbCircle
 10
244.9394361354456
 20
359.1606327388102
 30
0.0
 40
3.0
100
AcDbArc
 50
90.0
 51
180.0
  0
ARC
  5
42F6
330
1E
100
AcDbEntity
  8
STEMPEL
100
AcDbCircle
 10
224.9394361354456
 20
359.1606327388102
 30
0.0
 40
3.0
100
AcDbArc
 50
90.0
 51
180.0
  0
LINE
  5
42F7
330
1E
100
AcDbEntity
  8
MITTEL
100
AcDbLine
 10
274.9394361354451
 20
356.2029064255801
 30
0.0
 11
274.9394361354451
 21
365.8916940458191
 31
0.0
  0
ARC
  5
42F8
330
1E
100
AcDbEntity
  8
STEMPEL
100
AcDbCircle
 10
278.9394361354451
 20
364.1606327388101
 30
0.0
 40
2.0
100
AcDbArc
 50
270.0
 51
0.0
  0
ARC
  5
42F9
330
1E
100
AcDbEntity
  8
STEMPEL
100
AcDbCircle
 10
278.9394361354451
 20
364.1606327388101
 30
0.0
 40
4.0
100
AcDbArc
 50
270.0
 51
0.0
  0
ARC
  5
42FA
330
1E
100
AcDbEntity
  8
STEMPEL
100
AcDbCircle
 10
264.9394361354451
 20
359.1606327388102
 30
0.0
 40
3.0
100
AcDbArc
 50
90.0
 51
180.0
  0
LINE
  5
42FB
330
1E
100
AcDbEntity
  8
STEMPEL
100
AcDbLine
 10
242.1110090106994
 20
360.1606327388101
 30
0.0
 11
224.9394361354456
 21
360.1606327388101
 31
0.0
  0
LINE
  5
42FC
330
1E
100
AcDbEntity
  8
STEMPEL
100
AcDbLine
 10
242.1110090106994
 20
360.1606327388101
 30
0.0
 11
224.9394361354456
 21
360.1606327388101
 31
0.0
  0
LINE
  5
42FD
330
1E
100
AcDbEntity
  8
STEMPEL
100
AcDbLine
 10
278.9394361354451
 20
362.1606327388101
 30
0.0
 11
175.9394361354451
 21
362.1606327388101
 31
0.0
  0
LINE
  5
42FE
330
1E
100
AcDbEntity
  8
STEMPEL
100
AcDbLine
 10
210.9394361354456
 20
362.1606327388101
 30
0.0
 11
210.9394361354456
 21
360.1606327388101
 31
0.0
  0
LINE
  5
42FF
330
1E
100
AcDbEntity
  8
STEMPEL
100
AcDbLine
 10
190.9394361354451
 20
362.1606327388111
 30
0.0
 11
190.9394361354451
 21
360.1606327388101
 31
0.0
  0
LINE
  5
4300
330
1E
100
AcDbEntity
  8
STEMPEL
100
AcDbLine
 10
175.9394361354451
 20
362.1606327388101
 30
0.0
 11
175.9394361354451
 21
360.1606327388101
 31
0.0
  0
ARC
  5
4301
330
1E
100
AcDbEntity
  8
STEMPEL
100
AcDbCircle
 10
204.9394361354451
 20
359.160632738811
 30
0.0
 40
1.0
100
AcDbArc
 50
90.0
 51
180.0
  0
LINE
  5
4302
330
1E
100
AcDbEntity
  8
STEMPEL
100
AcDbLine
 10
222.1110090106994
 20
360.1606327388101
 30
0.0
 11
204.9394361354451
 21
360.1606327388101
 31
0.0
  0
LINE
  5
4303
330
1E
100
AcDbEntity
  8
STEMPEL
100
AcDbLine
 10
222.1110090106994
 20
360.1606327388101
 30
0.0
 11
204.9394361354451
 21
360.1606327388101
 31
0.0
  0
ARC
  5
4304
330
1E
100
AcDbEntity
  8
STEMPEL
100
AcDbCircle
 10
224.9394361354456
 20
359.1606327388102
 30
0.0
 40
1.0
100
AcDbArc
 50
90.0
 51
180.0
  0
LINE
  5
4305
330
1E
100
AcDbEntity
  8
STEMPEL
100
AcDbLine
 10
223.9394361354456
 20
350.1606327388101
 30
0.0
 11
221.9394361354456
 21
350.1606327388101
 31
0.0
  0
LINE
  5
4306
330
1E
100
AcDbEntity
  8
STEMPEL
100
AcDbLine
 10
203.9394361354451
 20
350.1606327388111
 30
0.0
 11
201.9394361354451
 21
350.1606327388111
 31
0.0
  0
LINE
  5
4307
330
1E
100
AcDbEntity
  8
STEMPEL
100
AcDbLine
 10
221.9394361354456
 20
359.1606327388102
 30
0.0
 11
221.9394361354456
 21
350.1606327388101
 31
0.0
  0
LINE
  5
4308
330
1E
100
AcDbEntity
  8
STEMPEL
100
AcDbLine
 10
223.9394361354456
 20
359.1606327388102
 30
0.0
 11
223.9394361354456
 21
350.1606327388101
 31
0.0
  0
LINE
  5
4309
330
1E
100
AcDbEntity
  8
STEMPEL
100
AcDbLine
 10
203.9394361354451
 20
359.160632738811
 30
0.0
 11
203.9394361354451
 21
350.1606327388111
 31
0.0
  0
LINE
  5
430A
330
1E
100
AcDbEntity
  8
STEMPEL
100
AcDbLine
 10
201.9394361354451
 20
359.160632738811
 30
0.0
 11
201.9394361354451
 21
350.1606327388111
 31
0.0
  0
LINE
  5
430B
330
1E
100
AcDbEntity
  8
STEMPEL
100
AcDbLine
 10
230.9394361354456
 20
362.1606327388101
 30
0.0
 11
230.9394361354456
 21
360.1606327388104
 31
0.0
  0
LINE
  5
430C
330
1E
100
AcDbEntity
  8
STEMPEL
100
AcDbLine
 10
287.4758418548791
 20
360.1606327388101
 30
0.0
 11
264.9394361354451
 21
360.1606327388101
 31
0.0
  0
LINE
  5
430D
330
1E
100
AcDbEntity
  8
STEMPEL
100
AcDbLine
 10
279.7113151499015
 20
362.1606327388101
 30
0.0
 11
279.7113151499015
 21
360.2701567915731
 31
0.0
  0
LINE
  5
430E
330
1E
100
AcDbEntity
  8
STEMPEL
100
AcDbLine
 10
243.9394361354456
 20
350.1606327388101
 30
0.0
 11
241.9394361354456
 21
350.1606327388101
 31
0.0
  0
ARC
  5
430F
330
1E
100
AcDbEntity
  8
STEMPEL
100
AcDbCircle
 10
244.9394361354456
 20
359.1606327388102
 30
0.0
 40
1.0
100
AcDbArc
 50
90.0
 51
180.0
  0
LINE
  5
4310
330
1E
100
AcDbEntity
  8
STEMPEL
100
AcDbLine
 10
262.1110090106989
 20
360.1606327388101
 30
0.0
 11
244.9394361354456
 21
360.1606327388101
 31
0.0
  0
LINE
  5
4311
330
1E
100
AcDbEntity
  8
STEMPEL
100
AcDbLine
 10
243.9394361354456
 20
359.1606327388102
 30
0.0
 11
243.9394361354456
 21
350.1606327388101
 31
0.0
  0
LINE
  5
4312
330
1E
100
AcDbEntity
  8
STEMPEL
100
AcDbLine
 10
241.9394361354456
 20
359.1606327388102
 30
0.0
 11
241.9394361354456
 21
350.1606327388101
 31
0.0
  0
LINE
  5
4313
330
1E
100
AcDbEntity
  8
STEMPEL
100
AcDbLine
 10
250.9394361354452
 20
362.1606327388101
 30
0.0
 11
250.9394361354452
 21
360.1606327388104
 31
0.0
  0
LINE
  5
4314
330
1E
100
AcDbEntity
  8
STEMPEL
100
AcDbLine
 10
262.1110090106989
 20
360.1606327388101
 30
0.0
 11
244.9394361354456
 21
360.1606327388101
 31
0.0
  0
LINE
  5
4315
330
1E
100
AcDbEntity
  8
STEMPEL
100
AcDbLine
 10
278.9394361354451
 20
360.1606327388101
 30
0.0
 11
264.9394361354451
 21
360.1606327388101
 31
0.0
  0
ARC
  5
4316
330
1E
100
AcDbEntity
  8
STEMPEL
100
AcDbCircle
 10
264.9394361354451
 20
359.1606327388102
 30
0.0
 40
1.0
100
AcDbArc
 50
90.0
 51
180.0
  0
LINE
  5
4317
330
1E
100
AcDbEntity
  8
STEMPEL
100
AcDbLine
 10
263.9394361354451
 20
350.1606327388101
 30
0.0
 11
261.9394361354451
 21
350.1606327388101
 31
0.0
  0
LINE
  5
4318
330
1E
100
AcDbEntity
  8
STEMPEL
100
AcDbLine
 10
263.9394361354451
 20
359.1606327388102
 30
0.0
 11
263.9394361354451
 21
350.1606327388101
 31
0.0
  0
LINE
  5
4319
330
1E
100
AcDbEntity
  8
STEMPEL
100
AcDbLine
 10
261.9394361354451
 20
359.1606327388102
 30
0.0
 11
261.9394361354451
 21
350.1606327388101
 31
0.0
  0
LINE
  5
431A
330
1E
100
AcDbEntity
  8
STEMPEL
100
AcDbLine
 10
288.9394361354456
 20
363.6247343539483
 30
0.0
 11
288.9394361354456
 21
370.1606327388101
 31
0.0
  0
LINE
  5
431B
330
1E
100
AcDbEntity
  8
STEMPEL
100
AcDbLine
 10
298.3042689796242
 20
370.1606327388097
 30
0.0
 11
288.9394361354456
 21
370.1606327388101
 31
0.0
  0
LINE
  5
431C
330
1E
100
AcDbEntity
  8
STEMPEL
100
AcDbLine
 10
296.2332011677589
 20
375.1606327388101
 30
0.0
 11
288.9394361354456
 21
375.1606327388101
 31
0.0
  0
ARC
  5
431D
330
1E
100
AcDbEntity
  8
SCHRAFF
100
AcDbCircle
 10
284.981131527907
 20
369.910527122287
 30
0.0
 40
2.592830535988874
100
AcDbArc
 50
40.95044298616509
 51
141.9468043941345
  0
ARC
  5
431E
330
1E
100
AcDbEntity
  8
SCHRAFF
100
AcDbCircle
 10
284.981131527907
 20
366.9796353109368
 30
0.0
 40
2.592830535988874
100
AcDbArc
 50
40.95044298616509
 51
141.9468043941345
  0
ARC
  5
431F
330
1E
100
AcDbEntity
  8
SCHRAFF
100
AcDbCircle
 10
284.981131527907
 20
364.0487434995876
 30
0.0
 40
2.592830535988874
100
AcDbArc
 50
40.95044298616509
 51
141.9468043941345
  0
LINE
  5
4320
330
1E
100
AcDbEntity
  8
STEMPEL
100
AcDbLine
 10
282.9394361354451
 20
375.1606327388101
 30
0.0
 11
280.9394361354451
 21
375.1606327388101
 31
0.0
  0
LINE
  5
4321
330
1E
100
AcDbEntity
  8
STEMPEL
100
AcDbLine
 10
282.9394361354451
 20
370.1606327388101
 30
0.0
 11
280.9394361354451
 21
370.1606327388101
 31
0.0
  0
LINE
  5
4322
330
1E
100
AcDbEntity
  8
STEMPEL
100
AcDbLine
 10
306.2332011677589
 20
385.1606327388101
 30
0.0
 11
296.2332011677589
 21
375.1606327388101
 31
0.0
  0
LINE
  5
4323
330
1E
100
AcDbEntity
  8
STEMPEL
100
AcDbLine
 10
288.9394361354456
 20
375.1606327388101
 30
0.0
 11
288.9394361354456
 21
385.1606327388101
 31
0.0
  0
INSERT
  5
4324
330
1E
100
AcDbEntity
  8
SCHRAFF
100
AcDbBlockReference
  2
*X3
 10
-683.5296827545885
 20
-8.639196161665267
 30
0.0
1001
ACAD
1000
HATCH
1002
{
1070
    16
1000
_U,I
1040
3.0
1040
0.7853981633974483
1070
     0
1002
}
  0
LINE
  5
4325
330
1E
100
AcDbEntity
  8
STEMPEL
100
AcDbLine
 10
280.9394361354456
 20
452.6597609253086
 30
0.0
 11
280.9394361354451
 21
364.1606327388101
 31
0.0
  0
LINE
  5
4326
330
1E
100
AcDbEntity
  8
STEMPEL
100
AcDbLine
 10
282.9394361354456
 20
452.6597609253086
 30
0.0
 11
282.9394361354451
 21
360.1606327388101
 31
0.0
  0
LINE
  5
4327
330
1E
100
AcDbEntity
  8
STEMPEL
100
AcDbLine
 10
336.2332011677589
 20
415.1606327388099
 30
0.0
 11
326.2332011677589
 21
405.1606327388101
 31
0.0
  0
LINE
  5
4328
330
1E
100
AcDbEntity
  8
STEMPEL
100
AcDbLine
 10
288.9394361354456
 20
405.1606327388101
 30
0.0
 11
288.9394361354456
 21
415.1606327388099
 31
0.0
  0
LINE
  5
4329
330
1E
100
AcDbEntity
  8
MITTEL
100
AcDbLine
 10
589.8808560778283
 20
525.1606327388101
 30
0.0
 11
612.8808560778282
 21
525.1606327388101
 31
0.0
  0
LINE
  5
432A
330
1E
100
AcDbEntity
  8
MITTEL
100
AcDbLine
 10
601.3808560778283
 20
513.6606327388101
 30
0.0
 11
601.3808560778283
 21
536.6606327388101
 31
0.0
  0
CIRCLE
  5
432B
330
1E
100
AcDbEntity
  8
STEMPEL
100
AcDbCircle
 10
601.3808560778283
 20
525.1606327388101
 30
0.0
 40
3.5
  0
CIRCLE
  5
432C
330
1E
100
AcDbEntity
  8
STEMPEL
100
AcDbCircle
 10
601.3808560778283
 20
525.1606327388101
 30
0.0
 40
6.5
  0
LINE
  5
432D
330
1E
100
AcDbEntity
  8
STEMPEL
100
AcDbLine
 10
581.3808560778283
 20
575.1606327388101
 30
0.0
 11
561.3808560778283
 21
555.1606327388101
 31
0.0
  0
LINE
  5
432E
330
1E
100
AcDbEntity
  8
HILF
100
AcDbLine
 10
563.3808560778283
 20
460.2236929988269
 30
0.0
 11
674.3808560778287
 21
460.2236929988269
 31
0.0
  0
LINE
  5
432F
330
1E
100
AcDbEntity
  8
STEMPEL
100
AcDbLine
 10
676.3808560778287
 20
457.1597609253101
 30
0.0
 11
676.3808560778287
 21
460.1606327388101
 31
0.0
  0
LINE
  5
4330
330
1E
100
AcDbEntity
  8
STEMPEL
100
AcDbLine
 10
676.3808560778287
 20
460.1606327388101
 30
0.0
 11
801.3808560778286
 21
460.1606327388103
 31
0.0
  0
LINE
  5
4331
330
1E
100
AcDbEntity
  8
STEMPEL
100
AcDbLine
 10
581.3808560778283
 20
358.1606327388103
 30
0.0
 11
581.3808560778283
 21
360.1606327388103
 31
0.0
  0
ARC
  5
4332
330
1E
100
AcDbEntity
  8
SCHRAFF
100
AcDbCircle
 10
674.3808560778287
 20
358.1606327388103
 30
0.0
 40
4.0
100
AcDbArc
 50
180.0
 51
270.0
  0
LINE
  5
4333
330
1E
100
AcDbEntity
  8
MITTEL
100
AcDbLine
 10
601.3808560778283
 20
353.1606327388102
 30
0.0
 11
601.3808560778287
 21
365.1606327388107
 31
0.0
  0
ARC
  5
4334
330
1E
100
AcDbEntity
  8
STEMPEL
100
AcDbCircle
 10
678.3808560778287
 20
312.1606327388108
 30
0.0
 40
4.0
100
AcDbArc
 50
180.0
 51
270.0
  0
LINE
  5
4335
330
1E
100
AcDbEntity
  8
STEMPEL
100
AcDbLine
 10
678.3808560778287
 20
308.1606327388111
 30
0.0
 11
801.3808560778283
 21
308.1606327388108
 31
0.0
  0
LINE
  5
4336
330
1E
100
AcDbEntity
  8
STEMPEL
100
AcDbLine
 10
674.3808560778287
 20
312.1606327388108
 30
0.0
 11
674.3808560778287
 21
358.1606327388103
 31
0.0
  0
DIMENSION
  5
4337
330
1E
100
AcDbEntity
  8
BEM
100
AcDbDimension
  2
*D16
 10
543.996209619835
 20
308.1606327388111
 30
0.0
 11
537.4962096198348
 21
333.1606327388108
 31
0.0
 70
    32
 71
     5
 42
49.99999999999914
  3
Standard
100
AcDbAlignedDimension
 13
561.3808560778283
 23
358.1606327388103
 33
0.0
 14
678.3808560778287
 24
308.1606327388111
 34
0.0
 50
90.0
100
AcDbRotatedDimension
1001
ACAD
1000
DSTYLE
1002
{
1070
    40
1040
2.0
1070
    41
1040
3.5
1070
    42
1040
1.0
1070
    43
1040
7.0
1070
    44
1040
1.0
1070
    73
1070
     0
1070
    74
1070
     0
1070
    77
1070
     1
1070
    78
1070
     8
1070
    79
1070
     2
1070
   140
1040
3.5
1070
   141
1040
1.5
1070
   146
1040
0.5142857142857144
1070
   147
1040
1.5
1070
   172
1070
     1
1070
   178
1070
     1
1070
   179
1070
     2
1070
   271
1070
     2
1070
   272
1070
     2
1070
   284
1070
     8
1070
   285
1070
     8
1070
   286
1070
     8
1002
}
  0
LINE
  5
4338
330
1E
100
AcDbEntity
  8
STEMPEL
100
AcDbLine
 10
561.3808560778283
 20
360.1606327388103
 30
0.0
 11
801.3808560778286
 21
360.1606327388103
 31
0.0
  0
LINE
  5
4339
330
1E
100
AcDbEntity
  8
STEMPEL
100
AcDbLine
 10
561.3808560778283
 20
358.1606327388103
 30
0.0
 11
801.3808560778286
 21
358.1606327388103
 31
0.0
  0
ARC
  5
433A
330
1E
100
AcDbEntity
  8
STEMPEL
100
AcDbCircle
 10
386.3042689796253
 20
460.9890598635566
 30
0.0
 40
2.0
100
AcDbArc
 50
315.0
 51
0.0
  0
ARC
  5
433B
330
1E
100
AcDbEntity
  8
STEMPEL
100
AcDbCircle
 10
386.3042689796253
 20
460.9890598635566
 30
0.0
 40
4.0
100
AcDbArc
 50
348.0471441092907
 51
0.0
  0
LINE
  5
433C
330
1E
100
AcDbEntity
  8
STEMPEL
100
AcDbLine
 10
388.1246284218743
 20
460.16063273881
 30
0.0
 11
390.3042689796254
 21
460.16063273881
 31
0.0
  0
LINE
  5
433D
330
1E
100
AcDbEntity
  8
STEMPEL
100
AcDbLine
 10
279.3042689796242
 20
363.76063273881
 30
0.0
 11
267.3042689796242
 21
363.76063273881
 31
0.0
  0
LINE
  5
433E
330
1E
100
AcDbEntity
  8
STEMPEL
100
AcDbLine
 10
267.3042689796242
 20
362.1606327388101
 30
0.0
 11
267.3042689796242
 21
363.76063273881
 31
0.0
  0
LINE
  5
433F
330
1E
100
AcDbEntity
  8
STEMPEL
100
AcDbLine
 10
279.3042689796242
 20
362.1606327388101
 30
0.0
 11
279.3042689796242
 21
363.76063273881
 31
0.0
  0
LINE
  5
4340
330
1E
100
AcDbEntity
  8
STEMPEL
100
AcDbLine
 10
390.3042689796254
 20
408.2278776927084
 30
0.0
 11
388.3042689796253
 21
408.2278776927084
 31
0.0
  0
ARC
  5
4341
330
1E
100
AcDbEntity
  8
SCHRAFF
100
AcDbCircle
 10
390.3042689796254
 20
410.2306223847041
 30
0.0
 40
4.0
100
AcDbArc
 50
356.9999999999942
 51
90.0
  0
ARC
  5
4342
330
1E
100
AcDbEntity
  8
STEMPEL
100
AcDbCircle
 10
287.4758418548791
 20
362.1606327388101
 30
0.0
 40
4.0
100
AcDbArc
 50
270.0
 51
315.0
  0
ARC
  5
4343
330
1E
100
AcDbEntity
  8
STEMPEL
100
AcDbCircle
 10
287.4758418548791
 20
362.1606327388101
 30
0.0
 40
2.0
100
AcDbArc
 50
270.0
 51
315.0
  0
POINT
  5
4344
330
1E
100
AcDbEntity
  8
DEFPOINTS
  6
ByBlock
 62
     0
100
AcDbPoint
 10
388.3042689796253
 20
359.2654482973764
 30
0.0
  0
POINT
  5
4345
330
1E
100
AcDbEntity
  8
DEFPOINTS
  6
ByBlock
 62
     0
100
AcDbPoint
 10
388.3042689796253
 20
359.2654482973764
 30
0.0
  0
LINE
  5
4346
330
1E
100
AcDbEntity
  8
STEMPEL
100
AcDbLine
 10
73.30426897962536
 20
358.1606327388101
 30
0.0
 11
73.30426897962536
 21
360.1606327388101
 31
0.0
  0
LINE
  5
4347
330
1E
100
AcDbEntity
  8
STEMPEL
100
AcDbLine
 10
188.3042689796253
 20
358.1606327388101
 30
0.0
 11
193.3042689796235
 21
358.1606327388101
 31
0.0
  0
ARC
  5
4348
330
1E
100
AcDbEntity
  8
SCHRAFF
100
AcDbCircle
 10
186.3042689796253
 20
358.1606327388101
 30
0.0
 40
4.0
100
AcDbArc
 50
180.0
 51
270.0
  0
INSERT
  5
4349
330
1E
100
AcDbEntity
  8
SCHRAFF
  6
Continuous
100
AcDbBlockReference
  2
*X5
 10
-456.7395000318879
 20
-707.1959512588505
 30
0.0
1001
ACAD
1000
HATCH
1002
{
1070
    19
1000
_U
1040
0.2
1040
0.7853981633974483
1070
     0
1000
R14_HATCH_DATA
1000
1BFF
1011
-27.36023885032807
1021
-539.2201726022194
1031
0.0
1011
-28.36023885032807
1021
-538.2201726022194
1031
0.0
1011
-28.36023885032807
1021
-539.2201726022194
1031
1.0
1040
0.0
1010
0.0
1020
0.0
1030
1.0
1000
_U
1070
     0
1070
     0
1071
        1
1071
        7
1070
     1
1070
     1
1071
        3
1040
643.0437690115133
1040
1065.356583997661
1040
0.0
1040
639.0437690115133
1040
1065.356583997661
1040
0.4142135623730951
1040
643.0437690115133
1040
1061.356583997661
1040
0.0
1071
        0
1070
     0
1070
     0
1040
0.7853981633974483
1040
0.2
1070
     0
1070
     1
1040
0.7853981633974483
1040
0.0
1040
0.0
1040
-0.1414213562373095
1040
0.1414213562373095
1070
     0
1040
0.5811394727782519
1071
        1
1040
641.7004893300254
1040
1063.5438458803
1040
0.0
1002
}
  0
LINE
  5
434A
330
1E
100
AcDbEntity
  8
MITTEL
100
AcDbLine
 10
123.3042689796253
 20
353.1606327388101
 30
0.0
 11
123.3042689796253
 21
365.1606327388102
 31
0.0
  0
LINE
  5
434B
330
1E
100
AcDbEntity
  8
STEMPEL
100
AcDbLine
 10
73.30426897962536
 20
358.1606327388101
 30
0.0
 11
201.9394361354451
 21
358.1606327388101
 31
0.0
  0
LINE
  5
434C
330
1E
100
AcDbEntity
  8
STEMPEL
100
AcDbLine
 10
208.3042689796235
 20
358.1606327388101
 30
0.0
 11
221.9394361354456
 21
358.1606327388103
 31
0.0
  0
ARC
  5
434D
330
1E
100
AcDbEntity
  8
STEMPEL
100
AcDbCircle
 10
386.3042689796253
 20
312.1606327388105
 30
0.0
 40
2.0
100
AcDbArc
 50
270.0
 51
0.0
  0
ARC
  5
434E
330
1E
100
AcDbEntity
  8
STEMPEL
100
AcDbCircle
 10
386.3042689796253
 20
312.1606327388105
 30
0.0
 40
4.0
100
AcDbArc
 50
329.9999999999995
 51
0.0
  0
ARC
  5
434F
330
1E
100
AcDbEntity
  8
SCHRAFF
100
AcDbCircle
 10
390.3042689796254
 20
308.0906430929166
 30
0.0
 40
4.0
100
AcDbArc
 50
178.997421007566
 51
356.9999999999942
  0
ARC
  5
4350
330
1E
100
AcDbEntity
  8
STEMPEL
100
AcDbCircle
 10
190.3042689796253
 20
312.1606327388105
 30
0.0
 40
2.0
100
AcDbArc
 50
180.0
 51
270.0
  0
ARC
  5
4351
330
1E
100
AcDbEntity
  8
STEMPEL
100
AcDbCircle
 10
190.3042689796253
 20
312.1606327388105
 30
0.0
 40
4.0
100
AcDbArc
 50
180.0
 51
270.0
  0
LINE
  5
4352
330
1E
100
AcDbEntity
  8
STEMPEL
100
AcDbLine
 10
190.3042689796253
 20
310.1606327388105
 30
0.0
 11
390.3042689796254
 21
310.1606327388105
 31
0.0
  0
LINE
  5
4353
330
1E
100
AcDbEntity
  8
STEMPEL
100
AcDbLine
 10
190.3042689796253
 20
308.1606327388105
 30
0.0
 11
390.3042689796254
 21
308.1606327388105
 31
0.0
  0
LINE
  5
4354
330
1E
100
AcDbEntity
  8
STEMPEL
100
AcDbLine
 10
188.3042689796253
 20
312.1606327388105
 30
0.0
 11
188.3042689796253
 21
360.1606327388101
 31
0.0
  0
LINE
  5
4355
330
1E
100
AcDbEntity
  8
STEMPEL
100
AcDbLine
 10
186.3042689796253
 20
312.1606327388105
 30
0.0
 11
186.3042689796253
 21
358.1606327388101
 31
0.0
  0
LINE
  5
4356
330
1E
100
AcDbEntity
  8
STEMPEL
100
AcDbLine
 10
388.3042689796253
 20
312.1606327388105
 30
0.0
 11
388.3042689796253
 21
460.16063273881
 31
0.0
  0
LINE
  5
4357
330
1E
100
AcDbEntity
  8
STEMPEL
100
AcDbLine
 10
390.3042689796254
 20
308.090643092916
 30
0.0
 11
390.3042689796254
 21
460.16063273881
 31
0.0
  0
LINE
  5
4358
330
1E
100
AcDbEntity
  8
STEMPEL
100
AcDbLine
 10
288.890055417252
 20
360.7464191764373
 30
0.0
 11
387.7184825419978
 21
459.5748463011845
 31
0.0
  0
INSERT
  5
4359
330
1E
100
AcDbEntity
  8
SCHRAFF
100
AcDbBlockReference
  2
*X4
 10
-275.3677890851573
 20
-793.3710992961314
 30
0.0
1001
ACAD
1000
HATCH
1002
{
1070
    16
1000
_U,I
1040
0.1
1040
0.7853981633974483
1070
     0
1002
}
  0
LINE
  5
435A
330
1E
100
AcDbEntity
  8
STEMPEL
100
AcDbLine
 10
290.3042689796254
 20
359.3322056140639
 30
0.0
 11
388.3042689796253
 21
457.3322056140638
 31
0.0
  0
INSERT
  5
435B
330
1E
100
AcDbEntity
  8
SCHRAFF
100
AcDbBlockReference
  2
*X8
 10
-401.204721078227
 20
-707.1959512588505
 30
0.0
1001
ACAD
1000
HATCH
1002
{
1070
    16
1000
_U,I
1040
2.0
1040
0.7853981633974483
1070
     0
1002
}
  0
LINE
  5
435C
330
1E
100
AcDbEntity
  8
STEMPEL
100
AcDbLine
 10
379.3621602025813
 20
238.1490788104192
 30
0.0
 11
377.3621602025813
 21
238.1490788104191
 31
0.0
  0
LINE
  5
435D
330
1E
100
AcDbEntity
  8
STEMPEL
100
AcDbLine
 10
82.36216020258131
 20
258.1490788104191
 30
0.0
 11
62.36216020258132
 21
238.1490788104191
 31
0.0
  0
LINE
  5
435E
330
1E
100
AcDbEntity
  8
STEMPEL
100
AcDbLine
 10
379.3621602025813
 20
258.1490788104192
 30
0.0
 11
82.36216020258131
 21
258.1490788104191
 31
0.0
  0
LINE
  5
435F
330
1E
100
AcDbEntity
  8
MITTEL
100
AcDbLine
 10
372.3621602025813
 20
218.149078810419
 30
0.0
 11
384.3621602025813
 21
218.149078810419
 31
0.0
  0
LINE
  5
4360
330
1E
100
AcDbEntity
  8
MITTEL
100
AcDbLine
 10
100.8621602025813
 20
218.149078810419
 30
0.0
 11
123.8621602025813
 21
218.149078810419
 31
0.0
  0
CIRCLE
  5
4361
330
1E
100
AcDbEntity
  8
STEMPEL
100
AcDbCircle
 10
112.3621602025813
 20
218.149078810419
 30
0.0
 40
6.5
  0
CIRCLE
  5
4362
330
1E
100
AcDbEntity
  8
STEMPEL
100
AcDbCircle
 10
112.3621602025813
 20
218.149078810419
 30
0.0
 40
3.5
  0
LINE
  5
4363
330
1E
100
AcDbEntity
  8
MITTEL
100
AcDbLine
 10
215.799099942565
 20
218.1490788104189
 30
0.0
 11
238.799099942565
 21
218.1490788104189
 31
0.0
  0
CIRCLE
  5
4364
330
1E
100
AcDbEntity
  8
STEMPEL
100
AcDbCircle
 10
227.299099942565
 20
218.1490788104189
 30
0.0
 40
6.5
  0
CIRCLE
  5
4365
330
1E
100
AcDbEntity
  8
STEMPEL
100
AcDbCircle
 10
227.299099942565
 20
218.1490788104189
 30
0.0
 40
3.5
  0
LINE
  5
4366
330
1E
100
AcDbEntity
  8
MITTEL
100
AcDbLine
 10
112.3621602025813
 20
206.649078810419
 30
0.0
 11
112.3621602025813
 21
229.649078810419
 31
0.0
  0
LINE
  5
4367
330
1E
100
AcDbEntity
  8
MITTEL
100
AcDbLine
 10
227.299099942565
 20
206.6490788104189
 30
0.0
 11
227.299099942565
 21
229.6490788104189
 31
0.0
  0
DIMENSION
  5
4368
330
1E
100
AcDbEntity
  8
BEM
100
AcDbDimension
  2
*D17
 10
186.3042689796253
 20
291.2788428047976
 30
0.0
 11
288.3042689796253
 21
297.7788428047976
 31
0.0
 70
    32
 71
     5
 42
204.0
  3
Standard
100
AcDbAlignedDimension
 13
390.3042689796254
 23
308.0906430929166
 33
0.0
 14
186.3042689796253
 24
312.1606327388105
 34
0.0
100
AcDbRotatedDimension
1001
ACAD
1000
DSTYLE
1002
{
1070
    40
1040
2.0
1070
    41
1040
3.5
1070
    42
1040
1.0
1070
    43
1040
7.0
1070
    44
1040
1.0
1070
    73
1070
     0
1070
    74
1070
     0
1070
    77
1070
     1
1070
    78
1070
     8
1070
    79
1070
     2
1070
   140
1040
3.5
1070
   141
1040
1.5
1070
   146
1040
0.5142857142857144
1070
   147
1040
1.5
1070
   172
1070
     1
1070
   178
1070
     1
1070
   179
1070
     2
1070
   271
1070
     2
1070
   272
1070
     2
1070
   284
1070
     8
1070
   285
1070
     8
1070
   286
1070
     8
1002
}
  0
LINE
  5
4369
330
1E
100
AcDbEntity
  8
MITTEL
100
AcDbLine
 10
801.3808560778286
 20
280.4688377928906
 30
0.0
 11
801.3808560778286
 21
580.1606327388101
 31
0.0
  0
LINE
  5
436A
330
1E
100
AcDbEntity
  8
STEMPEL
100
AcDbLine
 10
561.3808560778283
 20
358.1606327388103
 30
0.0
 11
561.3808560778283
 21
555.1606327388101
 31
0.0
  0
LINE
  5
436B
330
1E
100
AcDbEntity
  8
STEMPEL
100
AcDbLine
 10
388.3042689796253
 20
460.9890598635566
 30
0.0
 11
388.3042689796253
 21
575.1606327388101
 31
0.0
  0
LINE
  5
436C
330
1E
100
AcDbEntity
  8
STEMPEL
100
AcDbLine
 10
390.3042689796254
 20
460.9890598635566
 30
0.0
 11
390.3042689796254
 21
575.1606327388101
 31
0.0
  0
INSERT
  5
436D
330
1E
100
AcDbEntity
  8
SCHRAFF
100
AcDbBlockReference
  2
*X6
 10
-401.204721078227
 20
-707.1959512588505
 30
0.0
1001
ACAD
1000
HATCH
1002
{
1070
    16
1000
_U,I
1040
2.0
1040
2.356194490192344
1070
     0
1002
}
  0
DIMENSION
  5
436E
330
1E
100
AcDbEntity
  8
BEM
100
AcDbDimension
  2
*D18
 10
543.996209619835
 20
358.1606327388103
 30
0.0
 11
537.4962096198348
 21
466.6606327388102
 31
0.0
 70
    32
 71
     5
 42
216.9999999999999
  3
Standard
100
AcDbAlignedDimension
 13
581.3808560778283
 23
575.1606327388101
 33
0.0
 14
561.3808560778283
 24
358.1606327388103
 34
0.0
 50
90.0
100
AcDbRotatedDimension
1001
ACAD
1000
DSTYLE
1002
{
1070
    40
1040
2.0
1070
    41
1040
3.5
1070
    42
1040
1.0
1070
    43
1040
7.0
1070
    44
1040
1.0
1070
    73
1070
     0
1070
    74
1070
     0
1070
    77
1070
     1
1070
    78
1070
     8
1070
    79
1070
     2
1070
   140
1040
3.5
1070
   141
1040
1.5
1070
   146
1040
0.5142857142857144
1070
   147
1040
1.5
1070
   172
1070
     1
1070
   178
1070
     1
1070
   179
1070
     2
1070
   271
1070
     2
1070
   272
1070
     2
1070
   284
1070
     8
1070
   285
1070
     8
1070
   286
1070
     8
1002
}
  0
LINE
  5
436F
330
1E
100
AcDbEntity
  8
STEMPEL
100
AcDbLine
 10
379.3621602025813
 20
258.1490788104192
 30
0.0
 11
379.3621602025816
 21
18.14907881041904
 31
0.0
  0
LINE
  5
4370
330
1E
100
AcDbEntity
  8
STEMPEL
100
AcDbLine
 10
377.3621602025813
 20
258.1490788104192
 30
0.0
 11
377.3621602025816
 21
18.14907881041904
 31
0.0
  0
LINE
  5
4371
330
1E
100
AcDbEntity
  8
STEMPEL
100
AcDbLine
 10
62.36216020258132
 20
238.1490788104191
 30
0.0
 11
62.36216020258132
 21
18.14907881041893
 31
0.0
  0
LINE
  5
4372
330
1E
100
AcDbEntity
  8
HILF
100
AcDbLine
 10
277.299099942565
 20
258.1490788104192
 30
0.0
 11
277.299099942565
 21
158.149078810419
 31
0.0
  0
LINE
  5
4373
330
1E
100
AcDbEntity
  8
STEMPEL
100
AcDbLine
 10
581.3808560778283
 20
575.1606327388101
 30
0.0
 11
801.3808560778286
 21
575.1606327388101
 31
0.0
  0
LINE
  5
4374
330
1E
100
AcDbEntity
  8
TEXT
 62
     2
100
AcDbLine
 10
262.3621602025802
 20
133.149078810419
 30
0.0
 11
413.6294059219715
 21
190.5680634274994
 31
0.0
  0
TEXT
  5
4375
330
1E
100
AcDbEntity
  8
TEXT
 62
     1
100
AcDbText
 10
414.5260346410867
 20
180.9659272886682
 30
0.0
 40
7.0
  1
Scheibe DIN 125-A6,4-1.4301
 41
0.8
  7
GREEKS
100
AcDbText
  0
TEXT
  5
4376
330
1E
100
AcDbEntity
  8
TEXT
 62
     1
100
AcDbText
 10
414.5260346410867
 20
193.648095880247
 30
0.0
 40
7.0
  1
Blechschraube DIN 7981-St5.5x13-C-H-1.4301 
 41
0.8
  7
GREEKS
100
AcDbText
  0
LINE
  5
4377
330
1E
100
AcDbEntity
  8
TEXT
 62
     2
100
AcDbLine
 10
619.7882014133445
 20
190.5680634274994
 30
0.0
 11
413.6294059219715
 21
190.5680634274994
 31
0.0
  0
DIMENSION
  5
4378
330
1E
100
AcDbEntity
  8
BEM
100
AcDbDimension
  2
*D19
 10
379.3621602025818
 20
194.1697231535064
 30
0.0
 11
172.0468109781086
 21
194.1697231535064
 31
0.0
 70
   160
 71
     5
 42
317.0000000000005
  3
Standard
100
AcDbAlignedDimension
 13
62.36216020258132
 23
156.439007675562
 33
0.0
 14
379.3621602025818
 24
176.4390076755618
 34
0.0
 50
180.0
100
AcDbRotatedDimension
1001
ACAD
1000
DSTYLE
1002
{
1070
    40
1040
2.0
1070
    41
1040
3.5
1070
    42
1040
1.0
1070
    43
1040
7.0
1070
    44
1040
1.0
1070
    73
1070
     0
1070
    74
1070
     0
1070
    77
1070
     1
1070
    78
1070
     8
1070
    79
1070
     2
1070
   140
1040
3.5
1070
   141
1040
1.5
1070
   146
1040
0.5142857142857144
1070
   147
1040
1.5
1070
   172
1070
     1
1070
   178
1070
     1
1070
   179
1070
     2
1070
   271
1070
     2
1070
   272
1070
     2
1070
   284
1070
     8
1070
   285
1070
     8
1070
   286
1070
     8
1002
}
  0
LINE
  5
4379
330
1E
100
AcDbEntity
  8
STEMPEL
100
AcDbLine
 10
377.3621602025813
 20
143.1490788104187
 30
0.0
 11
367.9973273584011
 21
143.1490788104187
 31
0.0
  0
INSERT
  5
437D
330
1E
100
AcDbEntity
  8
SCHRAFF
100
AcDbBlockReference
  2
*X10
 10
-0.0000000000001137
 20
0.0
 30
0.0
1001
ACAD
1000
HATCH
1002
{
1070
    16
1000
_U,I
1040
0.1
1040
0.7853981633974483
1070
     0
1002
}
  0
LWPOLYLINE
  5
437E
330
1E
100
AcDbEntity
  8
HILF
100
AcDbPolyline
 90
       27
 70
     0
 43
0.0
 10
409.5438601514619
 20
69.14907881041893
 10
411.3246578153542
 20
65.43520404959474
 10
412.7880459432329
 20
62.06246771098324
 10
413.9719989829521
 20
59.00127357368649
 10
414.9144913823587
 20
56.22202541680792
 10
415.6534975893103
 20
53.69512701945097
 10
416.2269920516522
 20
51.39098216071909
 10
416.672949217242
 20
49.27999461971478
 10
417.0293435339265
 20
47.33256817554149
 10
417.32720621662
 20
45.52041109554614
 10
417.569795548485
 20
43.82044960005043
 10
417.7534265797461
 20
42.2109143976196
 10
417.8744143606257
 20
40.67003619681884
 10
417.9290739413448
 20
39.17604570621382
 10
417.9137203721315
 20
37.70717363436972
 10
417.8246687032063
 20
36.24165068985224
 10
417.658233984794
 20
34.75770758122564
 10
417.4118060453787
 20
33.23734277851384
 10
417.0870738264987
 20
31.67762579756721
 10
416.6868010479487
 20
30.07939391569391
 10
416.2137514295267
 20
28.44348441020258
 10
415.6706886910309
 20
26.77073455840139
 10
415.0603765522594
 20
25.06198163759894
 10
414.3855787330088
 20
23.31806292510294
 10
413.6490589530752
 20
21.53981569822201
 10
412.855730445652
 20
19.72989134414558
 10
412.1336944318287
 20
18.14907881041893
  0
LINE
  5
437F
330
1E
100
AcDbEntity
  8
MITTEL
100
AcDbLine
 10
262.3621602025802
 20
140.149078810419
 30
0.0
 11
262.3621602025802
 21
126.149078810419
 31
0.0
  0
LINE
  5
4380
330
1E
100
AcDbEntity
  8
MITTEL
100
AcDbLine
 10
269.3621602025802
 20
133.149078810419
 30
0.0
 11
255.3621602025802
 21
133.149078810419
 31
0.0
  0
CIRCLE
  5
4381
330
1E
100
AcDbEntity
  8
STEMPEL
100
AcDbCircle
 10
262.3621602025802
 20
133.149078810419
 30
0.0
 40
6.0
  0
LINE
  5
4382
330
1E
100
AcDbEntity
  8
STEMPEL
100
AcDbLine
 10
262.8621602025802
 20
132.649078810419
 30
0.0
 11
265.6121602025802
 21
132.649078810419
 31
0.0
  0
LINE
  5
4383
330
1E
100
AcDbEntity
  8
STEMPEL
100
AcDbLine
 10
262.8621602025802
 20
133.649078810419
 30
0.0
 11
262.8621602025803
 21
136.399078810419
 31
0.0
  0
LINE
  5
4384
330
1E
100
AcDbEntity
  8
STEMPEL
100
AcDbLine
 10
262.8621602025802
 20
133.649078810419
 30
0.0
 11
265.6121602025802
 21
133.649078810419
 31
0.0
  0
LINE
  5
4385
330
1E
100
AcDbEntity
  8
STEMPEL
100
AcDbLine
 10
261.8621602025802
 20
133.649078810419
 30
0.0
 11
261.8621602025802
 21
136.399078810419
 31
0.0
  0
LINE
  5
4386
330
1E
100
AcDbEntity
  8
STEMPEL
100
AcDbLine
 10
259.1121602025802
 20
132.649078810419
 30
0.0
 11
261.8621602025802
 21
132.649078810419
 31
0.0
  0
LINE
  5
4387
330
1E
100
AcDbEntity
  8
STEMPEL
100
AcDbLine
 10
259.1121602025802
 20
133.649078810419
 30
0.0
 11
261.8621602025802
 21
133.649078810419
 31
0.0
  0
LINE
  5
4388
330
1E
100
AcDbEntity
  8
STEMPEL
100
AcDbLine
 10
261.8621602025801
 20
129.899078810419
 30
0.0
 11
261.8621602025802
 21
132.649078810419
 31
0.0
  0
LINE
  5
4389
330
1E
100
AcDbEntity
  8
STEMPEL
100
AcDbLine
 10
262.8621602025802
 20
129.899078810419
 30
0.0
 11
262.8621602025802
 21
132.649078810419
 31
0.0
  0
LINE
  5
438A
330
1E
100
AcDbEntity
  8
STEMPEL
100
AcDbLine
 10
261.8621602025801
 20
129.899078810419
 30
0.0
 11
262.8621602025802
 21
129.8990788104191
 31
0.0
  0
LINE
  5
438B
330
1E
100
AcDbEntity
  8
STEMPEL
100
AcDbLine
 10
261.8621602025802
 20
136.399078810419
 30
0.0
 11
262.8621602025803
 21
136.399078810419
 31
0.0
  0
LINE
  5
438C
330
1E
100
AcDbEntity
  8
STEMPEL
100
AcDbLine
 10
259.1121602025803
 20
132.649078810419
 30
0.0
 11
259.1121602025803
 21
133.649078810419
 31
0.0
  0
LINE
  5
438D
330
1E
100
AcDbEntity
  8
STEMPEL
100
AcDbLine
 10
265.6121602025802
 20
132.649078810419
 30
0.0
 11
265.6121602025802
 21
133.649078810419
 31
0.0
  0
CIRCLE
  5
438E
330
1E
100
AcDbEntity
  8
STEMPEL
100
AcDbCircle
 10
262.3621602025802
 20
133.149078810419
 30
0.0
 40
5.399999999999863
  0
LINE
  5
438F
330
1E
100
AcDbEntity
  8
STEMPEL
100
AcDbLine
 10
409.5438601514619
 20
69.14907881041893
 30
0.0
 11
379.3621602025804
 21
69.14907881041893
 31
0.0
  0
LINE
  5
4390
330
1E
100
AcDbEntity
  8
STEMPEL
100
AcDbLine
 10
269.9973273584011
 20
158.149078810419
 30
0.0
 11
269.9973273584006
 21
18.14907881041893
 31
0.0
  0
LINE
  5
4391
330
1E
100
AcDbEntity
  8
STEMPEL
100
AcDbLine
 10
164.9973273584011
 20
158.149078810419
 30
0.0
 11
164.9973273584006
 21
18.14907881041893
 31
0.0
  0
LINE
  5
4392
330
1E
100
AcDbEntity
  8
STEMPEL
100
AcDbLine
 10
179.9973273584011
 20
58.14907881041904
 30
0.0
 11
179.9973273584011
 21
18.14907881041904
 31
0.0
  0
LINE
  5
4393
330
1E
100
AcDbEntity
  8
STEMPEL
100
AcDbLine
 10
230.9973273584006
 20
56.14907881041904
 30
0.0
 11
230.9973273584011
 21
18.14907881041904
 31
0.0
  0
LINE
  5
4394
330
1E
100
AcDbEntity
  8
STEMPEL
100
AcDbLine
 10
230.9973273584006
 20
56.14907881041904
 30
0.0
 11
230.9973273584011
 21
18.14907881041904
 31
0.0
  0
LINE
  5
4395
330
1E
100
AcDbEntity
  8
STEMPEL
100
AcDbLine
 10
230.9973273584006
 20
56.14907881041904
 30
0.0
 11
230.9973273584011
 21
18.14907881041904
 31
0.0
  0
LINE
  5
4396
330
1E
100
AcDbEntity
  8
STEMPEL
100
AcDbLine
 10
210.9973273584006
 20
56.14907881041904
 30
0.0
 11
210.9973273584011
 21
18.14907881041904
 31
0.0
  0
LINE
  5
4397
330
1E
100
AcDbEntity
  8
STEMPEL
100
AcDbLine
 10
210.9973273584006
 20
56.14907881041904
 30
0.0
 11
210.9973273584011
 21
18.14907881041904
 31
0.0
  0
LINE
  5
4398
330
1E
100
AcDbEntity
  8
STEMPEL
100
AcDbLine
 10
190.9973273584006
 20
56.14907881041904
 30
0.0
 11
190.9973273584011
 21
18.14907881041904
 31
0.0
  0
LINE
  5
4399
330
1E
100
AcDbEntity
  8
STEMPEL
100
AcDbLine
 10
219.9973273584011
 20
58.14907881041904
 30
0.0
 11
219.9973273584011
 21
18.14907881041904
 31
0.0
  0
LINE
  5
439A
330
1E
100
AcDbEntity
  8
STEMPEL
100
AcDbLine
 10
199.9973273584011
 20
58.14907881041904
 30
0.0
 11
199.9973273584011
 21
18.14907881041904
 31
0.0
  0
LINE
  5
439B
330
1E
100
AcDbEntity
  8
STEMPEL
100
AcDbLine
 10
250.9973273584007
 20
56.14907881041904
 30
0.0
 11
250.9973273584011
 21
18.14907881041904
 31
0.0
  0
LINE
  5
439C
330
1E
100
AcDbEntity
  8
STEMPEL
100
AcDbLine
 10
239.9973273584011
 20
58.14907881041904
 30
0.0
 11
239.9973273584011
 21
18.14907881041904
 31
0.0
  0
LINE
  5
439D
330
1E
100
AcDbEntity
  8
STEMPEL
100
AcDbLine
 10
367.9973273584011
 20
18.14907881041904
 30
0.0
 11
367.9973273584011
 21
158.149078810419
 31
0.0
  0
ARC
  5
439E
330
1E
100
AcDbEntity
  8
STEMPEL
100
AcDbCircle
 10
354.5669518821889
 20
114.8503777255157
 30
0.0
 40
4.0
100
AcDbArc
 50
340.3461759419467
 51
160.3461759419467
  0
ARC
  5
439F
330
1E
100
AcDbEntity
  8
STEMPEL
100
AcDbCircle
 10
354.5669518821889
 20
114.8503777255157
 30
0.0
 40
4.0
100
AcDbArc
 50
340.3461759419467
 51
160.3461759419467
  0
POINT
  5
43A0
330
1E
100
AcDbEntity
  8
STEMPEL
  6
ByBlock
 62
     0
100
AcDbPoint
 10
354.9853218372037
 20
118.9154633510668
 30
0.0
  0
POINT
  5
43A1
330
1E
100
AcDbEntity
  8
STEMPEL
  6
ByBlock
 62
     0
100
AcDbPoint
 10
354.9853218372037
 20
118.9154633510668
 30
0.0
  0
LINE
  5
43A2
330
1E
100
AcDbEntity
  8
STEMPEL
100
AcDbLine
 10
192.9973273584006
 20
143.1490788104188
 30
0.0
 11
179.9973273584011
 21
143.1490788104188
 31
0.0
  0
LINE
  5
43A3
330
1E
100
AcDbEntity
  8
STEMPEL
100
AcDbLine
 10
232.9973273584006
 20
143.1490788104188
 30
0.0
 11
219.9973273584011
 21
143.149078810419
 31
0.0
  0
LINE
  5
43A4
330
1E
100
AcDbEntity
  8
STEMPEL
100
AcDbLine
 10
212.9973273584006
 20
143.1490788104188
 30
0.0
 11
199.9973273584011
 21
143.1490788104188
 31
0.0
  0
LINE
  5
43A5
330
1E
100
AcDbEntity
  8
STEMPEL
100
AcDbLine
 10
212.9973273584006
 20
143.1490788104188
 30
0.0
 11
199.9973273584011
 21
143.149078810419
 31
0.0
  0
LINE
  5
43A6
330
1E
100
AcDbEntity
  8
STEMPEL
100
AcDbLine
 10
192.9973273584011
 20
141.1490788104188
 30
0.0
 11
190.9973273584011
 21
141.1490788104188
 31
0.0
  0
LINE
  5
43A7
330
1E
100
AcDbEntity
  8
STEMPEL
100
AcDbLine
 10
192.9973273584006
 20
143.1490788104188
 30
0.0
 11
192.9973273584006
 21
141.1490788104188
 31
0.0
  0
LINE
  5
43A8
330
1E
100
AcDbEntity
  8
STEMPEL
100
AcDbLine
 10
212.9973273584006
 20
143.1490788104188
 30
0.0
 11
212.9973273584006
 21
141.1490788104188
 31
0.0
  0
LINE
  5
43A9
330
1E
100
AcDbEntity
  8
STEMPEL
100
AcDbLine
 10
212.9973273584011
 20
141.1490788104188
 30
0.0
 11
210.9973273584011
 21
141.1490788104188
 31
0.0
  0
LINE
  5
43AA
330
1E
100
AcDbEntity
  8
STEMPEL
100
AcDbLine
 10
212.9973273584006
 20
143.1490788104188
 30
0.0
 11
212.9973273584006
 21
141.149078810419
 31
0.0
  0
LINE
  5
43AB
330
1E
100
AcDbEntity
  8
STEMPEL
100
AcDbLine
 10
212.9973273584011
 20
141.149078810419
 30
0.0
 11
210.9973273584011
 21
141.149078810419
 31
0.0
  0
LINE
  5
43AC
330
1E
100
AcDbEntity
  8
STEMPEL
100
AcDbLine
 10
232.9973273584011
 20
141.149078810419
 30
0.0
 11
230.9973273584011
 21
141.149078810419
 31
0.0
  0
LINE
  5
43AD
330
1E
100
AcDbEntity
  8
STEMPEL
100
AcDbLine
 10
232.9973273584006
 20
143.1490788104188
 30
0.0
 11
232.9973273584006
 21
141.149078810419
 31
0.0
  0
LINE
  5
43AE
330
1E
100
AcDbEntity
  8
STEMPEL
100
AcDbLine
 10
252.9973273584007
 20
143.1490788104188
 30
0.0
 11
239.9973273584011
 21
143.149078810419
 31
0.0
  0
LINE
  5
43AF
330
1E
100
AcDbEntity
  8
STEMPEL
100
AcDbLine
 10
252.9973273584011
 20
141.149078810419
 30
0.0
 11
250.9973273584011
 21
141.149078810419
 31
0.0
  0
LINE
  5
43B0
330
1E
100
AcDbEntity
  8
STEMPEL
100
AcDbLine
 10
252.9973273584007
 20
143.1490788104188
 30
0.0
 11
252.9973273584007
 21
141.149078810419
 31
0.0
  0
ARC
  5
43B1
330
1E
100
AcDbEntity
  8
STEMPEL
100
AcDbCircle
 10
283.4277028346134
 20
114.8503777255157
 30
0.0
 40
4.0
100
AcDbArc
 50
19.65382405805331
 51
199.6538240580533
  0
ARC
  5
43B2
330
1E
100
AcDbEntity
  8
STEMPEL
100
AcDbCircle
 10
283.4277028346134
 20
114.8503777255157
 30
0.0
 40
4.0
100
AcDbArc
 50
19.65382405805331
 51
199.6538240580533
  0
POINT
  5
43B3
330
1E
100
AcDbEntity
  8
STEMPEL
  6
ByBlock
 62
     0
100
AcDbPoint
 10
283.0093328795984
 20
118.9154633510668
 30
0.0
  0
LINE
  5
43B4
330
1E
100
AcDbEntity
  8
STEMPEL
100
AcDbLine
 10
192.9973273584011
 20
71.14907881041904
 30
0.0
 11
179.9973273584011
 21
71.14907881041904
 31
0.0
  0
LINE
  5
43B5
330
1E
100
AcDbEntity
  8
STEMPEL
100
AcDbLine
 10
232.9973273584011
 20
71.14907881041904
 30
0.0
 11
219.9973273584011
 21
71.14907881041904
 31
0.0
  0
LINE
  5
43B6
330
1E
100
AcDbEntity
  8
STEMPEL
100
AcDbLine
 10
212.9973273584011
 20
71.14907881041904
 30
0.0
 11
199.9973273584011
 21
71.14907881041904
 31
0.0
  0
LINE
  5
43B7
330
1E
100
AcDbEntity
  8
STEMPEL
100
AcDbLine
 10
212.9973273584011
 20
71.14907881041904
 30
0.0
 11
199.9973273584011
 21
71.14907881041904
 31
0.0
  0
LINE
  5
43B8
330
1E
100
AcDbEntity
  8
STEMPEL
100
AcDbLine
 10
192.9973273584006
 20
71.14907881041927
 30
0.0
 11
192.9973273584006
 21
73.14907881041927
 31
0.0
  0
LINE
  5
43B9
330
1E
100
AcDbEntity
  8
STEMPEL
100
AcDbLine
 10
192.9973273584011
 20
73.14907881041927
 30
0.0
 11
190.9973273584011
 21
73.14907881041927
 31
0.0
  0
LINE
  5
43BA
330
1E
100
AcDbEntity
  8
STEMPEL
100
AcDbLine
 10
212.9973273584006
 20
71.14907881041927
 30
0.0
 11
212.9973273584006
 21
73.14907881041927
 31
0.0
  0
LINE
  5
43BB
330
1E
100
AcDbEntity
  8
STEMPEL
100
AcDbLine
 10
212.9973273584011
 20
73.14907881041927
 30
0.0
 11
210.9973273584011
 21
73.14907881041927
 31
0.0
  0
LINE
  5
43BC
330
1E
100
AcDbEntity
  8
STEMPEL
100
AcDbLine
 10
212.9973273584006
 20
71.1490788104195
 30
0.0
 11
212.9973273584006
 21
73.14907881041927
 31
0.0
  0
LINE
  5
43BD
330
1E
100
AcDbEntity
  8
STEMPEL
100
AcDbLine
 10
212.9973273584011
 20
73.14907881041927
 30
0.0
 11
210.9973273584011
 21
73.14907881041927
 31
0.0
  0
LINE
  5
43BE
330
1E
100
AcDbEntity
  8
STEMPEL
100
AcDbLine
 10
232.9973273584011
 20
73.14907881041927
 30
0.0
 11
230.9973273584011
 21
73.14907881041927
 31
0.0
  0
LINE
  5
43BF
330
1E
100
AcDbEntity
  8
STEMPEL
100
AcDbLine
 10
232.9973273584006
 20
71.1490788104195
 30
0.0
 11
232.9973273584006
 21
73.14907881041927
 31
0.0
  0
LINE
  5
43C0
330
1E
100
AcDbEntity
  8
STEMPEL
100
AcDbLine
 10
252.9973273584011
 20
71.14907881041904
 30
0.0
 11
239.9973273584011
 21
71.14907881041904
 31
0.0
  0
LINE
  5
43C1
330
1E
100
AcDbEntity
  8
STEMPEL
100
AcDbLine
 10
252.9973273584011
 20
73.14907881041927
 30
0.0
 11
250.9973273584011
 21
73.14907881041927
 31
0.0
  0
LINE
  5
43C2
330
1E
100
AcDbEntity
  8
STEMPEL
100
AcDbLine
 10
252.9973273584007
 20
71.1490788104195
 30
0.0
 11
252.9973273584007
 21
73.14907881041927
 31
0.0
  0
LINE
  5
43C3
330
1E
100
AcDbEntity
  8
STEMPEL
100
AcDbLine
 10
192.9973273584006
 20
58.14907881041904
 30
0.0
 11
179.9973273584011
 21
58.14907881041904
 31
0.0
  0
LINE
  5
43C4
330
1E
100
AcDbEntity
  8
STEMPEL
100
AcDbLine
 10
232.9973273584006
 20
58.14907881041904
 30
0.0
 11
219.9973273584011
 21
58.14907881041904
 31
0.0
  0
LINE
  5
43C5
330
1E
100
AcDbEntity
  8
STEMPEL
100
AcDbLine
 10
232.9973273584006
 20
58.14907881041904
 30
0.0
 11
219.9973273584011
 21
58.14907881041904
 31
0.0
  0
LINE
  5
43C6
330
1E
100
AcDbEntity
  8
STEMPEL
100
AcDbLine
 10
232.9973273584006
 20
58.14907881041904
 30
0.0
 11
219.9973273584011
 21
58.14907881041904
 31
0.0
  0
LINE
  5
43C7
330
1E
100
AcDbEntity
  8
STEMPEL
100
AcDbLine
 10
212.9973273584006
 20
58.14907881041904
 30
0.0
 11
199.9973273584011
 21
58.14907881041904
 31
0.0
  0
LINE
  5
43C8
330
1E
100
AcDbEntity
  8
STEMPEL
100
AcDbLine
 10
212.9973273584006
 20
58.14907881041904
 30
0.0
 11
199.9973273584011
 21
58.14907881041904
 31
0.0
  0
LINE
  5
43C9
330
1E
100
AcDbEntity
  8
STEMPEL
100
AcDbLine
 10
192.9973273584006
 20
58.14907881041904
 30
0.0
 11
192.9973273584006
 21
56.14907881041904
 31
0.0
  0
LINE
  5
43CA
330
1E
100
AcDbEntity
  8
STEMPEL
100
AcDbLine
 10
192.9973273584011
 20
56.14907881041904
 30
0.0
 11
190.9973273584011
 21
56.14907881041904
 31
0.0
  0
LINE
  5
43CB
330
1E
100
AcDbEntity
  8
STEMPEL
100
AcDbLine
 10
212.9973273584006
 20
58.14907881041904
 30
0.0
 11
212.9973273584006
 21
56.14907881041904
 31
0.0
  0
LINE
  5
43CC
330
1E
100
AcDbEntity
  8
STEMPEL
100
AcDbLine
 10
212.9973273584006
 20
58.14907881041904
 30
0.0
 11
212.9973273584006
 21
56.14907881041904
 31
0.0
  0
LINE
  5
43CD
330
1E
100
AcDbEntity
  8
STEMPEL
100
AcDbLine
 10
212.9973273584011
 20
56.14907881041904
 30
0.0
 11
210.9973273584011
 21
56.14907881041904
 31
0.0
  0
LINE
  5
43CE
330
1E
100
AcDbEntity
  8
STEMPEL
100
AcDbLine
 10
212.9973273584011
 20
56.14907881041904
 30
0.0
 11
210.9973273584011
 21
56.14907881041904
 31
0.0
  0
LINE
  5
43CF
330
1E
100
AcDbEntity
  8
STEMPEL
100
AcDbLine
 10
232.9973273584006
 20
58.14907881041904
 30
0.0
 11
232.9973273584006
 21
56.14907881041904
 31
0.0
  0
LINE
  5
43D0
330
1E
100
AcDbEntity
  8
STEMPEL
100
AcDbLine
 10
232.9973273584006
 20
58.14907881041904
 30
0.0
 11
232.9973273584006
 21
56.14907881041904
 31
0.0
  0
LINE
  5
43D1
330
1E
100
AcDbEntity
  8
STEMPEL
100
AcDbLine
 10
232.9973273584006
 20
58.14907881041904
 30
0.0
 11
232.9973273584006
 21
56.14907881041904
 31
0.0
  0
LINE
  5
43D2
330
1E
100
AcDbEntity
  8
STEMPEL
100
AcDbLine
 10
232.9973273584011
 20
56.14907881041904
 30
0.0
 11
230.9973273584011
 21
56.14907881041904
 31
0.0
  0
LINE
  5
43D3
330
1E
100
AcDbEntity
  8
STEMPEL
100
AcDbLine
 10
232.9973273584011
 20
56.14907881041904
 30
0.0
 11
230.9973273584011
 21
56.14907881041904
 31
0.0
  0
LINE
  5
43D4
330
1E
100
AcDbEntity
  8
STEMPEL
100
AcDbLine
 10
232.9973273584011
 20
56.14907881041904
 30
0.0
 11
230.9973273584011
 21
56.14907881041904
 31
0.0
  0
LINE
  5
43D5
330
1E
100
AcDbEntity
  8
STEMPEL
100
AcDbLine
 10
252.9973273584007
 20
58.14907881041904
 30
0.0
 11
252.9973273584007
 21
56.14907881041904
 31
0.0
  0
LINE
  5
43D6
330
1E
100
AcDbEntity
  8
STEMPEL
100
AcDbLine
 10
252.9973273584011
 20
56.14907881041904
 30
0.0
 11
250.9973273584011
 21
56.14907881041904
 31
0.0
  0
LINE
  5
43D7
330
1E
100
AcDbEntity
  8
STEMPEL
100
AcDbLine
 10
252.9973273584007
 20
58.14907881041904
 30
0.0
 11
239.9973273584011
 21
58.14907881041904
 31
0.0
  0
LINE
  5
43D8
330
1E
100
AcDbEntity
  8
STEMPEL
100
AcDbLine
 10
210.9973273584006
 20
141.1490788104188
 30
0.0
 11
210.9973273584011
 21
73.14907881041927
 31
0.0
  0
LINE
  5
43D9
330
1E
100
AcDbEntity
  8
STEMPEL
100
AcDbLine
 10
210.9973273584006
 20
141.149078810419
 30
0.0
 11
210.9973273584011
 21
73.14907881041927
 31
0.0
  0
LINE
  5
43DA
330
1E
100
AcDbEntity
  8
STEMPEL
100
AcDbLine
 10
199.9973273584011
 20
143.149078810419
 30
0.0
 11
199.9973273584011
 21
71.14907881041904
 31
0.0
  0
LINE
  5
43DB
330
1E
100
AcDbEntity
  8
STEMPEL
100
AcDbLine
 10
219.9973273584011
 20
143.149078810419
 30
0.0
 11
219.9973273584011
 21
71.14907881041904
 31
0.0
  0
LINE
  5
43DC
330
1E
100
AcDbEntity
  8
STEMPEL
100
AcDbLine
 10
190.9973273584006
 20
141.1490788104188
 30
0.0
 11
190.9973273584011
 21
73.14907881041927
 31
0.0
  0
LINE
  5
43DD
330
1E
100
AcDbEntity
  8
STEMPEL
100
AcDbLine
 10
179.9973273584011
 20
143.149078810419
 30
0.0
 11
179.9973273584011
 21
71.14907881041904
 31
0.0
  0
LINE
  5
43DE
330
1E
100
AcDbEntity
  8
STEMPEL
100
AcDbLine
 10
250.9973273584007
 20
141.149078810419
 30
0.0
 11
250.9973273584011
 21
73.14907881041927
 31
0.0
  0
LINE
  5
43DF
330
1E
100
AcDbEntity
  8
STEMPEL
100
AcDbLine
 10
239.9973273584011
 20
143.149078810419
 30
0.0
 11
239.9973273584011
 21
71.14907881041904
 31
0.0
  0
LINE
  5
43E0
330
1E
100
AcDbEntity
  8
STEMPEL
100
AcDbLine
 10
230.9973273584006
 20
141.149078810419
 30
0.0
 11
230.9973273584011
 21
73.14907881041927
 31
0.0
  0
LINE
  5
43E1
330
1E
100
AcDbEntity
  8
MITTEL
100
AcDbLine
 10
281.5545465612978
 20
120.1692212191471
 30
0.0
 11
302.4196471942051
 21
63.31819432890234
 31
0.0
  0
LINE
  5
43E2
330
1E
100
AcDbEntity
  8
STEMPEL
100
AcDbLine
 10
367.9973273584011
 20
158.149078810419
 30
0.0
 11
164.9973273584011
 21
158.149078810419
 31
0.0
  0
LINE
  5
43E3
330
1E
100
AcDbEntity
  8
STEMPEL
100
AcDbLine
 10
365.9973273584011
 20
158.149078810419
 30
0.0
 11
266.4973273584011
 21
158.149078810419
 31
0.0
  0
LINE
  5
43E4
330
1E
100
AcDbEntity
  8
MITTEL
100
AcDbLine
 10
318.9973273584011
 20
18.14907881041904
 30
0.0
 11
318.9973273584011
 21
29.24081727926728
 31
0.0
  0
POINT
  5
43E5
330
1E
100
AcDbEntity
  8
STEMPEL
  6
ByBlock
 62
     0
100
AcDbPoint
 10
313.1401178708708
 20
34.10818583491096
 30
0.0
  0
POINT
  5
43E6
330
1E
100
AcDbEntity
  8
STEMPEL
  6
ByBlock
 62
     0
100
AcDbPoint
 10
324.854536845931
 20
34.10818583491096
 30
0.0
  0
ARC
  5
43E7
330
1E
100
AcDbEntity
  8
STEMPEL
100
AcDbCircle
 10
318.9973273584011
 20
18.14907881041904
 30
0.0
 40
7.0
100
AcDbArc
 50
0.0
 51
180.0
  0
LINE
  5
43E8
330
1E
100
AcDbEntity
  8
MITTEL
100
AcDbLine
 10
356.4401081555044
 20
120.1692212191471
 30
0.0
 11
318.9973273584011
 21
18.14907881041904
 31
0.0
  0
LINE
  5
43E9
330
1E
100
AcDbEntity
  8
MITTEL
100
AcDbLine
 10
356.4401081555044
 20
120.1692212191469
 30
0.0
 11
318.9973273584011
 21
18.14907881041904
 31
0.0
  0
LINE
  5
43EA
330
1E
100
AcDbEntity
  8
STEMPEL
100
AcDbLine
 10
315.5170349383912
 20
39.2414367789163
 30
0.0
 11
287.1946704809926
 21
116.1957233135083
 31
0.0
  0
LINE
  5
43EB
330
1E
100
AcDbEntity
  8
STEMPEL
100
AcDbLine
 10
308.0068669268659
 20
36.48510290243144
 30
0.0
 11
279.6845024694668
 21
113.4393894370234
 31
0.0
  0
LINE
  5
43EC
330
1E
100
AcDbEntity
  8
STEMPEL
100
AcDbLine
 10
315.5170349383912
 20
39.2414367789163
 30
0.0
 11
287.1946704809926
 21
116.1957233135083
 31
0.0
  0
LINE
  5
43ED
330
1E
100
AcDbEntity
  8
STEMPEL
100
AcDbLine
 10
308.0068669268659
 20
36.48510290243144
 30
0.0
 11
279.6845024694668
 21
113.4393894370234
 31
0.0
  0
LINE
  5
43EE
330
1E
100
AcDbEntity
  8
MITTEL
100
AcDbLine
 10
307.3558345885841
 20
49.86859122224268
 30
0.0
 11
318.9973273584011
 21
18.14907881041904
 31
0.0
  0
ARC
  5
43EF
330
1E
100
AcDbEntity
  8
STEMPEL
100
AcDbCircle
 10
311.7619509326283
 20
37.86326984067386
 30
0.0
 40
4.0
100
AcDbArc
 50
200.1538240580538
 51
20.15382405805377
  0
ARC
  5
43F0
330
1E
100
AcDbEntity
  8
STEMPEL
100
AcDbCircle
 10
311.7619509326283
 20
37.86326984067386
 30
0.0
 40
4.0
100
AcDbArc
 50
200.1538240580538
 51
20.15382405805377
  0
LINE
  5
43F1
330
1E
100
AcDbEntity
  8
STEMPEL
100
AcDbLine
 10
322.4776197784105
 20
39.2414367789163
 30
0.0
 11
350.7999842358096
 21
116.1957233135083
 31
0.0
  0
LINE
  5
43F2
330
1E
100
AcDbEntity
  8
STEMPEL
100
AcDbLine
 10
329.9877877899363
 20
36.48510290243144
 30
0.0
 11
358.310152247335
 21
113.4393894370234
 31
0.0
  0
LINE
  5
43F3
330
1E
100
AcDbEntity
  8
STEMPEL
100
AcDbLine
 10
329.9877877899363
 20
36.48510290243144
 30
0.0
 11
358.310152247335
 21
113.4393894370234
 31
0.0
  0
LINE
  5
43F4
330
1E
100
AcDbEntity
  8
STEMPEL
100
AcDbLine
 10
322.4776197784105
 20
39.24143677891607
 30
0.0
 11
350.7999842358096
 21
116.1957233135083
 31
0.0
  0
ARC
  5
43F5
330
1E
100
AcDbEntity
  8
STEMPEL
100
AcDbCircle
 10
326.2327037841734
 20
37.86326984067386
 30
0.0
 40
4.0
100
AcDbArc
 50
159.8461759419462
 51
339.8461759419462
  0
ARC
  5
43F6
330
1E
100
AcDbEntity
  8
STEMPEL
100
AcDbCircle
 10
326.2327037841734
 20
37.86326984067386
 30
0.0
 40
4.0
100
AcDbArc
 50
159.8461759419462
 51
339.8461759419462
  0
ARC
  5
43F7
330
1E
100
AcDbEntity
  8
SCHRAFF
100
AcDbCircle
 10
381.3621602025813
 20
67.46961943025815
 30
0.0
 40
2.612129785912539
100
AcDbArc
 50
220.0343679295611
 51
319.9656320704388
  0
ARC
  5
43F8
330
1E
100
AcDbEntity
  8
SCHRAFF
100
AcDbCircle
 10
381.3621602025813
 20
57.46961943025792
 30
0.0
 40
2.612129785912539
100
AcDbArc
 50
220.0343679295611
 51
319.9656320704388
  0
ARC
  5
43F9
330
1E
100
AcDbEntity
  8
SCHRAFF
100
AcDbCircle
 10
381.3621602025813
 20
52.46961943025792
 30
0.0
 40
2.612129785912539
100
AcDbArc
 50
220.0343679295611
 51
319.9656320704388
  0
ARC
  5
43FA
330
1E
100
AcDbEntity
  8
SCHRAFF
100
AcDbCircle
 10
381.3621602025813
 20
47.46961943025792
 30
0.0
 40
2.612129785912539
100
AcDbArc
 50
220.0343679295611
 51
319.9656320704388
  0
ARC
  5
43FB
330
1E
100
AcDbEntity
  8
SCHRAFF
100
AcDbCircle
 10
379.3621602025813
 20
69.14907881041916
 30
0.0
 40
4.0
100
AcDbArc
 50
0.0
 51
90.0
  0
ARC
  5
43FC
330
1E
100
AcDbEntity
  8
SCHRAFF
100
AcDbCircle
 10
381.3621602025813
 20
37.46961943025815
 30
0.0
 40
2.612129785912539
100
AcDbArc
 50
220.0343679295611
 51
319.9656320704388
  0
ARC
  5
43FD
330
1E
100
AcDbEntity
  8
SCHRAFF
100
AcDbCircle
 10
381.3621602025813
 20
32.46961943025815
 30
0.0
 40
2.612129785912539
100
AcDbArc
 50
220.0343679295611
 51
319.9656320704388
  0
ARC
  5
43FE
330
1E
100
AcDbEntity
  8
SCHRAFF
100
AcDbCircle
 10
381.3621602025813
 20
27.46961943025815
 30
0.0
 40
2.612129785912539
100
AcDbArc
 50
220.0343679295611
 51
319.9656320704388
  0
ARC
  5
43FF
330
1E
100
AcDbEntity
  8
SCHRAFF
100
AcDbCircle
 10
381.3621602025813
 20
22.46961943025815
 30
0.0
 40
2.612129785912539
100
AcDbArc
 50
220.0343679295611
 51
319.9656320704388
  0
ARC
  5
4400
330
1E
100
AcDbEntity
  8
SCHRAFF
100
AcDbCircle
 10
381.3621602025813
 20
62.46961943025815
 30
0.0
 40
2.612129785912539
100
AcDbArc
 50
220.0343679295611
 51
319.9656320704388
  0
ARC
  5
4401
330
1E
100
AcDbEntity
  8
SCHRAFF
100
AcDbCircle
 10
381.3621602025813
 20
42.46961943025792
 30
0.0
 40
2.612129785912539
100
AcDbArc
 50
220.0343679295611
 51
319.9656320704388
  0
LINE
  5
4402
330
1E
100
AcDbEntity
  8
MITTEL
100
AcDbLine
 10
422.33051909934
 20
18.14907881041893
 30
0.0
 11
57.36216020258132
 21
18.14907881041893
 31
0.0
  0
LINE
  5
4403
330
1E
100
AcDbEntity
  8
BEM
100
AcDbLine
 10
460.0
 20
0.0
 30
0.0
 11
460.0
 21
10.0
 31
0.0
  0
LINE
  5
4404
330
1E
100
AcDbEntity
  8
STEMPEL
100
AcDbLine
 10
39.99999999999989
 20
10.0
 30
0.0
 11
830.0
 21
10.0
 31
0.0
  0
DIMENSION
  5
456A
330
1E
100
AcDbEntity
  8
BEM
100
AcDbDimension
  2
*D20
 10
438.2532539884727
 20
359.1606327388102
 30
0.0
 11
423.2546302333564
 21
339.7267931764576
 31
0.0
 70
    34
 71
     5
 42
0.0523598775598364
  3
Standard
100
AcDb2LineAngularDimension
 13
390.3042689796254
 23
359.1606327388102
 33
0.0
 14
465.0563793600391
 24
355.2430406370514
 34
0.0
 15
390.3042689796254
 25
359.1606327388102
 35
0.0
 16
434.5461777102332
 26
358.3883873493689
 36
0.0
1001
ACAD
1000
DSTYLE
1002
{
1070
    40
1040
2.0
1070
    41
1040
3.5
1070
    42
1040
1.0
1070
    43
1040
7.0
1070
    44
1040
1.0
1070
    73
1070
     0
1070
    74
1070
     0
1070
    77
1070
     1
1070
    78
1070
     8
1070
    79
1070
     2
1070
   140
1040
3.5
1070
   141
1040
1.5
1070
   146
1040
0.5142857142857144
1070
   147
1040
1.5
1070
   172
1070
     1
1070
   178
1070
     1
1070
   179
1070
     2
1070
   271
1070
     2
1070
   272
1070
     2
1070
   284
1070
     8
1070
   285
1070
     8
1070
   286
1070
     8
1002
}
  0
ENDSEC
  0
SECTION
  2
OBJECTS
  0
DICTIONARY
  5
C
330
0
100
AcDbDictionary
281
     1
  3
ACAD_COLOR
350
11A
  3
ACAD_GROUP
350
D
  3
ACAD_LAYOUT
350
19
  3
ACAD_MATERIAL
350
119
  3
ACAD_MLINESTYLE
350
16
  3
ACAD_PLOTSETTINGS
350
18
  3
ACAD_PLOTSTYLENAME
350
E
  3
AcDbVariableDictionary
350
125
  0
DICTIONARY
  5
DB
330
1E
100
AcDbDictionary
280
     1
281
     1
  3
ACAD_LAYOUTSELFREF
360
10F
  0
DICTIONARY
  5
DD
330
1A
100
AcDbDictionary
280
     1
281
     1
  3
ACAD_LAYOUTSELFREF
360
10E
  0
DICTIONARY
  5
11A
102
{ACAD_REACTORS
330
C
102
}
330
C
100
AcDbDictionary
281
     1
  0
DICTIONARY
  5
D
102
{ACAD_REACTORS
330
C
102
}
330
C
100
AcDbDictionary
281
     1
  0
DICTIONARY
  5
19
102
{ACAD_REACTORS
330
C
102
}
330
C
100
AcDbDictionary
281
     1
  3
Layout1
350
1D
  3
Model
350
21
  0
DICTIONARY
  5
119
102
{ACAD_REACTORS
330
C
102
}
330
C
100
AcDbDictionary
281
     1
  0
DICTIONARY
  5
16
102
{ACAD_REACTORS
330
C
102
}
330
C
100
AcDbDictionary
281
     1
  3
Standard
350
17
  0
DICTIONARY
  5
18
102
{ACAD_REACTORS
330
C
102
}
330
C
100
AcDbDictionary
281
     1
  0
ACDBDICTIONARYWDFLT
  5
E
102
{ACAD_REACTORS
330
C
102
}
330
C
100
AcDbDictionary
281
     1
  3
Normal
350
F
100
AcDbDictionaryWithDefault
340
F
  0
DICTIONARY
  5
125
102
{ACAD_REACTORS
330
C
102
}
330
C
100
AcDbDictionary
281
     1
  3
DIMASSOC
350
126
  3
PROJECTNAME
350
127
  0
XRECORD
  5
10F
102
{ACAD_REACTORS
330
DB
102
}
330
DB
100
AcDbXrecord
280
     1
340
1E
  0
XRECORD
  5
10E
102
{ACAD_REACTORS
330
DD
102
}
330
DD
100
AcDbXrecord
280
     1
340
1A
  0
LAYOUT
  5
1D
102
{ACAD_REACTORS
330
19
102
}
330
19
100
AcDbPlotSettings
  1

  2
\\NT_WORK01\HP LaserJet 5000 PCL 6
  4

  6

 40
0.0
 41
0.0
 42
0.0
 43
0.0
 44
0.0
 45
0.0
 46
0.0
 47
0.0
 48
0.0
 49
0.0
140
0.0
141
0.0
142
1.0
143
1.0
 70
   688
 72
     0
 73
     0
 74
     5
  7

 75
    16
147
1.0
 76
     0
 77
     2
 78
   300
148
0.0
149
0.0
100
AcDbLayout
  1
Layout1
 70
     0
 71
     1
 10
0.0
 20
0.0
 11
12.0
 21
9.0
 12
0.0
 22
0.0
 32
0.0
 14
1.000000000000000E+20
 24
1.000000000000000E+20
 34
1.000000000000000E+20
 15
-1.000000000000000E+20
 25
-1.000000000000000E+20
 35
-1.000000000000000E+20
146
0.0
 13
0.0
 23
0.0
 33
0.0
 16
1.0
 26
0.0
 36
0.0
 17
0.0
 27
1.0
 37
0.0
 76
     0
330
1A
  0
LAYOUT
  5
21
102
{ACAD_REACTORS
330
19
102
}
330
19
100
AcDbPlotSettings
  1

  2
none_device
  4
Letter_(8.50_x_11.00_Inches)
  6

 40
6.349999904632568
 41
6.349999904632568
 42
6.350006103515625
 43
6.350006103515625
 44
215.8999938964844
 45
279.3999938964844
 46
0.0
 47
0.0
 48
0.0
 49
0.0
140
0.0
141
0.0
142
1.0
143
1.0
 70
 11952
 72
     0
 73
     1
 74
     0
  7

 75
     0
147
1.0
 76
     0
 77
     2
 78
   300
148
-2639.973496999152
149
483.7381263066343
100
AcDbLayout
  1
Model
 70
     1
 71
     0
 10
0.0
 20
0.0
 11
12.0
 21
9.0
 12
0.0
 22
0.0
 32
0.0
 14
0.0
 24
0.0
 34
0.0
 15
0.0
 25
0.0
 35
0.0
146
0.0
 13
0.0
 23
0.0
 33
0.0
 16
1.0
 26
0.0
 36
0.0
 17
0.0
 27
1.0
 37
0.0
 76
     0
330
1E
  0
MLINESTYLE
  5
17
102
{ACAD_REACTORS
330
16
102
}
330
16
100
AcDbMlineStyle
  2
STANDARD
 70
     0
  3

 62
   256
 51
90.0
 52
90.0
 71
     2
 49
0.5
 62
   256
  6
BYLAYER
 49
-0.5
 62
   256
  6
BYLAYER
  0
ACDBPLACEHOLDER
  5
F
102
{ACAD_REACTORS
330
E
102
}
330
E
  0
DICTIONARYVAR
  5
126
102
{ACAD_REACTORS
330
125
102
}
330
125
100
DictionaryVariables
280
     0
  1
1
  0
DICTIONARYVAR
  5
127
102
{ACAD_REACTORS
330
125
102
}
330
125
100
DictionaryVariables
280
     0
  1

  0
ENDSEC
  0
EOF
