  0
SECTION
  2
HEADER
  9
$ACADVER
  1
AC1018
  9
$ACADMAINTVER
 70
     2
  9
$DWGCODEPAGE
  3
ANSI_1252
  9
$INSBASE
 10
0.0
 20
0.0
 30
0.0
  9
$EXTMIN
 10
-0.0640839803227209
 20
-0.0906330578841335
 30
-0.0000000349181948
  9
$EXTMAX
 10
1050.064093759506
 20
1485.090646888447
 30
0.0000000814935746
  9
$LIMMIN
 10
0.0
 20
0.0
  9
$LIMMAX
 10
1050.0
 20
1485.0
  9
$ORTHOMODE
 70
     0
  9
$REGENMODE
 70
     1
  9
$FILLMODE
 70
     1
  9
$QTEXTMODE
 70
     0
  9
$MIRRTEXT
 70
     1
  9
$LTSCALE
 40
50.0
  9
$ATTMODE
 70
     1
  9
$TEXTSIZE
 40
3.5
  9
$TRACEWID
 40
0.5
  9
$TEXTSTYLE
  7
STANDARD
  9
$CLAYER
  8
SCHRAFF
  9
$CELTYPE
  6
ByLayer
  9
$CECOLOR
 62
   256
  9
$CELTSCALE
 40
1.0
  9
$DISPSILH
 70
     0
  9
$DIMSCALE
 40
5.0
  9
$DIMASZ
 40
3.5
  9
$DIMEXO
 40
1.0
  9
$DIMDLI
 40
7.0
  9
$DIMRND
 40
0.0
  9
$DIMDLE
 40
0.0
  9
$DIMEXE
 40
1.0
  9
$DIMTP
 40
10.0
  9
$DIMTM
 40
0.0
  9
$DIMTXT
 40
3.5
  9
$DIMCEN
 40
1.5
  9
$DIMTSZ
 40
0.0
  9
$DIMTOL
 70
     0
  9
$DIMLIM
 70
     0
  9
$DIMTIH
 70
     0
  9
$DIMTOH
 70
     0
  9
$DIMSE1
 70
     0
  9
$DIMSE2
 70
     0
  9
$DIMTAD
 70
     1
  9
$DIMZIN
 70
     8
  9
$DIMBLK
  1

  9
$DIMASO
 70
     1
  9
$DIMSHO
 70
     0
  9
$DIMPOST
  1

  9
$DIMAPOST
  1

  9
$DIMALT
 70
     0
  9
$DIMALTD
 70
     2
  9
$DIMALTF
 40
25.4
  9
$DIMLFAC
 40
1.0
  9
$DIMTOFL
 70
     1
  9
$DIMTVP
 40
0.0
  9
$DIMTIX
 70
     0
  9
$DIMSOXD
 70
     0
  9
$DIMSAH
 70
     0
  9
$DIMBLK1
  1

  9
$DIMBLK2
  1

  9
$DIMSTYLE
  2
Standard
  9
$DIMCLRD
 70
     0
  9
$DIMCLRE
 70
     0
  9
$DIMCLRT
 70
     1
  9
$DIMTFAC
 40
0.5
  9
$DIMGAP
 40
1.5
  9
$DIMJUST
 70
     0
  9
$DIMSD1
 70
     0
  9
$DIMSD2
 70
     0
  9
$DIMTOLJ
 70
     1
  9
$DIMTZIN
 70
     8
  9
$DIMALTZ
 70
     8
  9
$DIMALTTZ
 70
     8
  9
$DIMUPT
 70
     0
  9
$DIMDEC
 70
     2
  9
$DIMTDEC
 70
     2
  9
$DIMALTU
 70
     2
  9
$DIMALTTD
 70
     2
  9
$DIMTXSTY
  7
STANDARD
  9
$DIMAUNIT
 70
     0
  9
$DIMADEC
 70
     2
  9
$DIMALTRND
 40
0.0
  9
$DIMAZIN
 70
     2
  9
$DIMDSEP
 70
    46
  9
$DIMATFIT
 70
     3
  9
$DIMFRAC
 70
     0
  9
$DIMLDRBLK
  1

  9
$DIMLUNIT
 70
     2
  9
$DIMLWD
 70
    -2
  9
$DIMLWE
 70
    -2
  9
$DIMTMOVE
 70
     0
  9
$LUNITS
 70
     2
  9
$LUPREC
 70
     2
  9
$SKETCHINC
 40
1.0
  9
$FILLETRAD
 40
0.0
  9
$AUNITS
 70
     0
  9
$AUPREC
 70
     0
  9
$MENU
  1
ACAD
  9
$ELEVATION
 40
0.0
  9
$PELEVATION
 40
0.0
  9
$THICKNESS
 40
0.0
  9
$LIMCHECK
 70
     0
  9
$CHAMFERA
 40
0.0
  9
$CHAMFERB
 40
0.0
  9
$CHAMFERC
 40
0.0
  9
$CHAMFERD
 40
0.0
  9
$SKPOLY
 70
     0
  9
$TDCREATE
 40
2452227.404059838
  9
$TDUCREATE
 40
2452227.320726505
  9
$TDUPDATE
 40
2455453.414182894
  9
$TDUUPDATE
 40
2455453.330849560
  9
$TDINDWG
 40
0.0294563542
  9
$TDUSRTIMER
 40
0.0294563542
  9
$USRTIMER
 70
     1
  9
$ANGBASE
 50
0.0
  9
$ANGDIR
 70
     0
  9
$PDMODE
 70
     0
  9
$PDSIZE
 40
0.0
  9
$PLINEWID
 40
0.0
  9
$SPLFRAME
 70
     0
  9
$SPLINETYPE
 70
     6
  9
$SPLINESEGS
 70
     8
  9
$HANDSEED
  5
24C
  9
$SURFTAB1
 70
     6
  9
$SURFTAB2
 70
     6
  9
$SURFTYPE
 70
     6
  9
$SURFU
 70
     6
  9
$SURFV
 70
     6
  9
$UCSBASE
  2

  9
$UCSNAME
  2

  9
$UCSORG
 10
0.0
 20
0.0
 30
0.0
  9
$UCSXDIR
 10
1.0
 20
0.0
 30
0.0
  9
$UCSYDIR
 10
0.0
 20
1.0
 30
0.0
  9
$UCSORTHOREF
  2

  9
$UCSORTHOVIEW
 70
     0
  9
$UCSORGTOP
 10
0.0
 20
0.0
 30
0.0
  9
$UCSORGBOTTOM
 10
0.0
 20
0.0
 30
0.0
  9
$UCSORGLEFT
 10
0.0
 20
0.0
 30
0.0
  9
$UCSORGRIGHT
 10
0.0
 20
0.0
 30
0.0
  9
$UCSORGFRONT
 10
0.0
 20
0.0
 30
0.0
  9
$UCSORGBACK
 10
0.0
 20
0.0
 30
0.0
  9
$PUCSBASE
  2

  9
$PUCSNAME
  2

  9
$PUCSORG
 10
0.0
 20
0.0
 30
0.0
  9
$PUCSXDIR
 10
1.0
 20
0.0
 30
0.0
  9
$PUCSYDIR
 10
0.0
 20
1.0
 30
0.0
  9
$PUCSORTHOREF
  2

  9
$PUCSORTHOVIEW
 70
     0
  9
$PUCSORGTOP
 10
0.0
 20
0.0
 30
0.0
  9
$PUCSORGBOTTOM
 10
0.0
 20
0.0
 30
0.0
  9
$PUCSORGLEFT
 10
0.0
 20
0.0
 30
0.0
  9
$PUCSORGRIGHT
 10
0.0
 20
0.0
 30
0.0
  9
$PUCSORGFRONT
 10
0.0
 20
0.0
 30
0.0
  9
$PUCSORGBACK
 10
0.0
 20
0.0
 30
0.0
  9
$USERI1
 70
     0
  9
$USERI2
 70
     0
  9
$USERI3
 70
     0
  9
$USERI4
 70
     0
  9
$USERI5
 70
     0
  9
$USERR1
 40
0.0
  9
$USERR2
 40
0.0
  9
$USERR3
 40
0.0
  9
$USERR4
 40
0.0
  9
$USERR5
 40
0.0
  9
$WORLDVIEW
 70
     1
  9
$SHADEDGE
 70
     3
  9
$SHADEDIF
 70
    70
  9
$TILEMODE
 70
     1
  9
$MAXACTVP
 70
    16
  9
$PINSBASE
 10
505.9584234694711
 20
50.00000000000001
 30
184.9756737725959
  9
$PLIMCHECK
 70
     0
  9
$PEXTMIN
 10
1.000000000000000E+20
 20
1.000000000000000E+20
 30
1.000000000000000E+20
  9
$PEXTMAX
 10
-1.000000000000000E+20
 20
-1.000000000000000E+20
 30
-1.000000000000000E+20
  9
$PLIMMIN
 10
0.0
 20
0.0
  9
$PLIMMAX
 10
12.0
 20
9.0
  9
$UNITMODE
 70
     0
  9
$VISRETAIN
 70
     0
  9
$PLINEGEN
 70
     0
  9
$PSLTSCALE
 70
     0
  9
$TREEDEPTH
 70
  3020
  9
$CMLSTYLE
  2
Standard
  9
$CMLJUST
 70
     0
  9
$CMLSCALE
 40
1.0
  9
$PROXYGRAPHICS
 70
     1
  9
$MEASUREMENT
 70
     0
  9
$CELWEIGHT
370
    -1
  9
$ENDCAPS
280
     0
  9
$JOINSTYLE
280
     0
  9
$LWDISPLAY
290
     0
  9
$INSUNITS
 70
     0
  9
$HYPERLINKBASE
  1

  9
$STYLESHEET
  1
monochrome 1.ctb
  9
$XEDIT
290
     1
  9
$CEPSNTYPE
380
     0
  9
$PSTYLEMODE
290
     1
  9
$FINGERPRINTGUID
  2
{AB739FA8-832C-42A9-B065-58428F919353}
  9
$VERSIONGUID
  2
{E0187669-9F55-4482-BEDB-A71C6B57E891}
  9
$EXTNAMES
290
     1
  9
$PSVPSCALE
 40
0.0
  9
$OLESTARTUP
290
     0
  9
$SORTENTS
280
   127
  9
$INDEXCTL
280
     0
  9
$HIDETEXT
280
     1
  9
$XCLIPFRAME
290
     0
  9
$HALOGAP
280
     0
  9
$OBSCOLOR
 70
   257
  9
$OBSLTYPE
280
     0
  9
$INTERSECTIONDISPLAY
280
     0
  9
$INTERSECTIONCOLOR
 70
   257
  9
$DIMASSOC
280
     2
  9
$PROJECTNAME
  1

  0
ENDSEC
  0
SECTION
  2
CLASSES
  0
CLASS
  1
ACDBDICTIONARYWDFLT
  2
AcDbDictionaryWithDefault
  3
ObjectDBX Classes
 90
        0
 91
        1
280
     0
281
     0
  0
CLASS
  1
DICTIONARYVAR
  2
AcDbDictionaryVar
  3
ObjectDBX Classes
 90
        0
 91
        3
280
     0
281
     0
  0
ENDSEC
  0
SECTION
  2
TABLES
  0
TABLE
  2
VPORT
  5
8
330
0
100
AcDbSymbolTable
 70
     2
  0
VPORT
  5
24B
330
8
100
AcDbSymbolTableRecord
100
AcDbViewportTableRecord
  2
*Active
 70
     0
 10
0.0
 20
0.0
 11
1.0
 21
1.0
 12
525.0000048895919
 22
742.5000069152814
 13
0.0
 23
0.0
 14
1.0
 24
1.0
 15
10.0
 25
10.0
 16
0.0
 26
0.0
 36
1.0
 17
0.0
 27
0.0
 37
0.0
 40
1497.174668478872
 41
1.336927223719676
 42
50.0
 43
0.0
 44
0.0
 50
0.0
 51
0.0
 71
     0
 72
  1500
 73
     1
 74
     0
 75
     0
 76
     0
 77
     0
 78
     0
281
     0
 65
     1
110
0.0
120
0.0
130
0.0
111
1.0
121
0.0
131
0.0
112
0.0
122
1.0
132
0.0
 79
     0
146
0.0
  0
ENDTAB
  0
TABLE
  2
LTYPE
  5
5
330
0
100
AcDbSymbolTable
 70
     2
  0
LTYPE
  5
13
330
5
100
AcDbSymbolTableRecord
100
AcDbLinetypeTableRecord
  2
ByBlock
 70
     0
  3

 72
    65
 73
     0
 40
0.0
  0
LTYPE
  5
14
330
5
100
AcDbSymbolTableRecord
100
AcDbLinetypeTableRecord
  2
ByLayer
 70
     0
  3

 72
    65
 73
     0
 40
0.0
  0
LTYPE
  5
15
330
5
100
AcDbSymbolTableRecord
100
AcDbLinetypeTableRecord
  2
Continuous
 70
     0
  3
Solid line
 72
    65
 73
     0
 40
0.0
  0
LTYPE
  5
2B
330
5
100
AcDbSymbolTableRecord
100
AcDbLinetypeTableRecord
  2
STRICHPUNKT
 70
     0
  3
__ . __ . __ . __ . __ . __ . __ . __ . __ . __
 72
    65
 73
     4
 40
1.0
 49
0.5
 74
     0
 49
-0.25
 74
     0
 49
0.0
 74
     0
 49
-0.25
 74
     0
  0
ENDTAB
  0
TABLE
  2
LAYER
  5
2
330
0
100
AcDbSymbolTable
 70
     9
  0
LAYER
  5
10
330
2
100
AcDbSymbolTableRecord
100
AcDbLayerTableRecord
  2
0
 70
     0
 62
     7
  6
Continuous
370
    -3
390
F
  0
LAYER
  5
2E
330
2
100
AcDbSymbolTableRecord
100
AcDbLayerTableRecord
  2
VOLL
 70
     0
 62
     1
  6
Continuous
370
    -3
390
F
  0
LAYER
  5
2F
330
2
100
AcDbSymbolTableRecord
100
AcDbLayerTableRecord
  2
HILF
 70
     0
 62
     2
  6
Continuous
370
    -3
390
F
  0
LAYER
  5
30
330
2
100
AcDbSymbolTableRecord
100
AcDbLayerTableRecord
  2
MITTEL
 70
     0
 62
     2
  6
STRICHPUNKT
370
    -3
390
F
  0
LAYER
  5
31
330
2
100
AcDbSymbolTableRecord
100
AcDbLayerTableRecord
  2
BEM
 70
     0
 62
     7
  6
Continuous
370
    -3
390
F
  0
LAYER
  5
32
330
2
100
AcDbSymbolTableRecord
100
AcDbLayerTableRecord
  2
STEMPEL
 70
     0
 62
     3
  6
Continuous
370
    -3
390
F
  0
LAYER
  5
33
330
2
100
AcDbSymbolTableRecord
100
AcDbLayerTableRecord
  2
TEXT
 70
     0
 62
     7
  6
Continuous
370
    -3
390
F
  0
LAYER
  5
34
330
2
100
AcDbSymbolTableRecord
100
AcDbLayerTableRecord
  2
DEFPOINTS
 70
     0
 62
     7
  6
Continuous
290
     0
370
    -3
390
F
  0
LAYER
  5
35
330
2
100
AcDbSymbolTableRecord
100
AcDbLayerTableRecord
  2
SCHRAFF
 70
     0
 62
     7
  6
Continuous
370
    -3
390
F
  0
ENDTAB
  0
TABLE
  2
STYLE
  5
3
330
0
100
AcDbSymbolTable
 70
     2
  0
STYLE
  5
11
330
3
100
AcDbSymbolTableRecord
100
AcDbTextStyleTableRecord
  2
STANDARD
 70
     0
 40
0.0
 41
0.8
 50
0.0
 71
     0
 42
3.5
  3
simplex.shx
  4

  0
STYLE
  5
2A
330
3
100
AcDbSymbolTableRecord
100
AcDbTextStyleTableRecord
  2
GREEKS
 70
     0
 40
0.0
 41
0.8
 50
0.0
 71
     0
 42
2.5
  3
SIMPLEX.shx
  4

  0
ENDTAB
  0
TABLE
  2
VIEW
  5
6
330
0
100
AcDbSymbolTable
 70
     0
  0
ENDTAB
  0
TABLE
  2
UCS
  5
7
330
0
100
AcDbSymbolTable
 70
     0
  0
ENDTAB
  0
TABLE
  2
APPID
  5
9
330
0
100
AcDbSymbolTable
 70
     1
  0
APPID
  5
12
330
9
100
AcDbSymbolTableRecord
100
AcDbRegAppTableRecord
  2
ACAD
 70
     0
  0
ENDTAB
  0
TABLE
  2
DIMSTYLE
  5
A
330
0
100
AcDbSymbolTable
 70
     1
100
AcDbDimStyleTable
 71
     1
340
1AF
  0
DIMSTYLE
105
1AF
102
{ACAD_REACTORS
330
10B
330
FF
330
142
102
}
330
A
100
AcDbSymbolTableRecord
100
AcDbDimStyleTableRecord
  2
Standard
 70
     0
340
11
  0
ENDTAB
  0
TABLE
  2
BLOCK_RECORD
  5
1
330
0
100
AcDbSymbolTable
 70
     6
  0
BLOCK_RECORD
  5
20
330
1
100
AcDbSymbolTableRecord
100
AcDbBlockTableRecord
  2
*Model_Space
340
23
  0
BLOCK_RECORD
  5
1C
330
1
100
AcDbSymbolTableRecord
100
AcDbBlockTableRecord
  2
*Paper_Space
340
1F
  0
BLOCK_RECORD
  5
24
330
1
100
AcDbSymbolTableRecord
100
AcDbBlockTableRecord
  2
LOGO
340
0
102
{BLKREFS
331
127
102
}
  0
BLOCK_RECORD
  5
25
330
1
100
AcDbSymbolTableRecord
100
AcDbBlockTableRecord
  2
INDEX
340
0
102
{BLKREFS
331
19F
102
}
  0
BLOCK_RECORD
  5
26
330
1
100
AcDbSymbolTableRecord
100
AcDbBlockTableRecord
  2
*X2
340
0
102
{BLKREFS
331
10C
102
}
  0
BLOCK_RECORD
  5
1B1
330
1
100
AcDbSymbolTableRecord
100
AcDbBlockTableRecord
  2
*D3
340
0
  0
BLOCK_RECORD
  5
1D0
330
1
100
AcDbSymbolTableRecord
100
AcDbBlockTableRecord
  2
*D4
340
0
  0
BLOCK_RECORD
  5
1DE
330
1
100
AcDbSymbolTableRecord
100
AcDbBlockTableRecord
  2
*D5
340
0
  0
ENDTAB
  0
ENDSEC
  0
SECTION
  2
BLOCKS
  0
BLOCK
  5
39
330
20
100
AcDbEntity
  8
0
100
AcDbBlockBegin
  2
*Model_Space
 70
     0
 10
0.0
 20
0.0
 30
0.0
  3
*Model_Space
  1

  0
ENDBLK
  5
3A
330
20
100
AcDbEntity
  8
0
100
AcDbBlockEnd
  0
BLOCK
  5
37
330
1C
100
AcDbEntity
 67
     1
  8
0
100
AcDbBlockBegin
  2
*Paper_Space
 70
     0
 10
0.0
 20
0.0
 30
0.0
  3
*Paper_Space
  1

  0
ENDBLK
  5
38
330
1C
100
AcDbEntity
 67
     1
  8
0
100
AcDbBlockEnd
  0
BLOCK
  5
3B
330
24
100
AcDbEntity
  8
0
100
AcDbBlockBegin
  2
LOGO
 70
     0
 10
0.0
 20
0.0
 30
0.0
  3
LOGO
  1

  0
ARC
  5
3C
330
24
100
AcDbEntity
  8
0
100
AcDbCircle
 10
11.59973089678112
 20
-9.271599258481501
 30
0.0
 40
4.5
100
AcDbArc
 50
270.0
 51
231.0575587310159
  0
LINE
  5
3D
330
24
100
AcDbEntity
  8
0
100
AcDbLine
 10
3.599730896781125
 20
-4.771599258481529
 30
0.0
 11
3.599730896781153
 21
-11.77159925848133
 31
0.0
  0
LINE
  5
3E
330
24
100
AcDbEntity
  8
0
100
AcDbLine
 10
2.599730896781125
 20
-4.771599258481529
 30
0.0
 11
2.599730896781153
 21
-11.77159925848133
 31
0.0
  0
CIRCLE
  5
3F
330
24
100
AcDbEntity
  8
0
100
AcDbCircle
 10
11.59973089678112
 20
-9.271599258481501
 30
0.0
 40
3.5
  0
ARC
  5
40
330
24
100
AcDbEntity
  8
0
100
AcDbCircle
 10
31.59973089678115
 20
-9.271599258481472
 30
0.0
 40
4.5
100
AcDbArc
 50
270.0
 51
231.0575587310182
  0
LINE
  5
41
330
24
100
AcDbEntity
  8
0
100
AcDbLine
 10
17.59973089678112
 20
-4.771599258481472
 30
0.0
 11
17.59973089678115
 21
-13.77159925848147
 31
0.0
  0
ARC
  5
42
330
24
100
AcDbEntity
  8
0
100
AcDbCircle
 10
22.59973089678116
 20
-7.271599258481472
 30
0.0
 40
2.5
100
AcDbArc
 50
293.1161887722295
 51
90.0
  0
CIRCLE
  5
43
330
24
100
AcDbEntity
  8
0
100
AcDbCircle
 10
31.59973089678115
 20
-9.271599258481472
 30
0.0
 40
3.5
  0
ARC
  5
44
330
24
100
AcDbEntity
  8
0
100
AcDbCircle
 10
4.599730896781153
 20
-11.77159925848133
 30
0.0
 40
1.0
100
AcDbArc
 50
180.0
 51
270.0
  0
ARC
  5
45
330
24
100
AcDbEntity
  8
0
100
AcDbCircle
 10
4.599730896781153
 20
-11.77159925848133
 30
0.0
 40
2.0
100
AcDbArc
 50
179.9999999999992
 51
270.0
  0
LINE
  5
46
330
24
100
AcDbEntity
  8
0
100
AcDbLine
 10
11.59973089678115
 20
-13.77159925848144
 30
0.0
 11
4.599730896781153
 21
-13.77159925848147
 31
0.0
  0
LINE
  5
47
330
24
100
AcDbEntity
  8
0
100
AcDbLine
 10
8.771303772034769
 20
-12.77159925848136
 30
0.0
 11
4.599730896781153
 21
-12.77159925848133
 31
0.0
  0
LINE
  5
48
330
24
100
AcDbEntity
  8
0
100
AcDbLine
 10
31.59973089678115
 20
-13.77159925848147
 30
0.0
 11
23.6715276665056
 21
-13.77159925848144
 31
0.0
  0
LINE
  5
49
330
24
100
AcDbEntity
  8
0
100
AcDbLine
 10
23.56565672307022
 20
-9.51278021337896
 30
0.0
 11
24.4388546544846
 21
-12.77159925848144
 31
0.0
  0
LINE
  5
4A
330
24
100
AcDbEntity
  8
0
100
AcDbLine
 10
22.59973089678116
 20
-9.771599258481472
 30
0.0
 11
18.59973089678112
 21
-9.771599258481472
 31
0.0
  0
LINE
  5
4B
330
24
100
AcDbEntity
  8
0
100
AcDbLine
 10
18.59973089678115
 20
-13.77159925848144
 30
0.0
 11
17.59973089678115
 21
-13.77159925848144
 31
0.0
  0
LINE
  5
4C
330
24
100
AcDbEntity
  8
0
100
AcDbLine
 10
18.59973089678115
 20
-9.771599258481472
 30
0.0
 11
18.59973089678115
 21
-13.77159925848144
 31
0.0
  0
LINE
  5
4D
330
24
100
AcDbEntity
  8
0
100
AcDbLine
 10
22.59973089678116
 20
-9.771599258481472
 30
0.0
 11
23.67152766650562
 21
-13.77159925848147
 31
0.0
  0
ARC
  5
4E
330
24
100
AcDbEntity
  8
0
100
AcDbCircle
 10
22.59973089678116
 20
-7.271599258481472
 30
0.0
 40
2.5
100
AcDbArc
 50
270.0
 51
270.0000000000007
  0
LINE
  5
4F
330
24
100
AcDbEntity
  8
0
100
AcDbLine
 10
28.77130377203494
 20
-12.77159925848147
 30
0.0
 11
24.43885465448463
 21
-12.77159925848144
 31
0.0
  0
LINE
  5
50
330
24
100
AcDbEntity
  8
0
100
AcDbLine
 10
3.599730896781125
 20
-4.771599258481472
 30
0.0
 11
2.599730896781125
 21
-4.771599258481472
 31
0.0
  0
LINE
  5
51
330
24
100
AcDbEntity
  8
0
100
AcDbLine
 10
22.59973089678116
 20
-8.771599258481472
 30
0.0
 11
18.59973089678115
 21
-8.771599258481472
 31
0.0
  0
LINE
  5
52
330
24
100
AcDbEntity
  8
0
100
AcDbLine
 10
22.59973089678116
 20
-5.771599258481472
 30
0.0
 11
18.59973089678115
 21
-5.771599258481472
 31
0.0
  0
LINE
  5
53
330
24
100
AcDbEntity
  8
0
100
AcDbLine
 10
22.59973089678116
 20
-4.771599258481472
 30
0.0
 11
17.59973089678115
 21
-4.771599258481472
 31
0.0
  0
LINE
  5
54
330
24
100
AcDbEntity
  8
0
100
AcDbLine
 10
18.59973089678115
 20
-5.771599258481472
 30
0.0
 11
18.59973089678115
 21
-8.771599258481472
 31
0.0
  0
ARC
  5
55
330
24
100
AcDbEntity
  8
0
100
AcDbCircle
 10
22.59973089678116
 20
-7.271599258481472
 30
0.0
 40
1.5
100
AcDbArc
 50
270.0
 51
90.0
  0
ENDBLK
  5
56
330
24
100
AcDbEntity
  8
0
100
AcDbBlockEnd
  0
BLOCK
  5
57
330
25
100
AcDbEntity
  8
0
100
AcDbBlockBegin
  2
INDEX
 70
     0
 10
0.0
 20
0.0
 30
0.0
  3
INDEX
  1

  0
TEXT
  5
58
330
25
100
AcDbEntity
  8
BEM
100
AcDbText
 10
-1.709422928128134
 20
6.074024076691515
 30
0.0
 40
2.0
  1
Diese Zeichnung ist urheberrechtlich geschtzt und bleibt unser Eigentum. Sie darf weder ganz noch teilweise vervielfltigt und nicht an Dritte weitergegeben werden.
 50
90.0
 41
0.8
  7
GREEKS
100
AcDbText
  0
ENDBLK
  5
5A
330
25
100
AcDbEntity
  8
0
100
AcDbBlockEnd
  0
BLOCK
  5
5B
330
26
100
AcDbEntity
  8
0
100
AcDbBlockBegin
  2
*X2
 70
     1
 10
0.0
 20
0.0
 30
0.0
  3
*X2
  1

  0
LINE
  5
5C
330
26
100
AcDbEntity
  8
0
 62
     0
100
AcDbLine
 10
755.8454377204663
 20
982.1196077001614
 30
0.0
 11
759.845437720466
 21
986.1196077001613
 31
0.0
  0
LINE
  5
5D
330
26
100
AcDbEntity
  8
0
 62
     0
100
AcDbLine
 10
755.8454377204663
 20
989.1906755120269
 30
0.0
 11
759.845437720466
 21
993.1906755120268
 31
0.0
  0
LINE
  5
5E
330
26
100
AcDbEntity
  8
0
 62
     0
100
AcDbLine
 10
755.8454377204663
 20
996.2617433238925
 30
0.0
 11
759.845437720466
 21
1000.261743323892
 31
0.0
  0
LINE
  5
5F
330
26
100
AcDbEntity
  8
0
 62
     0
100
AcDbLine
 10
755.8454377204663
 20
1003.332811135758
 30
0.0
 11
759.845437720466
 21
1007.332811135758
 31
0.0
  0
LINE
  5
60
330
26
100
AcDbEntity
  8
0
 62
     0
100
AcDbLine
 10
755.8454377204663
 20
1010.403878947623
 30
0.0
 11
759.845437720466
 21
1014.403878947623
 31
0.0
  0
LINE
  5
61
330
26
100
AcDbEntity
  8
0
 62
     0
100
AcDbLine
 10
755.8454377204663
 20
1017.474946759489
 30
0.0
 11
759.845437720466
 21
1021.474946759489
 31
0.0
  0
LINE
  5
62
330
26
100
AcDbEntity
  8
0
 62
     0
100
AcDbLine
 10
755.8454377204663
 20
1024.546014571354
 30
0.0
 11
759.845437720466
 21
1028.546014571354
 31
0.0
  0
LINE
  5
63
330
26
100
AcDbEntity
  8
0
 62
     0
100
AcDbLine
 10
755.8454377204663
 20
1031.61708238322
 30
0.0
 11
759.8454377204661
 21
1035.61708238322
 31
0.0
  0
LINE
  5
64
330
26
100
AcDbEntity
  8
0
 62
     0
100
AcDbLine
 10
755.8454377204663
 20
1038.688150195085
 30
0.0
 11
759.8454377204661
 21
1042.688150195085
 31
0.0
  0
LINE
  5
65
330
26
100
AcDbEntity
  8
0
 62
     0
100
AcDbLine
 10
755.8454377204663
 20
1045.759218006951
 30
0.0
 11
759.8454377204661
 21
1049.75921800695
 31
0.0
  0
LINE
  5
66
330
26
100
AcDbEntity
  8
0
 62
     0
100
AcDbLine
 10
755.8454377204663
 20
1052.830285818816
 30
0.0
 11
759.8454377204661
 21
1056.830285818816
 31
0.0
  0
LINE
  5
67
330
26
100
AcDbEntity
  8
0
 62
     0
100
AcDbLine
 10
755.8454377204663
 20
1059.901353630682
 30
0.0
 11
759.8454377204661
 21
1063.901353630681
 31
0.0
  0
LINE
  5
68
330
26
100
AcDbEntity
  8
0
 62
     0
100
AcDbLine
 10
755.8454377204663
 20
1066.972421442547
 30
0.0
 11
759.8454377204661
 21
1070.972421442547
 31
0.0
  0
LINE
  5
69
330
26
100
AcDbEntity
  8
0
 62
     0
100
AcDbLine
 10
755.8454377204663
 20
1074.043489254412
 30
0.0
 11
759.8454377204661
 21
1078.043489254412
 31
0.0
  0
LINE
  5
6A
330
26
100
AcDbEntity
  8
0
 62
     0
100
AcDbLine
 10
755.8454377204663
 20
1081.114557066278
 30
0.0
 11
759.8454377204661
 21
1085.114557066278
 31
0.0
  0
LINE
  5
6B
330
26
100
AcDbEntity
  8
0
 62
     0
100
AcDbLine
 10
755.8454377204663
 20
1088.185624878144
 30
0.0
 11
759.8454377204661
 21
1092.185624878143
 31
0.0
  0
LINE
  5
6C
330
26
100
AcDbEntity
  8
0
 62
     0
100
AcDbLine
 10
755.8454377204663
 20
1095.256692690009
 30
0.0
 11
759.8454377204661
 21
1099.256692690009
 31
0.0
  0
LINE
  5
6D
330
26
100
AcDbEntity
  8
0
 62
     0
100
AcDbLine
 10
755.8454377204663
 20
1102.327760501874
 30
0.0
 11
759.8454377204661
 21
1106.327760501874
 31
0.0
  0
LINE
  5
6E
330
26
100
AcDbEntity
  8
0
 62
     0
100
AcDbLine
 10
755.8454377204663
 20
1109.39882831374
 30
0.0
 11
759.8454377204661
 21
1113.39882831374
 31
0.0
  0
LINE
  5
6F
330
26
100
AcDbEntity
  8
0
 62
     0
100
AcDbLine
 10
755.8454377204663
 20
1116.469896125605
 30
0.0
 11
759.8454377204661
 21
1120.469896125605
 31
0.0
  0
LINE
  5
70
330
26
100
AcDbEntity
  8
0
 62
     0
100
AcDbLine
 10
755.8454377204663
 20
1123.540963937471
 30
0.0
 11
759.8454377204661
 21
1127.540963937471
 31
0.0
  0
LINE
  5
71
330
26
100
AcDbEntity
  8
0
 62
     0
100
AcDbLine
 10
755.8454377204663
 20
1130.612031749336
 30
0.0
 11
759.8454377204661
 21
1134.612031749336
 31
0.0
  0
LINE
  5
72
330
26
100
AcDbEntity
  8
0
 62
     0
100
AcDbLine
 10
755.8454377204663
 20
1137.683099561202
 30
0.0
 11
759.8454377204661
 21
1141.683099561201
 31
0.0
  0
LINE
  5
73
330
26
100
AcDbEntity
  8
0
 62
     0
100
AcDbLine
 10
755.8454377204663
 20
1144.754167373067
 30
0.0
 11
759.8454377204661
 21
1148.754167373067
 31
0.0
  0
LINE
  5
74
330
26
100
AcDbEntity
  8
0
 62
     0
100
AcDbLine
 10
755.8454377204663
 20
1151.825235184933
 30
0.0
 11
759.8454377204661
 21
1155.825235184932
 31
0.0
  0
LINE
  5
75
330
26
100
AcDbEntity
  8
0
 62
     0
100
AcDbLine
 10
755.8454377204663
 20
1158.896302996798
 30
0.0
 11
759.8454377204661
 21
1162.896302996798
 31
0.0
  0
LINE
  5
76
330
26
100
AcDbEntity
  8
0
 62
     0
100
AcDbLine
 10
755.8454377204663
 20
1165.967370808664
 30
0.0
 11
759.8454377204661
 21
1169.967370808663
 31
0.0
  0
LINE
  5
77
330
26
100
AcDbEntity
  8
0
 62
     0
100
AcDbLine
 10
755.8454377204663
 20
1173.038438620529
 30
0.0
 11
759.8454377204661
 21
1177.038438620529
 31
0.0
  0
LINE
  5
78
330
26
100
AcDbEntity
  8
0
 62
     0
100
AcDbLine
 10
755.8454377204663
 20
1180.109506432394
 30
0.0
 11
759.8454377204661
 21
1184.109506432394
 31
0.0
  0
LINE
  5
79
330
26
100
AcDbEntity
  8
0
 62
     0
100
AcDbLine
 10
755.8454377204663
 20
1187.18057424426
 30
0.0
 11
759.8454377204661
 21
1191.18057424426
 31
0.0
  0
LINE
  5
7A
330
26
100
AcDbEntity
  8
0
 62
     0
100
AcDbLine
 10
755.8454377204663
 20
1194.251642056125
 30
0.0
 11
759.8454377204661
 21
1198.251642056125
 31
0.0
  0
LINE
  5
7B
330
26
100
AcDbEntity
  8
0
 62
     0
100
AcDbLine
 10
755.8454377204663
 20
1201.322709867991
 30
0.0
 11
759.8454377204661
 21
1205.322709867991
 31
0.0
  0
LINE
  5
7C
330
26
100
AcDbEntity
  8
0
 62
     0
100
AcDbLine
 10
755.8454377204663
 20
1208.393777679856
 30
0.0
 11
759.8454377204661
 21
1212.393777679857
 31
0.0
  0
LINE
  5
7D
330
26
100
AcDbEntity
  8
0
 62
     0
100
AcDbLine
 10
755.8454377204663
 20
1215.464845491722
 30
0.0
 11
759.8454377204661
 21
1219.464845491722
 31
0.0
  0
LINE
  5
7E
330
26
100
AcDbEntity
  8
0
 62
     0
100
AcDbLine
 10
755.8454377204663
 20
1222.535913303588
 30
0.0
 11
759.8454377204661
 21
1226.535913303587
 31
0.0
  0
LINE
  5
7F
330
26
100
AcDbEntity
  8
0
 62
     0
100
AcDbLine
 10
755.8454377204663
 20
1229.606981115453
 30
0.0
 11
759.8454377204661
 21
1233.606981115453
 31
0.0
  0
LINE
  5
80
330
26
100
AcDbEntity
  8
0
 62
     0
100
AcDbLine
 10
755.8454377204663
 20
1236.678048927318
 30
0.0
 11
759.8454377204661
 21
1240.678048927318
 31
0.0
  0
LINE
  5
81
330
26
100
AcDbEntity
  8
0
 62
     0
100
AcDbLine
 10
755.8454377204663
 20
1243.749116739184
 30
0.0
 11
759.8454377204661
 21
1247.749116739184
 31
0.0
  0
LINE
  5
82
330
26
100
AcDbEntity
  8
0
 62
     0
100
AcDbLine
 10
755.8454377204663
 20
1250.82018455105
 30
0.0
 11
759.8454377204661
 21
1254.820184551049
 31
0.0
  0
LINE
  5
83
330
26
100
AcDbEntity
  8
0
 62
     0
100
AcDbLine
 10
755.8454377204663
 20
1257.891252362915
 30
0.0
 11
759.8454377204663
 21
1261.891252362915
 31
0.0
  0
LINE
  5
84
330
26
100
AcDbEntity
  8
0
 62
     0
100
AcDbLine
 10
755.8454377204663
 20
1264.96232017478
 30
0.0
 11
759.8454377204663
 21
1268.96232017478
 31
0.0
  0
LINE
  5
85
330
26
100
AcDbEntity
  8
0
 62
     0
100
AcDbLine
 10
755.8454377204663
 20
1272.033387986646
 30
0.0
 11
759.8454377204663
 21
1276.033387986646
 31
0.0
  0
LINE
  5
86
330
26
100
AcDbEntity
  8
0
 62
     0
100
AcDbLine
 10
755.8454377204663
 20
1279.104455798511
 30
0.0
 11
759.8454377204663
 21
1283.104455798511
 31
0.0
  0
LINE
  5
87
330
26
100
AcDbEntity
  8
0
 62
     0
100
AcDbLine
 10
755.8454377204663
 20
1286.175523610377
 30
0.0
 11
759.8454377204663
 21
1290.175523610377
 31
0.0
  0
LINE
  5
88
330
26
100
AcDbEntity
  8
0
 62
     0
100
AcDbLine
 10
755.8454377204663
 20
1293.246591422242
 30
0.0
 11
759.8454377204663
 21
1297.246591422242
 31
0.0
  0
LINE
  5
89
330
26
100
AcDbEntity
  8
0
 62
     0
100
AcDbLine
 10
755.8454377204663
 20
1300.317659234108
 30
0.0
 11
759.8454377204663
 21
1304.317659234108
 31
0.0
  0
LINE
  5
8A
330
26
100
AcDbEntity
  8
0
 62
     0
100
AcDbLine
 10
755.8454377204663
 20
1307.388727045973
 30
0.0
 11
759.8454377204663
 21
1311.388727045973
 31
0.0
  0
LINE
  5
8B
330
26
100
AcDbEntity
  8
0
 62
     0
100
AcDbLine
 10
755.8454377204663
 20
1314.459794857838
 30
0.0
 11
759.8454377204663
 21
1318.459794857839
 31
0.0
  0
LINE
  5
8C
330
26
100
AcDbEntity
  8
0
 62
     0
100
AcDbLine
 10
755.8454377204663
 20
1321.530862669704
 30
0.0
 11
759.8454377204663
 21
1325.530862669704
 31
0.0
  0
LINE
  5
8D
330
26
100
AcDbEntity
  8
0
 62
     0
100
AcDbLine
 10
755.8454377204663
 20
1328.60193048157
 30
0.0
 11
759.8454377204663
 21
1332.60193048157
 31
0.0
  0
LINE
  5
8E
330
26
100
AcDbEntity
  8
0
 62
     0
100
AcDbLine
 10
755.8454377204663
 20
1335.672998293435
 30
0.0
 11
759.8454377204663
 21
1339.672998293435
 31
0.0
  0
LINE
  5
8F
330
26
100
AcDbEntity
  8
0
 62
     0
100
AcDbLine
 10
755.8454377204663
 20
1342.7440661053
 30
0.0
 11
759.8454377204663
 21
1346.7440661053
 31
0.0
  0
LINE
  5
90
330
26
100
AcDbEntity
  8
0
 62
     0
100
AcDbLine
 10
755.8454377204663
 20
1349.815133917166
 30
0.0
 11
759.8454377204663
 21
1353.815133917166
 31
0.0
  0
LINE
  5
91
330
26
100
AcDbEntity
  8
0
 62
     0
100
AcDbLine
 10
755.8454377204663
 20
1356.886201729031
 30
0.0
 11
759.8454377204663
 21
1360.886201729031
 31
0.0
  0
LINE
  5
92
330
26
100
AcDbEntity
  8
0
 62
     0
100
AcDbLine
 10
755.8454377204663
 20
1363.957269540897
 30
0.0
 11
759.8454377204663
 21
1367.957269540897
 31
0.0
  0
LINE
  5
93
330
26
100
AcDbEntity
  8
0
 62
     0
100
AcDbLine
 10
755.8454377204663
 20
1371.028337352762
 30
0.0
 11
759.8454377204663
 21
1375.028337352763
 31
0.0
  0
LINE
  5
94
330
26
100
AcDbEntity
  8
0
 62
     0
100
AcDbLine
 10
755.8454377204663
 20
1378.099405164628
 30
0.0
 11
759.8454377204663
 21
1382.099405164628
 31
0.0
  0
LINE
  5
95
330
26
100
AcDbEntity
  8
0
 62
     0
100
AcDbLine
 10
755.8454377204663
 20
1385.170472976493
 30
0.0
 11
759.8454377204663
 21
1389.170472976493
 31
0.0
  0
LINE
  5
96
330
26
100
AcDbEntity
  8
0
 62
     0
100
AcDbLine
 10
755.8454377204663
 20
1392.241540788359
 30
0.0
 11
759.8454377204663
 21
1396.241540788359
 31
0.0
  0
LINE
  5
97
330
26
100
AcDbEntity
  8
0
 62
     0
100
AcDbLine
 10
755.8454377204663
 20
1399.312608600224
 30
0.0
 11
759.8454377204663
 21
1403.312608600224
 31
0.0
  0
LINE
  5
98
330
26
100
AcDbEntity
  8
0
 62
     0
100
AcDbLine
 10
755.8454377204663
 20
1406.38367641209
 30
0.0
 11
759.8454377204663
 21
1410.38367641209
 31
0.0
  0
LINE
  5
99
330
26
100
AcDbEntity
  8
0
 62
     0
100
AcDbLine
 10
755.8454377204663
 20
1413.454744223955
 30
0.0
 11
759.8454377204663
 21
1417.454744223955
 31
0.0
  0
LINE
  5
9A
330
26
100
AcDbEntity
  8
0
 62
     0
100
AcDbLine
 10
755.8454377204663
 20
1420.525812035821
 30
0.0
 11
759.8454377204663
 21
1424.525812035821
 31
0.0
  0
LINE
  5
9B
330
26
100
AcDbEntity
  8
0
 62
     0
100
AcDbLine
 10
755.8454377204663
 20
1427.596879847686
 30
0.0
 11
756.8932875758307
 21
1428.644729703051
 31
0.0
  0
LINE
  5
9C
330
26
100
AcDbEntity
  8
0
 62
     0
100
AcDbLine
 10
755.8454377204663
 20
967.9774720764305
 30
0.0
 11
759.4523579001235
 21
971.5843922560877
 31
0.0
  0
LINE
  5
9D
330
26
100
AcDbEntity
  8
0
 62
     0
100
AcDbLine
 10
755.8454377204663
 20
960.9064042645652
 30
0.0
 11
759.845437720466
 21
964.9064042645647
 31
0.0
  0
LINE
  5
9E
330
26
100
AcDbEntity
  8
0
 62
     0
100
AcDbLine
 10
755.8454377204663
 20
953.8353364526996
 30
0.0
 11
759.845437720466
 21
957.8353364526993
 31
0.0
  0
LINE
  5
9F
330
26
100
AcDbEntity
  8
0
 62
     0
100
AcDbLine
 10
755.8454377204663
 20
946.7642686408341
 30
0.0
 11
759.845437720466
 21
950.7642686408338
 31
0.0
  0
LINE
  5
A0
330
26
100
AcDbEntity
  8
0
 62
     0
100
AcDbLine
 10
755.8454377204663
 20
939.6932008289686
 30
0.0
 11
759.845437720466
 21
943.6932008289684
 31
0.0
  0
LINE
  5
A1
330
26
100
AcDbEntity
  8
0
 62
     0
100
AcDbLine
 10
755.8454377204663
 20
932.6221330171032
 30
0.0
 11
759.845437720466
 21
936.6221330171029
 31
0.0
  0
LINE
  5
A2
330
26
100
AcDbEntity
  8
0
 62
     0
100
AcDbLine
 10
755.8454377204663
 20
925.5510652052377
 30
0.0
 11
759.845437720466
 21
929.5510652052374
 31
0.0
  0
LINE
  5
A3
330
26
100
AcDbEntity
  8
0
 62
     0
100
AcDbLine
 10
755.8454377204663
 20
918.4799973933722
 30
0.0
 11
759.845437720466
 21
922.479997393372
 31
0.0
  0
LINE
  5
A4
330
26
100
AcDbEntity
  8
0
 62
     0
100
AcDbLine
 10
755.8454377204663
 20
911.4089295815068
 30
0.0
 11
759.845437720466
 21
915.4089295815065
 31
0.0
  0
LINE
  5
A5
330
26
100
AcDbEntity
  8
0
 62
     0
100
AcDbLine
 10
755.8454377204663
 20
904.3378617696413
 30
0.0
 11
759.845437720466
 21
908.3378617696409
 31
0.0
  0
LINE
  5
A6
330
26
100
AcDbEntity
  8
0
 62
     0
100
AcDbLine
 10
755.8454377204663
 20
897.2667939577759
 30
0.0
 11
759.845437720466
 21
901.2667939577756
 31
0.0
  0
LINE
  5
A7
330
26
100
AcDbEntity
  8
0
 62
     0
100
AcDbLine
 10
755.8454377204663
 20
890.1957261459104
 30
0.0
 11
759.845437720466
 21
894.19572614591
 31
0.0
  0
LINE
  5
A8
330
26
100
AcDbEntity
  8
0
 62
     0
100
AcDbLine
 10
755.8454377204663
 20
883.1246583340448
 30
0.0
 11
759.845437720466
 21
887.1246583340447
 31
0.0
  0
LINE
  5
A9
330
26
100
AcDbEntity
  8
0
 62
     0
100
AcDbLine
 10
755.8454377204663
 20
876.0535905221795
 30
0.0
 11
759.845437720466
 21
880.053590522179
 31
0.0
  0
LINE
  5
AA
330
26
100
AcDbEntity
  8
0
 62
     0
100
AcDbLine
 10
755.8454377204663
 20
868.9825227103138
 30
0.0
 11
759.845437720466
 21
872.9825227103136
 31
0.0
  0
LINE
  5
AB
330
26
100
AcDbEntity
  8
0
 62
     0
100
AcDbLine
 10
755.8454377204663
 20
861.9114548984484
 30
0.0
 11
759.845437720466
 21
865.9114548984481
 31
0.0
  0
LINE
  5
AC
330
26
100
AcDbEntity
  8
0
 62
     0
100
AcDbLine
 10
755.8454377204663
 20
854.8403870865829
 30
0.0
 11
759.845437720466
 21
858.8403870865827
 31
0.0
  0
LINE
  5
AD
330
26
100
AcDbEntity
  8
0
 62
     0
100
AcDbLine
 10
755.8454377204663
 20
847.7693192747175
 30
0.0
 11
759.845437720466
 21
851.7693192747172
 31
0.0
  0
LINE
  5
AE
330
26
100
AcDbEntity
  8
0
 62
     0
100
AcDbLine
 10
755.8454377204663
 20
840.698251462852
 30
0.0
 11
759.845437720466
 21
844.6982514628517
 31
0.0
  0
LINE
  5
AF
330
26
100
AcDbEntity
  8
0
 62
     0
100
AcDbLine
 10
755.8454377204663
 20
833.6271836509865
 30
0.0
 11
759.845437720466
 21
837.6271836509863
 31
0.0
  0
LINE
  5
B0
330
26
100
AcDbEntity
  8
0
 62
     0
100
AcDbLine
 10
755.8454377204663
 20
826.5561158391211
 30
0.0
 11
759.845437720466
 21
830.5561158391208
 31
0.0
  0
LINE
  5
B1
330
26
100
AcDbEntity
  8
0
 62
     0
100
AcDbLine
 10
755.8454377204663
 20
819.4850480272556
 30
0.0
 11
759.845437720466
 21
823.4850480272553
 31
0.0
  0
LINE
  5
B2
330
26
100
AcDbEntity
  8
0
 62
     0
100
AcDbLine
 10
755.8454377204663
 20
812.4139802153901
 30
0.0
 11
759.845437720466
 21
816.4139802153899
 31
0.0
  0
LINE
  5
B3
330
26
100
AcDbEntity
  8
0
 62
     0
100
AcDbLine
 10
755.8454377204663
 20
805.3429124035247
 30
0.0
 11
759.845437720466
 21
809.3429124035244
 31
0.0
  0
LINE
  5
B4
330
26
100
AcDbEntity
  8
0
 62
     0
100
AcDbLine
 10
755.8454377204663
 20
798.2718445916591
 30
0.0
 11
759.845437720466
 21
802.271844591659
 31
0.0
  0
LINE
  5
B5
330
26
100
AcDbEntity
  8
0
 62
     0
100
AcDbLine
 10
755.8454377204663
 20
791.2007767797937
 30
0.0
 11
759.845437720466
 21
795.2007767797935
 31
0.0
  0
LINE
  5
B6
330
26
100
AcDbEntity
  8
0
 62
     0
100
AcDbLine
 10
755.8454377204663
 20
784.1297089679281
 30
0.0
 11
759.845437720466
 21
788.1297089679279
 31
0.0
  0
LINE
  5
B7
330
26
100
AcDbEntity
  8
0
 62
     0
100
AcDbLine
 10
755.8454377204663
 20
777.0586411560628
 30
0.0
 11
759.845437720466
 21
781.0586411560625
 31
0.0
  0
LINE
  5
B8
330
26
100
AcDbEntity
  8
0
 62
     0
100
AcDbLine
 10
755.8454377204663
 20
769.9875733441972
 30
0.0
 11
759.8454377204661
 21
773.987573344197
 31
0.0
  0
LINE
  5
B9
330
26
100
AcDbEntity
  8
0
 62
     0
100
AcDbLine
 10
755.8454377204663
 20
762.9165055323318
 30
0.0
 11
759.8454377204661
 21
766.9165055323316
 31
0.0
  0
LINE
  5
BA
330
26
100
AcDbEntity
  8
0
 62
     0
100
AcDbLine
 10
755.8454377204663
 20
755.8454377204663
 30
0.0
 11
759.8454377204661
 21
759.8454377204661
 31
0.0
  0
LINE
  5
BB
330
26
100
AcDbEntity
  8
0
 62
     0
100
AcDbLine
 10
755.8454377204663
 20
748.7743699086008
 30
0.0
 11
759.8454377204661
 21
752.7743699086006
 31
0.0
  0
LINE
  5
BC
330
26
100
AcDbEntity
  8
0
 62
     0
100
AcDbLine
 10
755.8454377204663
 20
741.7033020967353
 30
0.0
 11
759.8454377204661
 21
745.7033020967352
 31
0.0
  0
LINE
  5
BD
330
26
100
AcDbEntity
  8
0
 62
     0
100
AcDbLine
 10
755.8454377204663
 20
734.6322342848699
 30
0.0
 11
759.8454377204661
 21
738.6322342848696
 31
0.0
  0
LINE
  5
BE
330
26
100
AcDbEntity
  8
0
 62
     0
100
AcDbLine
 10
755.8454377204663
 20
727.5611664730043
 30
0.0
 11
759.8454377204661
 21
731.5611664730043
 31
0.0
  0
LINE
  5
BF
330
26
100
AcDbEntity
  8
0
 62
     0
100
AcDbLine
 10
755.8454377204663
 20
720.490098661139
 30
0.0
 11
759.8454377204661
 21
724.4900986611387
 31
0.0
  0
LINE
  5
C0
330
26
100
AcDbEntity
  8
0
 62
     0
100
AcDbLine
 10
755.8454377204663
 20
713.4190308492734
 30
0.0
 11
759.8454377204661
 21
717.4190308492732
 31
0.0
  0
LINE
  5
C1
330
26
100
AcDbEntity
  8
0
 62
     0
100
AcDbLine
 10
755.8454377204663
 20
706.347963037408
 30
0.0
 11
759.8454377204661
 21
710.3479630374078
 31
0.0
  0
LINE
  5
C2
330
26
100
AcDbEntity
  8
0
 62
     0
100
AcDbLine
 10
755.8454377204663
 20
699.2768952255424
 30
0.0
 11
759.8454377204661
 21
703.2768952255423
 31
0.0
  0
LINE
  5
C3
330
26
100
AcDbEntity
  8
0
 62
     0
100
AcDbLine
 10
755.8454377204663
 20
692.205827413677
 30
0.0
 11
759.8454377204661
 21
696.2058274136768
 31
0.0
  0
LINE
  5
C4
330
26
100
AcDbEntity
  8
0
 62
     0
100
AcDbLine
 10
755.8454377204663
 20
685.1347596018115
 30
0.0
 11
759.8454377204661
 21
689.1347596018114
 31
0.0
  0
LINE
  5
C5
330
26
100
AcDbEntity
  8
0
 62
     0
100
AcDbLine
 10
755.8454377204663
 20
678.0636917899461
 30
0.0
 11
759.8454377204661
 21
682.0636917899459
 31
0.0
  0
LINE
  5
C6
330
26
100
AcDbEntity
  8
0
 62
     0
100
AcDbLine
 10
755.8454377204663
 20
670.9926239780806
 30
0.0
 11
759.8454377204661
 21
674.9926239780805
 31
0.0
  0
LINE
  5
C7
330
26
100
AcDbEntity
  8
0
 62
     0
100
AcDbLine
 10
755.8454377204663
 20
663.9215561662151
 30
0.0
 11
759.8454377204661
 21
667.921556166215
 31
0.0
  0
LINE
  5
C8
330
26
100
AcDbEntity
  8
0
 62
     0
100
AcDbLine
 10
755.8454377204663
 20
656.8504883543496
 30
0.0
 11
759.8454377204661
 21
660.8504883543495
 31
0.0
  0
LINE
  5
C9
330
26
100
AcDbEntity
  8
0
 62
     0
100
AcDbLine
 10
755.8454377204663
 20
649.7794205424842
 30
0.0
 11
759.8454377204661
 21
653.7794205424841
 31
0.0
  0
LINE
  5
CA
330
26
100
AcDbEntity
  8
0
 62
     0
100
AcDbLine
 10
755.8454377204663
 20
642.7083527306186
 30
0.0
 11
759.8454377204661
 21
646.7083527306185
 31
0.0
  0
LINE
  5
CB
330
26
100
AcDbEntity
  8
0
 62
     0
100
AcDbLine
 10
755.8454377204663
 20
635.6372849187533
 30
0.0
 11
759.8454377204661
 21
639.6372849187531
 31
0.0
  0
LINE
  5
CC
330
26
100
AcDbEntity
  8
0
 62
     0
100
AcDbLine
 10
755.8454377204663
 20
628.5662171068877
 30
0.0
 11
759.8454377204661
 21
632.5662171068876
 31
0.0
  0
LINE
  5
CD
330
26
100
AcDbEntity
  8
0
 62
     0
100
AcDbLine
 10
755.8454377204663
 20
621.4951492950222
 30
0.0
 11
759.8454377204661
 21
625.4951492950222
 31
0.0
  0
LINE
  5
CE
330
26
100
AcDbEntity
  8
0
 62
     0
100
AcDbLine
 10
755.8454377204663
 20
614.4240814831568
 30
0.0
 11
759.8454377204661
 21
618.4240814831566
 31
0.0
  0
LINE
  5
CF
330
26
100
AcDbEntity
  8
0
 62
     0
100
AcDbLine
 10
755.8454377204663
 20
607.3530136712913
 30
0.0
 11
759.8454377204661
 21
611.3530136712912
 31
0.0
  0
LINE
  5
D0
330
26
100
AcDbEntity
  8
0
 62
     0
100
AcDbLine
 10
755.8454377204663
 20
600.2819458594258
 30
0.0
 11
759.8454377204661
 21
604.2819458594257
 31
0.0
  0
LINE
  5
D1
330
26
100
AcDbEntity
  8
0
 62
     0
100
AcDbLine
 10
755.8454377204663
 20
593.2108780475604
 30
0.0
 11
759.8454377204661
 21
597.2108780475602
 31
0.0
  0
LINE
  5
D2
330
26
100
AcDbEntity
  8
0
 62
     0
100
AcDbLine
 10
755.8454377204663
 20
586.1398102356949
 30
0.0
 11
759.8454377204661
 21
590.1398102356948
 31
0.0
  0
LINE
  5
D3
330
26
100
AcDbEntity
  8
0
 62
     0
100
AcDbLine
 10
755.8454377204663
 20
579.0687424238294
 30
0.0
 11
759.8454377204661
 21
583.0687424238293
 31
0.0
  0
LINE
  5
D4
330
26
100
AcDbEntity
  8
0
 62
     0
100
AcDbLine
 10
755.8454377204663
 20
571.997674611964
 30
0.0
 11
759.8454377204661
 21
575.9976746119639
 31
0.0
  0
LINE
  5
D5
330
26
100
AcDbEntity
  8
0
 62
     0
100
AcDbLine
 10
755.8454377204663
 20
564.9266068000985
 30
0.0
 11
759.8454377204661
 21
568.9266068000984
 31
0.0
  0
LINE
  5
D6
330
26
100
AcDbEntity
  8
0
 62
     0
100
AcDbLine
 10
755.8454377204663
 20
557.8555389882331
 30
0.0
 11
759.8454377204661
 21
561.8555389882329
 31
0.0
  0
LINE
  5
D7
330
26
100
AcDbEntity
  8
0
 62
     0
100
AcDbLine
 10
755.8454377204663
 20
550.7844711763675
 30
0.0
 11
759.8454377204663
 21
554.7844711763674
 31
0.0
  0
LINE
  5
D8
330
26
100
AcDbEntity
  8
0
 62
     0
100
AcDbLine
 10
755.8454377204663
 20
543.7134033645021
 30
0.0
 11
759.8454377204663
 21
547.713403364502
 31
0.0
  0
LINE
  5
D9
330
26
100
AcDbEntity
  8
0
 62
     0
100
AcDbLine
 10
755.8454377204663
 20
536.6423355526365
 30
0.0
 11
759.8454377204663
 21
540.6423355526364
 31
0.0
  0
ENDBLK
  5
DA
330
26
100
AcDbEntity
  8
0
100
AcDbBlockEnd
  0
BLOCK
  5
1BB
330
1B1
100
AcDbEntity
  8
0
100
AcDbBlockBegin
  2
*D3
 70
     1
 10
0.0
 20
0.0
 30
0.0
  3
*D3
  1

  0
LINE
  5
204
330
1B1
100
AcDbEntity
  8
BEM
 62
     0
370
    -2
100
AcDbLine
 10
430.8954377204664
 20
534.771058174125
 30
0.0
 11
376.0859226701993
 21
534.771058174125
 31
0.0
  0
LINE
  5
205
330
1B1
100
AcDbEntity
  8
BEM
 62
     0
370
    -2
100
AcDbLine
 10
430.8954377204664
 20
1428.644729703051
 30
0.0
 11
376.0859226701995
 21
1428.644729703051
 31
0.0
  0
LINE
  5
206
330
1B1
100
AcDbEntity
  8
BEM
 62
     0
370
    -2
100
AcDbLine
 10
381.0859226701993
 20
552.271058174125
 30
0.0
 11
381.0859226701995
 21
1411.144729703051
 31
0.0
  0
SOLID
  5
207
330
1B1
100
AcDbEntity
  8
BEM
 62
     0
100
AcDbTrace
 10
378.1692560035326
 20
552.271058174125
 30
0.0
 11
384.002589336866
 21
552.271058174125
 31
0.0
 12
381.0859226701993
 22
534.771058174125
 32
0.0
 13
381.0859226701993
 23
534.771058174125
 33
0.0
  0
SOLID
  5
208
330
1B1
100
AcDbEntity
  8
BEM
 62
     0
100
AcDbTrace
 10
378.1692560035328
 20
1411.144729703051
 30
0.0
 11
384.0025893368662
 21
1411.144729703051
 31
0.0
 12
381.0859226701995
 22
1428.644729703051
 32
0.0
 13
381.0859226701995
 23
1428.644729703051
 33
0.0
  0
MTEXT
  5
209
330
1B1
100
AcDbEntity
  8
BEM
 62
     1
100
AcDbMText
 10
364.8359226701992
 20
981.7078939385881
 30
0.0
 40
17.5
 41
0.0
 71
     5
 72
     1
  1
\A1;1000
 11
0.0000000000000001
 21
1.0
 31
0.0
 73
     1
 44
1.0
  0
POINT
  5
20A
330
1B1
100
AcDbEntity
  8
DEFPOINTS
 62
     0
100
AcDbPoint
 10
435.8954377204664
 20
534.771058174125
 30
0.0
  0
POINT
  5
20B
330
1B1
100
AcDbEntity
  8
DEFPOINTS
 62
     0
100
AcDbPoint
 10
435.8954377204664
 20
1428.644729703051
 30
0.0
  0
POINT
  5
20C
330
1B1
100
AcDbEntity
  8
DEFPOINTS
 62
     0
100
AcDbPoint
 10
381.0859226701995
 20
1428.644729703051
 30
0.0
  0
ENDBLK
  5
1BC
330
1B1
100
AcDbEntity
  8
0
100
AcDbBlockEnd
  0
BLOCK
  5
1DC
330
1D0
100
AcDbEntity
  8
0
100
AcDbBlockBegin
  2
*D4
 70
     1
 10
0.0
 20
0.0
 30
0.0
  3
*D4
  1

  0
LINE
  5
22A
330
1D0
100
AcDbEntity
  8
SCHRAFF
 62
     0
370
    -2
100
AcDbLine
 10
755.8954377204664
 20
529.7710581741251
 30
0.0
 11
755.8954377204664
 21
479.3679273178225
 31
0.0
  0
LINE
  5
22B
330
1D0
100
AcDbEntity
  8
SCHRAFF
 62
     0
370
    -2
100
AcDbLine
 10
759.8954377204664
 20
529.7710581741251
 30
0.0
 11
759.8954377204664
 21
479.3679273178225
 31
0.0
  0
LINE
  5
22C
330
1D0
100
AcDbEntity
  8
SCHRAFF
 62
     0
370
    -2
100
AcDbLine
 10
738.3954377204664
 20
484.3679273178225
 30
0.0
 11
720.8954377204665
 21
484.3679273178225
 31
0.0
  0
LINE
  5
22D
330
1D0
100
AcDbEntity
  8
SCHRAFF
 62
     0
370
    -2
100
AcDbLine
 10
777.3954377204664
 20
484.3679273178225
 30
0.0
 11
819.8954377204664
 21
484.3679273178225
 31
0.0
  0
LINE
  5
22E
330
1D0
100
AcDbEntity
  8
SCHRAFF
 62
     0
370
    -2
100
AcDbLine
 10
755.8954377204664
 20
484.3679273178225
 30
0.0
 11
759.8954377204664
 21
484.3679273178225
 31
0.0
  0
SOLID
  5
22F
330
1D0
100
AcDbEntity
  8
SCHRAFF
 62
     0
100
AcDbTrace
 10
738.3954377204664
 20
487.2845939844892
 30
0.0
 11
738.3954377204664
 21
481.4512606511558
 31
0.0
 12
755.8954377204664
 22
484.3679273178225
 32
0.0
 13
755.8954377204664
 23
484.3679273178225
 33
0.0
  0
SOLID
  5
230
330
1D0
100
AcDbEntity
  8
SCHRAFF
 62
     0
100
AcDbTrace
 10
777.3954377204664
 20
487.2845939844892
 30
0.0
 11
777.3954377204664
 21
481.4512606511558
 31
0.0
 12
759.8954377204664
 22
484.3679273178225
 32
0.0
 13
759.8954377204664
 23
484.3679273178225
 33
0.0
  0
MTEXT
  5
231
330
1D0
100
AcDbEntity
  8
SCHRAFF
 62
     1
100
AcDbMText
 10
807.3954377204664
 20
500.6179273178226
 30
0.0
 40
17.5
 41
0.0
 71
     5
 72
     1
  1
\A1;4
 73
     1
 44
1.0
  0
POINT
  5
232
330
1D0
100
AcDbEntity
  8
DEFPOINTS
 62
     0
100
AcDbPoint
 10
755.8954377204664
 20
534.771058174125
 30
0.0
  0
POINT
  5
233
330
1D0
100
AcDbEntity
  8
DEFPOINTS
 62
     0
100
AcDbPoint
 10
759.8954377204664
 20
534.771058174125
 30
0.0
  0
POINT
  5
234
330
1D0
100
AcDbEntity
  8
DEFPOINTS
 62
     0
100
AcDbPoint
 10
759.8954377204664
 20
484.3679273178225
 30
0.0
  0
ENDBLK
  5
1DD
330
1D0
100
AcDbEntity
  8
0
100
AcDbBlockEnd
  0
BLOCK
  5
1E8
330
1DE
100
AcDbEntity
  8
0
100
AcDbBlockBegin
  2
*D5
 70
     1
 10
0.0
 20
0.0
 30
0.0
  3
*D5
  1

  0
LINE
  5
221
330
1DE
100
AcDbEntity
  8
SCHRAFF
 62
     0
370
    -2
100
AcDbLine
 10
759.8954377204664
 20
529.7710581741251
 30
0.0
 11
759.8954377204664
 21
436.4367778222138
 31
0.0
  0
LINE
  5
222
330
1DE
100
AcDbEntity
  8
SCHRAFF
 62
     0
370
    -2
100
AcDbLine
 10
435.8954377204664
 20
529.7710581741251
 30
0.0
 11
435.8954377204664
 21
436.4367778222138
 31
0.0
  0
LINE
  5
223
330
1DE
100
AcDbEntity
  8
SCHRAFF
 62
     0
370
    -2
100
AcDbLine
 10
742.3954377204665
 20
441.4367778222139
 30
0.0
 11
453.3954377204664
 21
441.4367778222139
 31
0.0
  0
SOLID
  5
224
330
1DE
100
AcDbEntity
  8
SCHRAFF
 62
     0
100
AcDbTrace
 10
742.3954377204665
 20
444.3534444888806
 30
0.0
 11
742.3954377204665
 21
438.5201111555472
 31
0.0
 12
759.8954377204664
 22
441.4367778222139
 32
0.0
 13
759.8954377204664
 23
441.4367778222139
 33
0.0
  0
SOLID
  5
225
330
1DE
100
AcDbEntity
  8
SCHRAFF
 62
     0
100
AcDbTrace
 10
453.3954377204664
 20
444.3534444888806
 30
0.0
 11
453.3954377204664
 21
438.5201111555472
 31
0.0
 12
435.8954377204664
 22
441.4367778222139
 32
0.0
 13
435.8954377204664
 23
441.4367778222139
 33
0.0
  0
MTEXT
  5
226
330
1DE
100
AcDbEntity
  8
SCHRAFF
 62
     1
100
AcDbMText
 10
597.8954377204664
 20
457.6867778222139
 30
0.0
 40
17.5
 41
0.0
 71
     5
 72
     1
  1
\A1;%%c324
 73
     1
 44
1.0
  0
POINT
  5
227
330
1DE
100
AcDbEntity
  8
DEFPOINTS
 62
     0
100
AcDbPoint
 10
759.8954377204664
 20
534.771058174125
 30
0.0
  0
POINT
  5
228
330
1DE
100
AcDbEntity
  8
DEFPOINTS
 62
     0
100
AcDbPoint
 10
435.8954377204664
 20
534.771058174125
 30
0.0
  0
POINT
  5
229
330
1DE
100
AcDbEntity
  8
DEFPOINTS
 62
     0
100
AcDbPoint
 10
435.8954377204664
 20
441.4367778222139
 30
0.0
  0
ENDBLK
  5
1E9
330
1DE
100
AcDbEntity
  8
0
100
AcDbBlockEnd
  0
ENDSEC
  0
SECTION
  2
ENTITIES
  0
DIMENSION
  5
FF
330
20
100
AcDbEntity
  8
SCHRAFF
100
AcDbDimension
  2
*D4
 10
759.8954377204664
 20
484.3679273178225
 30
0.0
 11
807.3954377204664
 21
500.6179273178226
 31
0.0
 70
    32
  1
<>
 71
     5
 42
4.0
  3
Standard
100
AcDbAlignedDimension
 13
755.8954377204664
 23
534.771058174125
 33
0.0
 14
759.8954377204664
 24
534.771058174125
 34
0.0
100
AcDbRotatedDimension
1001
ACAD
1000
DSTYLE
1002
{
1070
    40
1040
5.0
1070
    41
1040
3.5
1070
    42
1040
1.0
1070
    43
1040
7.0
1070
    44
1040
1.0
1070
    47
1040
10.0
1070
    73
1070
     0
1070
    74
1070
     0
1070
    77
1070
     1
1070
    78
1070
     8
1070
    79
1070
     2
1070
   140
1040
3.5
1070
   141
1040
1.5
1070
   146
1040
0.5
1070
   147
1040
1.5
1070
   172
1070
     1
1070
   178
1070
     1
1070
   179
1070
     2
1070
   271
1070
     2
1070
   272
1070
     2
1070
   284
1070
     8
1070
   285
1070
     8
1070
   286
1070
     8
1002
}
  0
TEXT
  5
101
330
20
100
AcDbEntity
  8
TEXT
 62
     1
100
AcDbText
 10
598.6674728771919
 20
318.4411278615431
 30
0.0
 40
17.5
  1
feuerverzinkt und innen beschichtet
 41
0.8
  7
GREEKS
100
AcDbText
  0
LINE
  5
102
330
20
100
AcDbEntity
  8
HILF
100
AcDbLine
 10
1050.0
 20
0.0
 30
0.0
 11
0.0
 21
0.0
 31
0.0
  0
LINE
  5
103
330
20
100
AcDbEntity
  8
HILF
100
AcDbLine
 10
1050.0
 20
1485.0
 30
0.0
 11
0.0
 21
1485.0
 31
0.0
  0
LINE
  5
104
330
20
100
AcDbEntity
  8
STEMPEL
100
AcDbLine
 10
1025.0
 20
1460.0
 30
0.0
 11
99.99999999999971
 21
1460.0
 31
0.0
  0
LINE
  5
105
330
20
100
AcDbEntity
  8
STEMPEL
100
AcDbLine
 10
1025.0
 20
25.0
 30
0.0
 11
99.99999999999971
 21
25.0
 31
0.0
  0
LINE
  5
106
330
20
100
AcDbEntity
  8
STEMPEL
100
AcDbLine
 10
124.9999999999997
 20
25.0
 30
0.0
 11
1025.0
 21
25.0
 31
0.0
  0
LINE
  5
107
330
20
100
AcDbEntity
  8
HILF
100
AcDbLine
 10
583.7274248224712
 20
37.23495645070784
 30
0.0
 11
1012.147209831682
 21
37.23495645070784
 31
0.0
  0
LINE
  5
108
330
20
100
AcDbEntity
  8
STEMPEL
100
AcDbLine
 10
1025.0
 20
200.0
 30
0.0
 11
365.0000000000003
 21
199.9999999999998
 31
0.0
  0
LINE
  5
109
330
20
100
AcDbEntity
  8
STEMPEL
100
AcDbLine
 10
1025.0
 20
100.0
 30
0.0
 11
365.0000000000003
 21
99.99999999999992
 31
0.0
  0
LINE
  5
10A
330
20
100
AcDbEntity
  8
STEMPEL
100
AcDbLine
 10
1025.0
 20
275.0000000000001
 30
0.0
 11
99.99999999999992
 21
275.0
 31
0.0
  0
DIMENSION
  5
10B
330
20
100
AcDbEntity
  8
BEM
100
AcDbDimension
  2
*D3
 10
381.0859226701995
 20
1428.644729703051
 30
0.0
 11
364.8359226701992
 21
981.7078939385881
 31
0.0
 70
    32
  1
1000
 71
     5
 42
893.8736715289257
  3
Standard
100
AcDbAlignedDimension
 13
435.8954377204664
 23
534.771058174125
 33
0.0
 14
435.8954377204664
 24
1428.644729703051
 34
0.0
 50
90.0
100
AcDbRotatedDimension
1001
ACAD
1000
DSTYLE
1002
{
1070
    40
1040
5.0
1070
    41
1040
3.5
1070
    42
1040
1.0
1070
    43
1040
7.0
1070
    44
1040
1.0
1070
    47
1040
10.0
1070
    73
1070
     0
1070
    74
1070
     0
1070
    77
1070
     1
1070
    78
1070
     8
1070
    79
1070
     2
1070
   140
1040
3.5
1070
   141
1040
1.5
1070
   146
1040
0.5
1070
   147
1040
1.5
1070
   172
1070
     1
1070
   178
1070
     1
1070
   179
1070
     2
1070
   271
1070
     2
1070
   272
1070
     2
1070
   284
1070
     8
1070
   285
1070
     8
1070
   286
1070
     8
1002
}
  0
INSERT
  5
10C
330
20
100
AcDbEntity
  8
SCHRAFF
100
AcDbBlockReference
  2
*X2
 10
0.0500000000000682
 20
0.0
 30
0.0
1001
ACAD
1000
HATCH
1002
{
1070
    16
1000
_U,I
1040
5.0
1040
0.7853981633974483
1070
     0
1002
}
  0
LINE
  5
10D
330
20
100
AcDbEntity
  8
STEMPEL
100
AcDbLine
 10
435.8954377204664
 20
971.7078939385878
 30
0.0
 11
435.8954377204664
 21
534.771058174125
 31
0.0
  0
LINE
  5
10E
330
20
100
AcDbEntity
  8
STEMPEL
100
AcDbLine
 10
759.8954377204663
 20
971.7078939385878
 30
0.0
 11
759.8954377204664
 21
534.771058174125
 31
0.0
  0
LINE
  5
10F
330
20
100
AcDbEntity
  8
STEMPEL
100
AcDbLine
 10
755.8954377204664
 20
970.4511346127857
 30
0.0
 11
755.8954377204664
 21
534.771058174125
 31
0.0
  0
LINE
  5
110
330
20
100
AcDbEntity
  8
MITTEL
100
AcDbLine
 10
597.8954377204664
 20
1433.644729703051
 30
0.0
 11
597.8954377204664
 21
529.7710581741251
 31
0.0
  0
LINE
  5
111
330
20
100
AcDbEntity
  8
HILF
100
AcDbLine
 10
0.0
 20
0.0
 30
0.0
 11
-0.0000000000002842
 21
1485.0
 31
0.0
  0
LINE
  5
112
330
20
100
AcDbEntity
  8
STEMPEL
100
AcDbLine
 10
100.0
 20
25.0
 30
0.0
 11
99.99999999999971
 21
1460.0
 31
0.0
  0
TEXT
  5
113
330
20
100
AcDbEntity
  8
TEXT
 62
     1
100
AcDbText
 10
187.8685074085588
 20
398.154950726187
 30
0.0
 40
17.5
  1
Rohrenden leicht entgratet
 41
0.8
  7
GREEKS
100
AcDbText
  0
TEXT
  5
114
330
20
100
AcDbEntity
  8
TEXT
100
AcDbText
 10
104.6377487744418
 20
279.1799999999999
 30
0.0
 40
12.5
  1
Erstellt mit AUTOCAD 2004
 41
0.8
  7
GREEKS
100
AcDbText
  0
LINE
  5
115
330
20
100
AcDbEntity
  8
HILF
100
AcDbLine
 10
100.0000000000002
 20
99.99999999999992
 30
0.0
 11
365.0000000000003
 21
99.99999999999992
 31
0.0
  0
LINE
  5
116
330
20
100
AcDbEntity
  8
HILF
100
AcDbLine
 10
100.0000000000002
 20
124.9999999999999
 30
0.0
 11
365.0000000000003
 21
124.9999999999999
 31
0.0
  0
LINE
  5
117
330
20
100
AcDbEntity
  8
HILF
100
AcDbLine
 10
100.0000000000002
 20
149.9999999999999
 30
0.0
 11
365.0000000000003
 21
149.9999999999999
 31
0.0
  0
LINE
  5
118
330
20
100
AcDbEntity
  8
HILF
100
AcDbLine
 10
100.0000000000002
 20
174.9999999999998
 30
0.0
 11
365.0000000000003
 21
174.9999999999998
 31
0.0
  0
LINE
  5
119
330
20
100
AcDbEntity
  8
HILF
100
AcDbLine
 10
100.0000000000002
 20
199.9999999999998
 30
0.0
 11
365.0000000000003
 21
199.9999999999998
 31
0.0
  0
LINE
  5
11A
330
20
100
AcDbEntity
  8
HILF
100
AcDbLine
 10
100.0000000000002
 20
225.0000000000001
 30
0.0
 11
365.0000000000003
 21
225.0000000000001
 31
0.0
  0
LINE
  5
11B
330
20
100
AcDbEntity
  8
HILF
100
AcDbLine
 10
100.0000000000002
 20
250.0000000000001
 30
0.0
 11
365.0000000000003
 21
250.0000000000001
 31
0.0
  0
LINE
  5
11C
330
20
100
AcDbEntity
  8
STEMPEL
100
AcDbLine
 10
364.9999999999997
 20
74.99999999999992
 30
0.0
 11
99.99999999999992
 21
74.99999999999992
 31
0.0
  0
TEXT
  5
11D
330
20
100
AcDbEntity
  8
TEXT
100
AcDbText
 10
275.7907440468536
 20
46.67890673349525
 30
0.0
 40
10.0
  1
Tag
 41
0.8
  7
GREEKS
 72
     1
 11
285.1240773801869
 21
46.67890673349525
 31
0.0
100
AcDbText
  0
TEXT
  5
11E
330
20
100
AcDbEntity
  8
TEXT
100
AcDbText
 10
120.6660276761439
 20
34.13664615067979
 30
0.0
 40
10.0
  1
Index
 50
90.0
 41
0.8
  7
GREEKS
100
AcDbText
  0
TEXT
  5
11F
330
20
100
AcDbEntity
  8
TEXT
100
AcDbText
 10
171.6979978718252
 20
46.68454737460329
 30
0.0
 40
10.0
  1
Änderung
 41
0.8
  7
GREEKS
 72
     1
 11
198.5551407289681
 21
46.68454737460329
 31
0.0
100
AcDbText
  0
LINE
  5
120
330
20
100
AcDbEntity
  8
VOLL
100
AcDbLine
 10
310.0000000000003
 20
274.9999999999999
 30
0.0
 11
310.0
 21
24.99999999999993
 31
0.0
  0
LINE
  5
121
330
20
100
AcDbEntity
  8
VOLL
100
AcDbLine
 10
260.0000000000003
 20
274.9999999999999
 30
0.0
 11
260.0
 21
24.99999999999993
 31
0.0
  0
LINE
  5
122
330
20
100
AcDbEntity
  8
VOLL
100
AcDbLine
 10
135.0000000000002
 20
275.0000000000001
 30
0.0
 11
134.9999999999999
 21
24.99999999999993
 31
0.0
  0
LINE
  5
123
330
20
100
AcDbEntity
  8
HILF
100
AcDbLine
 10
77.7191783928464
 20
742.5000000000001
 30
0.0
 11
0.0000000000002842
 21
742.5000000000001
 31
0.0
  0
LINE
  5
124
330
20
100
AcDbEntity
  8
HILF
100
AcDbLine
 10
365.0000000000003
 20
124.9999999999999
 30
0.0
 11
575.0
 21
124.9999999999999
 31
0.0
  0
LINE
  5
125
330
20
100
AcDbEntity
  8
HILF
100
AcDbLine
 10
365.0000000000003
 20
149.9999999999999
 30
0.0
 11
575.0
 21
149.9999999999999
 31
0.0
  0
LINE
  5
126
330
20
100
AcDbEntity
  8
HILF
100
AcDbLine
 10
365.0000000000003
 20
174.9999999999998
 30
0.0
 11
575.0
 21
174.9999999999998
 31
0.0
  0
INSERT
  5
127
330
20
100
AcDbEntity
  8
STEMPEL
100
AcDbBlockReference
  2
LOGO
 10
377.4888713644485
 20
112.552631911208
 30
0.0
 41
5.0
 42
5.0
 43
5.0
  0
LINE
  5
128
330
20
100
AcDbEntity
  8
STEMPEL
100
AcDbLine
 10
365.0000000000003
 20
274.9999999999999
 30
0.0
 11
365.0
 21
24.99999999999993
 31
0.0
  0
TEXT
  5
129
330
20
100
AcDbEntity
  8
TEXT
100
AcDbText
 10
425.9974927705902
 20
157.7691260206433
 30
0.0
 40
10.0
  1
20.08.
 41
0.8
  7
GREEKS
 72
     1
 11
443.5213022943996
 21
157.7691260206433
 31
0.0
100
AcDbText
  0
TEXT
  5
12A
330
20
100
AcDbEntity
  8
TEXT
100
AcDbText
 10
430.8279182884127
 20
183.2970125307481
 30
0.0
 40
10.0
  1
Tag
 41
0.8
  7
GREEKS
100
AcDbText
  0
TEXT
  5
12B
330
20
100
AcDbEntity
  8
TEXT
100
AcDbText
 10
383.7908930375943
 20
256.1552237717722
 30
0.0
 40
12.5
  1
Maßstab
 41
0.8
  7
GREEKS
100
AcDbText
  0
TEXT
  5
12C
330
20
100
AcDbEntity
  8
TEXT
100
AcDbText
 10
368.9590317919039
 20
159.0747592404491
 30
0.0
 40
10.0
  1
Gez.
 41
0.8
  7
GREEKS
100
AcDbText
  0
LINE
  5
12D
330
20
100
AcDbEntity
  8
VOLL
100
AcDbLine
 10
410.0000000000003
 20
199.9999999999998
 30
0.0
 11
410.0000000000003
 21
99.99999999999992
 31
0.0
  0
TEXT
  5
12E
330
20
100
AcDbEntity
  8
TEXT
100
AcDbText
 10
369.0016943468259
 20
108.8236597412452
 30
0.0
 40
10.0
  1
Norm.
 41
0.8
  7
GREEKS
100
AcDbText
  0
TEXT
  5
12F
330
20
100
AcDbEntity
  8
TEXT
100
AcDbText
 10
368.8787716429181
 20
134.2231572857094
 30
0.0
 40
10.0
  1
Gepr.
 41
0.8
  7
GREEKS
100
AcDbText
  0
TEXT
  5
130
330
20
100
AcDbEntity
  8
TEXT
100
AcDbText
 10
321.9056397004895
 20
46.4831054241602
 30
0.0
 40
10.0
  1
Name
 41
0.8
  7
GREEKS
 72
     1
 11
337.7151635100133
 21
46.4831054241602
 31
0.0
100
AcDbText
  0
TEXT
  5
131
330
20
100
AcDbEntity
  8
TEXT
100
AcDbText
 10
371.55527455526
 20
182.8506367787916
 30
0.0
 40
10.0
  1
2007
 41
0.8
  7
GREEKS
100
AcDbText
  0
TEXT
  5
132
330
20
100
AcDbEntity
  8
TEXT
 62
     1
100
AcDbText
 10
401.2515766204717
 20
220.372535722849
 30
0.0
 40
17.5
  1
1:5
 41
0.8
  7
GREEKS
100
AcDbText
  0
TEXT
  5
133
330
20
100
AcDbEntity
  8
TEXT
100
AcDbText
 10
517.9111550024571
 20
157.7240979930877
 30
0.0
 40
10.0
  1
Ba
 41
0.8
  7
GREEKS
 72
     1
 11
524.1968692881714
 21
157.7240979930877
 31
0.0
100
AcDbText
  0
LINE
  5
134
330
20
100
AcDbEntity
  8
VOLL
100
AcDbLine
 10
475.0000000000002
 20
274.9999999999996
 30
0.0
 11
475.0
 21
99.99999999999992
 31
0.0
  0
TEXT
  5
135
330
20
100
AcDbEntity
  8
TEXT
100
AcDbText
 10
485.7147386835128
 20
256.0460421087048
 30
0.0
 40
12.5
  1
Zul. Abw.
 41
0.8
  7
GREEKS
100
AcDbText
  0
TEXT
  5
136
330
20
100
AcDbEntity
  8
TEXT
100
AcDbText
 10
506.1566460565737
 20
183.2740272978806
 30
0.0
 40
10.0
  1
Name
 41
0.8
  7
GREEKS
100
AcDbText
  0
LINE
  5
137
330
20
100
AcDbEntity
  8
STEMPEL
100
AcDbLine
 10
575.0
 20
275.0000000000001
 30
0.0
 11
575.0
 21
24.99999999999993
 31
0.0
  0
TEXT
  5
138
330
20
100
AcDbEntity
  8
TEXT
100
AcDbText
 10
587.8240977813288
 20
129.100298576054
 30
0.0
 40
12.5
  1
EDV-Art.Nr. 01051.300X
 41
0.8
  7
GREEKS
100
AcDbText
  0
TEXT
  5
139
330
20
100
AcDbEntity
  8
TEXT
 62
     1
100
AcDbText
 10
587.9722390262583
 20
218.5437197313445
 30
0.0
 40
17.5
  1
Rohr DN300
 41
0.8
  7
GREEKS
100
AcDbText
  0
LINE
  5
13A
330
20
100
AcDbEntity
  8
HILF
100
AcDbLine
 10
586.9342002742369
 20
124.9999999999999
 30
0.0
 11
812.0884791390775
 21
124.9999999999999
 31
0.0
  0
LINE
  5
13B
330
20
100
AcDbEntity
  8
HILF
100
AcDbLine
 10
586.9342002742369
 20
149.9999999999999
 30
0.0
 11
812.0884791390775
 21
149.9999999999999
 31
0.0
  0
LINE
  5
13C
330
20
100
AcDbEntity
  8
HILF
100
AcDbLine
 10
586.9342002742369
 20
174.9999999999998
 30
0.0
 11
812.0884791390775
 21
174.9999999999998
 31
0.0
  0
LINE
  5
13D
330
20
100
AcDbEntity
  8
HILF
100
AcDbLine
 10
586.9342002742369
 20
210.0939561891034
 30
0.0
 11
812.0884791390777
 21
210.0939561891034
 31
0.0
  0
TEXT
  5
13E
330
20
100
AcDbEntity
  8
TEXT
100
AcDbText
 10
587.4593753944567
 20
106.5743538255658
 30
0.0
 40
10.0
  1
01051300W.DWG
 41
0.8
  7
GREEKS
100
AcDbText
  0
TEXT
  5
13F
330
20
100
AcDbEntity
  8
TEXT
100
AcDbText
 10
586.8555959778399
 20
77.11401425482641
 30
0.0
 40
12.5
  1
Bauvorhaben
 41
0.8
  7
GREEKS
100
AcDbText
  0
TEXT
  5
140
330
20
100
AcDbEntity
  8
TEXT
100
AcDbText
 10
587.8240977813288
 20
182.7301986593306
 30
0.0
 40
12.5
  1
Muffenlos 1000mm lang
 41
0.8
  7
GREEKS
100
AcDbText
  0
TEXT
  5
141
330
20
100
AcDbEntity
  8
TEXT
100
AcDbText
 10
587.1948509522525
 20
256.3723320029449
 30
0.0
 40
12.5
  1
Benennung
 41
0.8
  7
GREEKS
100
AcDbText
  0
DIMENSION
  5
142
330
20
100
AcDbEntity
  8
SCHRAFF
100
AcDbDimension
  2
*D5
 10
435.8954377204664
 20
441.4367778222139
 30
0.0
 11
597.8954377204664
 21
457.6867778222139
 31
0.0
 70
    32
  1
%%c<>
 71
     5
 42
324.0
  3
Standard
100
AcDbAlignedDimension
 13
759.8954377204664
 23
534.771058174125
 33
0.0
 14
435.8954377204664
 24
534.771058174125
 34
0.0
100
AcDbRotatedDimension
1001
ACAD
1000
DSTYLE
1002
{
1070
    40
1040
5.0
1070
    41
1040
3.5
1070
    42
1040
1.0
1070
    43
1040
7.0
1070
    44
1040
1.0
1070
    47
1040
10.0
1070
    73
1070
     0
1070
    74
1070
     0
1070
    77
1070
     1
1070
    78
1070
     8
1070
    79
1070
     2
1070
   140
1040
3.5
1070
   141
1040
1.5
1070
   146
1040
0.5
1070
   147
1040
1.5
1070
   172
1070
     1
1070
   178
1070
     1
1070
   179
1070
     2
1070
   271
1070
     2
1070
   272
1070
     2
1070
   284
1070
     8
1070
   285
1070
     8
1070
   286
1070
     8
1002
}
  0
LINE
  5
143
330
20
100
AcDbEntity
  8
STEMPEL
100
AcDbLine
 10
759.8954377204664
 20
534.771058174125
 30
0.0
 11
435.8954377204664
 21
534.771058174125
 31
0.0
  0
TEXT
  5
144
330
20
100
AcDbEntity
  8
TEXT
 62
     1
100
AcDbText
 10
478.6674728771919
 20
348.4411278615431
 30
0.0
 40
17.5
  1
Werkstoff: EN 10219 S235
 41
0.8
  7
GREEKS
100
AcDbText
  0
POINT
  5
145
330
20
100
AcDbEntity
  8
BEM
100
AcDbPoint
 10
435.8954377204664
 20
534.771058174125
 30
0.0
  0
LINE
  5
146
330
20
100
AcDbEntity
  8
STEMPEL
100
AcDbLine
 10
755.8954377204664
 20
1428.644729703051
 30
0.0
 11
755.8954377204664
 21
980.4511346127856
 31
0.0
  0
LINE
  5
147
330
20
100
AcDbEntity
  8
STEMPEL
100
AcDbLine
 10
759.8954377204664
 20
1428.644729703051
 30
0.0
 11
759.8954377204663
 21
981.7078939385877
 31
0.0
  0
LINE
  5
148
330
20
100
AcDbEntity
  8
STEMPEL
100
AcDbLine
 10
435.8954377204664
 20
1428.644729703051
 30
0.0
 11
435.8954377204664
 21
981.7078939385877
 31
0.0
  0
POLYLINE
  5
149
330
20
100
AcDbEntity
  8
HILF
100
AcDb2dPolyline
 66
     1
 10
0.0
 20
0.0
 30
0.0
 70
     4
 75
     6
  0
VERTEX
  5
14A
330
149
100
AcDbEntity
  8
HILF
100
AcDbVertex
100
AcDb2dVertex
 10
759.8954377204664
 20
971.707893938588
 30
0.0
 70
    16
  0
VERTEX
  5
14B
330
149
100
AcDbEntity
  8
HILF
100
AcDbVertex
100
AcDb2dVertex
 10
759.8954377204664
 20
971.707893938588
 30
0.0
 70
     8
  0
VERTEX
  5
14C
330
149
100
AcDbEntity
  8
HILF
100
AcDbVertex
100
AcDb2dVertex
 10
735.4262916814631
 20
964.0251224283771
 30
0.0
 70
     8
  0
VERTEX
  5
14D
330
149
100
AcDbEntity
  8
HILF
100
AcDbVertex
100
AcDb2dVertex
 10
714.0951322097743
 20
958.4213710275392
 30
0.0
 70
     8
  0
VERTEX
  5
14E
330
149
100
AcDbEntity
  8
HILF
100
AcDbVertex
100
AcDb2dVertex
 10
695.56523760328
 20
954.6414966520805
 30
0.0
 70
     8
  0
VERTEX
  5
14F
330
149
100
AcDbEntity
  8
HILF
100
AcDbVertex
100
AcDb2dVertex
 10
679.4998861598603
 20
952.4303562180065
 30
0.0
 70
     8
  0
VERTEX
  5
150
330
149
100
AcDbEntity
  8
HILF
100
AcDbVertex
100
AcDb2dVertex
 10
665.5623561773951
 20
951.5328066413239
 30
0.0
 70
     8
  0
VERTEX
  5
151
330
149
100
AcDbEntity
  8
HILF
100
AcDbVertex
100
AcDb2dVertex
 10
653.4159259537646
 20
951.6937048380377
 30
0.0
 70
     8
  0
VERTEX
  5
152
330
149
100
AcDbEntity
  8
HILF
100
AcDbVertex
100
AcDb2dVertex
 10
642.7238737868484
 20
952.6579077241546
 30
0.0
 70
     8
  0
VERTEX
  5
153
330
149
100
AcDbEntity
  8
HILF
100
AcDbVertex
100
AcDb2dVertex
 10
633.149477974527
 20
954.1702722156797
 30
0.0
 70
     8
  0
VERTEX
  5
154
330
149
100
AcDbEntity
  8
HILF
100
AcDbVertex
100
AcDb2dVertex
 10
624.3948815996588
 20
956.011811961746
 30
0.0
 70
     8
  0
VERTEX
  5
155
330
149
100
AcDbEntity
  8
HILF
100
AcDbVertex
100
AcDb2dVertex
 10
616.3176868850174
 20
958.1081675439882
 30
0.0
 70
     8
  0
VERTEX
  5
156
330
149
100
AcDbEntity
  8
HILF
100
AcDbVertex
100
AcDb2dVertex
 10
608.8143608383553
 20
960.4211362771684
 30
0.0
 70
     8
  0
VERTEX
  5
157
330
149
100
AcDbEntity
  8
HILF
100
AcDbVertex
100
AcDb2dVertex
 10
601.7813704674249
 20
962.9125154760473
 30
0.0
 70
     8
  0
VERTEX
  5
158
330
149
100
AcDbEntity
  8
HILF
100
AcDbVertex
100
AcDb2dVertex
 10
595.1151827799787
 20
965.5441024553873
 30
0.0
 70
     8
  0
VERTEX
  5
159
330
149
100
AcDbEntity
  8
HILF
100
AcDbVertex
100
AcDb2dVertex
 10
588.7122647837689
 20
968.2776945299494
 30
0.0
 70
     8
  0
VERTEX
  5
15A
330
149
100
AcDbEntity
  8
HILF
100
AcDbVertex
100
AcDb2dVertex
 10
582.4690834865481
 20
971.075089014495
 30
0.0
 70
     8
  0
VERTEX
  5
15B
330
149
100
AcDbEntity
  8
HILF
100
AcDbVertex
100
AcDb2dVertex
 10
576.2821058960684
 20
973.898083223786
 30
0.0
 70
     8
  0
VERTEX
  5
15C
330
149
100
AcDbEntity
  8
HILF
100
AcDbVertex
100
AcDb2dVertex
 10
570.0460842644937
 20
976.7035514476004
 30
0.0
 70
     8
  0
VERTEX
  5
15D
330
149
100
AcDbEntity
  8
HILF
100
AcDbVertex
100
AcDb2dVertex
 10
563.6489118216311
 20
979.4286758757838
 30
0.0
 70
     8
  0
VERTEX
  5
15E
330
149
100
AcDbEntity
  8
HILF
100
AcDbVertex
100
AcDb2dVertex
 10
556.9767670416995
 20
982.005715673198
 30
0.0
 70
     8
  0
VERTEX
  5
15F
330
149
100
AcDbEntity
  8
HILF
100
AcDbVertex
100
AcDb2dVertex
 10
549.9158283989173
 20
984.3669300047055
 30
0.0
 70
     8
  0
VERTEX
  5
160
330
149
100
AcDbEntity
  8
HILF
100
AcDbVertex
100
AcDb2dVertex
 10
542.3522743675034
 20
986.4445780351681
 30
0.0
 70
     8
  0
VERTEX
  5
161
330
149
100
AcDbEntity
  8
HILF
100
AcDbVertex
100
AcDb2dVertex
 10
534.1722834216763
 20
988.1709189294483
 30
0.0
 70
     8
  0
VERTEX
  5
162
330
149
100
AcDbEntity
  8
HILF
100
AcDbVertex
100
AcDb2dVertex
 10
525.2620340356543
 20
989.478211852408
 30
0.0
 70
     8
  0
VERTEX
  5
163
330
149
100
AcDbEntity
  8
HILF
100
AcDbVertex
100
AcDb2dVertex
 10
515.5077046836565
 20
990.2987159689097
 30
0.0
 70
     8
  0
VERTEX
  5
164
330
149
100
AcDbEntity
  8
HILF
100
AcDbVertex
100
AcDb2dVertex
 10
504.8784188198263
 20
990.565663963906
 30
0.0
 70
     8
  0
VERTEX
  5
165
330
149
100
AcDbEntity
  8
HILF
100
AcDbVertex
100
AcDb2dVertex
 10
493.6750798180085
 20
990.2161826027162
 30
0.0
 70
     8
  0
VERTEX
  5
166
330
149
100
AcDbEntity
  8
HILF
100
AcDbVertex
100
AcDb2dVertex
 10
482.2815360319728
 20
989.188372170749
 30
0.0
 70
     8
  0
VERTEX
  5
167
330
149
100
AcDbEntity
  8
HILF
100
AcDbVertex
100
AcDb2dVertex
 10
471.0816358154889
 20
987.4203329534141
 30
0.0
 70
     8
  0
VERTEX
  5
168
330
149
100
AcDbEntity
  8
HILF
100
AcDbVertex
100
AcDb2dVertex
 10
460.4592275223265
 20
984.8501652361211
 30
0.0
 70
     8
  0
VERTEX
  5
169
330
149
100
AcDbEntity
  8
HILF
100
AcDbVertex
100
AcDb2dVertex
 10
450.7981595062555
 20
981.4159693042794
 30
0.0
 70
     8
  0
VERTEX
  5
16A
330
149
100
AcDbEntity
  8
HILF
100
AcDbVertex
100
AcDb2dVertex
 10
442.4822801210456
 20
977.0558454432986
 30
0.0
 70
     8
  0
VERTEX
  5
16B
330
149
100
AcDbEntity
  8
HILF
100
AcDbVertex
100
AcDb2dVertex
 10
435.8954377204666
 20
971.707893938588
 30
0.0
 70
     8
  0
VERTEX
  5
16C
330
149
100
AcDbEntity
  8
HILF
100
AcDbVertex
100
AcDb2dVertex
 10
690.1610913470425
 20
948.2216825797554
 30
0.0
 70
    16
  0
VERTEX
  5
16D
330
149
100
AcDbEntity
  8
HILF
100
AcDbVertex
100
AcDb2dVertex
 10
624.8195083481322
 20
951.0447413205898
 30
0.0
 70
    16
  0
VERTEX
  5
16E
330
149
100
AcDbEntity
  8
HILF
100
AcDbVertex
100
AcDb2dVertex
 10
576.7869516081358
 20
974.0325148023813
 30
0.0
 70
    16
  0
VERTEX
  5
16F
330
149
100
AcDbEntity
  8
HILF
100
AcDbVertex
100
AcDb2dVertex
 10
525.7253205957357
 20
996.2136988126015
 30
0.0
 70
    16
  0
VERTEX
  5
170
330
149
100
AcDbEntity
  8
HILF
100
AcDbVertex
100
AcDb2dVertex
 10
450.8137696058187
 20
987.3412234446474
 30
0.0
 70
    16
  0
VERTEX
  5
171
330
149
100
AcDbEntity
  8
HILF
100
AcDbVertex
100
AcDb2dVertex
 10
435.8954377204664
 20
971.707893938588
 30
0.0
 70
    16
  0
SEQEND
  5
172
330
149
100
AcDbEntity
  8
HILF
  0
POLYLINE
  5
173
330
20
100
AcDbEntity
  8
HILF
100
AcDb2dPolyline
 66
     1
 10
0.0
 20
0.0
 30
0.0
 70
     4
 75
     6
  0
VERTEX
  5
174
330
173
100
AcDbEntity
  8
HILF
100
AcDbVertex
100
AcDb2dVertex
 10
759.8954377204664
 20
981.7078939385879
 30
0.0
 70
    16
  0
VERTEX
  5
175
330
173
100
AcDbEntity
  8
HILF
100
AcDbVertex
100
AcDb2dVertex
 10
759.8954377204664
 20
981.7078939385879
 30
0.0
 70
     8
  0
VERTEX
  5
176
330
173
100
AcDbEntity
  8
HILF
100
AcDbVertex
100
AcDb2dVertex
 10
735.4262916814631
 20
974.025122428377
 30
0.0
 70
     8
  0
VERTEX
  5
177
330
173
100
AcDbEntity
  8
HILF
100
AcDbVertex
100
AcDb2dVertex
 10
714.0951322097743
 20
968.4213710275393
 30
0.0
 70
     8
  0
VERTEX
  5
178
330
173
100
AcDbEntity
  8
HILF
100
AcDbVertex
100
AcDb2dVertex
 10
695.56523760328
 20
964.6414966520804
 30
0.0
 70
     8
  0
VERTEX
  5
179
330
173
100
AcDbEntity
  8
HILF
100
AcDbVertex
100
AcDb2dVertex
 10
679.4998861598603
 20
962.4303562180067
 30
0.0
 70
     8
  0
VERTEX
  5
17A
330
173
100
AcDbEntity
  8
HILF
100
AcDbVertex
100
AcDb2dVertex
 10
665.5623561773951
 20
961.5328066413239
 30
0.0
 70
     8
  0
VERTEX
  5
17B
330
173
100
AcDbEntity
  8
HILF
100
AcDbVertex
100
AcDb2dVertex
 10
653.4159259537646
 20
961.6937048380377
 30
0.0
 70
     8
  0
VERTEX
  5
17C
330
173
100
AcDbEntity
  8
HILF
100
AcDbVertex
100
AcDb2dVertex
 10
642.7238737868484
 20
962.6579077241546
 30
0.0
 70
     8
  0
VERTEX
  5
17D
330
173
100
AcDbEntity
  8
HILF
100
AcDbVertex
100
AcDb2dVertex
 10
633.149477974527
 20
964.1702722156798
 30
0.0
 70
     8
  0
VERTEX
  5
17E
330
173
100
AcDbEntity
  8
HILF
100
AcDbVertex
100
AcDb2dVertex
 10
624.3948815996588
 20
966.0118119617459
 30
0.0
 70
     8
  0
VERTEX
  5
17F
330
173
100
AcDbEntity
  8
HILF
100
AcDbVertex
100
AcDb2dVertex
 10
616.3176868850174
 20
968.1081675439882
 30
0.0
 70
     8
  0
VERTEX
  5
180
330
173
100
AcDbEntity
  8
HILF
100
AcDbVertex
100
AcDb2dVertex
 10
608.8143608383553
 20
970.4211362771683
 30
0.0
 70
     8
  0
VERTEX
  5
181
330
173
100
AcDbEntity
  8
HILF
100
AcDbVertex
100
AcDb2dVertex
 10
601.7813704674249
 20
972.9125154760474
 30
0.0
 70
     8
  0
VERTEX
  5
182
330
173
100
AcDbEntity
  8
HILF
100
AcDbVertex
100
AcDb2dVertex
 10
595.1151827799787
 20
975.5441024553872
 30
0.0
 70
     8
  0
VERTEX
  5
183
330
173
100
AcDbEntity
  8
HILF
100
AcDbVertex
100
AcDb2dVertex
 10
588.7122647837689
 20
978.2776945299493
 30
0.0
 70
     8
  0
VERTEX
  5
184
330
173
100
AcDbEntity
  8
HILF
100
AcDbVertex
100
AcDb2dVertex
 10
582.4690834865481
 20
981.0750890144952
 30
0.0
 70
     8
  0
VERTEX
  5
185
330
173
100
AcDbEntity
  8
HILF
100
AcDbVertex
100
AcDb2dVertex
 10
576.2821058960684
 20
983.8980832237862
 30
0.0
 70
     8
  0
VERTEX
  5
186
330
173
100
AcDbEntity
  8
HILF
100
AcDbVertex
100
AcDb2dVertex
 10
570.0460842644937
 20
986.7035514476004
 30
0.0
 70
     8
  0
VERTEX
  5
187
330
173
100
AcDbEntity
  8
HILF
100
AcDbVertex
100
AcDb2dVertex
 10
563.6489118216311
 20
989.4286758757838
 30
0.0
 70
     8
  0
VERTEX
  5
188
330
173
100
AcDbEntity
  8
HILF
100
AcDbVertex
100
AcDb2dVertex
 10
556.9767670416995
 20
992.0057156731981
 30
0.0
 70
     8
  0
VERTEX
  5
189
330
173
100
AcDbEntity
  8
HILF
100
AcDbVertex
100
AcDb2dVertex
 10
549.9158283989173
 20
994.3669300047055
 30
0.0
 70
     8
  0
VERTEX
  5
18A
330
173
100
AcDbEntity
  8
HILF
100
AcDbVertex
100
AcDb2dVertex
 10
542.3522743675034
 20
996.4445780351681
 30
0.0
 70
     8
  0
VERTEX
  5
18B
330
173
100
AcDbEntity
  8
HILF
100
AcDbVertex
100
AcDb2dVertex
 10
534.1722834216763
 20
998.1709189294484
 30
0.0
 70
     8
  0
VERTEX
  5
18C
330
173
100
AcDbEntity
  8
HILF
100
AcDbVertex
100
AcDb2dVertex
 10
525.2620340356543
 20
999.4782118524081
 30
0.0
 70
     8
  0
VERTEX
  5
18D
330
173
100
AcDbEntity
  8
HILF
100
AcDbVertex
100
AcDb2dVertex
 10
515.5077046836565
 20
1000.298715968909
 30
0.0
 70
     8
  0
VERTEX
  5
18E
330
173
100
AcDbEntity
  8
HILF
100
AcDbVertex
100
AcDb2dVertex
 10
504.8784188198263
 20
1000.565663963906
 30
0.0
 70
     8
  0
VERTEX
  5
18F
330
173
100
AcDbEntity
  8
HILF
100
AcDbVertex
100
AcDb2dVertex
 10
493.6750798180085
 20
1000.216182602716
 30
0.0
 70
     8
  0
VERTEX
  5
190
330
173
100
AcDbEntity
  8
HILF
100
AcDbVertex
100
AcDb2dVertex
 10
482.2815360319728
 20
999.1883721707489
 30
0.0
 70
     8
  0
VERTEX
  5
191
330
173
100
AcDbEntity
  8
HILF
100
AcDbVertex
100
AcDb2dVertex
 10
471.0816358154889
 20
997.4203329534143
 30
0.0
 70
     8
  0
VERTEX
  5
192
330
173
100
AcDbEntity
  8
HILF
100
AcDbVertex
100
AcDb2dVertex
 10
460.4592275223265
 20
994.8501652361212
 30
0.0
 70
     8
  0
VERTEX
  5
193
330
173
100
AcDbEntity
  8
HILF
100
AcDbVertex
100
AcDb2dVertex
 10
450.7981595062555
 20
991.4159693042794
 30
0.0
 70
     8
  0
VERTEX
  5
194
330
173
100
AcDbEntity
  8
HILF
100
AcDbVertex
100
AcDb2dVertex
 10
442.4822801210456
 20
987.0558454432986
 30
0.0
 70
     8
  0
VERTEX
  5
195
330
173
100
AcDbEntity
  8
HILF
100
AcDbVertex
100
AcDb2dVertex
 10
435.8954377204666
 20
981.7078939385879
 30
0.0
 70
     8
  0
VERTEX
  5
196
330
173
100
AcDbEntity
  8
HILF
100
AcDbVertex
100
AcDb2dVertex
 10
690.1610913470425
 20
958.2216825797555
 30
0.0
 70
    16
  0
VERTEX
  5
197
330
173
100
AcDbEntity
  8
HILF
100
AcDbVertex
100
AcDb2dVertex
 10
624.8195083481322
 20
961.0447413205898
 30
0.0
 70
    16
  0
VERTEX
  5
198
330
173
100
AcDbEntity
  8
HILF
100
AcDbVertex
100
AcDb2dVertex
 10
576.7869516081358
 20
984.0325148023813
 30
0.0
 70
    16
  0
VERTEX
  5
199
330
173
100
AcDbEntity
  8
HILF
100
AcDbVertex
100
AcDb2dVertex
 10
525.7253205957357
 20
1006.213698812601
 30
0.0
 70
    16
  0
VERTEX
  5
19A
330
173
100
AcDbEntity
  8
HILF
100
AcDbVertex
100
AcDb2dVertex
 10
450.8137696058187
 20
997.3412234446474
 30
0.0
 70
    16
  0
VERTEX
  5
19B
330
173
100
AcDbEntity
  8
HILF
100
AcDbVertex
100
AcDb2dVertex
 10
435.8954377204664
 20
981.7078939385879
 30
0.0
 70
    16
  0
SEQEND
  5
19C
330
173
100
AcDbEntity
  8
HILF
  0
LINE
  5
19D
330
20
100
AcDbEntity
  8
STEMPEL
100
AcDbLine
 10
759.8954377204664
 20
1428.644729703051
 30
0.0
 11
435.8954377204664
 21
1428.644729703051
 31
0.0
  0
POINT
  5
19E
330
20
100
AcDbEntity
  8
BEM
100
AcDbPoint
 10
435.8954377204664
 20
1428.644729703051
 30
0.0
  0
INSERT
  5
19F
330
20
100
AcDbEntity
  8
TEXT
100
AcDbBlockReference
  2
INDEX
 10
1050.0
 20
0.0
 30
0.0
 41
5.0
 42
5.0
 43
5.0
  0
LINE
  5
1A0
330
20
100
AcDbEntity
  8
HILF
100
AcDbLine
 10
1050.0
 20
-0.0000000000002842
 30
0.0
 11
1050.0
 21
1485.0
 31
0.0
  0
LINE
  5
1A1
330
20
100
AcDbEntity
  8
STEMPEL
100
AcDbLine
 10
1025.0
 20
25.0
 30
0.0
 11
1025.0
 21
1460.0
 31
0.0
  0
TEXT
  5
1A2
330
20
100
AcDbEntity
  8
TEXT
 62
     1
100
AcDbText
 10
860.785960302334
 20
220.372535722849
 30
0.0
 40
17.5
  1
01051300W
 41
0.8
  7
GREEKS
 72
     1
 11
918.1192936356675
 21
220.372535722849
 31
0.0
100
AcDbText
  0
LINE
  5
1A3
330
20
100
AcDbEntity
  8
HILF
100
AcDbLine
 10
841.8096540742482
 20
209.4495909238957
 30
0.0
 11
1012.147209831682
 21
209.4495909238957
 31
0.0
  0
LINE
  5
1A4
330
20
100
AcDbEntity
  8
VOLL
100
AcDbLine
 10
830.0
 20
150.0
 30
0.0
 11
1025.0
 21
150.0
 31
0.0
  0
LINE
  5
1A5
330
20
100
AcDbEntity
  8
STEMPEL
100
AcDbLine
 10
830.0
 20
274.9999999999994
 30
0.0
 11
830.0
 21
100.0
 31
0.0
  0
TEXT
  5
1A6
330
20
100
AcDbEntity
  8
TEXT
100
AcDbText
 10
843.1002153742515
 20
130.185404446965
 30
0.0
 40
12.5
  1
ersetzt durch:
 41
0.8
  7
GREEKS
100
AcDbText
  0
TEXT
  5
1A7
330
20
100
AcDbEntity
  8
TEXT
100
AcDbText
 10
841.8096540742482
 20
182.9529559274992
 30
0.0
 40
12.5
  1
Ersatz für:
 41
0.8
  7
GREEKS
100
AcDbText
  0
TEXT
  5
1A8
330
20
100
AcDbEntity
  8
TEXT
100
AcDbText
 10
840.4468873940851
 20
255.7830086342841
 30
0.0
 40
12.5
  1
Zeichnungs Nr.
 41
0.8
  7
GREEKS
100
AcDbText
  0
TEXT
  5
1AE
330
20
100
AcDbEntity
  8
TEXT
 62
     1
100
AcDbText
 10
587.3927025150237
 20
1004.94888924469
 30
0.0
 40
17.5
  1
DN300
 50
90.0
 41
0.8
  7
GREEKS
100
AcDbText
  0
TEXT
  5
1BD
330
20
100
AcDbEntity
  8
TEXT
100
AcDbText
 10
485.7147386835128
 20
221.3367050952018
 30
0.0
 40
10.0
  1
DIN EN1123-2
 41
0.8
  7
GREEKS
100
AcDbText
  0
ENDSEC
  0
SECTION
  2
OBJECTS
  0
DICTIONARY
  5
C
330
0
100
AcDbDictionary
281
     1
  3
ACAD_COLOR
350
1B
  3
ACAD_GROUP
350
D
  3
ACAD_LAYOUT
350
19
  3
ACAD_MATERIAL
350
1A
  3
ACAD_MLINESTYLE
350
16
  3
ACAD_PLOTSETTINGS
350
18
  3
ACAD_PLOTSTYLENAME
350
E
  3
AcDbVariableDictionary
350
245
  0
DICTIONARY
  5
1B
102
{ACAD_REACTORS
330
C
102
}
330
C
100
AcDbDictionary
281
     1
  0
DICTIONARY
  5
D
102
{ACAD_REACTORS
330
C
102
}
330
C
100
AcDbDictionary
281
     1
  0
DICTIONARY
  5
19
102
{ACAD_REACTORS
330
C
102
}
330
C
100
AcDbDictionary
281
     1
  3
Layout1
350
1F
  3
Model
350
23
  0
DICTIONARY
  5
1A
102
{ACAD_REACTORS
330
C
102
}
330
C
100
AcDbDictionary
281
     1
  0
DICTIONARY
  5
16
102
{ACAD_REACTORS
330
C
102
}
330
C
100
AcDbDictionary
281
     1
  3
Standard
350
17
  0
DICTIONARY
  5
18
102
{ACAD_REACTORS
330
C
102
}
330
C
100
AcDbDictionary
281
     1
  0
ACDBDICTIONARYWDFLT
  5
E
102
{ACAD_REACTORS
330
C
102
}
330
C
100
AcDbDictionary
281
     1
  3
Normal
350
F
100
AcDbDictionaryWithDefault
340
F
  0
DICTIONARY
  5
245
102
{ACAD_REACTORS
330
C
102
}
330
C
100
AcDbDictionary
281
     1
  3
DIMASSOC
350
247
  3
HIDETEXT
350
246
  3
PROJECTNAME
350
248
  0
LAYOUT
  5
1F
102
{ACAD_REACTORS
330
19
102
}
330
19
100
AcDbPlotSettings
  1

  2
RICOH Aficio 2027 PCL 6
  4

  6

 40
0.0
 41
0.0
 42
0.0
 43
0.0
 44
0.0
 45
0.0
 46
0.0
 47
0.0
 48
0.0
 49
0.0
140
0.0
141
0.0
142
1.0
143
1.0
 70
   688
 72
     0
 73
     0
 74
     5
  7
monochrome1.ctb
 75
    16
147
1.0
 76
     0
 77
     2
 78
   300
148
0.0
149
0.0
100
AcDbLayout
  1
Layout1
 70
     0
 71
     1
 10
0.0
 20
0.0
 11
12.0
 21
9.0
 12
505.9584234694711
 22
50.00000000000001
 32
184.9756737725959
 14
1.000000000000000E+20
 24
1.000000000000000E+20
 34
1.000000000000000E+20
 15
-1.000000000000000E+20
 25
-1.000000000000000E+20
 35
-1.000000000000000E+20
146
0.0
 13
0.0
 23
0.0
 33
0.0
 16
1.0
 26
0.0
 36
0.0
 17
0.0
 27
1.0
 37
0.0
 76
     0
330
1C
  0
LAYOUT
  5
23
102
{ACAD_REACTORS
330
19
102
}
330
19
100
AcDbPlotSettings
  1

  2
none_device
  4
Letter_(8.50_x_11.00_Inches)
  6

 40
6.349999904632568
 41
6.349999904632568
 42
6.350006103515625
 43
6.350006103515625
 44
215.8999938964844
 45
279.3999938964844
 46
0.0
 47
0.0
 48
0.0
 49
0.0
140
0.0
141
0.0
142
1.0
143
1.0
 70
 11952
 72
     0
 73
     1
 74
     0
  7
monochrome1.ctb
 75
     0
147
1.0
 76
     0
 77
     2
 78
   300
148
5679.118165486044
149
154.6181140335286
100
AcDbLayout
  1
Model
 70
     1
 71
     0
 10
0.0
 20
0.0
 11
12.0
 21
9.0
 12
0.0
 22
0.0
 32
0.0
 14
0.0
 24
0.0
 34
0.0
 15
0.0
 25
0.0
 35
0.0
146
0.0
 13
0.0
 23
0.0
 33
0.0
 16
1.0
 26
0.0
 36
0.0
 17
0.0
 27
1.0
 37
0.0
 76
     0
330
20
  0
MLINESTYLE
  5
17
102
{ACAD_REACTORS
330
16
102
}
330
16
100
AcDbMlineStyle
  2
STANDARD
 70
     0
  3

 62
   256
 51
90.0
 52
90.0
 71
     2
 49
0.5
 62
   256
  6
BYLAYER
 49
-0.5
 62
   256
  6
BYLAYER
  0
ACDBPLACEHOLDER
  5
F
102
{ACAD_REACTORS
330
E
102
}
330
E
  0
DICTIONARYVAR
  5
247
102
{ACAD_REACTORS
330
245
102
}
330
245
100
DictionaryVariables
280
     0
  1
2
  0
DICTIONARYVAR
  5
246
102
{ACAD_REACTORS
330
245
102
}
330
245
100
DictionaryVariables
280
     0
  1
1
  0
DICTIONARYVAR
  5
248
102
{ACAD_REACTORS
330
245
102
}
330
245
100
DictionaryVariables
280
     0
  1

  0
ENDSEC
  0
EOF
