  0
SECTION
  2
HEADER
  9
$ACADVER
  1
AC1018
  9
$ACADMAINTVER
 70
     2
  9
$DWGCODEPAGE
  3
ANSI_1252
  9
$INSBASE
 10
0.0
 20
0.0
 30
0.0
  9
$EXTMIN
 10
-0.0640839803227209
 20
-0.0906330578841335
 30
-0.0000000349181948
  9
$EXTMAX
 10
1050.064093759506
 20
1485.090646888447
 30
0.0000000814935746
  9
$LIMMIN
 10
0.0
 20
0.0
  9
$LIMMAX
 10
1050.0
 20
1485.0
  9
$ORTHOMODE
 70
     0
  9
$REGENMODE
 70
     1
  9
$FILLMODE
 70
     1
  9
$QTEXTMODE
 70
     0
  9
$MIRRTEXT
 70
     1
  9
$LTSCALE
 40
50.0
  9
$ATTMODE
 70
     1
  9
$TEXTSIZE
 40
2.5
  9
$TRACEWID
 40
0.5
  9
$TEXTSTYLE
  7
GREEKS
  9
$CLAYER
  8
SCHRAFF
  9
$CELTYPE
  6
ByLayer
  9
$CECOLOR
 62
   256
  9
$CELTSCALE
 40
1.0
  9
$DISPSILH
 70
     0
  9
$DIMSCALE
 40
5.0
  9
$DIMASZ
 40
3.5
  9
$DIMEXO
 40
1.0
  9
$DIMDLI
 40
7.0
  9
$DIMRND
 40
0.0
  9
$DIMDLE
 40
0.0
  9
$DIMEXE
 40
1.0
  9
$DIMTP
 40
0.8
  9
$DIMTM
 40
0.8
  9
$DIMTXT
 40
3.5
  9
$DIMCEN
 40
1.5
  9
$DIMTSZ
 40
0.0
  9
$DIMTOL
 70
     0
  9
$DIMLIM
 70
     0
  9
$DIMTIH
 70
     0
  9
$DIMTOH
 70
     0
  9
$DIMSE1
 70
     0
  9
$DIMSE2
 70
     0
  9
$DIMTAD
 70
     1
  9
$DIMZIN
 70
     8
  9
$DIMBLK
  1

  9
$DIMASO
 70
     1
  9
$DIMSHO
 70
     0
  9
$DIMPOST
  1

  9
$DIMAPOST
  1

  9
$DIMALT
 70
     0
  9
$DIMALTD
 70
     2
  9
$DIMALTF
 40
25.4
  9
$DIMLFAC
 40
1.0
  9
$DIMTOFL
 70
     1
  9
$DIMTVP
 40
0.0
  9
$DIMTIX
 70
     0
  9
$DIMSOXD
 70
     0
  9
$DIMSAH
 70
     0
  9
$DIMBLK1
  1

  9
$DIMBLK2
  1

  9
$DIMSTYLE
  2
STANDARD
  9
$DIMCLRD
 70
     0
  9
$DIMCLRE
 70
     0
  9
$DIMCLRT
 70
     1
  9
$DIMTFAC
 40
1.0
  9
$DIMGAP
 40
1.5
  9
$DIMJUST
 70
     0
  9
$DIMSD1
 70
     0
  9
$DIMSD2
 70
     0
  9
$DIMTOLJ
 70
     1
  9
$DIMTZIN
 70
     8
  9
$DIMALTZ
 70
     8
  9
$DIMALTTZ
 70
     8
  9
$DIMUPT
 70
     0
  9
$DIMDEC
 70
     2
  9
$DIMTDEC
 70
     2
  9
$DIMALTU
 70
     2
  9
$DIMALTTD
 70
     2
  9
$DIMTXSTY
  7
GREEKS
  9
$DIMAUNIT
 70
     0
  9
$DIMADEC
 70
     2
  9
$DIMALTRND
 40
0.0
  9
$DIMAZIN
 70
     2
  9
$DIMDSEP
 70
    46
  9
$DIMATFIT
 70
     3
  9
$DIMFRAC
 70
     0
  9
$DIMLDRBLK
  1

  9
$DIMLUNIT
 70
     2
  9
$DIMLWD
 70
    -2
  9
$DIMLWE
 70
    -2
  9
$DIMTMOVE
 70
     0
  9
$LUNITS
 70
     2
  9
$LUPREC
 70
     2
  9
$SKETCHINC
 40
1.0
  9
$FILLETRAD
 40
0.0
  9
$AUNITS
 70
     0
  9
$AUPREC
 70
     0
  9
$MENU
  1
ACAD
  9
$ELEVATION
 40
0.0
  9
$PELEVATION
 40
0.0
  9
$THICKNESS
 40
0.0
  9
$LIMCHECK
 70
     0
  9
$CHAMFERA
 40
0.0
  9
$CHAMFERB
 40
0.0
  9
$CHAMFERC
 40
0.0
  9
$CHAMFERD
 40
0.0
  9
$SKPOLY
 70
     0
  9
$TDCREATE
 40
2452227.359930440
  9
$TDUCREATE
 40
2452227.276597106
  9
$TDUPDATE
 40
2455453.412865510
  9
$TDUUPDATE
 40
2455453.329532176
  9
$TDINDWG
 40
0.0239093519
  9
$TDUSRTIMER
 40
0.0239093519
  9
$USRTIMER
 70
     1
  9
$ANGBASE
 50
0.0
  9
$ANGDIR
 70
     0
  9
$PDMODE
 70
     0
  9
$PDSIZE
 40
0.0
  9
$PLINEWID
 40
0.0
  9
$SPLFRAME
 70
     0
  9
$SPLINETYPE
 70
     6
  9
$SPLINESEGS
 70
     8
  9
$HANDSEED
  5
94A
  9
$SURFTAB1
 70
     6
  9
$SURFTAB2
 70
     6
  9
$SURFTYPE
 70
     6
  9
$SURFU
 70
     6
  9
$SURFV
 70
     6
  9
$UCSBASE
  2

  9
$UCSNAME
  2

  9
$UCSORG
 10
0.0
 20
0.0
 30
0.0
  9
$UCSXDIR
 10
1.0
 20
0.0
 30
0.0
  9
$UCSYDIR
 10
0.0
 20
1.0
 30
0.0
  9
$UCSORTHOREF
  2

  9
$UCSORTHOVIEW
 70
     0
  9
$UCSORGTOP
 10
0.0
 20
0.0
 30
0.0
  9
$UCSORGBOTTOM
 10
0.0
 20
0.0
 30
0.0
  9
$UCSORGLEFT
 10
0.0
 20
0.0
 30
0.0
  9
$UCSORGRIGHT
 10
0.0
 20
0.0
 30
0.0
  9
$UCSORGFRONT
 10
0.0
 20
0.0
 30
0.0
  9
$UCSORGBACK
 10
0.0
 20
0.0
 30
0.0
  9
$PUCSBASE
  2

  9
$PUCSNAME
  2

  9
$PUCSORG
 10
0.0
 20
0.0
 30
0.0
  9
$PUCSXDIR
 10
1.0
 20
0.0
 30
0.0
  9
$PUCSYDIR
 10
0.0
 20
1.0
 30
0.0
  9
$PUCSORTHOREF
  2

  9
$PUCSORTHOVIEW
 70
     0
  9
$PUCSORGTOP
 10
0.0
 20
0.0
 30
0.0
  9
$PUCSORGBOTTOM
 10
0.0
 20
0.0
 30
0.0
  9
$PUCSORGLEFT
 10
0.0
 20
0.0
 30
0.0
  9
$PUCSORGRIGHT
 10
0.0
 20
0.0
 30
0.0
  9
$PUCSORGFRONT
 10
0.0
 20
0.0
 30
0.0
  9
$PUCSORGBACK
 10
0.0
 20
0.0
 30
0.0
  9
$USERI1
 70
     0
  9
$USERI2
 70
     0
  9
$USERI3
 70
     0
  9
$USERI4
 70
     0
  9
$USERI5
 70
     0
  9
$USERR1
 40
0.0
  9
$USERR2
 40
0.0
  9
$USERR3
 40
0.0
  9
$USERR4
 40
0.0
  9
$USERR5
 40
0.0
  9
$WORLDVIEW
 70
     1
  9
$SHADEDGE
 70
     3
  9
$SHADEDIF
 70
    70
  9
$TILEMODE
 70
     1
  9
$MAXACTVP
 70
    16
  9
$PINSBASE
 10
0.0
 20
0.0
 30
0.0
  9
$PLIMCHECK
 70
     0
  9
$PEXTMIN
 10
1.000000000000000E+20
 20
1.000000000000000E+20
 30
1.000000000000000E+20
  9
$PEXTMAX
 10
-1.000000000000000E+20
 20
-1.000000000000000E+20
 30
-1.000000000000000E+20
  9
$PLIMMIN
 10
0.0
 20
0.0
  9
$PLIMMAX
 10
12.0
 20
9.0
  9
$UNITMODE
 70
     0
  9
$VISRETAIN
 70
     0
  9
$PLINEGEN
 70
     0
  9
$PSLTSCALE
 70
     0
  9
$TREEDEPTH
 70
  3020
  9
$CMLSTYLE
  2
Standard
  9
$CMLJUST
 70
     0
  9
$CMLSCALE
 40
1.0
  9
$PROXYGRAPHICS
 70
     1
  9
$MEASUREMENT
 70
     0
  9
$CELWEIGHT
370
    -1
  9
$ENDCAPS
280
     0
  9
$JOINSTYLE
280
     0
  9
$LWDISPLAY
290
     0
  9
$INSUNITS
 70
     0
  9
$HYPERLINKBASE
  1

  9
$STYLESHEET
  1
monochrome 1.ctb
  9
$XEDIT
290
     1
  9
$CEPSNTYPE
380
     0
  9
$PSTYLEMODE
290
     1
  9
$FINGERPRINTGUID
  2
{8AF8D59D-FBF1-4B4F-BCB9-59A4C1DC72ED}
  9
$VERSIONGUID
  2
{5CC1A633-39A5-4757-B4D2-67FECAEF5BF3}
  9
$EXTNAMES
290
     1
  9
$PSVPSCALE
 40
0.0
  9
$OLESTARTUP
290
     0
  9
$SORTENTS
280
   127
  9
$INDEXCTL
280
     0
  9
$HIDETEXT
280
     1
  9
$XCLIPFRAME
290
     0
  9
$HALOGAP
280
     0
  9
$OBSCOLOR
 70
   257
  9
$OBSLTYPE
280
     0
  9
$INTERSECTIONDISPLAY
280
     0
  9
$INTERSECTIONCOLOR
 70
   257
  9
$DIMASSOC
280
     2
  9
$PROJECTNAME
  1

  0
ENDSEC
  0
SECTION
  2
CLASSES
  0
CLASS
  1
ACDBDICTIONARYWDFLT
  2
AcDbDictionaryWithDefault
  3
ObjectDBX Classes
 90
        0
 91
        1
280
     0
281
     0
  0
CLASS
  1
DICTIONARYVAR
  2
AcDbDictionaryVar
  3
ObjectDBX Classes
 90
        0
 91
        3
280
     0
281
     0
  0
ENDSEC
  0
SECTION
  2
TABLES
  0
TABLE
  2
VPORT
  5
5AA
330
0
100
AcDbSymbolTable
 70
     2
  0
VPORT
  5
949
330
5AA
100
AcDbSymbolTableRecord
100
AcDbViewportTableRecord
  2
*Active
 70
     0
 10
0.0
 20
0.0
 11
1.0
 21
1.0
 12
525.0000048895919
 22
742.5000069152814
 13
0.0
 23
0.0
 14
1.0
 24
1.0
 15
10.0
 25
10.0
 16
0.0
 26
0.0
 36
1.0
 17
0.0
 27
0.0
 37
0.0
 40
1497.174668478872
 41
1.336927223719676
 42
50.0
 43
0.0
 44
0.0
 50
0.0
 51
0.0
 71
     0
 72
  1500
 73
     1
 74
     0
 75
     0
 76
     0
 77
     0
 78
     0
281
     0
 65
     1
110
0.0
120
0.0
130
0.0
111
1.0
121
0.0
131
0.0
112
0.0
122
1.0
132
0.0
 79
     0
146
0.0
  0
ENDTAB
  0
TABLE
  2
LTYPE
  5
5A7
330
0
100
AcDbSymbolTable
 70
     3
  0
LTYPE
  5
5B5
330
5A7
100
AcDbSymbolTableRecord
100
AcDbLinetypeTableRecord
  2
ByBlock
 70
     0
  3

 72
    65
 73
     0
 40
0.0
  0
LTYPE
  5
5B6
330
5A7
100
AcDbSymbolTableRecord
100
AcDbLinetypeTableRecord
  2
ByLayer
 70
     0
  3

 72
    65
 73
     0
 40
0.0
  0
LTYPE
  5
5B7
330
5A7
100
AcDbSymbolTableRecord
100
AcDbLinetypeTableRecord
  2
AUSGEZOGEN
 70
     0
  3
Ausgezogene Linie
 72
    65
 73
     0
 40
0.0
  0
LTYPE
  5
5CE
330
5A7
100
AcDbSymbolTableRecord
100
AcDbLinetypeTableRecord
  2
STRICHPUNKT
 70
     0
  3
__ . __ . __ . __ . __ . __ . __ . __ . __ . __
 72
    65
 73
     4
 40
1.0
 49
0.5
 74
     0
 49
-0.25
 74
     0
 49
0.0
 74
     0
 49
-0.25
 74
     0
  0
LTYPE
  5
5CF
330
5A7
100
AcDbSymbolTableRecord
100
AcDbLinetypeTableRecord
  2
CONTINUOUS
 70
     0
  3
Solid line
 72
    65
 73
     0
 40
0.0
  0
ENDTAB
  0
TABLE
  2
LAYER
  5
5A4
330
0
100
AcDbSymbolTable
 70
     9
  0
LAYER
  5
5B2
330
5A4
100
AcDbSymbolTableRecord
100
AcDbLayerTableRecord
  2
0
 70
     0
 62
     7
  6
AUSGEZOGEN
370
    -3
390
5B1
  0
LAYER
  5
5D3
330
5A4
100
AcDbSymbolTableRecord
100
AcDbLayerTableRecord
  2
VOLL
 70
     0
 62
     1
  6
AUSGEZOGEN
370
    -3
390
5B1
  0
LAYER
  5
5D4
330
5A4
100
AcDbSymbolTableRecord
100
AcDbLayerTableRecord
  2
HILF
 70
     0
 62
     2
  6
AUSGEZOGEN
370
    -3
390
5B1
  0
LAYER
  5
5D5
330
5A4
100
AcDbSymbolTableRecord
100
AcDbLayerTableRecord
  2
MITTEL
 70
     0
 62
     2
  6
STRICHPUNKT
370
    -3
390
5B1
  0
LAYER
  5
5D6
330
5A4
100
AcDbSymbolTableRecord
100
AcDbLayerTableRecord
  2
BEM
 70
     0
 62
     7
  6
AUSGEZOGEN
370
    -3
390
5B1
  0
LAYER
  5
5D7
330
5A4
100
AcDbSymbolTableRecord
100
AcDbLayerTableRecord
  2
STEMPEL
 70
     0
 62
     3
  6
AUSGEZOGEN
370
    -3
390
5B1
  0
LAYER
  5
5D8
330
5A4
100
AcDbSymbolTableRecord
100
AcDbLayerTableRecord
  2
TEXT
 70
     0
 62
     7
  6
AUSGEZOGEN
370
    -3
390
5B1
  0
LAYER
  5
5D9
330
5A4
100
AcDbSymbolTableRecord
100
AcDbLayerTableRecord
  2
DEFPOINTS
 70
     0
 62
     7
  6
AUSGEZOGEN
290
     0
370
    -3
390
5B1
  0
LAYER
  5
5DA
330
5A4
100
AcDbSymbolTableRecord
100
AcDbLayerTableRecord
  2
SCHRAFF
 70
     0
 62
     7
  6
AUSGEZOGEN
370
    -3
390
5B1
  0
ENDTAB
  0
TABLE
  2
STYLE
  5
5A5
330
0
100
AcDbSymbolTable
 70
     2
  0
STYLE
  5
5B3
330
5A5
100
AcDbSymbolTableRecord
100
AcDbTextStyleTableRecord
  2
STANDARD
 70
     0
 40
0.0
 41
1.0
 50
0.0
 71
     0
 42
3.5
  3
txt
  4

  0
STYLE
  5
5CD
330
5A5
100
AcDbSymbolTableRecord
100
AcDbTextStyleTableRecord
  2
GREEKS
 70
     0
 40
0.0
 41
0.8
 50
0.0
 71
     0
 42
2.5
  3
SIMPLEX.shx
  4

  0
ENDTAB
  0
TABLE
  2
VIEW
  5
5A8
330
0
100
AcDbSymbolTable
 70
     0
  0
ENDTAB
  0
TABLE
  2
UCS
  5
5A9
330
0
100
AcDbSymbolTable
 70
     0
  0
ENDTAB
  0
TABLE
  2
APPID
  5
5AB
330
0
100
AcDbSymbolTable
 70
     1
  0
APPID
  5
5B4
330
5AB
100
AcDbSymbolTableRecord
100
AcDbRegAppTableRecord
  2
ACAD
 70
     0
  0
ENDTAB
  0
TABLE
  2
DIMSTYLE
  5
5AC
330
0
100
AcDbSymbolTable
 70
     1
100
AcDbDimStyleTable
 71
     1
340
5D2
  0
DIMSTYLE
105
5D2
102
{ACAD_REACTORS
330
7D1
330
7D7
330
7D8
102
}
330
5AC
100
AcDbSymbolTableRecord
100
AcDbDimStyleTableRecord
  2
STANDARD
 70
     0
 40
5.0
 41
3.5
 42
1.0
 43
7.0
 44
1.0
 47
0.8
 48
0.8
 73
     0
 74
     0
 77
     1
 78
     8
 79
     2
140
3.5
141
1.5
147
1.5
172
     1
178
     1
179
     2
271
     2
272
     2
284
     8
285
     8
286
     8
340
5CD
  0
ENDTAB
  0
TABLE
  2
BLOCK_RECORD
  5
5A3
330
0
100
AcDbSymbolTable
 70
     4
  0
BLOCK_RECORD
  5
5C2
330
5A3
100
AcDbSymbolTableRecord
100
AcDbBlockTableRecord
  2
*Model_Space
340
5C5
  0
BLOCK_RECORD
  5
5BE
330
5A3
100
AcDbSymbolTableRecord
100
AcDbBlockTableRecord
  2
*Paper_Space
340
5C1
  0
BLOCK_RECORD
  5
5C6
330
5A3
100
AcDbSymbolTableRecord
100
AcDbBlockTableRecord
  2
LOGO
340
0
102
{BLKREFS
331
4EA
102
}
  0
BLOCK_RECORD
  5
7D9
330
5A3
100
AcDbSymbolTableRecord
100
AcDbBlockTableRecord
  2
*D1
340
0
  0
BLOCK_RECORD
  5
7E5
330
5A3
100
AcDbSymbolTableRecord
100
AcDbBlockTableRecord
  2
*D2
340
0
  0
BLOCK_RECORD
  5
7F1
330
5A3
100
AcDbSymbolTableRecord
100
AcDbBlockTableRecord
  2
*D3
340
0
  0
ENDTAB
  0
ENDSEC
  0
SECTION
  2
BLOCKS
  0
BLOCK
  5
5DD
330
5C2
100
AcDbEntity
  8
0
100
AcDbBlockBegin
  2
*Model_Space
 70
     0
 10
0.0
 20
0.0
 30
0.0
  3
*Model_Space
  1

  0
ENDBLK
  5
5DE
330
5C2
100
AcDbEntity
  8
0
100
AcDbBlockEnd
  0
BLOCK
  5
5DB
330
5BE
100
AcDbEntity
 67
     1
  8
0
100
AcDbBlockBegin
  2
*Paper_Space
 70
     0
 10
0.0
 20
0.0
 30
0.0
  3
*Paper_Space
  1

  0
ENDBLK
  5
5DC
330
5BE
100
AcDbEntity
 67
     1
  8
0
100
AcDbBlockEnd
  0
BLOCK
  5
39
330
5C6
100
AcDbEntity
  8
0
100
AcDbBlockBegin
  2
LOGO
 70
     0
 10
0.0
 20
0.0
 30
0.0
  3
LOGO
  1

  0
ARC
  5
3A
330
5C6
100
AcDbEntity
  8
0
100
AcDbCircle
 10
11.59973089678112
 20
-9.271599258481501
 30
0.0
 40
4.5
100
AcDbArc
 50
270.0
 51
231.0575587310159
  0
LINE
  5
3B
330
5C6
100
AcDbEntity
  8
0
100
AcDbLine
 10
3.599730896781125
 20
-4.771599258481529
 30
0.0
 11
3.599730896781153
 21
-11.77159925848133
 31
0.0
  0
LINE
  5
3C
330
5C6
100
AcDbEntity
  8
0
100
AcDbLine
 10
2.599730896781125
 20
-4.771599258481529
 30
0.0
 11
2.599730896781153
 21
-11.77159925848133
 31
0.0
  0
CIRCLE
  5
3D
330
5C6
100
AcDbEntity
  8
0
100
AcDbCircle
 10
11.59973089678112
 20
-9.271599258481501
 30
0.0
 40
3.5
  0
ARC
  5
3E
330
5C6
100
AcDbEntity
  8
0
100
AcDbCircle
 10
31.59973089678115
 20
-9.271599258481472
 30
0.0
 40
4.5
100
AcDbArc
 50
270.0
 51
231.0575587310182
  0
LINE
  5
3F
330
5C6
100
AcDbEntity
  8
0
100
AcDbLine
 10
17.59973089678112
 20
-4.771599258481472
 30
0.0
 11
17.59973089678115
 21
-13.77159925848147
 31
0.0
  0
ARC
  5
40
330
5C6
100
AcDbEntity
  8
0
100
AcDbCircle
 10
22.59973089678116
 20
-7.271599258481472
 30
0.0
 40
2.5
100
AcDbArc
 50
293.1161887722295
 51
90.0
  0
CIRCLE
  5
41
330
5C6
100
AcDbEntity
  8
0
100
AcDbCircle
 10
31.59973089678115
 20
-9.271599258481472
 30
0.0
 40
3.5
  0
ARC
  5
42
330
5C6
100
AcDbEntity
  8
0
100
AcDbCircle
 10
4.599730896781153
 20
-11.77159925848133
 30
0.0
 40
1.0
100
AcDbArc
 50
180.0
 51
270.0
  0
ARC
  5
43
330
5C6
100
AcDbEntity
  8
0
100
AcDbCircle
 10
4.599730896781153
 20
-11.77159925848133
 30
0.0
 40
2.0
100
AcDbArc
 50
179.9999999999992
 51
270.0
  0
LINE
  5
44
330
5C6
100
AcDbEntity
  8
0
100
AcDbLine
 10
11.59973089678115
 20
-13.77159925848144
 30
0.0
 11
4.599730896781153
 21
-13.77159925848147
 31
0.0
  0
LINE
  5
45
330
5C6
100
AcDbEntity
  8
0
100
AcDbLine
 10
8.771303772034769
 20
-12.77159925848136
 30
0.0
 11
4.599730896781153
 21
-12.77159925848133
 31
0.0
  0
LINE
  5
46
330
5C6
100
AcDbEntity
  8
0
100
AcDbLine
 10
31.59973089678115
 20
-13.77159925848147
 30
0.0
 11
23.6715276665056
 21
-13.77159925848144
 31
0.0
  0
LINE
  5
47
330
5C6
100
AcDbEntity
  8
0
100
AcDbLine
 10
23.56565672307022
 20
-9.51278021337896
 30
0.0
 11
24.4388546544846
 21
-12.77159925848144
 31
0.0
  0
LINE
  5
48
330
5C6
100
AcDbEntity
  8
0
100
AcDbLine
 10
22.59973089678116
 20
-9.771599258481472
 30
0.0
 11
18.59973089678112
 21
-9.771599258481472
 31
0.0
  0
LINE
  5
49
330
5C6
100
AcDbEntity
  8
0
100
AcDbLine
 10
18.59973089678115
 20
-13.77159925848144
 30
0.0
 11
17.59973089678115
 21
-13.77159925848144
 31
0.0
  0
LINE
  5
4A
330
5C6
100
AcDbEntity
  8
0
100
AcDbLine
 10
18.59973089678115
 20
-9.771599258481472
 30
0.0
 11
18.59973089678115
 21
-13.77159925848144
 31
0.0
  0
LINE
  5
4B
330
5C6
100
AcDbEntity
  8
0
100
AcDbLine
 10
22.59973089678116
 20
-9.771599258481472
 30
0.0
 11
23.67152766650562
 21
-13.77159925848147
 31
0.0
  0
ARC
  5
4C
330
5C6
100
AcDbEntity
  8
0
100
AcDbCircle
 10
22.59973089678116
 20
-7.271599258481472
 30
0.0
 40
2.5
100
AcDbArc
 50
270.0
 51
270.0000000000007
  0
LINE
  5
4D
330
5C6
100
AcDbEntity
  8
0
100
AcDbLine
 10
28.77130377203494
 20
-12.77159925848147
 30
0.0
 11
24.43885465448463
 21
-12.77159925848144
 31
0.0
  0
LINE
  5
4E
330
5C6
100
AcDbEntity
  8
0
100
AcDbLine
 10
3.599730896781125
 20
-4.771599258481472
 30
0.0
 11
2.599730896781125
 21
-4.771599258481472
 31
0.0
  0
LINE
  5
4F
330
5C6
100
AcDbEntity
  8
0
100
AcDbLine
 10
22.59973089678116
 20
-8.771599258481472
 30
0.0
 11
18.59973089678115
 21
-8.771599258481472
 31
0.0
  0
LINE
  5
50
330
5C6
100
AcDbEntity
  8
0
100
AcDbLine
 10
22.59973089678116
 20
-5.771599258481472
 30
0.0
 11
18.59973089678115
 21
-5.771599258481472
 31
0.0
  0
LINE
  5
51
330
5C6
100
AcDbEntity
  8
0
100
AcDbLine
 10
22.59973089678116
 20
-4.771599258481472
 30
0.0
 11
17.59973089678115
 21
-4.771599258481472
 31
0.0
  0
LINE
  5
52
330
5C6
100
AcDbEntity
  8
0
100
AcDbLine
 10
18.59973089678115
 20
-5.771599258481472
 30
0.0
 11
18.59973089678115
 21
-8.771599258481472
 31
0.0
  0
ARC
  5
53
330
5C6
100
AcDbEntity
  8
0
100
AcDbCircle
 10
22.59973089678116
 20
-7.271599258481472
 30
0.0
 40
1.5
100
AcDbArc
 50
270.0
 51
90.0
  0
ENDBLK
  5
54
330
5C6
100
AcDbEntity
  8
0
100
AcDbBlockEnd
  0
BLOCK
  5
7E3
330
7D9
100
AcDbEntity
  8
0
100
AcDbBlockBegin
  2
*D1
 70
     1
 10
0.0
 20
0.0
 30
0.0
  3
*D1
  1

  0
LINE
  5
930
330
7D9
100
AcDbEntity
  8
SCHRAFF
 62
     0
370
    -2
100
AcDbLine
 10
727.5095156062173
 20
520.4086582962725
 30
0.0
 11
727.5095156062173
 21
427.0743779443613
 31
0.0
  0
LINE
  5
931
330
7D9
100
AcDbEntity
  8
SCHRAFF
 62
     0
370
    -2
100
AcDbLine
 10
403.5095156062172
 20
520.4086582962725
 30
0.0
 11
403.5095156062172
 21
427.0743779443613
 31
0.0
  0
LINE
  5
932
330
7D9
100
AcDbEntity
  8
SCHRAFF
 62
     0
370
    -2
100
AcDbLine
 10
710.0095156062173
 20
432.0743779443613
 30
0.0
 11
421.0095156062171
 21
432.0743779443613
 31
0.0
  0
SOLID
  5
933
330
7D9
100
AcDbEntity
  8
SCHRAFF
 62
     0
100
AcDbTrace
 10
710.0095156062173
 20
434.991044611028
 30
0.0
 11
710.0095156062173
 21
429.1577112776947
 31
0.0
 12
727.5095156062173
 22
432.0743779443613
 32
0.0
 13
727.5095156062173
 23
432.0743779443613
 33
0.0
  0
SOLID
  5
934
330
7D9
100
AcDbEntity
  8
SCHRAFF
 62
     0
100
AcDbTrace
 10
421.0095156062171
 20
434.991044611028
 30
0.0
 11
421.0095156062171
 21
429.1577112776947
 31
0.0
 12
403.5095156062172
 22
432.0743779443613
 32
0.0
 13
403.5095156062172
 23
432.0743779443613
 33
0.0
  0
MTEXT
  5
935
330
7D9
100
AcDbEntity
  8
SCHRAFF
 62
     1
100
AcDbMText
 10
565.5095156062173
 20
448.3243779443613
 30
0.0
 40
17.5
 41
0.0
 71
     5
 72
     1
  1
\A1;%%c324
  7
GREEKS
 73
     1
 44
1.0
  0
POINT
  5
936
330
7D9
100
AcDbEntity
  8
DEFPOINTS
 62
     0
100
AcDbPoint
 10
727.5095156062173
 20
525.4086582962725
 30
0.0
  0
POINT
  5
937
330
7D9
100
AcDbEntity
  8
DEFPOINTS
 62
     0
100
AcDbPoint
 10
403.5095156062172
 20
525.4086582962725
 30
0.0
  0
POINT
  5
938
330
7D9
100
AcDbEntity
  8
DEFPOINTS
 62
     0
100
AcDbPoint
 10
403.5095156062172
 20
432.0743779443613
 30
0.0
  0
ENDBLK
  5
7E4
330
7D9
100
AcDbEntity
  8
0
100
AcDbBlockEnd
  0
BLOCK
  5
7EF
330
7E5
100
AcDbEntity
  8
0
100
AcDbBlockBegin
  2
*D2
 70
     1
 10
0.0
 20
0.0
 30
0.0
  3
*D2
  1

  0
LINE
  5
8F8
330
7E5
100
AcDbEntity
  8
BEM
 62
     0
370
    -2
100
AcDbLine
 10
398.5095156062172
 20
525.4086582962725
 30
0.0
 11
343.70000055595
 21
525.4086582962725
 31
0.0
  0
LINE
  5
8F9
330
7E5
100
AcDbEntity
  8
BEM
 62
     0
370
    -2
100
AcDbLine
 10
398.5095156062172
 20
1419.282329825198
 30
0.0
 11
343.7000005559502
 21
1419.282329825198
 31
0.0
  0
LINE
  5
8FA
330
7E5
100
AcDbEntity
  8
BEM
 62
     0
370
    -2
100
AcDbLine
 10
348.70000055595
 20
542.9086582962725
 30
0.0
 11
348.7000005559502
 21
1401.782329825198
 31
0.0
  0
SOLID
  5
8FB
330
7E5
100
AcDbEntity
  8
BEM
 62
     0
100
AcDbTrace
 10
345.7833338892833
 20
542.9086582962725
 30
0.0
 11
351.6166672226167
 21
542.9086582962725
 31
0.0
 12
348.70000055595
 22
525.4086582962725
 32
0.0
 13
348.70000055595
 23
525.4086582962725
 33
0.0
  0
SOLID
  5
8FC
330
7E5
100
AcDbEntity
  8
BEM
 62
     0
100
AcDbTrace
 10
345.7833338892835
 20
1401.782329825198
 30
0.0
 11
351.6166672226169
 21
1401.782329825198
 31
0.0
 12
348.7000005559502
 22
1419.282329825198
 32
0.0
 13
348.7000005559502
 23
1419.282329825198
 33
0.0
  0
MTEXT
  5
8FD
330
7E5
100
AcDbEntity
  8
BEM
 62
     1
100
AcDbMText
 10
332.4500005559499
 20
972.3454940607355
 30
0.0
 40
17.5
 41
0.0
 71
     5
 72
     1
  1
\A1;3000
  7
GREEKS
 11
0.0000000000000001
 21
1.0
 31
0.0
 73
     1
 44
1.0
  0
POINT
  5
8FE
330
7E5
100
AcDbEntity
  8
DEFPOINTS
 62
     0
100
AcDbPoint
 10
403.5095156062172
 20
525.4086582962725
 30
0.0
  0
POINT
  5
8FF
330
7E5
100
AcDbEntity
  8
DEFPOINTS
 62
     0
100
AcDbPoint
 10
403.5095156062172
 20
1419.282329825198
 30
0.0
  0
POINT
  5
900
330
7E5
100
AcDbEntity
  8
DEFPOINTS
 62
     0
100
AcDbPoint
 10
348.7000005559502
 20
1419.282329825198
 30
0.0
  0
ENDBLK
  5
7F0
330
7E5
100
AcDbEntity
  8
0
100
AcDbBlockEnd
  0
BLOCK
  5
7FD
330
7F1
100
AcDbEntity
  8
0
100
AcDbBlockBegin
  2
*D3
 70
     1
 10
0.0
 20
0.0
 30
0.0
  3
*D3
  1

  0
LINE
  5
90A
330
7F1
100
AcDbEntity
  8
SCHRAFF
 62
     0
370
    -2
100
AcDbLine
 10
723.5095156062173
 20
520.4086582962725
 30
0.0
 11
723.5095156062173
 21
470.00552743997
 31
0.0
  0
LINE
  5
90B
330
7F1
100
AcDbEntity
  8
SCHRAFF
 62
     0
370
    -2
100
AcDbLine
 10
727.5095156062173
 20
520.4086582962725
 30
0.0
 11
727.5095156062173
 21
470.00552743997
 31
0.0
  0
LINE
  5
90C
330
7F1
100
AcDbEntity
  8
SCHRAFF
 62
     0
370
    -2
100
AcDbLine
 10
706.0095156062173
 20
475.0055274399699
 30
0.0
 11
688.5095156062172
 21
475.0055274399699
 31
0.0
  0
LINE
  5
90D
330
7F1
100
AcDbEntity
  8
SCHRAFF
 62
     0
370
    -2
100
AcDbLine
 10
745.0095156062173
 20
475.0055274399699
 30
0.0
 11
787.5095156062172
 21
475.0055274399699
 31
0.0
  0
LINE
  5
90E
330
7F1
100
AcDbEntity
  8
SCHRAFF
 62
     0
370
    -2
100
AcDbLine
 10
723.5095156062173
 20
475.0055274399699
 30
0.0
 11
727.5095156062173
 21
475.0055274399699
 31
0.0
  0
SOLID
  5
90F
330
7F1
100
AcDbEntity
  8
SCHRAFF
 62
     0
100
AcDbTrace
 10
706.0095156062173
 20
477.9221941066366
 30
0.0
 11
706.0095156062173
 21
472.0888607733033
 31
0.0
 12
723.5095156062173
 22
475.0055274399699
 32
0.0
 13
723.5095156062173
 23
475.0055274399699
 33
0.0
  0
SOLID
  5
910
330
7F1
100
AcDbEntity
  8
SCHRAFF
 62
     0
100
AcDbTrace
 10
745.0095156062173
 20
477.9221941066366
 30
0.0
 11
745.0095156062173
 21
472.0888607733033
 31
0.0
 12
727.5095156062173
 22
475.0055274399699
 32
0.0
 13
727.5095156062173
 23
475.0055274399699
 33
0.0
  0
MTEXT
  5
911
330
7F1
100
AcDbEntity
  8
SCHRAFF
 62
     1
100
AcDbMText
 10
775.0095156062172
 20
491.25552743997
 30
0.0
 40
17.5
 41
0.0
 71
     5
 72
     1
  1
\A1;4
  7
GREEKS
 73
     1
 44
1.0
  0
POINT
  5
912
330
7F1
100
AcDbEntity
  8
DEFPOINTS
 62
     0
100
AcDbPoint
 10
723.5095156062173
 20
525.4086582962725
 30
0.0
  0
POINT
  5
913
330
7F1
100
AcDbEntity
  8
DEFPOINTS
 62
     0
100
AcDbPoint
 10
727.5095156062173
 20
525.4086582962725
 30
0.0
  0
POINT
  5
914
330
7F1
100
AcDbEntity
  8
DEFPOINTS
 62
     0
100
AcDbPoint
 10
727.5095156062173
 20
475.0055274399699
 30
0.0
  0
ENDBLK
  5
7FE
330
7F1
100
AcDbEntity
  8
0
100
AcDbBlockEnd
  0
ENDSEC
  0
SECTION
  2
ENTITIES
  0
TEXT
  5
4E6
330
5C2
100
AcDbEntity
  8
TEXT
 62
     1
100
AcDbText
 10
476.9467689395077
 20
350.0447995668543
 30
0.0
 40
17.5
  1
Werkstoff: EN 10219 S235
 41
0.8
  7
GREEKS
100
AcDbText
  0
INSERT
  5
4EA
330
5C2
100
AcDbEntity
  8
STEMPEL
100
AcDbBlockReference
  2
LOGO
 10
377.4888713644485
 20
112.552631911208
 30
0.0
 41
5.0
 42
5.0
 43
5.0
  0
TEXT
  5
4EB
330
5C2
100
AcDbEntity
  8
TEXT
100
AcDbText
 10
517.9111550024571
 20
157.7240979930877
 30
0.0
 40
10.0
  1
Ba
 41
0.8
  7
GREEKS
 72
     1
 11
524.1968692881714
 21
157.7240979930877
 31
0.0
100
AcDbText
  0
LINE
  5
4EC
330
5C2
100
AcDbEntity
  8
HILF
100
AcDbLine
 10
1050.0
 20
0.0
 30
0.0
 11
0.0
 21
0.0
 31
0.0
  0
LINE
  5
4ED
330
5C2
100
AcDbEntity
  8
HILF
100
AcDbLine
 10
1050.0
 20
1485.0
 30
0.0
 11
0.0
 21
1485.0
 31
0.0
  0
LINE
  5
4EE
330
5C2
100
AcDbEntity
  8
STEMPEL
100
AcDbLine
 10
1025.0
 20
1460.0
 30
0.0
 11
99.99999999999971
 21
1460.0
 31
0.0
  0
LINE
  5
4EF
330
5C2
100
AcDbEntity
  8
STEMPEL
100
AcDbLine
 10
1025.0
 20
25.0
 30
0.0
 11
99.99999999999971
 21
25.0
 31
0.0
  0
LINE
  5
4F0
330
5C2
100
AcDbEntity
  8
STEMPEL
100
AcDbLine
 10
124.9999999999997
 20
25.0
 30
0.0
 11
1025.0
 21
25.0
 31
0.0
  0
TEXT
  5
4F1
330
5C2
100
AcDbEntity
  8
TEXT
100
AcDbText
 10
506.1566460565737
 20
183.2740272978806
 30
0.0
 40
10.0
  1
Name
 41
0.8
  7
GREEKS
100
AcDbText
  0
TEXT
  5
4F2
330
5C2
100
AcDbEntity
  8
TEXT
100
AcDbText
 10
485.7147386835128
 20
256.0460421087048
 30
0.0
 40
12.5
  1
Zul. Abw.
 41
0.8
  7
GREEKS
100
AcDbText
  0
LINE
  5
4F3
330
5C2
100
AcDbEntity
  8
HILF
100
AcDbLine
 10
365.0000000000003
 20
124.9999999999999
 30
0.0
 11
575.0
 21
124.9999999999999
 31
0.0
  0
LINE
  5
4F4
330
5C2
100
AcDbEntity
  8
HILF
100
AcDbLine
 10
365.0000000000003
 20
149.9999999999999
 30
0.0
 11
575.0
 21
149.9999999999999
 31
0.0
  0
LINE
  5
4F5
330
5C2
100
AcDbEntity
  8
HILF
100
AcDbLine
 10
365.0000000000003
 20
174.9999999999998
 30
0.0
 11
575.0
 21
174.9999999999998
 31
0.0
  0
LINE
  5
4F6
330
5C2
100
AcDbEntity
  8
STEMPEL
100
AcDbLine
 10
1025.0
 20
200.0
 30
0.0
 11
365.0000000000003
 21
199.9999999999998
 31
0.0
  0
LINE
  5
4F7
330
5C2
100
AcDbEntity
  8
STEMPEL
100
AcDbLine
 10
1025.0
 20
100.0
 30
0.0
 11
365.0000000000003
 21
99.99999999999992
 31
0.0
  0
LINE
  5
4F8
330
5C2
100
AcDbEntity
  8
STEMPEL
100
AcDbLine
 10
1025.0
 20
275.0000000000001
 30
0.0
 11
99.99999999999992
 21
275.0
 31
0.0
  0
LINE
  5
4FB
330
5C2
100
AcDbEntity
  8
HILF
100
AcDbLine
 10
0.0
 20
0.0
 30
0.0
 11
-0.0000000000002842
 21
1485.0
 31
0.0
  0
LINE
  5
4FC
330
5C2
100
AcDbEntity
  8
STEMPEL
100
AcDbLine
 10
100.0
 20
25.0
 30
0.0
 11
99.99999999999971
 21
1460.0
 31
0.0
  0
TEXT
  5
4FD
330
5C2
100
AcDbEntity
  8
TEXT
 62
     1
100
AcDbText
 10
174.1028759070851
 20
396.551279020876
 30
0.0
 40
17.5
  1
Rohrenden entgratet
 41
0.8
  7
GREEKS
100
AcDbText
  0
TEXT
  5
4FE
330
5C2
100
AcDbEntity
  8
TEXT
100
AcDbText
 10
104.6377487744418
 20
279.1799999999999
 30
0.0
 40
12.5
  1
Erstellt mit AUTOCAD 2004
 41
0.8
  7
GREEKS
100
AcDbText
  0
TEXT
  5
4FF
330
5C2
100
AcDbEntity
  8
TEXT
100
AcDbText
 10
168.6368678756434
 20
46.68454737460329
 30
0.0
 40
10.0
  1
Änderung
 41
0.8
  7
GREEKS
 72
     1
 11
195.4940107327863
 21
46.68454737460329
 31
0.0
100
AcDbText
  0
LINE
  5
500
330
5C2
100
AcDbEntity
  8
HILF
100
AcDbLine
 10
100.0000000000002
 20
99.99999999999992
 30
0.0
 11
365.0000000000003
 21
99.99999999999992
 31
0.0
  0
LINE
  5
501
330
5C2
100
AcDbEntity
  8
HILF
100
AcDbLine
 10
100.0000000000002
 20
124.9999999999999
 30
0.0
 11
365.0000000000003
 21
124.9999999999999
 31
0.0
  0
LINE
  5
502
330
5C2
100
AcDbEntity
  8
HILF
100
AcDbLine
 10
100.0000000000002
 20
149.9999999999999
 30
0.0
 11
365.0000000000003
 21
149.9999999999999
 31
0.0
  0
LINE
  5
503
330
5C2
100
AcDbEntity
  8
HILF
100
AcDbLine
 10
100.0000000000002
 20
174.9999999999998
 30
0.0
 11
365.0000000000003
 21
174.9999999999998
 31
0.0
  0
LINE
  5
504
330
5C2
100
AcDbEntity
  8
HILF
100
AcDbLine
 10
100.0000000000002
 20
199.9999999999998
 30
0.0
 11
365.0000000000003
 21
199.9999999999998
 31
0.0
  0
LINE
  5
505
330
5C2
100
AcDbEntity
  8
HILF
100
AcDbLine
 10
100.0000000000002
 20
225.0000000000001
 30
0.0
 11
365.0000000000003
 21
225.0000000000001
 31
0.0
  0
LINE
  5
506
330
5C2
100
AcDbEntity
  8
HILF
100
AcDbLine
 10
100.0000000000002
 20
250.0000000000001
 30
0.0
 11
365.0000000000003
 21
250.0000000000001
 31
0.0
  0
LINE
  5
507
330
5C2
100
AcDbEntity
  8
STEMPEL
100
AcDbLine
 10
364.9999999999997
 20
74.99999999999992
 30
0.0
 11
99.99999999999992
 21
74.99999999999992
 31
0.0
  0
TEXT
  5
508
330
5C2
100
AcDbEntity
  8
TEXT
100
AcDbText
 10
120.6660276761439
 20
34.13664615067979
 30
0.0
 40
10.0
  1
Index
 50
90.0
 41
0.8
  7
GREEKS
100
AcDbText
  0
LINE
  5
509
330
5C2
100
AcDbEntity
  8
VOLL
100
AcDbLine
 10
135.0000000000002
 20
275.0000000000001
 30
0.0
 11
134.9999999999999
 21
24.99999999999993
 31
0.0
  0
LINE
  5
50A
330
5C2
100
AcDbEntity
  8
HILF
100
AcDbLine
 10
77.7191783928464
 20
742.5000000000001
 30
0.0
 11
0.0000000000002842
 21
742.5000000000001
 31
0.0
  0
TEXT
  5
50B
330
5C2
100
AcDbEntity
  8
TEXT
100
AcDbText
 10
274.540646523064
 20
46.67890673349525
 30
0.0
 40
10.0
  1
Tag
 41
0.8
  7
GREEKS
 72
     1
 11
283.8739798563973
 21
46.67890673349525
 31
0.0
100
AcDbText
  0
LINE
  5
50C
330
5C2
100
AcDbEntity
  8
VOLL
100
AcDbLine
 10
310.0000000000003
 20
274.9999999999999
 30
0.0
 11
310.0
 21
24.99999999999993
 31
0.0
  0
LINE
  5
50D
330
5C2
100
AcDbEntity
  8
VOLL
100
AcDbLine
 10
260.0000000000003
 20
274.9999999999999
 30
0.0
 11
260.0
 21
24.99999999999993
 31
0.0
  0
TEXT
  5
50E
330
5C2
100
AcDbEntity
  8
TEXT
100
AcDbText
 10
321.7293450483905
 20
46.4831054241602
 30
0.0
 40
10.0
  1
Name
 41
0.8
  7
GREEKS
 72
     1
 11
337.5388688579143
 21
46.4831054241602
 31
0.0
100
AcDbText
  0
LINE
  5
50F
330
5C2
100
AcDbEntity
  8
STEMPEL
100
AcDbLine
 10
365.0000000000003
 20
274.9999999999999
 30
0.0
 11
365.0
 21
24.99999999999993
 31
0.0
  0
TEXT
  5
510
330
5C2
100
AcDbEntity
  8
TEXT
100
AcDbText
 10
425.9974927705902
 20
157.7691260206433
 30
0.0
 40
10.0
  1
20.08.
 41
0.8
  7
GREEKS
 72
     1
 11
443.5213022943996
 21
157.7691260206433
 31
0.0
100
AcDbText
  0
TEXT
  5
511
330
5C2
100
AcDbEntity
  8
TEXT
100
AcDbText
 10
430.8279182884127
 20
183.2970125307481
 30
0.0
 40
10.0
  1
Tag
 41
0.8
  7
GREEKS
100
AcDbText
  0
TEXT
  5
512
330
5C2
100
AcDbEntity
  8
TEXT
100
AcDbText
 10
368.9590317919039
 20
159.0747592404491
 30
0.0
 40
10.0
  1
Gez.
 41
0.8
  7
GREEKS
100
AcDbText
  0
LINE
  5
513
330
5C2
100
AcDbEntity
  8
VOLL
100
AcDbLine
 10
410.0000000000003
 20
199.9999999999998
 30
0.0
 11
410.0000000000003
 21
99.99999999999992
 31
0.0
  0
TEXT
  5
514
330
5C2
100
AcDbEntity
  8
TEXT
100
AcDbText
 10
369.0016943468259
 20
108.8236597412452
 30
0.0
 40
10.0
  1
Norm.
 41
0.8
  7
GREEKS
100
AcDbText
  0
TEXT
  5
515
330
5C2
100
AcDbEntity
  8
TEXT
100
AcDbText
 10
368.8787716429181
 20
134.2231572857094
 30
0.0
 40
10.0
  1
Gepr.
 41
0.8
  7
GREEKS
100
AcDbText
  0
TEXT
  5
516
330
5C2
100
AcDbEntity
  8
TEXT
 62
     1
100
AcDbText
 10
401.2515766204717
 20
220.372535722849
 30
0.0
 40
17.5
  1
1:5
 41
0.8
  7
GREEKS
100
AcDbText
  0
TEXT
  5
517
330
5C2
100
AcDbEntity
  8
TEXT
100
AcDbText
 10
383.7908930375943
 20
256.1552237717722
 30
0.0
 40
12.5
  1
Maßstab
 41
0.8
  7
GREEKS
100
AcDbText
  0
TEXT
  5
518
330
5C2
100
AcDbEntity
  8
TEXT
100
AcDbText
 10
371.55527455526
 20
182.8506367787916
 30
0.0
 40
10.0
  1
2007
 41
0.8
  7
GREEKS
100
AcDbText
  0
LINE
  5
519
330
5C2
100
AcDbEntity
  8
VOLL
100
AcDbLine
 10
475.0000000000002
 20
274.9999999999996
 30
0.0
 11
475.0
 21
99.99999999999992
 31
0.0
  0
LINE
  5
522
330
5C2
100
AcDbEntity
  8
HILF
100
AcDbLine
 10
1050.0
 20
-0.0000000000002842
 30
0.0
 11
1050.0
 21
1485.0
 31
0.0
  0
LINE
  5
523
330
5C2
100
AcDbEntity
  8
STEMPEL
100
AcDbLine
 10
1025.0
 20
25.0
 30
0.0
 11
1025.0
 21
1460.0
 31
0.0
  0
TEXT
  5
524
330
5C2
100
AcDbEntity
  8
TEXT
 62
     1
100
AcDbText
 10
596.9467689395078
 20
320.0447995668542
 30
0.0
 40
17.5
  1
feuerverzinkt und innen beschichtet
 41
0.8
  7
GREEKS
100
AcDbText
  0
TEXT
  5
525
330
5C2
100
AcDbEntity
  8
TEXT
100
AcDbText
 10
843.1002153742515
 20
130.185404446965
 30
0.0
 40
12.5
  1
ersetzt durch:
 41
0.8
  7
GREEKS
100
AcDbText
  0
TEXT
  5
526
330
5C2
100
AcDbEntity
  8
TEXT
100
AcDbText
 10
841.8096540742482
 20
182.9529559274992
 30
0.0
 40
12.5
  1
Ersatz für:
 41
0.8
  7
GREEKS
100
AcDbText
  0
TEXT
  5
527
330
5C2
100
AcDbEntity
  8
TEXT
100
AcDbText
 10
840.4468873940851
 20
255.7830086342841
 30
0.0
 40
12.5
  1
Zeichnungs Nr.
 41
0.8
  7
GREEKS
100
AcDbText
  0
LINE
  5
528
330
5C2
100
AcDbEntity
  8
HILF
100
AcDbLine
 10
583.7274248224712
 20
37.23495645070784
 30
0.0
 11
1012.147209831682
 21
37.23495645070784
 31
0.0
  0
LINE
  5
529
330
5C2
100
AcDbEntity
  8
HILF
100
AcDbLine
 10
841.8096540742482
 20
209.4495909238957
 30
0.0
 11
1012.147209831682
 21
209.4495909238957
 31
0.0
  0
LINE
  5
52A
330
5C2
100
AcDbEntity
  8
VOLL
100
AcDbLine
 10
830.0
 20
150.0
 30
0.0
 11
1025.0
 21
150.0
 31
0.0
  0
TEXT
  5
52B
330
5C2
100
AcDbEntity
  8
TEXT
100
AcDbText
 10
587.8240977813288
 20
129.100298576054
 30
0.0
 40
12.5
  1
EDV-Art.Nr. 01050.300X
 41
0.8
  7
GREEKS
100
AcDbText
  0
TEXT
  5
52C
330
5C2
100
AcDbEntity
  8
TEXT
100
AcDbText
 10
587.8240977813288
 20
178.7583604396322
 30
0.0
 40
12.5
  1
Muffenlos 3000mm lang
 41
0.8
  7
GREEKS
100
AcDbText
  0
TEXT
  5
52D
330
5C2
100
AcDbEntity
  8
TEXT
 62
     1
100
AcDbText
 10
588.1033670452672
 20
218.5437197313445
 30
0.0
 40
17.5
  1
Rohr DN300
 41
0.8
  7
GREEKS
100
AcDbText
  0
LINE
  5
52E
330
5C2
100
AcDbEntity
  8
HILF
100
AcDbLine
 10
586.9342002742369
 20
124.9999999999999
 30
0.0
 11
812.0884791390775
 21
124.9999999999999
 31
0.0
  0
LINE
  5
52F
330
5C2
100
AcDbEntity
  8
HILF
100
AcDbLine
 10
586.9342002742369
 20
149.9999999999999
 30
0.0
 11
812.0884791390775
 21
149.9999999999999
 31
0.0
  0
LINE
  5
530
330
5C2
100
AcDbEntity
  8
HILF
100
AcDbLine
 10
586.9342002742369
 20
174.9999999999998
 30
0.0
 11
812.0884791390775
 21
174.9999999999998
 31
0.0
  0
LINE
  5
531
330
5C2
100
AcDbEntity
  8
HILF
100
AcDbLine
 10
586.9342002742369
 20
210.0939561891034
 30
0.0
 11
812.0884791390777
 21
210.0939561891034
 31
0.0
  0
LINE
  5
532
330
5C2
100
AcDbEntity
  8
STEMPEL
100
AcDbLine
 10
575.0
 20
275.0000000000001
 30
0.0
 11
575.0
 21
24.99999999999993
 31
0.0
  0
TEXT
  5
533
330
5C2
100
AcDbEntity
  8
TEXT
100
AcDbText
 10
587.4593753944567
 20
106.5743538255658
 30
0.0
 40
10.0
  1
01050300W.DWG
 41
0.8
  7
GREEKS
100
AcDbText
  0
TEXT
  5
534
330
5C2
100
AcDbEntity
  8
TEXT
100
AcDbText
 10
586.8555959778399
 20
77.11401425482641
 30
0.0
 40
12.5
  1
Bauvorhaben
 41
0.8
  7
GREEKS
100
AcDbText
  0
TEXT
  5
535
330
5C2
100
AcDbEntity
  8
TEXT
100
AcDbText
 10
587.1948509522525
 20
256.3723320029449
 30
0.0
 40
12.5
  1
Benennung
 41
0.8
  7
GREEKS
100
AcDbText
  0
LINE
  5
536
330
5C2
100
AcDbEntity
  8
STEMPEL
100
AcDbLine
 10
830.0
 20
274.9999999999994
 30
0.0
 11
830.0
 21
100.0
 31
0.0
  0
TEXT
  5
538
330
5C2
100
AcDbEntity
  8
TEXT
 62
     1
100
AcDbText
 10
868.1918385869925
 20
220.372535722849
 30
0.0
 40
17.5
  1
01050300W
 41
0.8
  7
GREEKS
 72
     1
 11
926.8585052536591
 21
220.372535722849
 31
0.0
100
AcDbText
  0
TEXT
  5
5E6
330
5C2
100
AcDbEntity
  8
BEM
100
AcDbText
 10
1043.255730964291
 20
25.41975269997152
 30
0.0
 40
10.0
  1
Diese Zeichnung ist urheberrechtlich geschützt und bleibt unser Eigentum. Sie darf weder ganz noch teilweise verfielfältigt und nicht an Dritte weitergegeben werden.
 50
90.0
 41
0.8
  7
GREEKS
100
AcDbText
  0
TEXT
  5
60E
330
5C2
100
AcDbEntity
  8
TEXT
100
AcDbText
 10
481.7206788119809
 20
222.5953838743496
 30
0.0
 40
10.0
  1
DIN EN1123-2
 41
0.8
  7
GREEKS
 72
     1
 11
524.1968692881714
 21
222.5953838743496
 31
0.0
100
AcDbText
  0
TEXT
  5
775
330
5C2
100
AcDbEntity
  8
TEXT
 62
     1
100
AcDbText
 10
555.0067804007745
 20
995.5864893668378
 30
0.0
 40
17.5
  1
DN300
 50
90.0
 41
0.8
  7
GREEKS
100
AcDbText
  0
POINT
  5
776
330
5C2
100
AcDbEntity
  8
BEM
100
AcDbPoint
 10
403.5095156062172
 20
1419.282329825198
 30
0.0
  0
LINE
  5
777
102
{ACAD_REACTORS
330
8E0
102
}
330
5C2
100
AcDbEntity
  8
STEMPEL
100
AcDbLine
 10
727.5095156062173
 20
1419.282329825198
 30
0.0
 11
403.5095156062172
 21
1419.282329825198
 31
0.0
  0
POLYLINE
  5
778
102
{ACAD_REACTORS
330
8E0
102
}
330
5C2
100
AcDbEntity
  8
HILF
100
AcDb2dPolyline
 66
     1
 10
0.0
 20
0.0
 30
0.0
 70
     4
 75
     6
  0
VERTEX
  5
779
330
778
100
AcDbEntity
  8
HILF
100
AcDbVertex
100
AcDb2dVertex
 10
727.5095156062173
 20
972.3454940607354
 30
0.0
 70
    16
  0
VERTEX
  5
77A
330
778
100
AcDbEntity
  8
HILF
100
AcDbVertex
100
AcDb2dVertex
 10
727.5095156062174
 20
972.3454940607354
 30
0.0
 70
     8
  0
VERTEX
  5
77B
330
778
100
AcDbEntity
  8
HILF
100
AcDbVertex
100
AcDb2dVertex
 10
703.0403695672139
 20
964.6627225505245
 30
0.0
 70
     8
  0
VERTEX
  5
77C
330
778
100
AcDbEntity
  8
HILF
100
AcDbVertex
100
AcDb2dVertex
 10
681.709210095525
 20
959.0589711496864
 30
0.0
 70
     8
  0
VERTEX
  5
77D
330
778
100
AcDbEntity
  8
HILF
100
AcDbVertex
100
AcDb2dVertex
 10
663.1793154890309
 20
955.2790967742275
 30
0.0
 70
     8
  0
VERTEX
  5
77E
330
778
100
AcDbEntity
  8
HILF
100
AcDbVertex
100
AcDb2dVertex
 10
647.1139640456112
 20
953.0679563401537
 30
0.0
 70
     8
  0
VERTEX
  5
77F
330
778
100
AcDbEntity
  8
HILF
100
AcDbVertex
100
AcDb2dVertex
 10
633.176434063146
 20
952.1704067634708
 30
0.0
 70
     8
  0
VERTEX
  5
780
330
778
100
AcDbEntity
  8
HILF
100
AcDbVertex
100
AcDb2dVertex
 10
621.0300038395153
 20
952.3313049601846
 30
0.0
 70
     8
  0
VERTEX
  5
781
330
778
100
AcDbEntity
  8
HILF
100
AcDbVertex
100
AcDb2dVertex
 10
610.3379516725993
 20
953.2955078463013
 30
0.0
 70
     8
  0
VERTEX
  5
782
330
778
100
AcDbEntity
  8
HILF
100
AcDbVertex
100
AcDb2dVertex
 10
600.7635558602777
 20
954.8078723378273
 30
0.0
 70
     8
  0
VERTEX
  5
783
330
778
100
AcDbEntity
  8
HILF
100
AcDbVertex
100
AcDb2dVertex
 10
592.0089594854094
 20
956.6494120838934
 30
0.0
 70
     8
  0
VERTEX
  5
784
330
778
100
AcDbEntity
  8
HILF
100
AcDbVertex
100
AcDb2dVertex
 10
583.9317647707681
 20
958.7457676661356
 30
0.0
 70
     8
  0
VERTEX
  5
785
330
778
100
AcDbEntity
  8
HILF
100
AcDbVertex
100
AcDb2dVertex
 10
576.428438724106
 20
961.0587363993158
 30
0.0
 70
     8
  0
VERTEX
  5
786
330
778
100
AcDbEntity
  8
HILF
100
AcDbVertex
100
AcDb2dVertex
 10
569.3954483531756
 20
963.550115598195
 30
0.0
 70
     8
  0
VERTEX
  5
787
330
778
100
AcDbEntity
  8
HILF
100
AcDbVertex
100
AcDb2dVertex
 10
562.7292606657293
 20
966.1817025775347
 30
0.0
 70
     8
  0
VERTEX
  5
788
330
778
100
AcDbEntity
  8
HILF
100
AcDbVertex
100
AcDb2dVertex
 10
556.3263426695195
 20
968.9152946520968
 30
0.0
 70
     8
  0
VERTEX
  5
789
330
778
100
AcDbEntity
  8
HILF
100
AcDbVertex
100
AcDb2dVertex
 10
550.0831613722988
 20
971.7126891366426
 30
0.0
 70
     8
  0
VERTEX
  5
78A
330
778
100
AcDbEntity
  8
HILF
100
AcDbVertex
100
AcDb2dVertex
 10
543.8961837818192
 20
974.5356833459336
 30
0.0
 70
     8
  0
VERTEX
  5
78B
330
778
100
AcDbEntity
  8
HILF
100
AcDbVertex
100
AcDb2dVertex
 10
537.6601621502444
 20
977.341151569748
 30
0.0
 70
     8
  0
VERTEX
  5
78C
330
778
100
AcDbEntity
  8
HILF
100
AcDbVertex
100
AcDb2dVertex
 10
531.2629897073818
 20
980.0662759979314
 30
0.0
 70
     8
  0
VERTEX
  5
78D
330
778
100
AcDbEntity
  8
HILF
100
AcDbVertex
100
AcDb2dVertex
 10
524.5908449274502
 20
982.6433157953456
 30
0.0
 70
     8
  0
VERTEX
  5
78E
330
778
100
AcDbEntity
  8
HILF
100
AcDbVertex
100
AcDb2dVertex
 10
517.529906284668
 20
985.0045301268529
 30
0.0
 70
     8
  0
VERTEX
  5
78F
330
778
100
AcDbEntity
  8
HILF
100
AcDbVertex
100
AcDb2dVertex
 10
509.9663522532542
 20
987.0821781573157
 30
0.0
 70
     8
  0
VERTEX
  5
790
330
778
100
AcDbEntity
  8
HILF
100
AcDbVertex
100
AcDb2dVertex
 10
501.7863613074269
 20
988.8085190515958
 30
0.0
 70
     8
  0
VERTEX
  5
791
330
778
100
AcDbEntity
  8
HILF
100
AcDbVertex
100
AcDb2dVertex
 10
492.876111921405
 20
990.1158119745556
 30
0.0
 70
     8
  0
VERTEX
  5
792
330
778
100
AcDbEntity
  8
HILF
100
AcDbVertex
100
AcDb2dVertex
 10
483.1217825694072
 20
990.9363160910571
 30
0.0
 70
     8
  0
VERTEX
  5
793
330
778
100
AcDbEntity
  8
HILF
100
AcDbVertex
100
AcDb2dVertex
 10
472.492496705577
 20
991.2032640860537
 30
0.0
 70
     8
  0
VERTEX
  5
794
330
778
100
AcDbEntity
  8
HILF
100
AcDbVertex
100
AcDb2dVertex
 10
461.2891577037593
 20
990.8537827248636
 30
0.0
 70
     8
  0
VERTEX
  5
795
330
778
100
AcDbEntity
  8
HILF
100
AcDbVertex
100
AcDb2dVertex
 10
449.8956139177234
 20
989.8259722928965
 30
0.0
 70
     8
  0
VERTEX
  5
796
330
778
100
AcDbEntity
  8
HILF
100
AcDbVertex
100
AcDb2dVertex
 10
438.6957137012395
 20
988.0579330755617
 30
0.0
 70
     8
  0
VERTEX
  5
797
330
778
100
AcDbEntity
  8
HILF
100
AcDbVertex
100
AcDb2dVertex
 10
428.0733054080772
 20
985.4877653582686
 30
0.0
 70
     8
  0
VERTEX
  5
798
330
778
100
AcDbEntity
  8
HILF
100
AcDbVertex
100
AcDb2dVertex
 10
418.4122373920062
 20
982.053569426427
 30
0.0
 70
     8
  0
VERTEX
  5
799
330
778
100
AcDbEntity
  8
HILF
100
AcDbVertex
100
AcDb2dVertex
 10
410.0963580067963
 20
977.693445565446
 30
0.0
 70
     8
  0
VERTEX
  5
79A
330
778
100
AcDbEntity
  8
HILF
100
AcDbVertex
100
AcDb2dVertex
 10
403.5095156062173
 20
972.3454940607355
 30
0.0
 70
     8
  0
VERTEX
  5
79B
330
778
100
AcDbEntity
  8
HILF
100
AcDbVertex
100
AcDb2dVertex
 10
657.7751692327932
 20
948.8592827019029
 30
0.0
 70
    16
  0
VERTEX
  5
79C
330
778
100
AcDbEntity
  8
HILF
100
AcDbVertex
100
AcDb2dVertex
 10
592.4335862338828
 20
951.6823414427372
 30
0.0
 70
    16
  0
VERTEX
  5
79D
330
778
100
AcDbEntity
  8
HILF
100
AcDbVertex
100
AcDb2dVertex
 10
544.4010294938865
 20
974.6701149245287
 30
0.0
 70
    16
  0
VERTEX
  5
79E
330
778
100
AcDbEntity
  8
HILF
100
AcDbVertex
100
AcDb2dVertex
 10
493.3393984814864
 20
996.8512989347489
 30
0.0
 70
    16
  0
VERTEX
  5
79F
330
778
100
AcDbEntity
  8
HILF
100
AcDbVertex
100
AcDb2dVertex
 10
418.4278474915694
 20
987.9788235667948
 30
0.0
 70
    16
  0
VERTEX
  5
7A0
330
778
100
AcDbEntity
  8
HILF
100
AcDbVertex
100
AcDb2dVertex
 10
403.5095156062172
 20
972.3454940607354
 30
0.0
 70
    16
  0
SEQEND
  5
7A1
330
778
100
AcDbEntity
  8
HILF
  0
POLYLINE
  5
7A2
102
{ACAD_REACTORS
330
8E0
102
}
330
5C2
100
AcDbEntity
  8
HILF
100
AcDb2dPolyline
 66
     1
 10
0.0
 20
0.0
 30
0.0
 70
     4
 75
     6
  0
VERTEX
  5
7A3
330
7A2
100
AcDbEntity
  8
HILF
100
AcDbVertex
100
AcDb2dVertex
 10
727.5095156062173
 20
962.3454940607354
 30
0.0
 70
    16
  0
VERTEX
  5
7A4
330
7A2
100
AcDbEntity
  8
HILF
100
AcDbVertex
100
AcDb2dVertex
 10
727.5095156062174
 20
962.3454940607354
 30
0.0
 70
     8
  0
VERTEX
  5
7A5
330
7A2
100
AcDbEntity
  8
HILF
100
AcDbVertex
100
AcDb2dVertex
 10
703.0403695672139
 20
954.6627225505245
 30
0.0
 70
     8
  0
VERTEX
  5
7A6
330
7A2
100
AcDbEntity
  8
HILF
100
AcDbVertex
100
AcDb2dVertex
 10
681.709210095525
 20
949.0589711496864
 30
0.0
 70
     8
  0
VERTEX
  5
7A7
330
7A2
100
AcDbEntity
  8
HILF
100
AcDbVertex
100
AcDb2dVertex
 10
663.1793154890309
 20
945.2790967742275
 30
0.0
 70
     8
  0
VERTEX
  5
7A8
330
7A2
100
AcDbEntity
  8
HILF
100
AcDbVertex
100
AcDb2dVertex
 10
647.1139640456112
 20
943.0679563401538
 30
0.0
 70
     8
  0
VERTEX
  5
7A9
330
7A2
100
AcDbEntity
  8
HILF
100
AcDbVertex
100
AcDb2dVertex
 10
633.176434063146
 20
942.1704067634708
 30
0.0
 70
     8
  0
VERTEX
  5
7AA
330
7A2
100
AcDbEntity
  8
HILF
100
AcDbVertex
100
AcDb2dVertex
 10
621.0300038395153
 20
942.3313049601846
 30
0.0
 70
     8
  0
VERTEX
  5
7AB
330
7A2
100
AcDbEntity
  8
HILF
100
AcDbVertex
100
AcDb2dVertex
 10
610.3379516725993
 20
943.2955078463013
 30
0.0
 70
     8
  0
VERTEX
  5
7AC
330
7A2
100
AcDbEntity
  8
HILF
100
AcDbVertex
100
AcDb2dVertex
 10
600.7635558602777
 20
944.8078723378271
 30
0.0
 70
     8
  0
VERTEX
  5
7AD
330
7A2
100
AcDbEntity
  8
HILF
100
AcDbVertex
100
AcDb2dVertex
 10
592.0089594854094
 20
946.6494120838934
 30
0.0
 70
     8
  0
VERTEX
  5
7AE
330
7A2
100
AcDbEntity
  8
HILF
100
AcDbVertex
100
AcDb2dVertex
 10
583.9317647707681
 20
948.7457676661357
 30
0.0
 70
     8
  0
VERTEX
  5
7AF
330
7A2
100
AcDbEntity
  8
HILF
100
AcDbVertex
100
AcDb2dVertex
 10
576.428438724106
 20
951.0587363993158
 30
0.0
 70
     8
  0
VERTEX
  5
7B0
330
7A2
100
AcDbEntity
  8
HILF
100
AcDbVertex
100
AcDb2dVertex
 10
569.3954483531756
 20
953.550115598195
 30
0.0
 70
     8
  0
VERTEX
  5
7B1
330
7A2
100
AcDbEntity
  8
HILF
100
AcDbVertex
100
AcDb2dVertex
 10
562.7292606657293
 20
956.1817025775347
 30
0.0
 70
     8
  0
VERTEX
  5
7B2
330
7A2
100
AcDbEntity
  8
HILF
100
AcDbVertex
100
AcDb2dVertex
 10
556.3263426695195
 20
958.9152946520968
 30
0.0
 70
     8
  0
VERTEX
  5
7B3
330
7A2
100
AcDbEntity
  8
HILF
100
AcDbVertex
100
AcDb2dVertex
 10
550.0831613722988
 20
961.7126891366424
 30
0.0
 70
     8
  0
VERTEX
  5
7B4
330
7A2
100
AcDbEntity
  8
HILF
100
AcDbVertex
100
AcDb2dVertex
 10
543.8961837818192
 20
964.5356833459336
 30
0.0
 70
     8
  0
VERTEX
  5
7B5
330
7A2
100
AcDbEntity
  8
HILF
100
AcDbVertex
100
AcDb2dVertex
 10
537.6601621502444
 20
967.341151569748
 30
0.0
 70
     8
  0
VERTEX
  5
7B6
330
7A2
100
AcDbEntity
  8
HILF
100
AcDbVertex
100
AcDb2dVertex
 10
531.2629897073818
 20
970.0662759979314
 30
0.0
 70
     8
  0
VERTEX
  5
7B7
330
7A2
100
AcDbEntity
  8
HILF
100
AcDbVertex
100
AcDb2dVertex
 10
524.5908449274502
 20
972.6433157953456
 30
0.0
 70
     8
  0
VERTEX
  5
7B8
330
7A2
100
AcDbEntity
  8
HILF
100
AcDbVertex
100
AcDb2dVertex
 10
517.529906284668
 20
975.004530126853
 30
0.0
 70
     8
  0
VERTEX
  5
7B9
330
7A2
100
AcDbEntity
  8
HILF
100
AcDbVertex
100
AcDb2dVertex
 10
509.9663522532542
 20
977.0821781573157
 30
0.0
 70
     8
  0
VERTEX
  5
7BA
330
7A2
100
AcDbEntity
  8
HILF
100
AcDbVertex
100
AcDb2dVertex
 10
501.7863613074269
 20
978.8085190515957
 30
0.0
 70
     8
  0
VERTEX
  5
7BB
330
7A2
100
AcDbEntity
  8
HILF
100
AcDbVertex
100
AcDb2dVertex
 10
492.876111921405
 20
980.1158119745554
 30
0.0
 70
     8
  0
VERTEX
  5
7BC
330
7A2
100
AcDbEntity
  8
HILF
100
AcDbVertex
100
AcDb2dVertex
 10
483.1217825694072
 20
980.9363160910571
 30
0.0
 70
     8
  0
VERTEX
  5
7BD
330
7A2
100
AcDbEntity
  8
HILF
100
AcDbVertex
100
AcDb2dVertex
 10
472.492496705577
 20
981.2032640860538
 30
0.0
 70
     8
  0
VERTEX
  5
7BE
330
7A2
100
AcDbEntity
  8
HILF
100
AcDbVertex
100
AcDb2dVertex
 10
461.2891577037593
 20
980.8537827248636
 30
0.0
 70
     8
  0
VERTEX
  5
7BF
330
7A2
100
AcDbEntity
  8
HILF
100
AcDbVertex
100
AcDb2dVertex
 10
449.8956139177234
 20
979.8259722928964
 30
0.0
 70
     8
  0
VERTEX
  5
7C0
330
7A2
100
AcDbEntity
  8
HILF
100
AcDbVertex
100
AcDb2dVertex
 10
438.6957137012395
 20
978.0579330755616
 30
0.0
 70
     8
  0
VERTEX
  5
7C1
330
7A2
100
AcDbEntity
  8
HILF
100
AcDbVertex
100
AcDb2dVertex
 10
428.0733054080772
 20
975.4877653582685
 30
0.0
 70
     8
  0
VERTEX
  5
7C2
330
7A2
100
AcDbEntity
  8
HILF
100
AcDbVertex
100
AcDb2dVertex
 10
418.4122373920062
 20
972.053569426427
 30
0.0
 70
     8
  0
VERTEX
  5
7C3
330
7A2
100
AcDbEntity
  8
HILF
100
AcDbVertex
100
AcDb2dVertex
 10
410.0963580067963
 20
967.693445565446
 30
0.0
 70
     8
  0
VERTEX
  5
7C4
330
7A2
100
AcDbEntity
  8
HILF
100
AcDbVertex
100
AcDb2dVertex
 10
403.5095156062173
 20
962.3454940607356
 30
0.0
 70
     8
  0
VERTEX
  5
7C5
330
7A2
100
AcDbEntity
  8
HILF
100
AcDbVertex
100
AcDb2dVertex
 10
657.7751692327932
 20
938.8592827019028
 30
0.0
 70
    16
  0
VERTEX
  5
7C6
330
7A2
100
AcDbEntity
  8
HILF
100
AcDbVertex
100
AcDb2dVertex
 10
592.4335862338828
 20
941.6823414427373
 30
0.0
 70
    16
  0
VERTEX
  5
7C7
330
7A2
100
AcDbEntity
  8
HILF
100
AcDbVertex
100
AcDb2dVertex
 10
544.4010294938865
 20
964.6701149245288
 30
0.0
 70
    16
  0
VERTEX
  5
7C8
330
7A2
100
AcDbEntity
  8
HILF
100
AcDbVertex
100
AcDb2dVertex
 10
493.3393984814864
 20
986.851298934749
 30
0.0
 70
    16
  0
VERTEX
  5
7C9
330
7A2
100
AcDbEntity
  8
HILF
100
AcDbVertex
100
AcDb2dVertex
 10
418.4278474915694
 20
977.9788235667949
 30
0.0
 70
    16
  0
VERTEX
  5
7CA
330
7A2
100
AcDbEntity
  8
HILF
100
AcDbVertex
100
AcDb2dVertex
 10
403.5095156062172
 20
962.3454940607354
 30
0.0
 70
    16
  0
SEQEND
  5
7CB
330
7A2
100
AcDbEntity
  8
HILF
  0
LINE
  5
7CC
330
5C2
100
AcDbEntity
  8
STEMPEL
100
AcDbLine
 10
403.5095156062172
 20
1419.282329825198
 30
0.0
 11
403.5095156062172
 21
972.3454940607352
 31
0.0
  0
LINE
  5
7CD
102
{ACAD_REACTORS
330
8E0
102
}
330
5C2
100
AcDbEntity
  8
STEMPEL
100
AcDbLine
 10
727.5095156062173
 20
1419.282329825198
 30
0.0
 11
727.509515606217
 21
972.3454940607352
 31
0.0
  0
POINT
  5
7CF
330
5C2
100
AcDbEntity
  8
BEM
100
AcDbPoint
 10
403.5095156062172
 20
525.4086582962725
 30
0.0
  0
LINE
  5
7D0
102
{ACAD_REACTORS
330
8E0
102
}
330
5C2
100
AcDbEntity
  8
STEMPEL
100
AcDbLine
 10
727.5095156062173
 20
525.4086582962725
 30
0.0
 11
403.5095156062172
 21
525.4086582962725
 31
0.0
  0
DIMENSION
  5
7D1
330
5C2
100
AcDbEntity
  8
SCHRAFF
100
AcDbDimension
  2
*D1
 10
403.5095156062172
 20
432.0743779443613
 30
0.0
 11
565.5095156062173
 21
448.3243779443613
 31
0.0
 70
    32
  1
%%c<>
 71
     5
 42
324.0000000000001
  3
STANDARD
100
AcDbAlignedDimension
 13
727.5095156062173
 23
525.4086582962725
 33
0.0
 14
403.5095156062172
 24
525.4086582962725
 34
0.0
100
AcDbRotatedDimension
  0
LINE
  5
7D2
330
5C2
100
AcDbEntity
  8
MITTEL
100
AcDbLine
 10
565.5095156062172
 20
1424.282329825198
 30
0.0
 11
565.5095156062172
 21
520.4086582962725
 31
0.0
  0
LINE
  5
7D3
102
{ACAD_REACTORS
330
8E0
102
}
330
5C2
100
AcDbEntity
  8
STEMPEL
100
AcDbLine
 10
723.5095156062173
 20
1419.282329825198
 30
0.0
 11
723.5095156062172
 21
971.0887347349331
 31
0.0
  0
LINE
  5
7D4
102
{ACAD_REACTORS
330
8E0
102
}
330
5C2
100
AcDbEntity
  8
STEMPEL
100
AcDbLine
 10
727.509515606217
 20
962.3454940607352
 30
0.0
 11
727.5095156062173
 21
525.4086582962725
 31
0.0
  0
LINE
  5
7D5
330
5C2
100
AcDbEntity
  8
STEMPEL
100
AcDbLine
 10
403.5095156062172
 20
962.3454940607352
 30
0.0
 11
403.5095156062172
 21
525.4086582962725
 31
0.0
  0
DIMENSION
  5
7D7
330
5C2
100
AcDbEntity
  8
BEM
100
AcDbDimension
  2
*D2
 10
348.7000005559502
 20
1419.282329825198
 30
0.0
 11
332.4500005559499
 21
972.3454940607355
 31
0.0
 70
    32
  1
3000
 71
     5
 42
893.8736715289257
  3
STANDARD
100
AcDbAlignedDimension
 13
403.5095156062172
 23
525.4086582962725
 33
0.0
 14
403.5095156062172
 24
1419.282329825198
 34
0.0
 50
90.0
100
AcDbRotatedDimension
  0
DIMENSION
  5
7D8
330
5C2
100
AcDbEntity
  8
SCHRAFF
100
AcDbDimension
  2
*D3
 10
727.5095156062173
 20
475.0055274399699
 30
0.0
 11
775.0095156062172
 21
491.25552743997
 31
0.0
 70
    32
  1
<>
 71
     5
 42
4.0
  3
STANDARD
100
AcDbAlignedDimension
 13
723.5095156062173
 23
525.4086582962725
 33
0.0
 14
727.5095156062173
 24
525.4086582962725
 34
0.0
100
AcDbRotatedDimension
  0
LINE
  5
8D4
102
{ACAD_REACTORS
330
8E0
102
}
330
5C2
100
AcDbEntity
  8
STEMPEL
100
AcDbLine
 10
723.5095156062172
 20
961.0887347349329
 30
0.0
 11
723.5095156062173
 21
525.4086582962725
 31
0.0
  0
HATCH
  5
8E0
330
5C2
100
AcDbEntity
  8
SCHRAFF
100
AcDbHatch
 10
0.0
 20
0.0
 30
0.0
210
0.0
220
0.0
230
1.0
  2
_USER
 70
     0
 71
     1
 91
        2
 92
        7
 72
     0
 73
     1
 93
        4
 10
723.5095156062172
 20
971.0895823917356
 10
727.509515606217
 20
972.3454940607352
 10
727.5095156062171
 20
1419.282329825198
 10
723.5095156062173
 20
1419.282329825198
 97
        4
330
777
330
7D3
330
778
330
7CD
 92
        7
 72
     0
 73
     1
 93
        4
 10
727.509515606217
 20
962.3454940607352
 10
723.5095156062174
 20
961.0895823917356
 10
723.5095156062172
 20
525.4086582962725
 10
727.5095156062174
 20
525.4086582962725
 97
        4
330
7A2
330
8D4
330
7D0
330
7D4
 75
     0
 76
     0
 52
45.0
 41
4.0
 77
     0
 78
     1
 53
45.0
 43
0.0500000000002956
 44
0.0
 45
-2.828427124746189
 46
2.82842712474619
 79
     0
 47
1.855841170671892
 98
        2
 10
724.9517801371941
 20
997.9702709487609
 10
725.7813156191224
 20
958.468277944401
  0
ENDSEC
  0
SECTION
  2
OBJECTS
  0
DICTIONARY
  5
5AE
330
0
100
AcDbDictionary
281
     1
  3
ACAD_COLOR
350
5BD
  3
ACAD_GROUP
350
5AF
  3
ACAD_LAYOUT
350
5BB
  3
ACAD_MATERIAL
350
5BC
  3
ACAD_MLINESTYLE
350
5B8
  3
ACAD_PLOTSETTINGS
350
5BA
  3
ACAD_PLOTSTYLENAME
350
5B0
  3
AcDbVariableDictionary
350
85A
  0
DICTIONARY
  5
5BD
102
{ACAD_REACTORS
330
5AE
102
}
330
5AE
100
AcDbDictionary
281
     1
  0
DICTIONARY
  5
5AF
102
{ACAD_REACTORS
330
5AE
102
}
330
5AE
100
AcDbDictionary
281
     1
  0
DICTIONARY
  5
5BB
102
{ACAD_REACTORS
330
5AE
102
}
330
5AE
100
AcDbDictionary
281
     1
  3
Layout1
350
5C1
  3
Model
350
5C5
  0
DICTIONARY
  5
5BC
102
{ACAD_REACTORS
330
5AE
102
}
330
5AE
100
AcDbDictionary
281
     1
  0
DICTIONARY
  5
5B8
102
{ACAD_REACTORS
330
5AE
102
}
330
5AE
100
AcDbDictionary
281
     1
  3
Standard
350
5B9
  0
DICTIONARY
  5
5BA
102
{ACAD_REACTORS
330
5AE
102
}
330
5AE
100
AcDbDictionary
281
     1
  0
ACDBDICTIONARYWDFLT
  5
5B0
102
{ACAD_REACTORS
330
5AE
102
}
330
5AE
100
AcDbDictionary
281
     1
  3
Normal
350
5B1
100
AcDbDictionaryWithDefault
340
5B1
  0
DICTIONARY
  5
85A
102
{ACAD_REACTORS
330
5AE
102
}
330
5AE
100
AcDbDictionary
281
     1
  3
DIMASSOC
350
85C
  3
HIDETEXT
350
85B
  3
PROJECTNAME
350
85D
  0
LAYOUT
  5
5C1
102
{ACAD_REACTORS
330
5BB
102
}
330
5BB
100
AcDbPlotSettings
  1

  2
RICOH Aficio 2027 PCL 6
  4

  6

 40
0.0
 41
0.0
 42
0.0
 43
0.0
 44
0.0
 45
0.0
 46
0.0
 47
0.0
 48
0.0
 49
0.0
140
0.0
141
0.0
142
1.0
143
1.0
 70
   688
 72
     0
 73
     0
 74
     5
  7
monochrome1.ctb
 75
    16
147
1.0
 76
     0
 77
     2
 78
   300
148
0.0
149
0.0
100
AcDbLayout
  1
Layout1
 70
     0
 71
     1
 10
0.0
 20
0.0
 11
12.0
 21
9.0
 12
0.0
 22
0.0
 32
0.0
 14
1.000000000000000E+20
 24
1.000000000000000E+20
 34
1.000000000000000E+20
 15
-1.000000000000000E+20
 25
-1.000000000000000E+20
 35
-1.000000000000000E+20
146
0.0
 13
0.0
 23
0.0
 33
0.0
 16
1.0
 26
0.0
 36
0.0
 17
0.0
 27
1.0
 37
0.0
 76
     0
330
5BE
  0
LAYOUT
  5
5C5
102
{ACAD_REACTORS
330
5BB
102
}
330
5BB
100
AcDbPlotSettings
  1

  2
RICOH Aficio 2027 PCL 6
  4
A4
  6

 40
5.027083396911621
 41
5.027085304260253
 42
5.027084350585937
 43
5.027069091796875
 44
209.9733276367187
 45
296.9259948730469
 46
0.0
 47
0.0
 48
0.0
 49
0.0
140
0.0
141
0.0
142
1.0
143
1.0
 70
 11952
 72
     0
 73
     1
 74
     0
  7
monochrome1.ctb
 75
     0
147
1.0
 76
     0
 77
     2
 78
   300
148
5772.758745361212
149
248.258719635729
100
AcDbLayout
  1
Model
 70
     1
 71
     0
 10
0.0
 20
0.0
 11
12.0
 21
9.0
 12
0.0
 22
0.0
 32
0.0
 14
0.0
 24
0.0
 34
0.0
 15
0.0
 25
0.0
 35
0.0
146
0.0
 13
0.0
 23
0.0
 33
0.0
 16
1.0
 26
0.0
 36
0.0
 17
0.0
 27
1.0
 37
0.0
 76
     0
330
5C2
  0
MLINESTYLE
  5
5B9
102
{ACAD_REACTORS
330
5B8
102
}
330
5B8
100
AcDbMlineStyle
  2
STANDARD
 70
     0
  3

 62
   256
 51
90.0
 52
90.0
 71
     2
 49
0.5
 62
   256
  6
BYLAYER
 49
-0.5
 62
   256
  6
BYLAYER
  0
ACDBPLACEHOLDER
  5
5B1
102
{ACAD_REACTORS
330
5B0
102
}
330
5B0
  0
DICTIONARYVAR
  5
85C
102
{ACAD_REACTORS
330
85A
102
}
330
85A
100
DictionaryVariables
280
     0
  1
2
  0
DICTIONARYVAR
  5
85B
102
{ACAD_REACTORS
330
85A
102
}
330
85A
100
DictionaryVariables
280
     0
  1
1
  0
DICTIONARYVAR
  5
85D
102
{ACAD_REACTORS
330
85A
102
}
330
85A
100
DictionaryVariables
280
     0
  1

  0
ENDSEC
  0
EOF
