  0
SECTION
  2
HEADER
  9
$ACADVER
  1
AC1018
  9
$ACADMAINTVER
 70
     2
  9
$DWGCODEPAGE
  3
ANSI_1252
  9
$INSBASE
 10
0.0
 20
0.0
 30
0.0
  9
$EXTMIN
 10
-0.0640839803227209
 20
-0.0906330578841335
 30
-0.0000000349181948
  9
$EXTMAX
 10
1050.064093759506
 20
1485.090646888447
 30
0.0000000814935746
  9
$LIMMIN
 10
0.0
 20
0.0
  9
$LIMMAX
 10
1050.0
 20
1485.0
  9
$ORTHOMODE
 70
     0
  9
$REGENMODE
 70
     1
  9
$FILLMODE
 70
     1
  9
$QTEXTMODE
 70
     0
  9
$MIRRTEXT
 70
     1
  9
$LTSCALE
 40
50.0
  9
$ATTMODE
 70
     1
  9
$TEXTSIZE
 40
2.5
  9
$TRACEWID
 40
0.5
  9
$TEXTSTYLE
  7
GREEKS
  9
$CLAYER
  8
SCHRAFF
  9
$CELTYPE
  6
ByLayer
  9
$CECOLOR
 62
   256
  9
$CELTSCALE
 40
1.0
  9
$DISPSILH
 70
     0
  9
$DIMSCALE
 40
5.0
  9
$DIMASZ
 40
3.5
  9
$DIMEXO
 40
1.0
  9
$DIMDLI
 40
7.0
  9
$DIMRND
 40
0.0
  9
$DIMDLE
 40
0.0
  9
$DIMEXE
 40
1.0
  9
$DIMTP
 40
0.8
  9
$DIMTM
 40
0.8
  9
$DIMTXT
 40
3.5
  9
$DIMCEN
 40
1.5
  9
$DIMTSZ
 40
0.0
  9
$DIMTOL
 70
     0
  9
$DIMLIM
 70
     0
  9
$DIMTIH
 70
     0
  9
$DIMTOH
 70
     0
  9
$DIMSE1
 70
     0
  9
$DIMSE2
 70
     0
  9
$DIMTAD
 70
     1
  9
$DIMZIN
 70
     8
  9
$DIMBLK
  1

  9
$DIMASO
 70
     1
  9
$DIMSHO
 70
     0
  9
$DIMPOST
  1

  9
$DIMAPOST
  1

  9
$DIMALT
 70
     0
  9
$DIMALTD
 70
     2
  9
$DIMALTF
 40
25.4
  9
$DIMLFAC
 40
1.0
  9
$DIMTOFL
 70
     1
  9
$DIMTVP
 40
0.0
  9
$DIMTIX
 70
     0
  9
$DIMSOXD
 70
     0
  9
$DIMSAH
 70
     0
  9
$DIMBLK1
  1

  9
$DIMBLK2
  1

  9
$DIMSTYLE
  2
STANDARD
  9
$DIMCLRD
 70
     0
  9
$DIMCLRE
 70
     0
  9
$DIMCLRT
 70
     1
  9
$DIMTFAC
 40
1.0
  9
$DIMGAP
 40
1.5
  9
$DIMJUST
 70
     0
  9
$DIMSD1
 70
     0
  9
$DIMSD2
 70
     0
  9
$DIMTOLJ
 70
     1
  9
$DIMTZIN
 70
     8
  9
$DIMALTZ
 70
     8
  9
$DIMALTTZ
 70
     8
  9
$DIMUPT
 70
     0
  9
$DIMDEC
 70
     2
  9
$DIMTDEC
 70
     2
  9
$DIMALTU
 70
     2
  9
$DIMALTTD
 70
     2
  9
$DIMTXSTY
  7
GREEKS
  9
$DIMAUNIT
 70
     0
  9
$DIMADEC
 70
     2
  9
$DIMALTRND
 40
0.0
  9
$DIMAZIN
 70
     2
  9
$DIMDSEP
 70
    46
  9
$DIMATFIT
 70
     3
  9
$DIMFRAC
 70
     0
  9
$DIMLDRBLK
  1

  9
$DIMLUNIT
 70
     2
  9
$DIMLWD
 70
    -2
  9
$DIMLWE
 70
    -2
  9
$DIMTMOVE
 70
     0
  9
$LUNITS
 70
     2
  9
$LUPREC
 70
     2
  9
$SKETCHINC
 40
1.0
  9
$FILLETRAD
 40
0.0
  9
$AUNITS
 70
     0
  9
$AUPREC
 70
     0
  9
$MENU
  1
ACAD
  9
$ELEVATION
 40
0.0
  9
$PELEVATION
 40
0.0
  9
$THICKNESS
 40
0.0
  9
$LIMCHECK
 70
     0
  9
$CHAMFERA
 40
0.0
  9
$CHAMFERB
 40
0.0
  9
$CHAMFERC
 40
0.0
  9
$CHAMFERD
 40
0.0
  9
$SKPOLY
 70
     0
  9
$TDCREATE
 40
2452227.359930440
  9
$TDUCREATE
 40
2452227.276597106
  9
$TDUPDATE
 40
2455453.413181331
  9
$TDUUPDATE
 40
2455453.329847998
  9
$TDINDWG
 40
0.0266065741
  9
$TDUSRTIMER
 40
0.0266065741
  9
$USRTIMER
 70
     1
  9
$ANGBASE
 50
0.0
  9
$ANGDIR
 70
     0
  9
$PDMODE
 70
     0
  9
$PDSIZE
 40
0.0
  9
$PLINEWID
 40
0.0
  9
$SPLFRAME
 70
     0
  9
$SPLINETYPE
 70
     6
  9
$SPLINESEGS
 70
     8
  9
$HANDSEED
  5
704
  9
$SURFTAB1
 70
     6
  9
$SURFTAB2
 70
     6
  9
$SURFTYPE
 70
     6
  9
$SURFU
 70
     6
  9
$SURFV
 70
     6
  9
$UCSBASE
  2

  9
$UCSNAME
  2

  9
$UCSORG
 10
0.0
 20
0.0
 30
0.0
  9
$UCSXDIR
 10
1.0
 20
0.0
 30
0.0
  9
$UCSYDIR
 10
0.0
 20
1.0
 30
0.0
  9
$UCSORTHOREF
  2

  9
$UCSORTHOVIEW
 70
     0
  9
$UCSORGTOP
 10
0.0
 20
0.0
 30
0.0
  9
$UCSORGBOTTOM
 10
0.0
 20
0.0
 30
0.0
  9
$UCSORGLEFT
 10
0.0
 20
0.0
 30
0.0
  9
$UCSORGRIGHT
 10
0.0
 20
0.0
 30
0.0
  9
$UCSORGFRONT
 10
0.0
 20
0.0
 30
0.0
  9
$UCSORGBACK
 10
0.0
 20
0.0
 30
0.0
  9
$PUCSBASE
  2

  9
$PUCSNAME
  2

  9
$PUCSORG
 10
0.0
 20
0.0
 30
0.0
  9
$PUCSXDIR
 10
1.0
 20
0.0
 30
0.0
  9
$PUCSYDIR
 10
0.0
 20
1.0
 30
0.0
  9
$PUCSORTHOREF
  2

  9
$PUCSORTHOVIEW
 70
     0
  9
$PUCSORGTOP
 10
0.0
 20
0.0
 30
0.0
  9
$PUCSORGBOTTOM
 10
0.0
 20
0.0
 30
0.0
  9
$PUCSORGLEFT
 10
0.0
 20
0.0
 30
0.0
  9
$PUCSORGRIGHT
 10
0.0
 20
0.0
 30
0.0
  9
$PUCSORGFRONT
 10
0.0
 20
0.0
 30
0.0
  9
$PUCSORGBACK
 10
0.0
 20
0.0
 30
0.0
  9
$USERI1
 70
     0
  9
$USERI2
 70
     0
  9
$USERI3
 70
     0
  9
$USERI4
 70
     0
  9
$USERI5
 70
     0
  9
$USERR1
 40
0.0
  9
$USERR2
 40
0.0
  9
$USERR3
 40
0.0
  9
$USERR4
 40
0.0
  9
$USERR5
 40
0.0
  9
$WORLDVIEW
 70
     1
  9
$SHADEDGE
 70
     3
  9
$SHADEDIF
 70
    70
  9
$TILEMODE
 70
     1
  9
$MAXACTVP
 70
    16
  9
$PINSBASE
 10
0.0
 20
0.0
 30
0.0
  9
$PLIMCHECK
 70
     0
  9
$PEXTMIN
 10
1.000000000000000E+20
 20
1.000000000000000E+20
 30
1.000000000000000E+20
  9
$PEXTMAX
 10
-1.000000000000000E+20
 20
-1.000000000000000E+20
 30
-1.000000000000000E+20
  9
$PLIMMIN
 10
0.0
 20
0.0
  9
$PLIMMAX
 10
12.0
 20
9.0
  9
$UNITMODE
 70
     0
  9
$VISRETAIN
 70
     0
  9
$PLINEGEN
 70
     0
  9
$PSLTSCALE
 70
     0
  9
$TREEDEPTH
 70
  3020
  9
$CMLSTYLE
  2
Standard
  9
$CMLJUST
 70
     0
  9
$CMLSCALE
 40
1.0
  9
$PROXYGRAPHICS
 70
     1
  9
$MEASUREMENT
 70
     0
  9
$CELWEIGHT
370
    -1
  9
$ENDCAPS
280
     0
  9
$JOINSTYLE
280
     0
  9
$LWDISPLAY
290
     0
  9
$INSUNITS
 70
     0
  9
$HYPERLINKBASE
  1

  9
$STYLESHEET
  1
monochrome 1.ctb
  9
$XEDIT
290
     1
  9
$CEPSNTYPE
380
     0
  9
$PSTYLEMODE
290
     1
  9
$FINGERPRINTGUID
  2
{8AF8D59D-FBF1-4B4F-BCB9-59A4C1DC72ED}
  9
$VERSIONGUID
  2
{BD9B7DDB-ED6D-41CC-8D7F-00F5C23DD59E}
  9
$EXTNAMES
290
     1
  9
$PSVPSCALE
 40
0.0
  9
$OLESTARTUP
290
     0
  9
$SORTENTS
280
   127
  9
$INDEXCTL
280
     0
  9
$HIDETEXT
280
     1
  9
$XCLIPFRAME
290
     0
  9
$HALOGAP
280
     0
  9
$OBSCOLOR
 70
   257
  9
$OBSLTYPE
280
     0
  9
$INTERSECTIONDISPLAY
280
     0
  9
$INTERSECTIONCOLOR
 70
   257
  9
$DIMASSOC
280
     2
  9
$PROJECTNAME
  1

  0
ENDSEC
  0
SECTION
  2
CLASSES
  0
CLASS
  1
ACDBDICTIONARYWDFLT
  2
AcDbDictionaryWithDefault
  3
ObjectDBX Classes
 90
        0
 91
        1
280
     0
281
     0
  0
CLASS
  1
DICTIONARYVAR
  2
AcDbDictionaryVar
  3
ObjectDBX Classes
 90
        0
 91
        3
280
     0
281
     0
  0
ENDSEC
  0
SECTION
  2
TABLES
  0
TABLE
  2
VPORT
  5
5AA
330
0
100
AcDbSymbolTable
 70
     2
  0
VPORT
  5
703
330
5AA
100
AcDbSymbolTableRecord
100
AcDbViewportTableRecord
  2
*Active
 70
     0
 10
0.0
 20
0.0
 11
1.0
 21
1.0
 12
525.0000048895919
 22
742.5000069152814
 13
0.0
 23
0.0
 14
1.0
 24
1.0
 15
10.0
 25
10.0
 16
0.0
 26
0.0
 36
1.0
 17
0.0
 27
0.0
 37
0.0
 40
1497.174668478872
 41
1.336927223719676
 42
50.0
 43
0.0
 44
0.0
 50
0.0
 51
0.0
 71
     0
 72
  1500
 73
     1
 74
     0
 75
     0
 76
     0
 77
     0
 78
     0
281
     0
 65
     1
110
0.0
120
0.0
130
0.0
111
1.0
121
0.0
131
0.0
112
0.0
122
1.0
132
0.0
 79
     0
146
0.0
  0
ENDTAB
  0
TABLE
  2
LTYPE
  5
5A7
330
0
100
AcDbSymbolTable
 70
     3
  0
LTYPE
  5
5B5
330
5A7
100
AcDbSymbolTableRecord
100
AcDbLinetypeTableRecord
  2
ByBlock
 70
     0
  3

 72
    65
 73
     0
 40
0.0
  0
LTYPE
  5
5B6
330
5A7
100
AcDbSymbolTableRecord
100
AcDbLinetypeTableRecord
  2
ByLayer
 70
     0
  3

 72
    65
 73
     0
 40
0.0
  0
LTYPE
  5
5B7
330
5A7
100
AcDbSymbolTableRecord
100
AcDbLinetypeTableRecord
  2
AUSGEZOGEN
 70
     0
  3
Ausgezogene Linie
 72
    65
 73
     0
 40
0.0
  0
LTYPE
  5
5CE
330
5A7
100
AcDbSymbolTableRecord
100
AcDbLinetypeTableRecord
  2
STRICHPUNKT
 70
     0
  3
__ . __ . __ . __ . __ . __ . __ . __ . __ . __
 72
    65
 73
     4
 40
1.0
 49
0.5
 74
     0
 49
-0.25
 74
     0
 49
0.0
 74
     0
 49
-0.25
 74
     0
  0
LTYPE
  5
5CF
330
5A7
100
AcDbSymbolTableRecord
100
AcDbLinetypeTableRecord
  2
CONTINUOUS
 70
     0
  3
Solid line
 72
    65
 73
     0
 40
0.0
  0
ENDTAB
  0
TABLE
  2
LAYER
  5
5A4
330
0
100
AcDbSymbolTable
 70
     9
  0
LAYER
  5
5B2
330
5A4
100
AcDbSymbolTableRecord
100
AcDbLayerTableRecord
  2
0
 70
     0
 62
     7
  6
AUSGEZOGEN
370
    -3
390
5B1
  0
LAYER
  5
5D3
330
5A4
100
AcDbSymbolTableRecord
100
AcDbLayerTableRecord
  2
VOLL
 70
     0
 62
     1
  6
AUSGEZOGEN
370
    -3
390
5B1
  0
LAYER
  5
5D4
330
5A4
100
AcDbSymbolTableRecord
100
AcDbLayerTableRecord
  2
HILF
 70
     0
 62
     2
  6
AUSGEZOGEN
370
    -3
390
5B1
  0
LAYER
  5
5D5
330
5A4
100
AcDbSymbolTableRecord
100
AcDbLayerTableRecord
  2
MITTEL
 70
     0
 62
     2
  6
STRICHPUNKT
370
    -3
390
5B1
  0
LAYER
  5
5D6
330
5A4
100
AcDbSymbolTableRecord
100
AcDbLayerTableRecord
  2
BEM
 70
     0
 62
     7
  6
AUSGEZOGEN
370
    -3
390
5B1
  0
LAYER
  5
5D7
330
5A4
100
AcDbSymbolTableRecord
100
AcDbLayerTableRecord
  2
STEMPEL
 70
     0
 62
     3
  6
AUSGEZOGEN
370
    -3
390
5B1
  0
LAYER
  5
5D8
330
5A4
100
AcDbSymbolTableRecord
100
AcDbLayerTableRecord
  2
TEXT
 70
     0
 62
     7
  6
AUSGEZOGEN
370
    -3
390
5B1
  0
LAYER
  5
5D9
330
5A4
100
AcDbSymbolTableRecord
100
AcDbLayerTableRecord
  2
DEFPOINTS
 70
     0
 62
     7
  6
AUSGEZOGEN
290
     0
370
    -3
390
5B1
  0
LAYER
  5
5DA
330
5A4
100
AcDbSymbolTableRecord
100
AcDbLayerTableRecord
  2
SCHRAFF
 70
     0
 62
     7
  6
AUSGEZOGEN
370
    -3
390
5B1
  0
ENDTAB
  0
TABLE
  2
STYLE
  5
5A5
330
0
100
AcDbSymbolTable
 70
     2
  0
STYLE
  5
5B3
330
5A5
100
AcDbSymbolTableRecord
100
AcDbTextStyleTableRecord
  2
STANDARD
 70
     0
 40
0.0
 41
1.0
 50
0.0
 71
     0
 42
3.5
  3
txt
  4

  0
STYLE
  5
5CD
330
5A5
100
AcDbSymbolTableRecord
100
AcDbTextStyleTableRecord
  2
GREEKS
 70
     0
 40
0.0
 41
0.8
 50
0.0
 71
     0
 42
2.5
  3
SIMPLEX.shx
  4

  0
ENDTAB
  0
TABLE
  2
VIEW
  5
5A8
330
0
100
AcDbSymbolTable
 70
     0
  0
ENDTAB
  0
TABLE
  2
UCS
  5
5A9
330
0
100
AcDbSymbolTable
 70
     0
  0
ENDTAB
  0
TABLE
  2
APPID
  5
5AB
330
0
100
AcDbSymbolTable
 70
     1
  0
APPID
  5
5B4
330
5AB
100
AcDbSymbolTableRecord
100
AcDbRegAppTableRecord
  2
ACAD
 70
     0
  0
ENDTAB
  0
TABLE
  2
DIMSTYLE
  5
5AC
330
0
100
AcDbSymbolTable
 70
     1
100
AcDbDimStyleTable
 71
     1
340
5D2
  0
DIMSTYLE
105
5D2
102
{ACAD_REACTORS
330
4E7
330
4F9
330
537
102
}
330
5AC
100
AcDbSymbolTableRecord
100
AcDbDimStyleTableRecord
  2
STANDARD
 70
     0
 40
5.0
 41
3.5
 42
1.0
 43
7.0
 44
1.0
 47
0.8
 48
0.8
 73
     0
 74
     0
 77
     1
 78
     8
 79
     2
140
3.5
141
1.5
147
1.5
172
     1
178
     1
179
     2
271
     2
272
     2
284
     8
285
     8
286
     8
340
5CD
  0
ENDTAB
  0
TABLE
  2
BLOCK_RECORD
  5
5A3
330
0
100
AcDbSymbolTable
 70
     4
  0
BLOCK_RECORD
  5
5C2
330
5A3
100
AcDbSymbolTableRecord
100
AcDbBlockTableRecord
  2
*Model_Space
340
5C5
  0
BLOCK_RECORD
  5
5BE
330
5A3
100
AcDbSymbolTableRecord
100
AcDbBlockTableRecord
  2
*Paper_Space
340
5C1
  0
BLOCK_RECORD
  5
5C6
330
5A3
100
AcDbSymbolTableRecord
100
AcDbBlockTableRecord
  2
LOGO
340
0
102
{BLKREFS
331
4EA
102
}
  0
BLOCK_RECORD
  5
5E7
330
5A3
100
AcDbSymbolTableRecord
100
AcDbBlockTableRecord
  2
*D1
340
0
  0
BLOCK_RECORD
  5
5F3
330
5A3
100
AcDbSymbolTableRecord
100
AcDbBlockTableRecord
  2
*D2
340
0
  0
BLOCK_RECORD
  5
5FF
330
5A3
100
AcDbSymbolTableRecord
100
AcDbBlockTableRecord
  2
*D3
340
0
  0
ENDTAB
  0
ENDSEC
  0
SECTION
  2
BLOCKS
  0
BLOCK
  5
5DD
330
5C2
100
AcDbEntity
  8
0
100
AcDbBlockBegin
  2
*Model_Space
 70
     0
 10
0.0
 20
0.0
 30
0.0
  3
*Model_Space
  1

  0
ENDBLK
  5
5DE
330
5C2
100
AcDbEntity
  8
0
100
AcDbBlockEnd
  0
BLOCK
  5
5DB
330
5BE
100
AcDbEntity
 67
     1
  8
0
100
AcDbBlockBegin
  2
*Paper_Space
 70
     0
 10
0.0
 20
0.0
 30
0.0
  3
*Paper_Space
  1

  0
ENDBLK
  5
5DC
330
5BE
100
AcDbEntity
 67
     1
  8
0
100
AcDbBlockEnd
  0
BLOCK
  5
39
330
5C6
100
AcDbEntity
  8
0
100
AcDbBlockBegin
  2
LOGO
 70
     0
 10
0.0
 20
0.0
 30
0.0
  3
LOGO
  1

  0
ARC
  5
3A
330
5C6
100
AcDbEntity
  8
0
100
AcDbCircle
 10
11.59973089678112
 20
-9.271599258481501
 30
0.0
 40
4.5
100
AcDbArc
 50
270.0
 51
231.0575587310159
  0
LINE
  5
3B
330
5C6
100
AcDbEntity
  8
0
100
AcDbLine
 10
3.599730896781125
 20
-4.771599258481529
 30
0.0
 11
3.599730896781153
 21
-11.77159925848133
 31
0.0
  0
LINE
  5
3C
330
5C6
100
AcDbEntity
  8
0
100
AcDbLine
 10
2.599730896781125
 20
-4.771599258481529
 30
0.0
 11
2.599730896781153
 21
-11.77159925848133
 31
0.0
  0
CIRCLE
  5
3D
330
5C6
100
AcDbEntity
  8
0
100
AcDbCircle
 10
11.59973089678112
 20
-9.271599258481501
 30
0.0
 40
3.5
  0
ARC
  5
3E
330
5C6
100
AcDbEntity
  8
0
100
AcDbCircle
 10
31.59973089678115
 20
-9.271599258481472
 30
0.0
 40
4.5
100
AcDbArc
 50
270.0
 51
231.0575587310182
  0
LINE
  5
3F
330
5C6
100
AcDbEntity
  8
0
100
AcDbLine
 10
17.59973089678112
 20
-4.771599258481472
 30
0.0
 11
17.59973089678115
 21
-13.77159925848147
 31
0.0
  0
ARC
  5
40
330
5C6
100
AcDbEntity
  8
0
100
AcDbCircle
 10
22.59973089678116
 20
-7.271599258481472
 30
0.0
 40
2.5
100
AcDbArc
 50
293.1161887722295
 51
90.0
  0
CIRCLE
  5
41
330
5C6
100
AcDbEntity
  8
0
100
AcDbCircle
 10
31.59973089678115
 20
-9.271599258481472
 30
0.0
 40
3.5
  0
ARC
  5
42
330
5C6
100
AcDbEntity
  8
0
100
AcDbCircle
 10
4.599730896781153
 20
-11.77159925848133
 30
0.0
 40
1.0
100
AcDbArc
 50
180.0
 51
270.0
  0
ARC
  5
43
330
5C6
100
AcDbEntity
  8
0
100
AcDbCircle
 10
4.599730896781153
 20
-11.77159925848133
 30
0.0
 40
2.0
100
AcDbArc
 50
179.9999999999992
 51
270.0
  0
LINE
  5
44
330
5C6
100
AcDbEntity
  8
0
100
AcDbLine
 10
11.59973089678115
 20
-13.77159925848144
 30
0.0
 11
4.599730896781153
 21
-13.77159925848147
 31
0.0
  0
LINE
  5
45
330
5C6
100
AcDbEntity
  8
0
100
AcDbLine
 10
8.771303772034769
 20
-12.77159925848136
 30
0.0
 11
4.599730896781153
 21
-12.77159925848133
 31
0.0
  0
LINE
  5
46
330
5C6
100
AcDbEntity
  8
0
100
AcDbLine
 10
31.59973089678115
 20
-13.77159925848147
 30
0.0
 11
23.6715276665056
 21
-13.77159925848144
 31
0.0
  0
LINE
  5
47
330
5C6
100
AcDbEntity
  8
0
100
AcDbLine
 10
23.56565672307022
 20
-9.51278021337896
 30
0.0
 11
24.4388546544846
 21
-12.77159925848144
 31
0.0
  0
LINE
  5
48
330
5C6
100
AcDbEntity
  8
0
100
AcDbLine
 10
22.59973089678116
 20
-9.771599258481472
 30
0.0
 11
18.59973089678112
 21
-9.771599258481472
 31
0.0
  0
LINE
  5
49
330
5C6
100
AcDbEntity
  8
0
100
AcDbLine
 10
18.59973089678115
 20
-13.77159925848144
 30
0.0
 11
17.59973089678115
 21
-13.77159925848144
 31
0.0
  0
LINE
  5
4A
330
5C6
100
AcDbEntity
  8
0
100
AcDbLine
 10
18.59973089678115
 20
-9.771599258481472
 30
0.0
 11
18.59973089678115
 21
-13.77159925848144
 31
0.0
  0
LINE
  5
4B
330
5C6
100
AcDbEntity
  8
0
100
AcDbLine
 10
22.59973089678116
 20
-9.771599258481472
 30
0.0
 11
23.67152766650562
 21
-13.77159925848147
 31
0.0
  0
ARC
  5
4C
330
5C6
100
AcDbEntity
  8
0
100
AcDbCircle
 10
22.59973089678116
 20
-7.271599258481472
 30
0.0
 40
2.5
100
AcDbArc
 50
270.0
 51
270.0000000000007
  0
LINE
  5
4D
330
5C6
100
AcDbEntity
  8
0
100
AcDbLine
 10
28.77130377203494
 20
-12.77159925848147
 30
0.0
 11
24.43885465448463
 21
-12.77159925848144
 31
0.0
  0
LINE
  5
4E
330
5C6
100
AcDbEntity
  8
0
100
AcDbLine
 10
3.599730896781125
 20
-4.771599258481472
 30
0.0
 11
2.599730896781125
 21
-4.771599258481472
 31
0.0
  0
LINE
  5
4F
330
5C6
100
AcDbEntity
  8
0
100
AcDbLine
 10
22.59973089678116
 20
-8.771599258481472
 30
0.0
 11
18.59973089678115
 21
-8.771599258481472
 31
0.0
  0
LINE
  5
50
330
5C6
100
AcDbEntity
  8
0
100
AcDbLine
 10
22.59973089678116
 20
-5.771599258481472
 30
0.0
 11
18.59973089678115
 21
-5.771599258481472
 31
0.0
  0
LINE
  5
51
330
5C6
100
AcDbEntity
  8
0
100
AcDbLine
 10
22.59973089678116
 20
-4.771599258481472
 30
0.0
 11
17.59973089678115
 21
-4.771599258481472
 31
0.0
  0
LINE
  5
52
330
5C6
100
AcDbEntity
  8
0
100
AcDbLine
 10
18.59973089678115
 20
-5.771599258481472
 30
0.0
 11
18.59973089678115
 21
-8.771599258481472
 31
0.0
  0
ARC
  5
53
330
5C6
100
AcDbEntity
  8
0
100
AcDbCircle
 10
22.59973089678116
 20
-7.271599258481472
 30
0.0
 40
1.5
100
AcDbArc
 50
270.0
 51
90.0
  0
ENDBLK
  5
54
330
5C6
100
AcDbEntity
  8
0
100
AcDbBlockEnd
  0
BLOCK
  5
5F1
330
5E7
100
AcDbEntity
  8
0
100
AcDbBlockBegin
  2
*D1
 70
     1
 10
0.0
 20
0.0
 30
0.0
  3
*D1
  1

  0
LINE
  5
6EA
330
5E7
100
AcDbEntity
  8
BEM
 62
     0
370
    -2
100
AcDbLine
 10
682.7743195899401
 20
529.7710581741251
 30
0.0
 11
682.7743195899401
 21
434.1922245375839
 31
0.0
  0
LINE
  5
6EB
330
5E7
100
AcDbEntity
  8
BEM
 62
     0
370
    -2
100
AcDbLine
 10
409.7743195899401
 20
529.7710581741251
 30
0.0
 11
409.7743195899401
 21
434.1922245375839
 31
0.0
  0
LINE
  5
6EC
330
5E7
100
AcDbEntity
  8
BEM
 62
     0
370
    -2
100
AcDbLine
 10
665.27431958994
 20
439.1922245375839
 30
0.0
 11
427.27431958994
 21
439.1922245375839
 31
0.0
  0
SOLID
  5
6ED
330
5E7
100
AcDbEntity
  8
BEM
 62
     0
100
AcDbTrace
 10
665.27431958994
 20
442.1088912042506
 30
0.0
 11
665.27431958994
 21
436.2755578709172
 31
0.0
 12
682.7743195899401
 22
439.1922245375839
 32
0.0
 13
682.7743195899401
 23
439.1922245375839
 33
0.0
  0
SOLID
  5
6EE
330
5E7
100
AcDbEntity
  8
BEM
 62
     0
100
AcDbTrace
 10
427.27431958994
 20
442.1088912042506
 30
0.0
 11
427.27431958994
 21
436.2755578709172
 31
0.0
 12
409.7743195899401
 22
439.1922245375839
 32
0.0
 13
409.7743195899401
 23
439.1922245375839
 33
0.0
  0
MTEXT
  5
6EF
330
5E7
100
AcDbEntity
  8
BEM
 62
     1
100
AcDbMText
 10
546.2743195899401
 20
455.4422245375839
 30
0.0
 40
17.5
 41
0.0
 71
     5
 72
     1
  1
\A1;%%c273
  7
GREEKS
 73
     1
 44
1.0
  0
POINT
  5
6F0
330
5E7
100
AcDbEntity
  8
DEFPOINTS
 62
     0
100
AcDbPoint
 10
682.7743195899401
 20
534.771058174125
 30
0.0
  0
POINT
  5
6F1
330
5E7
100
AcDbEntity
  8
DEFPOINTS
 62
     0
100
AcDbPoint
 10
409.7743195899401
 20
534.771058174125
 30
0.0
  0
POINT
  5
6F2
330
5E7
100
AcDbEntity
  8
DEFPOINTS
 62
     0
100
AcDbPoint
 10
409.7743195899401
 20
439.1922245375839
 30
0.0
  0
ENDBLK
  5
5F2
330
5E7
100
AcDbEntity
  8
0
100
AcDbBlockEnd
  0
BLOCK
  5
5FD
330
5F3
100
AcDbEntity
  8
0
100
AcDbBlockBegin
  2
*D2
 70
     1
 10
0.0
 20
0.0
 30
0.0
  3
*D2
  1

  0
LINE
  5
695
330
5F3
100
AcDbEntity
  8
SCHRAFF
 62
     0
370
    -2
100
AcDbLine
 10
404.7743195899401
 20
534.771058174125
 30
0.0
 11
364.0909951064097
 21
534.771058174125
 31
0.0
  0
LINE
  5
696
330
5F3
100
AcDbEntity
  8
SCHRAFF
 62
     0
370
    -2
100
AcDbLine
 10
404.7743195899401
 20
1428.644729703051
 30
0.0
 11
364.0909951064099
 21
1428.644729703051
 31
0.0
  0
LINE
  5
697
330
5F3
100
AcDbEntity
  8
SCHRAFF
 62
     0
370
    -2
100
AcDbLine
 10
369.0909951064097
 20
552.271058174125
 30
0.0
 11
369.0909951064099
 21
1411.144729703051
 31
0.0
  0
SOLID
  5
698
330
5F3
100
AcDbEntity
  8
SCHRAFF
 62
     0
100
AcDbTrace
 10
366.174328439743
 20
552.271058174125
 30
0.0
 11
372.0076617730764
 21
552.271058174125
 31
0.0
 12
369.0909951064097
 22
534.771058174125
 32
0.0
 13
369.0909951064097
 23
534.771058174125
 33
0.0
  0
SOLID
  5
699
330
5F3
100
AcDbEntity
  8
SCHRAFF
 62
     0
100
AcDbTrace
 10
366.1743284397433
 20
1411.144729703051
 30
0.0
 11
372.0076617730766
 21
1411.144729703051
 31
0.0
 12
369.0909951064099
 22
1428.644729703051
 32
0.0
 13
369.0909951064099
 23
1428.644729703051
 33
0.0
  0
MTEXT
  5
69A
330
5F3
100
AcDbEntity
  8
SCHRAFF
 62
     1
100
AcDbMText
 10
352.8409951064097
 20
981.7078939385881
 30
0.0
 40
17.5
 41
0.0
 71
     5
 72
     1
  1
\A1;3000
  7
GREEKS
 11
0.0000000000000001
 21
1.0
 31
0.0
 73
     1
 44
1.0
  0
POINT
  5
69B
330
5F3
100
AcDbEntity
  8
DEFPOINTS
 62
     0
100
AcDbPoint
 10
409.7743195899401
 20
534.771058174125
 30
0.0
  0
POINT
  5
69C
330
5F3
100
AcDbEntity
  8
DEFPOINTS
 62
     0
100
AcDbPoint
 10
409.7743195899401
 20
1428.644729703051
 30
0.0
  0
POINT
  5
69D
330
5F3
100
AcDbEntity
  8
DEFPOINTS
 62
     0
100
AcDbPoint
 10
369.0909951064099
 20
1428.644729703051
 30
0.0
  0
ENDBLK
  5
5FE
330
5F3
100
AcDbEntity
  8
0
100
AcDbBlockEnd
  0
BLOCK
  5
60B
330
5FF
100
AcDbEntity
  8
0
100
AcDbBlockBegin
  2
*D3
 70
     1
 10
0.0
 20
0.0
 30
0.0
  3
*D3
  1

  0
LINE
  5
6B5
330
5FF
100
AcDbEntity
  8
SCHRAFF
 62
     0
370
    -2
100
AcDbLine
 10
678.7743195899401
 20
529.7710581741251
 30
0.0
 11
678.7743195899401
 21
479.8961478642603
 31
0.0
  0
LINE
  5
6B6
330
5FF
100
AcDbEntity
  8
SCHRAFF
 62
     0
370
    -2
100
AcDbLine
 10
682.7743195899401
 20
529.7710581741251
 30
0.0
 11
682.7743195899401
 21
479.8961478642603
 31
0.0
  0
LINE
  5
6B7
330
5FF
100
AcDbEntity
  8
SCHRAFF
 62
     0
370
    -2
100
AcDbLine
 10
661.27431958994
 20
484.8961478642602
 30
0.0
 11
643.77431958994
 21
484.8961478642602
 31
0.0
  0
LINE
  5
6B8
330
5FF
100
AcDbEntity
  8
SCHRAFF
 62
     0
370
    -2
100
AcDbLine
 10
700.2743195899401
 20
484.8961478642602
 30
0.0
 11
742.7743195899401
 21
484.8961478642602
 31
0.0
  0
LINE
  5
6B9
330
5FF
100
AcDbEntity
  8
SCHRAFF
 62
     0
370
    -2
100
AcDbLine
 10
678.7743195899401
 20
484.8961478642602
 30
0.0
 11
682.7743195899401
 21
484.8961478642602
 31
0.0
  0
SOLID
  5
6BA
330
5FF
100
AcDbEntity
  8
SCHRAFF
 62
     0
100
AcDbTrace
 10
661.27431958994
 20
487.8128145309269
 30
0.0
 11
661.27431958994
 21
481.9794811975936
 31
0.0
 12
678.7743195899401
 22
484.8961478642602
 32
0.0
 13
678.7743195899401
 23
484.8961478642602
 33
0.0
  0
SOLID
  5
6BB
330
5FF
100
AcDbEntity
  8
SCHRAFF
 62
     0
100
AcDbTrace
 10
700.2743195899401
 20
487.8128145309269
 30
0.0
 11
700.2743195899401
 21
481.9794811975936
 31
0.0
 12
682.7743195899401
 22
484.8961478642602
 32
0.0
 13
682.7743195899401
 23
484.8961478642602
 33
0.0
  0
MTEXT
  5
6BC
330
5FF
100
AcDbEntity
  8
SCHRAFF
 62
     1
100
AcDbMText
 10
730.2743195899401
 20
501.1461478642602
 30
0.0
 40
17.5
 41
0.0
 71
     5
 72
     1
  1
\A1;4
  7
GREEKS
 73
     1
 44
1.0
  0
POINT
  5
6BD
330
5FF
100
AcDbEntity
  8
DEFPOINTS
 62
     0
100
AcDbPoint
 10
678.7743195899401
 20
534.771058174125
 30
0.0
  0
POINT
  5
6BE
330
5FF
100
AcDbEntity
  8
DEFPOINTS
 62
     0
100
AcDbPoint
 10
682.7743195899401
 20
534.771058174125
 30
0.0
  0
POINT
  5
6BF
330
5FF
100
AcDbEntity
  8
DEFPOINTS
 62
     0
100
AcDbPoint
 10
682.7743195899401
 20
484.8961478642602
 30
0.0
  0
ENDBLK
  5
60C
330
5FF
100
AcDbEntity
  8
0
100
AcDbBlockEnd
  0
ENDSEC
  0
SECTION
  2
ENTITIES
  0
POLYLINE
  5
4A3
102
{ACAD_REACTORS
330
6E3
102
}
330
5C2
100
AcDbEntity
  8
HILF
100
AcDb2dPolyline
 66
     1
 10
0.0
 20
0.0
 30
0.0
 70
     4
 75
     6
  0
VERTEX
  5
4A4
330
4A3
100
AcDbEntity
  8
HILF
100
AcDbVertex
100
AcDb2dVertex
 10
409.7743195899401
 20
959.5648053709098
 30
0.0
 70
    16
  0
VERTEX
  5
4A5
330
4A3
100
AcDbEntity
  8
HILF
100
AcDbVertex
100
AcDb2dVertex
 10
409.77431958994
 20
959.5648053709098
 30
0.0
 70
     8
  0
VERTEX
  5
4A6
330
4A3
100
AcDbEntity
  8
HILF
100
AcDbVertex
100
AcDb2dVertex
 10
434.4607026901193
 20
964.1281634148633
 30
0.0
 70
     8
  0
VERTEX
  5
4A7
330
4A3
100
AcDbEntity
  8
HILF
100
AcDbVertex
100
AcDb2dVertex
 10
455.9484048756275
 20
967.2590570207699
 30
0.0
 70
     8
  0
VERTEX
  5
4A8
330
4A3
100
AcDbEntity
  8
HILF
100
AcDbVertex
100
AcDb2dVertex
 10
474.6083453659621
 20
969.1299073464135
 30
0.0
 70
     8
  0
VERTEX
  5
4A9
330
4A3
100
AcDbEntity
  8
HILF
100
AcDbVertex
100
AcDb2dVertex
 10
490.8114433806205
 20
969.9131355495781
 30
0.0
 70
     8
  0
VERTEX
  5
4AA
330
4A3
100
AcDbEntity
  8
HILF
100
AcDbVertex
100
AcDb2dVertex
 10
504.9286181390999
 20
969.7811627880478
 30
0.0
 70
     8
  0
VERTEX
  5
4AB
330
4A3
100
AcDbEntity
  8
HILF
100
AcDbVertex
100
AcDb2dVertex
 10
517.3307888608977
 20
968.9064102196061
 30
0.0
 70
     8
  0
VERTEX
  5
4AC
330
4A3
100
AcDbEntity
  8
HILF
100
AcDbVertex
100
AcDb2dVertex
 10
528.3888747655114
 20
967.4612990020373
 30
0.0
 70
     8
  0
VERTEX
  5
4AD
330
4A3
100
AcDbEntity
  8
HILF
100
AcDbVertex
100
AcDb2dVertex
 10
538.4737950724383
 20
965.6182502931253
 30
0.0
 70
     8
  0
VERTEX
  5
4AE
330
4A3
100
AcDbEntity
  8
HILF
100
AcDbVertex
100
AcDb2dVertex
 10
547.9076440307887
 20
963.5303449049214
 30
0.0
 70
     8
  0
VERTEX
  5
4AF
330
4A3
100
AcDbEntity
  8
HILF
100
AcDbVertex
100
AcDb2dVertex
 10
556.8172160081259
 20
961.273302266548
 30
0.0
 70
     8
  0
VERTEX
  5
4B0
330
4A3
100
AcDbEntity
  8
HILF
100
AcDbVertex
100
AcDb2dVertex
 10
565.2804804016264
 20
958.903501461395
 30
0.0
 70
     8
  0
VERTEX
  5
4B1
330
4A3
100
AcDbEntity
  8
HILF
100
AcDbVertex
100
AcDb2dVertex
 10
573.3754066084665
 20
956.477321572852
 30
0.0
 70
     8
  0
VERTEX
  5
4B2
330
4A3
100
AcDbEntity
  8
HILF
100
AcDbVertex
100
AcDb2dVertex
 10
581.1799640258222
 20
954.0511416843092
 30
0.0
 70
     8
  0
VERTEX
  5
4B3
330
4A3
100
AcDbEntity
  8
HILF
100
AcDbVertex
100
AcDb2dVertex
 10
588.7721220508701
 20
951.6813408791561
 30
0.0
 70
     8
  0
VERTEX
  5
4B4
330
4A3
100
AcDbEntity
  8
HILF
100
AcDbVertex
100
AcDb2dVertex
 10
596.2298500807864
 20
949.4242982407827
 30
0.0
 70
     8
  0
VERTEX
  5
4B5
330
4A3
100
AcDbEntity
  8
HILF
100
AcDbVertex
100
AcDb2dVertex
 10
603.6311175127472
 20
947.3363928525788
 30
0.0
 70
     8
  0
VERTEX
  5
4B6
330
4A3
100
AcDbEntity
  8
HILF
100
AcDbVertex
100
AcDb2dVertex
 10
611.0785213151926
 20
945.5054046272529
 30
0.0
 70
     8
  0
VERTEX
  5
4B7
330
4A3
100
AcDbEntity
  8
HILF
100
AcDbVertex
100
AcDb2dVertex
 10
618.7731687416141
 20
944.1447167947872
 30
0.0
 70
     8
  0
VERTEX
  5
4B8
330
4A3
100
AcDbEntity
  8
HILF
100
AcDbVertex
100
AcDb2dVertex
 10
626.9407946167671
 20
943.4991134144826
 30
0.0
 70
     8
  0
VERTEX
  5
4B9
330
4A3
100
AcDbEntity
  8
HILF
100
AcDbVertex
100
AcDb2dVertex
 10
635.8071337654069
 20
943.8133785456402
 30
0.0
 70
     8
  0
VERTEX
  5
4BA
330
4A3
100
AcDbEntity
  8
HILF
100
AcDbVertex
100
AcDb2dVertex
 10
645.597921012289
 20
945.3322962475608
 30
0.0
 70
     8
  0
VERTEX
  5
4BB
330
4A3
100
AcDbEntity
  8
HILF
100
AcDbVertex
100
AcDb2dVertex
 10
656.5388911821684
 20
948.3006505795454
 30
0.0
 70
     8
  0
VERTEX
  5
4BC
330
4A3
100
AcDbEntity
  8
HILF
100
AcDbVertex
100
AcDb2dVertex
 10
668.8557790998003
 20
952.9632256008948
 30
0.0
 70
     8
  0
VERTEX
  5
4BD
330
4A3
100
AcDbEntity
  8
HILF
100
AcDbVertex
100
AcDb2dVertex
 10
682.7743195899401
 20
959.5648053709098
 30
0.0
 70
     8
  0
VERTEX
  5
4BE
330
4A3
100
AcDbEntity
  8
HILF
100
AcDbVertex
100
AcDb2dVertex
 10
480.199288382866
 20
973.7969759902117
 30
0.0
 70
    16
  0
VERTEX
  5
4BF
330
4A3
100
AcDbEntity
  8
HILF
100
AcDbVertex
100
AcDb2dVertex
 10
544.8977564397927
 20
968.0237578510919
 30
0.0
 70
    16
  0
VERTEX
  5
4C0
330
4A3
100
AcDbEntity
  8
HILF
100
AcDbVertex
100
AcDb2dVertex
 10
603.401690321056
 20
944.9308852946121
 30
0.0
 70
    16
  0
VERTEX
  5
4C1
330
4A3
100
AcDbEntity
  8
HILF
100
AcDbVertex
100
AcDb2dVertex
 10
643.32202167533
 20
939.1576671554922
 30
0.0
 70
    16
  0
VERTEX
  5
4C2
330
4A3
100
AcDbEntity
  8
HILF
100
AcDbVertex
100
AcDb2dVertex
 10
682.7743195899401
 20
959.5648053709098
 30
0.0
 70
    16
  0
SEQEND
  5
4C3
330
4A3
100
AcDbEntity
  8
HILF
  0
POLYLINE
  5
4C4
102
{ACAD_REACTORS
330
6E3
102
}
330
5C2
100
AcDbEntity
  8
HILF
100
AcDb2dPolyline
 66
     1
 10
0.0
 20
0.0
 30
0.0
 70
     4
 75
     6
  0
VERTEX
  5
4C5
330
4C4
100
AcDbEntity
  8
HILF
100
AcDbVertex
100
AcDb2dVertex
 10
409.7743195899401
 20
954.5648053709099
 30
0.0
 70
    16
  0
VERTEX
  5
4C6
330
4C4
100
AcDbEntity
  8
HILF
100
AcDbVertex
100
AcDb2dVertex
 10
409.77431958994
 20
954.5648053709097
 30
0.0
 70
     8
  0
VERTEX
  5
4C7
330
4C4
100
AcDbEntity
  8
HILF
100
AcDbVertex
100
AcDb2dVertex
 10
434.4607026901193
 20
959.1281634148632
 30
0.0
 70
     8
  0
VERTEX
  5
4C8
330
4C4
100
AcDbEntity
  8
HILF
100
AcDbVertex
100
AcDb2dVertex
 10
455.9484048756275
 20
962.2590570207698
 30
0.0
 70
     8
  0
VERTEX
  5
4C9
330
4C4
100
AcDbEntity
  8
HILF
100
AcDbVertex
100
AcDb2dVertex
 10
474.6083453659621
 20
964.1299073464134
 30
0.0
 70
     8
  0
VERTEX
  5
4CA
330
4C4
100
AcDbEntity
  8
HILF
100
AcDbVertex
100
AcDb2dVertex
 10
490.8114433806205
 20
964.9131355495782
 30
0.0
 70
     8
  0
VERTEX
  5
4CB
330
4C4
100
AcDbEntity
  8
HILF
100
AcDbVertex
100
AcDb2dVertex
 10
504.9286181390999
 20
964.7811627880477
 30
0.0
 70
     8
  0
VERTEX
  5
4CC
330
4C4
100
AcDbEntity
  8
HILF
100
AcDbVertex
100
AcDb2dVertex
 10
517.3307888608977
 20
963.906410219606
 30
0.0
 70
     8
  0
VERTEX
  5
4CD
330
4C4
100
AcDbEntity
  8
HILF
100
AcDbVertex
100
AcDb2dVertex
 10
528.3888747655114
 20
962.4612990020374
 30
0.0
 70
     8
  0
VERTEX
  5
4CE
330
4C4
100
AcDbEntity
  8
HILF
100
AcDbVertex
100
AcDb2dVertex
 10
538.4737950724383
 20
960.6182502931252
 30
0.0
 70
     8
  0
VERTEX
  5
4CF
330
4C4
100
AcDbEntity
  8
HILF
100
AcDbVertex
100
AcDb2dVertex
 10
547.9076440307887
 20
958.5303449049215
 30
0.0
 70
     8
  0
VERTEX
  5
4D0
330
4C4
100
AcDbEntity
  8
HILF
100
AcDbVertex
100
AcDb2dVertex
 10
556.8172160081259
 20
956.2733022665481
 30
0.0
 70
     8
  0
VERTEX
  5
4D1
330
4C4
100
AcDbEntity
  8
HILF
100
AcDbVertex
100
AcDb2dVertex
 10
565.2804804016264
 20
953.9035014613949
 30
0.0
 70
     8
  0
VERTEX
  5
4D2
330
4C4
100
AcDbEntity
  8
HILF
100
AcDbVertex
100
AcDb2dVertex
 10
573.3754066084665
 20
951.4773215728521
 30
0.0
 70
     8
  0
VERTEX
  5
4D3
330
4C4
100
AcDbEntity
  8
HILF
100
AcDbVertex
100
AcDb2dVertex
 10
581.1799640258222
 20
949.0511416843091
 30
0.0
 70
     8
  0
VERTEX
  5
4D4
330
4C4
100
AcDbEntity
  8
HILF
100
AcDbVertex
100
AcDb2dVertex
 10
588.7721220508701
 20
946.681340879156
 30
0.0
 70
     8
  0
VERTEX
  5
4D5
330
4C4
100
AcDbEntity
  8
HILF
100
AcDbVertex
100
AcDb2dVertex
 10
596.2298500807864
 20
944.4242982407827
 30
0.0
 70
     8
  0
VERTEX
  5
4D6
330
4C4
100
AcDbEntity
  8
HILF
100
AcDbVertex
100
AcDb2dVertex
 10
603.6311175127472
 20
942.3363928525787
 30
0.0
 70
     8
  0
VERTEX
  5
4D7
330
4C4
100
AcDbEntity
  8
HILF
100
AcDbVertex
100
AcDb2dVertex
 10
611.0785213151926
 20
940.5054046272528
 30
0.0
 70
     8
  0
VERTEX
  5
4D8
330
4C4
100
AcDbEntity
  8
HILF
100
AcDbVertex
100
AcDb2dVertex
 10
618.7731687416141
 20
939.1447167947871
 30
0.0
 70
     8
  0
VERTEX
  5
4D9
330
4C4
100
AcDbEntity
  8
HILF
100
AcDbVertex
100
AcDb2dVertex
 10
626.9407946167671
 20
938.4991134144827
 30
0.0
 70
     8
  0
VERTEX
  5
4DA
330
4C4
100
AcDbEntity
  8
HILF
100
AcDbVertex
100
AcDb2dVertex
 10
635.8071337654069
 20
938.8133785456401
 30
0.0
 70
     8
  0
VERTEX
  5
4DB
330
4C4
100
AcDbEntity
  8
HILF
100
AcDbVertex
100
AcDb2dVertex
 10
645.597921012289
 20
940.3322962475609
 30
0.0
 70
     8
  0
VERTEX
  5
4DC
330
4C4
100
AcDbEntity
  8
HILF
100
AcDbVertex
100
AcDb2dVertex
 10
656.5388911821684
 20
943.3006505795455
 30
0.0
 70
     8
  0
VERTEX
  5
4DD
330
4C4
100
AcDbEntity
  8
HILF
100
AcDbVertex
100
AcDb2dVertex
 10
668.8557790998003
 20
947.9632256008947
 30
0.0
 70
     8
  0
VERTEX
  5
4DE
330
4C4
100
AcDbEntity
  8
HILF
100
AcDbVertex
100
AcDb2dVertex
 10
682.7743195899401
 20
954.5648053709099
 30
0.0
 70
     8
  0
VERTEX
  5
4DF
330
4C4
100
AcDbEntity
  8
HILF
100
AcDbVertex
100
AcDb2dVertex
 10
480.199288382866
 20
968.7969759902117
 30
0.0
 70
    16
  0
VERTEX
  5
4E0
330
4C4
100
AcDbEntity
  8
HILF
100
AcDbVertex
100
AcDb2dVertex
 10
544.8977564397927
 20
963.0237578510918
 30
0.0
 70
    16
  0
VERTEX
  5
4E1
330
4C4
100
AcDbEntity
  8
HILF
100
AcDbVertex
100
AcDb2dVertex
 10
603.401690321056
 20
939.9308852946122
 30
0.0
 70
    16
  0
VERTEX
  5
4E2
330
4C4
100
AcDbEntity
  8
HILF
100
AcDbVertex
100
AcDb2dVertex
 10
643.32202167533
 20
934.1576671554923
 30
0.0
 70
    16
  0
VERTEX
  5
4E3
330
4C4
100
AcDbEntity
  8
HILF
100
AcDbVertex
100
AcDb2dVertex
 10
682.7743195899401
 20
954.5648053709099
 30
0.0
 70
    16
  0
SEQEND
  5
4E4
330
4C4
100
AcDbEntity
  8
HILF
  0
TEXT
  5
4E6
330
5C2
100
AcDbEntity
  8
TEXT
 62
     1
100
AcDbText
 10
476.9467689395077
 20
350.0447995668543
 30
0.0
 40
17.5
  1
Werkstoff: EN 10219 S235
 41
0.8
  7
GREEKS
100
AcDbText
  0
DIMENSION
  5
4E7
330
5C2
100
AcDbEntity
  8
BEM
100
AcDbDimension
  2
*D1
 10
409.7743195899401
 20
439.1922245375839
 30
0.0
 11
546.2743195899401
 21
455.4422245375839
 31
0.0
 70
    32
  1
%%c<>
 71
     5
 42
273.0
  3
STANDARD
100
AcDbAlignedDimension
 13
682.7743195899401
 23
534.771058174125
 33
0.0
 14
409.7743195899401
 24
534.771058174125
 34
0.0
100
AcDbRotatedDimension
  0
LINE
  5
4E8
102
{ACAD_REACTORS
330
6E3
102
}
330
5C2
100
AcDbEntity
  8
STEMPEL
100
AcDbLine
 10
682.7743195899401
 20
1428.644729703051
 30
0.0
 11
409.7743195899401
 21
1428.644729703051
 31
0.0
  0
LINE
  5
4E9
102
{ACAD_REACTORS
330
6E3
102
}
330
5C2
100
AcDbEntity
  8
STEMPEL
100
AcDbLine
 10
682.7743195899401
 20
534.771058174125
 30
0.0
 11
409.7743195899401
 21
534.771058174125
 31
0.0
  0
INSERT
  5
4EA
330
5C2
100
AcDbEntity
  8
STEMPEL
100
AcDbBlockReference
  2
LOGO
 10
377.4888713644485
 20
112.552631911208
 30
0.0
 41
5.0
 42
5.0
 43
5.0
  0
TEXT
  5
4EB
330
5C2
100
AcDbEntity
  8
TEXT
100
AcDbText
 10
517.9111550024571
 20
157.7240979930877
 30
0.0
 40
10.0
  1
Ba
 41
0.8
  7
GREEKS
 72
     1
 11
524.1968692881714
 21
157.7240979930877
 31
0.0
100
AcDbText
  0
LINE
  5
4EC
330
5C2
100
AcDbEntity
  8
HILF
100
AcDbLine
 10
1050.0
 20
0.0
 30
0.0
 11
0.0
 21
0.0
 31
0.0
  0
LINE
  5
4ED
330
5C2
100
AcDbEntity
  8
HILF
100
AcDbLine
 10
1050.0
 20
1485.0
 30
0.0
 11
0.0
 21
1485.0
 31
0.0
  0
LINE
  5
4EE
330
5C2
100
AcDbEntity
  8
STEMPEL
100
AcDbLine
 10
1025.0
 20
1460.0
 30
0.0
 11
99.99999999999971
 21
1460.0
 31
0.0
  0
LINE
  5
4EF
330
5C2
100
AcDbEntity
  8
STEMPEL
100
AcDbLine
 10
1025.0
 20
25.0
 30
0.0
 11
99.99999999999971
 21
25.0
 31
0.0
  0
LINE
  5
4F0
330
5C2
100
AcDbEntity
  8
STEMPEL
100
AcDbLine
 10
124.9999999999997
 20
25.0
 30
0.0
 11
1025.0
 21
25.0
 31
0.0
  0
TEXT
  5
4F1
330
5C2
100
AcDbEntity
  8
TEXT
100
AcDbText
 10
506.1566460565737
 20
183.2740272978806
 30
0.0
 40
10.0
  1
Name
 41
0.8
  7
GREEKS
100
AcDbText
  0
TEXT
  5
4F2
330
5C2
100
AcDbEntity
  8
TEXT
100
AcDbText
 10
485.7147386835128
 20
256.0460421087048
 30
0.0
 40
12.5
  1
Zul. Abw.
 41
0.8
  7
GREEKS
100
AcDbText
  0
LINE
  5
4F3
330
5C2
100
AcDbEntity
  8
HILF
100
AcDbLine
 10
365.0000000000003
 20
124.9999999999999
 30
0.0
 11
575.0
 21
124.9999999999999
 31
0.0
  0
LINE
  5
4F4
330
5C2
100
AcDbEntity
  8
HILF
100
AcDbLine
 10
365.0000000000003
 20
149.9999999999999
 30
0.0
 11
575.0
 21
149.9999999999999
 31
0.0
  0
LINE
  5
4F5
330
5C2
100
AcDbEntity
  8
HILF
100
AcDbLine
 10
365.0000000000003
 20
174.9999999999998
 30
0.0
 11
575.0
 21
174.9999999999998
 31
0.0
  0
LINE
  5
4F6
330
5C2
100
AcDbEntity
  8
STEMPEL
100
AcDbLine
 10
1025.0
 20
200.0
 30
0.0
 11
365.0000000000003
 21
199.9999999999998
 31
0.0
  0
LINE
  5
4F7
330
5C2
100
AcDbEntity
  8
STEMPEL
100
AcDbLine
 10
1025.0
 20
100.0
 30
0.0
 11
365.0000000000003
 21
99.99999999999992
 31
0.0
  0
LINE
  5
4F8
330
5C2
100
AcDbEntity
  8
STEMPEL
100
AcDbLine
 10
1025.0
 20
275.0000000000001
 30
0.0
 11
99.99999999999992
 21
275.0
 31
0.0
  0
DIMENSION
  5
4F9
330
5C2
100
AcDbEntity
  8
SCHRAFF
100
AcDbDimension
  2
*D2
 10
369.0909951064099
 20
1428.644729703051
 30
0.0
 11
352.8409951064097
 21
981.7078939385881
 31
0.0
 70
    32
  1
3000
 71
     5
 42
893.8736715289257
  3
STANDARD
100
AcDbAlignedDimension
 13
409.7743195899401
 23
534.771058174125
 33
0.0
 14
409.7743195899401
 24
1428.644729703051
 34
0.0
 50
90.0
100
AcDbRotatedDimension
  0
LINE
  5
4FA
330
5C2
100
AcDbEntity
  8
STEMPEL
100
AcDbLine
 10
409.7743195899401
 20
954.5648053709099
 30
0.0
 11
409.7743195899401
 21
534.771058174125
 31
0.0
  0
LINE
  5
4FB
330
5C2
100
AcDbEntity
  8
HILF
100
AcDbLine
 10
0.0
 20
0.0
 30
0.0
 11
-0.0000000000002842
 21
1485.0
 31
0.0
  0
LINE
  5
4FC
330
5C2
100
AcDbEntity
  8
STEMPEL
100
AcDbLine
 10
100.0
 20
25.0
 30
0.0
 11
99.99999999999971
 21
1460.0
 31
0.0
  0
TEXT
  5
4FD
330
5C2
100
AcDbEntity
  8
TEXT
 62
     1
100
AcDbText
 10
174.1028759070851
 20
396.551279020876
 30
0.0
 40
17.5
  1
Rohrenden entgratet
 41
0.8
  7
GREEKS
100
AcDbText
  0
TEXT
  5
4FE
330
5C2
100
AcDbEntity
  8
TEXT
100
AcDbText
 10
104.6377487744418
 20
279.1799999999999
 30
0.0
 40
12.5
  1
Erstellt mit AUTOCAD 2004
 41
0.8
  7
GREEKS
100
AcDbText
  0
TEXT
  5
4FF
330
5C2
100
AcDbEntity
  8
TEXT
100
AcDbText
 10
168.6368678756434
 20
46.68454737460329
 30
0.0
 40
10.0
  1
Änderung
 41
0.8
  7
GREEKS
 72
     1
 11
195.4940107327863
 21
46.68454737460329
 31
0.0
100
AcDbText
  0
LINE
  5
500
330
5C2
100
AcDbEntity
  8
HILF
100
AcDbLine
 10
100.0000000000002
 20
99.99999999999992
 30
0.0
 11
365.0000000000003
 21
99.99999999999992
 31
0.0
  0
LINE
  5
501
330
5C2
100
AcDbEntity
  8
HILF
100
AcDbLine
 10
100.0000000000002
 20
124.9999999999999
 30
0.0
 11
365.0000000000003
 21
124.9999999999999
 31
0.0
  0
LINE
  5
502
330
5C2
100
AcDbEntity
  8
HILF
100
AcDbLine
 10
100.0000000000002
 20
149.9999999999999
 30
0.0
 11
365.0000000000003
 21
149.9999999999999
 31
0.0
  0
LINE
  5
503
330
5C2
100
AcDbEntity
  8
HILF
100
AcDbLine
 10
100.0000000000002
 20
174.9999999999998
 30
0.0
 11
365.0000000000003
 21
174.9999999999998
 31
0.0
  0
LINE
  5
504
330
5C2
100
AcDbEntity
  8
HILF
100
AcDbLine
 10
100.0000000000002
 20
199.9999999999998
 30
0.0
 11
365.0000000000003
 21
199.9999999999998
 31
0.0
  0
LINE
  5
505
330
5C2
100
AcDbEntity
  8
HILF
100
AcDbLine
 10
100.0000000000002
 20
225.0000000000001
 30
0.0
 11
365.0000000000003
 21
225.0000000000001
 31
0.0
  0
LINE
  5
506
330
5C2
100
AcDbEntity
  8
HILF
100
AcDbLine
 10
100.0000000000002
 20
250.0000000000001
 30
0.0
 11
365.0000000000003
 21
250.0000000000001
 31
0.0
  0
LINE
  5
507
330
5C2
100
AcDbEntity
  8
STEMPEL
100
AcDbLine
 10
364.9999999999997
 20
74.99999999999992
 30
0.0
 11
99.99999999999992
 21
74.99999999999992
 31
0.0
  0
TEXT
  5
508
330
5C2
100
AcDbEntity
  8
TEXT
100
AcDbText
 10
120.6660276761439
 20
34.13664615067979
 30
0.0
 40
10.0
  1
Index
 50
90.0
 41
0.8
  7
GREEKS
100
AcDbText
  0
LINE
  5
509
330
5C2
100
AcDbEntity
  8
VOLL
100
AcDbLine
 10
135.0000000000002
 20
275.0000000000001
 30
0.0
 11
134.9999999999999
 21
24.99999999999993
 31
0.0
  0
LINE
  5
50A
330
5C2
100
AcDbEntity
  8
HILF
100
AcDbLine
 10
77.7191783928464
 20
742.5000000000001
 30
0.0
 11
0.0000000000002842
 21
742.5000000000001
 31
0.0
  0
TEXT
  5
50B
330
5C2
100
AcDbEntity
  8
TEXT
100
AcDbText
 10
274.540646523064
 20
46.67890673349525
 30
0.0
 40
10.0
  1
Tag
 41
0.8
  7
GREEKS
 72
     1
 11
283.8739798563973
 21
46.67890673349525
 31
0.0
100
AcDbText
  0
LINE
  5
50C
330
5C2
100
AcDbEntity
  8
VOLL
100
AcDbLine
 10
310.0000000000003
 20
274.9999999999999
 30
0.0
 11
310.0
 21
24.99999999999993
 31
0.0
  0
LINE
  5
50D
330
5C2
100
AcDbEntity
  8
VOLL
100
AcDbLine
 10
260.0000000000003
 20
274.9999999999999
 30
0.0
 11
260.0
 21
24.99999999999993
 31
0.0
  0
TEXT
  5
50E
330
5C2
100
AcDbEntity
  8
TEXT
100
AcDbText
 10
321.7293450483905
 20
46.4831054241602
 30
0.0
 40
10.0
  1
Name
 41
0.8
  7
GREEKS
 72
     1
 11
337.5388688579143
 21
46.4831054241602
 31
0.0
100
AcDbText
  0
LINE
  5
50F
330
5C2
100
AcDbEntity
  8
STEMPEL
100
AcDbLine
 10
365.0000000000003
 20
274.9999999999999
 30
0.0
 11
365.0
 21
24.99999999999993
 31
0.0
  0
TEXT
  5
510
330
5C2
100
AcDbEntity
  8
TEXT
100
AcDbText
 10
425.9974927705902
 20
157.7691260206433
 30
0.0
 40
10.0
  1
20.08.
 41
0.8
  7
GREEKS
 72
     1
 11
443.5213022943996
 21
157.7691260206433
 31
0.0
100
AcDbText
  0
TEXT
  5
511
330
5C2
100
AcDbEntity
  8
TEXT
100
AcDbText
 10
430.8279182884127
 20
183.2970125307481
 30
0.0
 40
10.0
  1
Tag
 41
0.8
  7
GREEKS
100
AcDbText
  0
TEXT
  5
512
330
5C2
100
AcDbEntity
  8
TEXT
100
AcDbText
 10
368.9590317919039
 20
159.0747592404491
 30
0.0
 40
10.0
  1
Gez.
 41
0.8
  7
GREEKS
100
AcDbText
  0
LINE
  5
513
330
5C2
100
AcDbEntity
  8
VOLL
100
AcDbLine
 10
410.0000000000003
 20
199.9999999999998
 30
0.0
 11
410.0000000000003
 21
99.99999999999992
 31
0.0
  0
TEXT
  5
514
330
5C2
100
AcDbEntity
  8
TEXT
100
AcDbText
 10
369.0016943468259
 20
108.8236597412452
 30
0.0
 40
10.0
  1
Norm.
 41
0.8
  7
GREEKS
100
AcDbText
  0
TEXT
  5
515
330
5C2
100
AcDbEntity
  8
TEXT
100
AcDbText
 10
368.8787716429181
 20
134.2231572857094
 30
0.0
 40
10.0
  1
Gepr.
 41
0.8
  7
GREEKS
100
AcDbText
  0
TEXT
  5
516
330
5C2
100
AcDbEntity
  8
TEXT
 62
     1
100
AcDbText
 10
401.2515766204717
 20
220.372535722849
 30
0.0
 40
17.5
  1
1:5
 41
0.8
  7
GREEKS
100
AcDbText
  0
TEXT
  5
517
330
5C2
100
AcDbEntity
  8
TEXT
100
AcDbText
 10
383.7908930375943
 20
256.1552237717722
 30
0.0
 40
12.5
  1
Maßstab
 41
0.8
  7
GREEKS
100
AcDbText
  0
TEXT
  5
518
330
5C2
100
AcDbEntity
  8
TEXT
100
AcDbText
 10
371.55527455526
 20
182.8506367787916
 30
0.0
 40
10.0
  1
2007
 41
0.8
  7
GREEKS
100
AcDbText
  0
LINE
  5
519
330
5C2
100
AcDbEntity
  8
VOLL
100
AcDbLine
 10
475.0000000000002
 20
274.9999999999996
 30
0.0
 11
475.0
 21
99.99999999999992
 31
0.0
  0
POINT
  5
51A
330
5C2
100
AcDbEntity
  8
BEM
100
AcDbPoint
 10
409.7743195899401
 20
534.771058174125
 30
0.0
  0
LINE
  5
51B
330
5C2
100
AcDbEntity
  8
STEMPEL
100
AcDbLine
 10
409.7743195899401
 20
1428.644729703051
 30
0.0
 11
409.7743195899401
 21
959.56480537091
 31
0.0
  0
POINT
  5
51C
330
5C2
100
AcDbEntity
  8
BEM
100
AcDbPoint
 10
409.7743195899401
 20
1428.644729703051
 30
0.0
  0
LINE
  5
51E
102
{ACAD_REACTORS
330
6E3
102
}
330
5C2
100
AcDbEntity
  8
STEMPEL
100
AcDbLine
 10
682.7743195899401
 20
954.5648053709099
 30
0.0
 11
682.7743195899401
 21
534.771058174125
 31
0.0
  0
LINE
  5
51F
102
{ACAD_REACTORS
330
6E3
102
}
330
5C2
100
AcDbEntity
  8
STEMPEL
100
AcDbLine
 10
678.7743195899401
 20
1428.644729703051
 30
0.0
 11
678.7743195899401
 21
957.66760076826
 31
0.0
  0
LINE
  5
520
330
5C2
100
AcDbEntity
  8
MITTEL
100
AcDbLine
 10
546.2743195899399
 20
1433.644729703051
 30
0.0
 11
546.2743195899399
 21
529.7710581741251
 31
0.0
  0
LINE
  5
522
330
5C2
100
AcDbEntity
  8
HILF
100
AcDbLine
 10
1050.0
 20
-0.0000000000002842
 30
0.0
 11
1050.0
 21
1485.0
 31
0.0
  0
LINE
  5
523
330
5C2
100
AcDbEntity
  8
STEMPEL
100
AcDbLine
 10
1025.0
 20
25.0
 30
0.0
 11
1025.0
 21
1460.0
 31
0.0
  0
TEXT
  5
524
330
5C2
100
AcDbEntity
  8
TEXT
 62
     1
100
AcDbText
 10
596.9467689395078
 20
320.0447995668542
 30
0.0
 40
17.5
  1
feuerverzinkt und innen beschichtet
 41
0.8
  7
GREEKS
100
AcDbText
  0
TEXT
  5
525
330
5C2
100
AcDbEntity
  8
TEXT
100
AcDbText
 10
843.1002153742515
 20
130.185404446965
 30
0.0
 40
12.5
  1
ersetzt durch:
 41
0.8
  7
GREEKS
100
AcDbText
  0
TEXT
  5
526
330
5C2
100
AcDbEntity
  8
TEXT
100
AcDbText
 10
841.8096540742482
 20
182.9529559274992
 30
0.0
 40
12.5
  1
Ersatz für:
 41
0.8
  7
GREEKS
100
AcDbText
  0
TEXT
  5
527
330
5C2
100
AcDbEntity
  8
TEXT
100
AcDbText
 10
840.4468873940851
 20
255.7830086342841
 30
0.0
 40
12.5
  1
Zeichnungs Nr.
 41
0.8
  7
GREEKS
100
AcDbText
  0
LINE
  5
528
330
5C2
100
AcDbEntity
  8
HILF
100
AcDbLine
 10
583.7274248224712
 20
37.23495645070784
 30
0.0
 11
1012.147209831682
 21
37.23495645070784
 31
0.0
  0
LINE
  5
529
330
5C2
100
AcDbEntity
  8
HILF
100
AcDbLine
 10
841.8096540742482
 20
209.4495909238957
 30
0.0
 11
1012.147209831682
 21
209.4495909238957
 31
0.0
  0
LINE
  5
52A
330
5C2
100
AcDbEntity
  8
VOLL
100
AcDbLine
 10
830.0
 20
150.0
 30
0.0
 11
1025.0
 21
150.0
 31
0.0
  0
TEXT
  5
52B
330
5C2
100
AcDbEntity
  8
TEXT
100
AcDbText
 10
587.8240977813288
 20
129.100298576054
 30
0.0
 40
12.5
  1
EDV-Art.Nr. 01050.250X
 41
0.8
  7
GREEKS
100
AcDbText
  0
TEXT
  5
52C
330
5C2
100
AcDbEntity
  8
TEXT
100
AcDbText
 10
587.8240977813288
 20
178.7583604396322
 30
0.0
 40
12.5
  1
Muffenlos 3000mm lang
 41
0.8
  7
GREEKS
100
AcDbText
  0
TEXT
  5
52D
330
5C2
100
AcDbEntity
  8
TEXT
 62
     1
100
AcDbText
 10
588.1033670452672
 20
218.5437197313445
 30
0.0
 40
17.5
  1
Rohr DN250
 41
0.8
  7
GREEKS
100
AcDbText
  0
LINE
  5
52E
330
5C2
100
AcDbEntity
  8
HILF
100
AcDbLine
 10
586.9342002742369
 20
124.9999999999999
 30
0.0
 11
812.0884791390775
 21
124.9999999999999
 31
0.0
  0
LINE
  5
52F
330
5C2
100
AcDbEntity
  8
HILF
100
AcDbLine
 10
586.9342002742369
 20
149.9999999999999
 30
0.0
 11
812.0884791390775
 21
149.9999999999999
 31
0.0
  0
LINE
  5
530
330
5C2
100
AcDbEntity
  8
HILF
100
AcDbLine
 10
586.9342002742369
 20
174.9999999999998
 30
0.0
 11
812.0884791390775
 21
174.9999999999998
 31
0.0
  0
LINE
  5
531
330
5C2
100
AcDbEntity
  8
HILF
100
AcDbLine
 10
586.9342002742369
 20
210.0939561891034
 30
0.0
 11
812.0884791390777
 21
210.0939561891034
 31
0.0
  0
LINE
  5
532
330
5C2
100
AcDbEntity
  8
STEMPEL
100
AcDbLine
 10
575.0
 20
275.0000000000001
 30
0.0
 11
575.0
 21
24.99999999999993
 31
0.0
  0
TEXT
  5
533
330
5C2
100
AcDbEntity
  8
TEXT
100
AcDbText
 10
587.4593753944567
 20
106.5743538255658
 30
0.0
 40
10.0
  1
01050250W.DWG
 41
0.8
  7
GREEKS
100
AcDbText
  0
TEXT
  5
534
330
5C2
100
AcDbEntity
  8
TEXT
100
AcDbText
 10
586.8555959778399
 20
77.11401425482641
 30
0.0
 40
12.5
  1
Bauvorhaben
 41
0.8
  7
GREEKS
100
AcDbText
  0
TEXT
  5
535
330
5C2
100
AcDbEntity
  8
TEXT
100
AcDbText
 10
587.1948509522525
 20
256.3723320029449
 30
0.0
 40
12.5
  1
Benennung
 41
0.8
  7
GREEKS
100
AcDbText
  0
LINE
  5
536
330
5C2
100
AcDbEntity
  8
STEMPEL
100
AcDbLine
 10
830.0
 20
274.9999999999994
 30
0.0
 11
830.0
 21
100.0
 31
0.0
  0
DIMENSION
  5
537
330
5C2
100
AcDbEntity
  8
SCHRAFF
100
AcDbDimension
  2
*D3
 10
682.7743195899401
 20
484.8961478642602
 30
0.0
 11
730.2743195899401
 21
501.1461478642602
 31
0.0
 70
    32
  1
<>
 71
     5
 42
4.0
  3
STANDARD
100
AcDbAlignedDimension
 13
678.7743195899401
 23
534.771058174125
 33
0.0
 14
682.7743195899401
 24
534.771058174125
 34
0.0
100
AcDbRotatedDimension
  0
TEXT
  5
538
330
5C2
100
AcDbEntity
  8
TEXT
 62
     1
100
AcDbText
 10
868.1918385869925
 20
220.372535722849
 30
0.0
 40
17.5
  1
01050250W
 41
0.8
  7
GREEKS
 72
     1
 11
926.8585052536591
 21
220.372535722849
 31
0.0
100
AcDbText
  0
LINE
  5
53B
102
{ACAD_REACTORS
330
6E3
102
}
330
5C2
100
AcDbEntity
  8
STEMPEL
100
AcDbLine
 10
682.7743195899401
 20
1428.644729703051
 30
0.0
 11
682.7743195899401
 21
959.5648053709098
 31
0.0
  0
TEXT
  5
5A2
330
5C2
100
AcDbEntity
  8
TEXT
 62
     1
100
AcDbText
 10
535.654552152124
 20
989.9306827350249
 30
0.0
 40
17.5
  1
DN250
 50
90.0
 41
0.8
  7
GREEKS
100
AcDbText
  0
TEXT
  5
5E6
330
5C2
100
AcDbEntity
  8
BEM
100
AcDbText
 10
1043.255730964291
 20
25.41975269997152
 30
0.0
 40
10.0
  1
Diese Zeichnung ist urheberrechtlich geschützt und bleibt unser Eigentum. Sie darf weder ganz noch teilweise verfielfältigt und nicht an Dritte weitergegeben werden.
 50
90.0
 41
0.8
  7
GREEKS
100
AcDbText
  0
TEXT
  5
60E
330
5C2
100
AcDbEntity
  8
TEXT
100
AcDbText
 10
481.7206788119809
 20
222.5953838743496
 30
0.0
 40
10.0
  1
DIN EN1123-2
 41
0.8
  7
GREEKS
 72
     1
 11
524.1968692881714
 21
222.5953838743496
 31
0.0
100
AcDbText
  0
LINE
  5
6CB
102
{ACAD_REACTORS
330
6E3
102
}
330
5C2
100
AcDbEntity
  8
STEMPEL
100
AcDbLine
 10
678.7743195899401
 20
952.6676007682601
 30
0.0
 11
678.7743195899401
 21
534.771058174125
 31
0.0
  0
HATCH
  5
6E3
330
5C2
100
AcDbEntity
  8
SCHRAFF
100
AcDbHatch
 10
0.0
 20
0.0
 30
0.0
210
0.0
220
0.0
230
1.0
  2
_USER
 70
     0
 71
     1
 91
        2
 92
        7
 72
     0
 73
     1
 93
        4
 10
678.7743195899401
 20
957.66760076826
 10
682.7743195899401
 20
959.5648053709098
 10
682.7743195899399
 20
1428.64472970305
 10
678.7743195899401
 20
1428.644729703051
 97
        4
330
4E8
330
51F
330
4A3
330
53B
 92
        7
 72
     0
 73
     1
 93
        4
 10
678.7743195899401
 20
534.771058174125
 10
682.7743195899401
 20
534.771058174125
 10
682.7743195899401
 20
954.5648053709099
 10
678.7743195899401
 20
952.6676007682601
 97
        4
330
4C4
330
6CB
330
4E9
330
51E
 75
     0
 76
     0
 52
45.0
 41
4.0
 77
     0
 78
     1
 53
45.0
 43
0.0
 44
0.0
 45
-2.828427124746189
 46
2.82842712474619
 79
     0
 47
2.317984286991261
 98
        2
 10
680.5131920517424
 20
1157.158022794956
 10
680.5131920517424
 20
862.7740172730886
  0
ENDSEC
  0
SECTION
  2
OBJECTS
  0
DICTIONARY
  5
5AE
330
0
100
AcDbDictionary
281
     1
  3
ACAD_COLOR
350
5BD
  3
ACAD_GROUP
350
5AF
  3
ACAD_LAYOUT
350
5BB
  3
ACAD_MATERIAL
350
5BC
  3
ACAD_MLINESTYLE
350
5B8
  3
ACAD_PLOTSETTINGS
350
5BA
  3
ACAD_PLOTSTYLENAME
350
5B0
  3
AcDbVariableDictionary
350
661
  0
DICTIONARY
  5
5BD
102
{ACAD_REACTORS
330
5AE
102
}
330
5AE
100
AcDbDictionary
281
     1
  0
DICTIONARY
  5
5AF
102
{ACAD_REACTORS
330
5AE
102
}
330
5AE
100
AcDbDictionary
281
     1
  0
DICTIONARY
  5
5BB
102
{ACAD_REACTORS
330
5AE
102
}
330
5AE
100
AcDbDictionary
281
     1
  3
Layout1
350
5C1
  3
Model
350
5C5
  0
DICTIONARY
  5
5BC
102
{ACAD_REACTORS
330
5AE
102
}
330
5AE
100
AcDbDictionary
281
     1
  0
DICTIONARY
  5
5B8
102
{ACAD_REACTORS
330
5AE
102
}
330
5AE
100
AcDbDictionary
281
     1
  3
Standard
350
5B9
  0
DICTIONARY
  5
5BA
102
{ACAD_REACTORS
330
5AE
102
}
330
5AE
100
AcDbDictionary
281
     1
  0
ACDBDICTIONARYWDFLT
  5
5B0
102
{ACAD_REACTORS
330
5AE
102
}
330
5AE
100
AcDbDictionary
281
     1
  3
Normal
350
5B1
100
AcDbDictionaryWithDefault
340
5B1
  0
DICTIONARY
  5
661
102
{ACAD_REACTORS
330
5AE
102
}
330
5AE
100
AcDbDictionary
281
     1
  3
DIMASSOC
350
663
  3
HIDETEXT
350
662
  3
PROJECTNAME
350
664
  0
LAYOUT
  5
5C1
102
{ACAD_REACTORS
330
5BB
102
}
330
5BB
100
AcDbPlotSettings
  1

  2
RICOH Aficio 2027 PCL 6
  4

  6

 40
0.0
 41
0.0
 42
0.0
 43
0.0
 44
0.0
 45
0.0
 46
0.0
 47
0.0
 48
0.0
 49
0.0
140
0.0
141
0.0
142
1.0
143
1.0
 70
   688
 72
     0
 73
     0
 74
     5
  7
monochrome1.ctb
 75
    16
147
1.0
 76
     0
 77
     2
 78
   300
148
0.0
149
0.0
100
AcDbLayout
  1
Layout1
 70
     0
 71
     1
 10
0.0
 20
0.0
 11
12.0
 21
9.0
 12
0.0
 22
0.0
 32
0.0
 14
1.000000000000000E+20
 24
1.000000000000000E+20
 34
1.000000000000000E+20
 15
-1.000000000000000E+20
 25
-1.000000000000000E+20
 35
-1.000000000000000E+20
146
0.0
 13
0.0
 23
0.0
 33
0.0
 16
1.0
 26
0.0
 36
0.0
 17
0.0
 27
1.0
 37
0.0
 76
     0
330
5BE
  0
LAYOUT
  5
5C5
102
{ACAD_REACTORS
330
5BB
102
}
330
5BB
100
AcDbPlotSettings
  1

  2
RICOH Aficio 2027 PCL 6
  4
A4
  6

 40
5.027083396911621
 41
5.027085304260253
 42
5.027084350585937
 43
5.027069091796875
 44
209.9733276367187
 45
296.9259948730469
 46
0.0
 47
0.0
 48
0.0
 49
0.0
140
0.0
141
0.0
142
1.0
143
1.0
 70
 11952
 72
     0
 73
     1
 74
     0
  7
monochrome1.ctb
 75
     0
147
1.0
 76
     0
 77
     2
 78
   300
148
5749.737974108374
149
225.2379483828901
100
AcDbLayout
  1
Model
 70
     1
 71
     0
 10
0.0
 20
0.0
 11
12.0
 21
9.0
 12
0.0
 22
0.0
 32
0.0
 14
0.0
 24
0.0
 34
0.0
 15
0.0
 25
0.0
 35
0.0
146
0.0
 13
0.0
 23
0.0
 33
0.0
 16
1.0
 26
0.0
 36
0.0
 17
0.0
 27
1.0
 37
0.0
 76
     0
330
5C2
  0
MLINESTYLE
  5
5B9
102
{ACAD_REACTORS
330
5B8
102
}
330
5B8
100
AcDbMlineStyle
  2
STANDARD
 70
     0
  3

 62
   256
 51
90.0
 52
90.0
 71
     2
 49
0.5
 62
   256
  6
BYLAYER
 49
-0.5
 62
   256
  6
BYLAYER
  0
ACDBPLACEHOLDER
  5
5B1
102
{ACAD_REACTORS
330
5B0
102
}
330
5B0
  0
DICTIONARYVAR
  5
663
102
{ACAD_REACTORS
330
661
102
}
330
661
100
DictionaryVariables
280
     0
  1
2
  0
DICTIONARYVAR
  5
662
102
{ACAD_REACTORS
330
661
102
}
330
661
100
DictionaryVariables
280
     0
  1
1
  0
DICTIONARYVAR
  5
664
102
{ACAD_REACTORS
330
661
102
}
330
661
100
DictionaryVariables
280
     0
  1

  0
ENDSEC
  0
EOF
