  0
SECTION
  2
HEADER
  9
$ACADVER
  1
AC1018
  9
$ACADMAINTVER
 70
     2
  9
$DWGCODEPAGE
  3
ANSI_1252
  9
$INSBASE
 10
0.0
 20
0.0
 30
0.0
  9
$EXTMIN
 10
-0.0128164049388033
 20
-0.0181260584133725
 30
-0.0015258207003583
  9
$EXTMAX
 10
420.012818360716
 20
594.0181288244416
 30
0.0000000349246037
  9
$LIMMIN
 10
0.0
 20
0.0
  9
$LIMMAX
 10
419.9999999999999
 20
594.0
  9
$ORTHOMODE
 70
     1
  9
$REGENMODE
 70
     1
  9
$FILLMODE
 70
     1
  9
$QTEXTMODE
 70
     0
  9
$MIRRTEXT
 70
     1
  9
$LTSCALE
 40
20.0
  9
$ATTMODE
 70
     1
  9
$TEXTSIZE
 40
2.5
  9
$TRACEWID
 40
0.5
  9
$TEXTSTYLE
  7
GREEKS
  9
$CLAYER
  8
VOLL
  9
$CELTYPE
  6
ByLayer
  9
$CECOLOR
 62
   256
  9
$CELTSCALE
 40
1.0
  9
$DISPSILH
 70
     0
  9
$DIMSCALE
 40
2.0
  9
$DIMASZ
 40
3.5
  9
$DIMEXO
 40
1.0
  9
$DIMDLI
 40
7.0
  9
$DIMRND
 40
0.0
  9
$DIMDLE
 40
0.0
  9
$DIMEXE
 40
1.0
  9
$DIMTP
 40
0.0
  9
$DIMTM
 40
0.0
  9
$DIMTXT
 40
3.5
  9
$DIMCEN
 40
1.5
  9
$DIMTSZ
 40
0.0
  9
$DIMTOL
 70
     0
  9
$DIMLIM
 70
     0
  9
$DIMTIH
 70
     0
  9
$DIMTOH
 70
     0
  9
$DIMSE1
 70
     0
  9
$DIMSE2
 70
     0
  9
$DIMTAD
 70
     1
  9
$DIMZIN
 70
     8
  9
$DIMBLK
  1

  9
$DIMASO
 70
     1
  9
$DIMSHO
 70
     0
  9
$DIMPOST
  1

  9
$DIMAPOST
  1

  9
$DIMALT
 70
     0
  9
$DIMALTD
 70
     2
  9
$DIMALTF
 40
25.4
  9
$DIMLFAC
 40
1.0
  9
$DIMTOFL
 70
     1
  9
$DIMTVP
 40
0.0
  9
$DIMTIX
 70
     0
  9
$DIMSOXD
 70
     0
  9
$DIMSAH
 70
     0
  9
$DIMBLK1
  1

  9
$DIMBLK2
  1

  9
$DIMSTYLE
  2
Standard
  9
$DIMCLRD
 70
     0
  9
$DIMCLRE
 70
     0
  9
$DIMCLRT
 70
     1
  9
$DIMTFAC
 40
0.5
  9
$DIMGAP
 40
1.5
  9
$DIMJUST
 70
     0
  9
$DIMSD1
 70
     0
  9
$DIMSD2
 70
     0
  9
$DIMTOLJ
 70
     1
  9
$DIMTZIN
 70
     8
  9
$DIMALTZ
 70
     8
  9
$DIMALTTZ
 70
     8
  9
$DIMUPT
 70
     0
  9
$DIMDEC
 70
     2
  9
$DIMTDEC
 70
     2
  9
$DIMALTU
 70
     2
  9
$DIMALTTD
 70
     2
  9
$DIMTXSTY
  7
STANDARD
  9
$DIMAUNIT
 70
     0
  9
$DIMADEC
 70
     2
  9
$DIMALTRND
 40
0.0
  9
$DIMAZIN
 70
     2
  9
$DIMDSEP
 70
    46
  9
$DIMATFIT
 70
     3
  9
$DIMFRAC
 70
     0
  9
$DIMLDRBLK
  1

  9
$DIMLUNIT
 70
     2
  9
$DIMLWD
 70
    -2
  9
$DIMLWE
 70
    -2
  9
$DIMTMOVE
 70
     0
  9
$LUNITS
 70
     2
  9
$LUPREC
 70
     2
  9
$SKETCHINC
 40
1.0
  9
$FILLETRAD
 40
0.0
  9
$AUNITS
 70
     0
  9
$AUPREC
 70
     0
  9
$MENU
  1
ACAD
  9
$ELEVATION
 40
0.0
  9
$PELEVATION
 40
0.0
  9
$THICKNESS
 40
0.0
  9
$LIMCHECK
 70
     0
  9
$CHAMFERA
 40
0.0
  9
$CHAMFERB
 40
0.0
  9
$CHAMFERC
 40
0.0
  9
$CHAMFERD
 40
0.0
  9
$SKPOLY
 70
     0
  9
$TDCREATE
 40
2455397.864709028
  9
$TDUCREATE
 40
2455397.781375695
  9
$TDUPDATE
 40
2455649.570803785
  9
$TDUUPDATE
 40
2455649.487470452
  9
$TDINDWG
 40
0.4092313657
  9
$TDUSRTIMER
 40
0.4092313657
  9
$USRTIMER
 70
     1
  9
$ANGBASE
 50
0.0
  9
$ANGDIR
 70
     0
  9
$PDMODE
 70
     0
  9
$PDSIZE
 40
0.0
  9
$PLINEWID
 40
0.0
  9
$SPLFRAME
 70
     0
  9
$SPLINETYPE
 70
     6
  9
$SPLINESEGS
 70
     8
  9
$HANDSEED
  5
1E0C
  9
$SURFTAB1
 70
     6
  9
$SURFTAB2
 70
     6
  9
$SURFTYPE
 70
     6
  9
$SURFU
 70
     6
  9
$SURFV
 70
     6
  9
$UCSBASE
  2

  9
$UCSNAME
  2

  9
$UCSORG
 10
0.0
 20
0.0
 30
0.0
  9
$UCSXDIR
 10
1.0
 20
0.0
 30
0.0
  9
$UCSYDIR
 10
0.0
 20
1.0
 30
0.0
  9
$UCSORTHOREF
  2

  9
$UCSORTHOVIEW
 70
     0
  9
$UCSORGTOP
 10
0.0
 20
0.0
 30
0.0
  9
$UCSORGBOTTOM
 10
0.0
 20
0.0
 30
0.0
  9
$UCSORGLEFT
 10
0.0
 20
0.0
 30
0.0
  9
$UCSORGRIGHT
 10
0.0
 20
0.0
 30
0.0
  9
$UCSORGFRONT
 10
0.0
 20
0.0
 30
0.0
  9
$UCSORGBACK
 10
0.0
 20
0.0
 30
0.0
  9
$PUCSBASE
  2

  9
$PUCSNAME
  2

  9
$PUCSORG
 10
0.0
 20
0.0
 30
0.0
  9
$PUCSXDIR
 10
1.0
 20
0.0
 30
0.0
  9
$PUCSYDIR
 10
0.0
 20
1.0
 30
0.0
  9
$PUCSORTHOREF
  2

  9
$PUCSORTHOVIEW
 70
     0
  9
$PUCSORGTOP
 10
0.0
 20
0.0
 30
0.0
  9
$PUCSORGBOTTOM
 10
0.0
 20
0.0
 30
0.0
  9
$PUCSORGLEFT
 10
0.0
 20
0.0
 30
0.0
  9
$PUCSORGRIGHT
 10
0.0
 20
0.0
 30
0.0
  9
$PUCSORGFRONT
 10
0.0
 20
0.0
 30
0.0
  9
$PUCSORGBACK
 10
0.0
 20
0.0
 30
0.0
  9
$USERI1
 70
     0
  9
$USERI2
 70
     0
  9
$USERI3
 70
     0
  9
$USERI4
 70
     0
  9
$USERI5
 70
     0
  9
$USERR1
 40
0.0
  9
$USERR2
 40
0.0
  9
$USERR3
 40
0.0
  9
$USERR4
 40
0.0
  9
$USERR5
 40
0.0
  9
$WORLDVIEW
 70
     1
  9
$SHADEDGE
 70
     3
  9
$SHADEDIF
 70
    70
  9
$TILEMODE
 70
     1
  9
$MAXACTVP
 70
    16
  9
$PINSBASE
 10
0.0
 20
0.0
 30
0.0
  9
$PLIMCHECK
 70
     0
  9
$PEXTMIN
 10
1.000000000000000E+20
 20
1.000000000000000E+20
 30
1.000000000000000E+20
  9
$PEXTMAX
 10
-1.000000000000000E+20
 20
-1.000000000000000E+20
 30
-1.000000000000000E+20
  9
$PLIMMIN
 10
0.0
 20
0.0
  9
$PLIMMAX
 10
12.0
 20
9.0
  9
$UNITMODE
 70
     0
  9
$VISRETAIN
 70
     0
  9
$PLINEGEN
 70
     0
  9
$PSLTSCALE
 70
     0
  9
$TREEDEPTH
 70
  3020
  9
$CMLSTYLE
  2
Standard
  9
$CMLJUST
 70
     0
  9
$CMLSCALE
 40
1.0
  9
$PROXYGRAPHICS
 70
     1
  9
$MEASUREMENT
 70
     0
  9
$CELWEIGHT
370
    -1
  9
$ENDCAPS
280
     0
  9
$JOINSTYLE
280
     0
  9
$LWDISPLAY
290
     0
  9
$INSUNITS
 70
     0
  9
$HYPERLINKBASE
  1

  9
$STYLESHEET
  1
monochrome 1.ctb
  9
$XEDIT
290
     1
  9
$CEPSNTYPE
380
     0
  9
$PSTYLEMODE
290
     1
  9
$FINGERPRINTGUID
  2
{D68B0D02-A558-11D7-B632-000102183313}
  9
$VERSIONGUID
  2
{9C5595C4-9B3F-46B7-9B3A-AE56566C8B5E}
  9
$EXTNAMES
290
     1
  9
$PSVPSCALE
 40
0.0
  9
$OLESTARTUP
290
     0
  9
$SORTENTS
280
   127
  9
$INDEXCTL
280
     0
  9
$HIDETEXT
280
     0
  9
$XCLIPFRAME
290
     0
  9
$HALOGAP
280
     0
  9
$OBSCOLOR
 70
   257
  9
$OBSLTYPE
280
     0
  9
$INTERSECTIONDISPLAY
280
     0
  9
$INTERSECTIONCOLOR
 70
   257
  9
$DIMASSOC
280
     1
  9
$PROJECTNAME
  1

  0
ENDSEC
  0
SECTION
  2
CLASSES
  0
CLASS
  1
ACDBDICTIONARYWDFLT
  2
AcDbDictionaryWithDefault
  3
ObjectDBX Classes
 90
        0
 91
        1
280
     0
281
     0
  0
CLASS
  1
DICTIONARYVAR
  2
AcDbDictionaryVar
  3
ObjectDBX Classes
 90
        0
 91
        2
280
     0
281
     0
  0
ENDSEC
  0
SECTION
  2
TABLES
  0
TABLE
  2
VPORT
  5
8
330
0
100
AcDbSymbolTable
 70
     3
  0
VPORT
  5
1E0B
330
8
100
AcDbSymbolTableRecord
100
AcDbViewportTableRecord
  2
*Active
 70
     0
 10
0.0
 20
0.0
 11
1.0
 21
1.0
 12
210.0
 22
297.0
 13
0.0
 23
0.0
 14
1.0
 24
1.0
 15
10.0
 25
10.0
 16
0.0
 26
0.0
 36
1.0
 17
0.0
 27
0.0
 37
0.0
 40
594.0
 41
1.334231805929919
 42
50.0
 43
0.0
 44
0.0
 50
0.0
 51
0.0
 71
     0
 72
  1500
 73
     1
 74
     0
 75
     0
 76
     0
 77
     0
 78
     0
281
     0
 65
     1
110
0.0
120
0.0
130
0.0
111
1.0
121
0.0
131
0.0
112
0.0
122
1.0
132
0.0
 79
     0
146
0.0
  0
ENDTAB
  0
TABLE
  2
LTYPE
  5
5
330
0
100
AcDbSymbolTable
 70
     3
  0
LTYPE
  5
13
330
5
100
AcDbSymbolTableRecord
100
AcDbLinetypeTableRecord
  2
ByBlock
 70
     0
  3

 72
    65
 73
     0
 40
0.0
  0
LTYPE
  5
14
330
5
100
AcDbSymbolTableRecord
100
AcDbLinetypeTableRecord
  2
ByLayer
 70
     0
  3

 72
    65
 73
     0
 40
0.0
  0
LTYPE
  5
15
330
5
100
AcDbSymbolTableRecord
100
AcDbLinetypeTableRecord
  2
Continuous
 70
     0
  3
Solid line
 72
    65
 73
     0
 40
0.0
  0
LTYPE
  5
25
330
5
100
AcDbSymbolTableRecord
100
AcDbLinetypeTableRecord
  2
STRICHPUNKT
 70
     0
  3
__ . __ . __ . __ . __ . __ . __ . __ . __ . __
 72
    65
 73
     4
 40
1.0
 49
0.5
 74
     0
 49
-0.25
 74
     0
 49
0.0
 74
     0
 49
-0.25
 74
     0
  0
LTYPE
  5
1CEB
330
5
100
AcDbSymbolTableRecord
100
AcDbLinetypeTableRecord
  2
VERDECKT2
 70
     0
  3
Verdeckt (.5x) _ _ _ _ _ _ _ _ _ _ _ _ _ _ _ _ 
 72
    65
 73
     2
 40
0.1875
 49
0.125
 74
     0
 49
-0.0625
 74
     0
  0
ENDTAB
  0
TABLE
  2
LAYER
  5
2
330
0
100
AcDbSymbolTable
 70
     9
  0
LAYER
  5
10
330
2
100
AcDbSymbolTableRecord
100
AcDbLayerTableRecord
  2
0
 70
     0
 62
     7
  6
Continuous
370
    -3
390
F
  0
LAYER
  5
2A
330
2
100
AcDbSymbolTableRecord
100
AcDbLayerTableRecord
  2
VOLL
 70
     0
 62
     1
  6
Continuous
370
    -3
390
F
  0
LAYER
  5
2B
330
2
100
AcDbSymbolTableRecord
100
AcDbLayerTableRecord
  2
HILF
 70
     0
 62
     2
  6
Continuous
370
    -3
390
F
  0
LAYER
  5
2C
330
2
100
AcDbSymbolTableRecord
100
AcDbLayerTableRecord
  2
MITTEL
 70
     0
 62
     2
  6
STRICHPUNKT
370
    -3
390
F
  0
LAYER
  5
2F
330
2
100
AcDbSymbolTableRecord
100
AcDbLayerTableRecord
  2
BEM
 70
     0
 62
     7
  6
Continuous
370
    -3
390
F
  0
LAYER
  5
30
330
2
100
AcDbSymbolTableRecord
100
AcDbLayerTableRecord
  2
STEMPEL
 70
     0
 62
     3
  6
Continuous
370
    -3
390
F
  0
LAYER
  5
31
330
2
100
AcDbSymbolTableRecord
100
AcDbLayerTableRecord
  2
TEXT
 70
     0
 62
     7
  6
Continuous
370
    -3
390
F
  0
LAYER
  5
1A8
330
2
100
AcDbSymbolTableRecord
100
AcDbLayerTableRecord
  2
Defpoints
 70
     0
 62
     7
  6
Continuous
290
     0
370
    -3
390
F
  0
LAYER
  5
1CEA
330
2
100
AcDbSymbolTableRecord
100
AcDbLayerTableRecord
  2
VERDECKT
 70
     0
 62
     6
  6
VERDECKT2
370
    -3
390
F
  0
ENDTAB
  0
TABLE
  2
STYLE
  5
3
330
0
100
AcDbSymbolTable
 70
     2
  0
STYLE
  5
11
330
3
100
AcDbSymbolTableRecord
100
AcDbTextStyleTableRecord
  2
STANDARD
 70
     0
 40
0.0
 41
0.8
 50
0.0
 71
     0
 42
3.5
  3
simplex.shx
  4

  0
STYLE
  5
24
330
3
100
AcDbSymbolTableRecord
100
AcDbTextStyleTableRecord
  2
GREEKS
 70
     0
 40
0.0
 41
0.8
 50
0.0
 71
     0
 42
2.5
  3
SIMPLEX.shx
  4

  0
ENDTAB
  0
TABLE
  2
VIEW
  5
6
330
0
100
AcDbSymbolTable
 70
     0
  0
ENDTAB
  0
TABLE
  2
UCS
  5
7
330
0
100
AcDbSymbolTable
 70
     0
  0
ENDTAB
  0
TABLE
  2
APPID
  5
9
330
0
100
AcDbSymbolTable
 70
     1
  0
APPID
  5
12
330
9
100
AcDbSymbolTableRecord
100
AcDbRegAppTableRecord
  2
ACAD
 70
     0
  0
ENDTAB
  0
TABLE
  2
DIMSTYLE
  5
A
330
0
100
AcDbSymbolTable
 70
     1
100
AcDbDimStyleTable
 71
     1
340
9D
  0
DIMSTYLE
105
9D
102
{ACAD_REACTORS
330
1644
330
1651
330
16C4
330
187E
330
1894
330
18AA
330
18C4
330
1A06
330
1C4E
330
1C89
330
1D33
330
1D5D
102
}
330
A
100
AcDbSymbolTableRecord
100
AcDbDimStyleTableRecord
  2
Standard
 70
     0
340
11
  0
ENDTAB
  0
TABLE
  2
BLOCK_RECORD
  5
1
330
0
100
AcDbSymbolTable
 70
    13
  0
BLOCK_RECORD
  5
1E
102
{ACAD_XDICTIONARY
360
A0
102
}
330
1
100
AcDbSymbolTableRecord
100
AcDbBlockTableRecord
  2
*Model_Space
340
21
  0
BLOCK_RECORD
  5
1A
102
{ACAD_XDICTIONARY
360
A2
102
}
330
1
100
AcDbSymbolTableRecord
100
AcDbBlockTableRecord
  2
*Paper_Space
340
1D
  0
BLOCK_RECORD
  5
22
330
1
100
AcDbSymbolTableRecord
100
AcDbBlockTableRecord
  2
LOGO
340
0
102
{BLKREFS
331
9B
102
}
  0
BLOCK_RECORD
  5
1645
330
1
100
AcDbSymbolTableRecord
100
AcDbBlockTableRecord
  2
*D1
340
0
  0
BLOCK_RECORD
  5
1652
330
1
100
AcDbSymbolTableRecord
100
AcDbBlockTableRecord
  2
*D2
340
0
  0
BLOCK_RECORD
  5
16C5
330
1
100
AcDbSymbolTableRecord
100
AcDbBlockTableRecord
  2
*D3
340
0
  0
BLOCK_RECORD
  5
187F
330
1
100
AcDbSymbolTableRecord
100
AcDbBlockTableRecord
  2
*D4
340
0
  0
BLOCK_RECORD
  5
1895
330
1
100
AcDbSymbolTableRecord
100
AcDbBlockTableRecord
  2
*D5
340
0
  0
BLOCK_RECORD
  5
18AB
330
1
100
AcDbSymbolTableRecord
100
AcDbBlockTableRecord
  2
*D6
340
0
  0
BLOCK_RECORD
  5
18C5
330
1
100
AcDbSymbolTableRecord
100
AcDbBlockTableRecord
  2
*D7
340
0
  0
BLOCK_RECORD
  5
1A11
330
1
100
AcDbSymbolTableRecord
100
AcDbBlockTableRecord
  2
*D8
340
0
  0
BLOCK_RECORD
  5
1C4F
330
1
100
AcDbSymbolTableRecord
100
AcDbBlockTableRecord
  2
*D9
340
0
  0
BLOCK_RECORD
  5
1C8A
330
1
100
AcDbSymbolTableRecord
100
AcDbBlockTableRecord
  2
*D10
340
0
  0
BLOCK_RECORD
  5
1D34
330
1
100
AcDbSymbolTableRecord
100
AcDbBlockTableRecord
  2
*D11
340
0
  0
BLOCK_RECORD
  5
1D5E
330
1
100
AcDbSymbolTableRecord
100
AcDbBlockTableRecord
  2
*D12
340
0
  0
ENDTAB
  0
ENDSEC
  0
SECTION
  2
BLOCKS
  0
BLOCK
  5
35
330
1E
100
AcDbEntity
  8
0
100
AcDbBlockBegin
  2
*Model_Space
 70
     0
 10
0.0
 20
0.0
 30
0.0
  3
*Model_Space
  1

  0
ENDBLK
  5
36
330
1E
100
AcDbEntity
  8
0
100
AcDbBlockEnd
  0
BLOCK
  5
33
330
1A
100
AcDbEntity
 67
     1
  8
0
100
AcDbBlockBegin
  2
*Paper_Space
 70
     0
 10
0.0
 20
0.0
 30
0.0
  3
*Paper_Space
  1

  0
ENDBLK
  5
34
330
1A
100
AcDbEntity
 67
     1
  8
0
100
AcDbBlockEnd
  0
BLOCK
  5
37
330
22
100
AcDbEntity
  8
0
100
AcDbBlockBegin
  2
LOGO
 70
     0
 10
0.0
 20
0.0
 30
0.0
  3
LOGO
  1

  0
ARC
  5
38
330
22
100
AcDbEntity
  8
0
100
AcDbCircle
 10
11.59973089678112
 20
-9.271599258481501
 30
0.0
 40
4.5
100
AcDbArc
 50
270.0
 51
231.0575587310159
  0
LINE
  5
39
330
22
100
AcDbEntity
  8
0
100
AcDbLine
 10
3.599730896781125
 20
-4.771599258481529
 30
0.0
 11
3.599730896781153
 21
-11.77159925848133
 31
0.0
  0
LINE
  5
3A
330
22
100
AcDbEntity
  8
0
100
AcDbLine
 10
2.599730896781125
 20
-4.771599258481529
 30
0.0
 11
2.599730896781153
 21
-11.77159925848133
 31
0.0
  0
CIRCLE
  5
3B
330
22
100
AcDbEntity
  8
0
100
AcDbCircle
 10
11.59973089678112
 20
-9.271599258481501
 30
0.0
 40
3.5
  0
ARC
  5
3C
330
22
100
AcDbEntity
  8
0
100
AcDbCircle
 10
31.59973089678115
 20
-9.271599258481472
 30
0.0
 40
4.5
100
AcDbArc
 50
270.0
 51
231.0575587310182
  0
LINE
  5
3D
330
22
100
AcDbEntity
  8
0
100
AcDbLine
 10
17.59973089678112
 20
-4.771599258481472
 30
0.0
 11
17.59973089678115
 21
-13.77159925848147
 31
0.0
  0
ARC
  5
3E
330
22
100
AcDbEntity
  8
0
100
AcDbCircle
 10
22.59973089678116
 20
-7.271599258481472
 30
0.0
 40
2.5
100
AcDbArc
 50
293.1161887722295
 51
90.0
  0
CIRCLE
  5
3F
330
22
100
AcDbEntity
  8
0
100
AcDbCircle
 10
31.59973089678115
 20
-9.271599258481472
 30
0.0
 40
3.5
  0
ARC
  5
40
330
22
100
AcDbEntity
  8
0
100
AcDbCircle
 10
4.599730896781153
 20
-11.77159925848133
 30
0.0
 40
1.0
100
AcDbArc
 50
180.0
 51
270.0
  0
ARC
  5
41
330
22
100
AcDbEntity
  8
0
100
AcDbCircle
 10
4.599730896781153
 20
-11.77159925848133
 30
0.0
 40
2.0
100
AcDbArc
 50
179.9999999999992
 51
270.0
  0
LINE
  5
42
330
22
100
AcDbEntity
  8
0
100
AcDbLine
 10
11.59973089678115
 20
-13.77159925848144
 30
0.0
 11
4.599730896781153
 21
-13.77159925848147
 31
0.0
  0
LINE
  5
43
330
22
100
AcDbEntity
  8
0
100
AcDbLine
 10
8.771303772034769
 20
-12.77159925848136
 30
0.0
 11
4.599730896781153
 21
-12.77159925848133
 31
0.0
  0
LINE
  5
44
330
22
100
AcDbEntity
  8
0
100
AcDbLine
 10
31.59973089678115
 20
-13.77159925848147
 30
0.0
 11
23.6715276665056
 21
-13.77159925848144
 31
0.0
  0
LINE
  5
45
330
22
100
AcDbEntity
  8
0
100
AcDbLine
 10
23.56565672307022
 20
-9.51278021337896
 30
0.0
 11
24.4388546544846
 21
-12.77159925848144
 31
0.0
  0
LINE
  5
46
330
22
100
AcDbEntity
  8
0
100
AcDbLine
 10
22.59973089678116
 20
-9.771599258481472
 30
0.0
 11
18.59973089678112
 21
-9.771599258481472
 31
0.0
  0
LINE
  5
47
330
22
100
AcDbEntity
  8
0
100
AcDbLine
 10
18.59973089678115
 20
-13.77159925848144
 30
0.0
 11
17.59973089678115
 21
-13.77159925848144
 31
0.0
  0
LINE
  5
48
330
22
100
AcDbEntity
  8
0
100
AcDbLine
 10
18.59973089678115
 20
-9.771599258481472
 30
0.0
 11
18.59973089678115
 21
-13.77159925848144
 31
0.0
  0
LINE
  5
49
330
22
100
AcDbEntity
  8
0
100
AcDbLine
 10
22.59973089678116
 20
-9.771599258481472
 30
0.0
 11
23.67152766650562
 21
-13.77159925848147
 31
0.0
  0
ARC
  5
4A
330
22
100
AcDbEntity
  8
0
100
AcDbCircle
 10
22.59973089678116
 20
-7.271599258481472
 30
0.0
 40
2.5
100
AcDbArc
 50
270.0
 51
270.0000000000007
  0
LINE
  5
4B
330
22
100
AcDbEntity
  8
0
100
AcDbLine
 10
28.77130377203494
 20
-12.77159925848147
 30
0.0
 11
24.43885465448463
 21
-12.77159925848144
 31
0.0
  0
LINE
  5
4C
330
22
100
AcDbEntity
  8
0
100
AcDbLine
 10
3.599730896781125
 20
-4.771599258481472
 30
0.0
 11
2.599730896781125
 21
-4.771599258481472
 31
0.0
  0
LINE
  5
4D
330
22
100
AcDbEntity
  8
0
100
AcDbLine
 10
22.59973089678116
 20
-8.771599258481472
 30
0.0
 11
18.59973089678115
 21
-8.771599258481472
 31
0.0
  0
LINE
  5
4E
330
22
100
AcDbEntity
  8
0
100
AcDbLine
 10
22.59973089678116
 20
-5.771599258481472
 30
0.0
 11
18.59973089678115
 21
-5.771599258481472
 31
0.0
  0
LINE
  5
4F
330
22
100
AcDbEntity
  8
0
100
AcDbLine
 10
22.59973089678116
 20
-4.771599258481472
 30
0.0
 11
17.59973089678115
 21
-4.771599258481472
 31
0.0
  0
LINE
  5
50
330
22
100
AcDbEntity
  8
0
100
AcDbLine
 10
18.59973089678115
 20
-5.771599258481472
 30
0.0
 11
18.59973089678115
 21
-8.771599258481472
 31
0.0
  0
ARC
  5
51
330
22
100
AcDbEntity
  8
0
100
AcDbCircle
 10
22.59973089678116
 20
-7.271599258481472
 30
0.0
 40
1.5
100
AcDbArc
 50
270.0
 51
90.0
  0
ENDBLK
  5
52
330
22
100
AcDbEntity
  8
0
100
AcDbBlockEnd
  0
BLOCK
  5
164F
330
1645
100
AcDbEntity
  8
0
100
AcDbBlockBegin
  2
*D1
 70
     1
 10
0.0
 20
0.0
 30
0.0
  3
*D1
  1

  0
LINE
  5
1DF8
330
1645
100
AcDbEntity
  8
TEXT
 62
     0
370
    -2
100
AcDbLine
 10
149.6832613544287
 20
212.1165711714482
 30
0.0
 11
149.6832613544287
 21
228.9151995382334
 31
0.0
  0
LINE
  5
1DF9
330
1645
100
AcDbEntity
  8
TEXT
 62
     0
370
    -2
100
AcDbLine
 10
297.6832613544287
 20
212.1165711714481
 30
0.0
 11
297.6832613544287
 21
228.9151995382334
 31
0.0
  0
LINE
  5
1DFA
330
1645
100
AcDbEntity
  8
TEXT
 62
     0
370
    -2
100
AcDbLine
 10
156.6832613544287
 20
226.9151995382334
 30
0.0
 11
290.6832613544287
 21
226.9151995382334
 31
0.0
  0
SOLID
  5
1DFB
330
1645
100
AcDbEntity
  8
TEXT
 62
     0
100
AcDbTrace
 10
156.6832613544287
 20
228.0818662049001
 30
0.0
 11
156.6832613544287
 21
225.7485328715667
 31
0.0
 12
149.6832613544287
 22
226.9151995382334
 32
0.0
 13
149.6832613544287
 23
226.9151995382334
 33
0.0
  0
SOLID
  5
1DFC
330
1645
100
AcDbEntity
  8
TEXT
 62
     0
100
AcDbTrace
 10
290.6832613544287
 20
228.0818662049001
 30
0.0
 11
290.6832613544287
 21
225.7485328715667
 31
0.0
 12
297.6832613544287
 22
226.9151995382334
 32
0.0
 13
297.6832613544287
 23
226.9151995382334
 33
0.0
  0
MTEXT
  5
1DFD
330
1645
100
AcDbEntity
  8
TEXT
 62
     1
100
AcDbMText
 10
223.6832613544287
 20
233.4151995382334
 30
0.0
 40
7.0
 41
0.0
 71
     5
 72
     1
  1
\A1;148
 73
     1
 44
1.0
  0
POINT
  5
1DFE
330
1645
100
AcDbEntity
  8
Defpoints
 62
     0
100
AcDbPoint
 10
149.6832613544287
 20
210.1165711714482
 30
0.0
  0
POINT
  5
1DFF
330
1645
100
AcDbEntity
  8
Defpoints
 62
     0
100
AcDbPoint
 10
297.6832613544287
 20
210.1165711714481
 30
0.0
  0
POINT
  5
1E00
330
1645
100
AcDbEntity
  8
Defpoints
 62
     0
100
AcDbPoint
 10
297.6832613544287
 20
226.9151995382334
 30
0.0
  0
ENDBLK
  5
1650
330
1645
100
AcDbEntity
  8
0
100
AcDbBlockEnd
  0
BLOCK
  5
165C
330
1652
100
AcDbEntity
  8
0
100
AcDbBlockBegin
  2
*D2
 70
     1
 10
0.0
 20
0.0
 30
0.0
  3
*D2
  1

  0
LINE
  5
1CFC
330
1652
100
AcDbEntity
  8
TEXT
 62
     0
370
    -2
100
AcDbLine
 10
140.6842613544288
 20
204.6165711714482
 30
0.0
 11
140.6842613544288
 21
246.7020480199948
 31
0.0
  0
LINE
  5
1CFD
330
1652
100
AcDbEntity
  8
TEXT
 62
     0
370
    -2
100
AcDbLine
 10
306.6832613544288
 20
204.6165711714481
 30
0.0
 11
306.6832613544288
 21
246.7020480199948
 31
0.0
  0
LINE
  5
1CFE
330
1652
100
AcDbEntity
  8
TEXT
 62
     0
370
    -2
100
AcDbLine
 10
147.6842613544288
 20
244.7020480199948
 30
0.0
 11
299.6832613544287
 21
244.7020480199948
 31
0.0
  0
SOLID
  5
1CFF
330
1652
100
AcDbEntity
  8
TEXT
 62
     0
100
AcDbTrace
 10
147.6842613544288
 20
245.8687146866615
 30
0.0
 11
147.6842613544288
 21
243.5353813533282
 31
0.0
 12
140.6842613544288
 22
244.7020480199948
 32
0.0
 13
140.6842613544288
 23
244.7020480199948
 33
0.0
  0
SOLID
  5
1D00
330
1652
100
AcDbEntity
  8
TEXT
 62
     0
100
AcDbTrace
 10
299.6832613544287
 20
245.8687146866615
 30
0.0
 11
299.6832613544287
 21
243.5353813533282
 31
0.0
 12
306.6832613544288
 22
244.7020480199948
 32
0.0
 13
306.6832613544288
 23
244.7020480199948
 33
0.0
  0
MTEXT
  5
1D01
330
1652
100
AcDbEntity
  8
TEXT
 62
     1
100
AcDbMText
 10
223.6837613544288
 20
251.2020480199948
 30
0.0
 40
7.0
 41
0.0
 71
     5
 72
     1
  1
\A1;166
 73
     1
 44
1.0
  0
POINT
  5
1D02
330
1652
100
AcDbEntity
  8
Defpoints
 62
     0
100
AcDbPoint
 10
140.6842613544288
 20
202.6165711714482
 30
0.0
  0
POINT
  5
1D03
330
1652
100
AcDbEntity
  8
Defpoints
 62
     0
100
AcDbPoint
 10
306.6832613544288
 20
202.6165711714481
 30
0.0
  0
POINT
  5
1D04
330
1652
100
AcDbEntity
  8
Defpoints
 62
     0
100
AcDbPoint
 10
306.6832613544288
 20
244.7020480199948
 30
0.0
  0
ENDBLK
  5
165D
330
1652
100
AcDbEntity
  8
0
100
AcDbBlockEnd
  0
BLOCK
  5
16CF
330
16C5
100
AcDbEntity
  8
0
100
AcDbBlockBegin
  2
*D3
 70
     1
 10
0.0
 20
0.0
 30
0.0
  3
*D3
  1

  0
LINE
  5
1C76
330
16C5
100
AcDbEntity
  8
BEM
 62
     0
370
    -2
100
AcDbLine
 10
221.6832613544287
 20
287.9952148571099
 30
0.0
 11
130.7187721010927
 21
287.9952148571099
 31
0.0
  0
LINE
  5
1C77
330
16C5
100
AcDbEntity
  8
BEM
 62
     0
370
    -2
100
AcDbLine
 10
210.9332613544288
 20
427.9956393930405
 30
0.0
 11
130.7187721010928
 21
427.9956393930405
 31
0.0
  0
LINE
  5
1C78
330
16C5
100
AcDbEntity
  8
BEM
 62
     0
370
    -2
100
AcDbLine
 10
132.7187721010927
 20
294.9952148571099
 30
0.0
 11
132.7187721010927
 21
420.9956393930404
 31
0.0
  0
SOLID
  5
1C79
330
16C5
100
AcDbEntity
  8
BEM
 62
     0
100
AcDbTrace
 10
131.5521054344261
 20
294.9952148571099
 30
0.0
 11
133.8854387677594
 21
294.9952148571099
 31
0.0
 12
132.7187721010927
 22
287.9952148571099
 32
0.0
 13
132.7187721010927
 23
287.9952148571099
 33
0.0
  0
SOLID
  5
1C7A
330
16C5
100
AcDbEntity
  8
BEM
 62
     0
100
AcDbTrace
 10
131.5521054344261
 20
420.9956393930404
 30
0.0
 11
133.8854387677594
 21
420.9956393930404
 31
0.0
 12
132.7187721010927
 22
427.9956393930405
 32
0.0
 13
132.7187721010927
 23
427.9956393930405
 33
0.0
  0
MTEXT
  5
1C7B
330
16C5
100
AcDbEntity
  8
BEM
 62
     1
100
AcDbMText
 10
126.2187721010927
 20
357.9954271250752
 30
0.0
 40
7.0
 41
0.0
 71
     5
 72
     1
  1
\A1;140
 11
0.0000000000000001
 21
1.0
 31
0.0
 73
     1
 44
1.0
  0
POINT
  5
1C7C
330
16C5
100
AcDbEntity
  8
Defpoints
 62
     0
100
AcDbPoint
 10
223.6832613544287
 20
287.9952148571099
 30
0.0
  0
POINT
  5
1C7D
330
16C5
100
AcDbEntity
  8
Defpoints
 62
     0
100
AcDbPoint
 10
212.9332613544288
 20
427.9956393930405
 30
0.0
  0
POINT
  5
1C7E
330
16C5
100
AcDbEntity
  8
Defpoints
 62
     0
100
AcDbPoint
 10
132.7187721010927
 20
427.9956393930405
 30
0.0
  0
ENDBLK
  5
16D0
330
16C5
100
AcDbEntity
  8
0
100
AcDbBlockEnd
  0
BLOCK
  5
1889
330
187F
100
AcDbEntity
  8
0
100
AcDbBlockBegin
  2
*D4
 70
     1
 10
0.0
 20
0.0
 30
0.0
  3
*D4
  1

  0
LINE
  5
1C33
330
187F
100
AcDbEntity
  8
BEM
 62
     0
370
    -2
100
AcDbLine
 10
163.6823983329369
 20
553.5059697586953
 30
0.0
 11
163.6823983329369
 21
567.7916578697391
 31
0.0
  0
LINE
  5
1C34
330
187F
100
AcDbEntity
  8
BEM
 62
     0
370
    -2
100
AcDbLine
 10
283.6832613544288
 20
553.4852148571096
 30
0.0
 11
283.6832613544288
 21
567.7916578697391
 31
0.0
  0
LINE
  5
1C35
330
187F
100
AcDbEntity
  8
BEM
 62
     0
370
    -2
100
AcDbLine
 10
170.6823983329369
 20
565.791657869739
 30
0.0
 11
276.6832613544287
 21
565.791657869739
 31
0.0
  0
SOLID
  5
1C36
330
187F
100
AcDbEntity
  8
BEM
 62
     0
100
AcDbTrace
 10
170.6823983329369
 20
566.9583245364057
 30
0.0
 11
170.6823983329369
 21
564.6249912030724
 31
0.0
 12
163.6823983329369
 22
565.791657869739
 32
0.0
 13
163.6823983329369
 23
565.791657869739
 33
0.0
  0
SOLID
  5
1C37
330
187F
100
AcDbEntity
  8
BEM
 62
     0
100
AcDbTrace
 10
276.6832613544287
 20
566.9583245364057
 30
0.0
 11
276.6832613544287
 21
564.6249912030724
 31
0.0
 12
283.6832613544288
 22
565.791657869739
 32
0.0
 13
283.6832613544288
 23
565.791657869739
 33
0.0
  0
MTEXT
  5
1C38
330
187F
100
AcDbEntity
  8
BEM
 62
     1
100
AcDbMText
 10
223.6828298436828
 20
572.2916578697391
 30
0.0
 40
7.0
 41
0.0
 71
     5
 72
     1
  1
\A1;120
 73
     1
 44
1.0
  0
POINT
  5
1C39
330
187F
100
AcDbEntity
  8
Defpoints
 62
     0
100
AcDbPoint
 10
163.6823983329369
 20
551.5059697586953
 30
0.0
  0
POINT
  5
1C3A
330
187F
100
AcDbEntity
  8
Defpoints
 62
     0
100
AcDbPoint
 10
283.6832613544288
 20
551.4852148571097
 30
0.0
  0
POINT
  5
1C3B
330
187F
100
AcDbEntity
  8
Defpoints
 62
     0
100
AcDbPoint
 10
283.6832613544288
 20
565.791657869739
 30
0.0
  0
ENDBLK
  5
188A
330
187F
100
AcDbEntity
  8
0
100
AcDbBlockEnd
  0
BLOCK
  5
189F
330
1895
100
AcDbEntity
  8
0
100
AcDbBlockBegin
  2
*D5
 70
     1
 10
0.0
 20
0.0
 30
0.0
  3
*D5
  1

  0
LINE
  5
1C2A
330
1895
100
AcDbEntity
  8
BEM
 62
     0
370
    -2
100
AcDbLine
 10
163.6823983329369
 20
553.5059697586953
 30
0.0
 11
131.0300075932119
 21
553.5059697586953
 31
0.0
  0
LINE
  5
1C2B
330
1895
100
AcDbEntity
  8
BEM
 62
     0
370
    -2
100
AcDbLine
 10
163.6823983329368
 20
433.5059697586954
 30
0.0
 11
131.0300075932118
 21
433.5059697586954
 31
0.0
  0
LINE
  5
1C2C
330
1895
100
AcDbEntity
  8
BEM
 62
     0
370
    -2
100
AcDbLine
 10
133.0300075932119
 20
546.5059697586952
 30
0.0
 11
133.0300075932118
 21
440.5059697586954
 31
0.0
  0
SOLID
  5
1C2D
330
1895
100
AcDbEntity
  8
BEM
 62
     0
100
AcDbTrace
 10
131.8633409265452
 20
546.5059697586952
 30
0.0
 11
134.1966742598785
 21
546.5059697586952
 31
0.0
 12
133.0300075932119
 22
553.5059697586953
 32
0.0
 13
133.0300075932119
 23
553.5059697586953
 33
0.0
  0
SOLID
  5
1C2E
330
1895
100
AcDbEntity
  8
BEM
 62
     0
100
AcDbTrace
 10
131.8633409265452
 20
440.5059697586954
 30
0.0
 11
134.1966742598785
 21
440.5059697586954
 31
0.0
 12
133.0300075932118
 22
433.5059697586954
 32
0.0
 13
133.0300075932118
 23
433.5059697586954
 33
0.0
  0
MTEXT
  5
1C2F
330
1895
100
AcDbEntity
  8
BEM
 62
     1
100
AcDbMText
 10
126.5300075932118
 20
493.5059697586954
 30
0.0
 40
7.0
 41
0.0
 71
     5
 72
     1
  1
\A1;120
 11
0.0000000000000001
 21
1.0
 31
0.0
 73
     1
 44
1.0
  0
POINT
  5
1C30
330
1895
100
AcDbEntity
  8
Defpoints
 62
     0
100
AcDbPoint
 10
165.6823983329369
 20
553.5059697586953
 30
0.0
  0
POINT
  5
1C31
330
1895
100
AcDbEntity
  8
Defpoints
 62
     0
100
AcDbPoint
 10
165.6823983329368
 20
433.5059697586954
 30
0.0
  0
POINT
  5
1C32
330
1895
100
AcDbEntity
  8
Defpoints
 62
     0
100
AcDbPoint
 10
133.0300075932118
 20
433.5059697586954
 30
0.0
  0
ENDBLK
  5
18A0
330
1895
100
AcDbEntity
  8
0
100
AcDbBlockEnd
  0
BLOCK
  5
18B7
330
18AB
100
AcDbEntity
  8
0
100
AcDbBlockBegin
  2
*D6
 70
     1
 10
0.0
 20
0.0
 30
0.0
  3
*D6
  1

  0
LINE
  5
1C1F
330
18AB
100
AcDbEntity
  8
BEM
 62
     0
370
    -2
100
AcDbLine
 10
163.6823983329369
 20
553.5059697586953
 30
0.0
 11
131.0300075932119
 21
553.5059697586953
 31
0.0
  0
LINE
  5
1C20
330
18AB
100
AcDbEntity
  8
BEM
 62
     0
370
    -2
100
AcDbLine
 10
163.6823983329369
 20
555.5059697586953
 30
0.0
 11
131.0300075932119
 21
555.5059697586953
 31
0.0
  0
LINE
  5
1C21
330
18AB
100
AcDbEntity
  8
BEM
 62
     0
370
    -2
100
AcDbLine
 10
133.0300075932119
 20
546.5059697586952
 30
0.0
 11
133.0300075932119
 21
539.5059697586953
 31
0.0
  0
LINE
  5
1C22
330
18AB
100
AcDbEntity
  8
BEM
 62
     0
370
    -2
100
AcDbLine
 10
133.0300075932119
 20
562.5059697586952
 30
0.0
 11
133.0300075932119
 21
579.2393030920286
 31
0.0
  0
LINE
  5
1C23
330
18AB
100
AcDbEntity
  8
BEM
 62
     0
370
    -2
100
AcDbLine
 10
133.0300075932119
 20
553.5059697586953
 30
0.0
 11
133.0300075932119
 21
555.5059697586953
 31
0.0
  0
SOLID
  5
1C24
330
18AB
100
AcDbEntity
  8
BEM
 62
     0
100
AcDbTrace
 10
131.8633409265452
 20
546.5059697586952
 30
0.0
 11
134.1966742598785
 21
546.5059697586952
 31
0.0
 12
133.0300075932119
 22
553.5059697586953
 32
0.0
 13
133.0300075932119
 23
553.5059697586953
 33
0.0
  0
SOLID
  5
1C25
330
18AB
100
AcDbEntity
  8
BEM
 62
     0
100
AcDbTrace
 10
131.8633409265452
 20
562.5059697586952
 30
0.0
 11
134.1966742598785
 21
562.5059697586952
 31
0.0
 12
133.0300075932119
 22
555.5059697586953
 32
0.0
 13
133.0300075932119
 23
555.5059697586953
 33
0.0
  0
MTEXT
  5
1C26
330
18AB
100
AcDbEntity
  8
BEM
 62
     1
100
AcDbMText
 10
126.5300075932118
 20
574.3726364253619
 30
0.0
 40
7.0
 41
0.0
 71
     5
 72
     1
  1
\A1;2
 11
0.0000000000000001
 21
1.0
 31
0.0
 73
     1
 44
1.0
  0
POINT
  5
1C27
330
18AB
100
AcDbEntity
  8
Defpoints
 62
     0
100
AcDbPoint
 10
165.6823983329369
 20
553.5059697586953
 30
0.0
  0
POINT
  5
1C28
330
18AB
100
AcDbEntity
  8
Defpoints
 62
     0
100
AcDbPoint
 10
165.6823983329369
 20
555.5059697586953
 30
0.0
  0
POINT
  5
1C29
330
18AB
100
AcDbEntity
  8
Defpoints
 62
     0
100
AcDbPoint
 10
133.0300075932119
 20
555.5059697586953
 30
0.0
  0
ENDBLK
  5
18B8
330
18AB
100
AcDbEntity
  8
0
100
AcDbBlockEnd
  0
BLOCK
  5
18CF
330
18C5
100
AcDbEntity
  8
0
100
AcDbBlockBegin
  2
*D7
 70
     1
 10
0.0
 20
0.0
 30
0.0
  3
*D7
  1

  0
LINE
  5
1D0E
330
18C5
100
AcDbEntity
  8
BEM
 62
     0
370
    -2
100
AcDbLine
 10
143.6832613544288
 20
216.6165711714482
 30
0.0
 11
124.1961564317151
 21
216.6165711714482
 31
0.0
  0
LINE
  5
1D0F
330
18C5
100
AcDbEntity
  8
BEM
 62
     0
370
    -2
100
AcDbLine
 10
143.6832613544287
 20
188.6165711714481
 30
0.0
 11
124.1961564317151
 21
188.6165711714481
 31
0.0
  0
LINE
  5
1D10
330
18C5
100
AcDbEntity
  8
BEM
 62
     0
370
    -2
100
AcDbLine
 10
126.1961564317152
 20
209.6165711714482
 30
0.0
 11
126.1961564317152
 21
195.6165711714481
 31
0.0
  0
SOLID
  5
1D11
330
18C5
100
AcDbEntity
  8
BEM
 62
     0
100
AcDbTrace
 10
125.0294897650485
 20
209.6165711714482
 30
0.0
 11
127.3628230983818
 21
209.6165711714482
 31
0.0
 12
126.1961564317152
 22
216.6165711714482
 32
0.0
 13
126.1961564317152
 23
216.6165711714482
 33
0.0
  0
SOLID
  5
1D12
330
18C5
100
AcDbEntity
  8
BEM
 62
     0
100
AcDbTrace
 10
125.0294897650485
 20
195.6165711714481
 30
0.0
 11
127.3628230983818
 21
195.6165711714481
 31
0.0
 12
126.1961564317152
 22
188.6165711714481
 32
0.0
 13
126.1961564317152
 23
188.6165711714481
 33
0.0
  0
MTEXT
  5
1D13
330
18C5
100
AcDbEntity
  8
BEM
 62
     1
100
AcDbMText
 10
119.6961564317151
 20
202.6165711714482
 30
0.0
 40
7.0
 41
0.0
 71
     5
 72
     1
  1
\A1;28
 11
0.0000000000000001
 21
1.0
 31
0.0
 73
     1
 44
1.0
  0
POINT
  5
1D14
330
18C5
100
AcDbEntity
  8
Defpoints
 62
     0
100
AcDbPoint
 10
145.6832613544288
 20
216.6165711714482
 30
0.0
  0
POINT
  5
1D15
330
18C5
100
AcDbEntity
  8
Defpoints
 62
     0
100
AcDbPoint
 10
145.6832613544287
 20
188.6165711714481
 30
0.0
  0
POINT
  5
1D16
330
18C5
100
AcDbEntity
  8
Defpoints
 62
     0
100
AcDbPoint
 10
126.1961564317152
 20
188.6165711714481
 30
0.0
  0
ENDBLK
  5
18D0
330
18C5
100
AcDbEntity
  8
0
100
AcDbBlockEnd
  0
BLOCK
  5
1A1D
330
1A11
100
AcDbEntity
  8
0
100
AcDbBlockBegin
  2
*D8
 70
     1
 10
0.0
 20
0.0
 30
0.0
  3
*D8
  1

  0
LINE
  5
1C14
330
1A11
100
AcDbEntity
  8
BEM
 62
     0
370
    -2
100
AcDbLine
 10
227.1832613544287
 20
386.2409190952872
 30
0.0
 11
227.1832613544287
 21
386.47871485711
 31
0.0
  0
LINE
  5
1C15
330
1A11
100
AcDbEntity
  8
BEM
 62
     0
370
    -2
100
AcDbLine
 10
220.1832613544287
 20
386.2409190952872
 30
0.0
 11
220.1832613544287
 21
386.47871485711
 31
0.0
  0
LINE
  5
1C16
330
1A11
100
AcDbEntity
  8
BEM
 62
     0
370
    -2
100
AcDbLine
 10
234.1832613544287
 20
384.47871485711
 30
0.0
 11
241.1832613544287
 21
384.47871485711
 31
0.0
  0
LINE
  5
1C17
330
1A11
100
AcDbEntity
  8
BEM
 62
     0
370
    -2
100
AcDbLine
 10
213.1832613544287
 20
384.47871485711
 30
0.0
 11
192.4499280210954
 21
384.47871485711
 31
0.0
  0
LINE
  5
1C18
330
1A11
100
AcDbEntity
  8
BEM
 62
     0
370
    -2
100
AcDbLine
 10
227.1832613544287
 20
384.47871485711
 30
0.0
 11
220.1832613544287
 21
384.47871485711
 31
0.0
  0
SOLID
  5
1C19
330
1A11
100
AcDbEntity
  8
BEM
 62
     0
100
AcDbTrace
 10
234.1832613544287
 20
385.6453815237766
 30
0.0
 11
234.1832613544287
 21
383.3120481904432
 31
0.0
 12
227.1832613544287
 22
384.47871485711
 32
0.0
 13
227.1832613544287
 23
384.47871485711
 33
0.0
  0
SOLID
  5
1C1A
330
1A11
100
AcDbEntity
  8
BEM
 62
     0
100
AcDbTrace
 10
213.1832613544287
 20
385.6453815237766
 30
0.0
 11
213.1832613544287
 21
383.3120481904432
 31
0.0
 12
220.1832613544287
 22
384.47871485711
 32
0.0
 13
220.1832613544287
 23
384.47871485711
 33
0.0
  0
MTEXT
  5
1C1B
330
1A11
100
AcDbEntity
  8
BEM
 62
     1
100
AcDbMText
 10
197.316594687762
 20
390.9787148571099
 30
0.0
 40
7.0
 41
0.0
 71
     5
 72
     1
  1
\A1;7
 73
     1
 44
1.0
  0
POINT
  5
1C1C
330
1A11
100
AcDbEntity
  8
Defpoints
 62
     0
100
AcDbPoint
 10
227.1832613544287
 20
384.2409190952872
 30
0.0
  0
POINT
  5
1C1D
330
1A11
100
AcDbEntity
  8
Defpoints
 62
     0
100
AcDbPoint
 10
220.1832613544287
 20
384.2409190952872
 30
0.0
  0
POINT
  5
1C1E
330
1A11
100
AcDbEntity
  8
Defpoints
 62
     0
100
AcDbPoint
 10
220.1832613544287
 20
384.47871485711
 30
0.0
  0
ENDBLK
  5
1A1E
330
1A11
100
AcDbEntity
  8
0
100
AcDbBlockEnd
  0
BLOCK
  5
1C59
330
1C4F
100
AcDbEntity
  8
0
100
AcDbBlockBegin
  2
*D9
 70
     1
 10
0.0
 20
0.0
 30
0.0
  3
*D9
  1

  0
LINE
  5
1C80
330
1C4F
100
AcDbEntity
  8
BEM
 62
     0
370
    -2
100
AcDbLine
 10
163.6824158821655
 20
555.4958466662271
 30
0.0
 11
114.4815239911991
 21
555.4958466662271
 31
0.0
  0
LINE
  5
1C81
330
1C4F
100
AcDbEntity
  8
BEM
 62
     0
370
    -2
100
AcDbLine
 10
221.6832613544287
 20
287.9952148571099
 30
0.0
 11
114.481523991199
 21
287.99521485711
 31
0.0
  0
LINE
  5
1C82
330
1C4F
100
AcDbEntity
  8
BEM
 62
     0
370
    -2
100
AcDbLine
 10
116.4815239911991
 20
548.4958466662272
 30
0.0
 11
116.4815239911991
 21
294.99521485711
 31
0.0
  0
SOLID
  5
1C83
330
1C4F
100
AcDbEntity
  8
BEM
 62
     0
100
AcDbTrace
 10
115.3148573245324
 20
548.4958466662272
 30
0.0
 11
117.6481906578658
 21
548.4958466662272
 31
0.0
 12
116.4815239911991
 22
555.4958466662271
 32
0.0
 13
116.4815239911991
 23
555.4958466662271
 33
0.0
  0
SOLID
  5
1C84
330
1C4F
100
AcDbEntity
  8
BEM
 62
     0
100
AcDbTrace
 10
115.3148573245324
 20
294.99521485711
 30
0.0
 11
117.6481906578657
 21
294.99521485711
 31
0.0
 12
116.481523991199
 22
287.99521485711
 32
0.0
 13
116.481523991199
 23
287.99521485711
 33
0.0
  0
MTEXT
  5
1C85
330
1C4F
100
AcDbEntity
  8
BEM
 62
     1
100
AcDbMText
 10
109.981523991199
 20
421.7455307616686
 30
0.0
 40
7.0
 41
0.0
 71
     5
 72
     1
  1
\A1;267.5
 11
0.0000000000000001
 21
1.0
 31
0.0
 73
     1
 44
1.0
  0
POINT
  5
1C86
330
1C4F
100
AcDbEntity
  8
Defpoints
 62
     0
100
AcDbPoint
 10
165.6824158821654
 20
555.4958466662271
 30
0.0
  0
POINT
  5
1C87
330
1C4F
100
AcDbEntity
  8
Defpoints
 62
     0
100
AcDbPoint
 10
223.6832613544287
 20
287.9952148571099
 30
0.0
  0
POINT
  5
1C88
330
1C4F
100
AcDbEntity
  8
Defpoints
 62
     0
100
AcDbPoint
 10
116.481523991199
 20
287.99521485711
 30
0.0
  0
ENDBLK
  5
1C5A
330
1C4F
100
AcDbEntity
  8
0
100
AcDbBlockEnd
  0
BLOCK
  5
1C96
330
1C8A
100
AcDbEntity
  8
0
100
AcDbBlockBegin
  2
*D10
 70
     1
 10
0.0
 20
0.0
 30
0.0
  3
*D10
  1

  0
LINE
  5
1C98
330
1C8A
100
AcDbEntity
  8
BEM
 62
     0
370
    -2
100
AcDbLine
 10
236.4332613544287
 20
431.4955450659705
 30
0.0
 11
258.2470428422466
 21
431.4955450659705
 31
0.0
  0
LINE
  5
1C99
330
1C8A
100
AcDbEntity
  8
BEM
 62
     0
370
    -2
100
AcDbLine
 10
236.4332613544287
 20
427.9955450659368
 30
0.0
 11
258.2470428422466
 21
427.9955450659368
 31
0.0
  0
LINE
  5
1C9A
330
1C8A
100
AcDbEntity
  8
BEM
 62
     0
370
    -2
100
AcDbLine
 10
256.2470428422466
 20
438.4955450659705
 30
0.0
 11
256.2470428422466
 21
445.4955450659705
 31
0.0
  0
LINE
  5
1C9B
330
1C8A
100
AcDbEntity
  8
BEM
 62
     0
370
    -2
100
AcDbLine
 10
256.2470428422466
 20
420.9955450659369
 30
0.0
 11
256.2470428422466
 21
396.2622117326035
 31
0.0
  0
LINE
  5
1C9C
330
1C8A
100
AcDbEntity
  8
BEM
 62
     0
370
    -2
100
AcDbLine
 10
256.2470428422466
 20
431.4955450659705
 30
0.0
 11
256.2470428422466
 21
427.9955450659368
 31
0.0
  0
SOLID
  5
1C9D
330
1C8A
100
AcDbEntity
  8
BEM
 62
     0
100
AcDbTrace
 10
255.0803761755799
 20
438.4955450659705
 30
0.0
 11
257.4137095089133
 21
438.4955450659705
 31
0.0
 12
256.2470428422466
 22
431.4955450659705
 32
0.0
 13
256.2470428422466
 23
431.4955450659705
 33
0.0
  0
SOLID
  5
1C9E
330
1C8A
100
AcDbEntity
  8
BEM
 62
     0
100
AcDbTrace
 10
255.0803761755799
 20
420.9955450659369
 30
0.0
 11
257.4137095089133
 21
420.9955450659369
 31
0.0
 12
256.2470428422466
 22
427.9955450659368
 32
0.0
 13
256.2470428422466
 23
427.9955450659368
 33
0.0
  0
MTEXT
  5
1C9F
330
1C8A
100
AcDbEntity
  8
BEM
 62
     1
100
AcDbMText
 10
249.7470428422465
 20
405.1288783992702
 30
0.0
 40
7.0
 41
0.0
 71
     5
 72
     1
  1
\A1;3.5
 11
0.0000000000000001
 21
1.0
 31
0.0
 73
     1
 44
1.0
  0
POINT
  5
1CA0
330
1C8A
100
AcDbEntity
  8
Defpoints
 62
     0
100
AcDbPoint
 10
234.4332613544287
 20
431.4955450659705
 30
0.0
  0
POINT
  5
1CA1
330
1C8A
100
AcDbEntity
  8
Defpoints
 62
     0
100
AcDbPoint
 10
234.4332613544287
 20
427.9955450659368
 30
0.0
  0
POINT
  5
1CA2
330
1C8A
100
AcDbEntity
  8
Defpoints
 62
     0
100
AcDbPoint
 10
256.2470428422466
 20
427.9955450659368
 30
0.0
  0
ENDBLK
  5
1C97
330
1C8A
100
AcDbEntity
  8
0
100
AcDbBlockEnd
  0
BLOCK
  5
1D3F
330
1D34
100
AcDbEntity
  8
0
100
AcDbBlockBegin
  2
*D11
 70
     1
 10
0.0
 20
0.0
 30
0.0
  3
*D11
  1

  0
LINE
  5
1D54
330
1D34
100
AcDbEntity
  8
BEM
 62
     0
370
    -2
100
AcDbLine
 10
213.4332613544287
 20
165.6165711714482
 30
0.0
 11
213.4332613544287
 21
142.4225965933931
 31
0.0
  0
LINE
  5
1D55
330
1D34
100
AcDbEntity
  8
BEM
 62
     0
370
    -2
100
AcDbLine
 10
233.9332613544287
 20
165.6165711714481
 30
0.0
 11
233.9332613544287
 21
142.4225965933931
 31
0.0
  0
LINE
  5
1D56
330
1D34
100
AcDbEntity
  8
BEM
 62
     0
370
    -2
100
AcDbLine
 10
220.4332613544287
 20
144.4225965933931
 30
0.0
 11
226.9332613544286
 21
144.4225965933931
 31
0.0
  0
SOLID
  5
1D57
330
1D34
100
AcDbEntity
  8
BEM
 62
     0
100
AcDbTrace
 10
220.4332613544287
 20
145.5892632600597
 30
0.0
 11
220.4332613544287
 21
143.2559299267264
 31
0.0
 12
213.4332613544287
 22
144.4225965933931
 32
0.0
 13
213.4332613544287
 23
144.4225965933931
 33
0.0
  0
SOLID
  5
1D58
330
1D34
100
AcDbEntity
  8
BEM
 62
     0
100
AcDbTrace
 10
226.9332613544286
 20
145.5892632600597
 30
0.0
 11
226.9332613544286
 21
143.2559299267264
 31
0.0
 12
233.9332613544287
 22
144.4225965933931
 32
0.0
 13
233.9332613544287
 23
144.4225965933931
 33
0.0
  0
MTEXT
  5
1D59
330
1D34
100
AcDbEntity
  8
BEM
 62
     1
100
AcDbMText
 10
223.6832613544287
 20
150.9225965933931
 30
0.0
 40
7.0
 41
0.0
 71
     5
 72
     1
  1
\A1;20.5
 73
     1
 44
1.0
  0
POINT
  5
1D5A
330
1D34
100
AcDbEntity
  8
Defpoints
 62
     0
100
AcDbPoint
 10
213.4332613544287
 20
167.6165711714482
 30
0.0
  0
POINT
  5
1D5B
330
1D34
100
AcDbEntity
  8
Defpoints
 62
     0
100
AcDbPoint
 10
233.9332613544287
 20
167.6165711714481
 30
0.0
  0
POINT
  5
1D5C
330
1D34
100
AcDbEntity
  8
Defpoints
 62
     0
100
AcDbPoint
 10
233.9332613544287
 20
144.4225965933931
 30
0.0
  0
ENDBLK
  5
1D40
330
1D34
100
AcDbEntity
  8
0
100
AcDbBlockEnd
  0
BLOCK
  5
1D68
330
1D5E
100
AcDbEntity
  8
0
100
AcDbBlockBegin
  2
*D12
 70
     1
 10
0.0
 20
0.0
 30
0.0
  3
*D12
  1

  0
LINE
  5
1D7C
330
1D5E
100
AcDbEntity
  8
BEM
 62
     0
370
    -2
100
AcDbLine
 10
225.6832613544287
 20
216.6165711714482
 30
0.0
 11
252.6037595159769
 21
216.6165711714482
 31
0.0
  0
LINE
  5
1D7D
330
1D5E
100
AcDbEntity
  8
BEM
 62
     0
370
    -2
100
AcDbLine
 10
225.6832613544287
 20
164.6165711714481
 30
0.0
 11
252.6037595159769
 21
164.6165711714481
 31
0.0
  0
LINE
  5
1D7E
330
1D5E
100
AcDbEntity
  8
BEM
 62
     0
370
    -2
100
AcDbLine
 10
250.6037595159769
 20
209.6165711714482
 30
0.0
 11
250.6037595159769
 21
171.6165711714481
 31
0.0
  0
SOLID
  5
1D7F
330
1D5E
100
AcDbEntity
  8
BEM
 62
     0
100
AcDbTrace
 10
249.4370928493103
 20
209.6165711714482
 30
0.0
 11
251.7704261826436
 21
209.6165711714482
 31
0.0
 12
250.6037595159769
 22
216.6165711714482
 32
0.0
 13
250.6037595159769
 23
216.6165711714482
 33
0.0
  0
SOLID
  5
1D80
330
1D5E
100
AcDbEntity
  8
BEM
 62
     0
100
AcDbTrace
 10
249.4370928493103
 20
171.6165711714481
 30
0.0
 11
251.7704261826436
 21
171.6165711714481
 31
0.0
 12
250.6037595159769
 22
164.6165711714481
 32
0.0
 13
250.6037595159769
 23
164.6165711714481
 33
0.0
  0
MTEXT
  5
1D81
330
1D5E
100
AcDbEntity
  8
BEM
 62
     1
100
AcDbMText
 10
244.1037595159769
 20
181.9763306136974
 30
0.0
 40
7.0
 41
0.0
 71
     5
 72
     1
  1
\A1;52
 11
0.0000000000000001
 21
1.0
 31
0.0
 73
     1
 44
1.0
  0
POINT
  5
1D82
330
1D5E
100
AcDbEntity
  8
Defpoints
 62
     0
100
AcDbPoint
 10
223.6832613544287
 20
216.6165711714482
 30
0.0
  0
POINT
  5
1D83
330
1D5E
100
AcDbEntity
  8
Defpoints
 62
     0
100
AcDbPoint
 10
223.6832613544287
 20
164.6165711714481
 30
0.0
  0
POINT
  5
1D84
330
1D5E
100
AcDbEntity
  8
Defpoints
 62
     0
100
AcDbPoint
 10
250.6037595159769
 20
164.6165711714481
 30
0.0
  0
ENDBLK
  5
1D69
330
1D5E
100
AcDbEntity
  8
0
100
AcDbBlockEnd
  0
ENDSEC
  0
SECTION
  2
ENTITIES
  0
LINE
  5
57
330
1E
100
AcDbEntity
  8
STEMPEL
100
AcDbLine
 10
410.0
 20
110.0
 30
0.0
 11
39.99999999999997
 21
110.0
 31
0.0
  0
LINE
  5
58
330
1E
100
AcDbEntity
  8
STEMPEL
100
AcDbLine
 10
136.0000000000001
 20
109.9999999999999
 30
0.0
 11
136.0
 21
9.999999999999971
 31
0.0
  0
LINE
  5
59
330
1E
100
AcDbEntity
  8
STEMPEL
100
AcDbLine
 10
220.0
 20
110.0
 30
0.0
 11
220.0
 21
9.999999999999971
 31
0.0
  0
LINE
  5
5A
330
1E
100
AcDbEntity
  8
STEMPEL
100
AcDbLine
 10
332.0
 20
109.9999999999997
 30
0.0
 11
332.0
 21
40.0
 31
0.0
  0
LINE
  5
5B
330
1E
100
AcDbEntity
  8
STEMPEL
100
AcDbLine
 10
135.9999999999999
 20
29.99999999999997
 30
0.0
 11
39.99999999999997
 21
29.99999999999997
 31
0.0
  0
LINE
  5
5C
330
1E
100
AcDbEntity
  8
STEMPEL
100
AcDbLine
 10
410.0
 20
40.0
 30
0.0
 11
136.0000000000001
 21
39.99999999999997
 31
0.0
  0
LINE
  5
5D
330
1E
100
AcDbEntity
  8
STEMPEL
100
AcDbLine
 10
410.0
 20
80.0
 30
0.0
 11
136.0000000000001
 21
79.99999999999994
 31
0.0
  0
LINE
  5
5E
330
1E
100
AcDbEntity
  8
VOLL
100
AcDbLine
 10
54.00000000000009
 20
110.0
 30
0.0
 11
53.99999999999997
 21
9.999999999999971
 31
0.0
  0
LINE
  5
5F
330
1E
100
AcDbEntity
  8
VOLL
100
AcDbLine
 10
94.00000000000011
 20
109.9999999999999
 30
0.0
 11
94.0
 21
9.999999999999971
 31
0.0
  0
LINE
  5
60
330
1E
100
AcDbEntity
  8
VOLL
100
AcDbLine
 10
114.0000000000001
 20
109.9999999999999
 30
0.0
 11
114.0
 21
9.999999999999971
 31
0.0
  0
LINE
  5
61
330
1E
100
AcDbEntity
  8
VOLL
100
AcDbLine
 10
154.0000000000001
 20
79.99999999999994
 30
0.0
 11
154.0000000000001
 21
39.99999999999997
 31
0.0
  0
LINE
  5
62
330
1E
100
AcDbEntity
  8
VOLL
100
AcDbLine
 10
180.0000000000001
 20
109.9999999999998
 30
0.0
 11
180.0
 21
39.99999999999997
 31
0.0
  0
LINE
  5
63
330
1E
100
AcDbEntity
  8
HILF
100
AcDbLine
 10
40.00000000000008
 20
100.0
 30
0.0
 11
136.0000000000001
 21
100.0
 31
0.0
  0
LINE
  5
64
330
1E
100
AcDbEntity
  8
HILF
100
AcDbLine
 10
40.00000000000008
 20
90.00000000000005
 30
0.0
 11
136.0000000000001
 21
90.00000000000005
 31
0.0
  0
LINE
  5
65
330
1E
100
AcDbEntity
  8
HILF
100
AcDbLine
 10
40.00000000000008
 20
79.99999999999994
 30
0.0
 11
136.0000000000001
 21
79.99999999999994
 31
0.0
  0
LINE
  5
66
330
1E
100
AcDbEntity
  8
HILF
100
AcDbLine
 10
40.00000000000008
 20
69.99999999999994
 30
0.0
 11
136.0000000000001
 21
69.99999999999994
 31
0.0
  0
LINE
  5
67
330
1E
100
AcDbEntity
  8
HILF
100
AcDbLine
 10
40.00000000000008
 20
59.99999999999997
 30
0.0
 11
136.0000000000001
 21
59.99999999999997
 31
0.0
  0
LINE
  5
68
330
1E
100
AcDbEntity
  8
HILF
100
AcDbLine
 10
40.00000000000008
 20
49.99999999999997
 30
0.0
 11
136.0000000000001
 21
49.99999999999997
 31
0.0
  0
LINE
  5
69
330
1E
100
AcDbEntity
  8
HILF
100
AcDbLine
 10
40.00000000000008
 20
39.99999999999997
 30
0.0
 11
136.0000000000001
 21
39.99999999999997
 31
0.0
  0
LINE
  5
6A
330
1E
100
AcDbEntity
  8
HILF
100
AcDbLine
 10
136.0000000000001
 20
69.99999999999994
 30
0.0
 11
220.0
 21
69.99999999999994
 31
0.0
  0
LINE
  5
6B
330
1E
100
AcDbEntity
  8
HILF
100
AcDbLine
 10
136.0000000000001
 20
59.99999999999997
 30
0.0
 11
220.0
 21
59.99999999999997
 31
0.0
  0
LINE
  5
6C
330
1E
100
AcDbEntity
  8
HILF
100
AcDbLine
 10
136.0000000000001
 20
49.99999999999997
 30
0.0
 11
220.0
 21
49.99999999999997
 31
0.0
  0
LINE
  5
6D
330
1E
100
AcDbEntity
  8
HILF
100
AcDbLine
 10
224.7736801096948
 20
84.03758247564139
 30
0.0
 11
324.8353916556311
 21
84.03758247564139
 31
0.0
  0
LINE
  5
6E
330
1E
100
AcDbEntity
  8
HILF
100
AcDbLine
 10
224.7736801096948
 20
69.99999999999994
 30
0.0
 11
324.835391655631
 21
69.99999999999994
 31
0.0
  0
LINE
  5
6F
330
1E
100
AcDbEntity
  8
HILF
100
AcDbLine
 10
224.7736801096948
 20
59.99999999999997
 30
0.0
 11
324.835391655631
 21
59.99999999999997
 31
0.0
  0
LINE
  5
70
330
1E
100
AcDbEntity
  8
HILF
100
AcDbLine
 10
224.7736801096948
 20
49.99999999999997
 30
0.0
 11
324.835391655631
 21
49.99999999999997
 31
0.0
  0
LINE
  5
71
330
1E
100
AcDbEntity
  8
VOLL
100
AcDbLine
 10
332.0
 20
60.0
 30
0.0
 11
410.0
 21
60.0
 31
0.0
  0
LINE
  5
72
330
1E
100
AcDbEntity
  8
HILF
100
AcDbLine
 10
336.7238616296993
 20
83.77983636955827
 30
0.0
 11
404.8588839326728
 21
83.77983636955827
 31
0.0
  0
LINE
  5
73
330
1E
100
AcDbEntity
  8
HILF
100
AcDbLine
 10
223.4909699289885
 20
14.89398258028314
 30
0.0
 11
404.8588839326728
 21
14.89398258028314
 31
0.0
  0
TEXT
  5
74
330
1E
100
AcDbEntity
  8
TEXT
100
AcDbText
 10
63.86165979631819
 20
18.67381894984132
 30
0.0
 40
4.0
  1
Änderung
 41
0.8
  7
GREEKS
 72
     1
 11
74.60451693917534
 21
18.67381894984132
 31
0.0
100
AcDbText
  0
TEXT
  5
75
330
1E
100
AcDbEntity
  8
TEXT
100
AcDbText
 10
143.5163572150377
 20
102.4620895087088
 30
0.0
 40
5.0
  1
Maßstab
 41
0.8
  7
GREEKS
100
AcDbText
  0
TEXT
  5
76
330
1E
100
AcDbEntity
  8
TEXT
100
AcDbText
 10
184.2858954734051
 20
102.4184168434819
 30
0.0
 40
5.0
  1
Zul. Abw.
 41
0.8
  7
GREEKS
100
AcDbText
  0
TEXT
  5
77
330
1E
100
AcDbEntity
  8
TEXT
100
AcDbText
 10
224.877940380901
 20
102.5489328011779
 30
0.0
 40
5.0
  1
Benennung
 41
0.8
  7
GREEKS
100
AcDbText
  0
TEXT
  5
78
330
1E
100
AcDbEntity
  8
TEXT
100
AcDbText
 10
336.178754957634
 20
102.3132034537136
 30
0.0
 40
5.0
  1
Zeichnungs Nr.
 41
0.8
  7
GREEKS
100
AcDbText
  0
TEXT
  5
79
330
1E
100
AcDbEntity
  8
TEXT
100
AcDbText
 10
224.742238391136
 20
30.84560570193057
 30
0.0
 40
5.0
  1
Bauvorhaben
 41
0.8
  7
GREEKS
100
AcDbText
  0
TEXT
  5
7A
330
1E
100
AcDbEntity
  8
TEXT
100
AcDbText
 10
336.7238616296993
 20
73.1811823709997
 30
0.0
 40
5.0
  1
Ersatz für:
 41
0.8
  7
GREEKS
100
AcDbText
  0
TEXT
  5
7B
330
1E
100
AcDbEntity
  8
TEXT
100
AcDbText
 10
48.26641107045756
 20
13.65465846027192
 30
0.0
 40
4.0
  1
Index
 50
90.0
 41
0.8
  7
GREEKS
100
AcDbText
  0
TEXT
  5
7C
330
1E
100
AcDbEntity
  8
TEXT
100
AcDbText
 10
100.0934676075481
 20
18.6715626933981
 30
0.0
 40
4.0
  1
Tag
 41
0.8
  7
GREEKS
 72
     1
 11
103.8268009408814
 21
18.6715626933981
 31
0.0
100
AcDbText
  0
TEXT
  5
7D
330
1E
100
AcDbEntity
  8
TEXT
100
AcDbText
 10
119.0122744386592
 20
18.59324216966408
 30
0.0
 40
4.0
  1
Name
 41
0.8
  7
GREEKS
 72
     1
 11
125.3360839624688
 21
18.59324216966408
 31
0.0
100
AcDbText
  0
TEXT
  5
7E
330
1E
100
AcDbEntity
  8
TEXT
100
AcDbText
 10
162.3311673153651
 20
73.31880501229926
 30
0.0
 40
4.0
  1
Tag
 41
0.8
  7
GREEKS
100
AcDbText
  0
TEXT
  5
7F
330
1E
100
AcDbEntity
  8
TEXT
100
AcDbText
 10
192.4626584226295
 20
73.30961091915225
 30
0.0
 40
4.0
  1
Name
 41
0.8
  7
GREEKS
100
AcDbText
  0
TEXT
  5
80
330
1E
100
AcDbEntity
  8
TEXT
100
AcDbText
 10
137.5836127167615
 20
63.62990369617964
 30
0.0
 40
4.0
  1
Gez.
 41
0.8
  7
GREEKS
100
AcDbText
  0
TEXT
  5
81
330
1E
100
AcDbEntity
  8
TEXT
100
AcDbText
 10
137.5515086571672
 20
53.68926291428377
 30
0.0
 40
4.0
  1
Gepr.
 41
0.8
  7
GREEKS
100
AcDbText
  0
TEXT
  5
82
330
1E
100
AcDbEntity
  8
TEXT
100
AcDbText
 10
137.6006777387304
 20
43.52946389649807
 30
0.0
 40
4.0
  1
Norm.
 41
0.8
  7
GREEKS
100
AcDbText
  0
LINE
  5
83
330
1E
100
AcDbEntity
  8
STEMPEL
100
AcDbLine
 10
49.99999999999989
 20
10.0
 30
0.0
 11
410.0
 21
10.0
 31
0.0
  0
TEXT
  5
84
330
1E
100
AcDbEntity
  8
TEXT
100
AcDbText
 10
337.2400861497006
 20
52.07416177878602
 30
0.0
 40
5.0
  1
ersetzt durch:
 41
0.8
  7
GREEKS
100
AcDbText
  0
LINE
  5
85
330
1E
100
AcDbEntity
  8
STEMPEL
100
AcDbLine
 10
410.0
 20
10.0
 30
0.0
 11
39.99999999999989
 21
10.0
 31
0.0
  0
LINE
  5
86
330
1E
100
AcDbEntity
  8
STEMPEL
100
AcDbLine
 10
410.0
 20
10.0
 30
0.0
 11
410.0
 21
584.0
 31
0.0
  0
LINE
  5
87
330
1E
100
AcDbEntity
  8
STEMPEL
100
AcDbLine
 10
40.0
 20
10.0
 30
0.0
 11
39.99999999999989
 21
584.0
 31
0.0
  0
LINE
  5
88
330
1E
100
AcDbEntity
  8
STEMPEL
100
AcDbLine
 10
410.0
 20
584.0
 30
0.0
 11
39.99999999999989
 21
584.0
 31
0.0
  0
LINE
  5
89
330
1E
100
AcDbEntity
  8
HILF
100
AcDbLine
 10
0.0
 20
0.0
 30
0.0
 11
-0.0000000000001137
 21
594.0
 31
0.0
  0
LINE
  5
8A
330
1E
100
AcDbEntity
  8
HILF
100
AcDbLine
 10
419.9999999999999
 20
594.0000000000002
 30
0.0
 11
0.0
 21
594.0
 31
0.0
  0
LINE
  5
8B
330
1E
100
AcDbEntity
  8
HILF
100
AcDbLine
 10
420.0
 20
0.0
 30
0.0
 11
0.0
 21
0.0
 31
0.0
  0
LINE
  5
8C
330
1E
100
AcDbEntity
  8
HILF
100
AcDbLine
 10
31.08767135713856
 20
297.0
 30
0.0
 11
0.0000000000001137
 21
297.0
 31
0.0
  0
TEXT
  5
8D
330
1E
100
AcDbEntity
  8
TEXT
100
AcDbText
 10
138.622109822104
 20
73.14025471151666
 30
0.0
 40
4.0
  1
2011
 41
0.8
  7
GREEKS
100
AcDbText
  0
LINE
  5
8E
330
1E
100
AcDbEntity
  8
HILF
100
AcDbLine
 10
420.0
 20
-0.0000000000001137
 30
0.0
 11
419.9999999999999
 21
594.0
 31
0.0
  0
TEXT
  5
8F
330
1E
100
AcDbEntity
  8
VOLL
100
AcDbText
 10
78.07675471698113
 20
31.02594776470585
 30
0.0
 40
1.8
  1

  7
GREEKS
100
AcDbText
  0
TEXT
  5
90
330
1E
100
AcDbEntity
  8
TEXT
100
AcDbText
 10
41.85509950977674
 20
111.6719999999999
 30
0.0
 40
5.0
  1
Erstellt mit AUTOCAD 2004
 41
0.8
  7
GREEKS
100
AcDbText
  0
TEXT
  5
91
330
1E
100
AcDbEntity
  8
TEXT
100
AcDbText
 10
194.4216048581257
 20
63.0896391972351
 30
0.0
 40
4.0
  1
Koeh
 41
0.8
  7
GREEKS
 72
     1
 11
199.6787477152685
 21
63.0896391972351
 31
0.0
100
AcDbText
  0
TEXT
  5
92
330
1E
100
AcDbEntity
  8
TEXT
 62
     1
100
AcDbText
 10
346.1802457961982
 20
88.14901428913959
 30
0.0
 40
7.0
  1
00993125W
 41
0.8
  7
GREEKS
 72
     1
 11
369.6469124628649
 21
88.14901428913959
 31
0.0
100
AcDbText
  0
TEXT
  5
93
330
1E
100
AcDbEntity
  8
TEXT
 62
     1
100
AcDbText
 10
150.5006306481887
 20
88.14901428913959
 30
0.0
 40
7.0
  1
1:2
 41
0.8
  7
GREEKS
100
AcDbText
  0
TEXT
  5
94
330
1E
100
AcDbEntity
  8
TEXT
100
AcDbText
 10
160.398997108236
 20
63.10765040825732
 30
0.0
 40
4.0
  1
28.03.
 41
0.8
  7
GREEKS
 72
     1
 11
167.4085209177598
 21
63.10765040825732
 31
0.0
100
AcDbText
  0
TEXT
  5
95
330
1E
100
AcDbEntity
  8
TEXT
 62
     1
100
AcDbText
 10
226.8935731057402
 20
87.41748789253779
 30
0.0
 40
7.0
  1
Rohrschelle   DN125
 41
0.8
  7
GREEKS
100
AcDbText
  0
TEXT
  5
96
330
1E
100
AcDbEntity
  8
TEXT
100
AcDbText
 10
225.1296391125315
 20
71.50334417585288
 30
0.0
 40
5.0
  1
mit Schlagstift
 41
0.8
  7
GREEKS
100
AcDbText
  0
TEXT
  5
98
330
1E
100
AcDbEntity
  8
TEXT
100
AcDbText
 10
225.1296391125315
 20
51.64011943042158
 30
0.0
 40
5.0
  1
EDV-Art.Nr. 00993.125X
 41
0.8
  7
GREEKS
100
AcDbText
  0
TEXT
  5
99
330
1E
100
AcDbEntity
  8
TEXT
100
AcDbText
 10
224.9837501577827
 20
42.62974153022632
 30
0.0
 40
4.0
  1
00993125W.DWG
 41
0.8
  7
GREEKS
100
AcDbText
  0
TEXT
  5
9A
330
1E
100
AcDbEntity
  8
TEXT
100
AcDbText
 10
182.626132208084
 20
90.76363841023022
 30
0.0
 40
4.0
  1
DIN EN1123-2
 41
0.8
  7
GREEKS
 72
     1
 11
199.6166083985602
 21
90.76363841023022
 31
0.0
100
AcDbText
  0
INSERT
  5
9B
330
1E
100
AcDbEntity
  8
STEMPEL
100
AcDbBlockReference
  2
LOGO
 10
140.9955485457794
 20
45.02105276448322
 30
0.0
 41
2.0
 42
2.0
 43
2.0
  0
TEXT
  5
118
330
1E
100
AcDbEntity
  8
BEM
100
AcDbText
 10
417.3022923857165
 20
10.16790107998849
 30
0.0
 40
4.0
  1
Diese Zeichnung ist urheberrechtlich geschützt und bleibt unser Eigentum. Sie darf weder ganz noch teilweise verfielfältigt und nicht an Dritte weitergegeben werden.
 50
90.0
 41
0.8
  7
GREEKS
100
AcDbText
  0
TEXT
  5
7A1
330
1E
100
AcDbEntity
  8
TEXT
 62
     1
100
AcDbText
 10
257.8365522679117
 20
115.6405708316599
 30
0.0
 40
7.0
  1
Werkstoff: St37 feuerverzinkt
 41
0.8
  7
GREEKS
100
AcDbText
  0
TEXT
  5
C1B
330
1E
100
AcDbEntity
  8
TEXT
 62
     1
100
AcDbText
 10
319.6787524399604
 20
537.2685031662578
 30
0.0
 40
7.0
  1
Schraube M6x20
 41
0.8
  7
GREEKS
100
AcDbText
  0
LINE
  5
C1C
330
1E
100
AcDbEntity
  8
TEXT
 62
     2
100
AcDbLine
 10
317.5588594439149
 20
533.8885977493614
 30
0.0
 11
392.5605412615454
 21
533.8885977493614
 31
0.0
  0
LINE
  5
C1D
330
1E
100
AcDbEntity
  8
TEXT
 62
     2
100
AcDbLine
 10
317.5588594439149
 20
533.8885977493614
 30
0.0
 11
302.3203775482225
 21
512.9945553855998
 31
0.0
  0
LINE
  5
1581
330
1E
100
AcDbEntity
  8
MITTEL
100
AcDbLine
 10
223.6832613544287
 20
159.6165711714482
 30
0.0
 11
223.6832613544287
 21
221.6165711714482
 31
0.0
  0
LINE
  5
1582
330
1E
100
AcDbEntity
  8
MITTEL
100
AcDbLine
 10
149.6832613544287
 20
195.1165711714482
 30
0.0
 11
149.6832613544287
 21
210.1165711714482
 31
0.0
  0
LINE
  5
1583
330
1E
100
AcDbEntity
  8
MITTEL
100
AcDbLine
 10
135.6842613544288
 20
202.6165711714483
 30
0.0
 11
311.6832613544287
 21
202.6165711714481
 31
0.0
  0
LINE
  5
1589
330
1E
100
AcDbEntity
  8
STEMPEL
100
AcDbLine
 10
145.6832613544288
 20
216.6165711714482
 30
0.0
 11
301.6832613544287
 21
216.6165711714481
 31
0.0
  0
LINE
  5
158A
330
1E
100
AcDbEntity
  8
STEMPEL
100
AcDbLine
 10
301.6832613544287
 20
188.6165711714481
 30
0.0
 11
145.6832613544286
 21
188.6165711714482
 31
0.0
  0
ARC
  5
15C4
330
1E
100
AcDbEntity
  8
STEMPEL
100
AcDbCircle
 10
152.9332613544287
 20
490.0104167950295
 30
0.0
 40
0.5
100
AcDbArc
 50
90.0
 51
180.0
  0
LINE
  5
15C5
330
1E
100
AcDbEntity
  8
STEMPEL
100
AcDbLine
 10
152.4332613544287
 20
490.0104167950295
 30
0.0
 11
152.4332613544287
 21
489.0104167950295
 31
0.0
  0
LINE
  5
15C6
330
1E
100
AcDbEntity
  8
STEMPEL
100
AcDbLine
 10
152.4332613544287
 20
489.0104167950295
 30
0.0
 11
144.9332613544287
 21
489.0104167950295
 31
0.0
  0
ARC
  5
15C7
330
1E
100
AcDbEntity
  8
STEMPEL
100
AcDbCircle
 10
144.4332613544287
 20
490.0104167950295
 30
0.0
 40
0.5
100
AcDbArc
 50
0.0
 51
90.0
  0
LINE
  5
15C8
330
1E
100
AcDbEntity
  8
STEMPEL
100
AcDbLine
 10
144.9332613544287
 20
489.0104167950295
 30
0.0
 11
144.9332613544287
 21
490.0104167950295
 31
0.0
  0
LINE
  5
161B
330
1E
100
AcDbEntity
  8
MITTEL
100
AcDbLine
 10
223.6832613544287
 20
282.9952148571099
 30
0.0
 11
223.6832613544287
 21
560.495592419427
 31
0.0
  0
DIMENSION
  5
1644
330
1E
100
AcDbEntity
  8
TEXT
100
AcDbDimension
  2
*D1
 10
297.6832613544287
 20
226.9151995382334
 30
0.0
 11
223.6832613544287
 21
233.4151995382334
 31
0.0
 70
    32
 71
     5
 42
147.9999999999999
  3
Standard
100
AcDbAlignedDimension
 13
149.6832613544287
 23
210.1165711714482
 33
0.0
 14
297.6832613544287
 24
210.1165711714481
 34
0.0
100
AcDbRotatedDimension
1001
ACAD
1000
DSTYLE
1002
{
1070
    40
1040
2.0
1070
    41
1040
3.5
1070
    42
1040
1.0
1070
    43
1040
7.0
1070
    44
1040
1.0
1070
    73
1070
     0
1070
    74
1070
     0
1070
    77
1070
     1
1070
    78
1070
     8
1070
    79
1070
     2
1070
   140
1040
3.5
1070
   141
1040
1.5
1070
   146
1040
0.5
1070
   147
1040
1.5
1070
   172
1070
     1
1070
   178
1070
     1
1070
   179
1070
     2
1070
   271
1070
     2
1070
   272
1070
     2
1070
   284
1070
     8
1070
   285
1070
     8
1070
   286
1070
     8
1002
}
  0
DIMENSION
  5
1651
330
1E
100
AcDbEntity
  8
TEXT
100
AcDbDimension
  2
*D2
 10
306.6832613544288
 20
244.7020480199948
 30
0.0
 11
223.6837613544288
 21
251.2020480199948
 31
0.0
 70
    32
 71
     5
 42
165.9989999999998
  3
Standard
100
AcDbAlignedDimension
 13
140.6842613544288
 23
202.6165711714482
 33
0.0
 14
306.6832613544288
 24
202.6165711714481
 34
0.0
100
AcDbRotatedDimension
1001
ACAD
1000
DSTYLE
1002
{
1070
    40
1040
2.0
1070
    41
1040
3.5
1070
    42
1040
1.0
1070
    43
1040
7.0
1070
    44
1040
1.0
1070
    73
1070
     0
1070
    74
1070
     0
1070
    77
1070
     1
1070
    78
1070
     8
1070
    79
1070
     2
1070
   140
1040
3.5
1070
   141
1040
1.5
1070
   146
1040
0.5
1070
   147
1040
1.5
1070
   172
1070
     1
1070
   178
1070
     1
1070
   179
1070
     2
1070
   271
1070
     2
1070
   272
1070
     2
1070
   284
1070
     8
1070
   285
1070
     8
1070
   286
1070
     8
1002
}
  0
DIMENSION
  5
16C4
330
1E
100
AcDbEntity
  8
BEM
100
AcDbDimension
  2
*D3
 10
132.7187721010927
 20
427.9956393930405
 30
0.0
 11
126.2187721010927
 21
357.9954271250752
 31
0.0
 70
    32
 71
     5
 42
140.0004245359305
  3
Standard
100
AcDbAlignedDimension
 13
223.6832613544287
 23
287.9952148571099
 33
0.0
 14
212.9332613544288
 24
427.9956393930405
 34
0.0
 50
90.0
100
AcDbRotatedDimension
1001
ACAD
1000
DSTYLE
1002
{
1070
    40
1040
2.0
1070
    41
1040
3.5
1070
    42
1040
1.0
1070
    43
1040
7.0
1070
    44
1040
1.0
1070
    73
1070
     0
1070
    74
1070
     0
1070
    77
1070
     1
1070
    78
1070
     8
1070
    79
1070
     2
1070
   140
1040
3.5
1070
   141
1040
1.5
1070
   146
1040
0.5
1070
   147
1040
1.5
1070
   172
1070
     1
1070
   178
1070
     1
1070
   179
1070
     2
1070
   271
1070
     2
1070
   272
1070
     2
1070
   284
1070
     8
1070
   285
1070
     8
1070
   286
1070
     8
1002
}
  0
LINE
  5
1773
330
1E
100
AcDbEntity
  8
STEMPEL
100
AcDbLine
 10
163.6823983329368
 20
435.4958466971616
 30
0.0
 11
163.6823983329368
 21
488.5071555186769
 31
0.0
  0
LINE
  5
1774
330
1E
100
AcDbEntity
  8
STEMPEL
100
AcDbLine
 10
283.6832613544286
 20
435.4953377657464
 30
0.0
 11
283.6832613544288
 21
488.4840286575823
 31
0.0
  0
LINE
  5
1786
330
1E
100
AcDbEntity
  8
STEMPEL
100
AcDbLine
 10
285.6832613544288
 20
435.4953377657464
 30
0.0
 11
285.6832613544287
 21
488.4840286575823
 31
0.0
  0
LINE
  5
1787
330
1E
100
AcDbEntity
  8
STEMPEL
100
AcDbLine
 10
161.6823983329368
 20
435.4958466971616
 30
0.0
 11
161.6823983329368
 21
488.5071555186768
 31
0.0
  0
LINE
  5
1788
330
1E
100
AcDbEntity
  8
STEMPEL
100
AcDbLine
 10
165.6824071075511
 20
553.4958466982588
 30
0.0
 11
281.683270129043
 21
553.4953377668435
 31
0.0
  0
LINE
  5
1789
330
1E
100
AcDbEntity
  8
STEMPEL
100
AcDbLine
 10
165.6824158821654
 20
555.4958466662271
 30
0.0
 11
281.6832789036573
 21
555.4953377348116
 31
0.0
  0
LINE
  5
17AE
330
1E
100
AcDbEntity
  8
STEMPEL
100
AcDbLine
 10
139.6832613544287
 20
494.5130854252956
 30
0.0
 11
159.6812123532344
 21
494.5071561340415
 31
0.0
  0
LINE
  5
17AF
330
1E
100
AcDbEntity
  8
STEMPEL
100
AcDbLine
 10
139.6832613544287
 20
492.5130853373865
 30
0.0
 11
159.6835843126392
 21
492.5071553428584
 31
0.0
  0
LINE
  5
17B2
330
1E
100
AcDbEntity
  8
STEMPEL
100
AcDbLine
 10
139.6832613544287
 20
490.5130852494772
 30
0.0
 11
139.6832613544287
 21
492.5130853373864
 31
0.0
  0
LINE
  5
17B3
330
1E
100
AcDbEntity
  8
STEMPEL
100
AcDbLine
 10
307.6832613544287
 20
490.4780988467187
 30
0.0
 11
307.6832613544287
 21
492.478098934628
 31
0.0
  0
LINE
  5
17B4
330
1E
100
AcDbEntity
  8
STEMPEL
100
AcDbLine
 10
139.6832613544287
 20
496.5130855132048
 30
0.0
 11
159.6818053430856
 21
496.5071560461322
 31
0.0
  0
LINE
  5
17B5
330
1E
100
AcDbEntity
  8
STEMPEL
100
AcDbLine
 10
139.6832613544287
 20
490.5130852494772
 30
0.0
 11
159.682991322788
 21
490.5071554307675
 31
0.0
  0
LINE
  5
17B6
330
1E
100
AcDbEntity
  8
STEMPEL
100
AcDbLine
 10
307.6832613544287
 20
494.4780990225373
 30
0.0
 11
307.6832613544287
 21
496.4780991104466
 31
0.0
  0
LINE
  5
17B7
330
1E
100
AcDbEntity
  8
STEMPEL
100
AcDbLine
 10
139.6832613544287
 20
494.5130854252956
 30
0.0
 11
139.6832613544287
 21
496.5130855132047
 31
0.0
  0
LINE
  5
17B8
330
1E
100
AcDbEntity
  8
STEMPEL
100
AcDbLine
 10
283.6832613544288
 20
498.4840290971284
 30
0.0
 11
283.6832613544288
 21
551.4953377668628
 31
0.0
  0
LINE
  5
17B9
330
1E
100
AcDbEntity
  8
STEMPEL
100
AcDbLine
 10
285.6832613544287
 20
498.4840290971284
 30
0.0
 11
285.6832613544288
 21
551.4953377348501
 31
0.0
  0
LINE
  5
17BA
330
1E
100
AcDbEntity
  8
STEMPEL
100
AcDbLine
 10
163.6823983329368
 20
498.5071559582229
 30
0.0
 11
163.6823983329369
 21
551.495846698278
 31
0.0
  0
LINE
  5
17BB
330
1E
100
AcDbEntity
  8
STEMPEL
100
AcDbLine
 10
161.6823983329368
 20
498.5071559582229
 30
0.0
 11
161.6823983329369
 21
551.4958466662656
 31
0.0
  0
LINE
  5
17BC
330
1E
100
AcDbEntity
  8
STEMPEL
100
AcDbLine
 10
287.6826683645774
 20
496.4840291850377
 30
0.0
 11
307.6832613544287
 21
496.4780991104466
 31
0.0
  0
LINE
  5
17BD
330
1E
100
AcDbEntity
  8
STEMPEL
100
AcDbLine
 10
287.6820753747264
 20
494.4840292729469
 30
0.0
 11
307.6832613544287
 21
494.4780990225373
 31
0.0
  0
LINE
  5
17BE
330
1E
100
AcDbEntity
  8
STEMPEL
100
AcDbLine
 10
287.6844473341312
 20
492.4840284817638
 30
0.0
 11
307.6832613544287
 21
492.4780989346281
 31
0.0
  0
LINE
  5
17BF
330
1E
100
AcDbEntity
  8
STEMPEL
100
AcDbLine
 10
287.6838543442799
 20
490.484028569673
 30
0.0
 11
307.6832613544287
 21
490.4780988467189
 31
0.0
  0
ARC
  5
17C0
330
1E
100
AcDbEntity
  8
STEMPEL
100
AcDbCircle
 10
287.6832613544287
 20
498.4840290971284
 30
0.0
 40
2.0
100
AcDbArc
 50
180.0
 51
269.9830120918672
  0
ARC
  5
17C1
330
1E
100
AcDbEntity
  8
STEMPEL
100
AcDbCircle
 10
287.6832613544287
 20
488.4840286575823
 30
0.0
 40
2.0
100
AcDbArc
 50
89.98301209186712
 51
179.9999999999999
  0
ARC
  5
17C2
330
1E
100
AcDbEntity
  8
STEMPEL
100
AcDbCircle
 10
159.6823983329368
 20
498.5071559582229
 30
0.0
 40
2.0
100
AcDbArc
 50
269.9830120918674
 51
360.0
  0
ARC
  5
17C3
330
1E
100
AcDbEntity
  8
STEMPEL
100
AcDbCircle
 10
159.6823983329368
 20
488.5071555186768
 30
0.0
 40
2.0
100
AcDbArc
 50
360.0
 51
89.98301209186736
  0
ARC
  5
17C4
330
1E
100
AcDbEntity
  8
STEMPEL
100
AcDbCircle
 10
159.6823983329368
 20
498.5071559582229
 30
0.0
 40
4.0
100
AcDbArc
 50
269.9830120918674
 51
360.0
  0
ARC
  5
17C5
330
1E
100
AcDbEntity
  8
STEMPEL
100
AcDbCircle
 10
159.6823983329368
 20
488.5071555186769
 30
0.0
 40
4.0
100
AcDbArc
 50
360.0
 51
89.98301209186752
  0
ARC
  5
17C6
330
1E
100
AcDbEntity
  8
STEMPEL
100
AcDbCircle
 10
287.6832613544287
 20
498.4840290971284
 30
0.0
 40
4.0
100
AcDbArc
 50
180.0
 51
269.9830120918672
  0
ARC
  5
17C7
330
1E
100
AcDbEntity
  8
STEMPEL
100
AcDbCircle
 10
287.6832613544288
 20
488.4840286575823
 30
0.0
 40
4.0
100
AcDbArc
 50
89.98301209186712
 51
179.9999999999999
  0
LINE
  5
17E3
330
1E
100
AcDbEntity
  8
STEMPEL
100
AcDbLine
 10
302.4332613544288
 20
489.0104167950295
 30
0.0
 11
302.4332613544288
 21
490.0104167950295
 31
0.0
  0
ARC
  5
17E4
330
1E
100
AcDbEntity
  8
STEMPEL
100
AcDbCircle
 10
302.9332613544287
 20
490.0104167950295
 30
0.0
 40
0.5
100
AcDbArc
 50
90.0
 51
180.0
  0
LINE
  5
17E5
330
1E
100
AcDbEntity
  8
STEMPEL
100
AcDbLine
 10
294.9332613544287
 20
489.0104167950295
 30
0.0
 11
302.4332613544288
 21
489.0104167950295
 31
0.0
  0
LINE
  5
17E6
330
1E
100
AcDbEntity
  8
STEMPEL
100
AcDbLine
 10
294.9332613544287
 20
490.0104167950295
 30
0.0
 11
294.9332613544287
 21
489.0104167950295
 31
0.0
  0
ARC
  5
17E7
330
1E
100
AcDbEntity
  8
STEMPEL
100
AcDbCircle
 10
294.4332613544288
 20
490.0104167950295
 30
0.0
 40
0.5
100
AcDbArc
 50
0.000000000000007
 51
90.0
  0
ARC
  5
1877
330
1E
100
AcDbEntity
  8
STEMPEL
100
AcDbCircle
 10
284.5832613544288
 20
202.6165711714482
 30
0.0
 40
22.09999999999991
100
AcDbArc
 50
320.6923518838931
 51
39.30764811610671
  0
ARC
  5
1878
330
1E
100
AcDbEntity
  8
STEMPEL
100
AcDbCircle
 10
162.7832613544287
 20
202.6165711714481
 30
0.0
 40
22.09999999999993
100
AcDbArc
 50
140.6923518838932
 51
219.3076481161068
  0
LINE
  5
1879
330
1E
100
AcDbEntity
  8
STEMPEL
100
AcDbLine
 10
302.6832613544287
 20
494.4780990225374
 30
0.0
 11
302.6832613544288
 21
496.4780991104467
 31
0.0
  0
LINE
  5
187A
330
1E
100
AcDbEntity
  8
STEMPEL
100
AcDbLine
 10
302.6832613544287
 20
490.4780988467187
 30
0.0
 11
302.6832613544287
 21
492.478098934628
 31
0.0
  0
LINE
  5
187B
330
1E
100
AcDbEntity
  8
STEMPEL
100
AcDbLine
 10
144.6832613544287
 20
494.5130854252957
 30
0.0
 11
144.6832613544287
 21
496.5130855132048
 31
0.0
  0
LINE
  5
187C
330
1E
100
AcDbEntity
  8
STEMPEL
100
AcDbLine
 10
144.6832613544287
 20
490.5130852494772
 30
0.0
 11
144.6832613544287
 21
492.5130853373864
 31
0.0
  0
DIMENSION
  5
187E
330
1E
100
AcDbEntity
  8
BEM
100
AcDbDimension
  2
*D4
 10
283.6832613544288
 20
565.791657869739
 30
0.0
 11
223.6828298436828
 21
572.2916578697391
 31
0.0
 70
    32
 71
     5
 42
120.0008630214918
  3
Standard
100
AcDbAlignedDimension
 13
163.6823983329369
 23
551.5059697586953
 33
0.0
 14
283.6832613544288
 24
551.4852148571097
 34
0.0
100
AcDbRotatedDimension
1001
ACAD
1000
DSTYLE
1002
{
1070
    40
1040
2.0
1070
    41
1040
3.5
1070
    42
1040
1.0
1070
    43
1040
7.0
1070
    44
1040
1.0
1070
    73
1070
     0
1070
    74
1070
     0
1070
    77
1070
     1
1070
    78
1070
     8
1070
    79
1070
     2
1070
   140
1040
3.5
1070
   141
1040
1.5
1070
   146
1040
0.5
1070
   147
1040
1.5
1070
   172
1070
     1
1070
   178
1070
     1
1070
   179
1070
     2
1070
   271
1070
     2
1070
   272
1070
     2
1070
   284
1070
     8
1070
   285
1070
     8
1070
   286
1070
     8
1002
}
  0
DIMENSION
  5
1894
330
1E
100
AcDbEntity
  8
BEM
100
AcDbDimension
  2
*D5
 10
133.0300075932118
 20
433.5059697586954
 30
0.0
 11
126.5300075932118
 21
493.5059697586954
 31
0.0
 70
    32
 71
     5
 42
119.9999999999998
  3
Standard
100
AcDbAlignedDimension
 13
165.6823983329369
 23
553.5059697586953
 33
0.0
 14
165.6823983329368
 24
433.5059697586954
 34
0.0
 50
90.0
100
AcDbRotatedDimension
1001
ACAD
1000
DSTYLE
1002
{
1070
    40
1040
2.0
1070
    41
1040
3.5
1070
    42
1040
1.0
1070
    43
1040
7.0
1070
    44
1040
1.0
1070
    73
1070
     0
1070
    74
1070
     0
1070
    77
1070
     1
1070
    78
1070
     8
1070
    79
1070
     2
1070
   140
1040
3.5
1070
   141
1040
1.5
1070
   146
1040
0.5
1070
   147
1040
1.5
1070
   172
1070
     1
1070
   178
1070
     1
1070
   179
1070
     2
1070
   271
1070
     2
1070
   272
1070
     2
1070
   284
1070
     8
1070
   285
1070
     8
1070
   286
1070
     8
1002
}
  0
DIMENSION
  5
18AA
330
1E
100
AcDbEntity
  8
BEM
100
AcDbDimension
  2
*D6
 10
133.0300075932119
 20
555.5059697586953
 30
0.0
 11
126.5300075932118
 21
574.3726364253619
 31
0.0
 70
    32
 71
     5
 42
2.0
  3
Standard
100
AcDbAlignedDimension
 13
165.6823983329369
 23
553.5059697586953
 33
0.0
 14
165.6823983329369
 24
555.5059697586953
 34
0.0
 50
90.0
100
AcDbRotatedDimension
1001
ACAD
1000
DSTYLE
1002
{
1070
    40
1040
2.0
1070
    41
1040
3.5
1070
    42
1040
1.0
1070
    43
1040
7.0
1070
    44
1040
1.0
1070
    73
1070
     0
1070
    74
1070
     0
1070
    77
1070
     1
1070
    78
1070
     8
1070
    79
1070
     2
1070
   140
1040
3.5
1070
   141
1040
1.5
1070
   146
1040
0.5
1070
   147
1040
1.5
1070
   172
1070
     1
1070
   178
1070
     1
1070
   179
1070
     2
1070
   271
1070
     2
1070
   272
1070
     2
1070
   284
1070
     8
1070
   285
1070
     8
1070
   286
1070
     8
1002
}
  0
DIMENSION
  5
18C4
330
1E
100
AcDbEntity
  8
BEM
100
AcDbDimension
  2
*D7
 10
126.1961564317152
 20
188.6165711714481
 30
0.0
 11
119.6961564317151
 21
202.6165711714482
 31
0.0
 70
    32
 71
     5
 42
28.00000000000011
  3
Standard
100
AcDbAlignedDimension
 13
145.6832613544288
 23
216.6165711714482
 33
0.0
 14
145.6832613544287
 24
188.6165711714481
 34
0.0
 50
269.9999999999999
100
AcDbRotatedDimension
1001
ACAD
1000
DSTYLE
1002
{
1070
    40
1040
2.0
1070
    41
1040
3.5
1070
    42
1040
1.0
1070
    43
1040
7.0
1070
    44
1040
1.0
1070
    73
1070
     0
1070
    74
1070
     0
1070
    77
1070
     1
1070
    78
1070
     8
1070
    79
1070
     2
1070
   140
1040
3.5
1070
   141
1040
1.5
1070
   146
1040
0.5
1070
   147
1040
1.5
1070
   172
1070
     1
1070
   178
1070
     1
1070
   179
1070
     2
1070
   271
1070
     2
1070
   272
1070
     2
1070
   284
1070
     8
1070
   285
1070
     8
1070
   286
1070
     8
1002
}
  0
LINE
  5
18DA
330
1E
100
AcDbEntity
  8
STEMPEL
100
AcDbLine
 10
285.6832613544287
 20
188.616571171448
 30
0.0
 11
285.6832613544287
 21
216.6165711714481
 31
0.0
  0
LINE
  5
18DB
330
1E
100
AcDbEntity
  8
STEMPEL
100
AcDbLine
 10
161.6823983329368
 20
188.6165711714482
 30
0.0
 11
161.6823983329368
 21
216.6165711714482
 31
0.0
  0
LWPOLYLINE
  5
18E9
330
1E
100
AcDbEntity
  8
TEXT
 62
     1
100
AcDbPolyline
 90
        4
 70
     1
 43
0.0
 10
279.5439296435284
 20
94.3882247546162
 10
279.5439296435284
 20
87.38822475461621
 10
286.5439296435284
 20
87.38822475461621
 10
286.5439296435284
 20
94.3882247546162
  0
LINE
  5
18EC
330
1E
100
AcDbEntity
  8
MITTEL
100
AcDbLine
 10
134.6832613544287
 20
493.5157161436824
 30
0.0
 11
312.6832613544286
 21
493.4754647396651
 31
0.0
  0
LINE
  5
19F3
330
1E
100
AcDbEntity
  8
STEMPEL
100
AcDbLine
 10
220.1832613544287
 20
299.19221485711
 30
0.0
 11
227.1832613544287
 21
299.19221485711
 31
0.0
  0
LINE
  5
19F4
330
1E
100
AcDbEntity
  8
HILF
100
AcDbLine
 10
220.6832613544287
 20
397.7455922294887
 30
0.0
 11
226.6832613544287
 21
397.7455922294887
 31
0.0
  0
LINE
  5
19F5
330
1E
100
AcDbEntity
  8
HILF
100
AcDbLine
 10
220.6832613544287
 20
401.7455922294886
 30
0.0
 11
226.6832613544287
 21
401.7455922294886
 31
0.0
  0
LINE
  5
19F6
330
1E
100
AcDbEntity
  8
HILF
100
AcDbLine
 10
220.6832613544287
 20
405.7455922294886
 30
0.0
 11
226.6832613544287
 21
405.7455922294886
 31
0.0
  0
LINE
  5
19F7
330
1E
100
AcDbEntity
  8
HILF
100
AcDbLine
 10
220.6832613544287
 20
409.7455922294886
 30
0.0
 11
226.6832613544287
 21
409.7455922294886
 31
0.0
  0
LINE
  5
19F8
330
1E
100
AcDbEntity
  8
HILF
100
AcDbLine
 10
220.6832613544287
 20
413.7455922294886
 30
0.0
 11
226.6832613544287
 21
413.7455922294886
 31
0.0
  0
LINE
  5
19F9
330
1E
100
AcDbEntity
  8
HILF
100
AcDbLine
 10
220.1832613544287
 20
397.7455922294887
 30
0.0
 11
219.7992613544287
 21
397.7455922294887
 31
0.0
  0
LINE
  5
19FA
330
1E
100
AcDbEntity
  8
HILF
100
AcDbLine
 10
220.1832613544287
 20
401.7455922294886
 30
0.0
 11
219.7992613544287
 21
401.7455922294886
 31
0.0
  0
LINE
  5
19FB
330
1E
100
AcDbEntity
  8
HILF
100
AcDbLine
 10
220.1832613544287
 20
405.7455922294886
 30
0.0
 11
219.7992613544287
 21
405.7455922294886
 31
0.0
  0
LINE
  5
19FC
330
1E
100
AcDbEntity
  8
HILF
100
AcDbLine
 10
220.1832613544287
 20
409.7455922294886
 30
0.0
 11
219.7992613544287
 21
409.7455922294886
 31
0.0
  0
LINE
  5
19FD
330
1E
100
AcDbEntity
  8
HILF
100
AcDbLine
 10
220.1832613544287
 20
413.7455922294886
 30
0.0
 11
219.7992613544287
 21
413.7455922294886
 31
0.0
  0
LINE
  5
19FE
330
1E
100
AcDbEntity
  8
HILF
100
AcDbLine
 10
227.1832613544287
 20
413.7455922294886
 30
0.0
 11
227.5682613544287
 21
413.7455922294886
 31
0.0
  0
LINE
  5
19FF
330
1E
100
AcDbEntity
  8
HILF
100
AcDbLine
 10
227.1832613544287
 20
409.7455922294886
 30
0.0
 11
227.5682613544287
 21
409.7455922294886
 31
0.0
  0
LINE
  5
1A00
330
1E
100
AcDbEntity
  8
HILF
100
AcDbLine
 10
227.1832613544287
 20
405.7455922294886
 30
0.0
 11
227.5682613544287
 21
405.7455922294886
 31
0.0
  0
LINE
  5
1A01
330
1E
100
AcDbEntity
  8
HILF
100
AcDbLine
 10
227.1832613544287
 20
401.7455922294886
 30
0.0
 11
227.5682613544287
 21
401.7455922294886
 31
0.0
  0
LINE
  5
1A02
330
1E
100
AcDbEntity
  8
HILF
100
AcDbLine
 10
227.1832613544287
 20
397.7455922294887
 30
0.0
 11
227.5682613544287
 21
397.7455922294887
 31
0.0
  0
LINE
  5
1A03
330
1E
100
AcDbEntity
  8
STEMPEL
100
AcDbLine
 10
223.6832613544287
 20
287.9952148571099
 30
0.0
 11
220.1832613544287
 21
299.19221485711
 31
0.0
  0
LINE
  5
1A04
330
1E
100
AcDbEntity
  8
STEMPEL
100
AcDbLine
 10
223.6832613544287
 20
287.9952148571099
 30
0.0
 11
227.1832613544287
 21
299.1912148571099
 31
0.0
  0
LWPOLYLINE
  5
1A05
330
1E
100
AcDbEntity
  8
BEM
 62
     1
100
AcDbPolyline
 90
        4
 70
     1
 43
0.0
 10
185.8922448512244
 20
394.4472622369945
 10
185.8922448512244
 20
387.4472622369944
 10
192.8922448512244
 20
387.4472622369944
 10
192.8922448512244
 20
394.4472622369945
  0
DIMENSION
  5
1A06
330
1E
100
AcDbEntity
  8
BEM
100
AcDbDimension
  2
*D8
 10
220.1832613544287
 20
384.47871485711
 30
0.0
 11
197.316594687762
 21
384.47871485711
 31
0.0
 70
   160
 71
     5
 42
7.0
  3
Standard
100
AcDbAlignedDimension
 13
227.1832613544287
 23
384.2409190952872
 33
0.0
 14
220.1832613544287
 24
384.2409190952872
 34
0.0
100
AcDbRotatedDimension
1001
ACAD
1000
DSTYLE
1002
{
1070
    40
1040
2.0
1070
    41
1040
3.5
1070
    42
1040
1.0
1070
    43
1040
7.0
1070
    44
1040
1.0
1070
    73
1070
     0
1070
    74
1070
     0
1070
    77
1070
     1
1070
    78
1070
     8
1070
    79
1070
     2
1070
   140
1040
3.5
1070
   141
1040
1.5
1070
   146
1040
0.5
1070
   147
1040
1.5
1070
   172
1070
     1
1070
   178
1070
     1
1070
   179
1070
     2
1070
   271
1070
     2
1070
   272
1070
     2
1070
   284
1070
     8
1070
   285
1070
     8
1070
   286
1070
     8
1002
}
  0
ARC
  5
1A07
330
1E
100
AcDbEntity
  8
HILF
100
AcDbCircle
 10
223.6832613544287
 20
428.6205922294886
 30
0.0
 40
6.624999999999967
100
AcDbArc
 50
238.1092081981539
 51
301.890791801846
  0
LINE
  5
1A08
330
1E
100
AcDbEntity
  8
STEMPEL
100
AcDbLine
 10
230.6832613544287
 20
427.9955922294886
 30
0.0
 11
227.1832613544287
 21
422.9955922294887
 31
0.0
  0
LINE
  5
1A09
330
1E
100
AcDbEntity
  8
STEMPEL
100
AcDbLine
 10
227.1832613544287
 20
299.1912148571099
 30
0.0
 11
227.1832613544287
 21
422.9955922294887
 31
0.0
  0
LINE
  5
1A0A
330
1E
100
AcDbEntity
  8
STEMPEL
100
AcDbLine
 10
220.1832613544287
 20
422.9955922294887
 30
0.0
 11
216.6832613544287
 21
427.9955922294887
 31
0.0
  0
LINE
  5
1A0B
330
1E
100
AcDbEntity
  8
STEMPEL
100
AcDbLine
 10
220.1832613544287
 20
299.19221485711
 30
0.0
 11
220.1832613544287
 21
422.9955922294887
 31
0.0
  0
LINE
  5
1B10
330
1E
100
AcDbEntity
  8
STEMPEL
100
AcDbLine
 10
213.4332613544287
 20
167.6165711714481
 30
0.0
 11
213.4332613544287
 21
188.6165711714482
 31
0.0
  0
LINE
  5
1B11
330
1E
100
AcDbEntity
  8
STEMPEL
100
AcDbLine
 10
233.9332613544287
 20
167.6165711714482
 30
0.0
 11
233.9332613544288
 21
188.6165711714481
 31
0.0
  0
ARC
  5
1B13
330
1E
100
AcDbEntity
  8
STEMPEL
100
AcDbCircle
 10
223.6832613544287
 20
183.6269878381148
 30
0.0
 40
19.01041666666662
100
AcDbArc
 50
237.3722951474787
 51
302.627704852521
  0
ARC
  5
1B15
330
1E
100
AcDbEntity
  8
VERDECKT
100
AcDbCircle
 10
223.6832613544287
 20
197.6061545047816
 30
0.0
 40
19.01041666666662
100
AcDbArc
 50
57.37229514747859
 51
122.627704852521
  0
ARC
  5
1BCB
330
1E
100
AcDbEntity
  8
STEMPEL
100
AcDbCircle
 10
281.6832613544288
 20
551.4953377348501
 30
0.0
 40
4.0
100
AcDbArc
 50
360.0
 51
89.99974862581707
  0
ARC
  5
1BCC
330
1E
100
AcDbEntity
  8
STEMPEL
100
AcDbCircle
 10
165.6823983329369
 20
551.4958466662656
 30
0.0
 40
4.0
100
AcDbArc
 50
89.99974862581698
 51
179.9999999999999
  0
LINE
  5
1BCD
330
1E
100
AcDbEntity
  8
STEMPEL
100
AcDbLine
 10
165.6823895583225
 20
433.4958466971809
 30
0.0
 11
281.6832525798144
 21
433.4953377657656
 31
0.0
  0
LINE
  5
1BCE
330
1E
100
AcDbEntity
  8
STEMPEL
100
AcDbLine
 10
165.6823807837082
 20
431.4958466972002
 30
0.0
 11
281.6832438052001
 21
431.4953377657849
 31
0.0
  0
ARC
  5
1BCF
330
1E
100
AcDbEntity
  8
STEMPEL
100
AcDbCircle
 10
281.6832613544288
 20
435.4953377657464
 30
0.0
 40
4.0
100
AcDbArc
 50
269.9997486258172
 51
0.0000000000000636
  0
ARC
  5
1BD0
330
1E
100
AcDbEntity
  8
STEMPEL
100
AcDbCircle
 10
165.6823983329368
 20
435.4958466971616
 30
0.0
 40
4.0
100
AcDbArc
 50
180.0
 51
269.9997486258171
  0
ARC
  5
1BD1
330
1E
100
AcDbEntity
  8
STEMPEL
100
AcDbCircle
 10
281.6832613544288
 20
551.4953377668628
 30
0.0
 40
2.0
100
AcDbArc
 50
0.0
 51
89.99974862581714
  0
ARC
  5
1BD2
330
1E
100
AcDbEntity
  8
STEMPEL
100
AcDbCircle
 10
165.6823983329369
 20
551.495846698278
 30
0.0
 40
2.0
100
AcDbArc
 50
89.99974862581712
 51
179.9999999999999
  0
ARC
  5
1BD3
330
1E
100
AcDbEntity
  8
STEMPEL
100
AcDbCircle
 10
281.6832613544286
 20
435.4953377657464
 30
0.0
 40
2.0
100
AcDbArc
 50
269.9997486258172
 51
359.9999999999999
  0
ARC
  5
1BD4
330
1E
100
AcDbEntity
  8
STEMPEL
100
AcDbCircle
 10
165.6823983329368
 20
435.4958466971616
 30
0.0
 40
2.0
100
AcDbArc
 50
180.0
 51
269.9997486258171
  0
LINE
  5
1BD5
330
1E
100
AcDbEntity
  8
STEMPEL
100
AcDbLine
 10
212.9332613544288
 20
427.9956393930405
 30
0.0
 11
234.4332613544287
 21
427.9955450659368
 31
0.0
  0
LINE
  5
1BF7
330
1E
100
AcDbEntity
  8
STEMPEL
100
AcDbLine
 10
212.9332613544288
 20
427.9956393930405
 30
0.0
 11
212.9332613544288
 21
431.4956393930741
 31
0.0
  0
LINE
  5
1BF8
330
1E
100
AcDbEntity
  8
STEMPEL
100
AcDbLine
 10
234.4332613544287
 20
427.9955450659368
 30
0.0
 11
234.4332613544287
 21
431.4955450659704
 31
0.0
  0
DIMENSION
  5
1C4E
330
1E
100
AcDbEntity
  8
BEM
100
AcDbDimension
  2
*D9
 10
116.481523991199
 20
287.99521485711
 30
0.0
 11
109.981523991199
 21
421.7455307616686
 31
0.0
 70
    32
 71
     5
 42
267.5006318091172
  3
Standard
100
AcDbAlignedDimension
 13
165.6824158821654
 23
555.4958466662271
 33
0.0
 14
223.6832613544287
 24
287.9952148571099
 34
0.0
 50
90.0
100
AcDbRotatedDimension
1001
ACAD
1000
DSTYLE
1002
{
1070
    40
1040
2.0
1070
    41
1040
3.5
1070
    42
1040
1.0
1070
    43
1040
7.0
1070
    44
1040
1.0
1070
    73
1070
     0
1070
    74
1070
     0
1070
    77
1070
     1
1070
    78
1070
     8
1070
    79
1070
     2
1070
   140
1040
3.5
1070
   141
1040
1.5
1070
   146
1040
0.5
1070
   147
1040
1.5
1070
   172
1070
     1
1070
   178
1070
     1
1070
   179
1070
     2
1070
   271
1070
     2
1070
   272
1070
     2
1070
   284
1070
     8
1070
   285
1070
     8
1070
   286
1070
     8
1002
}
  0
DIMENSION
  5
1C89
330
1E
100
AcDbEntity
  8
BEM
100
AcDbDimension
  2
*D10
 10
256.2470428422466
 20
427.9955450659368
 30
0.0
 11
249.7470428422465
 21
405.1288783992702
 31
0.0
 70
    32
 71
     5
 42
3.500000000033651
  3
Standard
100
AcDbAlignedDimension
 13
234.4332613544287
 23
431.4955450659705
 33
0.0
 14
234.4332613544287
 24
427.9955450659368
 34
0.0
 50
90.0
100
AcDbRotatedDimension
1001
ACAD
1000
DSTYLE
1002
{
1070
    40
1040
2.0
1070
    41
1040
3.5
1070
    42
1040
1.0
1070
    43
1040
7.0
1070
    44
1040
1.0
1070
    73
1070
     0
1070
    74
1070
     0
1070
    77
1070
     1
1070
    78
1070
     8
1070
    79
1070
     2
1070
   140
1040
3.5
1070
   141
1040
1.5
1070
   146
1040
0.5
1070
   147
1040
1.5
1070
   172
1070
     1
1070
   178
1070
     1
1070
   179
1070
     2
1070
   271
1070
     2
1070
   272
1070
     2
1070
   284
1070
     8
1070
   285
1070
     8
1070
   286
1070
     8
1002
}
  0
LINE
  5
1CD2
330
1E
100
AcDbEntity
  8
MITTEL
100
AcDbLine
 10
233.9332613544287
 20
176.1165711714481
 30
0.0
 11
213.4332613544286
 21
176.1165711714481
 31
0.0
  0
LINE
  5
1CD3
330
1E
100
AcDbEntity
  8
STEMPEL
100
AcDbLine
 10
228.6832613544287
 20
181.1165711714482
 30
0.0
 11
218.6832613544286
 21
181.1165711714482
 31
0.0
  0
LINE
  5
1CD4
330
1E
100
AcDbEntity
  8
STEMPEL
100
AcDbLine
 10
228.6832613544287
 20
171.1165711714482
 30
0.0
 11
218.6832613544286
 21
171.1165711714482
 31
0.0
  0
LINE
  5
1CD5
330
1E
100
AcDbEntity
  8
STEMPEL
100
AcDbLine
 10
218.6832613544286
 20
171.1165711714482
 30
0.0
 11
218.6832613544287
 21
181.1165711714482
 31
0.0
  0
LINE
  5
1CD6
330
1E
100
AcDbEntity
  8
STEMPEL
100
AcDbLine
 10
228.6832613544286
 20
171.1165711714481
 30
0.0
 11
228.6832613544287
 21
181.1165711714482
 31
0.0
  0
LINE
  5
1CD8
330
1E
100
AcDbEntity
  8
STEMPEL
100
AcDbLine
 10
221.7861998390006
 20
171.1165711714482
 30
0.0
 11
223.5494696460852
 21
181.1165711714481
 31
0.0
  0
LINE
  5
1CD9
330
1E
100
AcDbEntity
  8
STEMPEL
100
AcDbLine
 10
223.8170530627721
 20
171.1165711714482
 30
0.0
 11
225.5803228698567
 21
181.1165711714481
 31
0.0
  0
LINE
  5
1CDA
330
1E
100
AcDbEntity
  8
STEMPEL
100
AcDbLine
 10
218.6832613544287
 20
431.495614166058
 30
0.0
 11
218.6832613544287
 21
435.4956141660965
 31
0.0
  0
LINE
  5
1CDB
330
1E
100
AcDbEntity
  8
STEMPEL
100
AcDbLine
 10
228.6832613544287
 20
431.4955702929865
 30
0.0
 11
228.6832613544287
 21
435.4955702930251
 31
0.0
  0
LINE
  5
1CDC
330
1E
100
AcDbEntity
  8
STEMPEL
100
AcDbLine
 10
218.6832613544287
 20
435.4956141660965
 30
0.0
 11
223.5494696460852
 21
435.495592816546
 31
0.0
  0
LINE
  5
1CDD
330
1E
100
AcDbEntity
  8
STEMPEL
100
AcDbLine
 10
221.7861998390007
 20
435.0110227094451
 30
0.0
 11
221.7861998390006
 21
435.4956005525523
 31
0.0
  0
LINE
  5
1CDE
330
1E
100
AcDbEntity
  8
STEMPEL
100
AcDbLine
 10
223.8170530627721
 20
435.0110227094451
 30
0.0
 11
223.8170530627721
 21
435.4955916425756
 31
0.0
  0
ARC
  5
1CE1
330
1E
100
AcDbEntity
  8
STEMPEL
100
AcDbCircle
 10
222.8016264508864
 20
435.0110227094451
 30
0.0
 40
1.015426611885751
100
AcDbArc
 50
180.0
 51
0.0
  0
ARC
  5
1CE3
330
1E
100
AcDbEntity
  8
STEMPEL
100
AcDbCircle
 10
224.564896257971
 20
435.011014973439
 30
0.0
 40
1.015426611885751
100
AcDbArc
 50
180.0
 51
209.7448901959278
  0
LINE
  5
1CE4
330
1E
100
AcDbEntity
  8
STEMPEL
100
AcDbLine
 10
223.5494696460853
 20
435.011014973439
 30
0.0
 11
223.5494696460853
 21
435.4955928165462
 31
0.0
  0
LINE
  5
1CE5
330
1E
100
AcDbEntity
  8
STEMPEL
100
AcDbLine
 10
223.8170530627721
 20
435.4955916425755
 30
0.0
 11
228.6832613544287
 21
435.4955702930251
 31
0.0
  0
LINE
  5
1CE6
330
1E
100
AcDbEntity
  8
VERDECKT
100
AcDbLine
 10
218.6832613544287
 20
434.9956141660917
 30
0.0
 11
228.6832613544288
 21
434.9955702930203
 31
0.0
  0
LINE
  5
1CEC
330
1E
100
AcDbEntity
  8
VERDECKT
100
AcDbLine
 10
213.4332613544287
 20
188.6165711714482
 30
0.0
 11
213.4332613544287
 21
213.6165711714482
 31
0.0
  0
LINE
  5
1CED
330
1E
100
AcDbEntity
  8
VERDECKT
100
AcDbLine
 10
233.9332613544288
 20
188.6165711714481
 30
0.0
 11
233.9332613544288
 21
213.6165711714481
 31
0.0
  0
LINE
  5
1D2E
330
1E
100
AcDbEntity
  8
MITTEL
100
AcDbLine
 10
213.6832613544287
 20
208.6165711714482
 30
0.0
 11
233.6832613544288
 21
208.6165711714482
 31
0.0
  0
LINE
  5
1D2F
330
1E
100
AcDbEntity
  8
MITTEL
100
AcDbLine
 10
233.6832613544287
 20
196.6165711714481
 30
0.0
 11
213.6832613544287
 21
196.6165711714482
 31
0.0
  0
CIRCLE
  5
1D30
330
1E
100
AcDbEntity
  8
VERDECKT
100
AcDbCircle
 10
223.6832613544287
 20
208.6165711714482
 30
0.0
 40
5.0
  0
CIRCLE
  5
1D31
330
1E
100
AcDbEntity
  8
VERDECKT
100
AcDbCircle
 10
223.6832613544287
 20
196.6165711714481
 30
0.0
 40
5.0
  0
DIMENSION
  5
1D33
330
1E
100
AcDbEntity
  8
BEM
100
AcDbDimension
  2
*D11
 10
233.9332613544287
 20
144.4225965933931
 30
0.0
 11
223.6832613544287
 21
144.4225965933931
 31
0.0
 70
   160
 71
     5
 42
20.49999999999997
  3
Standard
100
AcDbAlignedDimension
 13
213.4332613544287
 23
167.6165711714482
 33
0.0
 14
233.9332613544287
 24
167.6165711714481
 34
0.0
100
AcDbRotatedDimension
1001
ACAD
1000
DSTYLE
1002
{
1070
    40
1040
2.0
1070
    41
1040
3.5
1070
    42
1040
1.0
1070
    43
1040
7.0
1070
    44
1040
1.0
1070
    73
1070
     0
1070
    74
1070
     0
1070
    77
1070
     1
1070
    78
1070
     8
1070
    79
1070
     2
1070
   140
1040
3.5
1070
   141
1040
1.5
1070
   146
1040
0.5
1070
   147
1040
1.5
1070
   172
1070
     1
1070
   178
1070
     1
1070
   179
1070
     2
1070
   271
1070
     2
1070
   272
1070
     2
1070
   284
1070
     8
1070
   285
1070
     8
1070
   286
1070
     8
1002
}
  0
DIMENSION
  5
1D5D
330
1E
100
AcDbEntity
  8
BEM
100
AcDbDimension
  2
*D12
 10
250.6037595159769
 20
164.6165711714481
 30
0.0
 11
250.6037595159769
 21
181.9763306136974
 31
0.0
 70
   160
 71
     5
 42
52.00000000000009
  3
Standard
100
AcDbAlignedDimension
 13
223.6832613544287
 23
216.6165711714482
 33
0.0
 14
223.6832613544287
 24
164.6165711714481
 34
0.0
 50
90.0
100
AcDbRotatedDimension
1001
ACAD
1000
DSTYLE
1002
{
1070
    40
1040
2.0
1070
    41
1040
3.5
1070
    42
1040
1.0
1070
    43
1040
7.0
1070
    44
1040
1.0
1070
    73
1070
     0
1070
    74
1070
     0
1070
    77
1070
     1
1070
    78
1070
     8
1070
    79
1070
     2
1070
   140
1040
3.5
1070
   141
1040
1.5
1070
   146
1040
0.5
1070
   147
1040
1.5
1070
   172
1070
     1
1070
   178
1070
     1
1070
   179
1070
     2
1070
   271
1070
     2
1070
   272
1070
     2
1070
   284
1070
     8
1070
   285
1070
     8
1070
   286
1070
     8
1002
}
  0
LINE
  5
1D87
330
1E
100
AcDbEntity
  8
MITTEL
100
AcDbLine
 10
148.6832613544288
 20
521.5104169708479
 30
0.0
 11
148.6832613544287
 21
469.5104169708478
 31
0.0
  0
LINE
  5
1D89
330
1E
100
AcDbEntity
  8
STEMPEL
100
AcDbLine
 10
145.6832613544288
 20
497.2634662048883
 30
0.0
 11
145.6832613544288
 21
496.5113065435729
 31
0.0
  0
LINE
  5
1D8A
330
1E
100
AcDbEntity
  8
STEMPEL
100
AcDbLine
 10
151.6832613544287
 20
497.7124579997151
 30
0.0
 11
151.6832613544287
 21
496.5095275739412
 31
0.0
  0
LINE
  5
1D8B
330
1E
100
AcDbEntity
  8
STEMPEL
100
AcDbLine
 10
150.6832613544288
 20
474.5104169708477
 30
0.0
 11
146.6832613544288
 21
474.5104169708479
 31
0.0
  0
LINE
  5
1D8C
330
1E
100
AcDbEntity
  8
HILF
100
AcDbLine
 10
150.6832613544287
 20
494.5104169708478
 30
0.0
 11
150.6832613544287
 21
492.5098238930615
 31
0.0
  0
LINE
  5
1D8D
330
1E
100
AcDbEntity
  8
HILF
100
AcDbLine
 10
146.6832613544288
 20
494.5104169708478
 30
0.0
 11
146.6832613544288
 21
492.511009872816
 31
0.0
  0
LINE
  5
1D8E
330
1E
100
AcDbEntity
  8
STEMPEL
100
AcDbLine
 10
151.6832613544288
 20
475.5104169708478
 30
0.0
 11
145.6832613544288
 21
475.5104169708478
 31
0.0
  0
LINE
  5
1D8F
330
1E
100
AcDbEntity
  8
STEMPEL
100
AcDbLine
 10
151.6832613544288
 20
475.5104169708478
 30
0.0
 11
150.6832613544288
 21
474.5104169708478
 31
0.0
  0
LINE
  5
1D91
330
1E
100
AcDbEntity
  8
STEMPEL
100
AcDbLine
 10
145.6832613544288
 20
475.5104169708478
 30
0.0
 11
146.6832613544288
 21
474.5104169708478
 31
0.0
  0
ARC
  5
1D9A
330
1E
100
AcDbEntity
  8
STEMPEL
100
AcDbCircle
 10
148.6832613544288
 20
507.5104169708479
 30
0.0
 40
9.0
100
AcDbArc
 50
297.035691789412
 51
251.8024899048556
  0
ARC
  5
1D9B
330
1E
100
AcDbEntity
  8
STEMPEL
100
AcDbCircle
 10
148.6832613544288
 20
507.5104169708479
 30
0.0
 40
4.0
100
AcDbArc
 50
291.3236862634976
 51
251.8024899048556
  0
ARC
  5
1D9D
330
1E
100
AcDbEntity
  8
STEMPEL
100
AcDbCircle
 10
153.6832613544287
 20
497.7124579997151
 30
0.0
 40
2.0
100
AcDbArc
 50
117.0356917894116
 51
180.0
  0
ARC
  5
1D9F
330
1E
100
AcDbEntity
  8
STEMPEL
100
AcDbCircle
 10
152.6832613544287
 20
497.2634662048883
 30
0.0
 40
7.0
100
AcDbArc
 50
111.3236862634977
 51
180.0
  0
LINE
  5
1DA0
330
1E
100
AcDbEntity
  8
STEMPEL
100
AcDbLine
 10
147.4340868134448
 20
503.710474475736
 30
0.0
 11
145.872618637215
 21
498.9605463568461
 31
0.0
  0
LINE
  5
1DA1
330
1E
100
AcDbEntity
  8
MITTEL
100
AcDbLine
 10
134.6832613544288
 20
507.5104169708479
 30
0.0
 11
162.6832613544288
 21
507.5104169708479
 31
0.0
  0
LINE
  5
1DB6
330
1E
100
AcDbEntity
  8
MITTEL
100
AcDbLine
 10
284.6832613544288
 20
507.480767476985
 30
0.0
 11
312.6832613544288
 21
507.480767476985
 31
0.0
  0
LINE
  5
1DB7
330
1E
100
AcDbEntity
  8
STEMPEL
100
AcDbLine
 10
297.4340868134449
 20
503.680824981873
 30
0.0
 11
295.872618637215
 21
498.9308968629831
 31
0.0
  0
ARC
  5
1DB8
330
1E
100
AcDbEntity
  8
STEMPEL
100
AcDbCircle
 10
302.6832613544288
 20
497.2338167110254
 30
0.0
 40
7.0
100
AcDbArc
 50
111.3236862634977
 51
180.0
  0
ARC
  5
1DB9
330
1E
100
AcDbEntity
  8
STEMPEL
100
AcDbCircle
 10
303.6832613544287
 20
497.6828085058523
 30
0.0
 40
2.0
100
AcDbArc
 50
117.0356917894116
 51
180.0
  0
ARC
  5
1DBA
330
1E
100
AcDbEntity
  8
STEMPEL
100
AcDbCircle
 10
298.6832613544288
 20
507.480767476985
 30
0.0
 40
4.0
100
AcDbArc
 50
291.3236862634976
 51
251.8024899048556
  0
ARC
  5
1DBB
330
1E
100
AcDbEntity
  8
STEMPEL
100
AcDbCircle
 10
298.6832613544288
 20
507.480767476985
 30
0.0
 40
9.0
100
AcDbArc
 50
297.035691789412
 51
251.8024899048556
  0
LINE
  5
1DBC
330
1E
100
AcDbEntity
  8
STEMPEL
100
AcDbLine
 10
295.6832613544288
 20
475.4807674769849
 30
0.0
 11
296.6832613544288
 21
474.4807674769849
 31
0.0
  0
LINE
  5
1DBD
330
1E
100
AcDbEntity
  8
STEMPEL
100
AcDbLine
 10
301.6832613544288
 20
475.4807674769849
 30
0.0
 11
300.6832613544288
 21
474.4807674769849
 31
0.0
  0
LINE
  5
1DBE
330
1E
100
AcDbEntity
  8
STEMPEL
100
AcDbLine
 10
301.6832613544288
 20
475.4807674769849
 30
0.0
 11
295.6832613544288
 21
475.4807674769849
 31
0.0
  0
LINE
  5
1DBF
330
1E
100
AcDbEntity
  8
HILF
100
AcDbLine
 10
296.6832613544288
 20
494.480767476985
 30
0.0
 11
296.6832613544288
 21
492.481360378953
 31
0.0
  0
LINE
  5
1DC0
330
1E
100
AcDbEntity
  8
HILF
100
AcDbLine
 10
300.6832613544287
 20
494.480767476985
 30
0.0
 11
300.6832613544287
 21
492.4801743991984
 31
0.0
  0
LINE
  5
1DC1
330
1E
100
AcDbEntity
  8
STEMPEL
100
AcDbLine
 10
300.6832613544288
 20
474.4807674769849
 30
0.0
 11
296.6832613544288
 21
474.480767476985
 31
0.0
  0
LINE
  5
1DC2
330
1E
100
AcDbEntity
  8
STEMPEL
100
AcDbLine
 10
301.6832613544287
 20
497.6828085058523
 30
0.0
 11
301.6832613544287
 21
496.4798780800783
 31
0.0
  0
LINE
  5
1DC3
330
1E
100
AcDbEntity
  8
STEMPEL
100
AcDbLine
 10
295.6832613544288
 20
497.2338167110254
 30
0.0
 11
295.6832613544288
 21
496.4816570497101
 31
0.0
  0
LINE
  5
1DC5
330
1E
100
AcDbEntity
  8
MITTEL
100
AcDbLine
 10
298.6832613544288
 20
521.480767476985
 30
0.0
 11
298.6832613544287
 21
469.4807674769848
 31
0.0
  0
LINE
  5
1DC6
330
1E
100
AcDbEntity
  8
STEMPEL
100
AcDbLine
 10
295.6832613544288
 20
489.0104167950295
 30
0.0
 11
295.6832613544288
 21
475.480767476985
 31
0.0
  0
LINE
  5
1DC7
330
1E
100
AcDbEntity
  8
HILF
100
AcDbLine
 10
296.6832613544288
 20
489.0104167950296
 30
0.0
 11
296.6832613544288
 21
474.4807674769849
 31
0.0
  0
LINE
  5
1DC8
330
1E
100
AcDbEntity
  8
HILF
100
AcDbLine
 10
300.6832613544287
 20
489.0104167950296
 30
0.0
 11
300.6832613544288
 21
474.4807674769849
 31
0.0
  0
LINE
  5
1DC9
330
1E
100
AcDbEntity
  8
STEMPEL
100
AcDbLine
 10
301.6832613544287
 20
489.0104167950295
 30
0.0
 11
301.6832613544288
 21
475.4807674769849
 31
0.0
  0
LINE
  5
1DCA
330
1E
100
AcDbEntity
  8
STEMPEL
100
AcDbLine
 10
301.6832613544287
 20
494.4798779921691
 30
0.0
 11
301.6832613544288
 21
492.4798779042599
 31
0.0
  0
LINE
  5
1DCB
330
1E
100
AcDbEntity
  8
STEMPEL
100
AcDbLine
 10
295.6832613544288
 20
494.4816569618009
 30
0.0
 11
295.6832613544288
 21
492.4816568738917
 31
0.0
  0
LINE
  5
1DCC
330
1E
100
AcDbEntity
  8
STEMPEL
100
AcDbLine
 10
151.6832613544287
 20
494.509527486032
 30
0.0
 11
151.6832613544288
 21
492.509527398123
 31
0.0
  0
LINE
  5
1DCD
330
1E
100
AcDbEntity
  8
STEMPEL
100
AcDbLine
 10
145.6832613544288
 20
494.5113064556637
 30
0.0
 11
145.6832613544288
 21
492.5113063677546
 31
0.0
  0
LINE
  5
1DCE
330
1E
100
AcDbEntity
  8
STEMPEL
100
AcDbLine
 10
145.6832613544288
 20
489.0104167950294
 30
0.0
 11
145.6832613544288
 21
475.5104169708479
 31
0.0
  0
LINE
  5
1DCF
330
1E
100
AcDbEntity
  8
HILF
100
AcDbLine
 10
146.6832613544288
 20
489.0104167950296
 30
0.0
 11
146.6832613544288
 21
474.5104169708478
 31
0.0
  0
LINE
  5
1DD0
330
1E
100
AcDbEntity
  8
HILF
100
AcDbLine
 10
150.6832613544287
 20
489.0104167950296
 30
0.0
 11
150.6832613544288
 21
474.5104169708478
 31
0.0
  0
LINE
  5
1DD1
330
1E
100
AcDbEntity
  8
STEMPEL
100
AcDbLine
 10
151.6832613544288
 20
489.0104167950295
 30
0.0
 11
151.6832613544288
 21
475.5104169708478
 31
0.0
  0
LINE
  5
1DD5
330
1E
100
AcDbEntity
  8
STEMPEL
100
AcDbLine
 10
143.1832613544287
 20
205.1165711714483
 30
0.0
 11
156.1832613544287
 21
205.1165711714483
 31
0.0
  0
LINE
  5
1DD6
330
1E
100
AcDbEntity
  8
STEMPEL
100
AcDbLine
 10
143.1832613544287
 20
200.1165711714482
 30
0.0
 11
156.1832613544287
 21
200.1165711714482
 31
0.0
  0
ARC
  5
1DE2
330
1E
100
AcDbEntity
  8
STEMPEL
100
AcDbCircle
 10
156.1832613544287
 20
202.6165711714482
 30
0.0
 40
2.5
100
AcDbArc
 50
270.0
 51
90.0
  0
ARC
  5
1DE3
330
1E
100
AcDbEntity
  8
STEMPEL
100
AcDbCircle
 10
143.1832613544287
 20
202.6165711714483
 30
0.0
 40
2.5
100
AcDbArc
 50
90.0
 51
270.0
  0
ARC
  5
1DE4
330
1E
100
AcDbEntity
  8
STEMPEL
100
AcDbCircle
 10
149.6832613544287
 20
202.6165711714483
 30
0.0
 40
3.0
100
AcDbArc
 50
236.4426902380822
 51
303.5573097619186
  0
ARC
  5
1DE5
330
1E
100
AcDbEntity
  8
STEMPEL
100
AcDbCircle
 10
149.6832613544287
 20
202.6165711714483
 30
0.0
 40
3.0
100
AcDbArc
 50
56.44269023807826
 51
123.5573097619217
  0
ARC
  5
1DF1
330
1E
100
AcDbEntity
  8
STEMPEL
100
AcDbCircle
 10
297.6832613544287
 20
202.6165711714482
 30
0.0
 40
3.0
100
AcDbArc
 50
56.44269023807816
 51
123.5573097619216
  0
ARC
  5
1DF2
330
1E
100
AcDbEntity
  8
STEMPEL
100
AcDbCircle
 10
297.6832613544287
 20
202.6165711714482
 30
0.0
 40
3.0
100
AcDbArc
 50
236.4426902380813
 51
303.5573097619177
  0
ARC
  5
1DF3
330
1E
100
AcDbEntity
  8
STEMPEL
100
AcDbCircle
 10
304.1832613544287
 20
202.6165711714481
 30
0.0
 40
2.5
100
AcDbArc
 50
269.9999999999999
 51
89.99999999999991
  0
ARC
  5
1DF4
330
1E
100
AcDbEntity
  8
STEMPEL
100
AcDbCircle
 10
291.1832613544287
 20
202.6165711714481
 30
0.0
 40
2.5
100
AcDbArc
 50
89.99999999999991
 51
269.9999999999999
  0
LINE
  5
1DF5
330
1E
100
AcDbEntity
  8
STEMPEL
100
AcDbLine
 10
304.1832613544287
 20
200.116571171448
 30
0.0
 11
291.1832613544287
 21
200.1165711714481
 31
0.0
  0
LINE
  5
1DF6
330
1E
100
AcDbEntity
  8
STEMPEL
100
AcDbLine
 10
304.1832613544287
 20
205.1165711714481
 30
0.0
 11
291.1832613544287
 21
205.1165711714481
 31
0.0
  0
LINE
  5
1DF7
330
1E
100
AcDbEntity
  8
MITTEL
100
AcDbLine
 10
297.6832613544287
 20
195.1165711714481
 30
0.0
 11
297.6832613544287
 21
210.1165711714481
 31
0.0
  0
ENDSEC
  0
SECTION
  2
OBJECTS
  0
DICTIONARY
  5
C
330
0
100
AcDbDictionary
281
     1
  3
ACAD_COLOR
350
DF
  3
ACAD_GROUP
350
D
  3
ACAD_LAYOUT
350
19
  3
ACAD_MATERIAL
350
DE
  3
ACAD_MLINESTYLE
350
16
  3
ACAD_PLOTSETTINGS
350
18
  3
ACAD_PLOTSTYLENAME
350
E
  3
AcDbVariableDictionary
350
EA
  0
DICTIONARY
  5
A0
330
1E
100
AcDbDictionary
280
     1
281
     1
  3
ACAD_LAYOUTSELFREF
360
D4
  0
DICTIONARY
  5
A2
330
1A
100
AcDbDictionary
280
     1
281
     1
  3
ACAD_LAYOUTSELFREF
360
D3
  0
DICTIONARY
  5
DF
102
{ACAD_REACTORS
330
C
102
}
330
C
100
AcDbDictionary
281
     1
  0
DICTIONARY
  5
D
102
{ACAD_REACTORS
330
C
102
}
330
C
100
AcDbDictionary
281
     1
  0
DICTIONARY
  5
19
102
{ACAD_REACTORS
330
C
102
}
330
C
100
AcDbDictionary
281
     1
  3
Layout1
350
1D
  3
Model
350
21
  0
DICTIONARY
  5
DE
102
{ACAD_REACTORS
330
C
102
}
330
C
100
AcDbDictionary
281
     1
  0
DICTIONARY
  5
16
102
{ACAD_REACTORS
330
C
102
}
330
C
100
AcDbDictionary
281
     1
  3
Standard
350
17
  0
DICTIONARY
  5
18
102
{ACAD_REACTORS
330
C
102
}
330
C
100
AcDbDictionary
281
     1
  0
ACDBDICTIONARYWDFLT
  5
E
102
{ACAD_REACTORS
330
C
102
}
330
C
100
AcDbDictionary
281
     1
  3
Normal
350
F
100
AcDbDictionaryWithDefault
340
F
  0
DICTIONARY
  5
EA
102
{ACAD_REACTORS
330
C
102
}
330
C
100
AcDbDictionary
281
     1
  3
DIMASSOC
350
EB
  3
PROJECTNAME
350
EC
  0
XRECORD
  5
D4
102
{ACAD_REACTORS
330
A0
102
}
330
A0
100
AcDbXrecord
280
     1
340
1E
  0
XRECORD
  5
D3
102
{ACAD_REACTORS
330
A2
102
}
330
A2
100
AcDbXrecord
280
     1
340
1A
  0
LAYOUT
  5
1D
102
{ACAD_REACTORS
330
19
102
}
330
19
100
AcDbPlotSettings
  1

  2
\\NT_WORK01\HP LaserJet 5000 PCL 6
  4

  6

 40
0.0
 41
0.0
 42
0.0
 43
0.0
 44
0.0
 45
0.0
 46
0.0
 47
0.0
 48
0.0
 49
0.0
140
0.0
141
0.0
142
1.0
143
1.0
 70
   688
 72
     0
 73
     0
 74
     5
  7

 75
    16
147
1.0
 76
     0
 77
     2
 78
   300
148
0.0
149
0.0
100
AcDbLayout
  1
Layout1
 70
     0
 71
     1
 10
0.0
 20
0.0
 11
12.0
 21
9.0
 12
0.0
 22
0.0
 32
0.0
 14
1.000000000000000E+20
 24
1.000000000000000E+20
 34
1.000000000000000E+20
 15
-1.000000000000000E+20
 25
-1.000000000000000E+20
 35
-1.000000000000000E+20
146
0.0
 13
0.0
 23
0.0
 33
0.0
 16
1.0
 26
0.0
 36
0.0
 17
0.0
 27
1.0
 37
0.0
 76
     0
330
1A
  0
LAYOUT
  5
21
102
{ACAD_REACTORS
330
19
102
}
330
19
100
AcDbPlotSettings
  1

  2
none_device
  4
Letter_(8.50_x_11.00_Inches)
  6

 40
6.349999904632568
 41
6.349999904632568
 42
6.350006103515625
 43
6.350006103515625
 44
215.8999938964844
 45
279.3999938964844
 46
0.0
 47
0.0
 48
0.0
 49
0.0
140
0.0
141
0.0
142
1.0
143
1.0
 70
 11952
 72
     0
 73
     1
 74
     0
  7

 75
     0
147
1.0
 76
     0
 77
     2
 78
   300
148
-230.4417396561563
149
47.00486644638983
100
AcDbLayout
  1
Model
 70
     1
 71
     0
 10
0.0
 20
0.0
 11
12.0
 21
9.0
 12
0.0
 22
0.0
 32
0.0
 14
0.0
 24
0.0
 34
0.0
 15
0.0
 25
0.0
 35
0.0
146
0.0
 13
0.0
 23
0.0
 33
0.0
 16
1.0
 26
0.0
 36
0.0
 17
0.0
 27
1.0
 37
0.0
 76
     0
330
1E
  0
MLINESTYLE
  5
17
102
{ACAD_REACTORS
330
16
102
}
330
16
100
AcDbMlineStyle
  2
STANDARD
 70
     0
  3

 62
   256
 51
90.0
 52
90.0
 71
     2
 49
0.5
 62
   256
  6
BYLAYER
 49
-0.5
 62
   256
  6
BYLAYER
  0
ACDBPLACEHOLDER
  5
F
102
{ACAD_REACTORS
330
E
102
}
330
E
  0
DICTIONARYVAR
  5
EB
102
{ACAD_REACTORS
330
EA
102
}
330
EA
100
DictionaryVariables
280
     0
  1
1
  0
DICTIONARYVAR
  5
EC
102
{ACAD_REACTORS
330
EA
102
}
330
EA
100
DictionaryVariables
280
     0
  1

  0
ENDSEC
  0
EOF
