  0
SECTION
  2
HEADER
  9
$ACADVER
  1
AC1018
  9
$ACADMAINTVER
 70
     2
  9
$DWGCODEPAGE
  3
ANSI_1252
  9
$INSBASE
 10
0.0
 20
0.0
 30
0.0
  9
$EXTMIN
 10
-0.0000000000001137
 20
-0.0000000000001137
 30
0.0
  9
$EXTMAX
 10
420.0
 20
594.0000000000002
 30
0.0
  9
$LIMMIN
 10
0.0
 20
0.0
  9
$LIMMAX
 10
419.9999999999999
 20
594.0
  9
$ORTHOMODE
 70
     1
  9
$REGENMODE
 70
     1
  9
$FILLMODE
 70
     1
  9
$QTEXTMODE
 70
     0
  9
$MIRRTEXT
 70
     1
  9
$LTSCALE
 40
20.0
  9
$ATTMODE
 70
     1
  9
$TEXTSIZE
 40
2.5
  9
$TRACEWID
 40
0.5
  9
$TEXTSTYLE
  7
GREEKS
  9
$CLAYER
  8
VOLL
  9
$CELTYPE
  6
ByLayer
  9
$CECOLOR
 62
   256
  9
$CELTSCALE
 40
1.0
  9
$DISPSILH
 70
     0
  9
$DIMSCALE
 40
2.0
  9
$DIMASZ
 40
3.5
  9
$DIMEXO
 40
1.0
  9
$DIMDLI
 40
7.0
  9
$DIMRND
 40
0.0
  9
$DIMDLE
 40
0.0
  9
$DIMEXE
 40
1.0
  9
$DIMTP
 40
0.0
  9
$DIMTM
 40
0.0
  9
$DIMTXT
 40
3.5
  9
$DIMCEN
 40
1.5
  9
$DIMTSZ
 40
0.0
  9
$DIMTOL
 70
     0
  9
$DIMLIM
 70
     0
  9
$DIMTIH
 70
     0
  9
$DIMTOH
 70
     0
  9
$DIMSE1
 70
     0
  9
$DIMSE2
 70
     0
  9
$DIMTAD
 70
     1
  9
$DIMZIN
 70
     8
  9
$DIMBLK
  1

  9
$DIMASO
 70
     1
  9
$DIMSHO
 70
     0
  9
$DIMPOST
  1

  9
$DIMAPOST
  1

  9
$DIMALT
 70
     0
  9
$DIMALTD
 70
     2
  9
$DIMALTF
 40
25.4
  9
$DIMLFAC
 40
1.0
  9
$DIMTOFL
 70
     1
  9
$DIMTVP
 40
0.0
  9
$DIMTIX
 70
     0
  9
$DIMSOXD
 70
     0
  9
$DIMSAH
 70
     0
  9
$DIMBLK1
  1

  9
$DIMBLK2
  1

  9
$DIMSTYLE
  2
Standard
  9
$DIMCLRD
 70
     0
  9
$DIMCLRE
 70
     0
  9
$DIMCLRT
 70
     1
  9
$DIMTFAC
 40
0.5
  9
$DIMGAP
 40
1.5
  9
$DIMJUST
 70
     0
  9
$DIMSD1
 70
     0
  9
$DIMSD2
 70
     0
  9
$DIMTOLJ
 70
     1
  9
$DIMTZIN
 70
     8
  9
$DIMALTZ
 70
     8
  9
$DIMALTTZ
 70
     8
  9
$DIMUPT
 70
     0
  9
$DIMDEC
 70
     2
  9
$DIMTDEC
 70
     2
  9
$DIMALTU
 70
     2
  9
$DIMALTTD
 70
     2
  9
$DIMTXSTY
  7
STANDARD
  9
$DIMAUNIT
 70
     0
  9
$DIMADEC
 70
     2
  9
$DIMALTRND
 40
0.0
  9
$DIMAZIN
 70
     2
  9
$DIMDSEP
 70
    46
  9
$DIMATFIT
 70
     3
  9
$DIMFRAC
 70
     0
  9
$DIMLDRBLK
  1

  9
$DIMLUNIT
 70
     2
  9
$DIMLWD
 70
    -2
  9
$DIMLWE
 70
    -2
  9
$DIMTMOVE
 70
     0
  9
$LUNITS
 70
     2
  9
$LUPREC
 70
     2
  9
$SKETCHINC
 40
1.0
  9
$FILLETRAD
 40
4.0
  9
$AUNITS
 70
     0
  9
$AUPREC
 70
     0
  9
$MENU
  1
ACAD
  9
$ELEVATION
 40
0.0
  9
$PELEVATION
 40
0.0
  9
$THICKNESS
 40
0.0
  9
$LIMCHECK
 70
     0
  9
$CHAMFERA
 40
0.0
  9
$CHAMFERB
 40
0.0
  9
$CHAMFERC
 40
0.0
  9
$CHAMFERD
 40
0.0
  9
$SKPOLY
 70
     0
  9
$TDCREATE
 40
2455397.864709028
  9
$TDUCREATE
 40
2455397.781375695
  9
$TDUPDATE
 40
2455649.567292280
  9
$TDUUPDATE
 40
2455649.483958947
  9
$TDINDWG
 40
0.3141631019
  9
$TDUSRTIMER
 40
0.3141631019
  9
$USRTIMER
 70
     1
  9
$ANGBASE
 50
0.0
  9
$ANGDIR
 70
     0
  9
$PDMODE
 70
     0
  9
$PDSIZE
 40
0.0
  9
$PLINEWID
 40
0.0
  9
$SPLFRAME
 70
     0
  9
$SPLINETYPE
 70
     6
  9
$SPLINESEGS
 70
     8
  9
$HANDSEED
  5
1A33
  9
$SURFTAB1
 70
     6
  9
$SURFTAB2
 70
     6
  9
$SURFTYPE
 70
     6
  9
$SURFU
 70
     6
  9
$SURFV
 70
     6
  9
$UCSBASE
  2

  9
$UCSNAME
  2

  9
$UCSORG
 10
0.0
 20
0.0
 30
0.0
  9
$UCSXDIR
 10
1.0
 20
0.0
 30
0.0
  9
$UCSYDIR
 10
0.0
 20
1.0
 30
0.0
  9
$UCSORTHOREF
  2

  9
$UCSORTHOVIEW
 70
     0
  9
$UCSORGTOP
 10
0.0
 20
0.0
 30
0.0
  9
$UCSORGBOTTOM
 10
0.0
 20
0.0
 30
0.0
  9
$UCSORGLEFT
 10
0.0
 20
0.0
 30
0.0
  9
$UCSORGRIGHT
 10
0.0
 20
0.0
 30
0.0
  9
$UCSORGFRONT
 10
0.0
 20
0.0
 30
0.0
  9
$UCSORGBACK
 10
0.0
 20
0.0
 30
0.0
  9
$PUCSBASE
  2

  9
$PUCSNAME
  2

  9
$PUCSORG
 10
0.0
 20
0.0
 30
0.0
  9
$PUCSXDIR
 10
1.0
 20
0.0
 30
0.0
  9
$PUCSYDIR
 10
0.0
 20
1.0
 30
0.0
  9
$PUCSORTHOREF
  2

  9
$PUCSORTHOVIEW
 70
     0
  9
$PUCSORGTOP
 10
0.0
 20
0.0
 30
0.0
  9
$PUCSORGBOTTOM
 10
0.0
 20
0.0
 30
0.0
  9
$PUCSORGLEFT
 10
0.0
 20
0.0
 30
0.0
  9
$PUCSORGRIGHT
 10
0.0
 20
0.0
 30
0.0
  9
$PUCSORGFRONT
 10
0.0
 20
0.0
 30
0.0
  9
$PUCSORGBACK
 10
0.0
 20
0.0
 30
0.0
  9
$USERI1
 70
     0
  9
$USERI2
 70
     0
  9
$USERI3
 70
     0
  9
$USERI4
 70
     0
  9
$USERI5
 70
     0
  9
$USERR1
 40
0.0
  9
$USERR2
 40
0.0
  9
$USERR3
 40
0.0
  9
$USERR4
 40
0.0
  9
$USERR5
 40
0.0
  9
$WORLDVIEW
 70
     1
  9
$SHADEDGE
 70
     3
  9
$SHADEDIF
 70
    70
  9
$TILEMODE
 70
     1
  9
$MAXACTVP
 70
    16
  9
$PINSBASE
 10
0.0
 20
0.0
 30
0.0
  9
$PLIMCHECK
 70
     0
  9
$PEXTMIN
 10
1.000000000000000E+20
 20
1.000000000000000E+20
 30
1.000000000000000E+20
  9
$PEXTMAX
 10
-1.000000000000000E+20
 20
-1.000000000000000E+20
 30
-1.000000000000000E+20
  9
$PLIMMIN
 10
0.0
 20
0.0
  9
$PLIMMAX
 10
12.0
 20
9.0
  9
$UNITMODE
 70
     0
  9
$VISRETAIN
 70
     0
  9
$PLINEGEN
 70
     0
  9
$PSLTSCALE
 70
     0
  9
$TREEDEPTH
 70
  3020
  9
$CMLSTYLE
  2
Standard
  9
$CMLJUST
 70
     0
  9
$CMLSCALE
 40
1.0
  9
$PROXYGRAPHICS
 70
     1
  9
$MEASUREMENT
 70
     0
  9
$CELWEIGHT
370
    -1
  9
$ENDCAPS
280
     0
  9
$JOINSTYLE
280
     0
  9
$LWDISPLAY
290
     0
  9
$INSUNITS
 70
     0
  9
$HYPERLINKBASE
  1

  9
$STYLESHEET
  1
monochrome 1.ctb
  9
$XEDIT
290
     1
  9
$CEPSNTYPE
380
     0
  9
$PSTYLEMODE
290
     1
  9
$FINGERPRINTGUID
  2
{D68B0D02-A558-11D7-B632-000102183313}
  9
$VERSIONGUID
  2
{BBCFED5C-8C38-4D30-A88D-1671F633F4D0}
  9
$EXTNAMES
290
     1
  9
$PSVPSCALE
 40
0.0
  9
$OLESTARTUP
290
     0
  9
$SORTENTS
280
   127
  9
$INDEXCTL
280
     0
  9
$HIDETEXT
280
     0
  9
$XCLIPFRAME
290
     0
  9
$HALOGAP
280
     0
  9
$OBSCOLOR
 70
   257
  9
$OBSLTYPE
280
     0
  9
$INTERSECTIONDISPLAY
280
     0
  9
$INTERSECTIONCOLOR
 70
   257
  9
$DIMASSOC
280
     1
  9
$PROJECTNAME
  1

  0
ENDSEC
  0
SECTION
  2
CLASSES
  0
CLASS
  1
ACDBDICTIONARYWDFLT
  2
AcDbDictionaryWithDefault
  3
ObjectDBX Classes
 90
        0
 91
        1
280
     0
281
     0
  0
CLASS
  1
DICTIONARYVAR
  2
AcDbDictionaryVar
  3
ObjectDBX Classes
 90
        0
 91
        2
280
     0
281
     0
  0
ENDSEC
  0
SECTION
  2
TABLES
  0
TABLE
  2
VPORT
  5
8
330
0
100
AcDbSymbolTable
 70
     2
  0
VPORT
  5
1A32
330
8
100
AcDbSymbolTableRecord
100
AcDbViewportTableRecord
  2
*Active
 70
     0
 10
0.0
 20
0.0
 11
1.0
 21
1.0
 12
210.0
 22
297.0
 13
0.0
 23
0.0
 14
1.0
 24
1.0
 15
10.0
 25
10.0
 16
0.0
 26
0.0
 36
1.0
 17
0.0
 27
0.0
 37
0.0
 40
594.0
 41
1.334231805929919
 42
50.0
 43
0.0
 44
0.0
 50
0.0
 51
0.0
 71
     0
 72
  1500
 73
     1
 74
     0
 75
     0
 76
     0
 77
     0
 78
     0
281
     0
 65
     1
110
0.0
120
0.0
130
0.0
111
1.0
121
0.0
131
0.0
112
0.0
122
1.0
132
0.0
 79
     0
146
0.0
  0
ENDTAB
  0
TABLE
  2
LTYPE
  5
5
330
0
100
AcDbSymbolTable
 70
     2
  0
LTYPE
  5
13
330
5
100
AcDbSymbolTableRecord
100
AcDbLinetypeTableRecord
  2
ByBlock
 70
     0
  3

 72
    65
 73
     0
 40
0.0
  0
LTYPE
  5
14
330
5
100
AcDbSymbolTableRecord
100
AcDbLinetypeTableRecord
  2
ByLayer
 70
     0
  3

 72
    65
 73
     0
 40
0.0
  0
LTYPE
  5
15
330
5
100
AcDbSymbolTableRecord
100
AcDbLinetypeTableRecord
  2
Continuous
 70
     0
  3
Solid line
 72
    65
 73
     0
 40
0.0
  0
LTYPE
  5
25
330
5
100
AcDbSymbolTableRecord
100
AcDbLinetypeTableRecord
  2
STRICHPUNKT
 70
     0
  3
__ . __ . __ . __ . __ . __ . __ . __ . __ . __
 72
    65
 73
     4
 40
1.0
 49
0.5
 74
     0
 49
-0.25
 74
     0
 49
0.0
 74
     0
 49
-0.25
 74
     0
  0
ENDTAB
  0
TABLE
  2
LAYER
  5
2
330
0
100
AcDbSymbolTable
 70
     8
  0
LAYER
  5
10
330
2
100
AcDbSymbolTableRecord
100
AcDbLayerTableRecord
  2
0
 70
     0
 62
     7
  6
Continuous
370
    -3
390
F
  0
LAYER
  5
2A
330
2
100
AcDbSymbolTableRecord
100
AcDbLayerTableRecord
  2
VOLL
 70
     0
 62
     1
  6
Continuous
370
    -3
390
F
  0
LAYER
  5
2B
330
2
100
AcDbSymbolTableRecord
100
AcDbLayerTableRecord
  2
HILF
 70
     0
 62
     2
  6
Continuous
370
    -3
390
F
  0
LAYER
  5
2C
330
2
100
AcDbSymbolTableRecord
100
AcDbLayerTableRecord
  2
MITTEL
 70
     0
 62
     2
  6
STRICHPUNKT
370
    -3
390
F
  0
LAYER
  5
2F
330
2
100
AcDbSymbolTableRecord
100
AcDbLayerTableRecord
  2
BEM
 70
     0
 62
     7
  6
Continuous
370
    -3
390
F
  0
LAYER
  5
30
330
2
100
AcDbSymbolTableRecord
100
AcDbLayerTableRecord
  2
STEMPEL
 70
     0
 62
     3
  6
Continuous
370
    -3
390
F
  0
LAYER
  5
31
330
2
100
AcDbSymbolTableRecord
100
AcDbLayerTableRecord
  2
TEXT
 70
     0
 62
     7
  6
Continuous
370
    -3
390
F
  0
LAYER
  5
1A8
330
2
100
AcDbSymbolTableRecord
100
AcDbLayerTableRecord
  2
Defpoints
 70
     0
 62
     7
  6
Continuous
290
     0
370
    -3
390
F
  0
ENDTAB
  0
TABLE
  2
STYLE
  5
3
330
0
100
AcDbSymbolTable
 70
     2
  0
STYLE
  5
11
330
3
100
AcDbSymbolTableRecord
100
AcDbTextStyleTableRecord
  2
STANDARD
 70
     0
 40
0.0
 41
0.8
 50
0.0
 71
     0
 42
3.5
  3
simplex.shx
  4

  0
STYLE
  5
24
330
3
100
AcDbSymbolTableRecord
100
AcDbTextStyleTableRecord
  2
GREEKS
 70
     0
 40
0.0
 41
0.8
 50
0.0
 71
     0
 42
2.5
  3
SIMPLEX.shx
  4

  0
ENDTAB
  0
TABLE
  2
VIEW
  5
6
330
0
100
AcDbSymbolTable
 70
     0
  0
ENDTAB
  0
TABLE
  2
UCS
  5
7
330
0
100
AcDbSymbolTable
 70
     0
  0
ENDTAB
  0
TABLE
  2
APPID
  5
9
330
0
100
AcDbSymbolTable
 70
     1
  0
APPID
  5
12
330
9
100
AcDbSymbolTableRecord
100
AcDbRegAppTableRecord
  2
ACAD
 70
     0
  0
ENDTAB
  0
TABLE
  2
DIMSTYLE
  5
A
330
0
100
AcDbSymbolTable
 70
     1
100
AcDbDimStyleTable
 71
     1
340
9D
  0
DIMSTYLE
105
9D
102
{ACAD_REACTORS
330
1644
330
1651
330
16C4
330
16D1
330
187E
330
1894
330
18AA
330
18C4
330
1A06
102
}
330
A
100
AcDbSymbolTableRecord
100
AcDbDimStyleTableRecord
  2
Standard
 70
     0
340
11
  0
ENDTAB
  0
TABLE
  2
BLOCK_RECORD
  5
1
330
0
100
AcDbSymbolTable
 70
    10
  0
BLOCK_RECORD
  5
1E
102
{ACAD_XDICTIONARY
360
A0
102
}
330
1
100
AcDbSymbolTableRecord
100
AcDbBlockTableRecord
  2
*Model_Space
340
21
  0
BLOCK_RECORD
  5
1A
102
{ACAD_XDICTIONARY
360
A2
102
}
330
1
100
AcDbSymbolTableRecord
100
AcDbBlockTableRecord
  2
*Paper_Space
340
1D
  0
BLOCK_RECORD
  5
22
330
1
100
AcDbSymbolTableRecord
100
AcDbBlockTableRecord
  2
LOGO
340
0
102
{BLKREFS
331
9B
102
}
  0
BLOCK_RECORD
  5
1645
330
1
100
AcDbSymbolTableRecord
100
AcDbBlockTableRecord
  2
*D1
340
0
  0
BLOCK_RECORD
  5
1652
330
1
100
AcDbSymbolTableRecord
100
AcDbBlockTableRecord
  2
*D2
340
0
  0
BLOCK_RECORD
  5
16C5
330
1
100
AcDbSymbolTableRecord
100
AcDbBlockTableRecord
  2
*D3
340
0
  0
BLOCK_RECORD
  5
16D2
330
1
100
AcDbSymbolTableRecord
100
AcDbBlockTableRecord
  2
*D4
340
0
  0
BLOCK_RECORD
  5
187F
330
1
100
AcDbSymbolTableRecord
100
AcDbBlockTableRecord
  2
*D5
340
0
  0
BLOCK_RECORD
  5
1895
330
1
100
AcDbSymbolTableRecord
100
AcDbBlockTableRecord
  2
*D6
340
0
  0
BLOCK_RECORD
  5
18AB
330
1
100
AcDbSymbolTableRecord
100
AcDbBlockTableRecord
  2
*D7
340
0
  0
BLOCK_RECORD
  5
18C5
330
1
100
AcDbSymbolTableRecord
100
AcDbBlockTableRecord
  2
*D8
340
0
  0
BLOCK_RECORD
  5
1A11
330
1
100
AcDbSymbolTableRecord
100
AcDbBlockTableRecord
  2
*D9
340
0
  0
ENDTAB
  0
ENDSEC
  0
SECTION
  2
BLOCKS
  0
BLOCK
  5
35
330
1E
100
AcDbEntity
  8
0
100
AcDbBlockBegin
  2
*Model_Space
 70
     0
 10
0.0
 20
0.0
 30
0.0
  3
*Model_Space
  1

  0
ENDBLK
  5
36
330
1E
100
AcDbEntity
  8
0
100
AcDbBlockEnd
  0
BLOCK
  5
33
330
1A
100
AcDbEntity
 67
     1
  8
0
100
AcDbBlockBegin
  2
*Paper_Space
 70
     0
 10
0.0
 20
0.0
 30
0.0
  3
*Paper_Space
  1

  0
ENDBLK
  5
34
330
1A
100
AcDbEntity
 67
     1
  8
0
100
AcDbBlockEnd
  0
BLOCK
  5
37
330
22
100
AcDbEntity
  8
0
100
AcDbBlockBegin
  2
LOGO
 70
     0
 10
0.0
 20
0.0
 30
0.0
  3
LOGO
  1

  0
ARC
  5
38
330
22
100
AcDbEntity
  8
0
100
AcDbCircle
 10
11.59973089678112
 20
-9.271599258481501
 30
0.0
 40
4.5
100
AcDbArc
 50
270.0
 51
231.0575587310159
  0
LINE
  5
39
330
22
100
AcDbEntity
  8
0
100
AcDbLine
 10
3.599730896781125
 20
-4.771599258481529
 30
0.0
 11
3.599730896781153
 21
-11.77159925848133
 31
0.0
  0
LINE
  5
3A
330
22
100
AcDbEntity
  8
0
100
AcDbLine
 10
2.599730896781125
 20
-4.771599258481529
 30
0.0
 11
2.599730896781153
 21
-11.77159925848133
 31
0.0
  0
CIRCLE
  5
3B
330
22
100
AcDbEntity
  8
0
100
AcDbCircle
 10
11.59973089678112
 20
-9.271599258481501
 30
0.0
 40
3.5
  0
ARC
  5
3C
330
22
100
AcDbEntity
  8
0
100
AcDbCircle
 10
31.59973089678115
 20
-9.271599258481472
 30
0.0
 40
4.5
100
AcDbArc
 50
270.0
 51
231.0575587310182
  0
LINE
  5
3D
330
22
100
AcDbEntity
  8
0
100
AcDbLine
 10
17.59973089678112
 20
-4.771599258481472
 30
0.0
 11
17.59973089678115
 21
-13.77159925848147
 31
0.0
  0
ARC
  5
3E
330
22
100
AcDbEntity
  8
0
100
AcDbCircle
 10
22.59973089678116
 20
-7.271599258481472
 30
0.0
 40
2.5
100
AcDbArc
 50
293.1161887722295
 51
90.0
  0
CIRCLE
  5
3F
330
22
100
AcDbEntity
  8
0
100
AcDbCircle
 10
31.59973089678115
 20
-9.271599258481472
 30
0.0
 40
3.5
  0
ARC
  5
40
330
22
100
AcDbEntity
  8
0
100
AcDbCircle
 10
4.599730896781153
 20
-11.77159925848133
 30
0.0
 40
1.0
100
AcDbArc
 50
180.0
 51
270.0
  0
ARC
  5
41
330
22
100
AcDbEntity
  8
0
100
AcDbCircle
 10
4.599730896781153
 20
-11.77159925848133
 30
0.0
 40
2.0
100
AcDbArc
 50
179.9999999999992
 51
270.0
  0
LINE
  5
42
330
22
100
AcDbEntity
  8
0
100
AcDbLine
 10
11.59973089678115
 20
-13.77159925848144
 30
0.0
 11
4.599730896781153
 21
-13.77159925848147
 31
0.0
  0
LINE
  5
43
330
22
100
AcDbEntity
  8
0
100
AcDbLine
 10
8.771303772034769
 20
-12.77159925848136
 30
0.0
 11
4.599730896781153
 21
-12.77159925848133
 31
0.0
  0
LINE
  5
44
330
22
100
AcDbEntity
  8
0
100
AcDbLine
 10
31.59973089678115
 20
-13.77159925848147
 30
0.0
 11
23.6715276665056
 21
-13.77159925848144
 31
0.0
  0
LINE
  5
45
330
22
100
AcDbEntity
  8
0
100
AcDbLine
 10
23.56565672307022
 20
-9.51278021337896
 30
0.0
 11
24.4388546544846
 21
-12.77159925848144
 31
0.0
  0
LINE
  5
46
330
22
100
AcDbEntity
  8
0
100
AcDbLine
 10
22.59973089678116
 20
-9.771599258481472
 30
0.0
 11
18.59973089678112
 21
-9.771599258481472
 31
0.0
  0
LINE
  5
47
330
22
100
AcDbEntity
  8
0
100
AcDbLine
 10
18.59973089678115
 20
-13.77159925848144
 30
0.0
 11
17.59973089678115
 21
-13.77159925848144
 31
0.0
  0
LINE
  5
48
330
22
100
AcDbEntity
  8
0
100
AcDbLine
 10
18.59973089678115
 20
-9.771599258481472
 30
0.0
 11
18.59973089678115
 21
-13.77159925848144
 31
0.0
  0
LINE
  5
49
330
22
100
AcDbEntity
  8
0
100
AcDbLine
 10
22.59973089678116
 20
-9.771599258481472
 30
0.0
 11
23.67152766650562
 21
-13.77159925848147
 31
0.0
  0
ARC
  5
4A
330
22
100
AcDbEntity
  8
0
100
AcDbCircle
 10
22.59973089678116
 20
-7.271599258481472
 30
0.0
 40
2.5
100
AcDbArc
 50
270.0
 51
270.0000000000007
  0
LINE
  5
4B
330
22
100
AcDbEntity
  8
0
100
AcDbLine
 10
28.77130377203494
 20
-12.77159925848147
 30
0.0
 11
24.43885465448463
 21
-12.77159925848144
 31
0.0
  0
LINE
  5
4C
330
22
100
AcDbEntity
  8
0
100
AcDbLine
 10
3.599730896781125
 20
-4.771599258481472
 30
0.0
 11
2.599730896781125
 21
-4.771599258481472
 31
0.0
  0
LINE
  5
4D
330
22
100
AcDbEntity
  8
0
100
AcDbLine
 10
22.59973089678116
 20
-8.771599258481472
 30
0.0
 11
18.59973089678115
 21
-8.771599258481472
 31
0.0
  0
LINE
  5
4E
330
22
100
AcDbEntity
  8
0
100
AcDbLine
 10
22.59973089678116
 20
-5.771599258481472
 30
0.0
 11
18.59973089678115
 21
-5.771599258481472
 31
0.0
  0
LINE
  5
4F
330
22
100
AcDbEntity
  8
0
100
AcDbLine
 10
22.59973089678116
 20
-4.771599258481472
 30
0.0
 11
17.59973089678115
 21
-4.771599258481472
 31
0.0
  0
LINE
  5
50
330
22
100
AcDbEntity
  8
0
100
AcDbLine
 10
18.59973089678115
 20
-5.771599258481472
 30
0.0
 11
18.59973089678115
 21
-8.771599258481472
 31
0.0
  0
ARC
  5
51
330
22
100
AcDbEntity
  8
0
100
AcDbCircle
 10
22.59973089678116
 20
-7.271599258481472
 30
0.0
 40
1.5
100
AcDbArc
 50
270.0
 51
90.0
  0
ENDBLK
  5
52
330
22
100
AcDbEntity
  8
0
100
AcDbBlockEnd
  0
BLOCK
  5
164F
330
1645
100
AcDbEntity
  8
0
100
AcDbBlockBegin
  2
*D1
 70
     1
 10
0.0
 20
0.0
 30
0.0
  3
*D1
  1

  0
LINE
  5
19B5
330
1645
100
AcDbEntity
  8
TEXT
 62
     0
370
    -2
100
AcDbLine
 10
171.1832613544287
 20
228.1912687110982
 30
0.0
 11
171.1832613544287
 21
205.349758621164
 31
0.0
  0
LINE
  5
19B6
330
1645
100
AcDbEntity
  8
TEXT
 62
     0
370
    -2
100
AcDbLine
 10
276.1842613544288
 20
228.1912687110982
 30
0.0
 11
276.1842613544288
 21
205.349758621164
 31
0.0
  0
LINE
  5
19B7
330
1645
100
AcDbEntity
  8
TEXT
 62
     0
370
    -2
100
AcDbLine
 10
178.1832613544287
 20
207.349758621164
 30
0.0
 11
269.1842613544288
 21
207.349758621164
 31
0.0
  0
SOLID
  5
19B8
330
1645
100
AcDbEntity
  8
TEXT
 62
     0
100
AcDbTrace
 10
178.1832613544287
 20
208.5164252878307
 30
0.0
 11
178.1832613544287
 21
206.1830919544973
 31
0.0
 12
171.1832613544287
 22
207.349758621164
 32
0.0
 13
171.1832613544287
 23
207.349758621164
 33
0.0
  0
SOLID
  5
19B9
330
1645
100
AcDbEntity
  8
TEXT
 62
     0
100
AcDbTrace
 10
269.1842613544288
 20
208.5164252878307
 30
0.0
 11
269.1842613544288
 21
206.1830919544973
 31
0.0
 12
276.1842613544288
 22
207.349758621164
 32
0.0
 13
276.1842613544288
 23
207.349758621164
 33
0.0
  0
MTEXT
  5
19BA
330
1645
100
AcDbEntity
  8
TEXT
 62
     1
100
AcDbMText
 10
223.6837613544288
 20
213.849758621164
 30
0.0
 40
7.0
 41
0.0
 71
     5
 72
     1
  1
\A1;105
 73
     1
 44
1.0
  0
POINT
  5
19BB
330
1645
100
AcDbEntity
  8
Defpoints
 62
     0
100
AcDbPoint
 10
171.1832613544287
 20
230.1912687110982
 30
0.0
  0
POINT
  5
19BC
330
1645
100
AcDbEntity
  8
Defpoints
 62
     0
100
AcDbPoint
 10
276.1842613544288
 20
230.1912687110982
 30
0.0
  0
POINT
  5
19BD
330
1645
100
AcDbEntity
  8
Defpoints
 62
     0
100
AcDbPoint
 10
276.1842613544288
 20
207.349758621164
 30
0.0
  0
ENDBLK
  5
1650
330
1645
100
AcDbEntity
  8
0
100
AcDbBlockEnd
  0
BLOCK
  5
165C
330
1652
100
AcDbEntity
  8
0
100
AcDbBlockBegin
  2
*D2
 70
     1
 10
0.0
 20
0.0
 30
0.0
  3
*D2
  1

  0
LINE
  5
19AC
330
1652
100
AcDbEntity
  8
TEXT
 62
     0
370
    -2
100
AcDbLine
 10
162.1832613544287
 20
238.1912687110983
 30
0.0
 11
162.1832613544287
 21
189.0629101394027
 31
0.0
  0
LINE
  5
19AD
330
1652
100
AcDbEntity
  8
TEXT
 62
     0
370
    -2
100
AcDbLine
 10
285.1842613544288
 20
238.1912687110983
 30
0.0
 11
285.1842613544288
 21
189.0629101394027
 31
0.0
  0
LINE
  5
19AE
330
1652
100
AcDbEntity
  8
TEXT
 62
     0
370
    -2
100
AcDbLine
 10
169.1832613544287
 20
191.0629101394027
 30
0.0
 11
278.1842613544288
 21
191.0629101394027
 31
0.0
  0
SOLID
  5
19AF
330
1652
100
AcDbEntity
  8
TEXT
 62
     0
100
AcDbTrace
 10
169.1832613544287
 20
192.2295768060693
 30
0.0
 11
169.1832613544287
 21
189.896243472736
 31
0.0
 12
162.1832613544287
 22
191.0629101394027
 32
0.0
 13
162.1832613544287
 23
191.0629101394027
 33
0.0
  0
SOLID
  5
19B0
330
1652
100
AcDbEntity
  8
TEXT
 62
     0
100
AcDbTrace
 10
278.1842613544288
 20
192.2295768060693
 30
0.0
 11
278.1842613544288
 21
189.896243472736
 31
0.0
 12
285.1842613544288
 22
191.0629101394027
 32
0.0
 13
285.1842613544288
 23
191.0629101394027
 33
0.0
  0
MTEXT
  5
19B1
330
1652
100
AcDbEntity
  8
TEXT
 62
     1
100
AcDbMText
 10
223.6837613544288
 20
197.5629101394027
 30
0.0
 40
7.0
 41
0.0
 71
     5
 72
     1
  1
\A1;123
 73
     1
 44
1.0
  0
POINT
  5
19B2
330
1652
100
AcDbEntity
  8
Defpoints
 62
     0
100
AcDbPoint
 10
162.1832613544287
 20
240.1912687110983
 30
0.0
  0
POINT
  5
19B3
330
1652
100
AcDbEntity
  8
Defpoints
 62
     0
100
AcDbPoint
 10
285.1842613544288
 20
240.1912687110983
 30
0.0
  0
POINT
  5
19B4
330
1652
100
AcDbEntity
  8
Defpoints
 62
     0
100
AcDbPoint
 10
285.1842613544288
 20
191.0629101394027
 30
0.0
  0
ENDBLK
  5
165D
330
1652
100
AcDbEntity
  8
0
100
AcDbBlockEnd
  0
BLOCK
  5
16CF
330
16C5
100
AcDbEntity
  8
0
100
AcDbBlockBegin
  2
*D3
 70
     1
 10
0.0
 20
0.0
 30
0.0
  3
*D3
  1

  0
LINE
  5
176A
330
16C5
100
AcDbEntity
  8
BEM
 62
     0
370
    -2
100
AcDbLine
 10
221.6832613544287
 20
294.7150651080002
 30
0.0
 11
156.0300075932118
 21
294.7150651080002
 31
0.0
  0
LINE
  5
176B
330
16C5
100
AcDbEntity
  8
BEM
 62
     0
370
    -2
100
AcDbLine
 10
211.1832613544287
 20
394.7150651080002
 30
0.0
 11
156.0300075932118
 21
394.7150651080002
 31
0.0
  0
LINE
  5
176C
330
16C5
100
AcDbEntity
  8
BEM
 62
     0
370
    -2
100
AcDbLine
 10
158.0300075932118
 20
301.7150651080001
 30
0.0
 11
158.0300075932118
 21
387.7150651080001
 31
0.0
  0
SOLID
  5
176D
330
16C5
100
AcDbEntity
  8
BEM
 62
     0
100
AcDbTrace
 10
156.8633409265451
 20
301.7150651080001
 30
0.0
 11
159.1966742598785
 21
301.7150651080001
 31
0.0
 12
158.0300075932118
 22
294.7150651080002
 32
0.0
 13
158.0300075932118
 23
294.7150651080002
 33
0.0
  0
SOLID
  5
176E
330
16C5
100
AcDbEntity
  8
BEM
 62
     0
100
AcDbTrace
 10
156.8633409265452
 20
387.7150651080001
 30
0.0
 11
159.1966742598785
 21
387.7150651080001
 31
0.0
 12
158.0300075932118
 22
394.7150651080002
 32
0.0
 13
158.0300075932118
 23
394.7150651080002
 33
0.0
  0
MTEXT
  5
176F
330
16C5
100
AcDbEntity
  8
BEM
 62
     1
100
AcDbMText
 10
151.5300075932118
 20
344.7150651080002
 30
0.0
 40
7.0
 41
0.0
 71
     5
 72
     1
  1
\A1;100
 11
0.0000000000000001
 21
1.0
 31
0.0
 73
     1
 44
1.0
  0
POINT
  5
1770
330
16C5
100
AcDbEntity
  8
Defpoints
 62
     0
100
AcDbPoint
 10
223.6832613544287
 20
294.7150651080002
 30
0.0
  0
POINT
  5
1771
330
16C5
100
AcDbEntity
  8
Defpoints
 62
     0
100
AcDbPoint
 10
213.1832613544287
 20
394.7150651080002
 30
0.0
  0
POINT
  5
1772
330
16C5
100
AcDbEntity
  8
Defpoints
 62
     0
100
AcDbPoint
 10
158.0300075932118
 20
394.7150651080002
 30
0.0
  0
ENDBLK
  5
16D0
330
16C5
100
AcDbEntity
  8
0
100
AcDbBlockEnd
  0
BLOCK
  5
16DC
330
16D2
100
AcDbEntity
  8
0
100
AcDbBlockBegin
  2
*D4
 70
     1
 10
0.0
 20
0.0
 30
0.0
  3
*D4
  1

  0
LINE
  5
1988
330
16D2
100
AcDbEntity
  8
BEM
 62
     0
370
    -2
100
AcDbLine
 10
183.6823983329369
 20
489.7158200095855
 30
0.0
 11
134.4600654450069
 21
489.7158200095855
 31
0.0
  0
LINE
  5
1989
330
16D2
100
AcDbEntity
  8
BEM
 62
     0
370
    -2
100
AcDbLine
 10
221.6832613544287
 20
294.7150651080002
 30
0.0
 11
134.4600654450069
 21
294.7150651080002
 31
0.0
  0
LINE
  5
198A
330
16D2
100
AcDbEntity
  8
BEM
 62
     0
370
    -2
100
AcDbLine
 10
136.4600654450069
 20
482.7158200095856
 30
0.0
 11
136.4600654450069
 21
301.7150651080001
 31
0.0
  0
SOLID
  5
198B
330
16D2
100
AcDbEntity
  8
BEM
 62
     0
100
AcDbTrace
 10
135.2933987783403
 20
482.7158200095856
 30
0.0
 11
137.6267321116736
 21
482.7158200095856
 31
0.0
 12
136.4600654450069
 22
489.7158200095855
 32
0.0
 13
136.4600654450069
 23
489.7158200095855
 33
0.0
  0
SOLID
  5
198C
330
16D2
100
AcDbEntity
  8
BEM
 62
     0
100
AcDbTrace
 10
135.2933987783402
 20
301.7150651080001
 30
0.0
 11
137.6267321116735
 21
301.7150651080001
 31
0.0
 12
136.4600654450069
 22
294.7150651080002
 32
0.0
 13
136.4600654450069
 23
294.7150651080002
 33
0.0
  0
MTEXT
  5
198D
330
16D2
100
AcDbEntity
  8
BEM
 62
     1
100
AcDbMText
 10
129.9600654450068
 20
392.2154425587929
 30
0.0
 40
7.0
 41
0.0
 71
     5
 72
     1
  1
\A1;195
 11
0.0000000000000001
 21
1.0
 31
0.0
 73
     1
 44
1.0
  0
POINT
  5
198E
330
16D2
100
AcDbEntity
  8
Defpoints
 62
     0
100
AcDbPoint
 10
185.6823983329369
 20
489.7158200095855
 30
0.0
  0
POINT
  5
198F
330
16D2
100
AcDbEntity
  8
Defpoints
 62
     0
100
AcDbPoint
 10
223.6832613544287
 20
294.7150651080002
 30
0.0
  0
POINT
  5
1990
330
16D2
100
AcDbEntity
  8
Defpoints
 62
     0
100
AcDbPoint
 10
136.4600654450069
 20
294.7150651080002
 30
0.0
  0
ENDBLK
  5
16DD
330
16D2
100
AcDbEntity
  8
0
100
AcDbBlockEnd
  0
BLOCK
  5
1889
330
187F
100
AcDbEntity
  8
0
100
AcDbBlockBegin
  2
*D5
 70
     1
 10
0.0
 20
0.0
 30
0.0
  3
*D5
  1

  0
LINE
  5
197F
330
187F
100
AcDbEntity
  8
BEM
 62
     0
370
    -2
100
AcDbLine
 10
183.6823983329369
 20
487.7158200095855
 30
0.0
 11
183.6823983329369
 21
502.0015081206293
 31
0.0
  0
LINE
  5
1980
330
187F
100
AcDbEntity
  8
BEM
 62
     0
370
    -2
100
AcDbLine
 10
263.6832613544287
 20
487.6950651079999
 30
0.0
 11
263.6832613544287
 21
502.0015081206293
 31
0.0
  0
LINE
  5
1981
330
187F
100
AcDbEntity
  8
BEM
 62
     0
370
    -2
100
AcDbLine
 10
190.6823983329369
 20
500.0015081206292
 30
0.0
 11
256.6832613544288
 21
500.0015081206292
 31
0.0
  0
SOLID
  5
1982
330
187F
100
AcDbEntity
  8
BEM
 62
     0
100
AcDbTrace
 10
190.6823983329369
 20
501.168174787296
 30
0.0
 11
190.6823983329369
 21
498.8348414539625
 31
0.0
 12
183.6823983329369
 22
500.0015081206292
 32
0.0
 13
183.6823983329369
 23
500.0015081206292
 33
0.0
  0
SOLID
  5
1983
330
187F
100
AcDbEntity
  8
BEM
 62
     0
100
AcDbTrace
 10
256.6832613544288
 20
501.168174787296
 30
0.0
 11
256.6832613544288
 21
498.8348414539625
 31
0.0
 12
263.6832613544287
 22
500.0015081206292
 32
0.0
 13
263.6832613544287
 23
500.0015081206292
 33
0.0
  0
MTEXT
  5
1984
330
187F
100
AcDbEntity
  8
BEM
 62
     1
100
AcDbMText
 10
223.6828298436828
 20
506.5015081206293
 30
0.0
 40
7.0
 41
0.0
 71
     5
 72
     1
  1
\A1;80
 73
     1
 44
1.0
  0
POINT
  5
1985
330
187F
100
AcDbEntity
  8
Defpoints
 62
     0
100
AcDbPoint
 10
183.6823983329369
 20
485.7158200095855
 30
0.0
  0
POINT
  5
1986
330
187F
100
AcDbEntity
  8
Defpoints
 62
     0
100
AcDbPoint
 10
263.6832613544287
 20
485.6950651079999
 30
0.0
  0
POINT
  5
1987
330
187F
100
AcDbEntity
  8
Defpoints
 62
     0
100
AcDbPoint
 10
263.6832613544287
 20
500.0015081206292
 30
0.0
  0
ENDBLK
  5
188A
330
187F
100
AcDbEntity
  8
0
100
AcDbBlockEnd
  0
BLOCK
  5
189F
330
1895
100
AcDbEntity
  8
0
100
AcDbBlockBegin
  2
*D6
 70
     1
 10
0.0
 20
0.0
 30
0.0
  3
*D6
  1

  0
LINE
  5
1976
330
1895
100
AcDbEntity
  8
BEM
 62
     0
370
    -2
100
AcDbLine
 10
183.6823983329369
 20
487.7158200095855
 30
0.0
 11
151.0300075932119
 21
487.7158200095855
 31
0.0
  0
LINE
  5
1977
330
1895
100
AcDbEntity
  8
BEM
 62
     0
370
    -2
100
AcDbLine
 10
183.6823983329368
 20
407.7158200095856
 30
0.0
 11
151.0300075932118
 21
407.7158200095856
 31
0.0
  0
LINE
  5
1978
330
1895
100
AcDbEntity
  8
BEM
 62
     0
370
    -2
100
AcDbLine
 10
153.0300075932118
 20
480.7158200095855
 30
0.0
 11
153.0300075932118
 21
414.7158200095856
 31
0.0
  0
SOLID
  5
1979
330
1895
100
AcDbEntity
  8
BEM
 62
     0
100
AcDbTrace
 10
151.8633409265452
 20
480.7158200095855
 30
0.0
 11
154.1966742598785
 21
480.7158200095855
 31
0.0
 12
153.0300075932118
 22
487.7158200095855
 32
0.0
 13
153.0300075932118
 23
487.7158200095855
 33
0.0
  0
SOLID
  5
197A
330
1895
100
AcDbEntity
  8
BEM
 62
     0
100
AcDbTrace
 10
151.8633409265452
 20
414.7158200095856
 30
0.0
 11
154.1966742598785
 21
414.7158200095856
 31
0.0
 12
153.0300075932118
 22
407.7158200095856
 32
0.0
 13
153.0300075932118
 23
407.7158200095856
 33
0.0
  0
MTEXT
  5
197B
330
1895
100
AcDbEntity
  8
BEM
 62
     1
100
AcDbMText
 10
146.5300075932118
 20
447.7158200095856
 30
0.0
 40
7.0
 41
0.0
 71
     5
 72
     1
  1
\A1;80
 11
0.0000000000000001
 21
1.0
 31
0.0
 73
     1
 44
1.0
  0
POINT
  5
197C
330
1895
100
AcDbEntity
  8
Defpoints
 62
     0
100
AcDbPoint
 10
185.6823983329369
 20
487.7158200095855
 30
0.0
  0
POINT
  5
197D
330
1895
100
AcDbEntity
  8
Defpoints
 62
     0
100
AcDbPoint
 10
185.6823983329368
 20
407.7158200095856
 30
0.0
  0
POINT
  5
197E
330
1895
100
AcDbEntity
  8
Defpoints
 62
     0
100
AcDbPoint
 10
153.0300075932118
 20
407.7158200095856
 30
0.0
  0
ENDBLK
  5
18A0
330
1895
100
AcDbEntity
  8
0
100
AcDbBlockEnd
  0
BLOCK
  5
18B7
330
18AB
100
AcDbEntity
  8
0
100
AcDbBlockBegin
  2
*D7
 70
     1
 10
0.0
 20
0.0
 30
0.0
  3
*D7
  1

  0
LINE
  5
196B
330
18AB
100
AcDbEntity
  8
BEM
 62
     0
370
    -2
100
AcDbLine
 10
183.6823983329369
 20
487.7158200095855
 30
0.0
 11
151.0300075932119
 21
487.7158200095855
 31
0.0
  0
LINE
  5
196C
330
18AB
100
AcDbEntity
  8
BEM
 62
     0
370
    -2
100
AcDbLine
 10
183.6823983329369
 20
489.7158200095855
 30
0.0
 11
151.0300075932119
 21
489.7158200095855
 31
0.0
  0
LINE
  5
196D
330
18AB
100
AcDbEntity
  8
BEM
 62
     0
370
    -2
100
AcDbLine
 10
153.0300075932118
 20
480.7158200095855
 30
0.0
 11
153.0300075932118
 21
473.7158200095855
 31
0.0
  0
LINE
  5
196E
330
18AB
100
AcDbEntity
  8
BEM
 62
     0
370
    -2
100
AcDbLine
 10
153.0300075932118
 20
496.7158200095855
 30
0.0
 11
153.0300075932118
 21
513.449153342919
 31
0.0
  0
LINE
  5
196F
330
18AB
100
AcDbEntity
  8
BEM
 62
     0
370
    -2
100
AcDbLine
 10
153.0300075932118
 20
487.7158200095855
 30
0.0
 11
153.0300075932118
 21
489.7158200095855
 31
0.0
  0
SOLID
  5
1970
330
18AB
100
AcDbEntity
  8
BEM
 62
     0
100
AcDbTrace
 10
151.8633409265452
 20
480.7158200095855
 30
0.0
 11
154.1966742598785
 21
480.7158200095855
 31
0.0
 12
153.0300075932118
 22
487.7158200095855
 32
0.0
 13
153.0300075932118
 23
487.7158200095855
 33
0.0
  0
SOLID
  5
1971
330
18AB
100
AcDbEntity
  8
BEM
 62
     0
100
AcDbTrace
 10
151.8633409265452
 20
496.7158200095855
 30
0.0
 11
154.1966742598785
 21
496.7158200095855
 31
0.0
 12
153.0300075932118
 22
489.7158200095855
 32
0.0
 13
153.0300075932118
 23
489.7158200095855
 33
0.0
  0
MTEXT
  5
1972
330
18AB
100
AcDbEntity
  8
BEM
 62
     1
100
AcDbMText
 10
146.5300075932118
 20
508.5824866762522
 30
0.0
 40
7.0
 41
0.0
 71
     5
 72
     1
  1
\A1;2
 11
0.0000000000000001
 21
1.0
 31
0.0
 73
     1
 44
1.0
  0
POINT
  5
1973
330
18AB
100
AcDbEntity
  8
Defpoints
 62
     0
100
AcDbPoint
 10
185.6823983329369
 20
487.7158200095855
 30
0.0
  0
POINT
  5
1974
330
18AB
100
AcDbEntity
  8
Defpoints
 62
     0
100
AcDbPoint
 10
185.6823983329369
 20
489.7158200095855
 30
0.0
  0
POINT
  5
1975
330
18AB
100
AcDbEntity
  8
Defpoints
 62
     0
100
AcDbPoint
 10
153.0300075932118
 20
489.7158200095855
 30
0.0
  0
ENDBLK
  5
18B8
330
18AB
100
AcDbEntity
  8
0
100
AcDbBlockEnd
  0
BLOCK
  5
18CF
330
18C5
100
AcDbEntity
  8
0
100
AcDbBlockBegin
  2
*D8
 70
     1
 10
0.0
 20
0.0
 30
0.0
  3
*D8
  1

  0
LINE
  5
19A3
330
18C5
100
AcDbEntity
  8
BEM
 62
     0
370
    -2
100
AcDbLine
 10
165.1822613544287
 20
227.6912687110983
 30
0.0
 11
145.6951564317151
 21
227.6912687110983
 31
0.0
  0
LINE
  5
19A4
330
18C5
100
AcDbEntity
  8
BEM
 62
     0
370
    -2
100
AcDbLine
 10
165.1822613544287
 20
252.6912687110983
 30
0.0
 11
145.6951564317151
 21
252.6912687110983
 31
0.0
  0
LINE
  5
19A5
330
18C5
100
AcDbEntity
  8
BEM
 62
     0
370
    -2
100
AcDbLine
 10
147.695156431715
 20
234.6912687110982
 30
0.0
 11
147.695156431715
 21
245.6912687110984
 31
0.0
  0
SOLID
  5
19A6
330
18C5
100
AcDbEntity
  8
BEM
 62
     0
100
AcDbTrace
 10
146.5284897650484
 20
234.6912687110982
 30
0.0
 11
148.8618230983817
 21
234.6912687110982
 31
0.0
 12
147.695156431715
 22
227.6912687110983
 32
0.0
 13
147.695156431715
 23
227.6912687110983
 33
0.0
  0
SOLID
  5
19A7
330
18C5
100
AcDbEntity
  8
BEM
 62
     0
100
AcDbTrace
 10
146.5284897650484
 20
245.6912687110984
 30
0.0
 11
148.8618230983817
 21
245.6912687110984
 31
0.0
 12
147.695156431715
 22
252.6912687110983
 32
0.0
 13
147.695156431715
 23
252.6912687110983
 33
0.0
  0
MTEXT
  5
19A8
330
18C5
100
AcDbEntity
  8
BEM
 62
     1
100
AcDbMText
 10
141.195156431715
 20
240.1912687110983
 30
0.0
 40
7.0
 41
0.0
 71
     5
 72
     1
  1
\A1;25
 11
0.0000000000000001
 21
1.0
 31
0.0
 73
     1
 44
1.0
  0
POINT
  5
19A9
330
18C5
100
AcDbEntity
  8
Defpoints
 62
     0
100
AcDbPoint
 10
167.1822613544287
 20
227.6912687110983
 30
0.0
  0
POINT
  5
19AA
330
18C5
100
AcDbEntity
  8
Defpoints
 62
     0
100
AcDbPoint
 10
167.1822613544287
 20
252.6912687110983
 30
0.0
  0
POINT
  5
19AB
330
18C5
100
AcDbEntity
  8
Defpoints
 62
     0
100
AcDbPoint
 10
147.695156431715
 20
252.6912687110983
 30
0.0
  0
ENDBLK
  5
18D0
330
18C5
100
AcDbEntity
  8
0
100
AcDbBlockEnd
  0
BLOCK
  5
1A1D
330
1A11
100
AcDbEntity
  8
0
100
AcDbBlockBegin
  2
*D9
 70
     1
 10
0.0
 20
0.0
 30
0.0
  3
*D9
  1

  0
LINE
  5
1A1F
330
1A11
100
AcDbEntity
  8
BEM
 62
     0
370
    -2
100
AcDbLine
 10
227.1832613544287
 20
360.4507693461774
 30
0.0
 11
227.1832613544287
 21
360.6885651080002
 31
0.0
  0
LINE
  5
1A20
330
1A11
100
AcDbEntity
  8
BEM
 62
     0
370
    -2
100
AcDbLine
 10
220.1832613544287
 20
360.4507693461774
 30
0.0
 11
220.1832613544287
 21
360.6885651080002
 31
0.0
  0
LINE
  5
1A21
330
1A11
100
AcDbEntity
  8
BEM
 62
     0
370
    -2
100
AcDbLine
 10
234.1832613544287
 20
358.6885651080002
 30
0.0
 11
241.1832613544287
 21
358.6885651080002
 31
0.0
  0
LINE
  5
1A22
330
1A11
100
AcDbEntity
  8
BEM
 62
     0
370
    -2
100
AcDbLine
 10
213.1832613544287
 20
358.6885651080002
 30
0.0
 11
192.4499280210954
 21
358.6885651080002
 31
0.0
  0
LINE
  5
1A23
330
1A11
100
AcDbEntity
  8
BEM
 62
     0
370
    -2
100
AcDbLine
 10
227.1832613544287
 20
358.6885651080002
 30
0.0
 11
220.1832613544287
 21
358.6885651080002
 31
0.0
  0
SOLID
  5
1A24
330
1A11
100
AcDbEntity
  8
BEM
 62
     0
100
AcDbTrace
 10
234.1832613544287
 20
359.8552317746668
 30
0.0
 11
234.1832613544287
 21
357.5218984413335
 31
0.0
 12
227.1832613544287
 22
358.6885651080002
 32
0.0
 13
227.1832613544287
 23
358.6885651080002
 33
0.0
  0
SOLID
  5
1A25
330
1A11
100
AcDbEntity
  8
BEM
 62
     0
100
AcDbTrace
 10
213.1832613544287
 20
359.8552317746668
 30
0.0
 11
213.1832613544287
 21
357.5218984413335
 31
0.0
 12
220.1832613544287
 22
358.6885651080002
 32
0.0
 13
220.1832613544287
 23
358.6885651080002
 33
0.0
  0
MTEXT
  5
1A26
330
1A11
100
AcDbEntity
  8
BEM
 62
     1
100
AcDbMText
 10
197.316594687762
 20
365.1885651080001
 30
0.0
 40
7.0
 41
0.0
 71
     5
 72
     1
  1
\A1;7
 73
     1
 44
1.0
  0
POINT
  5
1A27
330
1A11
100
AcDbEntity
  8
Defpoints
 62
     0
100
AcDbPoint
 10
227.1832613544287
 20
358.4507693461774
 30
0.0
  0
POINT
  5
1A28
330
1A11
100
AcDbEntity
  8
Defpoints
 62
     0
100
AcDbPoint
 10
220.1832613544287
 20
358.4507693461774
 30
0.0
  0
POINT
  5
1A29
330
1A11
100
AcDbEntity
  8
Defpoints
 62
     0
100
AcDbPoint
 10
220.1832613544287
 20
358.6885651080002
 30
0.0
  0
ENDBLK
  5
1A1E
330
1A11
100
AcDbEntity
  8
0
100
AcDbBlockEnd
  0
ENDSEC
  0
SECTION
  2
ENTITIES
  0
LINE
  5
57
330
1E
100
AcDbEntity
  8
STEMPEL
100
AcDbLine
 10
410.0
 20
110.0
 30
0.0
 11
39.99999999999997
 21
110.0
 31
0.0
  0
LINE
  5
58
330
1E
100
AcDbEntity
  8
STEMPEL
100
AcDbLine
 10
136.0000000000001
 20
109.9999999999999
 30
0.0
 11
136.0
 21
9.999999999999971
 31
0.0
  0
LINE
  5
59
330
1E
100
AcDbEntity
  8
STEMPEL
100
AcDbLine
 10
220.0
 20
110.0
 30
0.0
 11
220.0
 21
9.999999999999971
 31
0.0
  0
LINE
  5
5A
330
1E
100
AcDbEntity
  8
STEMPEL
100
AcDbLine
 10
332.0
 20
109.9999999999997
 30
0.0
 11
332.0
 21
40.0
 31
0.0
  0
LINE
  5
5B
330
1E
100
AcDbEntity
  8
STEMPEL
100
AcDbLine
 10
135.9999999999999
 20
29.99999999999997
 30
0.0
 11
39.99999999999997
 21
29.99999999999997
 31
0.0
  0
LINE
  5
5C
330
1E
100
AcDbEntity
  8
STEMPEL
100
AcDbLine
 10
410.0
 20
40.0
 30
0.0
 11
136.0000000000001
 21
39.99999999999997
 31
0.0
  0
LINE
  5
5D
330
1E
100
AcDbEntity
  8
STEMPEL
100
AcDbLine
 10
410.0
 20
80.0
 30
0.0
 11
136.0000000000001
 21
79.99999999999994
 31
0.0
  0
LINE
  5
5E
330
1E
100
AcDbEntity
  8
VOLL
100
AcDbLine
 10
54.00000000000009
 20
110.0
 30
0.0
 11
53.99999999999997
 21
9.999999999999971
 31
0.0
  0
LINE
  5
5F
330
1E
100
AcDbEntity
  8
VOLL
100
AcDbLine
 10
94.00000000000011
 20
109.9999999999999
 30
0.0
 11
94.0
 21
9.999999999999971
 31
0.0
  0
LINE
  5
60
330
1E
100
AcDbEntity
  8
VOLL
100
AcDbLine
 10
114.0000000000001
 20
109.9999999999999
 30
0.0
 11
114.0
 21
9.999999999999971
 31
0.0
  0
LINE
  5
61
330
1E
100
AcDbEntity
  8
VOLL
100
AcDbLine
 10
154.0000000000001
 20
79.99999999999994
 30
0.0
 11
154.0000000000001
 21
39.99999999999997
 31
0.0
  0
LINE
  5
62
330
1E
100
AcDbEntity
  8
VOLL
100
AcDbLine
 10
180.0000000000001
 20
109.9999999999998
 30
0.0
 11
180.0
 21
39.99999999999997
 31
0.0
  0
LINE
  5
63
330
1E
100
AcDbEntity
  8
HILF
100
AcDbLine
 10
40.00000000000008
 20
100.0
 30
0.0
 11
136.0000000000001
 21
100.0
 31
0.0
  0
LINE
  5
64
330
1E
100
AcDbEntity
  8
HILF
100
AcDbLine
 10
40.00000000000008
 20
90.00000000000005
 30
0.0
 11
136.0000000000001
 21
90.00000000000005
 31
0.0
  0
LINE
  5
65
330
1E
100
AcDbEntity
  8
HILF
100
AcDbLine
 10
40.00000000000008
 20
79.99999999999994
 30
0.0
 11
136.0000000000001
 21
79.99999999999994
 31
0.0
  0
LINE
  5
66
330
1E
100
AcDbEntity
  8
HILF
100
AcDbLine
 10
40.00000000000008
 20
69.99999999999994
 30
0.0
 11
136.0000000000001
 21
69.99999999999994
 31
0.0
  0
LINE
  5
67
330
1E
100
AcDbEntity
  8
HILF
100
AcDbLine
 10
40.00000000000008
 20
59.99999999999997
 30
0.0
 11
136.0000000000001
 21
59.99999999999997
 31
0.0
  0
LINE
  5
68
330
1E
100
AcDbEntity
  8
HILF
100
AcDbLine
 10
40.00000000000008
 20
49.99999999999997
 30
0.0
 11
136.0000000000001
 21
49.99999999999997
 31
0.0
  0
LINE
  5
69
330
1E
100
AcDbEntity
  8
HILF
100
AcDbLine
 10
40.00000000000008
 20
39.99999999999997
 30
0.0
 11
136.0000000000001
 21
39.99999999999997
 31
0.0
  0
LINE
  5
6A
330
1E
100
AcDbEntity
  8
HILF
100
AcDbLine
 10
136.0000000000001
 20
69.99999999999994
 30
0.0
 11
220.0
 21
69.99999999999994
 31
0.0
  0
LINE
  5
6B
330
1E
100
AcDbEntity
  8
HILF
100
AcDbLine
 10
136.0000000000001
 20
59.99999999999997
 30
0.0
 11
220.0
 21
59.99999999999997
 31
0.0
  0
LINE
  5
6C
330
1E
100
AcDbEntity
  8
HILF
100
AcDbLine
 10
136.0000000000001
 20
49.99999999999997
 30
0.0
 11
220.0
 21
49.99999999999997
 31
0.0
  0
LINE
  5
6D
330
1E
100
AcDbEntity
  8
HILF
100
AcDbLine
 10
224.7736801096948
 20
84.03758247564139
 30
0.0
 11
324.8353916556311
 21
84.03758247564139
 31
0.0
  0
LINE
  5
6E
330
1E
100
AcDbEntity
  8
HILF
100
AcDbLine
 10
224.7736801096948
 20
69.99999999999994
 30
0.0
 11
324.835391655631
 21
69.99999999999994
 31
0.0
  0
LINE
  5
6F
330
1E
100
AcDbEntity
  8
HILF
100
AcDbLine
 10
224.7736801096948
 20
59.99999999999997
 30
0.0
 11
324.835391655631
 21
59.99999999999997
 31
0.0
  0
LINE
  5
70
330
1E
100
AcDbEntity
  8
HILF
100
AcDbLine
 10
224.7736801096948
 20
49.99999999999997
 30
0.0
 11
324.835391655631
 21
49.99999999999997
 31
0.0
  0
LINE
  5
71
330
1E
100
AcDbEntity
  8
VOLL
100
AcDbLine
 10
332.0
 20
60.0
 30
0.0
 11
410.0
 21
60.0
 31
0.0
  0
LINE
  5
72
330
1E
100
AcDbEntity
  8
HILF
100
AcDbLine
 10
336.7238616296993
 20
83.77983636955827
 30
0.0
 11
404.8588839326728
 21
83.77983636955827
 31
0.0
  0
LINE
  5
73
330
1E
100
AcDbEntity
  8
HILF
100
AcDbLine
 10
223.4909699289885
 20
14.89398258028314
 30
0.0
 11
404.8588839326728
 21
14.89398258028314
 31
0.0
  0
TEXT
  5
74
330
1E
100
AcDbEntity
  8
TEXT
100
AcDbText
 10
63.86165979631819
 20
18.67381894984132
 30
0.0
 40
4.0
  1
Änderung
 41
0.8
  7
GREEKS
 72
     1
 11
74.60451693917534
 21
18.67381894984132
 31
0.0
100
AcDbText
  0
TEXT
  5
75
330
1E
100
AcDbEntity
  8
TEXT
100
AcDbText
 10
143.5163572150377
 20
102.4620895087088
 30
0.0
 40
5.0
  1
Maßstab
 41
0.8
  7
GREEKS
100
AcDbText
  0
TEXT
  5
76
330
1E
100
AcDbEntity
  8
TEXT
100
AcDbText
 10
184.2858954734051
 20
102.4184168434819
 30
0.0
 40
5.0
  1
Zul. Abw.
 41
0.8
  7
GREEKS
100
AcDbText
  0
TEXT
  5
77
330
1E
100
AcDbEntity
  8
TEXT
100
AcDbText
 10
224.877940380901
 20
102.5489328011779
 30
0.0
 40
5.0
  1
Benennung
 41
0.8
  7
GREEKS
100
AcDbText
  0
TEXT
  5
78
330
1E
100
AcDbEntity
  8
TEXT
100
AcDbText
 10
336.178754957634
 20
102.3132034537136
 30
0.0
 40
5.0
  1
Zeichnungs Nr.
 41
0.8
  7
GREEKS
100
AcDbText
  0
TEXT
  5
79
330
1E
100
AcDbEntity
  8
TEXT
100
AcDbText
 10
224.742238391136
 20
30.84560570193057
 30
0.0
 40
5.0
  1
Bauvorhaben
 41
0.8
  7
GREEKS
100
AcDbText
  0
TEXT
  5
7A
330
1E
100
AcDbEntity
  8
TEXT
100
AcDbText
 10
336.7238616296993
 20
73.1811823709997
 30
0.0
 40
5.0
  1
Ersatz für:
 41
0.8
  7
GREEKS
100
AcDbText
  0
TEXT
  5
7B
330
1E
100
AcDbEntity
  8
TEXT
100
AcDbText
 10
48.26641107045756
 20
13.65465846027192
 30
0.0
 40
4.0
  1
Index
 50
90.0
 41
0.8
  7
GREEKS
100
AcDbText
  0
TEXT
  5
7C
330
1E
100
AcDbEntity
  8
TEXT
100
AcDbText
 10
100.0934676075481
 20
18.6715626933981
 30
0.0
 40
4.0
  1
Tag
 41
0.8
  7
GREEKS
 72
     1
 11
103.8268009408814
 21
18.6715626933981
 31
0.0
100
AcDbText
  0
TEXT
  5
7D
330
1E
100
AcDbEntity
  8
TEXT
100
AcDbText
 10
119.0122744386592
 20
18.59324216966408
 30
0.0
 40
4.0
  1
Name
 41
0.8
  7
GREEKS
 72
     1
 11
125.3360839624688
 21
18.59324216966408
 31
0.0
100
AcDbText
  0
TEXT
  5
7E
330
1E
100
AcDbEntity
  8
TEXT
100
AcDbText
 10
162.3311673153651
 20
73.31880501229926
 30
0.0
 40
4.0
  1
Tag
 41
0.8
  7
GREEKS
100
AcDbText
  0
TEXT
  5
7F
330
1E
100
AcDbEntity
  8
TEXT
100
AcDbText
 10
192.4626584226295
 20
73.30961091915225
 30
0.0
 40
4.0
  1
Name
 41
0.8
  7
GREEKS
100
AcDbText
  0
TEXT
  5
80
330
1E
100
AcDbEntity
  8
TEXT
100
AcDbText
 10
137.5836127167615
 20
63.62990369617964
 30
0.0
 40
4.0
  1
Gez.
 41
0.8
  7
GREEKS
100
AcDbText
  0
TEXT
  5
81
330
1E
100
AcDbEntity
  8
TEXT
100
AcDbText
 10
137.5515086571672
 20
53.68926291428377
 30
0.0
 40
4.0
  1
Gepr.
 41
0.8
  7
GREEKS
100
AcDbText
  0
TEXT
  5
82
330
1E
100
AcDbEntity
  8
TEXT
100
AcDbText
 10
137.6006777387304
 20
43.52946389649807
 30
0.0
 40
4.0
  1
Norm.
 41
0.8
  7
GREEKS
100
AcDbText
  0
LINE
  5
83
330
1E
100
AcDbEntity
  8
STEMPEL
100
AcDbLine
 10
49.99999999999989
 20
10.0
 30
0.0
 11
410.0
 21
10.0
 31
0.0
  0
TEXT
  5
84
330
1E
100
AcDbEntity
  8
TEXT
100
AcDbText
 10
337.2400861497006
 20
52.07416177878602
 30
0.0
 40
5.0
  1
ersetzt durch:
 41
0.8
  7
GREEKS
100
AcDbText
  0
LINE
  5
85
330
1E
100
AcDbEntity
  8
STEMPEL
100
AcDbLine
 10
410.0
 20
10.0
 30
0.0
 11
39.99999999999989
 21
10.0
 31
0.0
  0
LINE
  5
86
330
1E
100
AcDbEntity
  8
STEMPEL
100
AcDbLine
 10
410.0
 20
10.0
 30
0.0
 11
410.0
 21
584.0
 31
0.0
  0
LINE
  5
87
330
1E
100
AcDbEntity
  8
STEMPEL
100
AcDbLine
 10
40.0
 20
10.0
 30
0.0
 11
39.99999999999989
 21
584.0
 31
0.0
  0
LINE
  5
88
330
1E
100
AcDbEntity
  8
STEMPEL
100
AcDbLine
 10
410.0
 20
584.0
 30
0.0
 11
39.99999999999989
 21
584.0
 31
0.0
  0
LINE
  5
89
330
1E
100
AcDbEntity
  8
HILF
100
AcDbLine
 10
0.0
 20
0.0
 30
0.0
 11
-0.0000000000001137
 21
594.0
 31
0.0
  0
LINE
  5
8A
330
1E
100
AcDbEntity
  8
HILF
100
AcDbLine
 10
419.9999999999999
 20
594.0000000000002
 30
0.0
 11
0.0
 21
594.0
 31
0.0
  0
LINE
  5
8B
330
1E
100
AcDbEntity
  8
HILF
100
AcDbLine
 10
420.0
 20
0.0
 30
0.0
 11
0.0
 21
0.0
 31
0.0
  0
LINE
  5
8C
330
1E
100
AcDbEntity
  8
HILF
100
AcDbLine
 10
31.08767135713856
 20
297.0
 30
0.0
 11
0.0000000000001137
 21
297.0
 31
0.0
  0
TEXT
  5
8D
330
1E
100
AcDbEntity
  8
TEXT
100
AcDbText
 10
138.622109822104
 20
73.14025471151666
 30
0.0
 40
4.0
  1
2011
 41
0.8
  7
GREEKS
100
AcDbText
  0
LINE
  5
8E
330
1E
100
AcDbEntity
  8
HILF
100
AcDbLine
 10
420.0
 20
-0.0000000000001137
 30
0.0
 11
419.9999999999999
 21
594.0
 31
0.0
  0
TEXT
  5
8F
330
1E
100
AcDbEntity
  8
VOLL
100
AcDbText
 10
78.07675471698113
 20
31.02594776470585
 30
0.0
 40
1.8
  1

  7
GREEKS
100
AcDbText
  0
TEXT
  5
90
330
1E
100
AcDbEntity
  8
TEXT
100
AcDbText
 10
41.85509950977674
 20
111.6719999999999
 30
0.0
 40
5.0
  1
Erstellt mit AUTOCAD 2004
 41
0.8
  7
GREEKS
100
AcDbText
  0
TEXT
  5
91
330
1E
100
AcDbEntity
  8
TEXT
100
AcDbText
 10
194.4216048581257
 20
63.0896391972351
 30
0.0
 40
4.0
  1
Koeh
 41
0.8
  7
GREEKS
 72
     1
 11
199.6787477152685
 21
63.0896391972351
 31
0.0
100
AcDbText
  0
TEXT
  5
92
330
1E
100
AcDbEntity
  8
TEXT
 62
     1
100
AcDbText
 10
343.247717454267
 20
88.14901428913959
 30
0.0
 40
7.0
  1
00993080W
 41
0.8
  7
GREEKS
 72
     1
 11
367.247717454267
 21
88.14901428913959
 31
0.0
100
AcDbText
  0
TEXT
  5
93
330
1E
100
AcDbEntity
  8
TEXT
 62
     1
100
AcDbText
 10
150.5006306481887
 20
88.14901428913959
 30
0.0
 40
7.0
  1
1:2
 41
0.8
  7
GREEKS
100
AcDbText
  0
TEXT
  5
94
330
1E
100
AcDbEntity
  8
TEXT
100
AcDbText
 10
160.398997108236
 20
63.10765040825732
 30
0.0
 40
4.0
  1
28.03.
 41
0.8
  7
GREEKS
 72
     1
 11
167.4085209177598
 21
63.10765040825732
 31
0.0
100
AcDbText
  0
TEXT
  5
95
330
1E
100
AcDbEntity
  8
TEXT
 62
     1
100
AcDbText
 10
226.8935731057402
 20
87.41748789253779
 30
0.0
 40
7.0
  1
Rohrschelle   DN80
 41
0.8
  7
GREEKS
100
AcDbText
  0
TEXT
  5
96
330
1E
100
AcDbEntity
  8
TEXT
100
AcDbText
 10
225.1296391125315
 20
71.50334417585288
 30
0.0
 40
5.0
  1
mit Schlagstift
 41
0.8
  7
GREEKS
100
AcDbText
  0
TEXT
  5
98
330
1E
100
AcDbEntity
  8
TEXT
100
AcDbText
 10
225.1296391125315
 20
51.64011943042158
 30
0.0
 40
5.0
  1
EDV-Art.Nr. 00993.080X
 41
0.8
  7
GREEKS
100
AcDbText
  0
TEXT
  5
99
330
1E
100
AcDbEntity
  8
TEXT
100
AcDbText
 10
224.9837501577827
 20
42.62974153022632
 30
0.0
 40
4.0
  1
00993080W.DWG
 41
0.8
  7
GREEKS
100
AcDbText
  0
TEXT
  5
9A
330
1E
100
AcDbEntity
  8
TEXT
100
AcDbText
 10
182.626132208084
 20
90.76363841023022
 30
0.0
 40
4.0
  1
DIN EN1123-2
 41
0.8
  7
GREEKS
 72
     1
 11
199.6166083985602
 21
90.76363841023022
 31
0.0
100
AcDbText
  0
INSERT
  5
9B
330
1E
100
AcDbEntity
  8
STEMPEL
100
AcDbBlockReference
  2
LOGO
 10
140.9955485457794
 20
45.02105276448322
 30
0.0
 41
2.0
 42
2.0
 43
2.0
  0
TEXT
  5
118
330
1E
100
AcDbEntity
  8
BEM
100
AcDbText
 10
417.3022923857165
 20
10.16790107998849
 30
0.0
 40
4.0
  1
Diese Zeichnung ist urheberrechtlich geschützt und bleibt unser Eigentum. Sie darf weder ganz noch teilweise verfielfältigt und nicht an Dritte weitergegeben werden.
 50
90.0
 41
0.8
  7
GREEKS
100
AcDbText
  0
TEXT
  5
7A1
330
1E
100
AcDbEntity
  8
TEXT
 62
     1
100
AcDbText
 10
257.8365522679117
 20
115.6405708316599
 30
0.0
 40
7.0
  1
Werkstoff: St37 feuerverzinkt
 41
0.8
  7
GREEKS
100
AcDbText
  0
TEXT
  5
C1B
330
1E
100
AcDbEntity
  8
TEXT
 62
     1
100
AcDbText
 10
299.6787524399604
 20
476.32001516657
 30
0.0
 40
7.0
  1
Schraube M6x20
 41
0.8
  7
GREEKS
100
AcDbText
  0
LINE
  5
C1C
330
1E
100
AcDbEntity
  8
TEXT
 62
     2
100
AcDbLine
 10
297.5588594439149
 20
472.9401097496736
 30
0.0
 11
372.5605412615454
 21
472.9401097496736
 31
0.0
  0
LINE
  5
C1D
330
1E
100
AcDbEntity
  8
TEXT
 62
     2
100
AcDbLine
 10
297.5588594439149
 20
472.9401097496736
 30
0.0
 11
282.3203775482225
 21
452.046067385912
 31
0.0
  0
CIRCLE
  5
1542
330
1E
100
AcDbEntity
  8
STEMPEL
100
AcDbCircle
 10
276.1842613544288
 20
240.1912687110983
 30
0.0
 40
5.0
  0
LINE
  5
1543
330
1E
100
AcDbEntity
  8
HILF
100
AcDbLine
 10
276.9342613544288
 20
237.1232687110983
 30
0.0
 11
275.4342613544288
 21
237.1232687110983
 31
0.0
  0
LINE
  5
1544
330
1E
100
AcDbEntity
  8
HILF
100
AcDbLine
 10
276.9342613544288
 20
243.2602687110982
 30
0.0
 11
275.4342613544288
 21
243.2602687110982
 31
0.0
  0
LINE
  5
1545
330
1E
100
AcDbEntity
  8
HILF
100
AcDbLine
 10
274.1372613544287
 20
238.1452687110983
 30
0.0
 11
275.1942613544287
 21
239.4412687110982
 31
0.0
  0
LINE
  5
1546
330
1E
100
AcDbEntity
  8
HILF
100
AcDbLine
 10
275.4342613544288
 20
239.2022687110982
 30
0.0
 11
274.1372613544287
 21
238.1452687110983
 31
0.0
  0
LINE
  5
1547
330
1E
100
AcDbEntity
  8
HILF
100
AcDbLine
 10
278.2302613544288
 20
238.1452687110983
 30
0.0
 11
276.9342613544288
 21
239.2022687110982
 31
0.0
  0
LINE
  5
1548
330
1E
100
AcDbEntity
  8
HILF
100
AcDbLine
 10
277.1742613544288
 20
239.4412687110982
 30
0.0
 11
278.2302613544288
 21
238.1452687110983
 31
0.0
  0
LINE
  5
1549
330
1E
100
AcDbEntity
  8
HILF
100
AcDbLine
 10
278.2302613544288
 20
242.2382687110983
 30
0.0
 11
277.1742613544288
 21
240.9412687110982
 31
0.0
  0
LINE
  5
154A
330
1E
100
AcDbEntity
  8
HILF
100
AcDbLine
 10
276.9342613544288
 20
241.1812687110983
 30
0.0
 11
278.2302613544288
 21
242.2382687110983
 31
0.0
  0
LINE
  5
154B
330
1E
100
AcDbEntity
  8
HILF
100
AcDbLine
 10
274.1372613544287
 20
242.2382687110983
 30
0.0
 11
275.4342613544288
 21
241.1812687110983
 31
0.0
  0
LINE
  5
154C
330
1E
100
AcDbEntity
  8
HILF
100
AcDbLine
 10
275.1942613544287
 20
240.9412687110982
 30
0.0
 11
274.1372613544287
 21
242.2382687110983
 31
0.0
  0
ARC
  5
154D
330
1E
100
AcDbEntity
  8
HILF
100
AcDbCircle
 10
276.1842613544288
 20
240.1912687110983
 30
0.0
 40
1.274999999999999
100
AcDbArc
 50
143.9687949600013
 51
216.0312050399987
  0
ARC
  5
154E
330
1E
100
AcDbEntity
  8
HILF
100
AcDbCircle
 10
276.1842613544288
 20
240.1912687110983
 30
0.0
 40
1.274999999999999
100
AcDbArc
 50
233.9687889640013
 51
306.0312110359987
  0
ARC
  5
154F
330
1E
100
AcDbEntity
  8
HILF
100
AcDbCircle
 10
276.1842613544288
 20
240.1912687110983
 30
0.0
 40
1.274999999999999
100
AcDbArc
 50
323.9688056879998
 51
36.03120503999869
  0
ARC
  5
1550
330
1E
100
AcDbEntity
  8
HILF
100
AcDbCircle
 10
276.1842613544288
 20
240.1912687110983
 30
0.0
 40
1.274999999999999
100
AcDbArc
 50
53.96878896400135
 51
126.0312110359986
  0
LINE
  5
1551
330
1E
100
AcDbEntity
  8
STEMPEL
100
AcDbLine
 10
275.4342613544288
 20
241.1412687110983
 30
0.0
 11
275.4342613544288
 21
245.1352687110983
 31
0.0
  0
ARC
  5
1552
330
1E
100
AcDbEntity
  8
STEMPEL
100
AcDbCircle
 10
275.2342613544287
 20
241.1412687110983
 30
0.0
 40
0.2
100
AcDbArc
 50
270.0
 51
0.0087434430012266
  0
LINE
  5
1553
330
1E
100
AcDbEntity
  8
STEMPEL
100
AcDbLine
 10
272.8342613544287
 20
240.9412687110982
 30
0.0
 11
275.2342613544287
 21
240.9412687110982
 31
0.0
  0
LINE
  5
1554
330
1E
100
AcDbEntity
  8
STEMPEL
100
AcDbLine
 10
272.8342613544287
 20
239.4412687110982
 30
0.0
 11
272.8342613544287
 21
240.9412687110982
 31
0.0
  0
LINE
  5
1555
330
1E
100
AcDbEntity
  8
STEMPEL
100
AcDbLine
 10
275.2342613544287
 20
239.4412687110982
 30
0.0
 11
272.8342613544287
 21
239.4412687110982
 31
0.0
  0
ARC
  5
1556
330
1E
100
AcDbEntity
  8
STEMPEL
100
AcDbCircle
 10
275.2342613544287
 20
239.2412687110982
 30
0.0
 40
0.2
100
AcDbArc
 50
0.0
 51
90.0
  0
LINE
  5
1557
330
1E
100
AcDbEntity
  8
STEMPEL
100
AcDbLine
 10
275.4342613544288
 20
235.2482687110982
 30
0.0
 11
275.4342613544288
 21
239.2412687110982
 31
0.0
  0
LINE
  5
1558
330
1E
100
AcDbEntity
  8
STEMPEL
100
AcDbLine
 10
276.9342613544288
 20
239.2412687110982
 30
0.0
 11
276.9342613544288
 21
235.2482687110982
 31
0.0
  0
ARC
  5
1559
330
1E
100
AcDbEntity
  8
STEMPEL
100
AcDbCircle
 10
277.1342613544288
 20
239.2412687110982
 30
0.0
 40
0.2
100
AcDbArc
 50
90.0
 51
180.0
  0
LINE
  5
155A
330
1E
100
AcDbEntity
  8
STEMPEL
100
AcDbLine
 10
279.5342613544288
 20
239.4412687110982
 30
0.0
 11
277.1342613544288
 21
239.4412687110982
 31
0.0
  0
LINE
  5
155B
330
1E
100
AcDbEntity
  8
STEMPEL
100
AcDbLine
 10
279.5342613544288
 20
240.9412687110982
 30
0.0
 11
279.5342613544288
 21
239.4412687110982
 31
0.0
  0
LINE
  5
155C
330
1E
100
AcDbEntity
  8
STEMPEL
100
AcDbLine
 10
277.1342613544288
 20
240.9412687110982
 30
0.0
 11
279.5342613544288
 21
240.9412687110982
 31
0.0
  0
ARC
  5
155D
330
1E
100
AcDbEntity
  8
STEMPEL
100
AcDbCircle
 10
277.1342613544288
 20
241.1412687110983
 30
0.0
 40
0.2
100
AcDbArc
 50
180.0
 51
270.0087434429996
  0
LINE
  5
155E
330
1E
100
AcDbEntity
  8
STEMPEL
100
AcDbLine
 10
276.9342613544288
 20
245.1352687110983
 30
0.0
 11
276.9342613544288
 21
241.1412687110983
 31
0.0
  0
CIRCLE
  5
155F
330
1E
100
AcDbEntity
  8
STEMPEL
100
AcDbCircle
 10
171.1832613544287
 20
240.1912687110983
 30
0.0
 40
5.0
  0
LINE
  5
1560
330
1E
100
AcDbEntity
  8
HILF
100
AcDbLine
 10
171.9332613544287
 20
237.1232687110983
 30
0.0
 11
170.4332613544287
 21
237.1232687110983
 31
0.0
  0
LINE
  5
1561
330
1E
100
AcDbEntity
  8
HILF
100
AcDbLine
 10
171.9332613544287
 20
243.2602687110982
 30
0.0
 11
170.4332613544287
 21
243.2602687110982
 31
0.0
  0
LINE
  5
1562
330
1E
100
AcDbEntity
  8
HILF
100
AcDbLine
 10
169.1362613544287
 20
238.1452687110983
 30
0.0
 11
170.1932613544287
 21
239.4412687110982
 31
0.0
  0
LINE
  5
1563
330
1E
100
AcDbEntity
  8
HILF
100
AcDbLine
 10
170.4332613544287
 20
239.2022687110982
 30
0.0
 11
169.1362613544287
 21
238.1452687110983
 31
0.0
  0
LINE
  5
1564
330
1E
100
AcDbEntity
  8
HILF
100
AcDbLine
 10
173.2292613544287
 20
238.1452687110983
 30
0.0
 11
171.9332613544287
 21
239.2022687110982
 31
0.0
  0
LINE
  5
1565
330
1E
100
AcDbEntity
  8
HILF
100
AcDbLine
 10
172.1732613544287
 20
239.4412687110982
 30
0.0
 11
173.2292613544287
 21
238.1452687110983
 31
0.0
  0
LINE
  5
1566
330
1E
100
AcDbEntity
  8
HILF
100
AcDbLine
 10
173.2292613544287
 20
242.2382687110983
 30
0.0
 11
172.1732613544287
 21
240.9412687110982
 31
0.0
  0
LINE
  5
1567
330
1E
100
AcDbEntity
  8
HILF
100
AcDbLine
 10
171.9332613544287
 20
241.1812687110983
 30
0.0
 11
173.2292613544287
 21
242.2382687110983
 31
0.0
  0
LINE
  5
1568
330
1E
100
AcDbEntity
  8
HILF
100
AcDbLine
 10
169.1362613544287
 20
242.2382687110983
 30
0.0
 11
170.4332613544287
 21
241.1812687110983
 31
0.0
  0
LINE
  5
1569
330
1E
100
AcDbEntity
  8
HILF
100
AcDbLine
 10
170.1932613544287
 20
240.9412687110982
 30
0.0
 11
169.1362613544287
 21
242.2382687110983
 31
0.0
  0
ARC
  5
156A
330
1E
100
AcDbEntity
  8
HILF
100
AcDbCircle
 10
171.1832613544287
 20
240.1912687110983
 30
0.0
 40
1.274999999999999
100
AcDbArc
 50
143.9687949600013
 51
216.0312050399987
  0
ARC
  5
156B
330
1E
100
AcDbEntity
  8
HILF
100
AcDbCircle
 10
171.1832613544287
 20
240.1912687110983
 30
0.0
 40
1.274999999999999
100
AcDbArc
 50
233.9687889640013
 51
306.0312110359987
  0
ARC
  5
156C
330
1E
100
AcDbEntity
  8
HILF
100
AcDbCircle
 10
171.1832613544287
 20
240.1912687110983
 30
0.0
 40
1.274999999999999
100
AcDbArc
 50
323.9688056879998
 51
36.03120503999869
  0
ARC
  5
156D
330
1E
100
AcDbEntity
  8
HILF
100
AcDbCircle
 10
171.1832613544287
 20
240.1912687110983
 30
0.0
 40
1.274999999999999
100
AcDbArc
 50
53.96878896400135
 51
126.0312110359986
  0
LINE
  5
156E
330
1E
100
AcDbEntity
  8
STEMPEL
100
AcDbLine
 10
170.4332613544287
 20
241.1412687110983
 30
0.0
 11
170.4332613544287
 21
245.1352687110983
 31
0.0
  0
ARC
  5
156F
330
1E
100
AcDbEntity
  8
STEMPEL
100
AcDbCircle
 10
170.2332613544287
 20
241.1412687110983
 30
0.0
 40
0.2
100
AcDbArc
 50
270.0
 51
0.0087434430012266
  0
LINE
  5
1570
330
1E
100
AcDbEntity
  8
STEMPEL
100
AcDbLine
 10
167.8332613544287
 20
240.9412687110982
 30
0.0
 11
170.2332613544287
 21
240.9412687110982
 31
0.0
  0
LINE
  5
1571
330
1E
100
AcDbEntity
  8
STEMPEL
100
AcDbLine
 10
167.8332613544287
 20
239.4412687110982
 30
0.0
 11
167.8332613544287
 21
240.9412687110982
 31
0.0
  0
LINE
  5
1572
330
1E
100
AcDbEntity
  8
STEMPEL
100
AcDbLine
 10
170.2332613544287
 20
239.4412687110982
 30
0.0
 11
167.8332613544287
 21
239.4412687110982
 31
0.0
  0
LINE
  5
1574
330
1E
100
AcDbEntity
  8
STEMPEL
100
AcDbLine
 10
170.4332613544287
 20
235.2482687110982
 30
0.0
 11
170.4332613544287
 21
239.2412687110982
 31
0.0
  0
LINE
  5
1575
330
1E
100
AcDbEntity
  8
STEMPEL
100
AcDbLine
 10
171.9332613544287
 20
239.2412687110982
 30
0.0
 11
171.9332613544287
 21
235.2482687110982
 31
0.0
  0
ARC
  5
1576
330
1E
100
AcDbEntity
  8
STEMPEL
100
AcDbCircle
 10
172.1332613544287
 20
239.2412687110982
 30
0.0
 40
0.2
100
AcDbArc
 50
90.0
 51
180.0
  0
LINE
  5
1577
330
1E
100
AcDbEntity
  8
STEMPEL
100
AcDbLine
 10
174.5332613544287
 20
239.4412687110982
 30
0.0
 11
172.1332613544287
 21
239.4412687110982
 31
0.0
  0
LINE
  5
1578
330
1E
100
AcDbEntity
  8
STEMPEL
100
AcDbLine
 10
174.5332613544287
 20
240.9412687110982
 30
0.0
 11
174.5332613544287
 21
239.4412687110982
 31
0.0
  0
LINE
  5
1579
330
1E
100
AcDbEntity
  8
STEMPEL
100
AcDbLine
 10
172.1332613544287
 20
240.9412687110982
 30
0.0
 11
174.5332613544287
 21
240.9412687110982
 31
0.0
  0
ARC
  5
157A
330
1E
100
AcDbEntity
  8
STEMPEL
100
AcDbCircle
 10
172.1332613544287
 20
241.1412687110983
 30
0.0
 40
0.2
100
AcDbArc
 50
180.0
 51
270.0087434429996
  0
LINE
  5
157B
330
1E
100
AcDbEntity
  8
STEMPEL
100
AcDbLine
 10
171.9332613544287
 20
245.1352687110983
 30
0.0
 11
171.9332613544287
 21
241.1412687110983
 31
0.0
  0
LINE
  5
1581
330
1E
100
AcDbEntity
  8
MITTEL
100
AcDbLine
 10
223.6832613544287
 20
257.6912687110982
 30
0.0
 11
223.6832613544287
 21
222.6912687110983
 31
0.0
  0
LINE
  5
1582
330
1E
100
AcDbEntity
  8
MITTEL
100
AcDbLine
 10
171.1832613544287
 20
250.1912687110983
 30
0.0
 11
171.1832613544287
 21
230.1912687110982
 31
0.0
  0
LINE
  5
1583
330
1E
100
AcDbEntity
  8
MITTEL
100
AcDbLine
 10
157.1832613544287
 20
240.1912687110983
 30
0.0
 11
290.1842613544287
 21
240.1912687110983
 31
0.0
  0
LINE
  5
1584
330
1E
100
AcDbEntity
  8
HILF
100
AcDbLine
 10
276.1842613544288
 20
230.1912687110982
 30
0.0
 11
276.1842613544288
 21
250.1912687110983
 31
0.0
  0
LINE
  5
1589
330
1E
100
AcDbEntity
  8
STEMPEL
100
AcDbLine
 10
167.1822613544287
 20
227.6912687110983
 30
0.0
 11
280.1842613544287
 21
227.6912687110983
 31
0.0
  0
LINE
  5
158A
330
1E
100
AcDbEntity
  8
STEMPEL
100
AcDbLine
 10
280.1842613544287
 20
252.6912687110983
 30
0.0
 11
167.1822613544286
 21
252.6912687110983
 31
0.0
  0
ARC
  5
15C4
330
1E
100
AcDbEntity
  8
STEMPEL
100
AcDbCircle
 10
172.9332613544287
 20
444.2202670459197
 30
0.0
 40
0.5
100
AcDbArc
 50
90.0
 51
180.0
  0
LINE
  5
15C5
330
1E
100
AcDbEntity
  8
STEMPEL
100
AcDbLine
 10
172.4332613544287
 20
444.2202670459197
 30
0.0
 11
172.4332613544287
 21
443.2202670459197
 31
0.0
  0
LINE
  5
15C6
330
1E
100
AcDbEntity
  8
STEMPEL
100
AcDbLine
 10
172.4332613544287
 20
443.2202670459197
 30
0.0
 11
164.9332613544287
 21
443.2202670459197
 31
0.0
  0
ARC
  5
15C7
330
1E
100
AcDbEntity
  8
STEMPEL
100
AcDbCircle
 10
164.4332613544287
 20
444.2202670459197
 30
0.0
 40
0.5
100
AcDbArc
 50
0.0
 51
90.0
  0
LINE
  5
15C8
330
1E
100
AcDbEntity
  8
STEMPEL
100
AcDbLine
 10
164.9332613544287
 20
443.2202670459197
 30
0.0
 11
164.9332613544287
 21
444.2202670459197
 31
0.0
  0
LINE
  5
15D9
330
1E
100
AcDbEntity
  8
STEMPEL
100
AcDbLine
 10
234.7262599434682
 20
396.7150651080002
 30
0.0
 11
212.6402627653893
 21
396.7150651080002
 31
0.0
  0
LINE
  5
15E6
330
1E
100
AcDbEntity
  8
STEMPEL
100
AcDbLine
 10
212.6402627653893
 20
394.7150651080002
 30
0.0
 11
234.7262599434681
 21
394.7150651080001
 31
0.0
  0
LINE
  5
15FF
330
1E
100
AcDbEntity
  8
STEMPEL
100
AcDbLine
 10
173.6832613544287
 20
450.7202673096474
 30
0.0
 11
173.6832613544287
 21
453.1812673096474
 31
0.0
  0
LINE
  5
1600
330
1E
100
AcDbEntity
  8
HILF
100
AcDbLine
 10
169.9332613544287
 20
453.1812673096474
 30
0.0
 11
173.1832613544287
 21
453.1812673096474
 31
0.0
  0
ARC
  5
1601
330
1E
100
AcDbEntity
  8
STEMPEL
100
AcDbCircle
 10
168.6832613544287
 20
444.5202673096473
 30
0.0
 40
10.0
100
AcDbArc
 50
59.99999358400034
 51
85.98594517699961
  0
LINE
  5
1602
330
1E
100
AcDbEntity
  8
STEMPEL
100
AcDbLine
 10
169.3832613544287
 20
454.4962673096474
 30
0.0
 11
169.3832613544287
 21
452.8922673096473
 31
0.0
  0
LINE
  5
1603
330
1E
100
AcDbEntity
  8
STEMPEL
100
AcDbLine
 10
169.3832613544287
 20
452.8922673096473
 30
0.0
 11
167.9832613544287
 21
452.8922673096473
 31
0.0
  0
LINE
  5
1604
330
1E
100
AcDbEntity
  8
STEMPEL
100
AcDbLine
 10
167.9832613544287
 20
452.8922673096473
 30
0.0
 11
167.9832613544287
 21
454.4962673096474
 31
0.0
  0
LINE
  5
1605
330
1E
100
AcDbEntity
  8
HILF
100
AcDbLine
 10
164.1832613544287
 20
453.1812673096474
 30
0.0
 11
167.4332613544287
 21
453.1812673096474
 31
0.0
  0
ARC
  5
1606
330
1E
100
AcDbEntity
  8
STEMPEL
100
AcDbCircle
 10
168.6832613544287
 20
444.5202673096473
 30
0.0
 40
10.0
100
AcDbArc
 50
94.01396748799905
 51
119.9999850770009
  0
LINE
  5
1607
330
1E
100
AcDbEntity
  8
STEMPEL
100
AcDbLine
 10
163.6832613544287
 20
453.1812673096474
 30
0.0
 11
163.6832613544287
 21
450.7202673096474
 31
0.0
  0
LINE
  5
160A
330
1E
100
AcDbEntity
  8
STEMPEL
100
AcDbLine
 10
171.6832613544287
 20
446.719377649013
 30
0.0
 11
171.6832613544287
 21
448.7202672217381
 31
0.0
  0
LINE
  5
160B
330
1E
100
AcDbEntity
  8
HILF
100
AcDbLine
 10
170.9832613544287
 20
446.7195851954701
 30
0.0
 11
170.9832613544287
 21
448.2202672217381
 31
0.0
  0
LINE
  5
160C
330
1E
100
AcDbEntity
  8
STEMPEL
100
AcDbLine
 10
165.6832613544287
 20
448.2202672217381
 30
0.0
 11
171.6832613544287
 21
448.2202672217381
 31
0.0
  0
LINE
  5
160D
330
1E
100
AcDbEntity
  8
HILF
100
AcDbLine
 10
166.3832613544287
 20
446.7209490721877
 30
0.0
 11
166.3832613544287
 21
448.2202672217381
 31
0.0
  0
LINE
  5
160E
330
1E
100
AcDbEntity
  8
STEMPEL
100
AcDbLine
 10
165.6832613544287
 20
446.7211566186448
 30
0.0
 11
165.6832613544287
 21
448.7202672217381
 31
0.0
  0
LINE
  5
160F
330
1E
100
AcDbEntity
  8
STEMPEL
100
AcDbLine
 10
165.6832613544287
 20
432.7202664305549
 30
0.0
 11
165.6832613544287
 21
443.2202670459197
 31
0.0
  0
LINE
  5
1610
330
1E
100
AcDbEntity
  8
HILF
100
AcDbLine
 10
166.3832613544287
 20
431.5082664305549
 30
0.0
 11
166.3832613544287
 21
443.2202670459197
 31
0.0
  0
LINE
  5
1611
330
1E
100
AcDbEntity
  8
STEMPEL
100
AcDbLine
 10
165.6832613544287
 20
432.7202664305549
 30
0.0
 11
166.8372613544287
 21
430.7202664305549
 31
0.0
  0
LINE
  5
1612
330
1E
100
AcDbEntity
  8
STEMPEL
100
AcDbLine
 10
166.8372613544287
 20
430.7202664305549
 30
0.0
 11
170.5282613544287
 21
430.7202664305549
 31
0.0
  0
LINE
  5
1613
330
1E
100
AcDbEntity
  8
STEMPEL
100
AcDbLine
 10
170.5282613544287
 20
430.7202664305549
 30
0.0
 11
171.6832613544287
 21
432.7202664305549
 31
0.0
  0
LINE
  5
1614
330
1E
100
AcDbEntity
  8
STEMPEL
100
AcDbLine
 10
171.6832613544287
 20
432.7202664305549
 30
0.0
 11
165.6832613544287
 21
432.7202664305549
 31
0.0
  0
LINE
  5
1615
330
1E
100
AcDbEntity
  8
HILF
100
AcDbLine
 10
170.9832613544287
 20
431.5082664305549
 30
0.0
 11
170.9832613544287
 21
443.2202670459197
 31
0.0
  0
LINE
  5
1616
330
1E
100
AcDbEntity
  8
STEMPEL
100
AcDbLine
 10
171.6832613544287
 20
432.7202664305549
 30
0.0
 11
171.6832613544287
 21
443.2202670459197
 31
0.0
  0
LINE
  5
161B
330
1E
100
AcDbEntity
  8
MITTEL
100
AcDbLine
 10
223.6832613544287
 20
289.7150651080001
 30
0.0
 11
223.6832613544287
 21
494.7054426703173
 31
0.0
  0
DIMENSION
  5
1644
330
1E
100
AcDbEntity
  8
TEXT
100
AcDbDimension
  2
*D1
 10
276.1842613544288
 20
207.349758621164
 30
0.0
 11
223.6837613544288
 21
213.849758621164
 31
0.0
 70
    32
 71
     5
 42
105.001
  3
Standard
100
AcDbAlignedDimension
 13
171.1832613544287
 23
230.1912687110982
 33
0.0
 14
276.1842613544288
 24
230.1912687110982
 34
0.0
100
AcDbRotatedDimension
1001
ACAD
1000
DSTYLE
1002
{
1070
    40
1040
2.0
1070
    41
1040
3.5
1070
    42
1040
1.0
1070
    43
1040
7.0
1070
    44
1040
1.0
1070
    73
1070
     0
1070
    74
1070
     0
1070
    77
1070
     1
1070
    78
1070
     8
1070
    79
1070
     2
1070
   140
1040
3.5
1070
   141
1040
1.5
1070
   146
1040
0.5
1070
   147
1040
1.5
1070
   172
1070
     1
1070
   178
1070
     1
1070
   179
1070
     2
1070
   271
1070
     2
1070
   272
1070
     2
1070
   284
1070
     8
1070
   285
1070
     8
1070
   286
1070
     8
1002
}
  0
DIMENSION
  5
1651
330
1E
100
AcDbEntity
  8
TEXT
100
AcDbDimension
  2
*D2
 10
285.1842613544288
 20
191.0629101394027
 30
0.0
 11
223.6837613544288
 21
197.5629101394027
 31
0.0
 70
    32
 71
     5
 42
123.001
  3
Standard
100
AcDbAlignedDimension
 13
162.1832613544287
 23
240.1912687110983
 33
0.0
 14
285.1842613544288
 24
240.1912687110983
 34
0.0
100
AcDbRotatedDimension
1001
ACAD
1000
DSTYLE
1002
{
1070
    40
1040
2.0
1070
    41
1040
3.5
1070
    42
1040
1.0
1070
    43
1040
7.0
1070
    44
1040
1.0
1070
    73
1070
     0
1070
    74
1070
     0
1070
    77
1070
     1
1070
    78
1070
     8
1070
    79
1070
     2
1070
   140
1040
3.5
1070
   141
1040
1.5
1070
   146
1040
0.5
1070
   147
1040
1.5
1070
   172
1070
     1
1070
   178
1070
     1
1070
   179
1070
     2
1070
   271
1070
     2
1070
   272
1070
     2
1070
   284
1070
     8
1070
   285
1070
     8
1070
   286
1070
     8
1002
}
  0
DIMENSION
  5
16C4
330
1E
100
AcDbEntity
  8
BEM
100
AcDbDimension
  2
*D3
 10
158.0300075932118
 20
394.7150651080002
 30
0.0
 11
151.5300075932118
 21
344.7150651080002
 31
0.0
 70
    32
 71
     5
 42
100.0
  3
Standard
100
AcDbAlignedDimension
 13
223.6832613544287
 23
294.7150651080002
 33
0.0
 14
213.1832613544287
 24
394.7150651080002
 34
0.0
 50
90.0
100
AcDbRotatedDimension
1001
ACAD
1000
DSTYLE
1002
{
1070
    40
1040
2.0
1070
    41
1040
3.5
1070
    42
1040
1.0
1070
    43
1040
7.0
1070
    44
1040
1.0
1070
    73
1070
     0
1070
    74
1070
     0
1070
    77
1070
     1
1070
    78
1070
     8
1070
    79
1070
     2
1070
   140
1040
3.5
1070
   141
1040
1.5
1070
   146
1040
0.5
1070
   147
1040
1.5
1070
   172
1070
     1
1070
   178
1070
     1
1070
   179
1070
     2
1070
   271
1070
     2
1070
   272
1070
     2
1070
   284
1070
     8
1070
   285
1070
     8
1070
   286
1070
     8
1002
}
  0
DIMENSION
  5
16D1
330
1E
100
AcDbEntity
  8
BEM
100
AcDbDimension
  2
*D4
 10
136.4600654450069
 20
294.7150651080002
 30
0.0
 11
129.9600654450068
 21
392.2154425587929
 31
0.0
 70
    32
 71
     5
 42
195.0007549015854
  3
Standard
100
AcDbAlignedDimension
 13
185.6823983329369
 23
489.7158200095855
 33
0.0
 14
223.6832613544287
 24
294.7150651080002
 34
0.0
 50
90.0
100
AcDbRotatedDimension
1001
ACAD
1000
DSTYLE
1002
{
1070
    40
1040
2.0
1070
    41
1040
3.5
1070
    42
1040
1.0
1070
    43
1040
7.0
1070
    44
1040
1.0
1070
    73
1070
     0
1070
    74
1070
     0
1070
    77
1070
     1
1070
    78
1070
     8
1070
    79
1070
     2
1070
   140
1040
3.5
1070
   141
1040
1.5
1070
   146
1040
0.5
1070
   147
1040
1.5
1070
   172
1070
     1
1070
   178
1070
     1
1070
   179
1070
     2
1070
   271
1070
     2
1070
   272
1070
     2
1070
   284
1070
     8
1070
   285
1070
     8
1070
   286
1070
     8
1002
}
  0
LINE
  5
1773
330
1E
100
AcDbEntity
  8
STEMPEL
100
AcDbLine
 10
183.6823983329368
 20
409.7158200095856
 30
0.0
 11
183.6823983329368
 21
442.7170057695671
 31
0.0
  0
LINE
  5
1774
330
1E
100
AcDbEntity
  8
STEMPEL
100
AcDbLine
 10
263.6832613544287
 20
409.695065108
 30
0.0
 11
263.6832613544288
 21
442.6938789084725
 31
0.0
  0
LINE
  5
1775
330
1E
100
AcDbEntity
  8
STEMPEL
100
AcDbLine
 10
185.6823983329368
 20
407.7158200095856
 30
0.0
 11
204.7262599434682
 21
407.695065108
 31
0.0
  0
LINE
  5
1785
330
1E
100
AcDbEntity
  8
STEMPEL
100
AcDbLine
 10
185.6823983329368
 20
405.7158200095856
 30
0.0
 11
206.1832613544288
 21
405.6950651080001
 31
0.0
  0
LINE
  5
1786
330
1E
100
AcDbEntity
  8
STEMPEL
100
AcDbLine
 10
265.6832613544287
 20
409.695065108
 30
0.0
 11
265.6832613544287
 21
442.6938789084725
 31
0.0
  0
LINE
  5
1787
330
1E
100
AcDbEntity
  8
STEMPEL
100
AcDbLine
 10
181.6823983329368
 20
409.7158200095856
 30
0.0
 11
181.6823983329368
 21
442.717005769567
 31
0.0
  0
LINE
  5
1788
330
1E
100
AcDbEntity
  8
STEMPEL
100
AcDbLine
 10
185.6823983329369
 20
487.7158200095855
 30
0.0
 11
261.6832613544287
 21
487.6950651079999
 31
0.0
  0
LINE
  5
1789
330
1E
100
AcDbEntity
  8
STEMPEL
100
AcDbLine
 10
185.6823983329369
 20
489.7158200095855
 30
0.0
 11
261.6832613544287
 21
489.6950651079999
 31
0.0
  0
ARC
  5
178A
330
1E
100
AcDbEntity
  8
STEMPEL
100
AcDbCircle
 10
261.6832613544287
 20
485.6950651079999
 30
0.0
 40
2.0
100
AcDbArc
 50
360.0
 51
89.99999999999994
  0
ARC
  5
178B
330
1E
100
AcDbEntity
  8
STEMPEL
100
AcDbCircle
 10
185.6823983329369
 20
485.7158200095855
 30
0.0
 40
2.0
100
AcDbArc
 50
89.99999999999985
 51
180.0
  0
ARC
  5
178C
330
1E
100
AcDbEntity
  8
STEMPEL
100
AcDbCircle
 10
261.6832613544287
 20
409.695065108
 30
0.0
 40
2.0
100
AcDbArc
 50
269.9999999999999
 51
360.0
  0
ARC
  5
178D
330
1E
100
AcDbEntity
  8
STEMPEL
100
AcDbCircle
 10
185.6823983329368
 20
409.7158200095856
 30
0.0
 40
2.0
100
AcDbArc
 50
180.0
 51
269.9999999999999
  0
ARC
  5
178E
330
1E
100
AcDbEntity
  8
STEMPEL
100
AcDbCircle
 10
261.6832613544287
 20
485.6950651079999
 30
0.0
 40
4.0
100
AcDbArc
 50
360.0
 51
89.99999999999994
  0
ARC
  5
178F
330
1E
100
AcDbEntity
  8
STEMPEL
100
AcDbCircle
 10
185.6823983329369
 20
485.7158200095855
 30
0.0
 40
4.0
100
AcDbArc
 50
89.99999999999985
 51
180.0
  0
ARC
  5
1790
330
1E
100
AcDbEntity
  8
STEMPEL
100
AcDbCircle
 10
261.6832613544287
 20
409.695065108
 30
0.0
 40
4.0
100
AcDbArc
 50
269.9999999999999
 51
360.0
  0
ARC
  5
1791
330
1E
100
AcDbEntity
  8
STEMPEL
100
AcDbCircle
 10
185.6823983329368
 20
409.7158200095856
 30
0.0
 40
4.0
100
AcDbArc
 50
180.0
 51
269.9999999999999
  0
LINE
  5
1796
330
1E
100
AcDbEntity
  8
STEMPEL
100
AcDbLine
 10
240.7365732475542
 20
404.3082259512416
 30
0.0
 11
238.5336389791382
 21
397.4887434215167
 31
0.0
  0
LINE
  5
1797
330
1E
100
AcDbEntity
  8
STEMPEL
100
AcDbLine
 10
238.8328837297192
 20
404.9213867944834
 30
0.0
 11
236.6299494613032
 21
398.1019042647584
 31
0.0
  0
LINE
  5
1798
330
1E
100
AcDbEntity
  8
STEMPEL
100
AcDbLine
 10
208.5336389791383
 20
404.9213867944834
 30
0.0
 11
210.7365732475543
 21
398.1019042647584
 31
0.0
  0
LINE
  5
1799
330
1E
100
AcDbEntity
  8
STEMPEL
100
AcDbLine
 10
206.1832613544287
 20
405.695065108
 30
0.0
 11
208.8328837297192
 21
397.4887434215168
 31
0.0
  0
LINE
  5
179A
330
1E
100
AcDbEntity
  8
STEMPEL
100
AcDbLine
 10
242.6402627653894
 20
407.695065108
 30
0.0
 11
261.6832613544287
 21
407.695065108
 31
0.0
  0
LINE
  5
179B
330
1E
100
AcDbEntity
  8
STEMPEL
100
AcDbLine
 10
242.6402627653893
 20
405.695065108
 30
0.0
 11
261.6832613544287
 21
405.695065108
 31
0.0
  0
ARC
  5
179D
330
1E
100
AcDbEntity
  8
STEMPEL
100
AcDbCircle
 10
242.6402627653894
 20
403.695065108
 30
0.0
 40
4.0
100
AcDbArc
 50
90.0
 51
162.1467288511575
  0
ARC
  5
179E
330
1E
100
AcDbEntity
  8
STEMPEL
100
AcDbCircle
 10
234.7262599434681
 20
398.7150651080001
 30
0.0
 40
4.0
100
AcDbArc
 50
269.9999999999999
 51
342.1467288511576
  0
ARC
  5
179F
330
1E
100
AcDbEntity
  8
STEMPEL
100
AcDbCircle
 10
204.7262599434682
 20
403.695065108
 30
0.0
 40
4.0
100
AcDbArc
 50
17.85327114884242
 51
89.99999999999982
  0
ARC
  5
17A0
330
1E
100
AcDbEntity
  8
STEMPEL
100
AcDbCircle
 10
212.6402627653893
 20
398.7150651080002
 30
0.0
 40
4.0
100
AcDbArc
 50
197.8532711488424
 51
269.9999999999999
  0
ARC
  5
17A1
330
1E
100
AcDbEntity
  8
STEMPEL
100
AcDbCircle
 10
242.6402627653893
 20
403.6950651079999
 30
0.0
 40
2.0
100
AcDbArc
 50
90.00000000000019
 51
162.1467288511573
  0
ARC
  5
17A2
330
1E
100
AcDbEntity
  8
STEMPEL
100
AcDbCircle
 10
234.7262599434682
 20
398.7150651080002
 30
0.0
 40
2.0
100
AcDbArc
 50
270.0000000000001
 51
342.1467288511572
  0
ARC
  5
17A3
330
1E
100
AcDbEntity
  8
STEMPEL
100
AcDbCircle
 10
212.6402627653893
 20
398.7150651080002
 30
0.0
 40
2.0
100
AcDbArc
 50
197.8532711488424
 51
270.0000000000001
  0
LINE
  5
17AE
330
1E
100
AcDbEntity
  8
STEMPEL
100
AcDbLine
 10
159.6832613544287
 20
448.7229356761857
 30
0.0
 11
179.6812123532344
 21
448.7170063849317
 31
0.0
  0
LINE
  5
17AF
330
1E
100
AcDbEntity
  8
STEMPEL
100
AcDbLine
 10
159.6832613544287
 20
446.7229355882767
 30
0.0
 11
179.6835843126392
 21
446.7170055937486
 31
0.0
  0
LINE
  5
17B2
330
1E
100
AcDbEntity
  8
STEMPEL
100
AcDbLine
 10
159.6832613544287
 20
444.7229355003674
 30
0.0
 11
159.6832613544287
 21
446.7229355882766
 31
0.0
  0
LINE
  5
17B3
330
1E
100
AcDbEntity
  8
STEMPEL
100
AcDbLine
 10
287.6832613544287
 20
444.687949097609
 30
0.0
 11
287.6832613544287
 21
446.6879491855182
 31
0.0
  0
LINE
  5
17B4
330
1E
100
AcDbEntity
  8
STEMPEL
100
AcDbLine
 10
159.6832613544287
 20
450.722935764095
 30
0.0
 11
179.6818053430856
 21
450.7170062970224
 31
0.0
  0
LINE
  5
17B5
330
1E
100
AcDbEntity
  8
STEMPEL
100
AcDbLine
 10
159.6832613544287
 20
444.7229355003674
 30
0.0
 11
179.6829913227879
 21
444.7170056816577
 31
0.0
  0
LINE
  5
17B6
330
1E
100
AcDbEntity
  8
STEMPEL
100
AcDbLine
 10
287.6832613544287
 20
448.6879492734275
 30
0.0
 11
287.6832613544287
 21
450.6879493613367
 31
0.0
  0
LINE
  5
17B7
330
1E
100
AcDbEntity
  8
STEMPEL
100
AcDbLine
 10
159.6832613544287
 20
448.7229356761858
 30
0.0
 11
159.6832613544286
 21
450.7229357640949
 31
0.0
  0
LINE
  5
17B8
330
1E
100
AcDbEntity
  8
STEMPEL
100
AcDbLine
 10
263.6832613544287
 20
452.6938793480186
 30
0.0
 11
263.6832613544287
 21
485.6950651079999
 31
0.0
  0
LINE
  5
17B9
330
1E
100
AcDbEntity
  8
STEMPEL
100
AcDbLine
 10
265.6832613544287
 20
452.6938793480186
 30
0.0
 11
265.6832613544287
 21
485.6950651079999
 31
0.0
  0
LINE
  5
17BA
330
1E
100
AcDbEntity
  8
STEMPEL
100
AcDbLine
 10
183.6823983329368
 20
452.7170062091132
 30
0.0
 11
183.6823983329369
 21
485.7158200095855
 31
0.0
  0
LINE
  5
17BB
330
1E
100
AcDbEntity
  8
STEMPEL
100
AcDbLine
 10
181.6823983329368
 20
452.7170062091132
 30
0.0
 11
181.6823983329369
 21
485.7158200095855
 31
0.0
  0
LINE
  5
17BC
330
1E
100
AcDbEntity
  8
STEMPEL
100
AcDbLine
 10
267.6826683645775
 20
450.6938794359278
 30
0.0
 11
287.6832613544287
 21
450.6879493613367
 31
0.0
  0
LINE
  5
17BD
330
1E
100
AcDbEntity
  8
STEMPEL
100
AcDbLine
 10
267.6820753747264
 20
448.6938795238371
 30
0.0
 11
287.6832613544287
 21
448.6879492734275
 31
0.0
  0
LINE
  5
17BE
330
1E
100
AcDbEntity
  8
STEMPEL
100
AcDbLine
 10
267.6844473341312
 20
446.6938787326539
 30
0.0
 11
287.6832613544287
 21
446.6879491855183
 31
0.0
  0
LINE
  5
17BF
330
1E
100
AcDbEntity
  8
STEMPEL
100
AcDbLine
 10
267.6838543442799
 20
444.6938788205632
 30
0.0
 11
287.6832613544287
 21
444.6879490976091
 31
0.0
  0
ARC
  5
17C0
330
1E
100
AcDbEntity
  8
STEMPEL
100
AcDbCircle
 10
267.6832613544287
 20
452.6938793480186
 30
0.0
 40
2.0
100
AcDbArc
 50
180.0
 51
269.9830120918672
  0
ARC
  5
17C1
330
1E
100
AcDbEntity
  8
STEMPEL
100
AcDbCircle
 10
267.6832613544287
 20
442.6938789084725
 30
0.0
 40
2.0
100
AcDbArc
 50
89.98301209186712
 51
179.9999999999999
  0
ARC
  5
17C2
330
1E
100
AcDbEntity
  8
STEMPEL
100
AcDbCircle
 10
179.6823983329368
 20
452.7170062091132
 30
0.0
 40
2.0
100
AcDbArc
 50
269.9830120918674
 51
360.0
  0
ARC
  5
17C3
330
1E
100
AcDbEntity
  8
STEMPEL
100
AcDbCircle
 10
179.6823983329368
 20
442.717005769567
 30
0.0
 40
2.0
100
AcDbArc
 50
360.0
 51
89.98301209186736
  0
ARC
  5
17C4
330
1E
100
AcDbEntity
  8
STEMPEL
100
AcDbCircle
 10
179.6823983329368
 20
452.7170062091132
 30
0.0
 40
4.0
100
AcDbArc
 50
269.9830120918674
 51
360.0
  0
ARC
  5
17C5
330
1E
100
AcDbEntity
  8
STEMPEL
100
AcDbCircle
 10
179.6823983329368
 20
442.7170057695671
 30
0.0
 40
4.0
100
AcDbArc
 50
360.0
 51
89.98301209186752
  0
ARC
  5
17C6
330
1E
100
AcDbEntity
  8
STEMPEL
100
AcDbCircle
 10
267.6832613544287
 20
452.6938793480186
 30
0.0
 40
4.0
100
AcDbArc
 50
180.0
 51
269.9830120918672
  0
ARC
  5
17C7
330
1E
100
AcDbEntity
  8
STEMPEL
100
AcDbCircle
 10
267.6832613544288
 20
442.6938789084725
 30
0.0
 40
4.0
100
AcDbArc
 50
89.98301209186712
 51
179.9999999999999
  0
LINE
  5
17C8
330
1E
100
AcDbEntity
  8
MITTEL
100
AcDbLine
 10
168.6832613544287
 20
425.7202664305549
 30
0.0
 11
168.6832613544287
 21
459.5202673096474
 31
0.0
  0
LINE
  5
17C9
330
1E
100
AcDbEntity
  8
MITTEL
100
AcDbLine
 10
278.6832613544287
 20
425.7202664305549
 30
0.0
 11
278.6832613544287
 21
459.5202673096474
 31
0.0
  0
LINE
  5
17CD
330
1E
100
AcDbEntity
  8
STEMPEL
100
AcDbLine
 10
275.6832613544287
 20
432.7202664305549
 30
0.0
 11
275.6832613544287
 21
443.2202670459197
 31
0.0
  0
LINE
  5
17CE
330
1E
100
AcDbEntity
  8
HILF
100
AcDbLine
 10
276.3832613544287
 20
431.5082664305549
 30
0.0
 11
276.3832613544287
 21
443.2202670459197
 31
0.0
  0
LINE
  5
17CF
330
1E
100
AcDbEntity
  8
STEMPEL
100
AcDbLine
 10
275.6832613544287
 20
432.7202664305549
 30
0.0
 11
281.6832613544288
 21
432.7202664305549
 31
0.0
  0
LINE
  5
17D0
330
1E
100
AcDbEntity
  8
STEMPEL
100
AcDbLine
 10
276.8382613544287
 20
430.7202664305549
 30
0.0
 11
275.6832613544287
 21
432.7202664305549
 31
0.0
  0
LINE
  5
17D1
330
1E
100
AcDbEntity
  8
STEMPEL
100
AcDbLine
 10
280.5292613544287
 20
430.7202664305549
 30
0.0
 11
276.8382613544287
 21
430.7202664305549
 31
0.0
  0
LINE
  5
17D2
330
1E
100
AcDbEntity
  8
STEMPEL
100
AcDbLine
 10
281.6832613544288
 20
432.7202664305549
 30
0.0
 11
280.5292613544287
 21
430.7202664305549
 31
0.0
  0
LINE
  5
17D3
330
1E
100
AcDbEntity
  8
HILF
100
AcDbLine
 10
280.9832613544287
 20
431.5082664305549
 30
0.0
 11
280.9832613544287
 21
443.2202670459197
 31
0.0
  0
LINE
  5
17D4
330
1E
100
AcDbEntity
  8
STEMPEL
100
AcDbLine
 10
281.6832613544288
 20
432.7202664305549
 30
0.0
 11
281.6832613544288
 21
443.2202670459197
 31
0.0
  0
LINE
  5
17D5
330
1E
100
AcDbEntity
  8
STEMPEL
100
AcDbLine
 10
281.6832613544288
 20
446.7211566186448
 30
0.0
 11
281.6832613544288
 21
448.7202672217381
 31
0.0
  0
LINE
  5
17D6
330
1E
100
AcDbEntity
  8
HILF
100
AcDbLine
 10
280.9832613544287
 20
446.7209490721877
 30
0.0
 11
280.9832613544287
 21
448.2202672217381
 31
0.0
  0
LINE
  5
17D7
330
1E
100
AcDbEntity
  8
STEMPEL
100
AcDbLine
 10
281.6832613544288
 20
448.2202672217381
 30
0.0
 11
275.6832613544287
 21
448.2202672217381
 31
0.0
  0
LINE
  5
17D8
330
1E
100
AcDbEntity
  8
HILF
100
AcDbLine
 10
276.3832613544287
 20
446.7195851954701
 30
0.0
 11
276.3832613544287
 21
448.2202672217381
 31
0.0
  0
LINE
  5
17D9
330
1E
100
AcDbEntity
  8
STEMPEL
100
AcDbLine
 10
275.6832613544287
 20
446.719377649013
 30
0.0
 11
275.6832613544287
 21
448.7202672217381
 31
0.0
  0
LINE
  5
17DA
330
1E
100
AcDbEntity
  8
STEMPEL
100
AcDbLine
 10
283.6832613544288
 20
453.1812673096474
 30
0.0
 11
283.6832613544288
 21
450.7202673096474
 31
0.0
  0
ARC
  5
17DB
330
1E
100
AcDbEntity
  8
STEMPEL
100
AcDbCircle
 10
278.6832613544287
 20
444.5202673096473
 30
0.0
 40
10.0
100
AcDbArc
 50
60.00001492299912
 51
85.98603251200094
  0
LINE
  5
17DC
330
1E
100
AcDbEntity
  8
HILF
100
AcDbLine
 10
283.1832613544287
 20
453.1812673096474
 30
0.0
 11
279.9332613544287
 21
453.1812673096474
 31
0.0
  0
LINE
  5
17DD
330
1E
100
AcDbEntity
  8
STEMPEL
100
AcDbLine
 10
279.3832613544287
 20
452.8922673096473
 30
0.0
 11
279.3832613544287
 21
454.4962673096474
 31
0.0
  0
LINE
  5
17DE
330
1E
100
AcDbEntity
  8
STEMPEL
100
AcDbLine
 10
277.9832613544287
 20
452.8922673096473
 30
0.0
 11
279.3832613544287
 21
452.8922673096473
 31
0.0
  0
LINE
  5
17DF
330
1E
100
AcDbEntity
  8
STEMPEL
100
AcDbLine
 10
277.9832613544287
 20
454.4962673096474
 30
0.0
 11
277.9832613544287
 21
452.8922673096473
 31
0.0
  0
ARC
  5
17E0
330
1E
100
AcDbEntity
  8
STEMPEL
100
AcDbCircle
 10
278.6832613544287
 20
444.5202673096473
 30
0.0
 40
10.0
100
AcDbArc
 50
94.0140548230004
 51
120.0000064159996
  0
LINE
  5
17E1
330
1E
100
AcDbEntity
  8
HILF
100
AcDbLine
 10
277.4332613544288
 20
453.1812673096474
 30
0.0
 11
274.1832613544287
 21
453.1812673096474
 31
0.0
  0
LINE
  5
17E2
330
1E
100
AcDbEntity
  8
STEMPEL
100
AcDbLine
 10
273.6832613544287
 20
450.7202673096474
 30
0.0
 11
273.6832613544287
 21
453.1812673096474
 31
0.0
  0
LINE
  5
17E3
330
1E
100
AcDbEntity
  8
STEMPEL
100
AcDbLine
 10
282.4332613544287
 20
443.2202670459197
 30
0.0
 11
282.4332613544287
 21
444.2202670459197
 31
0.0
  0
ARC
  5
17E4
330
1E
100
AcDbEntity
  8
STEMPEL
100
AcDbCircle
 10
282.9332613544287
 20
444.2202670459197
 30
0.0
 40
0.5
100
AcDbArc
 50
90.0
 51
180.0
  0
LINE
  5
17E5
330
1E
100
AcDbEntity
  8
STEMPEL
100
AcDbLine
 10
274.9332613544287
 20
443.2202670459197
 30
0.0
 11
282.4332613544287
 21
443.2202670459197
 31
0.0
  0
LINE
  5
17E6
330
1E
100
AcDbEntity
  8
STEMPEL
100
AcDbLine
 10
274.9332613544287
 20
444.2202670459197
 30
0.0
 11
274.9332613544287
 21
443.2202670459197
 31
0.0
  0
ARC
  5
17E7
330
1E
100
AcDbEntity
  8
STEMPEL
100
AcDbCircle
 10
274.4332613544287
 20
444.2202670459197
 30
0.0
 40
0.5
100
AcDbArc
 50
0.000000000000007
 51
90.0
  0
ARC
  5
1877
330
1E
100
AcDbEntity
  8
STEMPEL
100
AcDbCircle
 10
267.0592613544288
 20
240.1912687110983
 30
0.0
 40
18.12499999999996
100
AcDbArc
 50
316.3971810272963
 51
43.60281897270376
  0
ARC
  5
1878
330
1E
100
AcDbEntity
  8
STEMPEL
100
AcDbCircle
 10
180.3072613544286
 20
240.1912687110983
 30
0.0
 40
18.12499999999996
100
AcDbArc
 50
136.3971810272961
 51
223.6028189727036
  0
LINE
  5
1879
330
1E
100
AcDbEntity
  8
STEMPEL
100
AcDbLine
 10
282.6832613544287
 20
448.6879492734276
 30
0.0
 11
282.6832613544287
 21
450.6879493613369
 31
0.0
  0
LINE
  5
187A
330
1E
100
AcDbEntity
  8
STEMPEL
100
AcDbLine
 10
282.6832613544287
 20
444.687949097609
 30
0.0
 11
282.6832613544287
 21
446.6879491855182
 31
0.0
  0
LINE
  5
187B
330
1E
100
AcDbEntity
  8
STEMPEL
100
AcDbLine
 10
164.6832613544287
 20
448.7229356761859
 30
0.0
 11
164.6832613544287
 21
450.722935764095
 31
0.0
  0
LINE
  5
187C
330
1E
100
AcDbEntity
  8
STEMPEL
100
AcDbLine
 10
164.6832613544287
 20
444.7229355003674
 30
0.0
 11
164.6832613544287
 21
446.7229355882766
 31
0.0
  0
DIMENSION
  5
187E
330
1E
100
AcDbEntity
  8
BEM
100
AcDbDimension
  2
*D5
 10
263.6832613544287
 20
500.0015081206292
 30
0.0
 11
223.6828298436828
 21
506.5015081206293
 31
0.0
 70
    32
 71
     5
 42
80.00086302149185
  3
Standard
100
AcDbAlignedDimension
 13
183.6823983329369
 23
485.7158200095855
 33
0.0
 14
263.6832613544287
 24
485.6950651079999
 34
0.0
100
AcDbRotatedDimension
1001
ACAD
1000
DSTYLE
1002
{
1070
    40
1040
2.0
1070
    41
1040
3.5
1070
    42
1040
1.0
1070
    43
1040
7.0
1070
    44
1040
1.0
1070
    73
1070
     0
1070
    74
1070
     0
1070
    77
1070
     1
1070
    78
1070
     8
1070
    79
1070
     2
1070
   140
1040
3.5
1070
   141
1040
1.5
1070
   146
1040
0.5
1070
   147
1040
1.5
1070
   172
1070
     1
1070
   178
1070
     1
1070
   179
1070
     2
1070
   271
1070
     2
1070
   272
1070
     2
1070
   284
1070
     8
1070
   285
1070
     8
1070
   286
1070
     8
1002
}
  0
DIMENSION
  5
1894
330
1E
100
AcDbEntity
  8
BEM
100
AcDbDimension
  2
*D6
 10
153.0300075932118
 20
407.7158200095856
 30
0.0
 11
146.5300075932118
 21
447.7158200095856
 31
0.0
 70
    32
 71
     5
 42
79.99999999999994
  3
Standard
100
AcDbAlignedDimension
 13
185.6823983329369
 23
487.7158200095855
 33
0.0
 14
185.6823983329368
 24
407.7158200095856
 34
0.0
 50
90.0
100
AcDbRotatedDimension
1001
ACAD
1000
DSTYLE
1002
{
1070
    40
1040
2.0
1070
    41
1040
3.5
1070
    42
1040
1.0
1070
    43
1040
7.0
1070
    44
1040
1.0
1070
    73
1070
     0
1070
    74
1070
     0
1070
    77
1070
     1
1070
    78
1070
     8
1070
    79
1070
     2
1070
   140
1040
3.5
1070
   141
1040
1.5
1070
   146
1040
0.5
1070
   147
1040
1.5
1070
   172
1070
     1
1070
   178
1070
     1
1070
   179
1070
     2
1070
   271
1070
     2
1070
   272
1070
     2
1070
   284
1070
     8
1070
   285
1070
     8
1070
   286
1070
     8
1002
}
  0
DIMENSION
  5
18AA
330
1E
100
AcDbEntity
  8
BEM
100
AcDbDimension
  2
*D7
 10
153.0300075932118
 20
489.7158200095855
 30
0.0
 11
146.5300075932118
 21
508.5824866762522
 31
0.0
 70
    32
 71
     5
 42
2.0
  3
Standard
100
AcDbAlignedDimension
 13
185.6823983329369
 23
487.7158200095855
 33
0.0
 14
185.6823983329369
 24
489.7158200095855
 34
0.0
 50
90.0
100
AcDbRotatedDimension
1001
ACAD
1000
DSTYLE
1002
{
1070
    40
1040
2.0
1070
    41
1040
3.5
1070
    42
1040
1.0
1070
    43
1040
7.0
1070
    44
1040
1.0
1070
    73
1070
     0
1070
    74
1070
     0
1070
    77
1070
     1
1070
    78
1070
     8
1070
    79
1070
     2
1070
   140
1040
3.5
1070
   141
1040
1.5
1070
   146
1040
0.5
1070
   147
1040
1.5
1070
   172
1070
     1
1070
   178
1070
     1
1070
   179
1070
     2
1070
   271
1070
     2
1070
   272
1070
     2
1070
   284
1070
     8
1070
   285
1070
     8
1070
   286
1070
     8
1002
}
  0
DIMENSION
  5
18C4
330
1E
100
AcDbEntity
  8
BEM
100
AcDbDimension
  2
*D8
 10
147.695156431715
 20
252.6912687110983
 30
0.0
 11
141.195156431715
 21
240.1912687110983
 31
0.0
 70
    32
 71
     5
 42
25.00000000000011
  3
Standard
100
AcDbAlignedDimension
 13
167.1822613544287
 23
227.6912687110983
 33
0.0
 14
167.1822613544287
 24
252.6912687110983
 34
0.0
 50
90.0
100
AcDbRotatedDimension
1001
ACAD
1000
DSTYLE
1002
{
1070
    40
1040
2.0
1070
    41
1040
3.5
1070
    42
1040
1.0
1070
    43
1040
7.0
1070
    44
1040
1.0
1070
    73
1070
     0
1070
    74
1070
     0
1070
    77
1070
     1
1070
    78
1070
     8
1070
    79
1070
     2
1070
   140
1040
3.5
1070
   141
1040
1.5
1070
   146
1040
0.5
1070
   147
1040
1.5
1070
   172
1070
     1
1070
   178
1070
     1
1070
   179
1070
     2
1070
   271
1070
     2
1070
   272
1070
     2
1070
   284
1070
     8
1070
   285
1070
     8
1070
   286
1070
     8
1002
}
  0
LINE
  5
18DA
330
1E
100
AcDbEntity
  8
STEMPEL
100
AcDbLine
 10
265.6832613544287
 20
252.6912687110983
 30
0.0
 11
265.6832613544287
 21
227.6912687110983
 31
0.0
  0
LINE
  5
18DB
330
1E
100
AcDbEntity
  8
STEMPEL
100
AcDbLine
 10
181.6823983329368
 20
252.6912687110983
 30
0.0
 11
181.6823983329368
 21
227.6912687110983
 31
0.0
  0
LINE
  5
18DD
330
1E
100
AcDbEntity
  8
HILF
100
AcDbLine
 10
187.6823983329368
 20
235.6912687110982
 30
0.0
 11
259.6841243759206
 21
235.6912687110983
 31
0.0
  0
LINE
  5
18DF
330
1E
100
AcDbEntity
  8
HILF
100
AcDbLine
 10
187.6823983329368
 20
231.6912687110982
 30
0.0
 11
259.6841243759206
 21
231.6912687110983
 31
0.0
  0
ARC
  5
18E2
330
1E
100
AcDbEntity
  8
HILF
100
AcDbCircle
 10
187.6823983329368
 20
233.6912687110983
 30
0.0
 40
1.999999999999971
100
AcDbArc
 50
90.0
 51
270.0
  0
ARC
  5
18E3
330
1E
100
AcDbEntity
  8
HILF
100
AcDbCircle
 10
259.6841243759206
 20
233.6912687110983
 30
0.0
 40
1.999999999999971
100
AcDbArc
 50
270.0
 51
90.0
  0
ARC
  5
18E4
330
1E
100
AcDbEntity
  8
HILF
100
AcDbCircle
 10
259.6841243759206
 20
246.6912687110982
 30
0.0
 40
1.999999999999971
100
AcDbArc
 50
270.0
 51
90.00000000000003
  0
ARC
  5
18E5
330
1E
100
AcDbEntity
  8
HILF
100
AcDbCircle
 10
187.6823983329368
 20
246.6912687110982
 30
0.0
 40
1.999999999999971
100
AcDbArc
 50
90.00000000000003
 51
270.0
  0
LINE
  5
18E6
330
1E
100
AcDbEntity
  8
HILF
100
AcDbLine
 10
187.6823983329368
 20
248.6912687110983
 30
0.0
 11
259.6841243759206
 21
248.6912687110983
 31
0.0
  0
LINE
  5
18E7
330
1E
100
AcDbEntity
  8
HILF
100
AcDbLine
 10
187.6823983329368
 20
244.6912687110983
 30
0.0
 11
259.6841243759206
 21
244.6912687110982
 31
0.0
  0
LWPOLYLINE
  5
18E9
330
1E
100
AcDbEntity
  8
TEXT
 62
     1
100
AcDbPolyline
 90
        4
 70
     1
 43
0.0
 10
279.5439296435284
 20
94.3882247546162
 10
279.5439296435284
 20
87.38822475461621
 10
286.5439296435284
 20
87.38822475461621
 10
286.5439296435284
 20
94.3882247546162
  0
ARC
  5
18EA
330
1E
100
AcDbEntity
  8
STEMPEL
100
AcDbCircle
 10
170.2332613544287
 20
239.2412687110982
 30
0.0
 40
0.2
100
AcDbArc
 50
0.000000000000007
 51
90.0
  0
LINE
  5
18EC
330
1E
100
AcDbEntity
  8
MITTEL
100
AcDbLine
 10
154.6832613544287
 20
447.7255663945726
 30
0.0
 11
292.6832613544286
 21
447.6853149905553
 31
0.0
  0
LINE
  5
19F3
330
1E
100
AcDbEntity
  8
STEMPEL
100
AcDbLine
 10
220.1832613544287
 20
305.9120651080001
 30
0.0
 11
227.1832613544287
 21
305.9120651080001
 31
0.0
  0
LINE
  5
19F4
330
1E
100
AcDbEntity
  8
HILF
100
AcDbLine
 10
220.6832613544287
 20
364.4650651080001
 30
0.0
 11
226.6832613544287
 21
364.4650651080001
 31
0.0
  0
LINE
  5
19F5
330
1E
100
AcDbEntity
  8
HILF
100
AcDbLine
 10
220.6832613544287
 20
368.4650651080001
 30
0.0
 11
226.6832613544287
 21
368.4650651080001
 31
0.0
  0
LINE
  5
19F6
330
1E
100
AcDbEntity
  8
HILF
100
AcDbLine
 10
220.6832613544287
 20
372.4650651080001
 30
0.0
 11
226.6832613544287
 21
372.4650651080001
 31
0.0
  0
LINE
  5
19F7
330
1E
100
AcDbEntity
  8
HILF
100
AcDbLine
 10
220.6832613544287
 20
376.4650651080001
 30
0.0
 11
226.6832613544287
 21
376.4650651080001
 31
0.0
  0
LINE
  5
19F8
330
1E
100
AcDbEntity
  8
HILF
100
AcDbLine
 10
220.6832613544287
 20
380.4650651080001
 30
0.0
 11
226.6832613544287
 21
380.4650651080001
 31
0.0
  0
LINE
  5
19F9
330
1E
100
AcDbEntity
  8
HILF
100
AcDbLine
 10
220.1832613544287
 20
364.4650651080001
 30
0.0
 11
219.7992613544287
 21
364.4650651080001
 31
0.0
  0
LINE
  5
19FA
330
1E
100
AcDbEntity
  8
HILF
100
AcDbLine
 10
220.1832613544287
 20
368.4650651080001
 30
0.0
 11
219.7992613544287
 21
368.4650651080001
 31
0.0
  0
LINE
  5
19FB
330
1E
100
AcDbEntity
  8
HILF
100
AcDbLine
 10
220.1832613544287
 20
372.4650651080001
 30
0.0
 11
219.7992613544287
 21
372.4650651080001
 31
0.0
  0
LINE
  5
19FC
330
1E
100
AcDbEntity
  8
HILF
100
AcDbLine
 10
220.1832613544287
 20
376.4650651080001
 30
0.0
 11
219.7992613544287
 21
376.4650651080001
 31
0.0
  0
LINE
  5
19FD
330
1E
100
AcDbEntity
  8
HILF
100
AcDbLine
 10
220.1832613544287
 20
380.4650651080001
 30
0.0
 11
219.7992613544287
 21
380.4650651080001
 31
0.0
  0
LINE
  5
19FE
330
1E
100
AcDbEntity
  8
HILF
100
AcDbLine
 10
227.1832613544287
 20
380.4650651080001
 30
0.0
 11
227.5682613544287
 21
380.4650651080001
 31
0.0
  0
LINE
  5
19FF
330
1E
100
AcDbEntity
  8
HILF
100
AcDbLine
 10
227.1832613544287
 20
376.4650651080001
 30
0.0
 11
227.5682613544287
 21
376.4650651080001
 31
0.0
  0
LINE
  5
1A00
330
1E
100
AcDbEntity
  8
HILF
100
AcDbLine
 10
227.1832613544287
 20
372.4650651080001
 30
0.0
 11
227.5682613544287
 21
372.4650651080001
 31
0.0
  0
LINE
  5
1A01
330
1E
100
AcDbEntity
  8
HILF
100
AcDbLine
 10
227.1832613544287
 20
368.4650651080001
 30
0.0
 11
227.5682613544287
 21
368.4650651080001
 31
0.0
  0
LINE
  5
1A02
330
1E
100
AcDbEntity
  8
HILF
100
AcDbLine
 10
227.1832613544287
 20
364.4650651080001
 30
0.0
 11
227.5682613544287
 21
364.4650651080001
 31
0.0
  0
LINE
  5
1A03
330
1E
100
AcDbEntity
  8
STEMPEL
100
AcDbLine
 10
223.6832613544287
 20
294.7150651080002
 30
0.0
 11
220.1832613544287
 21
305.9120651080001
 31
0.0
  0
LINE
  5
1A04
330
1E
100
AcDbEntity
  8
STEMPEL
100
AcDbLine
 10
223.6832613544287
 20
294.7150651080002
 30
0.0
 11
227.1832613544287
 21
305.9110651080002
 31
0.0
  0
LWPOLYLINE
  5
1A05
330
1E
100
AcDbEntity
  8
BEM
 62
     1
100
AcDbPolyline
 90
        4
 70
     1
 43
0.0
 10
185.8922448512244
 20
368.6571124878847
 10
185.8922448512244
 20
361.6571124878847
 10
192.8922448512244
 20
361.6571124878847
 10
192.8922448512244
 20
368.6571124878847
  0
DIMENSION
  5
1A06
330
1E
100
AcDbEntity
  8
BEM
100
AcDbDimension
  2
*D9
 10
220.1832613544287
 20
358.6885651080002
 30
0.0
 11
197.316594687762
 21
358.6885651080002
 31
0.0
 70
   160
 71
     5
 42
7.0
  3
Standard
100
AcDbAlignedDimension
 13
227.1832613544287
 23
358.4507693461774
 33
0.0
 14
220.1832613544287
 24
358.4507693461774
 34
0.0
100
AcDbRotatedDimension
1001
ACAD
1000
DSTYLE
1002
{
1070
    40
1040
2.0
1070
    41
1040
3.5
1070
    42
1040
1.0
1070
    43
1040
7.0
1070
    44
1040
1.0
1070
    73
1070
     0
1070
    74
1070
     0
1070
    77
1070
     1
1070
    78
1070
     8
1070
    79
1070
     2
1070
   140
1040
3.5
1070
   141
1040
1.5
1070
   146
1040
0.5
1070
   147
1040
1.5
1070
   172
1070
     1
1070
   178
1070
     1
1070
   179
1070
     2
1070
   271
1070
     2
1070
   272
1070
     2
1070
   284
1070
     8
1070
   285
1070
     8
1070
   286
1070
     8
1002
}
  0
ARC
  5
1A07
330
1E
100
AcDbEntity
  8
HILF
100
AcDbCircle
 10
223.6832613544287
 20
395.3400651080001
 30
0.0
 40
6.624999999999967
100
AcDbArc
 50
238.1092081981539
 51
301.890791801846
  0
LINE
  5
1A08
330
1E
100
AcDbEntity
  8
STEMPEL
100
AcDbLine
 10
230.6832613544287
 20
394.7150651080001
 30
0.0
 11
227.1832613544287
 21
389.7150651080001
 31
0.0
  0
LINE
  5
1A09
330
1E
100
AcDbEntity
  8
STEMPEL
100
AcDbLine
 10
227.1832613544287
 20
305.9110651080002
 30
0.0
 11
227.1832613544287
 21
389.7150651080001
 31
0.0
  0
LINE
  5
1A0A
330
1E
100
AcDbEntity
  8
STEMPEL
100
AcDbLine
 10
220.1832613544287
 20
389.7150651080001
 30
0.0
 11
216.6832613544287
 21
394.7150651080002
 31
0.0
  0
LINE
  5
1A0B
330
1E
100
AcDbEntity
  8
STEMPEL
100
AcDbLine
 10
220.1832613544287
 20
305.9120651080001
 30
0.0
 11
220.1832613544287
 21
389.7150651080001
 31
0.0
  0
ARC
  5
1A0C
330
1E
100
AcDbEntity
  8
STEMPEL
100
AcDbCircle
 10
217.6832613544287
 20
397.7150651080001
 30
0.0
 40
1.0
100
AcDbArc
 50
90.0
 51
180.0
  0
ARC
  5
1A0D
330
1E
100
AcDbEntity
  8
STEMPEL
100
AcDbCircle
 10
229.6832613544288
 20
397.7150651080002
 30
0.0
 40
1.0
100
AcDbArc
 50
0.0
 51
90.0
  0
LINE
  5
1A0E
330
1E
100
AcDbEntity
  8
STEMPEL
100
AcDbLine
 10
229.6832613544288
 20
398.7150651080002
 30
0.0
 11
217.6832613544287
 21
398.7150651080002
 31
0.0
  0
LINE
  5
1A0F
330
1E
100
AcDbEntity
  8
STEMPEL
100
AcDbLine
 10
230.6832613544288
 20
396.7150651080002
 30
0.0
 11
230.6832613544288
 21
397.7150651080002
 31
0.0
  0
LINE
  5
1A10
330
1E
100
AcDbEntity
  8
STEMPEL
100
AcDbLine
 10
216.6832613544287
 20
396.7150651080001
 30
0.0
 11
216.6832613544287
 21
397.7150651080001
 31
0.0
  0
ENDSEC
  0
SECTION
  2
OBJECTS
  0
DICTIONARY
  5
C
330
0
100
AcDbDictionary
281
     1
  3
ACAD_COLOR
350
DF
  3
ACAD_GROUP
350
D
  3
ACAD_LAYOUT
350
19
  3
ACAD_MATERIAL
350
DE
  3
ACAD_MLINESTYLE
350
16
  3
ACAD_PLOTSETTINGS
350
18
  3
ACAD_PLOTSTYLENAME
350
E
  3
AcDbVariableDictionary
350
EA
  0
DICTIONARY
  5
A0
330
1E
100
AcDbDictionary
280
     1
281
     1
  3
ACAD_LAYOUTSELFREF
360
D4
  0
DICTIONARY
  5
A2
330
1A
100
AcDbDictionary
280
     1
281
     1
  3
ACAD_LAYOUTSELFREF
360
D3
  0
DICTIONARY
  5
DF
102
{ACAD_REACTORS
330
C
102
}
330
C
100
AcDbDictionary
281
     1
  0
DICTIONARY
  5
D
102
{ACAD_REACTORS
330
C
102
}
330
C
100
AcDbDictionary
281
     1
  0
DICTIONARY
  5
19
102
{ACAD_REACTORS
330
C
102
}
330
C
100
AcDbDictionary
281
     1
  3
Layout1
350
1D
  3
Model
350
21
  0
DICTIONARY
  5
DE
102
{ACAD_REACTORS
330
C
102
}
330
C
100
AcDbDictionary
281
     1
  0
DICTIONARY
  5
16
102
{ACAD_REACTORS
330
C
102
}
330
C
100
AcDbDictionary
281
     1
  3
Standard
350
17
  0
DICTIONARY
  5
18
102
{ACAD_REACTORS
330
C
102
}
330
C
100
AcDbDictionary
281
     1
  0
ACDBDICTIONARYWDFLT
  5
E
102
{ACAD_REACTORS
330
C
102
}
330
C
100
AcDbDictionary
281
     1
  3
Normal
350
F
100
AcDbDictionaryWithDefault
340
F
  0
DICTIONARY
  5
EA
102
{ACAD_REACTORS
330
C
102
}
330
C
100
AcDbDictionary
281
     1
  3
DIMASSOC
350
EB
  3
PROJECTNAME
350
EC
  0
XRECORD
  5
D4
102
{ACAD_REACTORS
330
A0
102
}
330
A0
100
AcDbXrecord
280
     1
340
1E
  0
XRECORD
  5
D3
102
{ACAD_REACTORS
330
A2
102
}
330
A2
100
AcDbXrecord
280
     1
340
1A
  0
LAYOUT
  5
1D
102
{ACAD_REACTORS
330
19
102
}
330
19
100
AcDbPlotSettings
  1

  2
\\NT_WORK01\HP LaserJet 5000 PCL 6
  4

  6

 40
0.0
 41
0.0
 42
0.0
 43
0.0
 44
0.0
 45
0.0
 46
0.0
 47
0.0
 48
0.0
 49
0.0
140
0.0
141
0.0
142
1.0
143
1.0
 70
   688
 72
     0
 73
     0
 74
     5
  7

 75
    16
147
1.0
 76
     0
 77
     2
 78
   300
148
0.0
149
0.0
100
AcDbLayout
  1
Layout1
 70
     0
 71
     1
 10
0.0
 20
0.0
 11
12.0
 21
9.0
 12
0.0
 22
0.0
 32
0.0
 14
1.000000000000000E+20
 24
1.000000000000000E+20
 34
1.000000000000000E+20
 15
-1.000000000000000E+20
 25
-1.000000000000000E+20
 35
-1.000000000000000E+20
146
0.0
 13
0.0
 23
0.0
 33
0.0
 16
1.0
 26
0.0
 36
0.0
 17
0.0
 27
1.0
 37
0.0
 76
     0
330
1A
  0
LAYOUT
  5
21
102
{ACAD_REACTORS
330
19
102
}
330
19
100
AcDbPlotSettings
  1

  2
none_device
  4
Letter_(8.50_x_11.00_Inches)
  6

 40
6.349999904632568
 41
6.349999904632568
 42
6.350006103515625
 43
6.350006103515625
 44
215.8999938964844
 45
279.3999938964844
 46
0.0
 47
0.0
 48
0.0
 49
0.0
140
0.0
141
0.0
142
1.0
143
1.0
 70
 11952
 72
     0
 73
     1
 74
     0
  7

 75
     0
147
1.0
 76
     0
 77
     2
 78
   300
148
-230.4417396561563
149
47.00486644638983
100
AcDbLayout
  1
Model
 70
     1
 71
     0
 10
0.0
 20
0.0
 11
12.0
 21
9.0
 12
0.0
 22
0.0
 32
0.0
 14
0.0
 24
0.0
 34
0.0
 15
0.0
 25
0.0
 35
0.0
146
0.0
 13
0.0
 23
0.0
 33
0.0
 16
1.0
 26
0.0
 36
0.0
 17
0.0
 27
1.0
 37
0.0
 76
     0
330
1E
  0
MLINESTYLE
  5
17
102
{ACAD_REACTORS
330
16
102
}
330
16
100
AcDbMlineStyle
  2
STANDARD
 70
     0
  3

 62
   256
 51
90.0
 52
90.0
 71
     2
 49
0.5
 62
   256
  6
BYLAYER
 49
-0.5
 62
   256
  6
BYLAYER
  0
ACDBPLACEHOLDER
  5
F
102
{ACAD_REACTORS
330
E
102
}
330
E
  0
DICTIONARYVAR
  5
EB
102
{ACAD_REACTORS
330
EA
102
}
330
EA
100
DictionaryVariables
280
     0
  1
1
  0
DICTIONARYVAR
  5
EC
102
{ACAD_REACTORS
330
EA
102
}
330
EA
100
DictionaryVariables
280
     0
  1

  0
ENDSEC
  0
EOF
