  0
SECTION
  2
HEADER
  9
$ACADVER
  1
AC1018
  9
$ACADMAINTVER
 70
     2
  9
$DWGCODEPAGE
  3
ANSI_1252
  9
$INSBASE
 10
0.0
 20
0.0
 30
0.0
  9
$EXTMIN
 10
-0.0320385670876249
 20
-0.0453116877386037
 30
-0.000000000000013
  9
$EXTMAX
 10
420.0000019560163
 20
594.0000027663659
 30
0.0000000000000023
  9
$LIMMIN
 10
0.0
 20
0.0
  9
$LIMMAX
 10
419.9999999999999
 20
594.0
  9
$ORTHOMODE
 70
     1
  9
$REGENMODE
 70
     1
  9
$FILLMODE
 70
     1
  9
$QTEXTMODE
 70
     0
  9
$MIRRTEXT
 70
     1
  9
$LTSCALE
 40
20.0
  9
$ATTMODE
 70
     1
  9
$TEXTSIZE
 40
2.5
  9
$TRACEWID
 40
0.5
  9
$TEXTSTYLE
  7
GREEKS
  9
$CLAYER
  8
VOLL
  9
$CELTYPE
  6
ByLayer
  9
$CECOLOR
 62
   256
  9
$CELTSCALE
 40
1.0
  9
$DISPSILH
 70
     0
  9
$DIMSCALE
 40
2.0
  9
$DIMASZ
 40
3.5
  9
$DIMEXO
 40
1.0
  9
$DIMDLI
 40
7.0
  9
$DIMRND
 40
0.0
  9
$DIMDLE
 40
0.0
  9
$DIMEXE
 40
1.0
  9
$DIMTP
 40
0.0
  9
$DIMTM
 40
0.0
  9
$DIMTXT
 40
3.5
  9
$DIMCEN
 40
1.5
  9
$DIMTSZ
 40
0.0
  9
$DIMTOL
 70
     0
  9
$DIMLIM
 70
     0
  9
$DIMTIH
 70
     0
  9
$DIMTOH
 70
     0
  9
$DIMSE1
 70
     0
  9
$DIMSE2
 70
     0
  9
$DIMTAD
 70
     1
  9
$DIMZIN
 70
     8
  9
$DIMBLK
  1

  9
$DIMASO
 70
     1
  9
$DIMSHO
 70
     0
  9
$DIMPOST
  1

  9
$DIMAPOST
  1

  9
$DIMALT
 70
     0
  9
$DIMALTD
 70
     2
  9
$DIMALTF
 40
25.4
  9
$DIMLFAC
 40
1.0
  9
$DIMTOFL
 70
     1
  9
$DIMTVP
 40
0.0
  9
$DIMTIX
 70
     0
  9
$DIMSOXD
 70
     0
  9
$DIMSAH
 70
     0
  9
$DIMBLK1
  1

  9
$DIMBLK2
  1

  9
$DIMSTYLE
  2
Standard
  9
$DIMCLRD
 70
     0
  9
$DIMCLRE
 70
     0
  9
$DIMCLRT
 70
     1
  9
$DIMTFAC
 40
0.5
  9
$DIMGAP
 40
1.5
  9
$DIMJUST
 70
     0
  9
$DIMSD1
 70
     0
  9
$DIMSD2
 70
     0
  9
$DIMTOLJ
 70
     1
  9
$DIMTZIN
 70
     8
  9
$DIMALTZ
 70
     8
  9
$DIMALTTZ
 70
     8
  9
$DIMUPT
 70
     0
  9
$DIMDEC
 70
     2
  9
$DIMTDEC
 70
     2
  9
$DIMALTU
 70
     2
  9
$DIMALTTD
 70
     2
  9
$DIMTXSTY
  7
STANDARD
  9
$DIMAUNIT
 70
     0
  9
$DIMADEC
 70
     2
  9
$DIMALTRND
 40
0.0
  9
$DIMAZIN
 70
     2
  9
$DIMDSEP
 70
    46
  9
$DIMATFIT
 70
     3
  9
$DIMFRAC
 70
     0
  9
$DIMLDRBLK
  1

  9
$DIMLUNIT
 70
     2
  9
$DIMLWD
 70
    -2
  9
$DIMLWE
 70
    -2
  9
$DIMTMOVE
 70
     0
  9
$LUNITS
 70
     2
  9
$LUPREC
 70
     2
  9
$SKETCHINC
 40
1.0
  9
$FILLETRAD
 40
4.0
  9
$AUNITS
 70
     0
  9
$AUPREC
 70
     0
  9
$MENU
  1
ACAD
  9
$ELEVATION
 40
0.0
  9
$PELEVATION
 40
0.0
  9
$THICKNESS
 40
0.0
  9
$LIMCHECK
 70
     0
  9
$CHAMFERA
 40
0.0
  9
$CHAMFERB
 40
0.0
  9
$CHAMFERC
 40
0.0
  9
$CHAMFERD
 40
0.0
  9
$SKPOLY
 70
     0
  9
$TDCREATE
 40
2455397.864709028
  9
$TDUCREATE
 40
2455397.781375695
  9
$TDUPDATE
 40
2455649.562960868
  9
$TDUUPDATE
 40
2455649.479627535
  9
$TDINDWG
 40
0.3292312847
  9
$TDUSRTIMER
 40
0.3292312847
  9
$USRTIMER
 70
     1
  9
$ANGBASE
 50
0.0
  9
$ANGDIR
 70
     0
  9
$PDMODE
 70
     0
  9
$PDSIZE
 40
0.0
  9
$PLINEWID
 40
0.0
  9
$SPLFRAME
 70
     0
  9
$SPLINETYPE
 70
     6
  9
$SPLINESEGS
 70
     8
  9
$HANDSEED
  5
1B34
  9
$SURFTAB1
 70
     6
  9
$SURFTAB2
 70
     6
  9
$SURFTYPE
 70
     6
  9
$SURFU
 70
     6
  9
$SURFV
 70
     6
  9
$UCSBASE
  2

  9
$UCSNAME
  2

  9
$UCSORG
 10
0.0
 20
0.0
 30
0.0
  9
$UCSXDIR
 10
1.0
 20
0.0
 30
0.0
  9
$UCSYDIR
 10
0.0
 20
1.0
 30
0.0
  9
$UCSORTHOREF
  2

  9
$UCSORTHOVIEW
 70
     0
  9
$UCSORGTOP
 10
0.0
 20
0.0
 30
0.0
  9
$UCSORGBOTTOM
 10
0.0
 20
0.0
 30
0.0
  9
$UCSORGLEFT
 10
0.0
 20
0.0
 30
0.0
  9
$UCSORGRIGHT
 10
0.0
 20
0.0
 30
0.0
  9
$UCSORGFRONT
 10
0.0
 20
0.0
 30
0.0
  9
$UCSORGBACK
 10
0.0
 20
0.0
 30
0.0
  9
$PUCSBASE
  2

  9
$PUCSNAME
  2

  9
$PUCSORG
 10
0.0
 20
0.0
 30
0.0
  9
$PUCSXDIR
 10
1.0
 20
0.0
 30
0.0
  9
$PUCSYDIR
 10
0.0
 20
1.0
 30
0.0
  9
$PUCSORTHOREF
  2

  9
$PUCSORTHOVIEW
 70
     0
  9
$PUCSORGTOP
 10
0.0
 20
0.0
 30
0.0
  9
$PUCSORGBOTTOM
 10
0.0
 20
0.0
 30
0.0
  9
$PUCSORGLEFT
 10
0.0
 20
0.0
 30
0.0
  9
$PUCSORGRIGHT
 10
0.0
 20
0.0
 30
0.0
  9
$PUCSORGFRONT
 10
0.0
 20
0.0
 30
0.0
  9
$PUCSORGBACK
 10
0.0
 20
0.0
 30
0.0
  9
$USERI1
 70
     0
  9
$USERI2
 70
     0
  9
$USERI3
 70
     0
  9
$USERI4
 70
     0
  9
$USERI5
 70
     0
  9
$USERR1
 40
0.0
  9
$USERR2
 40
0.0
  9
$USERR3
 40
0.0
  9
$USERR4
 40
0.0
  9
$USERR5
 40
0.0
  9
$WORLDVIEW
 70
     1
  9
$SHADEDGE
 70
     3
  9
$SHADEDIF
 70
    70
  9
$TILEMODE
 70
     1
  9
$MAXACTVP
 70
    16
  9
$PINSBASE
 10
0.0
 20
0.0
 30
0.0
  9
$PLIMCHECK
 70
     0
  9
$PEXTMIN
 10
1.000000000000000E+20
 20
1.000000000000000E+20
 30
1.000000000000000E+20
  9
$PEXTMAX
 10
-1.000000000000000E+20
 20
-1.000000000000000E+20
 30
-1.000000000000000E+20
  9
$PLIMMIN
 10
0.0
 20
0.0
  9
$PLIMMAX
 10
12.0
 20
9.0
  9
$UNITMODE
 70
     0
  9
$VISRETAIN
 70
     0
  9
$PLINEGEN
 70
     0
  9
$PSLTSCALE
 70
     0
  9
$TREEDEPTH
 70
  3020
  9
$CMLSTYLE
  2
Standard
  9
$CMLJUST
 70
     0
  9
$CMLSCALE
 40
1.0
  9
$PROXYGRAPHICS
 70
     1
  9
$MEASUREMENT
 70
     0
  9
$CELWEIGHT
370
    -1
  9
$ENDCAPS
280
     0
  9
$JOINSTYLE
280
     0
  9
$LWDISPLAY
290
     0
  9
$INSUNITS
 70
     0
  9
$HYPERLINKBASE
  1

  9
$STYLESHEET
  1
monochrome 1.ctb
  9
$XEDIT
290
     1
  9
$CEPSNTYPE
380
     0
  9
$PSTYLEMODE
290
     1
  9
$FINGERPRINTGUID
  2
{D68B0D02-A558-11D7-B632-000102183313}
  9
$VERSIONGUID
  2
{83911D79-AD10-497B-9E5C-053F24D5E5DA}
  9
$EXTNAMES
290
     1
  9
$PSVPSCALE
 40
0.0
  9
$OLESTARTUP
290
     0
  9
$SORTENTS
280
   127
  9
$INDEXCTL
280
     0
  9
$HIDETEXT
280
     0
  9
$XCLIPFRAME
290
     0
  9
$HALOGAP
280
     0
  9
$OBSCOLOR
 70
   257
  9
$OBSLTYPE
280
     0
  9
$INTERSECTIONDISPLAY
280
     0
  9
$INTERSECTIONCOLOR
 70
   257
  9
$DIMASSOC
280
     1
  9
$PROJECTNAME
  1

  0
ENDSEC
  0
SECTION
  2
CLASSES
  0
CLASS
  1
ACDBDICTIONARYWDFLT
  2
AcDbDictionaryWithDefault
  3
ObjectDBX Classes
 90
        0
 91
        1
280
     0
281
     0
  0
CLASS
  1
DICTIONARYVAR
  2
AcDbDictionaryVar
  3
ObjectDBX Classes
 90
        0
 91
        2
280
     0
281
     0
  0
ENDSEC
  0
SECTION
  2
TABLES
  0
TABLE
  2
VPORT
  5
8
330
0
100
AcDbSymbolTable
 70
     4
  0
VPORT
  5
1B33
330
8
100
AcDbSymbolTableRecord
100
AcDbViewportTableRecord
  2
*Active
 70
     0
 10
0.0
 20
0.0
 11
1.0
 21
1.0
 12
210.0
 22
297.0
 13
0.0
 23
0.0
 14
1.0
 24
1.0
 15
10.0
 25
10.0
 16
0.0
 26
0.0
 36
1.0
 17
0.0
 27
0.0
 37
0.0
 40
594.0
 41
1.334231805929919
 42
50.0
 43
0.0
 44
0.0
 50
0.0
 51
0.0
 71
     0
 72
  1500
 73
     1
 74
     0
 75
     0
 76
     0
 77
     0
 78
     0
281
     0
 65
     1
110
0.0
120
0.0
130
0.0
111
1.0
121
0.0
131
0.0
112
0.0
122
1.0
132
0.0
 79
     0
146
0.0
  0
ENDTAB
  0
TABLE
  2
LTYPE
  5
5
330
0
100
AcDbSymbolTable
 70
     2
  0
LTYPE
  5
13
330
5
100
AcDbSymbolTableRecord
100
AcDbLinetypeTableRecord
  2
ByBlock
 70
     0
  3

 72
    65
 73
     0
 40
0.0
  0
LTYPE
  5
14
330
5
100
AcDbSymbolTableRecord
100
AcDbLinetypeTableRecord
  2
ByLayer
 70
     0
  3

 72
    65
 73
     0
 40
0.0
  0
LTYPE
  5
15
330
5
100
AcDbSymbolTableRecord
100
AcDbLinetypeTableRecord
  2
Continuous
 70
     0
  3
Solid line
 72
    65
 73
     0
 40
0.0
  0
LTYPE
  5
25
330
5
100
AcDbSymbolTableRecord
100
AcDbLinetypeTableRecord
  2
STRICHPUNKT
 70
     0
  3
__ . __ . __ . __ . __ . __ . __ . __ . __ . __
 72
    65
 73
     4
 40
1.0
 49
0.5
 74
     0
 49
-0.25
 74
     0
 49
0.0
 74
     0
 49
-0.25
 74
     0
  0
ENDTAB
  0
TABLE
  2
LAYER
  5
2
330
0
100
AcDbSymbolTable
 70
     8
  0
LAYER
  5
10
330
2
100
AcDbSymbolTableRecord
100
AcDbLayerTableRecord
  2
0
 70
     0
 62
     7
  6
Continuous
370
    -3
390
F
  0
LAYER
  5
2A
330
2
100
AcDbSymbolTableRecord
100
AcDbLayerTableRecord
  2
VOLL
 70
     0
 62
     1
  6
Continuous
370
    -3
390
F
  0
LAYER
  5
2B
330
2
100
AcDbSymbolTableRecord
100
AcDbLayerTableRecord
  2
HILF
 70
     0
 62
     2
  6
Continuous
370
    -3
390
F
  0
LAYER
  5
2C
330
2
100
AcDbSymbolTableRecord
100
AcDbLayerTableRecord
  2
MITTEL
 70
     0
 62
     2
  6
STRICHPUNKT
370
    -3
390
F
  0
LAYER
  5
2F
330
2
100
AcDbSymbolTableRecord
100
AcDbLayerTableRecord
  2
BEM
 70
     0
 62
     7
  6
Continuous
370
    -3
390
F
  0
LAYER
  5
30
330
2
100
AcDbSymbolTableRecord
100
AcDbLayerTableRecord
  2
STEMPEL
 70
     0
 62
     3
  6
Continuous
370
    -3
390
F
  0
LAYER
  5
31
330
2
100
AcDbSymbolTableRecord
100
AcDbLayerTableRecord
  2
TEXT
 70
     0
 62
     7
  6
Continuous
370
    -3
390
F
  0
LAYER
  5
1A8
330
2
100
AcDbSymbolTableRecord
100
AcDbLayerTableRecord
  2
Defpoints
 70
     0
 62
     7
  6
Continuous
290
     0
370
    -3
390
F
  0
ENDTAB
  0
TABLE
  2
STYLE
  5
3
330
0
100
AcDbSymbolTable
 70
     2
  0
STYLE
  5
11
330
3
100
AcDbSymbolTableRecord
100
AcDbTextStyleTableRecord
  2
STANDARD
 70
     0
 40
0.0
 41
0.8
 50
0.0
 71
     0
 42
3.5
  3
simplex.shx
  4

  0
STYLE
  5
24
330
3
100
AcDbSymbolTableRecord
100
AcDbTextStyleTableRecord
  2
GREEKS
 70
     0
 40
0.0
 41
0.8
 50
0.0
 71
     0
 42
2.5
  3
SIMPLEX.shx
  4

  0
ENDTAB
  0
TABLE
  2
VIEW
  5
6
330
0
100
AcDbSymbolTable
 70
     0
  0
ENDTAB
  0
TABLE
  2
UCS
  5
7
330
0
100
AcDbSymbolTable
 70
     0
  0
ENDTAB
  0
TABLE
  2
APPID
  5
9
330
0
100
AcDbSymbolTable
 70
     1
  0
APPID
  5
12
330
9
100
AcDbSymbolTableRecord
100
AcDbRegAppTableRecord
  2
ACAD
 70
     0
  0
ENDTAB
  0
TABLE
  2
DIMSTYLE
  5
A
330
0
100
AcDbSymbolTable
 70
     1
100
AcDbDimStyleTable
 71
     1
340
9D
  0
DIMSTYLE
105
9D
102
{ACAD_REACTORS
330
1644
330
1651
330
16C4
330
16D1
330
187E
330
1894
330
18AA
330
18C4
330
1A06
102
}
330
A
100
AcDbSymbolTableRecord
100
AcDbDimStyleTableRecord
  2
Standard
 70
     0
340
11
  0
ENDTAB
  0
TABLE
  2
BLOCK_RECORD
  5
1
330
0
100
AcDbSymbolTable
 70
    10
  0
BLOCK_RECORD
  5
1E
102
{ACAD_XDICTIONARY
360
A0
102
}
330
1
100
AcDbSymbolTableRecord
100
AcDbBlockTableRecord
  2
*Model_Space
340
21
  0
BLOCK_RECORD
  5
1A
102
{ACAD_XDICTIONARY
360
A2
102
}
330
1
100
AcDbSymbolTableRecord
100
AcDbBlockTableRecord
  2
*Paper_Space
340
1D
  0
BLOCK_RECORD
  5
22
330
1
100
AcDbSymbolTableRecord
100
AcDbBlockTableRecord
  2
LOGO
340
0
102
{BLKREFS
331
9B
102
}
  0
BLOCK_RECORD
  5
1645
330
1
100
AcDbSymbolTableRecord
100
AcDbBlockTableRecord
  2
*D1
340
0
  0
BLOCK_RECORD
  5
1652
330
1
100
AcDbSymbolTableRecord
100
AcDbBlockTableRecord
  2
*D2
340
0
  0
BLOCK_RECORD
  5
16C5
330
1
100
AcDbSymbolTableRecord
100
AcDbBlockTableRecord
  2
*D3
340
0
  0
BLOCK_RECORD
  5
16D2
330
1
100
AcDbSymbolTableRecord
100
AcDbBlockTableRecord
  2
*D4
340
0
  0
BLOCK_RECORD
  5
187F
330
1
100
AcDbSymbolTableRecord
100
AcDbBlockTableRecord
  2
*D5
340
0
  0
BLOCK_RECORD
  5
1895
330
1
100
AcDbSymbolTableRecord
100
AcDbBlockTableRecord
  2
*D6
340
0
  0
BLOCK_RECORD
  5
18AB
330
1
100
AcDbSymbolTableRecord
100
AcDbBlockTableRecord
  2
*D7
340
0
  0
BLOCK_RECORD
  5
18C5
330
1
100
AcDbSymbolTableRecord
100
AcDbBlockTableRecord
  2
*D8
340
0
  0
BLOCK_RECORD
  5
1A11
330
1
100
AcDbSymbolTableRecord
100
AcDbBlockTableRecord
  2
*D9
340
0
  0
ENDTAB
  0
ENDSEC
  0
SECTION
  2
BLOCKS
  0
BLOCK
  5
35
330
1E
100
AcDbEntity
  8
0
100
AcDbBlockBegin
  2
*Model_Space
 70
     0
 10
0.0
 20
0.0
 30
0.0
  3
*Model_Space
  1

  0
ENDBLK
  5
36
330
1E
100
AcDbEntity
  8
0
100
AcDbBlockEnd
  0
BLOCK
  5
33
330
1A
100
AcDbEntity
 67
     1
  8
0
100
AcDbBlockBegin
  2
*Paper_Space
 70
     0
 10
0.0
 20
0.0
 30
0.0
  3
*Paper_Space
  1

  0
ENDBLK
  5
34
330
1A
100
AcDbEntity
 67
     1
  8
0
100
AcDbBlockEnd
  0
BLOCK
  5
37
330
22
100
AcDbEntity
  8
0
100
AcDbBlockBegin
  2
LOGO
 70
     0
 10
0.0
 20
0.0
 30
0.0
  3
LOGO
  1

  0
ARC
  5
38
330
22
100
AcDbEntity
  8
0
100
AcDbCircle
 10
11.59973089678112
 20
-9.271599258481501
 30
0.0
 40
4.5
100
AcDbArc
 50
270.0
 51
231.0575587310159
  0
LINE
  5
39
330
22
100
AcDbEntity
  8
0
100
AcDbLine
 10
3.599730896781125
 20
-4.771599258481529
 30
0.0
 11
3.599730896781153
 21
-11.77159925848133
 31
0.0
  0
LINE
  5
3A
330
22
100
AcDbEntity
  8
0
100
AcDbLine
 10
2.599730896781125
 20
-4.771599258481529
 30
0.0
 11
2.599730896781153
 21
-11.77159925848133
 31
0.0
  0
CIRCLE
  5
3B
330
22
100
AcDbEntity
  8
0
100
AcDbCircle
 10
11.59973089678112
 20
-9.271599258481501
 30
0.0
 40
3.5
  0
ARC
  5
3C
330
22
100
AcDbEntity
  8
0
100
AcDbCircle
 10
31.59973089678115
 20
-9.271599258481472
 30
0.0
 40
4.5
100
AcDbArc
 50
270.0
 51
231.0575587310182
  0
LINE
  5
3D
330
22
100
AcDbEntity
  8
0
100
AcDbLine
 10
17.59973089678112
 20
-4.771599258481472
 30
0.0
 11
17.59973089678115
 21
-13.77159925848147
 31
0.0
  0
ARC
  5
3E
330
22
100
AcDbEntity
  8
0
100
AcDbCircle
 10
22.59973089678116
 20
-7.271599258481472
 30
0.0
 40
2.5
100
AcDbArc
 50
293.1161887722295
 51
90.0
  0
CIRCLE
  5
3F
330
22
100
AcDbEntity
  8
0
100
AcDbCircle
 10
31.59973089678115
 20
-9.271599258481472
 30
0.0
 40
3.5
  0
ARC
  5
40
330
22
100
AcDbEntity
  8
0
100
AcDbCircle
 10
4.599730896781153
 20
-11.77159925848133
 30
0.0
 40
1.0
100
AcDbArc
 50
180.0
 51
270.0
  0
ARC
  5
41
330
22
100
AcDbEntity
  8
0
100
AcDbCircle
 10
4.599730896781153
 20
-11.77159925848133
 30
0.0
 40
2.0
100
AcDbArc
 50
179.9999999999992
 51
270.0
  0
LINE
  5
42
330
22
100
AcDbEntity
  8
0
100
AcDbLine
 10
11.59973089678115
 20
-13.77159925848144
 30
0.0
 11
4.599730896781153
 21
-13.77159925848147
 31
0.0
  0
LINE
  5
43
330
22
100
AcDbEntity
  8
0
100
AcDbLine
 10
8.771303772034769
 20
-12.77159925848136
 30
0.0
 11
4.599730896781153
 21
-12.77159925848133
 31
0.0
  0
LINE
  5
44
330
22
100
AcDbEntity
  8
0
100
AcDbLine
 10
31.59973089678115
 20
-13.77159925848147
 30
0.0
 11
23.6715276665056
 21
-13.77159925848144
 31
0.0
  0
LINE
  5
45
330
22
100
AcDbEntity
  8
0
100
AcDbLine
 10
23.56565672307022
 20
-9.51278021337896
 30
0.0
 11
24.4388546544846
 21
-12.77159925848144
 31
0.0
  0
LINE
  5
46
330
22
100
AcDbEntity
  8
0
100
AcDbLine
 10
22.59973089678116
 20
-9.771599258481472
 30
0.0
 11
18.59973089678112
 21
-9.771599258481472
 31
0.0
  0
LINE
  5
47
330
22
100
AcDbEntity
  8
0
100
AcDbLine
 10
18.59973089678115
 20
-13.77159925848144
 30
0.0
 11
17.59973089678115
 21
-13.77159925848144
 31
0.0
  0
LINE
  5
48
330
22
100
AcDbEntity
  8
0
100
AcDbLine
 10
18.59973089678115
 20
-9.771599258481472
 30
0.0
 11
18.59973089678115
 21
-13.77159925848144
 31
0.0
  0
LINE
  5
49
330
22
100
AcDbEntity
  8
0
100
AcDbLine
 10
22.59973089678116
 20
-9.771599258481472
 30
0.0
 11
23.67152766650562
 21
-13.77159925848147
 31
0.0
  0
ARC
  5
4A
330
22
100
AcDbEntity
  8
0
100
AcDbCircle
 10
22.59973089678116
 20
-7.271599258481472
 30
0.0
 40
2.5
100
AcDbArc
 50
270.0
 51
270.0000000000007
  0
LINE
  5
4B
330
22
100
AcDbEntity
  8
0
100
AcDbLine
 10
28.77130377203494
 20
-12.77159925848147
 30
0.0
 11
24.43885465448463
 21
-12.77159925848144
 31
0.0
  0
LINE
  5
4C
330
22
100
AcDbEntity
  8
0
100
AcDbLine
 10
3.599730896781125
 20
-4.771599258481472
 30
0.0
 11
2.599730896781125
 21
-4.771599258481472
 31
0.0
  0
LINE
  5
4D
330
22
100
AcDbEntity
  8
0
100
AcDbLine
 10
22.59973089678116
 20
-8.771599258481472
 30
0.0
 11
18.59973089678115
 21
-8.771599258481472
 31
0.0
  0
LINE
  5
4E
330
22
100
AcDbEntity
  8
0
100
AcDbLine
 10
22.59973089678116
 20
-5.771599258481472
 30
0.0
 11
18.59973089678115
 21
-5.771599258481472
 31
0.0
  0
LINE
  5
4F
330
22
100
AcDbEntity
  8
0
100
AcDbLine
 10
22.59973089678116
 20
-4.771599258481472
 30
0.0
 11
17.59973089678115
 21
-4.771599258481472
 31
0.0
  0
LINE
  5
50
330
22
100
AcDbEntity
  8
0
100
AcDbLine
 10
18.59973089678115
 20
-5.771599258481472
 30
0.0
 11
18.59973089678115
 21
-8.771599258481472
 31
0.0
  0
ARC
  5
51
330
22
100
AcDbEntity
  8
0
100
AcDbCircle
 10
22.59973089678116
 20
-7.271599258481472
 30
0.0
 40
1.5
100
AcDbArc
 50
270.0
 51
90.0
  0
ENDBLK
  5
52
330
22
100
AcDbEntity
  8
0
100
AcDbBlockEnd
  0
BLOCK
  5
164F
330
1645
100
AcDbEntity
  8
0
100
AcDbBlockBegin
  2
*D1
 70
     1
 10
0.0
 20
0.0
 30
0.0
  3
*D1
  1

  0
LINE
  5
1B07
330
1645
100
AcDbEntity
  8
TEXT
 62
     0
370
    -2
100
AcDbLine
 10
159.6832613544287
 20
175.4268011895606
 30
0.0
 11
159.6832613544287
 21
152.5852910996263
 31
0.0
  0
LINE
  5
1B08
330
1645
100
AcDbEntity
  8
TEXT
 62
     0
370
    -2
100
AcDbLine
 10
287.6842613544288
 20
175.4268011895606
 30
0.0
 11
287.6842613544288
 21
152.5852910996263
 31
0.0
  0
LINE
  5
1B09
330
1645
100
AcDbEntity
  8
TEXT
 62
     0
370
    -2
100
AcDbLine
 10
166.6832613544287
 20
154.5852910996264
 30
0.0
 11
280.6842613544288
 21
154.5852910996264
 31
0.0
  0
SOLID
  5
1B0A
330
1645
100
AcDbEntity
  8
TEXT
 62
     0
100
AcDbTrace
 10
166.6832613544287
 20
155.751957766293
 30
0.0
 11
166.6832613544287
 21
153.4186244329597
 31
0.0
 12
159.6832613544287
 22
154.5852910996264
 32
0.0
 13
159.6832613544287
 23
154.5852910996264
 33
0.0
  0
SOLID
  5
1B0B
330
1645
100
AcDbEntity
  8
TEXT
 62
     0
100
AcDbTrace
 10
280.6842613544288
 20
155.751957766293
 30
0.0
 11
280.6842613544288
 21
153.4186244329597
 31
0.0
 12
287.6842613544288
 22
154.5852910996264
 32
0.0
 13
287.6842613544288
 23
154.5852910996264
 33
0.0
  0
MTEXT
  5
1B0C
330
1645
100
AcDbEntity
  8
TEXT
 62
     1
100
AcDbMText
 10
223.6837613544288
 20
161.0852910996263
 30
0.0
 40
7.0
 41
0.0
 71
     5
 72
     1
  1
\A1;128
 73
     1
 44
1.0
  0
POINT
  5
1B0D
330
1645
100
AcDbEntity
  8
Defpoints
 62
     0
100
AcDbPoint
 10
159.6832613544287
 20
177.4268011895606
 30
0.0
  0
POINT
  5
1B0E
330
1645
100
AcDbEntity
  8
Defpoints
 62
     0
100
AcDbPoint
 10
287.6842613544288
 20
177.4268011895606
 30
0.0
  0
POINT
  5
1B0F
330
1645
100
AcDbEntity
  8
Defpoints
 62
     0
100
AcDbPoint
 10
287.6842613544288
 20
154.5852910996264
 30
0.0
  0
ENDBLK
  5
1650
330
1645
100
AcDbEntity
  8
0
100
AcDbBlockEnd
  0
BLOCK
  5
165C
330
1652
100
AcDbEntity
  8
0
100
AcDbBlockBegin
  2
*D2
 70
     1
 10
0.0
 20
0.0
 30
0.0
  3
*D2
  1

  0
LINE
  5
1AFE
330
1652
100
AcDbEntity
  8
TEXT
 62
     0
370
    -2
100
AcDbLine
 10
150.6842613544288
 20
185.4268011895606
 30
0.0
 11
150.6842613544288
 21
136.298442617865
 31
0.0
  0
LINE
  5
1AFF
330
1652
100
AcDbEntity
  8
TEXT
 62
     0
370
    -2
100
AcDbLine
 10
296.6832613544287
 20
185.4268011895605
 30
0.0
 11
296.6832613544287
 21
136.298442617865
 31
0.0
  0
LINE
  5
1B00
330
1652
100
AcDbEntity
  8
TEXT
 62
     0
370
    -2
100
AcDbLine
 10
157.6842613544288
 20
138.298442617865
 30
0.0
 11
289.6832613544287
 21
138.298442617865
 31
0.0
  0
SOLID
  5
1B01
330
1652
100
AcDbEntity
  8
TEXT
 62
     0
100
AcDbTrace
 10
157.6842613544288
 20
139.4651092845317
 30
0.0
 11
157.6842613544288
 21
137.1317759511983
 31
0.0
 12
150.6842613544288
 22
138.298442617865
 32
0.0
 13
150.6842613544288
 23
138.298442617865
 33
0.0
  0
SOLID
  5
1B02
330
1652
100
AcDbEntity
  8
TEXT
 62
     0
100
AcDbTrace
 10
289.6832613544287
 20
139.4651092845317
 30
0.0
 11
289.6832613544287
 21
137.1317759511983
 31
0.0
 12
296.6832613544287
 22
138.298442617865
 32
0.0
 13
296.6832613544287
 23
138.298442617865
 33
0.0
  0
MTEXT
  5
1B03
330
1652
100
AcDbEntity
  8
TEXT
 62
     1
100
AcDbMText
 10
223.6837613544288
 20
144.798442617865
 30
0.0
 40
7.0
 41
0.0
 71
     5
 72
     1
  1
\A1;146
 73
     1
 44
1.0
  0
POINT
  5
1B04
330
1652
100
AcDbEntity
  8
Defpoints
 62
     0
100
AcDbPoint
 10
150.6842613544288
 20
187.4268011895606
 30
0.0
  0
POINT
  5
1B05
330
1652
100
AcDbEntity
  8
Defpoints
 62
     0
100
AcDbPoint
 10
296.6832613544287
 20
187.4268011895605
 30
0.0
  0
POINT
  5
1B06
330
1652
100
AcDbEntity
  8
Defpoints
 62
     0
100
AcDbPoint
 10
296.6832613544287
 20
138.298442617865
 30
0.0
  0
ENDBLK
  5
165D
330
1652
100
AcDbEntity
  8
0
100
AcDbBlockEnd
  0
BLOCK
  5
16CF
330
16C5
100
AcDbEntity
  8
0
100
AcDbBlockBegin
  2
*D3
 70
     1
 10
0.0
 20
0.0
 30
0.0
  3
*D3
  1

  0
LINE
  5
1B19
330
16C5
100
AcDbEntity
  8
BEM
 62
     0
370
    -2
100
AcDbLine
 10
221.6832613544287
 20
244.7150651080002
 30
0.0
 11
140.7187721010927
 21
244.7150651080002
 31
0.0
  0
LINE
  5
1B1A
330
16C5
100
AcDbEntity
  8
BEM
 62
     0
370
    -2
100
AcDbLine
 10
211.1832613544287
 20
394.7150651080002
 30
0.0
 11
140.7187721010927
 21
394.7150651080002
 31
0.0
  0
LINE
  5
1B1B
330
16C5
100
AcDbEntity
  8
BEM
 62
     0
370
    -2
100
AcDbLine
 10
142.7187721010927
 20
251.7150651080002
 30
0.0
 11
142.7187721010928
 21
387.7150651080001
 31
0.0
  0
SOLID
  5
1B1C
330
16C5
100
AcDbEntity
  8
BEM
 62
     0
100
AcDbTrace
 10
141.5521054344261
 20
251.7150651080002
 30
0.0
 11
143.8854387677594
 21
251.7150651080002
 31
0.0
 12
142.7187721010927
 22
244.7150651080002
 32
0.0
 13
142.7187721010927
 23
244.7150651080002
 33
0.0
  0
SOLID
  5
1B1D
330
16C5
100
AcDbEntity
  8
BEM
 62
     0
100
AcDbTrace
 10
141.5521054344261
 20
387.7150651080001
 30
0.0
 11
143.8854387677594
 21
387.7150651080001
 31
0.0
 12
142.7187721010928
 22
394.7150651080002
 32
0.0
 13
142.7187721010928
 23
394.7150651080002
 33
0.0
  0
MTEXT
  5
1B1E
330
16C5
100
AcDbEntity
  8
BEM
 62
     1
100
AcDbMText
 10
136.2187721010927
 20
319.7150651080002
 30
0.0
 40
7.0
 41
0.0
 71
     5
 72
     1
  1
\A1;150
 11
0.0000000000000001
 21
1.0
 31
0.0
 73
     1
 44
1.0
  0
POINT
  5
1B1F
330
16C5
100
AcDbEntity
  8
Defpoints
 62
     0
100
AcDbPoint
 10
223.6832613544287
 20
244.7150651080002
 30
0.0
  0
POINT
  5
1B20
330
16C5
100
AcDbEntity
  8
Defpoints
 62
     0
100
AcDbPoint
 10
213.1832613544287
 20
394.7150651080002
 30
0.0
  0
POINT
  5
1B21
330
16C5
100
AcDbEntity
  8
Defpoints
 62
     0
100
AcDbPoint
 10
142.7187721010928
 20
394.7150651080002
 30
0.0
  0
ENDBLK
  5
16D0
330
16C5
100
AcDbEntity
  8
0
100
AcDbBlockEnd
  0
BLOCK
  5
16DC
330
16D2
100
AcDbEntity
  8
0
100
AcDbBlockBegin
  2
*D4
 70
     1
 10
0.0
 20
0.0
 30
0.0
  3
*D4
  1

  0
LINE
  5
1B10
330
16D2
100
AcDbEntity
  8
BEM
 62
     0
370
    -2
100
AcDbLine
 10
173.6823983329369
 20
509.7158200095855
 30
0.0
 11
124.4600654450069
 21
509.7158200095856
 31
0.0
  0
LINE
  5
1B11
330
16D2
100
AcDbEntity
  8
BEM
 62
     0
370
    -2
100
AcDbLine
 10
221.6832613544287
 20
244.7150651080002
 30
0.0
 11
124.4600654450068
 21
244.7150651080002
 31
0.0
  0
LINE
  5
1B12
330
16D2
100
AcDbEntity
  8
BEM
 62
     0
370
    -2
100
AcDbLine
 10
126.4600654450069
 20
502.7158200095856
 30
0.0
 11
126.4600654450068
 21
251.7150651080002
 31
0.0
  0
SOLID
  5
1B13
330
16D2
100
AcDbEntity
  8
BEM
 62
     0
100
AcDbTrace
 10
125.2933987783402
 20
502.7158200095856
 30
0.0
 11
127.6267321116736
 21
502.7158200095856
 31
0.0
 12
126.4600654450069
 22
509.7158200095856
 32
0.0
 13
126.4600654450069
 23
509.7158200095856
 33
0.0
  0
SOLID
  5
1B14
330
16D2
100
AcDbEntity
  8
BEM
 62
     0
100
AcDbTrace
 10
125.2933987783402
 20
251.7150651080002
 30
0.0
 11
127.6267321116735
 21
251.7150651080002
 31
0.0
 12
126.4600654450068
 22
244.7150651080002
 32
0.0
 13
126.4600654450068
 23
244.7150651080002
 33
0.0
  0
MTEXT
  5
1B15
330
16D2
100
AcDbEntity
  8
BEM
 62
     1
100
AcDbMText
 10
119.9600654450068
 20
377.2154425587929
 30
0.0
 40
7.0
 41
0.0
 71
     5
 72
     1
  1
\A1;265
 11
0.0000000000000001
 21
1.0
 31
0.0
 73
     1
 44
1.0
  0
POINT
  5
1B16
330
16D2
100
AcDbEntity
  8
Defpoints
 62
     0
100
AcDbPoint
 10
175.6823983329369
 20
509.7158200095855
 30
0.0
  0
POINT
  5
1B17
330
16D2
100
AcDbEntity
  8
Defpoints
 62
     0
100
AcDbPoint
 10
223.6832613544287
 20
244.7150651080002
 30
0.0
  0
POINT
  5
1B18
330
16D2
100
AcDbEntity
  8
Defpoints
 62
     0
100
AcDbPoint
 10
126.4600654450068
 20
244.7150651080002
 30
0.0
  0
ENDBLK
  5
16DD
330
16D2
100
AcDbEntity
  8
0
100
AcDbBlockEnd
  0
BLOCK
  5
1889
330
187F
100
AcDbEntity
  8
0
100
AcDbBlockBegin
  2
*D5
 70
     1
 10
0.0
 20
0.0
 30
0.0
  3
*D5
  1

  0
LINE
  5
1AA0
330
187F
100
AcDbEntity
  8
BEM
 62
     0
370
    -2
100
AcDbLine
 10
173.6823983329369
 20
507.7158200095856
 30
0.0
 11
173.6823983329369
 21
522.0015081206293
 31
0.0
  0
LINE
  5
1AA1
330
187F
100
AcDbEntity
  8
BEM
 62
     0
370
    -2
100
AcDbLine
 10
273.6832613544287
 20
507.6950651079999
 30
0.0
 11
273.6832613544287
 21
522.0015081206293
 31
0.0
  0
LINE
  5
1AA2
330
187F
100
AcDbEntity
  8
BEM
 62
     0
370
    -2
100
AcDbLine
 10
180.6823983329369
 20
520.0015081206292
 30
0.0
 11
266.6832613544287
 21
520.0015081206292
 31
0.0
  0
SOLID
  5
1AA3
330
187F
100
AcDbEntity
  8
BEM
 62
     0
100
AcDbTrace
 10
180.6823983329369
 20
521.1681747872959
 30
0.0
 11
180.6823983329369
 21
518.8348414539627
 31
0.0
 12
173.6823983329369
 22
520.0015081206292
 32
0.0
 13
173.6823983329369
 23
520.0015081206292
 33
0.0
  0
SOLID
  5
1AA4
330
187F
100
AcDbEntity
  8
BEM
 62
     0
100
AcDbTrace
 10
266.6832613544287
 20
521.1681747872959
 30
0.0
 11
266.6832613544287
 21
518.8348414539627
 31
0.0
 12
273.6832613544287
 22
520.0015081206292
 32
0.0
 13
273.6832613544287
 23
520.0015081206292
 33
0.0
  0
MTEXT
  5
1AA5
330
187F
100
AcDbEntity
  8
BEM
 62
     1
100
AcDbMText
 10
223.6828298436828
 20
526.5015081206293
 30
0.0
 40
7.0
 41
0.0
 71
     5
 72
     1
  1
\A1;100
 73
     1
 44
1.0
  0
POINT
  5
1AA6
330
187F
100
AcDbEntity
  8
Defpoints
 62
     0
100
AcDbPoint
 10
173.6823983329369
 20
505.7158200095855
 30
0.0
  0
POINT
  5
1AA7
330
187F
100
AcDbEntity
  8
Defpoints
 62
     0
100
AcDbPoint
 10
273.6832613544287
 20
505.6950651079999
 30
0.0
  0
POINT
  5
1AA8
330
187F
100
AcDbEntity
  8
Defpoints
 62
     0
100
AcDbPoint
 10
273.6832613544287
 20
520.0015081206292
 30
0.0
  0
ENDBLK
  5
188A
330
187F
100
AcDbEntity
  8
0
100
AcDbBlockEnd
  0
BLOCK
  5
189F
330
1895
100
AcDbEntity
  8
0
100
AcDbBlockBegin
  2
*D6
 70
     1
 10
0.0
 20
0.0
 30
0.0
  3
*D6
  1

  0
LINE
  5
1A97
330
1895
100
AcDbEntity
  8
BEM
 62
     0
370
    -2
100
AcDbLine
 10
173.6823983329369
 20
507.7158200095856
 30
0.0
 11
141.0300075932118
 21
507.7158200095856
 31
0.0
  0
LINE
  5
1A98
330
1895
100
AcDbEntity
  8
BEM
 62
     0
370
    -2
100
AcDbLine
 10
173.6823983329368
 20
407.7158200095856
 30
0.0
 11
141.0300075932118
 21
407.7158200095856
 31
0.0
  0
LINE
  5
1A99
330
1895
100
AcDbEntity
  8
BEM
 62
     0
370
    -2
100
AcDbLine
 10
143.0300075932118
 20
500.7158200095855
 30
0.0
 11
143.0300075932118
 21
414.7158200095856
 31
0.0
  0
SOLID
  5
1A9A
330
1895
100
AcDbEntity
  8
BEM
 62
     0
100
AcDbTrace
 10
141.8633409265452
 20
500.7158200095855
 30
0.0
 11
144.1966742598785
 21
500.7158200095855
 31
0.0
 12
143.0300075932118
 22
507.7158200095856
 32
0.0
 13
143.0300075932118
 23
507.7158200095856
 33
0.0
  0
SOLID
  5
1A9B
330
1895
100
AcDbEntity
  8
BEM
 62
     0
100
AcDbTrace
 10
141.8633409265452
 20
414.7158200095856
 30
0.0
 11
144.1966742598785
 21
414.7158200095856
 31
0.0
 12
143.0300075932118
 22
407.7158200095856
 32
0.0
 13
143.0300075932118
 23
407.7158200095856
 33
0.0
  0
MTEXT
  5
1A9C
330
1895
100
AcDbEntity
  8
BEM
 62
     1
100
AcDbMText
 10
136.5300075932118
 20
457.7158200095856
 30
0.0
 40
7.0
 41
0.0
 71
     5
 72
     1
  1
\A1;100
 11
0.0000000000000001
 21
1.0
 31
0.0
 73
     1
 44
1.0
  0
POINT
  5
1A9D
330
1895
100
AcDbEntity
  8
Defpoints
 62
     0
100
AcDbPoint
 10
175.6823983329369
 20
507.7158200095856
 30
0.0
  0
POINT
  5
1A9E
330
1895
100
AcDbEntity
  8
Defpoints
 62
     0
100
AcDbPoint
 10
175.6823983329368
 20
407.7158200095856
 30
0.0
  0
POINT
  5
1A9F
330
1895
100
AcDbEntity
  8
Defpoints
 62
     0
100
AcDbPoint
 10
143.0300075932118
 20
407.7158200095856
 30
0.0
  0
ENDBLK
  5
18A0
330
1895
100
AcDbEntity
  8
0
100
AcDbBlockEnd
  0
BLOCK
  5
18B7
330
18AB
100
AcDbEntity
  8
0
100
AcDbBlockBegin
  2
*D7
 70
     1
 10
0.0
 20
0.0
 30
0.0
  3
*D7
  1

  0
LINE
  5
1A8C
330
18AB
100
AcDbEntity
  8
BEM
 62
     0
370
    -2
100
AcDbLine
 10
173.6823983329369
 20
507.7158200095856
 30
0.0
 11
141.0300075932118
 21
507.7158200095856
 31
0.0
  0
LINE
  5
1A8D
330
18AB
100
AcDbEntity
  8
BEM
 62
     0
370
    -2
100
AcDbLine
 10
173.6823983329369
 20
509.7158200095855
 30
0.0
 11
141.0300075932118
 21
509.7158200095855
 31
0.0
  0
LINE
  5
1A8E
330
18AB
100
AcDbEntity
  8
BEM
 62
     0
370
    -2
100
AcDbLine
 10
143.0300075932118
 20
500.7158200095855
 30
0.0
 11
143.0300075932118
 21
493.7158200095855
 31
0.0
  0
LINE
  5
1A8F
330
18AB
100
AcDbEntity
  8
BEM
 62
     0
370
    -2
100
AcDbLine
 10
143.0300075932118
 20
516.7158200095856
 30
0.0
 11
143.0300075932118
 21
533.4491533429189
 31
0.0
  0
LINE
  5
1A90
330
18AB
100
AcDbEntity
  8
BEM
 62
     0
370
    -2
100
AcDbLine
 10
143.0300075932118
 20
507.7158200095856
 30
0.0
 11
143.0300075932118
 21
509.7158200095855
 31
0.0
  0
SOLID
  5
1A91
330
18AB
100
AcDbEntity
  8
BEM
 62
     0
100
AcDbTrace
 10
141.8633409265452
 20
500.7158200095855
 30
0.0
 11
144.1966742598785
 21
500.7158200095855
 31
0.0
 12
143.0300075932118
 22
507.7158200095856
 32
0.0
 13
143.0300075932118
 23
507.7158200095856
 33
0.0
  0
SOLID
  5
1A92
330
18AB
100
AcDbEntity
  8
BEM
 62
     0
100
AcDbTrace
 10
141.8633409265452
 20
516.7158200095856
 30
0.0
 11
144.1966742598785
 21
516.7158200095856
 31
0.0
 12
143.0300075932118
 22
509.7158200095855
 32
0.0
 13
143.0300075932118
 23
509.7158200095855
 33
0.0
  0
MTEXT
  5
1A93
330
18AB
100
AcDbEntity
  8
BEM
 62
     1
100
AcDbMText
 10
136.5300075932118
 20
528.5824866762522
 30
0.0
 40
7.0
 41
0.0
 71
     5
 72
     1
  1
\A1;2
 11
0.0000000000000001
 21
1.0
 31
0.0
 73
     1
 44
1.0
  0
POINT
  5
1A94
330
18AB
100
AcDbEntity
  8
Defpoints
 62
     0
100
AcDbPoint
 10
175.6823983329369
 20
507.7158200095856
 30
0.0
  0
POINT
  5
1A95
330
18AB
100
AcDbEntity
  8
Defpoints
 62
     0
100
AcDbPoint
 10
175.6823983329369
 20
509.7158200095855
 30
0.0
  0
POINT
  5
1A96
330
18AB
100
AcDbEntity
  8
Defpoints
 62
     0
100
AcDbPoint
 10
143.0300075932118
 20
509.7158200095855
 30
0.0
  0
ENDBLK
  5
18B8
330
18AB
100
AcDbEntity
  8
0
100
AcDbBlockEnd
  0
BLOCK
  5
18CF
330
18C5
100
AcDbEntity
  8
0
100
AcDbBlockBegin
  2
*D8
 70
     1
 10
0.0
 20
0.0
 30
0.0
  3
*D8
  1

  0
LINE
  5
1AF5
330
18C5
100
AcDbEntity
  8
BEM
 62
     0
370
    -2
100
AcDbLine
 10
153.6832613544288
 20
174.9268011895606
 30
0.0
 11
134.1961564317151
 21
174.9268011895606
 31
0.0
  0
LINE
  5
1AF6
330
18C5
100
AcDbEntity
  8
BEM
 62
     0
370
    -2
100
AcDbLine
 10
153.6832613544288
 20
199.9268011895607
 30
0.0
 11
134.1961564317152
 21
199.9268011895607
 31
0.0
  0
LINE
  5
1AF7
330
18C5
100
AcDbEntity
  8
BEM
 62
     0
370
    -2
100
AcDbLine
 10
136.1961564317151
 20
181.9268011895606
 30
0.0
 11
136.1961564317152
 21
192.9268011895607
 31
0.0
  0
SOLID
  5
1AF8
330
18C5
100
AcDbEntity
  8
BEM
 62
     0
100
AcDbTrace
 10
135.0294897650485
 20
181.9268011895606
 30
0.0
 11
137.3628230983818
 21
181.9268011895606
 31
0.0
 12
136.1961564317151
 22
174.9268011895606
 32
0.0
 13
136.1961564317151
 23
174.9268011895606
 33
0.0
  0
SOLID
  5
1AF9
330
18C5
100
AcDbEntity
  8
BEM
 62
     0
100
AcDbTrace
 10
135.0294897650485
 20
192.9268011895607
 30
0.0
 11
137.3628230983818
 21
192.9268011895607
 31
0.0
 12
136.1961564317152
 22
199.9268011895607
 32
0.0
 13
136.1961564317152
 23
199.9268011895607
 33
0.0
  0
MTEXT
  5
1AFA
330
18C5
100
AcDbEntity
  8
BEM
 62
     1
100
AcDbMText
 10
129.6961564317151
 20
187.4268011895607
 30
0.0
 40
7.0
 41
0.0
 71
     5
 72
     1
  1
\A1;25
 11
0.0000000000000001
 21
1.0
 31
0.0
 73
     1
 44
1.0
  0
POINT
  5
1AFB
330
18C5
100
AcDbEntity
  8
Defpoints
 62
     0
100
AcDbPoint
 10
155.6832613544288
 20
174.9268011895606
 30
0.0
  0
POINT
  5
1AFC
330
18C5
100
AcDbEntity
  8
Defpoints
 62
     0
100
AcDbPoint
 10
155.6832613544288
 20
199.9268011895607
 30
0.0
  0
POINT
  5
1AFD
330
18C5
100
AcDbEntity
  8
Defpoints
 62
     0
100
AcDbPoint
 10
136.1961564317152
 20
199.9268011895607
 30
0.0
  0
ENDBLK
  5
18D0
330
18C5
100
AcDbEntity
  8
0
100
AcDbBlockEnd
  0
BLOCK
  5
1A1D
330
1A11
100
AcDbEntity
  8
0
100
AcDbBlockBegin
  2
*D9
 70
     1
 10
0.0
 20
0.0
 30
0.0
  3
*D9
  1

  0
LINE
  5
1B22
330
1A11
100
AcDbEntity
  8
BEM
 62
     0
370
    -2
100
AcDbLine
 10
227.1832613544287
 20
324.4749958474395
 30
0.0
 11
227.1832613544287
 21
324.7127916092622
 31
0.0
  0
LINE
  5
1B23
330
1A11
100
AcDbEntity
  8
BEM
 62
     0
370
    -2
100
AcDbLine
 10
220.1832613544287
 20
324.4749958474395
 30
0.0
 11
220.1832613544287
 21
324.7127916092622
 31
0.0
  0
LINE
  5
1B24
330
1A11
100
AcDbEntity
  8
BEM
 62
     0
370
    -2
100
AcDbLine
 10
234.1832613544287
 20
322.7127916092622
 30
0.0
 11
241.1832613544287
 21
322.7127916092622
 31
0.0
  0
LINE
  5
1B25
330
1A11
100
AcDbEntity
  8
BEM
 62
     0
370
    -2
100
AcDbLine
 10
213.1832613544287
 20
322.7127916092622
 30
0.0
 11
192.4499280210954
 21
322.7127916092622
 31
0.0
  0
LINE
  5
1B26
330
1A11
100
AcDbEntity
  8
BEM
 62
     0
370
    -2
100
AcDbLine
 10
227.1832613544287
 20
322.7127916092622
 30
0.0
 11
220.1832613544287
 21
322.7127916092622
 31
0.0
  0
SOLID
  5
1B27
330
1A11
100
AcDbEntity
  8
BEM
 62
     0
100
AcDbTrace
 10
234.1832613544287
 20
323.8794582759289
 30
0.0
 11
234.1832613544287
 21
321.5461249425956
 31
0.0
 12
227.1832613544287
 22
322.7127916092622
 32
0.0
 13
227.1832613544287
 23
322.7127916092622
 33
0.0
  0
SOLID
  5
1B28
330
1A11
100
AcDbEntity
  8
BEM
 62
     0
100
AcDbTrace
 10
213.1832613544287
 20
323.8794582759289
 30
0.0
 11
213.1832613544287
 21
321.5461249425956
 31
0.0
 12
220.1832613544287
 22
322.7127916092622
 32
0.0
 13
220.1832613544287
 23
322.7127916092622
 33
0.0
  0
MTEXT
  5
1B29
330
1A11
100
AcDbEntity
  8
BEM
 62
     1
100
AcDbMText
 10
197.316594687762
 20
329.2127916092622
 30
0.0
 40
7.0
 41
0.0
 71
     5
 72
     1
  1
\A1;7
 73
     1
 44
1.0
  0
POINT
  5
1B2A
330
1A11
100
AcDbEntity
  8
Defpoints
 62
     0
100
AcDbPoint
 10
227.1832613544287
 20
322.4749958474395
 30
0.0
  0
POINT
  5
1B2B
330
1A11
100
AcDbEntity
  8
Defpoints
 62
     0
100
AcDbPoint
 10
220.1832613544287
 20
322.4749958474395
 30
0.0
  0
POINT
  5
1B2C
330
1A11
100
AcDbEntity
  8
Defpoints
 62
     0
100
AcDbPoint
 10
220.1832613544287
 20
322.7127916092622
 30
0.0
  0
ENDBLK
  5
1A1E
330
1A11
100
AcDbEntity
  8
0
100
AcDbBlockEnd
  0
ENDSEC
  0
SECTION
  2
ENTITIES
  0
LINE
  5
57
330
1E
100
AcDbEntity
  8
STEMPEL
100
AcDbLine
 10
410.0
 20
110.0
 30
0.0
 11
39.99999999999997
 21
110.0
 31
0.0
  0
LINE
  5
58
330
1E
100
AcDbEntity
  8
STEMPEL
100
AcDbLine
 10
136.0000000000001
 20
109.9999999999999
 30
0.0
 11
136.0
 21
9.999999999999971
 31
0.0
  0
LINE
  5
59
330
1E
100
AcDbEntity
  8
STEMPEL
100
AcDbLine
 10
220.0
 20
110.0
 30
0.0
 11
220.0
 21
9.999999999999971
 31
0.0
  0
LINE
  5
5A
330
1E
100
AcDbEntity
  8
STEMPEL
100
AcDbLine
 10
332.0
 20
109.9999999999997
 30
0.0
 11
332.0
 21
40.0
 31
0.0
  0
LINE
  5
5B
330
1E
100
AcDbEntity
  8
STEMPEL
100
AcDbLine
 10
135.9999999999999
 20
29.99999999999997
 30
0.0
 11
39.99999999999997
 21
29.99999999999997
 31
0.0
  0
LINE
  5
5C
330
1E
100
AcDbEntity
  8
STEMPEL
100
AcDbLine
 10
410.0
 20
40.0
 30
0.0
 11
136.0000000000001
 21
39.99999999999997
 31
0.0
  0
LINE
  5
5D
330
1E
100
AcDbEntity
  8
STEMPEL
100
AcDbLine
 10
410.0
 20
80.0
 30
0.0
 11
136.0000000000001
 21
79.99999999999994
 31
0.0
  0
LINE
  5
5E
330
1E
100
AcDbEntity
  8
VOLL
100
AcDbLine
 10
54.00000000000009
 20
110.0
 30
0.0
 11
53.99999999999997
 21
9.999999999999971
 31
0.0
  0
LINE
  5
5F
330
1E
100
AcDbEntity
  8
VOLL
100
AcDbLine
 10
94.00000000000011
 20
109.9999999999999
 30
0.0
 11
94.0
 21
9.999999999999971
 31
0.0
  0
LINE
  5
60
330
1E
100
AcDbEntity
  8
VOLL
100
AcDbLine
 10
114.0000000000001
 20
109.9999999999999
 30
0.0
 11
114.0
 21
9.999999999999971
 31
0.0
  0
LINE
  5
61
330
1E
100
AcDbEntity
  8
VOLL
100
AcDbLine
 10
154.0000000000001
 20
79.99999999999994
 30
0.0
 11
154.0000000000001
 21
39.99999999999997
 31
0.0
  0
LINE
  5
62
330
1E
100
AcDbEntity
  8
VOLL
100
AcDbLine
 10
180.0000000000001
 20
109.9999999999998
 30
0.0
 11
180.0
 21
39.99999999999997
 31
0.0
  0
LINE
  5
63
330
1E
100
AcDbEntity
  8
HILF
100
AcDbLine
 10
40.00000000000008
 20
100.0
 30
0.0
 11
136.0000000000001
 21
100.0
 31
0.0
  0
LINE
  5
64
330
1E
100
AcDbEntity
  8
HILF
100
AcDbLine
 10
40.00000000000008
 20
90.00000000000005
 30
0.0
 11
136.0000000000001
 21
90.00000000000005
 31
0.0
  0
LINE
  5
65
330
1E
100
AcDbEntity
  8
HILF
100
AcDbLine
 10
40.00000000000008
 20
79.99999999999994
 30
0.0
 11
136.0000000000001
 21
79.99999999999994
 31
0.0
  0
LINE
  5
66
330
1E
100
AcDbEntity
  8
HILF
100
AcDbLine
 10
40.00000000000008
 20
69.99999999999994
 30
0.0
 11
136.0000000000001
 21
69.99999999999994
 31
0.0
  0
LINE
  5
67
330
1E
100
AcDbEntity
  8
HILF
100
AcDbLine
 10
40.00000000000008
 20
59.99999999999997
 30
0.0
 11
136.0000000000001
 21
59.99999999999997
 31
0.0
  0
LINE
  5
68
330
1E
100
AcDbEntity
  8
HILF
100
AcDbLine
 10
40.00000000000008
 20
49.99999999999997
 30
0.0
 11
136.0000000000001
 21
49.99999999999997
 31
0.0
  0
LINE
  5
69
330
1E
100
AcDbEntity
  8
HILF
100
AcDbLine
 10
40.00000000000008
 20
39.99999999999997
 30
0.0
 11
136.0000000000001
 21
39.99999999999997
 31
0.0
  0
LINE
  5
6A
330
1E
100
AcDbEntity
  8
HILF
100
AcDbLine
 10
136.0000000000001
 20
69.99999999999994
 30
0.0
 11
220.0
 21
69.99999999999994
 31
0.0
  0
LINE
  5
6B
330
1E
100
AcDbEntity
  8
HILF
100
AcDbLine
 10
136.0000000000001
 20
59.99999999999997
 30
0.0
 11
220.0
 21
59.99999999999997
 31
0.0
  0
LINE
  5
6C
330
1E
100
AcDbEntity
  8
HILF
100
AcDbLine
 10
136.0000000000001
 20
49.99999999999997
 30
0.0
 11
220.0
 21
49.99999999999997
 31
0.0
  0
LINE
  5
6D
330
1E
100
AcDbEntity
  8
HILF
100
AcDbLine
 10
224.7736801096948
 20
84.03758247564139
 30
0.0
 11
324.8353916556311
 21
84.03758247564139
 31
0.0
  0
LINE
  5
6E
330
1E
100
AcDbEntity
  8
HILF
100
AcDbLine
 10
224.7736801096948
 20
69.99999999999994
 30
0.0
 11
324.835391655631
 21
69.99999999999994
 31
0.0
  0
LINE
  5
6F
330
1E
100
AcDbEntity
  8
HILF
100
AcDbLine
 10
224.7736801096948
 20
59.99999999999997
 30
0.0
 11
324.835391655631
 21
59.99999999999997
 31
0.0
  0
LINE
  5
70
330
1E
100
AcDbEntity
  8
HILF
100
AcDbLine
 10
224.7736801096948
 20
49.99999999999997
 30
0.0
 11
324.835391655631
 21
49.99999999999997
 31
0.0
  0
LINE
  5
71
330
1E
100
AcDbEntity
  8
VOLL
100
AcDbLine
 10
332.0
 20
60.0
 30
0.0
 11
410.0
 21
60.0
 31
0.0
  0
LINE
  5
72
330
1E
100
AcDbEntity
  8
HILF
100
AcDbLine
 10
336.7238616296993
 20
83.77983636955827
 30
0.0
 11
404.8588839326728
 21
83.77983636955827
 31
0.0
  0
LINE
  5
73
330
1E
100
AcDbEntity
  8
HILF
100
AcDbLine
 10
223.4909699289885
 20
14.89398258028314
 30
0.0
 11
404.8588839326728
 21
14.89398258028314
 31
0.0
  0
TEXT
  5
74
330
1E
100
AcDbEntity
  8
TEXT
100
AcDbText
 10
63.86165979631819
 20
18.67381894984132
 30
0.0
 40
4.0
  1
Änderung
 41
0.8
  7
GREEKS
 72
     1
 11
74.60451693917534
 21
18.67381894984132
 31
0.0
100
AcDbText
  0
TEXT
  5
75
330
1E
100
AcDbEntity
  8
TEXT
100
AcDbText
 10
143.5163572150377
 20
102.4620895087088
 30
0.0
 40
5.0
  1
Maßstab
 41
0.8
  7
GREEKS
100
AcDbText
  0
TEXT
  5
76
330
1E
100
AcDbEntity
  8
TEXT
100
AcDbText
 10
184.2858954734051
 20
102.4184168434819
 30
0.0
 40
5.0
  1
Zul. Abw.
 41
0.8
  7
GREEKS
100
AcDbText
  0
TEXT
  5
77
330
1E
100
AcDbEntity
  8
TEXT
100
AcDbText
 10
224.877940380901
 20
102.5489328011779
 30
0.0
 40
5.0
  1
Benennung
 41
0.8
  7
GREEKS
100
AcDbText
  0
TEXT
  5
78
330
1E
100
AcDbEntity
  8
TEXT
100
AcDbText
 10
336.178754957634
 20
102.3132034537136
 30
0.0
 40
5.0
  1
Zeichnungs Nr.
 41
0.8
  7
GREEKS
100
AcDbText
  0
TEXT
  5
79
330
1E
100
AcDbEntity
  8
TEXT
100
AcDbText
 10
224.742238391136
 20
30.84560570193057
 30
0.0
 40
5.0
  1
Bauvorhaben
 41
0.8
  7
GREEKS
100
AcDbText
  0
TEXT
  5
7A
330
1E
100
AcDbEntity
  8
TEXT
100
AcDbText
 10
336.7238616296993
 20
73.1811823709997
 30
0.0
 40
5.0
  1
Ersatz für:
 41
0.8
  7
GREEKS
100
AcDbText
  0
TEXT
  5
7B
330
1E
100
AcDbEntity
  8
TEXT
100
AcDbText
 10
48.26641107045756
 20
13.65465846027192
 30
0.0
 40
4.0
  1
Index
 50
90.0
 41
0.8
  7
GREEKS
100
AcDbText
  0
TEXT
  5
7C
330
1E
100
AcDbEntity
  8
TEXT
100
AcDbText
 10
100.0934676075481
 20
18.6715626933981
 30
0.0
 40
4.0
  1
Tag
 41
0.8
  7
GREEKS
 72
     1
 11
103.8268009408814
 21
18.6715626933981
 31
0.0
100
AcDbText
  0
TEXT
  5
7D
330
1E
100
AcDbEntity
  8
TEXT
100
AcDbText
 10
119.0122744386592
 20
18.59324216966408
 30
0.0
 40
4.0
  1
Name
 41
0.8
  7
GREEKS
 72
     1
 11
125.3360839624688
 21
18.59324216966408
 31
0.0
100
AcDbText
  0
TEXT
  5
7E
330
1E
100
AcDbEntity
  8
TEXT
100
AcDbText
 10
162.3311673153651
 20
73.31880501229926
 30
0.0
 40
4.0
  1
Tag
 41
0.8
  7
GREEKS
100
AcDbText
  0
TEXT
  5
7F
330
1E
100
AcDbEntity
  8
TEXT
100
AcDbText
 10
192.4626584226295
 20
73.30961091915225
 30
0.0
 40
4.0
  1
Name
 41
0.8
  7
GREEKS
100
AcDbText
  0
TEXT
  5
80
330
1E
100
AcDbEntity
  8
TEXT
100
AcDbText
 10
137.5836127167615
 20
63.62990369617964
 30
0.0
 40
4.0
  1
Gez.
 41
0.8
  7
GREEKS
100
AcDbText
  0
TEXT
  5
81
330
1E
100
AcDbEntity
  8
TEXT
100
AcDbText
 10
137.5515086571672
 20
53.68926291428377
 30
0.0
 40
4.0
  1
Gepr.
 41
0.8
  7
GREEKS
100
AcDbText
  0
TEXT
  5
82
330
1E
100
AcDbEntity
  8
TEXT
100
AcDbText
 10
137.6006777387304
 20
43.52946389649807
 30
0.0
 40
4.0
  1
Norm.
 41
0.8
  7
GREEKS
100
AcDbText
  0
LINE
  5
83
330
1E
100
AcDbEntity
  8
STEMPEL
100
AcDbLine
 10
49.99999999999989
 20
10.0
 30
0.0
 11
410.0
 21
10.0
 31
0.0
  0
TEXT
  5
84
330
1E
100
AcDbEntity
  8
TEXT
100
AcDbText
 10
337.2400861497006
 20
52.07416177878602
 30
0.0
 40
5.0
  1
ersetzt durch:
 41
0.8
  7
GREEKS
100
AcDbText
  0
LINE
  5
85
330
1E
100
AcDbEntity
  8
STEMPEL
100
AcDbLine
 10
410.0
 20
10.0
 30
0.0
 11
39.99999999999989
 21
10.0
 31
0.0
  0
LINE
  5
86
330
1E
100
AcDbEntity
  8
STEMPEL
100
AcDbLine
 10
410.0
 20
10.0
 30
0.0
 11
410.0
 21
584.0
 31
0.0
  0
LINE
  5
87
330
1E
100
AcDbEntity
  8
STEMPEL
100
AcDbLine
 10
40.0
 20
10.0
 30
0.0
 11
39.99999999999989
 21
584.0
 31
0.0
  0
LINE
  5
88
330
1E
100
AcDbEntity
  8
STEMPEL
100
AcDbLine
 10
410.0
 20
584.0
 30
0.0
 11
39.99999999999989
 21
584.0
 31
0.0
  0
LINE
  5
89
330
1E
100
AcDbEntity
  8
HILF
100
AcDbLine
 10
0.0
 20
0.0
 30
0.0
 11
-0.0000000000001137
 21
594.0
 31
0.0
  0
LINE
  5
8A
330
1E
100
AcDbEntity
  8
HILF
100
AcDbLine
 10
419.9999999999999
 20
594.0000000000002
 30
0.0
 11
0.0
 21
594.0
 31
0.0
  0
LINE
  5
8B
330
1E
100
AcDbEntity
  8
HILF
100
AcDbLine
 10
420.0
 20
0.0
 30
0.0
 11
0.0
 21
0.0
 31
0.0
  0
LINE
  5
8C
330
1E
100
AcDbEntity
  8
HILF
100
AcDbLine
 10
31.08767135713856
 20
297.0
 30
0.0
 11
0.0000000000001137
 21
297.0
 31
0.0
  0
TEXT
  5
8D
330
1E
100
AcDbEntity
  8
TEXT
100
AcDbText
 10
138.622109822104
 20
73.14025471151666
 30
0.0
 40
4.0
  1
2011
 41
0.8
  7
GREEKS
100
AcDbText
  0
LINE
  5
8E
330
1E
100
AcDbEntity
  8
HILF
100
AcDbLine
 10
420.0
 20
-0.0000000000001137
 30
0.0
 11
419.9999999999999
 21
594.0
 31
0.0
  0
TEXT
  5
8F
330
1E
100
AcDbEntity
  8
VOLL
100
AcDbText
 10
78.07675471698113
 20
31.02594776470585
 30
0.0
 40
1.8
  1

  7
GREEKS
100
AcDbText
  0
TEXT
  5
90
330
1E
100
AcDbEntity
  8
TEXT
100
AcDbText
 10
41.85509950977674
 20
111.6719999999999
 30
0.0
 40
5.0
  1
Erstellt mit AUTOCAD 2004
 41
0.8
  7
GREEKS
100
AcDbText
  0
TEXT
  5
91
330
1E
100
AcDbEntity
  8
TEXT
100
AcDbText
 10
194.4216048581257
 20
63.0896391972351
 30
0.0
 40
4.0
  1
Koeh
 41
0.8
  7
GREEKS
 72
     1
 11
199.6787477152685
 21
63.0896391972351
 31
0.0
100
AcDbText
  0
TEXT
  5
92
330
1E
100
AcDbEntity
  8
TEXT
 62
     1
100
AcDbText
 10
345.3756709187106
 20
88.14901428913959
 30
0.0
 40
7.0
  1
00992100W
 41
0.8
  7
GREEKS
 72
     1
 11
368.8423375853773
 21
88.14901428913959
 31
0.0
100
AcDbText
  0
TEXT
  5
93
330
1E
100
AcDbEntity
  8
TEXT
 62
     1
100
AcDbText
 10
150.5006306481887
 20
88.14901428913959
 30
0.0
 40
7.0
  1
1:2
 41
0.8
  7
GREEKS
100
AcDbText
  0
TEXT
  5
94
330
1E
100
AcDbEntity
  8
TEXT
100
AcDbText
 10
160.398997108236
 20
63.10765040825732
 30
0.0
 40
4.0
  1
28.03.
 41
0.8
  7
GREEKS
 72
     1
 11
167.4085209177598
 21
63.10765040825732
 31
0.0
100
AcDbText
  0
TEXT
  5
95
330
1E
100
AcDbEntity
  8
TEXT
 62
     1
100
AcDbText
 10
226.8935731057402
 20
87.41748789253779
 30
0.0
 40
7.0
  1
Rohrschelle   DN100
 41
0.8
  7
GREEKS
100
AcDbText
  0
TEXT
  5
96
330
1E
100
AcDbEntity
  8
TEXT
100
AcDbText
 10
225.1296391125315
 20
71.50334417585288
 30
0.0
 40
5.0
  1
mit Schlagstift 150mm
 41
0.8
  7
GREEKS
100
AcDbText
  0
TEXT
  5
98
330
1E
100
AcDbEntity
  8
TEXT
100
AcDbText
 10
225.1296391125315
 20
51.64011943042158
 30
0.0
 40
5.0
  1
EDV-Art.Nr. 00992.100X
 41
0.8
  7
GREEKS
100
AcDbText
  0
TEXT
  5
99
330
1E
100
AcDbEntity
  8
TEXT
100
AcDbText
 10
224.9837501577827
 20
42.62974153022632
 30
0.0
 40
4.0
  1
00992100W.DWG
 41
0.8
  7
GREEKS
100
AcDbText
  0
TEXT
  5
9A
330
1E
100
AcDbEntity
  8
TEXT
100
AcDbText
 10
182.626132208084
 20
90.76363841023022
 30
0.0
 40
4.0
  1
DIN EN1123-2
 41
0.8
  7
GREEKS
 72
     1
 11
199.6166083985602
 21
90.76363841023022
 31
0.0
100
AcDbText
  0
INSERT
  5
9B
330
1E
100
AcDbEntity
  8
STEMPEL
100
AcDbBlockReference
  2
LOGO
 10
140.9955485457794
 20
45.02105276448322
 30
0.0
 41
2.0
 42
2.0
 43
2.0
  0
TEXT
  5
118
330
1E
100
AcDbEntity
  8
BEM
100
AcDbText
 10
417.3022923857165
 20
10.16790107998849
 30
0.0
 40
4.0
  1
Diese Zeichnung ist urheberrechtlich geschützt und bleibt unser Eigentum. Sie darf weder ganz noch teilweise verfielfältigt und nicht an Dritte weitergegeben werden.
 50
90.0
 41
0.8
  7
GREEKS
100
AcDbText
  0
TEXT
  5
7A1
330
1E
100
AcDbEntity
  8
TEXT
 62
     1
100
AcDbText
 10
257.8365522679117
 20
115.6405708316599
 30
0.0
 40
7.0
  1
Werkstoff: St37 feuerverzinkt
 41
0.8
  7
GREEKS
100
AcDbText
  0
TEXT
  5
C1B
330
1E
100
AcDbEntity
  8
TEXT
 62
     1
100
AcDbText
 10
309.6787524399604
 20
486.3200151665701
 30
0.0
 40
7.0
  1
Schraube M6x20
 41
0.8
  7
GREEKS
100
AcDbText
  0
LINE
  5
C1C
330
1E
100
AcDbEntity
  8
TEXT
 62
     2
100
AcDbLine
 10
307.5588594439149
 20
482.9401097496736
 30
0.0
 11
382.5605412615454
 21
482.9401097496736
 31
0.0
  0
LINE
  5
C1D
330
1E
100
AcDbEntity
  8
TEXT
 62
     2
100
AcDbLine
 10
307.5588594439149
 20
482.9401097496736
 30
0.0
 11
292.3203775482225
 21
462.046067385912
 31
0.0
  0
CIRCLE
  5
1542
330
1E
100
AcDbEntity
  8
STEMPEL
100
AcDbCircle
 10
287.6842613544288
 20
187.4268011895606
 30
0.0
 40
5.0
  0
LINE
  5
1543
330
1E
100
AcDbEntity
  8
HILF
100
AcDbLine
 10
288.4342613544287
 20
184.3588011895606
 30
0.0
 11
286.9342613544288
 21
184.3588011895606
 31
0.0
  0
LINE
  5
1544
330
1E
100
AcDbEntity
  8
HILF
100
AcDbLine
 10
288.4342613544287
 20
190.4958011895606
 30
0.0
 11
286.9342613544288
 21
190.4958011895606
 31
0.0
  0
LINE
  5
1545
330
1E
100
AcDbEntity
  8
HILF
100
AcDbLine
 10
285.6372613544287
 20
185.3808011895606
 30
0.0
 11
286.6942613544288
 21
186.6768011895606
 31
0.0
  0
LINE
  5
1546
330
1E
100
AcDbEntity
  8
HILF
100
AcDbLine
 10
286.9342613544288
 20
186.4378011895605
 30
0.0
 11
285.6372613544287
 21
185.3808011895606
 31
0.0
  0
LINE
  5
1547
330
1E
100
AcDbEntity
  8
HILF
100
AcDbLine
 10
289.7302613544288
 20
185.3808011895606
 30
0.0
 11
288.4342613544287
 21
186.4378011895605
 31
0.0
  0
LINE
  5
1548
330
1E
100
AcDbEntity
  8
HILF
100
AcDbLine
 10
288.6742613544288
 20
186.6768011895606
 30
0.0
 11
289.7302613544288
 21
185.3808011895606
 31
0.0
  0
LINE
  5
1549
330
1E
100
AcDbEntity
  8
HILF
100
AcDbLine
 10
289.7302613544288
 20
189.4738011895606
 30
0.0
 11
288.6742613544288
 21
188.1768011895606
 31
0.0
  0
LINE
  5
154A
330
1E
100
AcDbEntity
  8
HILF
100
AcDbLine
 10
288.4342613544287
 20
188.4168011895606
 30
0.0
 11
289.7302613544288
 21
189.4738011895606
 31
0.0
  0
LINE
  5
154B
330
1E
100
AcDbEntity
  8
HILF
100
AcDbLine
 10
285.6372613544287
 20
189.4738011895606
 30
0.0
 11
286.9342613544288
 21
188.4168011895606
 31
0.0
  0
LINE
  5
154C
330
1E
100
AcDbEntity
  8
HILF
100
AcDbLine
 10
286.6942613544288
 20
188.1768011895606
 30
0.0
 11
285.6372613544287
 21
189.4738011895606
 31
0.0
  0
ARC
  5
154D
330
1E
100
AcDbEntity
  8
HILF
100
AcDbCircle
 10
287.6842613544288
 20
187.4268011895606
 30
0.0
 40
1.274999999999999
100
AcDbArc
 50
143.9687949600013
 51
216.0312050399987
  0
ARC
  5
154E
330
1E
100
AcDbEntity
  8
HILF
100
AcDbCircle
 10
287.6842613544288
 20
187.4268011895606
 30
0.0
 40
1.274999999999999
100
AcDbArc
 50
233.9687889640013
 51
306.0312110359987
  0
ARC
  5
154F
330
1E
100
AcDbEntity
  8
HILF
100
AcDbCircle
 10
287.6842613544288
 20
187.4268011895606
 30
0.0
 40
1.274999999999999
100
AcDbArc
 50
323.9688056879998
 51
36.03120503999869
  0
ARC
  5
1550
330
1E
100
AcDbEntity
  8
HILF
100
AcDbCircle
 10
287.6842613544288
 20
187.4268011895606
 30
0.0
 40
1.274999999999999
100
AcDbArc
 50
53.96878896400135
 51
126.0312110359986
  0
LINE
  5
1551
330
1E
100
AcDbEntity
  8
STEMPEL
100
AcDbLine
 10
286.9342613544288
 20
188.3768011895606
 30
0.0
 11
286.9342613544288
 21
192.3708011895606
 31
0.0
  0
ARC
  5
1552
330
1E
100
AcDbEntity
  8
STEMPEL
100
AcDbCircle
 10
286.7342613544287
 20
188.3768011895606
 30
0.0
 40
0.2
100
AcDbArc
 50
270.0
 51
0.0087434430012266
  0
LINE
  5
1553
330
1E
100
AcDbEntity
  8
STEMPEL
100
AcDbLine
 10
284.3342613544288
 20
188.1768011895606
 30
0.0
 11
286.7342613544287
 21
188.1768011895606
 31
0.0
  0
LINE
  5
1554
330
1E
100
AcDbEntity
  8
STEMPEL
100
AcDbLine
 10
284.3342613544288
 20
186.6768011895606
 30
0.0
 11
284.3342613544288
 21
188.1768011895606
 31
0.0
  0
LINE
  5
1555
330
1E
100
AcDbEntity
  8
STEMPEL
100
AcDbLine
 10
286.7342613544287
 20
186.6768011895606
 30
0.0
 11
284.3342613544288
 21
186.6768011895606
 31
0.0
  0
ARC
  5
1556
330
1E
100
AcDbEntity
  8
STEMPEL
100
AcDbCircle
 10
286.7342613544287
 20
186.4768011895606
 30
0.0
 40
0.2
100
AcDbArc
 50
0.0
 51
90.0
  0
LINE
  5
1557
330
1E
100
AcDbEntity
  8
STEMPEL
100
AcDbLine
 10
286.9342613544288
 20
182.4838011895606
 30
0.0
 11
286.9342613544288
 21
186.4768011895606
 31
0.0
  0
LINE
  5
1558
330
1E
100
AcDbEntity
  8
STEMPEL
100
AcDbLine
 10
288.4342613544287
 20
186.4768011895606
 30
0.0
 11
288.4342613544287
 21
182.4838011895606
 31
0.0
  0
ARC
  5
1559
330
1E
100
AcDbEntity
  8
STEMPEL
100
AcDbCircle
 10
288.6342613544288
 20
186.4768011895606
 30
0.0
 40
0.2
100
AcDbArc
 50
90.0
 51
180.0
  0
LINE
  5
155A
330
1E
100
AcDbEntity
  8
STEMPEL
100
AcDbLine
 10
291.0342613544288
 20
186.6768011895606
 30
0.0
 11
288.6342613544288
 21
186.6768011895606
 31
0.0
  0
LINE
  5
155B
330
1E
100
AcDbEntity
  8
STEMPEL
100
AcDbLine
 10
291.0342613544288
 20
188.1768011895606
 30
0.0
 11
291.0342613544288
 21
186.6768011895606
 31
0.0
  0
LINE
  5
155C
330
1E
100
AcDbEntity
  8
STEMPEL
100
AcDbLine
 10
288.6342613544288
 20
188.1768011895606
 30
0.0
 11
291.0342613544288
 21
188.1768011895606
 31
0.0
  0
ARC
  5
155D
330
1E
100
AcDbEntity
  8
STEMPEL
100
AcDbCircle
 10
288.6342613544288
 20
188.3768011895606
 30
0.0
 40
0.2
100
AcDbArc
 50
180.0
 51
270.0087434429996
  0
LINE
  5
155E
330
1E
100
AcDbEntity
  8
STEMPEL
100
AcDbLine
 10
288.4342613544287
 20
192.3708011895606
 30
0.0
 11
288.4342613544287
 21
188.3768011895606
 31
0.0
  0
CIRCLE
  5
155F
330
1E
100
AcDbEntity
  8
STEMPEL
100
AcDbCircle
 10
159.6832613544287
 20
187.4268011895606
 30
0.0
 40
5.0
  0
LINE
  5
1560
330
1E
100
AcDbEntity
  8
HILF
100
AcDbLine
 10
160.4332613544287
 20
184.3588011895606
 30
0.0
 11
158.9332613544287
 21
184.3588011895606
 31
0.0
  0
LINE
  5
1561
330
1E
100
AcDbEntity
  8
HILF
100
AcDbLine
 10
160.4332613544287
 20
190.4958011895606
 30
0.0
 11
158.9332613544287
 21
190.4958011895606
 31
0.0
  0
LINE
  5
1562
330
1E
100
AcDbEntity
  8
HILF
100
AcDbLine
 10
157.6362613544287
 20
185.3808011895606
 30
0.0
 11
158.6932613544287
 21
186.6768011895606
 31
0.0
  0
LINE
  5
1563
330
1E
100
AcDbEntity
  8
HILF
100
AcDbLine
 10
158.9332613544287
 20
186.4378011895605
 30
0.0
 11
157.6362613544287
 21
185.3808011895606
 31
0.0
  0
LINE
  5
1564
330
1E
100
AcDbEntity
  8
HILF
100
AcDbLine
 10
161.7292613544287
 20
185.3808011895606
 30
0.0
 11
160.4332613544287
 21
186.4378011895605
 31
0.0
  0
LINE
  5
1565
330
1E
100
AcDbEntity
  8
HILF
100
AcDbLine
 10
160.6732613544287
 20
186.6768011895606
 30
0.0
 11
161.7292613544287
 21
185.3808011895606
 31
0.0
  0
LINE
  5
1566
330
1E
100
AcDbEntity
  8
HILF
100
AcDbLine
 10
161.7292613544287
 20
189.4738011895606
 30
0.0
 11
160.6732613544287
 21
188.1768011895606
 31
0.0
  0
LINE
  5
1567
330
1E
100
AcDbEntity
  8
HILF
100
AcDbLine
 10
160.4332613544287
 20
188.4168011895606
 30
0.0
 11
161.7292613544287
 21
189.4738011895606
 31
0.0
  0
LINE
  5
1568
330
1E
100
AcDbEntity
  8
HILF
100
AcDbLine
 10
157.6362613544287
 20
189.4738011895606
 30
0.0
 11
158.9332613544287
 21
188.4168011895606
 31
0.0
  0
LINE
  5
1569
330
1E
100
AcDbEntity
  8
HILF
100
AcDbLine
 10
158.6932613544287
 20
188.1768011895606
 30
0.0
 11
157.6362613544287
 21
189.4738011895606
 31
0.0
  0
ARC
  5
156A
330
1E
100
AcDbEntity
  8
HILF
100
AcDbCircle
 10
159.6832613544287
 20
187.4268011895606
 30
0.0
 40
1.274999999999999
100
AcDbArc
 50
143.9687949600013
 51
216.0312050399987
  0
ARC
  5
156B
330
1E
100
AcDbEntity
  8
HILF
100
AcDbCircle
 10
159.6832613544287
 20
187.4268011895606
 30
0.0
 40
1.274999999999999
100
AcDbArc
 50
233.9687889640013
 51
306.0312110359987
  0
ARC
  5
156C
330
1E
100
AcDbEntity
  8
HILF
100
AcDbCircle
 10
159.6832613544287
 20
187.4268011895606
 30
0.0
 40
1.274999999999999
100
AcDbArc
 50
323.9688056879998
 51
36.03120503999869
  0
ARC
  5
156D
330
1E
100
AcDbEntity
  8
HILF
100
AcDbCircle
 10
159.6832613544287
 20
187.4268011895606
 30
0.0
 40
1.274999999999999
100
AcDbArc
 50
53.96878896400135
 51
126.0312110359986
  0
LINE
  5
156E
330
1E
100
AcDbEntity
  8
STEMPEL
100
AcDbLine
 10
158.9332613544287
 20
188.3768011895606
 30
0.0
 11
158.9332613544287
 21
192.3708011895606
 31
0.0
  0
ARC
  5
156F
330
1E
100
AcDbEntity
  8
STEMPEL
100
AcDbCircle
 10
158.7332613544287
 20
188.3768011895606
 30
0.0
 40
0.2
100
AcDbArc
 50
270.0
 51
0.0087434430012266
  0
LINE
  5
1570
330
1E
100
AcDbEntity
  8
STEMPEL
100
AcDbLine
 10
156.3332613544287
 20
188.1768011895606
 30
0.0
 11
158.7332613544287
 21
188.1768011895606
 31
0.0
  0
LINE
  5
1572
330
1E
100
AcDbEntity
  8
STEMPEL
100
AcDbLine
 10
158.7332613544287
 20
186.6768011895606
 30
0.0
 11
156.3332613544287
 21
186.6768011895605
 31
0.0
  0
LINE
  5
1574
330
1E
100
AcDbEntity
  8
STEMPEL
100
AcDbLine
 10
158.9332613544287
 20
182.4838011895606
 30
0.0
 11
158.9332613544287
 21
186.4768011895606
 31
0.0
  0
LINE
  5
1575
330
1E
100
AcDbEntity
  8
STEMPEL
100
AcDbLine
 10
160.4332613544287
 20
186.4768011895606
 30
0.0
 11
160.4332613544287
 21
182.4838011895606
 31
0.0
  0
ARC
  5
1576
330
1E
100
AcDbEntity
  8
STEMPEL
100
AcDbCircle
 10
160.6332613544287
 20
186.4768011895606
 30
0.0
 40
0.2
100
AcDbArc
 50
90.0
 51
180.0
  0
LINE
  5
1577
330
1E
100
AcDbEntity
  8
STEMPEL
100
AcDbLine
 10
163.0332613544287
 20
186.6768011895606
 30
0.0
 11
160.6332613544287
 21
186.6768011895606
 31
0.0
  0
LINE
  5
1578
330
1E
100
AcDbEntity
  8
STEMPEL
100
AcDbLine
 10
163.0332613544287
 20
188.1768011895606
 30
0.0
 11
163.0332613544287
 21
186.6768011895606
 31
0.0
  0
LINE
  5
1579
330
1E
100
AcDbEntity
  8
STEMPEL
100
AcDbLine
 10
160.6332613544287
 20
188.1768011895606
 30
0.0
 11
163.0332613544287
 21
188.1768011895606
 31
0.0
  0
ARC
  5
157A
330
1E
100
AcDbEntity
  8
STEMPEL
100
AcDbCircle
 10
160.6332613544287
 20
188.3768011895606
 30
0.0
 40
0.2
100
AcDbArc
 50
180.0
 51
270.0087434429996
  0
LINE
  5
157B
330
1E
100
AcDbEntity
  8
STEMPEL
100
AcDbLine
 10
160.4332613544287
 20
192.3708011895606
 30
0.0
 11
160.4332613544287
 21
188.3768011895606
 31
0.0
  0
LINE
  5
1581
330
1E
100
AcDbEntity
  8
MITTEL
100
AcDbLine
 10
223.6832613544287
 20
204.9268011895606
 30
0.0
 11
223.6832613544287
 21
169.9268011895606
 31
0.0
  0
LINE
  5
1582
330
1E
100
AcDbEntity
  8
MITTEL
100
AcDbLine
 10
159.6832613544287
 20
197.4268011895606
 30
0.0
 11
159.6832613544287
 21
177.4268011895606
 31
0.0
  0
LINE
  5
1583
330
1E
100
AcDbEntity
  8
MITTEL
100
AcDbLine
 10
145.6842613544288
 20
187.4268011895606
 30
0.0
 11
301.6832613544287
 21
187.4268011895605
 31
0.0
  0
LINE
  5
1584
330
1E
100
AcDbEntity
  8
HILF
100
AcDbLine
 10
287.6842613544288
 20
177.4268011895606
 30
0.0
 11
287.6842613544288
 21
197.4268011895606
 31
0.0
  0
LINE
  5
1589
330
1E
100
AcDbEntity
  8
STEMPEL
100
AcDbLine
 10
155.6832613544288
 20
174.9268011895606
 30
0.0
 11
291.6832613544287
 21
174.9268011895605
 31
0.0
  0
LINE
  5
158A
330
1E
100
AcDbEntity
  8
STEMPEL
100
AcDbLine
 10
291.6832613544287
 20
199.9268011895605
 30
0.0
 11
155.6832613544287
 21
199.9268011895606
 31
0.0
  0
ARC
  5
15C4
330
1E
100
AcDbEntity
  8
STEMPEL
100
AcDbCircle
 10
162.9332613544287
 20
454.2202670459197
 30
0.0
 40
0.5
100
AcDbArc
 50
90.0
 51
180.0
  0
LINE
  5
15C5
330
1E
100
AcDbEntity
  8
STEMPEL
100
AcDbLine
 10
162.4332613544287
 20
454.2202670459197
 30
0.0
 11
162.4332613544287
 21
453.2202670459197
 31
0.0
  0
LINE
  5
15C6
330
1E
100
AcDbEntity
  8
STEMPEL
100
AcDbLine
 10
162.4332613544287
 20
453.2202670459197
 30
0.0
 11
154.9332613544287
 21
453.2202670459197
 31
0.0
  0
ARC
  5
15C7
330
1E
100
AcDbEntity
  8
STEMPEL
100
AcDbCircle
 10
154.4332613544287
 20
454.2202670459197
 30
0.0
 40
0.5
100
AcDbArc
 50
0.0
 51
90.0
  0
LINE
  5
15C8
330
1E
100
AcDbEntity
  8
STEMPEL
100
AcDbLine
 10
154.9332613544287
 20
453.2202670459197
 30
0.0
 11
154.9332613544287
 21
454.2202670459197
 31
0.0
  0
LINE
  5
15D9
330
1E
100
AcDbEntity
  8
STEMPEL
100
AcDbLine
 10
234.7262599434682
 20
396.7150651080002
 30
0.0
 11
212.6402627653893
 21
396.7150651080002
 31
0.0
  0
LINE
  5
15E6
330
1E
100
AcDbEntity
  8
STEMPEL
100
AcDbLine
 10
212.6402627653893
 20
394.7150651080002
 30
0.0
 11
234.7262599434681
 21
394.7150651080001
 31
0.0
  0
LINE
  5
15FF
330
1E
100
AcDbEntity
  8
STEMPEL
100
AcDbLine
 10
163.6832613544287
 20
460.7202673096473
 30
0.0
 11
163.6832613544287
 21
463.1812673096474
 31
0.0
  0
LINE
  5
1600
330
1E
100
AcDbEntity
  8
HILF
100
AcDbLine
 10
159.9332613544287
 20
463.1812673096474
 30
0.0
 11
163.1832613544287
 21
463.1812673096474
 31
0.0
  0
ARC
  5
1601
330
1E
100
AcDbEntity
  8
STEMPEL
100
AcDbCircle
 10
158.6832613544287
 20
454.5202673096474
 30
0.0
 40
10.0
100
AcDbArc
 50
59.99999358400034
 51
85.98594517699961
  0
LINE
  5
1602
330
1E
100
AcDbEntity
  8
STEMPEL
100
AcDbLine
 10
159.3832613544287
 20
464.4962673096474
 30
0.0
 11
159.3832613544287
 21
462.8922673096473
 31
0.0
  0
LINE
  5
1603
330
1E
100
AcDbEntity
  8
STEMPEL
100
AcDbLine
 10
159.3832613544287
 20
462.8922673096473
 30
0.0
 11
157.9832613544287
 21
462.8922673096473
 31
0.0
  0
LINE
  5
1604
330
1E
100
AcDbEntity
  8
STEMPEL
100
AcDbLine
 10
157.9832613544287
 20
462.8922673096473
 30
0.0
 11
157.9832613544287
 21
464.4962673096474
 31
0.0
  0
LINE
  5
1605
330
1E
100
AcDbEntity
  8
HILF
100
AcDbLine
 10
154.1832613544287
 20
463.1812673096474
 30
0.0
 11
157.4332613544287
 21
463.1812673096474
 31
0.0
  0
ARC
  5
1606
330
1E
100
AcDbEntity
  8
STEMPEL
100
AcDbCircle
 10
158.6832613544287
 20
454.5202673096474
 30
0.0
 40
10.0
100
AcDbArc
 50
94.01396748799905
 51
119.9999850770009
  0
LINE
  5
1607
330
1E
100
AcDbEntity
  8
STEMPEL
100
AcDbLine
 10
153.6832613544287
 20
463.1812673096474
 30
0.0
 11
153.6832613544287
 21
460.7202673096473
 31
0.0
  0
LINE
  5
160A
330
1E
100
AcDbEntity
  8
STEMPEL
100
AcDbLine
 10
161.6832613544287
 20
456.7193776490131
 30
0.0
 11
161.6832613544287
 21
458.7202672217381
 31
0.0
  0
LINE
  5
160B
330
1E
100
AcDbEntity
  8
HILF
100
AcDbLine
 10
160.9832613544287
 20
456.7195851954701
 30
0.0
 11
160.9832613544287
 21
458.2202672217381
 31
0.0
  0
LINE
  5
160C
330
1E
100
AcDbEntity
  8
STEMPEL
100
AcDbLine
 10
155.6832613544287
 20
458.2202672217381
 30
0.0
 11
161.6832613544287
 21
458.2202672217381
 31
0.0
  0
LINE
  5
160D
330
1E
100
AcDbEntity
  8
HILF
100
AcDbLine
 10
156.3832613544287
 20
456.7209490721878
 30
0.0
 11
156.3832613544287
 21
458.2202672217381
 31
0.0
  0
LINE
  5
160E
330
1E
100
AcDbEntity
  8
STEMPEL
100
AcDbLine
 10
155.6832613544287
 20
456.7211566186448
 30
0.0
 11
155.6832613544287
 21
458.7202672217381
 31
0.0
  0
LINE
  5
160F
330
1E
100
AcDbEntity
  8
STEMPEL
100
AcDbLine
 10
155.6832613544287
 20
442.7202664305549
 30
0.0
 11
155.6832613544287
 21
453.2202670459197
 31
0.0
  0
LINE
  5
1610
330
1E
100
AcDbEntity
  8
HILF
100
AcDbLine
 10
156.3832613544287
 20
441.508266430555
 30
0.0
 11
156.3832613544287
 21
453.2202670459197
 31
0.0
  0
LINE
  5
1611
330
1E
100
AcDbEntity
  8
STEMPEL
100
AcDbLine
 10
155.6832613544287
 20
442.7202664305549
 30
0.0
 11
156.8372613544287
 21
440.7202664305549
 31
0.0
  0
LINE
  5
1612
330
1E
100
AcDbEntity
  8
STEMPEL
100
AcDbLine
 10
156.8372613544287
 20
440.7202664305549
 30
0.0
 11
160.5282613544287
 21
440.7202664305549
 31
0.0
  0
LINE
  5
1613
330
1E
100
AcDbEntity
  8
STEMPEL
100
AcDbLine
 10
160.5282613544287
 20
440.7202664305549
 30
0.0
 11
161.6832613544287
 21
442.7202664305549
 31
0.0
  0
LINE
  5
1614
330
1E
100
AcDbEntity
  8
STEMPEL
100
AcDbLine
 10
161.6832613544287
 20
442.7202664305549
 30
0.0
 11
155.6832613544287
 21
442.7202664305549
 31
0.0
  0
LINE
  5
1615
330
1E
100
AcDbEntity
  8
HILF
100
AcDbLine
 10
160.9832613544287
 20
441.508266430555
 30
0.0
 11
160.9832613544287
 21
453.2202670459197
 31
0.0
  0
LINE
  5
1616
330
1E
100
AcDbEntity
  8
STEMPEL
100
AcDbLine
 10
161.6832613544287
 20
442.7202664305549
 30
0.0
 11
161.6832613544287
 21
453.2202670459197
 31
0.0
  0
LINE
  5
161B
330
1E
100
AcDbEntity
  8
MITTEL
100
AcDbLine
 10
223.6832613544287
 20
239.7150651080001
 30
0.0
 11
223.6832613544287
 21
514.7054426703173
 31
0.0
  0
DIMENSION
  5
1644
330
1E
100
AcDbEntity
  8
TEXT
100
AcDbDimension
  2
*D1
 10
287.6842613544288
 20
154.5852910996264
 30
0.0
 11
223.6837613544288
 21
161.0852910996263
 31
0.0
 70
    32
 71
     5
 42
128.001
  3
Standard
100
AcDbAlignedDimension
 13
159.6832613544287
 23
177.4268011895606
 33
0.0
 14
287.6842613544288
 24
177.4268011895606
 34
0.0
100
AcDbRotatedDimension
1001
ACAD
1000
DSTYLE
1002
{
1070
    40
1040
2.0
1070
    41
1040
3.5
1070
    42
1040
1.0
1070
    43
1040
7.0
1070
    44
1040
1.0
1070
    73
1070
     0
1070
    74
1070
     0
1070
    77
1070
     1
1070
    78
1070
     8
1070
    79
1070
     2
1070
   140
1040
3.5
1070
   141
1040
1.5
1070
   146
1040
0.5
1070
   147
1040
1.5
1070
   172
1070
     1
1070
   178
1070
     1
1070
   179
1070
     2
1070
   271
1070
     2
1070
   272
1070
     2
1070
   284
1070
     8
1070
   285
1070
     8
1070
   286
1070
     8
1002
}
  0
DIMENSION
  5
1651
330
1E
100
AcDbEntity
  8
TEXT
100
AcDbDimension
  2
*D2
 10
296.6832613544287
 20
138.298442617865
 30
0.0
 11
223.6837613544288
 21
144.798442617865
 31
0.0
 70
    32
 71
     5
 42
145.9989999999999
  3
Standard
100
AcDbAlignedDimension
 13
150.6842613544288
 23
187.4268011895606
 33
0.0
 14
296.6832613544287
 24
187.4268011895605
 34
0.0
100
AcDbRotatedDimension
1001
ACAD
1000
DSTYLE
1002
{
1070
    40
1040
2.0
1070
    41
1040
3.5
1070
    42
1040
1.0
1070
    43
1040
7.0
1070
    44
1040
1.0
1070
    73
1070
     0
1070
    74
1070
     0
1070
    77
1070
     1
1070
    78
1070
     8
1070
    79
1070
     2
1070
   140
1040
3.5
1070
   141
1040
1.5
1070
   146
1040
0.5
1070
   147
1040
1.5
1070
   172
1070
     1
1070
   178
1070
     1
1070
   179
1070
     2
1070
   271
1070
     2
1070
   272
1070
     2
1070
   284
1070
     8
1070
   285
1070
     8
1070
   286
1070
     8
1002
}
  0
DIMENSION
  5
16C4
330
1E
100
AcDbEntity
  8
BEM
100
AcDbDimension
  2
*D3
 10
142.7187721010928
 20
394.7150651080002
 30
0.0
 11
136.2187721010927
 21
319.7150651080002
 31
0.0
 70
    32
 71
     5
 42
150.0
  3
Standard
100
AcDbAlignedDimension
 13
223.6832613544287
 23
244.7150651080002
 33
0.0
 14
213.1832613544287
 24
394.7150651080002
 34
0.0
 50
90.0
100
AcDbRotatedDimension
1001
ACAD
1000
DSTYLE
1002
{
1070
    40
1040
2.0
1070
    41
1040
3.5
1070
    42
1040
1.0
1070
    43
1040
7.0
1070
    44
1040
1.0
1070
    73
1070
     0
1070
    74
1070
     0
1070
    77
1070
     1
1070
    78
1070
     8
1070
    79
1070
     2
1070
   140
1040
3.5
1070
   141
1040
1.5
1070
   146
1040
0.5
1070
   147
1040
1.5
1070
   172
1070
     1
1070
   178
1070
     1
1070
   179
1070
     2
1070
   271
1070
     2
1070
   272
1070
     2
1070
   284
1070
     8
1070
   285
1070
     8
1070
   286
1070
     8
1002
}
  0
DIMENSION
  5
16D1
330
1E
100
AcDbEntity
  8
BEM
100
AcDbDimension
  2
*D4
 10
126.4600654450068
 20
244.7150651080002
 30
0.0
 11
119.9600654450068
 21
377.2154425587929
 31
0.0
 70
    32
 71
     5
 42
265.0007549015854
  3
Standard
100
AcDbAlignedDimension
 13
175.6823983329369
 23
509.7158200095855
 33
0.0
 14
223.6832613544287
 24
244.7150651080002
 34
0.0
 50
90.0
100
AcDbRotatedDimension
1001
ACAD
1000
DSTYLE
1002
{
1070
    40
1040
2.0
1070
    41
1040
3.5
1070
    42
1040
1.0
1070
    43
1040
7.0
1070
    44
1040
1.0
1070
    73
1070
     0
1070
    74
1070
     0
1070
    77
1070
     1
1070
    78
1070
     8
1070
    79
1070
     2
1070
   140
1040
3.5
1070
   141
1040
1.5
1070
   146
1040
0.5
1070
   147
1040
1.5
1070
   172
1070
     1
1070
   178
1070
     1
1070
   179
1070
     2
1070
   271
1070
     2
1070
   272
1070
     2
1070
   284
1070
     8
1070
   285
1070
     8
1070
   286
1070
     8
1002
}
  0
LINE
  5
1773
330
1E
100
AcDbEntity
  8
STEMPEL
100
AcDbLine
 10
173.6823983329368
 20
409.7158200095856
 30
0.0
 11
173.6823983329368
 21
452.7170057695671
 31
0.0
  0
LINE
  5
1774
330
1E
100
AcDbEntity
  8
STEMPEL
100
AcDbLine
 10
273.6832613544287
 20
409.695065108
 30
0.0
 11
273.6832613544288
 21
452.6938789084725
 31
0.0
  0
LINE
  5
1775
330
1E
100
AcDbEntity
  8
STEMPEL
100
AcDbLine
 10
175.6823983329368
 20
407.7158200095856
 30
0.0
 11
204.7262599434682
 21
407.695065108
 31
0.0
  0
LINE
  5
1785
330
1E
100
AcDbEntity
  8
STEMPEL
100
AcDbLine
 10
175.6823983329368
 20
405.7158200095856
 30
0.0
 11
206.1832613544288
 21
405.6950651080001
 31
0.0
  0
LINE
  5
1786
330
1E
100
AcDbEntity
  8
STEMPEL
100
AcDbLine
 10
275.6832613544287
 20
409.695065108
 30
0.0
 11
275.6832613544287
 21
452.6938789084725
 31
0.0
  0
LINE
  5
1787
330
1E
100
AcDbEntity
  8
STEMPEL
100
AcDbLine
 10
171.6823983329368
 20
409.7158200095856
 30
0.0
 11
171.6823983329368
 21
452.717005769567
 31
0.0
  0
LINE
  5
1788
330
1E
100
AcDbEntity
  8
STEMPEL
100
AcDbLine
 10
175.6823983329369
 20
507.7158200095856
 30
0.0
 11
271.6832613544287
 21
507.6950651079999
 31
0.0
  0
LINE
  5
1789
330
1E
100
AcDbEntity
  8
STEMPEL
100
AcDbLine
 10
175.6823983329369
 20
509.7158200095855
 30
0.0
 11
271.6832613544287
 21
509.6950651079999
 31
0.0
  0
ARC
  5
178A
330
1E
100
AcDbEntity
  8
STEMPEL
100
AcDbCircle
 10
271.6832613544287
 20
505.6950651079999
 30
0.0
 40
2.0
100
AcDbArc
 50
360.0
 51
89.99999999999994
  0
ARC
  5
178B
330
1E
100
AcDbEntity
  8
STEMPEL
100
AcDbCircle
 10
175.6823983329369
 20
505.7158200095855
 30
0.0
 40
2.0
100
AcDbArc
 50
89.99999999999985
 51
180.0
  0
ARC
  5
178C
330
1E
100
AcDbEntity
  8
STEMPEL
100
AcDbCircle
 10
271.6832613544287
 20
409.695065108
 30
0.0
 40
2.0
100
AcDbArc
 50
269.9999999999999
 51
360.0
  0
ARC
  5
178D
330
1E
100
AcDbEntity
  8
STEMPEL
100
AcDbCircle
 10
175.6823983329368
 20
409.7158200095856
 30
0.0
 40
2.0
100
AcDbArc
 50
180.0
 51
269.9999999999999
  0
ARC
  5
178E
330
1E
100
AcDbEntity
  8
STEMPEL
100
AcDbCircle
 10
271.6832613544287
 20
505.6950651079999
 30
0.0
 40
4.0
100
AcDbArc
 50
360.0
 51
89.99999999999994
  0
ARC
  5
178F
330
1E
100
AcDbEntity
  8
STEMPEL
100
AcDbCircle
 10
175.6823983329369
 20
505.7158200095855
 30
0.0
 40
4.0
100
AcDbArc
 50
89.99999999999985
 51
180.0
  0
ARC
  5
1790
330
1E
100
AcDbEntity
  8
STEMPEL
100
AcDbCircle
 10
271.6832613544287
 20
409.695065108
 30
0.0
 40
4.0
100
AcDbArc
 50
269.9999999999999
 51
360.0
  0
ARC
  5
1791
330
1E
100
AcDbEntity
  8
STEMPEL
100
AcDbCircle
 10
175.6823983329368
 20
409.7158200095856
 30
0.0
 40
4.0
100
AcDbArc
 50
180.0
 51
269.9999999999999
  0
LINE
  5
1796
330
1E
100
AcDbEntity
  8
STEMPEL
100
AcDbLine
 10
240.7365732475542
 20
404.3082259512416
 30
0.0
 11
238.5336389791382
 21
397.4887434215167
 31
0.0
  0
LINE
  5
1797
330
1E
100
AcDbEntity
  8
STEMPEL
100
AcDbLine
 10
238.8328837297192
 20
404.9213867944834
 30
0.0
 11
236.6299494613032
 21
398.1019042647584
 31
0.0
  0
LINE
  5
1798
330
1E
100
AcDbEntity
  8
STEMPEL
100
AcDbLine
 10
208.5336389791383
 20
404.9213867944834
 30
0.0
 11
210.7365732475543
 21
398.1019042647584
 31
0.0
  0
LINE
  5
1799
330
1E
100
AcDbEntity
  8
STEMPEL
100
AcDbLine
 10
206.1832613544287
 20
405.695065108
 30
0.0
 11
208.8328837297192
 21
397.4887434215168
 31
0.0
  0
LINE
  5
179A
330
1E
100
AcDbEntity
  8
STEMPEL
100
AcDbLine
 10
242.6402627653894
 20
407.695065108
 30
0.0
 11
271.6832613544287
 21
407.695065108
 31
0.0
  0
LINE
  5
179B
330
1E
100
AcDbEntity
  8
STEMPEL
100
AcDbLine
 10
242.6402627653893
 20
405.695065108
 30
0.0
 11
271.6832613544287
 21
405.695065108
 31
0.0
  0
ARC
  5
179D
330
1E
100
AcDbEntity
  8
STEMPEL
100
AcDbCircle
 10
242.6402627653894
 20
403.695065108
 30
0.0
 40
4.0
100
AcDbArc
 50
90.0
 51
162.1467288511575
  0
ARC
  5
179E
330
1E
100
AcDbEntity
  8
STEMPEL
100
AcDbCircle
 10
234.7262599434681
 20
398.7150651080001
 30
0.0
 40
4.0
100
AcDbArc
 50
269.9999999999999
 51
342.1467288511576
  0
ARC
  5
179F
330
1E
100
AcDbEntity
  8
STEMPEL
100
AcDbCircle
 10
204.7262599434682
 20
403.695065108
 30
0.0
 40
4.0
100
AcDbArc
 50
17.85327114884242
 51
89.99999999999982
  0
ARC
  5
17A0
330
1E
100
AcDbEntity
  8
STEMPEL
100
AcDbCircle
 10
212.6402627653893
 20
398.7150651080002
 30
0.0
 40
4.0
100
AcDbArc
 50
197.8532711488424
 51
269.9999999999999
  0
ARC
  5
17A1
330
1E
100
AcDbEntity
  8
STEMPEL
100
AcDbCircle
 10
242.6402627653893
 20
403.6950651079999
 30
0.0
 40
2.0
100
AcDbArc
 50
90.00000000000019
 51
162.1467288511573
  0
ARC
  5
17A2
330
1E
100
AcDbEntity
  8
STEMPEL
100
AcDbCircle
 10
234.7262599434682
 20
398.7150651080002
 30
0.0
 40
2.0
100
AcDbArc
 50
270.0000000000001
 51
342.1467288511572
  0
ARC
  5
17A3
330
1E
100
AcDbEntity
  8
STEMPEL
100
AcDbCircle
 10
212.6402627653893
 20
398.7150651080002
 30
0.0
 40
2.0
100
AcDbArc
 50
197.8532711488424
 51
270.0000000000001
  0
LINE
  5
17AE
330
1E
100
AcDbEntity
  8
STEMPEL
100
AcDbLine
 10
149.6832613544287
 20
458.7229356761858
 30
0.0
 11
169.6812123532344
 21
458.7170063849317
 31
0.0
  0
LINE
  5
17AF
330
1E
100
AcDbEntity
  8
STEMPEL
100
AcDbLine
 10
149.6832613544287
 20
456.7229355882767
 30
0.0
 11
169.6835843126392
 21
456.7170055937486
 31
0.0
  0
LINE
  5
17B2
330
1E
100
AcDbEntity
  8
STEMPEL
100
AcDbLine
 10
149.6832613544287
 20
454.7229355003674
 30
0.0
 11
149.6832613544287
 21
456.7229355882766
 31
0.0
  0
LINE
  5
17B3
330
1E
100
AcDbEntity
  8
STEMPEL
100
AcDbLine
 10
297.6832613544287
 20
454.687949097609
 30
0.0
 11
297.6832613544287
 21
456.6879491855182
 31
0.0
  0
LINE
  5
17B4
330
1E
100
AcDbEntity
  8
STEMPEL
100
AcDbLine
 10
149.6832613544287
 20
460.722935764095
 30
0.0
 11
169.6818053430856
 21
460.7170062970224
 31
0.0
  0
LINE
  5
17B5
330
1E
100
AcDbEntity
  8
STEMPEL
100
AcDbLine
 10
149.6832613544287
 20
454.7229355003674
 30
0.0
 11
169.682991322788
 21
454.7170056816577
 31
0.0
  0
LINE
  5
17B6
330
1E
100
AcDbEntity
  8
STEMPEL
100
AcDbLine
 10
297.6832613544287
 20
458.6879492734275
 30
0.0
 11
297.6832613544287
 21
460.6879493613368
 31
0.0
  0
LINE
  5
17B7
330
1E
100
AcDbEntity
  8
STEMPEL
100
AcDbLine
 10
149.6832613544287
 20
458.7229356761858
 30
0.0
 11
149.6832613544287
 21
460.7229357640949
 31
0.0
  0
LINE
  5
17B8
330
1E
100
AcDbEntity
  8
STEMPEL
100
AcDbLine
 10
273.6832613544287
 20
462.6938793480186
 30
0.0
 11
273.6832613544287
 21
505.6950651079999
 31
0.0
  0
LINE
  5
17B9
330
1E
100
AcDbEntity
  8
STEMPEL
100
AcDbLine
 10
275.6832613544287
 20
462.6938793480186
 30
0.0
 11
275.6832613544287
 21
505.6950651079999
 31
0.0
  0
LINE
  5
17BA
330
1E
100
AcDbEntity
  8
STEMPEL
100
AcDbLine
 10
173.6823983329368
 20
462.7170062091131
 30
0.0
 11
173.6823983329369
 21
505.7158200095855
 31
0.0
  0
LINE
  5
17BB
330
1E
100
AcDbEntity
  8
STEMPEL
100
AcDbLine
 10
171.6823983329368
 20
462.7170062091131
 30
0.0
 11
171.6823983329368
 21
505.7158200095855
 31
0.0
  0
LINE
  5
17BC
330
1E
100
AcDbEntity
  8
STEMPEL
100
AcDbLine
 10
277.6826683645775
 20
460.6938794359279
 30
0.0
 11
297.6832613544287
 21
460.6879493613368
 31
0.0
  0
LINE
  5
17BD
330
1E
100
AcDbEntity
  8
STEMPEL
100
AcDbLine
 10
277.6820753747264
 20
458.6938795238372
 30
0.0
 11
297.6832613544287
 21
458.6879492734275
 31
0.0
  0
LINE
  5
17BE
330
1E
100
AcDbEntity
  8
STEMPEL
100
AcDbLine
 10
277.6844473341312
 20
456.693878732654
 30
0.0
 11
297.6832613544287
 21
456.6879491855183
 31
0.0
  0
LINE
  5
17BF
330
1E
100
AcDbEntity
  8
STEMPEL
100
AcDbLine
 10
277.6838543442799
 20
454.6938788205633
 30
0.0
 11
297.6832613544287
 21
454.6879490976091
 31
0.0
  0
ARC
  5
17C0
330
1E
100
AcDbEntity
  8
STEMPEL
100
AcDbCircle
 10
277.6832613544287
 20
462.6938793480186
 30
0.0
 40
2.0
100
AcDbArc
 50
180.0
 51
269.9830120918672
  0
ARC
  5
17C1
330
1E
100
AcDbEntity
  8
STEMPEL
100
AcDbCircle
 10
277.6832613544287
 20
452.6938789084725
 30
0.0
 40
2.0
100
AcDbArc
 50
89.98301209186712
 51
179.9999999999999
  0
ARC
  5
17C2
330
1E
100
AcDbEntity
  8
STEMPEL
100
AcDbCircle
 10
169.6823983329368
 20
462.7170062091131
 30
0.0
 40
2.0
100
AcDbArc
 50
269.9830120918674
 51
360.0
  0
ARC
  5
17C3
330
1E
100
AcDbEntity
  8
STEMPEL
100
AcDbCircle
 10
169.6823983329368
 20
452.717005769567
 30
0.0
 40
2.0
100
AcDbArc
 50
360.0
 51
89.98301209186736
  0
ARC
  5
17C4
330
1E
100
AcDbEntity
  8
STEMPEL
100
AcDbCircle
 10
169.6823983329368
 20
462.7170062091131
 30
0.0
 40
4.0
100
AcDbArc
 50
269.9830120918674
 51
360.0
  0
ARC
  5
17C5
330
1E
100
AcDbEntity
  8
STEMPEL
100
AcDbCircle
 10
169.6823983329368
 20
452.7170057695671
 30
0.0
 40
4.0
100
AcDbArc
 50
360.0
 51
89.98301209186752
  0
ARC
  5
17C6
330
1E
100
AcDbEntity
  8
STEMPEL
100
AcDbCircle
 10
277.6832613544288
 20
462.6938793480186
 30
0.0
 40
4.0
100
AcDbArc
 50
180.0
 51
269.9830120918672
  0
ARC
  5
17C7
330
1E
100
AcDbEntity
  8
STEMPEL
100
AcDbCircle
 10
277.6832613544288
 20
452.6938789084725
 30
0.0
 40
4.0
100
AcDbArc
 50
89.98301209186712
 51
179.9999999999999
  0
LINE
  5
17C8
330
1E
100
AcDbEntity
  8
MITTEL
100
AcDbLine
 10
158.6832613544287
 20
435.7202664305549
 30
0.0
 11
158.6832613544287
 21
469.5202673096473
 31
0.0
  0
LINE
  5
17C9
330
1E
100
AcDbEntity
  8
MITTEL
100
AcDbLine
 10
288.6832613544287
 20
435.7202664305549
 30
0.0
 11
288.6832613544287
 21
469.5202673096473
 31
0.0
  0
LINE
  5
17CD
330
1E
100
AcDbEntity
  8
STEMPEL
100
AcDbLine
 10
285.6832613544288
 20
442.7202664305549
 30
0.0
 11
285.6832613544288
 21
453.2202670459197
 31
0.0
  0
LINE
  5
17CE
330
1E
100
AcDbEntity
  8
HILF
100
AcDbLine
 10
286.3832613544287
 20
441.508266430555
 30
0.0
 11
286.3832613544287
 21
453.2202670459197
 31
0.0
  0
LINE
  5
17CF
330
1E
100
AcDbEntity
  8
STEMPEL
100
AcDbLine
 10
285.6832613544288
 20
442.7202664305549
 30
0.0
 11
291.6832613544287
 21
442.7202664305549
 31
0.0
  0
LINE
  5
17D0
330
1E
100
AcDbEntity
  8
STEMPEL
100
AcDbLine
 10
286.8382613544287
 20
440.7202664305549
 30
0.0
 11
285.6832613544288
 21
442.7202664305549
 31
0.0
  0
LINE
  5
17D1
330
1E
100
AcDbEntity
  8
STEMPEL
100
AcDbLine
 10
290.5292613544287
 20
440.7202664305549
 30
0.0
 11
286.8382613544287
 21
440.7202664305549
 31
0.0
  0
LINE
  5
17D2
330
1E
100
AcDbEntity
  8
STEMPEL
100
AcDbLine
 10
291.6832613544287
 20
442.7202664305549
 30
0.0
 11
290.5292613544287
 21
440.7202664305549
 31
0.0
  0
LINE
  5
17D3
330
1E
100
AcDbEntity
  8
HILF
100
AcDbLine
 10
290.9832613544287
 20
441.508266430555
 30
0.0
 11
290.9832613544287
 21
453.2202670459197
 31
0.0
  0
LINE
  5
17D4
330
1E
100
AcDbEntity
  8
STEMPEL
100
AcDbLine
 10
291.6832613544287
 20
442.7202664305549
 30
0.0
 11
291.6832613544287
 21
453.2202670459197
 31
0.0
  0
LINE
  5
17D5
330
1E
100
AcDbEntity
  8
STEMPEL
100
AcDbLine
 10
291.6832613544287
 20
456.7211566186448
 30
0.0
 11
291.6832613544287
 21
458.7202672217381
 31
0.0
  0
LINE
  5
17D6
330
1E
100
AcDbEntity
  8
HILF
100
AcDbLine
 10
290.9832613544287
 20
456.7209490721878
 30
0.0
 11
290.9832613544287
 21
458.2202672217381
 31
0.0
  0
LINE
  5
17D7
330
1E
100
AcDbEntity
  8
STEMPEL
100
AcDbLine
 10
291.6832613544287
 20
458.2202672217381
 30
0.0
 11
285.6832613544288
 21
458.2202672217381
 31
0.0
  0
LINE
  5
17D8
330
1E
100
AcDbEntity
  8
HILF
100
AcDbLine
 10
286.3832613544287
 20
456.7195851954701
 30
0.0
 11
286.3832613544287
 21
458.2202672217381
 31
0.0
  0
LINE
  5
17D9
330
1E
100
AcDbEntity
  8
STEMPEL
100
AcDbLine
 10
285.6832613544288
 20
456.7193776490131
 30
0.0
 11
285.6832613544288
 21
458.7202672217381
 31
0.0
  0
LINE
  5
17DA
330
1E
100
AcDbEntity
  8
STEMPEL
100
AcDbLine
 10
293.6832613544287
 20
463.1812673096474
 30
0.0
 11
293.6832613544287
 21
460.7202673096473
 31
0.0
  0
ARC
  5
17DB
330
1E
100
AcDbEntity
  8
STEMPEL
100
AcDbCircle
 10
288.6832613544287
 20
454.5202673096474
 30
0.0
 40
10.0
100
AcDbArc
 50
60.00001492299912
 51
85.98603251200094
  0
LINE
  5
17DC
330
1E
100
AcDbEntity
  8
HILF
100
AcDbLine
 10
293.1832613544287
 20
463.1812673096474
 30
0.0
 11
289.9332613544288
 21
463.1812673096474
 31
0.0
  0
LINE
  5
17DD
330
1E
100
AcDbEntity
  8
STEMPEL
100
AcDbLine
 10
289.3832613544287
 20
462.8922673096473
 30
0.0
 11
289.3832613544287
 21
464.4962673096474
 31
0.0
  0
LINE
  5
17DE
330
1E
100
AcDbEntity
  8
STEMPEL
100
AcDbLine
 10
287.9832613544287
 20
462.8922673096473
 30
0.0
 11
289.3832613544287
 21
462.8922673096473
 31
0.0
  0
LINE
  5
17DF
330
1E
100
AcDbEntity
  8
STEMPEL
100
AcDbLine
 10
287.9832613544287
 20
464.4962673096474
 30
0.0
 11
287.9832613544287
 21
462.8922673096473
 31
0.0
  0
ARC
  5
17E0
330
1E
100
AcDbEntity
  8
STEMPEL
100
AcDbCircle
 10
288.6832613544287
 20
454.5202673096474
 30
0.0
 40
10.0
100
AcDbArc
 50
94.0140548230004
 51
120.0000064159996
  0
LINE
  5
17E1
330
1E
100
AcDbEntity
  8
HILF
100
AcDbLine
 10
287.4332613544287
 20
463.1812673096474
 30
0.0
 11
284.1832613544287
 21
463.1812673096474
 31
0.0
  0
LINE
  5
17E2
330
1E
100
AcDbEntity
  8
STEMPEL
100
AcDbLine
 10
283.6832613544288
 20
460.7202673096473
 30
0.0
 11
283.6832613544288
 21
463.1812673096474
 31
0.0
  0
LINE
  5
17E3
330
1E
100
AcDbEntity
  8
STEMPEL
100
AcDbLine
 10
292.4332613544287
 20
453.2202670459197
 30
0.0
 11
292.4332613544287
 21
454.2202670459197
 31
0.0
  0
ARC
  5
17E4
330
1E
100
AcDbEntity
  8
STEMPEL
100
AcDbCircle
 10
292.9332613544287
 20
454.2202670459197
 30
0.0
 40
0.5
100
AcDbArc
 50
90.0
 51
180.0
  0
LINE
  5
17E5
330
1E
100
AcDbEntity
  8
STEMPEL
100
AcDbLine
 10
284.9332613544287
 20
453.2202670459197
 30
0.0
 11
292.4332613544287
 21
453.2202670459197
 31
0.0
  0
LINE
  5
17E6
330
1E
100
AcDbEntity
  8
STEMPEL
100
AcDbLine
 10
284.9332613544287
 20
454.2202670459197
 30
0.0
 11
284.9332613544287
 21
453.2202670459197
 31
0.0
  0
ARC
  5
17E7
330
1E
100
AcDbEntity
  8
STEMPEL
100
AcDbCircle
 10
284.4332613544287
 20
454.2202670459197
 30
0.0
 40
0.5
100
AcDbArc
 50
0.000000000000007
 51
90.0
  0
ARC
  5
1877
330
1E
100
AcDbEntity
  8
STEMPEL
100
AcDbCircle
 10
278.5582613544288
 20
187.4268011895605
 30
0.0
 40
18.12499999999996
100
AcDbArc
 50
316.3971810272963
 51
43.60281897270376
  0
ARC
  5
1878
330
1E
100
AcDbEntity
  8
STEMPEL
100
AcDbCircle
 10
168.8082613544287
 20
187.4268011895607
 30
0.0
 40
18.12499999999996
100
AcDbArc
 50
136.3971810272961
 51
223.6028189727036
  0
LINE
  5
1879
330
1E
100
AcDbEntity
  8
STEMPEL
100
AcDbLine
 10
292.6832613544287
 20
458.6879492734276
 30
0.0
 11
292.6832613544288
 21
460.6879493613369
 31
0.0
  0
LINE
  5
187A
330
1E
100
AcDbEntity
  8
STEMPEL
100
AcDbLine
 10
292.6832613544287
 20
454.687949097609
 30
0.0
 11
292.6832613544287
 21
456.6879491855182
 31
0.0
  0
LINE
  5
187B
330
1E
100
AcDbEntity
  8
STEMPEL
100
AcDbLine
 10
154.6832613544287
 20
458.7229356761858
 30
0.0
 11
154.6832613544287
 21
460.7229357640949
 31
0.0
  0
LINE
  5
187C
330
1E
100
AcDbEntity
  8
STEMPEL
100
AcDbLine
 10
154.6832613544287
 20
454.7229355003674
 30
0.0
 11
154.6832613544287
 21
456.7229355882766
 31
0.0
  0
DIMENSION
  5
187E
330
1E
100
AcDbEntity
  8
BEM
100
AcDbDimension
  2
*D5
 10
273.6832613544287
 20
520.0015081206292
 30
0.0
 11
223.6828298436828
 21
526.5015081206293
 31
0.0
 70
    32
 71
     5
 42
100.0008630214918
  3
Standard
100
AcDbAlignedDimension
 13
173.6823983329369
 23
505.7158200095855
 33
0.0
 14
273.6832613544287
 24
505.6950651079999
 34
0.0
100
AcDbRotatedDimension
1001
ACAD
1000
DSTYLE
1002
{
1070
    40
1040
2.0
1070
    41
1040
3.5
1070
    42
1040
1.0
1070
    43
1040
7.0
1070
    44
1040
1.0
1070
    73
1070
     0
1070
    74
1070
     0
1070
    77
1070
     1
1070
    78
1070
     8
1070
    79
1070
     2
1070
   140
1040
3.5
1070
   141
1040
1.5
1070
   146
1040
0.5
1070
   147
1040
1.5
1070
   172
1070
     1
1070
   178
1070
     1
1070
   179
1070
     2
1070
   271
1070
     2
1070
   272
1070
     2
1070
   284
1070
     8
1070
   285
1070
     8
1070
   286
1070
     8
1002
}
  0
DIMENSION
  5
1894
330
1E
100
AcDbEntity
  8
BEM
100
AcDbDimension
  2
*D6
 10
143.0300075932118
 20
407.7158200095856
 30
0.0
 11
136.5300075932118
 21
457.7158200095856
 31
0.0
 70
    32
 71
     5
 42
99.99999999999994
  3
Standard
100
AcDbAlignedDimension
 13
175.6823983329369
 23
507.7158200095856
 33
0.0
 14
175.6823983329368
 24
407.7158200095856
 34
0.0
 50
90.0
100
AcDbRotatedDimension
1001
ACAD
1000
DSTYLE
1002
{
1070
    40
1040
2.0
1070
    41
1040
3.5
1070
    42
1040
1.0
1070
    43
1040
7.0
1070
    44
1040
1.0
1070
    73
1070
     0
1070
    74
1070
     0
1070
    77
1070
     1
1070
    78
1070
     8
1070
    79
1070
     2
1070
   140
1040
3.5
1070
   141
1040
1.5
1070
   146
1040
0.5
1070
   147
1040
1.5
1070
   172
1070
     1
1070
   178
1070
     1
1070
   179
1070
     2
1070
   271
1070
     2
1070
   272
1070
     2
1070
   284
1070
     8
1070
   285
1070
     8
1070
   286
1070
     8
1002
}
  0
DIMENSION
  5
18AA
330
1E
100
AcDbEntity
  8
BEM
100
AcDbDimension
  2
*D7
 10
143.0300075932118
 20
509.7158200095855
 30
0.0
 11
136.5300075932118
 21
528.5824866762522
 31
0.0
 70
    32
 71
     5
 42
2.0
  3
Standard
100
AcDbAlignedDimension
 13
175.6823983329369
 23
507.7158200095856
 33
0.0
 14
175.6823983329369
 24
509.7158200095855
 34
0.0
 50
90.0
100
AcDbRotatedDimension
1001
ACAD
1000
DSTYLE
1002
{
1070
    40
1040
2.0
1070
    41
1040
3.5
1070
    42
1040
1.0
1070
    43
1040
7.0
1070
    44
1040
1.0
1070
    73
1070
     0
1070
    74
1070
     0
1070
    77
1070
     1
1070
    78
1070
     8
1070
    79
1070
     2
1070
   140
1040
3.5
1070
   141
1040
1.5
1070
   146
1040
0.5
1070
   147
1040
1.5
1070
   172
1070
     1
1070
   178
1070
     1
1070
   179
1070
     2
1070
   271
1070
     2
1070
   272
1070
     2
1070
   284
1070
     8
1070
   285
1070
     8
1070
   286
1070
     8
1002
}
  0
DIMENSION
  5
18C4
330
1E
100
AcDbEntity
  8
BEM
100
AcDbDimension
  2
*D8
 10
136.1961564317152
 20
199.9268011895607
 30
0.0
 11
129.6961564317151
 21
187.4268011895607
 31
0.0
 70
    32
 71
     5
 42
25.00000000000011
  3
Standard
100
AcDbAlignedDimension
 13
155.6832613544288
 23
174.9268011895606
 33
0.0
 14
155.6832613544288
 24
199.9268011895607
 34
0.0
 50
90.0
100
AcDbRotatedDimension
1001
ACAD
1000
DSTYLE
1002
{
1070
    40
1040
2.0
1070
    41
1040
3.5
1070
    42
1040
1.0
1070
    43
1040
7.0
1070
    44
1040
1.0
1070
    73
1070
     0
1070
    74
1070
     0
1070
    77
1070
     1
1070
    78
1070
     8
1070
    79
1070
     2
1070
   140
1040
3.5
1070
   141
1040
1.5
1070
   146
1040
0.5
1070
   147
1040
1.5
1070
   172
1070
     1
1070
   178
1070
     1
1070
   179
1070
     2
1070
   271
1070
     2
1070
   272
1070
     2
1070
   284
1070
     8
1070
   285
1070
     8
1070
   286
1070
     8
1002
}
  0
LINE
  5
18DA
330
1E
100
AcDbEntity
  8
STEMPEL
100
AcDbLine
 10
275.6832613544287
 20
199.9268011895606
 30
0.0
 11
275.6832613544287
 21
174.9268011895606
 31
0.0
  0
LINE
  5
18DB
330
1E
100
AcDbEntity
  8
STEMPEL
100
AcDbLine
 10
171.6823983329368
 20
199.9268011895606
 30
0.0
 11
171.6823983329368
 21
174.9268011895606
 31
0.0
  0
LINE
  5
18DD
330
1E
100
AcDbEntity
  8
HILF
100
AcDbLine
 10
177.6823983329368
 20
182.9268011895605
 30
0.0
 11
269.6841243759206
 21
182.9268011895606
 31
0.0
  0
LINE
  5
18DF
330
1E
100
AcDbEntity
  8
HILF
100
AcDbLine
 10
177.6823983329368
 20
178.9268011895605
 30
0.0
 11
269.6841243759206
 21
178.9268011895606
 31
0.0
  0
ARC
  5
18E2
330
1E
100
AcDbEntity
  8
HILF
100
AcDbCircle
 10
177.6823983329368
 20
180.9268011895606
 30
0.0
 40
1.999999999999971
100
AcDbArc
 50
90.0
 51
270.0
  0
ARC
  5
18E3
330
1E
100
AcDbEntity
  8
HILF
100
AcDbCircle
 10
269.6841243759206
 20
180.9268011895606
 30
0.0
 40
1.999999999999971
100
AcDbArc
 50
270.0
 51
90.0
  0
ARC
  5
18E4
330
1E
100
AcDbEntity
  8
HILF
100
AcDbCircle
 10
269.6841243759206
 20
193.9268011895606
 30
0.0
 40
1.999999999999971
100
AcDbArc
 50
270.0
 51
90.00000000000003
  0
ARC
  5
18E5
330
1E
100
AcDbEntity
  8
HILF
100
AcDbCircle
 10
177.6823983329368
 20
193.9268011895606
 30
0.0
 40
1.999999999999971
100
AcDbArc
 50
90.00000000000003
 51
270.0
  0
LINE
  5
18E6
330
1E
100
AcDbEntity
  8
HILF
100
AcDbLine
 10
177.6823983329368
 20
195.9268011895606
 30
0.0
 11
269.6841243759206
 21
195.9268011895606
 31
0.0
  0
LINE
  5
18E7
330
1E
100
AcDbEntity
  8
HILF
100
AcDbLine
 10
177.6823983329368
 20
191.9268011895606
 30
0.0
 11
269.6841243759206
 21
191.9268011895606
 31
0.0
  0
LWPOLYLINE
  5
18E9
330
1E
100
AcDbEntity
  8
TEXT
 62
     1
100
AcDbPolyline
 90
        4
 70
     1
 43
0.0
 10
279.5439296435284
 20
94.3882247546162
 10
279.5439296435284
 20
87.38822475461621
 10
286.5439296435284
 20
87.38822475461621
 10
286.5439296435284
 20
94.3882247546162
  0
ARC
  5
18EA
330
1E
100
AcDbEntity
  8
STEMPEL
100
AcDbCircle
 10
158.7332613544287
 20
186.4768011895606
 30
0.0
 40
0.2
100
AcDbArc
 50
0.000000000000007
 51
90.0
  0
LINE
  5
18EC
330
1E
100
AcDbEntity
  8
MITTEL
100
AcDbLine
 10
144.6832613544287
 20
457.7255663945726
 30
0.0
 11
302.6832613544286
 21
457.6853149905553
 31
0.0
  0
LINE
  5
19F3
330
1E
100
AcDbEntity
  8
STEMPEL
100
AcDbLine
 10
220.1832613544287
 20
255.9120651080001
 30
0.0
 11
227.1832613544287
 21
255.9120651080001
 31
0.0
  0
LINE
  5
19F4
330
1E
100
AcDbEntity
  8
HILF
100
AcDbLine
 10
220.6832613544287
 20
364.4650651080001
 30
0.0
 11
226.6832613544287
 21
364.4650651080001
 31
0.0
  0
LINE
  5
19F5
330
1E
100
AcDbEntity
  8
HILF
100
AcDbLine
 10
220.6832613544287
 20
368.4650651080001
 30
0.0
 11
226.6832613544287
 21
368.4650651080001
 31
0.0
  0
LINE
  5
19F6
330
1E
100
AcDbEntity
  8
HILF
100
AcDbLine
 10
220.6832613544287
 20
372.4650651080001
 30
0.0
 11
226.6832613544287
 21
372.4650651080001
 31
0.0
  0
LINE
  5
19F7
330
1E
100
AcDbEntity
  8
HILF
100
AcDbLine
 10
220.6832613544287
 20
376.4650651080001
 30
0.0
 11
226.6832613544287
 21
376.4650651080001
 31
0.0
  0
LINE
  5
19F8
330
1E
100
AcDbEntity
  8
HILF
100
AcDbLine
 10
220.6832613544287
 20
380.4650651080001
 30
0.0
 11
226.6832613544287
 21
380.4650651080001
 31
0.0
  0
LINE
  5
19F9
330
1E
100
AcDbEntity
  8
HILF
100
AcDbLine
 10
220.1832613544287
 20
364.4650651080001
 30
0.0
 11
219.7992613544287
 21
364.4650651080001
 31
0.0
  0
LINE
  5
19FA
330
1E
100
AcDbEntity
  8
HILF
100
AcDbLine
 10
220.1832613544287
 20
368.4650651080001
 30
0.0
 11
219.7992613544287
 21
368.4650651080001
 31
0.0
  0
LINE
  5
19FB
330
1E
100
AcDbEntity
  8
HILF
100
AcDbLine
 10
220.1832613544287
 20
372.4650651080001
 30
0.0
 11
219.7992613544287
 21
372.4650651080001
 31
0.0
  0
LINE
  5
19FC
330
1E
100
AcDbEntity
  8
HILF
100
AcDbLine
 10
220.1832613544287
 20
376.4650651080001
 30
0.0
 11
219.7992613544287
 21
376.4650651080001
 31
0.0
  0
LINE
  5
19FD
330
1E
100
AcDbEntity
  8
HILF
100
AcDbLine
 10
220.1832613544287
 20
380.4650651080001
 30
0.0
 11
219.7992613544287
 21
380.4650651080001
 31
0.0
  0
LINE
  5
19FE
330
1E
100
AcDbEntity
  8
HILF
100
AcDbLine
 10
227.1832613544287
 20
380.4650651080001
 30
0.0
 11
227.5682613544287
 21
380.4650651080001
 31
0.0
  0
LINE
  5
19FF
330
1E
100
AcDbEntity
  8
HILF
100
AcDbLine
 10
227.1832613544287
 20
376.4650651080001
 30
0.0
 11
227.5682613544287
 21
376.4650651080001
 31
0.0
  0
LINE
  5
1A00
330
1E
100
AcDbEntity
  8
HILF
100
AcDbLine
 10
227.1832613544287
 20
372.4650651080001
 30
0.0
 11
227.5682613544287
 21
372.4650651080001
 31
0.0
  0
LINE
  5
1A01
330
1E
100
AcDbEntity
  8
HILF
100
AcDbLine
 10
227.1832613544287
 20
368.4650651080001
 30
0.0
 11
227.5682613544287
 21
368.4650651080001
 31
0.0
  0
LINE
  5
1A02
330
1E
100
AcDbEntity
  8
HILF
100
AcDbLine
 10
227.1832613544287
 20
364.4650651080001
 30
0.0
 11
227.5682613544287
 21
364.4650651080001
 31
0.0
  0
LINE
  5
1A03
330
1E
100
AcDbEntity
  8
STEMPEL
100
AcDbLine
 10
223.6832613544287
 20
244.7150651080002
 30
0.0
 11
220.1832613544287
 21
255.9120651080001
 31
0.0
  0
LINE
  5
1A04
330
1E
100
AcDbEntity
  8
STEMPEL
100
AcDbLine
 10
223.6832613544287
 20
244.7150651080002
 30
0.0
 11
227.1832613544287
 21
255.9110651080002
 31
0.0
  0
LWPOLYLINE
  5
1A05
330
1E
100
AcDbEntity
  8
BEM
 62
     1
100
AcDbPolyline
 90
        4
 70
     1
 43
0.0
 10
185.8922448512244
 20
332.6813389891468
 10
185.8922448512244
 20
325.6813389891468
 10
192.8922448512244
 20
325.6813389891468
 10
192.8922448512244
 20
332.6813389891468
  0
DIMENSION
  5
1A06
330
1E
100
AcDbEntity
  8
BEM
100
AcDbDimension
  2
*D9
 10
220.1832613544287
 20
322.7127916092622
 30
0.0
 11
197.316594687762
 21
322.7127916092622
 31
0.0
 70
   160
 71
     5
 42
7.0
  3
Standard
100
AcDbAlignedDimension
 13
227.1832613544287
 23
322.4749958474395
 33
0.0
 14
220.1832613544287
 24
322.4749958474395
 34
0.0
100
AcDbRotatedDimension
1001
ACAD
1000
DSTYLE
1002
{
1070
    40
1040
2.0
1070
    41
1040
3.5
1070
    42
1040
1.0
1070
    43
1040
7.0
1070
    44
1040
1.0
1070
    73
1070
     0
1070
    74
1070
     0
1070
    77
1070
     1
1070
    78
1070
     8
1070
    79
1070
     2
1070
   140
1040
3.5
1070
   141
1040
1.5
1070
   146
1040
0.5
1070
   147
1040
1.5
1070
   172
1070
     1
1070
   178
1070
     1
1070
   179
1070
     2
1070
   271
1070
     2
1070
   272
1070
     2
1070
   284
1070
     8
1070
   285
1070
     8
1070
   286
1070
     8
1002
}
  0
ARC
  5
1A07
330
1E
100
AcDbEntity
  8
HILF
100
AcDbCircle
 10
223.6832613544287
 20
395.3400651080001
 30
0.0
 40
6.624999999999967
100
AcDbArc
 50
238.1092081981539
 51
301.890791801846
  0
LINE
  5
1A08
330
1E
100
AcDbEntity
  8
STEMPEL
100
AcDbLine
 10
230.6832613544287
 20
394.7150651080001
 30
0.0
 11
227.1832613544287
 21
389.7150651080001
 31
0.0
  0
LINE
  5
1A09
330
1E
100
AcDbEntity
  8
STEMPEL
100
AcDbLine
 10
227.1832613544287
 20
255.9110651080002
 30
0.0
 11
227.1832613544287
 21
389.7150651080001
 31
0.0
  0
LINE
  5
1A0A
330
1E
100
AcDbEntity
  8
STEMPEL
100
AcDbLine
 10
220.1832613544287
 20
389.7150651080001
 30
0.0
 11
216.6832613544287
 21
394.7150651080002
 31
0.0
  0
LINE
  5
1A0B
330
1E
100
AcDbEntity
  8
STEMPEL
100
AcDbLine
 10
220.1832613544287
 20
255.9120651080001
 30
0.0
 11
220.1832613544287
 21
389.7150651080001
 31
0.0
  0
ARC
  5
1A0C
330
1E
100
AcDbEntity
  8
STEMPEL
100
AcDbCircle
 10
217.6832613544287
 20
397.7150651080001
 30
0.0
 40
1.0
100
AcDbArc
 50
90.0
 51
180.0
  0
ARC
  5
1A0D
330
1E
100
AcDbEntity
  8
STEMPEL
100
AcDbCircle
 10
229.6832613544288
 20
397.7150651080002
 30
0.0
 40
1.0
100
AcDbArc
 50
0.0
 51
90.0
  0
LINE
  5
1A0E
330
1E
100
AcDbEntity
  8
STEMPEL
100
AcDbLine
 10
229.6832613544288
 20
398.7150651080002
 30
0.0
 11
217.6832613544287
 21
398.7150651080002
 31
0.0
  0
LINE
  5
1A0F
330
1E
100
AcDbEntity
  8
STEMPEL
100
AcDbLine
 10
230.6832613544288
 20
396.7150651080002
 30
0.0
 11
230.6832613544288
 21
397.7150651080002
 31
0.0
  0
LINE
  5
1A10
330
1E
100
AcDbEntity
  8
STEMPEL
100
AcDbLine
 10
216.6832613544287
 20
396.7150651080001
 30
0.0
 11
216.6832613544287
 21
397.7150651080001
 31
0.0
  0
LINE
  5
1AD1
330
1E
100
AcDbEntity
  8
STEMPEL
100
AcDbLine
 10
156.3332613544287
 20
188.1768011895606
 30
0.0
 11
156.3332613544287
 21
186.6768011895606
 31
0.0
  0
ENDSEC
  0
SECTION
  2
OBJECTS
  0
DICTIONARY
  5
C
330
0
100
AcDbDictionary
281
     1
  3
ACAD_COLOR
350
DF
  3
ACAD_GROUP
350
D
  3
ACAD_LAYOUT
350
19
  3
ACAD_MATERIAL
350
DE
  3
ACAD_MLINESTYLE
350
16
  3
ACAD_PLOTSETTINGS
350
18
  3
ACAD_PLOTSTYLENAME
350
E
  3
AcDbVariableDictionary
350
EA
  0
DICTIONARY
  5
A0
330
1E
100
AcDbDictionary
280
     1
281
     1
  3
ACAD_LAYOUTSELFREF
360
D4
  0
DICTIONARY
  5
A2
330
1A
100
AcDbDictionary
280
     1
281
     1
  3
ACAD_LAYOUTSELFREF
360
D3
  0
DICTIONARY
  5
DF
102
{ACAD_REACTORS
330
C
102
}
330
C
100
AcDbDictionary
281
     1
  0
DICTIONARY
  5
D
102
{ACAD_REACTORS
330
C
102
}
330
C
100
AcDbDictionary
281
     1
  0
DICTIONARY
  5
19
102
{ACAD_REACTORS
330
C
102
}
330
C
100
AcDbDictionary
281
     1
  3
Layout1
350
1D
  3
Model
350
21
  0
DICTIONARY
  5
DE
102
{ACAD_REACTORS
330
C
102
}
330
C
100
AcDbDictionary
281
     1
  0
DICTIONARY
  5
16
102
{ACAD_REACTORS
330
C
102
}
330
C
100
AcDbDictionary
281
     1
  3
Standard
350
17
  0
DICTIONARY
  5
18
102
{ACAD_REACTORS
330
C
102
}
330
C
100
AcDbDictionary
281
     1
  0
ACDBDICTIONARYWDFLT
  5
E
102
{ACAD_REACTORS
330
C
102
}
330
C
100
AcDbDictionary
281
     1
  3
Normal
350
F
100
AcDbDictionaryWithDefault
340
F
  0
DICTIONARY
  5
EA
102
{ACAD_REACTORS
330
C
102
}
330
C
100
AcDbDictionary
281
     1
  3
DIMASSOC
350
EB
  3
PROJECTNAME
350
EC
  0
XRECORD
  5
D4
102
{ACAD_REACTORS
330
A0
102
}
330
A0
100
AcDbXrecord
280
     1
340
1E
  0
XRECORD
  5
D3
102
{ACAD_REACTORS
330
A2
102
}
330
A2
100
AcDbXrecord
280
     1
340
1A
  0
LAYOUT
  5
1D
102
{ACAD_REACTORS
330
19
102
}
330
19
100
AcDbPlotSettings
  1

  2
\\NT_WORK01\HP LaserJet 5000 PCL 6
  4

  6

 40
0.0
 41
0.0
 42
0.0
 43
0.0
 44
0.0
 45
0.0
 46
0.0
 47
0.0
 48
0.0
 49
0.0
140
0.0
141
0.0
142
1.0
143
1.0
 70
   688
 72
     0
 73
     0
 74
     5
  7

 75
    16
147
1.0
 76
     0
 77
     2
 78
   300
148
0.0
149
0.0
100
AcDbLayout
  1
Layout1
 70
     0
 71
     1
 10
0.0
 20
0.0
 11
12.0
 21
9.0
 12
0.0
 22
0.0
 32
0.0
 14
1.000000000000000E+20
 24
1.000000000000000E+20
 34
1.000000000000000E+20
 15
-1.000000000000000E+20
 25
-1.000000000000000E+20
 35
-1.000000000000000E+20
146
0.0
 13
0.0
 23
0.0
 33
0.0
 16
1.0
 26
0.0
 36
0.0
 17
0.0
 27
1.0
 37
0.0
 76
     0
330
1A
  0
LAYOUT
  5
21
102
{ACAD_REACTORS
330
19
102
}
330
19
100
AcDbPlotSettings
  1

  2
none_device
  4
Letter_(8.50_x_11.00_Inches)
  6

 40
6.349999904632568
 41
6.349999904632568
 42
6.350006103515625
 43
6.350006103515625
 44
215.8999938964844
 45
279.3999938964844
 46
0.0
 47
0.0
 48
0.0
 49
0.0
140
0.0
141
0.0
142
1.0
143
1.0
 70
 11952
 72
     0
 73
     1
 74
     0
  7

 75
     0
147
1.0
 76
     0
 77
     2
 78
   300
148
-230.4417396561563
149
47.00486644638983
100
AcDbLayout
  1
Model
 70
     1
 71
     0
 10
0.0
 20
0.0
 11
12.0
 21
9.0
 12
0.0
 22
0.0
 32
0.0
 14
0.0
 24
0.0
 34
0.0
 15
0.0
 25
0.0
 35
0.0
146
0.0
 13
0.0
 23
0.0
 33
0.0
 16
1.0
 26
0.0
 36
0.0
 17
0.0
 27
1.0
 37
0.0
 76
     0
330
1E
  0
MLINESTYLE
  5
17
102
{ACAD_REACTORS
330
16
102
}
330
16
100
AcDbMlineStyle
  2
STANDARD
 70
     0
  3

 62
   256
 51
90.0
 52
90.0
 71
     2
 49
0.5
 62
   256
  6
BYLAYER
 49
-0.5
 62
   256
  6
BYLAYER
  0
ACDBPLACEHOLDER
  5
F
102
{ACAD_REACTORS
330
E
102
}
330
E
  0
DICTIONARYVAR
  5
EB
102
{ACAD_REACTORS
330
EA
102
}
330
EA
100
DictionaryVariables
280
     0
  1
1
  0
DICTIONARYVAR
  5
EC
102
{ACAD_REACTORS
330
EA
102
}
330
EA
100
DictionaryVariables
280
     0
  1

  0
ENDSEC
  0
EOF
