  0
SECTION
  2
HEADER
  9
$ACADVER
  1
AC1018
  9
$ACADMAINTVER
 70
     2
  9
$DWGCODEPAGE
  3
ANSI_1252
  9
$INSBASE
 10
0.0
 20
0.0
 30
0.0
  9
$EXTMIN
 10
-0.0128164049388033
 20
-0.0181260584133725
 30
-0.0015258207003583
  9
$EXTMAX
 10
420.012818360716
 20
594.0181288244416
 30
0.0000000349246037
  9
$LIMMIN
 10
0.0
 20
0.0
  9
$LIMMAX
 10
419.9999999999999
 20
594.0
  9
$ORTHOMODE
 70
     1
  9
$REGENMODE
 70
     1
  9
$FILLMODE
 70
     1
  9
$QTEXTMODE
 70
     0
  9
$MIRRTEXT
 70
     1
  9
$LTSCALE
 40
20.0
  9
$ATTMODE
 70
     1
  9
$TEXTSIZE
 40
2.5
  9
$TRACEWID
 40
0.5
  9
$TEXTSTYLE
  7
GREEKS
  9
$CLAYER
  8
BEM
  9
$CELTYPE
  6
ByLayer
  9
$CECOLOR
 62
   256
  9
$CELTSCALE
 40
1.0
  9
$DISPSILH
 70
     0
  9
$DIMSCALE
 40
2.0
  9
$DIMASZ
 40
3.5
  9
$DIMEXO
 40
1.0
  9
$DIMDLI
 40
7.0
  9
$DIMRND
 40
0.0
  9
$DIMDLE
 40
0.0
  9
$DIMEXE
 40
1.0
  9
$DIMTP
 40
0.0
  9
$DIMTM
 40
0.0
  9
$DIMTXT
 40
3.5
  9
$DIMCEN
 40
1.5
  9
$DIMTSZ
 40
0.0
  9
$DIMTOL
 70
     0
  9
$DIMLIM
 70
     0
  9
$DIMTIH
 70
     0
  9
$DIMTOH
 70
     0
  9
$DIMSE1
 70
     0
  9
$DIMSE2
 70
     0
  9
$DIMTAD
 70
     1
  9
$DIMZIN
 70
     8
  9
$DIMBLK
  1

  9
$DIMASO
 70
     1
  9
$DIMSHO
 70
     0
  9
$DIMPOST
  1

  9
$DIMAPOST
  1

  9
$DIMALT
 70
     0
  9
$DIMALTD
 70
     2
  9
$DIMALTF
 40
25.4
  9
$DIMLFAC
 40
1.0
  9
$DIMTOFL
 70
     1
  9
$DIMTVP
 40
0.0
  9
$DIMTIX
 70
     0
  9
$DIMSOXD
 70
     0
  9
$DIMSAH
 70
     0
  9
$DIMBLK1
  1

  9
$DIMBLK2
  1

  9
$DIMSTYLE
  2
Standard
  9
$DIMCLRD
 70
     0
  9
$DIMCLRE
 70
     0
  9
$DIMCLRT
 70
     1
  9
$DIMTFAC
 40
0.5
  9
$DIMGAP
 40
1.5
  9
$DIMJUST
 70
     0
  9
$DIMSD1
 70
     0
  9
$DIMSD2
 70
     0
  9
$DIMTOLJ
 70
     1
  9
$DIMTZIN
 70
     8
  9
$DIMALTZ
 70
     8
  9
$DIMALTTZ
 70
     8
  9
$DIMUPT
 70
     0
  9
$DIMDEC
 70
     2
  9
$DIMTDEC
 70
     2
  9
$DIMALTU
 70
     2
  9
$DIMALTTD
 70
     2
  9
$DIMTXSTY
  7
STANDARD
  9
$DIMAUNIT
 70
     0
  9
$DIMADEC
 70
     2
  9
$DIMALTRND
 40
0.0
  9
$DIMAZIN
 70
     2
  9
$DIMDSEP
 70
    46
  9
$DIMATFIT
 70
     3
  9
$DIMFRAC
 70
     0
  9
$DIMLDRBLK
  1

  9
$DIMLUNIT
 70
     2
  9
$DIMLWD
 70
    -2
  9
$DIMLWE
 70
    -2
  9
$DIMTMOVE
 70
     0
  9
$LUNITS
 70
     2
  9
$LUPREC
 70
     2
  9
$SKETCHINC
 40
1.0
  9
$FILLETRAD
 40
3.0
  9
$AUNITS
 70
     0
  9
$AUPREC
 70
     0
  9
$MENU
  1
ACAD
  9
$ELEVATION
 40
0.0
  9
$PELEVATION
 40
0.0
  9
$THICKNESS
 40
0.0
  9
$LIMCHECK
 70
     0
  9
$CHAMFERA
 40
0.0
  9
$CHAMFERB
 40
0.0
  9
$CHAMFERC
 40
0.0
  9
$CHAMFERD
 40
0.0
  9
$SKPOLY
 70
     0
  9
$TDCREATE
 40
2455397.823042361
  9
$TDUCREATE
 40
2455397.781375695
  9
$TDUPDATE
 40
2456230.335406655
  9
$TDUUPDATE
 40
2456230.293739988
  9
$TDINDWG
 40
0.5848783449
  9
$TDUSRTIMER
 40
0.5848783449
  9
$USRTIMER
 70
     1
  9
$ANGBASE
 50
0.0
  9
$ANGDIR
 70
     0
  9
$PDMODE
 70
     0
  9
$PDSIZE
 40
0.0
  9
$PLINEWID
 40
0.0
  9
$SPLFRAME
 70
     0
  9
$SPLINETYPE
 70
     6
  9
$SPLINESEGS
 70
     8
  9
$HANDSEED
  5
1F28
  9
$SURFTAB1
 70
     6
  9
$SURFTAB2
 70
     6
  9
$SURFTYPE
 70
     6
  9
$SURFU
 70
     6
  9
$SURFV
 70
     6
  9
$UCSBASE
  2

  9
$UCSNAME
  2

  9
$UCSORG
 10
0.0
 20
0.0
 30
0.0
  9
$UCSXDIR
 10
1.0
 20
0.0
 30
0.0
  9
$UCSYDIR
 10
0.0
 20
1.0
 30
0.0
  9
$UCSORTHOREF
  2

  9
$UCSORTHOVIEW
 70
     0
  9
$UCSORGTOP
 10
0.0
 20
0.0
 30
0.0
  9
$UCSORGBOTTOM
 10
0.0
 20
0.0
 30
0.0
  9
$UCSORGLEFT
 10
0.0
 20
0.0
 30
0.0
  9
$UCSORGRIGHT
 10
0.0
 20
0.0
 30
0.0
  9
$UCSORGFRONT
 10
0.0
 20
0.0
 30
0.0
  9
$UCSORGBACK
 10
0.0
 20
0.0
 30
0.0
  9
$PUCSBASE
  2

  9
$PUCSNAME
  2

  9
$PUCSORG
 10
0.0
 20
0.0
 30
0.0
  9
$PUCSXDIR
 10
1.0
 20
0.0
 30
0.0
  9
$PUCSYDIR
 10
0.0
 20
1.0
 30
0.0
  9
$PUCSORTHOREF
  2

  9
$PUCSORTHOVIEW
 70
     0
  9
$PUCSORGTOP
 10
0.0
 20
0.0
 30
0.0
  9
$PUCSORGBOTTOM
 10
0.0
 20
0.0
 30
0.0
  9
$PUCSORGLEFT
 10
0.0
 20
0.0
 30
0.0
  9
$PUCSORGRIGHT
 10
0.0
 20
0.0
 30
0.0
  9
$PUCSORGFRONT
 10
0.0
 20
0.0
 30
0.0
  9
$PUCSORGBACK
 10
0.0
 20
0.0
 30
0.0
  9
$USERI1
 70
     0
  9
$USERI2
 70
     0
  9
$USERI3
 70
     0
  9
$USERI4
 70
     0
  9
$USERI5
 70
     0
  9
$USERR1
 40
0.0
  9
$USERR2
 40
0.0
  9
$USERR3
 40
0.0
  9
$USERR4
 40
0.0
  9
$USERR5
 40
0.0
  9
$WORLDVIEW
 70
     1
  9
$SHADEDGE
 70
     3
  9
$SHADEDIF
 70
    70
  9
$TILEMODE
 70
     1
  9
$MAXACTVP
 70
    16
  9
$PINSBASE
 10
0.0
 20
0.0
 30
0.0
  9
$PLIMCHECK
 70
     0
  9
$PEXTMIN
 10
1.000000000000000E+20
 20
1.000000000000000E+20
 30
1.000000000000000E+20
  9
$PEXTMAX
 10
-1.000000000000000E+20
 20
-1.000000000000000E+20
 30
-1.000000000000000E+20
  9
$PLIMMIN
 10
0.0
 20
0.0
  9
$PLIMMAX
 10
12.0
 20
9.0
  9
$UNITMODE
 70
     0
  9
$VISRETAIN
 70
     0
  9
$PLINEGEN
 70
     0
  9
$PSLTSCALE
 70
     0
  9
$TREEDEPTH
 70
  3020
  9
$CMLSTYLE
  2
Standard
  9
$CMLJUST
 70
     0
  9
$CMLSCALE
 40
1.0
  9
$PROXYGRAPHICS
 70
     1
  9
$MEASUREMENT
 70
     0
  9
$CELWEIGHT
370
    -1
  9
$ENDCAPS
280
     0
  9
$JOINSTYLE
280
     0
  9
$LWDISPLAY
290
     0
  9
$INSUNITS
 70
     0
  9
$HYPERLINKBASE
  1

  9
$STYLESHEET
  1
monochrome 1.ctb
  9
$XEDIT
290
     1
  9
$CEPSNTYPE
380
     0
  9
$PSTYLEMODE
290
     1
  9
$FINGERPRINTGUID
  2
{D68B0D02-A558-11D7-B632-000102183313}
  9
$VERSIONGUID
  2
{165EE49D-40E9-49F7-B193-B227A16EB80B}
  9
$EXTNAMES
290
     1
  9
$PSVPSCALE
 40
0.0
  9
$OLESTARTUP
290
     0
  9
$SORTENTS
280
   127
  9
$INDEXCTL
280
     0
  9
$HIDETEXT
280
     0
  9
$XCLIPFRAME
290
     0
  9
$HALOGAP
280
     0
  9
$OBSCOLOR
 70
   257
  9
$OBSLTYPE
280
     0
  9
$INTERSECTIONDISPLAY
280
     0
  9
$INTERSECTIONCOLOR
 70
   257
  9
$DIMASSOC
280
     1
  9
$PROJECTNAME
  1

  0
ENDSEC
  0
SECTION
  2
CLASSES
  0
CLASS
  1
ACDBDICTIONARYWDFLT
  2
AcDbDictionaryWithDefault
  3
ObjectDBX Classes
 90
        0
 91
        1
280
     0
281
     0
  0
CLASS
  1
DICTIONARYVAR
  2
AcDbDictionaryVar
  3
ObjectDBX Classes
 90
        0
 91
        2
280
     0
281
     0
  0
ENDSEC
  0
SECTION
  2
TABLES
  0
TABLE
  2
VPORT
  5
8
330
0
100
AcDbSymbolTable
 70
     3
  0
VPORT
  5
1F27
330
8
100
AcDbSymbolTableRecord
100
AcDbViewportTableRecord
  2
*Active
 70
     0
 10
0.0
 20
0.0
 11
1.0
 21
1.0
 12
209.9999999999999
 22
297.0
 13
0.0
 23
0.0
 14
1.0
 24
1.0
 15
10.0
 25
10.0
 16
0.0
 26
0.0
 36
1.0
 17
0.0
 27
0.0
 37
0.0
 40
594.3369314361728
 41
1.404858299595141
 42
50.0
 43
0.0
 44
0.0
 50
0.0
 51
0.0
 71
     0
 72
  1500
 73
     1
 74
     0
 75
     0
 76
     0
 77
     0
 78
     0
281
     0
 65
     1
110
0.0
120
0.0
130
0.0
111
1.0
121
0.0
131
0.0
112
0.0
122
1.0
132
0.0
 79
     0
146
0.0
  0
ENDTAB
  0
TABLE
  2
LTYPE
  5
5
330
0
100
AcDbSymbolTable
 70
     3
  0
LTYPE
  5
13
330
5
100
AcDbSymbolTableRecord
100
AcDbLinetypeTableRecord
  2
ByBlock
 70
     0
  3

 72
    65
 73
     0
 40
0.0
  0
LTYPE
  5
14
330
5
100
AcDbSymbolTableRecord
100
AcDbLinetypeTableRecord
  2
ByLayer
 70
     0
  3

 72
    65
 73
     0
 40
0.0
  0
LTYPE
  5
15
330
5
100
AcDbSymbolTableRecord
100
AcDbLinetypeTableRecord
  2
Continuous
 70
     0
  3
Solid line
 72
    65
 73
     0
 40
0.0
  0
LTYPE
  5
25
330
5
100
AcDbSymbolTableRecord
100
AcDbLinetypeTableRecord
  2
STRICHPUNKT
 70
     0
  3
__ . __ . __ . __ . __ . __ . __ . __ . __ . __
 72
    65
 73
     4
 40
1.0
 49
0.5
 74
     0
 49
-0.25
 74
     0
 49
0.0
 74
     0
 49
-0.25
 74
     0
  0
LTYPE
  5
1E0A
330
5
100
AcDbSymbolTableRecord
100
AcDbLinetypeTableRecord
  2
VERDECKT2
 70
     0
  3
Verdeckt (.5x) _ _ _ _ _ _ _ _ _ _ _ _ _ _ _ _ 
 72
    65
 73
     2
 40
0.1875
 49
0.125
 74
     0
 49
-0.0625
 74
     0
  0
ENDTAB
  0
TABLE
  2
LAYER
  5
2
330
0
100
AcDbSymbolTable
 70
    10
  0
LAYER
  5
10
330
2
100
AcDbSymbolTableRecord
100
AcDbLayerTableRecord
  2
0
 70
     0
 62
     7
  6
Continuous
370
    -3
390
F
  0
LAYER
  5
2A
330
2
100
AcDbSymbolTableRecord
100
AcDbLayerTableRecord
  2
VOLL
 70
     0
 62
     1
  6
Continuous
370
    -3
390
F
  0
LAYER
  5
2B
330
2
100
AcDbSymbolTableRecord
100
AcDbLayerTableRecord
  2
HILF
 70
     0
 62
     2
  6
Continuous
370
    -3
390
F
  0
LAYER
  5
2C
330
2
100
AcDbSymbolTableRecord
100
AcDbLayerTableRecord
  2
MITTEL
 70
     0
 62
     2
  6
STRICHPUNKT
370
    -3
390
F
  0
LAYER
  5
2F
330
2
100
AcDbSymbolTableRecord
100
AcDbLayerTableRecord
  2
BEM
 70
     0
 62
     7
  6
Continuous
370
    -3
390
F
  0
LAYER
  5
30
330
2
100
AcDbSymbolTableRecord
100
AcDbLayerTableRecord
  2
STEMPEL
 70
     0
 62
     3
  6
Continuous
370
    -3
390
F
  0
LAYER
  5
31
330
2
100
AcDbSymbolTableRecord
100
AcDbLayerTableRecord
  2
TEXT
 70
     0
 62
     7
  6
Continuous
370
    -3
390
F
  0
LAYER
  5
1A8
330
2
100
AcDbSymbolTableRecord
100
AcDbLayerTableRecord
  2
Defpoints
 70
     0
 62
     7
  6
Continuous
290
     0
370
    -3
390
F
  0
LAYER
  5
1D31
330
2
100
AcDbSymbolTableRecord
100
AcDbLayerTableRecord
  2
SCHRAFF
 70
     0
 62
     7
  6
Continuous
370
    -3
390
F
  0
LAYER
  5
1E0B
330
2
100
AcDbSymbolTableRecord
100
AcDbLayerTableRecord
  2
VERDECKT
 70
     0
 62
     6
  6
VERDECKT2
370
    -3
390
F
  0
ENDTAB
  0
TABLE
  2
STYLE
  5
3
330
0
100
AcDbSymbolTable
 70
     2
  0
STYLE
  5
11
330
3
100
AcDbSymbolTableRecord
100
AcDbTextStyleTableRecord
  2
STANDARD
 70
     0
 40
0.0
 41
0.8
 50
0.0
 71
     0
 42
3.5
  3
simplex.shx
  4

  0
STYLE
  5
24
330
3
100
AcDbSymbolTableRecord
100
AcDbTextStyleTableRecord
  2
GREEKS
 70
     0
 40
0.0
 41
0.8
 50
0.0
 71
     0
 42
2.5
  3
SIMPLEX.shx
  4

  0
ENDTAB
  0
TABLE
  2
VIEW
  5
6
330
0
100
AcDbSymbolTable
 70
     0
  0
ENDTAB
  0
TABLE
  2
UCS
  5
7
330
0
100
AcDbSymbolTable
 70
     0
  0
ENDTAB
  0
TABLE
  2
APPID
  5
9
330
0
100
AcDbSymbolTable
 70
     1
  0
APPID
  5
12
330
9
100
AcDbSymbolTableRecord
100
AcDbRegAppTableRecord
  2
ACAD
 70
     0
  0
ENDTAB
  0
TABLE
  2
DIMSTYLE
  5
A
330
0
100
AcDbSymbolTable
 70
     1
100
AcDbDimStyleTable
 71
     1
340
9D
  0
DIMSTYLE
105
9D
102
{ACAD_REACTORS
330
1E30
330
1E86
330
1E93
330
1EA0
330
1ED3
330
1ED2
330
1EFE
330
1E11
102
}
330
A
100
AcDbSymbolTableRecord
100
AcDbDimStyleTableRecord
  2
Standard
 70
     0
340
11
  0
ENDTAB
  0
TABLE
  2
BLOCK_RECORD
  5
1
330
0
100
AcDbSymbolTable
 70
    11
  0
BLOCK_RECORD
  5
1E
102
{ACAD_XDICTIONARY
360
A0
102
}
330
1
100
AcDbSymbolTableRecord
100
AcDbBlockTableRecord
  2
*Model_Space
340
21
  0
BLOCK_RECORD
  5
1A
102
{ACAD_XDICTIONARY
360
A2
102
}
330
1
100
AcDbSymbolTableRecord
100
AcDbBlockTableRecord
  2
*Paper_Space
340
1D
  0
BLOCK_RECORD
  5
22
330
1
100
AcDbSymbolTableRecord
100
AcDbBlockTableRecord
  2
LOGO
340
0
102
{BLKREFS
331
9B
102
}
  0
BLOCK_RECORD
  5
1E12
330
1
100
AcDbSymbolTableRecord
100
AcDbBlockTableRecord
  2
*D1
340
0
  0
BLOCK_RECORD
  5
1E31
330
1
100
AcDbSymbolTableRecord
100
AcDbBlockTableRecord
  2
*D2
340
0
  0
BLOCK_RECORD
  5
1E87
330
1
100
AcDbSymbolTableRecord
100
AcDbBlockTableRecord
  2
*D5
340
0
  0
BLOCK_RECORD
  5
1E94
330
1
100
AcDbSymbolTableRecord
100
AcDbBlockTableRecord
  2
*D6
340
0
  0
BLOCK_RECORD
  5
1EA1
330
1
100
AcDbSymbolTableRecord
100
AcDbBlockTableRecord
  2
*D7
340
0
  0
BLOCK_RECORD
  5
1ED4
330
1
100
AcDbSymbolTableRecord
100
AcDbBlockTableRecord
  2
*D8
340
0
  0
BLOCK_RECORD
  5
1EE0
330
1
100
AcDbSymbolTableRecord
100
AcDbBlockTableRecord
  2
*D9
340
0
  0
BLOCK_RECORD
  5
1EFF
330
1
100
AcDbSymbolTableRecord
100
AcDbBlockTableRecord
  2
*D10
340
0
  0
ENDTAB
  0
ENDSEC
  0
SECTION
  2
BLOCKS
  0
BLOCK
  5
35
330
1E
100
AcDbEntity
  8
0
100
AcDbBlockBegin
  2
*Model_Space
 70
     0
 10
0.0
 20
0.0
 30
0.0
  3
*Model_Space
  1

  0
ENDBLK
  5
36
330
1E
100
AcDbEntity
  8
0
100
AcDbBlockEnd
  0
BLOCK
  5
33
330
1A
100
AcDbEntity
 67
     1
  8
0
100
AcDbBlockBegin
  2
*Paper_Space
 70
     0
 10
0.0
 20
0.0
 30
0.0
  3
*Paper_Space
  1

  0
ENDBLK
  5
34
330
1A
100
AcDbEntity
 67
     1
  8
0
100
AcDbBlockEnd
  0
BLOCK
  5
37
330
22
100
AcDbEntity
  8
0
100
AcDbBlockBegin
  2
LOGO
 70
     0
 10
0.0
 20
0.0
 30
0.0
  3
LOGO
  1

  0
ARC
  5
38
330
22
100
AcDbEntity
  8
0
100
AcDbCircle
 10
11.59973089678112
 20
-9.271599258481501
 30
0.0
 40
4.5
100
AcDbArc
 50
270.0
 51
231.0575587310159
  0
LINE
  5
39
330
22
100
AcDbEntity
  8
0
100
AcDbLine
 10
3.599730896781125
 20
-4.771599258481529
 30
0.0
 11
3.599730896781153
 21
-11.77159925848133
 31
0.0
  0
LINE
  5
3A
330
22
100
AcDbEntity
  8
0
100
AcDbLine
 10
2.599730896781125
 20
-4.771599258481529
 30
0.0
 11
2.599730896781153
 21
-11.77159925848133
 31
0.0
  0
CIRCLE
  5
3B
330
22
100
AcDbEntity
  8
0
100
AcDbCircle
 10
11.59973089678112
 20
-9.271599258481501
 30
0.0
 40
3.5
  0
ARC
  5
3C
330
22
100
AcDbEntity
  8
0
100
AcDbCircle
 10
31.59973089678115
 20
-9.271599258481472
 30
0.0
 40
4.5
100
AcDbArc
 50
270.0
 51
231.0575587310182
  0
LINE
  5
3D
330
22
100
AcDbEntity
  8
0
100
AcDbLine
 10
17.59973089678112
 20
-4.771599258481472
 30
0.0
 11
17.59973089678115
 21
-13.77159925848147
 31
0.0
  0
ARC
  5
3E
330
22
100
AcDbEntity
  8
0
100
AcDbCircle
 10
22.59973089678116
 20
-7.271599258481472
 30
0.0
 40
2.5
100
AcDbArc
 50
293.1161887722295
 51
90.0
  0
CIRCLE
  5
3F
330
22
100
AcDbEntity
  8
0
100
AcDbCircle
 10
31.59973089678115
 20
-9.271599258481472
 30
0.0
 40
3.5
  0
ARC
  5
40
330
22
100
AcDbEntity
  8
0
100
AcDbCircle
 10
4.599730896781153
 20
-11.77159925848133
 30
0.0
 40
1.0
100
AcDbArc
 50
180.0
 51
270.0
  0
ARC
  5
41
330
22
100
AcDbEntity
  8
0
100
AcDbCircle
 10
4.599730896781153
 20
-11.77159925848133
 30
0.0
 40
2.0
100
AcDbArc
 50
179.9999999999992
 51
270.0
  0
LINE
  5
42
330
22
100
AcDbEntity
  8
0
100
AcDbLine
 10
11.59973089678115
 20
-13.77159925848144
 30
0.0
 11
4.599730896781153
 21
-13.77159925848147
 31
0.0
  0
LINE
  5
43
330
22
100
AcDbEntity
  8
0
100
AcDbLine
 10
8.771303772034769
 20
-12.77159925848136
 30
0.0
 11
4.599730896781153
 21
-12.77159925848133
 31
0.0
  0
LINE
  5
44
330
22
100
AcDbEntity
  8
0
100
AcDbLine
 10
31.59973089678115
 20
-13.77159925848147
 30
0.0
 11
23.6715276665056
 21
-13.77159925848144
 31
0.0
  0
LINE
  5
45
330
22
100
AcDbEntity
  8
0
100
AcDbLine
 10
23.56565672307022
 20
-9.51278021337896
 30
0.0
 11
24.4388546544846
 21
-12.77159925848144
 31
0.0
  0
LINE
  5
46
330
22
100
AcDbEntity
  8
0
100
AcDbLine
 10
22.59973089678116
 20
-9.771599258481472
 30
0.0
 11
18.59973089678112
 21
-9.771599258481472
 31
0.0
  0
LINE
  5
47
330
22
100
AcDbEntity
  8
0
100
AcDbLine
 10
18.59973089678115
 20
-13.77159925848144
 30
0.0
 11
17.59973089678115
 21
-13.77159925848144
 31
0.0
  0
LINE
  5
48
330
22
100
AcDbEntity
  8
0
100
AcDbLine
 10
18.59973089678115
 20
-9.771599258481472
 30
0.0
 11
18.59973089678115
 21
-13.77159925848144
 31
0.0
  0
LINE
  5
49
330
22
100
AcDbEntity
  8
0
100
AcDbLine
 10
22.59973089678116
 20
-9.771599258481472
 30
0.0
 11
23.67152766650562
 21
-13.77159925848147
 31
0.0
  0
ARC
  5
4A
330
22
100
AcDbEntity
  8
0
100
AcDbCircle
 10
22.59973089678116
 20
-7.271599258481472
 30
0.0
 40
2.5
100
AcDbArc
 50
270.0
 51
270.0000000000007
  0
LINE
  5
4B
330
22
100
AcDbEntity
  8
0
100
AcDbLine
 10
28.77130377203494
 20
-12.77159925848147
 30
0.0
 11
24.43885465448463
 21
-12.77159925848144
 31
0.0
  0
LINE
  5
4C
330
22
100
AcDbEntity
  8
0
100
AcDbLine
 10
3.599730896781125
 20
-4.771599258481472
 30
0.0
 11
2.599730896781125
 21
-4.771599258481472
 31
0.0
  0
LINE
  5
4D
330
22
100
AcDbEntity
  8
0
100
AcDbLine
 10
22.59973089678116
 20
-8.771599258481472
 30
0.0
 11
18.59973089678115
 21
-8.771599258481472
 31
0.0
  0
LINE
  5
4E
330
22
100
AcDbEntity
  8
0
100
AcDbLine
 10
22.59973089678116
 20
-5.771599258481472
 30
0.0
 11
18.59973089678115
 21
-5.771599258481472
 31
0.0
  0
LINE
  5
4F
330
22
100
AcDbEntity
  8
0
100
AcDbLine
 10
22.59973089678116
 20
-4.771599258481472
 30
0.0
 11
17.59973089678115
 21
-4.771599258481472
 31
0.0
  0
LINE
  5
50
330
22
100
AcDbEntity
  8
0
100
AcDbLine
 10
18.59973089678115
 20
-5.771599258481472
 30
0.0
 11
18.59973089678115
 21
-8.771599258481472
 31
0.0
  0
ARC
  5
51
330
22
100
AcDbEntity
  8
0
100
AcDbCircle
 10
22.59973089678116
 20
-7.271599258481472
 30
0.0
 40
1.5
100
AcDbArc
 50
270.0
 51
90.0
  0
ENDBLK
  5
52
330
22
100
AcDbEntity
  8
0
100
AcDbBlockEnd
  0
BLOCK
  5
1E1C
330
1E12
100
AcDbEntity
  8
0
100
AcDbBlockBegin
  2
*D1
 70
     1
 10
0.0
 20
0.0
 30
0.0
  3
*D1
  1

  0
LINE
  5
1F1D
330
1E12
100
AcDbEntity
  8
BEM
 62
     0
370
    -2
100
AcDbLine
 10
184.7499999999999
 20
464.1059241534202
 30
0.0
 11
184.7499999999999
 21
480.9203523739379
 31
0.0
  0
LINE
  5
1F1E
330
1E12
100
AcDbEntity
  8
BEM
 62
     0
370
    -2
100
AcDbLine
 10
265.2500000000001
 20
464.1059241534202
 30
0.0
 11
265.2500000000001
 21
480.9203523739379
 31
0.0
  0
LINE
  5
1F1F
330
1E12
100
AcDbEntity
  8
BEM
 62
     0
370
    -2
100
AcDbLine
 10
191.7499999999999
 20
478.9203523739379
 30
0.0
 11
258.25
 21
478.9203523739379
 31
0.0
  0
SOLID
  5
1F20
330
1E12
100
AcDbEntity
  8
BEM
 62
     0
100
AcDbTrace
 10
191.7499999999999
 20
480.0870190406046
 30
0.0
 11
191.7499999999999
 21
477.7536857072712
 31
0.0
 12
184.7499999999999
 22
478.9203523739379
 32
0.0
 13
184.7499999999999
 23
478.9203523739379
 33
0.0
  0
SOLID
  5
1F21
330
1E12
100
AcDbEntity
  8
BEM
 62
     0
100
AcDbTrace
 10
258.25
 20
480.0870190406046
 30
0.0
 11
258.25
 21
477.7536857072712
 31
0.0
 12
265.2500000000001
 22
478.9203523739379
 32
0.0
 13
265.2500000000001
 23
478.9203523739379
 33
0.0
  0
MTEXT
  5
1F22
330
1E12
100
AcDbEntity
  8
BEM
 62
     1
100
AcDbMText
 10
225.0
 20
485.4203523739379
 30
0.0
 40
7.0
 41
0.0
 71
     5
 72
     1
  1
\A1;80
 73
     1
 44
1.0
  0
POINT
  5
1F23
330
1E12
100
AcDbEntity
  8
Defpoints
 62
     0
100
AcDbPoint
 10
184.7499999999999
 20
462.1059241534202
 30
0.0
  0
POINT
  5
1F24
330
1E12
100
AcDbEntity
  8
Defpoints
 62
     0
100
AcDbPoint
 10
265.2500000000001
 20
462.1059241534203
 30
0.0
  0
POINT
  5
1F25
330
1E12
100
AcDbEntity
  8
Defpoints
 62
     0
100
AcDbPoint
 10
265.2500000000001
 20
478.9203523739379
 30
0.0
  0
ENDBLK
  5
1E1D
330
1E12
100
AcDbEntity
  8
0
100
AcDbBlockEnd
  0
BLOCK
  5
1E3D
330
1E31
100
AcDbEntity
  8
0
100
AcDbBlockBegin
  2
*D2
 70
     1
 10
0.0
 20
0.0
 30
0.0
  3
*D2
  1

  0
LINE
  5
1E32
330
1E31
100
AcDbEntity
  8
BEM
 62
     0
370
    -2
100
AcDbLine
 10
296.9999999999999
 20
426.6059241534202
 30
0.0
 11
314.914794154849
 21
426.6059241534202
 31
0.0
  0
LINE
  5
1E33
330
1E31
100
AcDbEntity
  8
BEM
 62
     0
370
    -2
100
AcDbLine
 10
296.9999999999999
 20
423.6059241534201
 30
0.0
 11
314.914794154849
 21
423.6059241534201
 31
0.0
  0
LINE
  5
1E34
330
1E31
100
AcDbEntity
  8
BEM
 62
     0
370
    -2
100
AcDbLine
 10
312.914794154849
 20
433.6059241534202
 30
0.0
 11
312.914794154849
 21
440.6059241534202
 31
0.0
  0
LINE
  5
1E35
330
1E31
100
AcDbEntity
  8
BEM
 62
     0
370
    -2
100
AcDbLine
 10
312.914794154849
 20
416.6059241534202
 30
0.0
 11
312.914794154849
 21
399.8725908200868
 31
0.0
  0
LINE
  5
1E36
330
1E31
100
AcDbEntity
  8
BEM
 62
     0
370
    -2
100
AcDbLine
 10
312.914794154849
 20
426.6059241534202
 30
0.0
 11
312.914794154849
 21
423.6059241534201
 31
0.0
  0
SOLID
  5
1E37
330
1E31
100
AcDbEntity
  8
BEM
 62
     0
100
AcDbTrace
 10
311.7481274881823
 20
433.6059241534202
 30
0.0
 11
314.0814608215157
 21
433.6059241534202
 31
0.0
 12
312.914794154849
 22
426.6059241534202
 32
0.0
 13
312.914794154849
 23
426.6059241534202
 33
0.0
  0
SOLID
  5
1E38
330
1E31
100
AcDbEntity
  8
BEM
 62
     0
100
AcDbTrace
 10
311.7481274881823
 20
416.6059241534202
 30
0.0
 11
314.0814608215157
 21
416.6059241534202
 31
0.0
 12
312.914794154849
 22
423.6059241534201
 32
0.0
 13
312.914794154849
 23
423.6059241534201
 33
0.0
  0
MTEXT
  5
1E39
330
1E31
100
AcDbEntity
  8
BEM
 62
     1
100
AcDbMText
 10
306.4147941548489
 20
404.7392574867535
 30
0.0
 40
7.0
 41
0.0
 71
     5
 72
     1
  1
\A1;3
 11
0.0000000000000001
 21
1.0
 31
0.0
 73
     1
 44
1.0
  0
POINT
  5
1E3A
330
1E31
100
AcDbEntity
  8
Defpoints
 62
     0
100
AcDbPoint
 10
294.9999999999999
 20
426.6059241534202
 30
0.0
  0
POINT
  5
1E3B
330
1E31
100
AcDbEntity
  8
Defpoints
 62
     0
100
AcDbPoint
 10
294.9999999999999
 20
423.6059241534201
 30
0.0
  0
POINT
  5
1E3C
330
1E31
100
AcDbEntity
  8
Defpoints
 62
     0
100
AcDbPoint
 10
312.914794154849
 20
423.6059241534201
 30
0.0
  0
ENDBLK
  5
1E3E
330
1E31
100
AcDbEntity
  8
0
100
AcDbBlockEnd
  0
BLOCK
  5
1E91
330
1E87
100
AcDbEntity
  8
0
100
AcDbBlockBegin
  2
*D5
 70
     1
 10
0.0
 20
0.0
 30
0.0
  3
*D5
  1

  0
LINE
  5
1E88
330
1E87
100
AcDbEntity
  8
BEM
 62
     0
370
    -2
100
AcDbLine
 10
163.3175416344819
 20
242.5439275310401
 30
0.0
 11
140.2628782154784
 21
242.5439275310401
 31
0.0
  0
LINE
  5
1E89
330
1E87
100
AcDbEntity
  8
BEM
 62
     0
370
    -2
100
AcDbLine
 10
163.3175416344815
 20
277.5439275310404
 30
0.0
 11
140.2628782154784
 21
277.5439275310404
 31
0.0
  0
LINE
  5
1E8A
330
1E87
100
AcDbEntity
  8
BEM
 62
     0
370
    -2
100
AcDbLine
 10
142.2628782154784
 20
249.5439275310401
 30
0.0
 11
142.2628782154784
 21
270.5439275310403
 31
0.0
  0
SOLID
  5
1E8B
330
1E87
100
AcDbEntity
  8
BEM
 62
     0
100
AcDbTrace
 10
141.0962115488117
 20
249.5439275310401
 30
0.0
 11
143.429544882145
 21
249.5439275310401
 31
0.0
 12
142.2628782154784
 22
242.5439275310401
 32
0.0
 13
142.2628782154784
 23
242.5439275310401
 33
0.0
  0
SOLID
  5
1E8C
330
1E87
100
AcDbEntity
  8
BEM
 62
     0
100
AcDbTrace
 10
141.0962115488117
 20
270.5439275310403
 30
0.0
 11
143.429544882145
 21
270.5439275310403
 31
0.0
 12
142.2628782154784
 22
277.5439275310404
 32
0.0
 13
142.2628782154784
 23
277.5439275310404
 33
0.0
  0
MTEXT
  5
1E8D
330
1E87
100
AcDbEntity
  8
BEM
 62
     1
100
AcDbMText
 10
135.7628782154783
 20
260.0439275310403
 30
0.0
 40
7.0
 41
0.0
 71
     5
 72
     1
  1
\A1;35
 11
0.0000000000000001
 21
1.0
 31
0.0
 73
     1
 44
1.0
  0
POINT
  5
1E8E
330
1E87
100
AcDbEntity
  8
Defpoints
 62
     0
100
AcDbPoint
 10
165.317541634482
 20
242.5439275310401
 30
0.0
  0
POINT
  5
1E8F
330
1E87
100
AcDbEntity
  8
Defpoints
 62
     0
100
AcDbPoint
 10
165.3175416344815
 20
277.5439275310404
 30
0.0
  0
POINT
  5
1E90
330
1E87
100
AcDbEntity
  8
Defpoints
 62
     0
100
AcDbPoint
 10
142.2628782154784
 20
277.5439275310404
 30
0.0
  0
ENDBLK
  5
1E92
330
1E87
100
AcDbEntity
  8
0
100
AcDbBlockEnd
  0
BLOCK
  5
1E9E
330
1E94
100
AcDbEntity
  8
0
100
AcDbBlockBegin
  2
*D6
 70
     1
 10
0.0
 20
0.0
 30
0.0
  3
*D6
  1

  0
LINE
  5
1E95
330
1E94
100
AcDbEntity
  8
BEM
 62
     0
370
    -2
100
AcDbLine
 10
167.0
 20
246.5439275310404
 30
0.0
 11
167.0
 21
221.3019240541592
 31
0.0
  0
LINE
  5
1E96
330
1E94
100
AcDbEntity
  8
BEM
 62
     0
370
    -2
100
AcDbLine
 10
283.0
 20
246.5439275310401
 30
0.0
 11
283.0
 21
221.3019240541592
 31
0.0
  0
LINE
  5
1E97
330
1E94
100
AcDbEntity
  8
BEM
 62
     0
370
    -2
100
AcDbLine
 10
174.0
 20
223.3019240541592
 30
0.0
 11
275.9999999999999
 21
223.3019240541592
 31
0.0
  0
SOLID
  5
1E98
330
1E94
100
AcDbEntity
  8
BEM
 62
     0
100
AcDbTrace
 10
174.0
 20
224.4685907208258
 30
0.0
 11
174.0
 21
222.1352573874925
 31
0.0
 12
167.0
 22
223.3019240541592
 32
0.0
 13
167.0
 23
223.3019240541592
 33
0.0
  0
SOLID
  5
1E99
330
1E94
100
AcDbEntity
  8
BEM
 62
     0
100
AcDbTrace
 10
275.9999999999999
 20
224.4685907208258
 30
0.0
 11
275.9999999999999
 21
222.1352573874925
 31
0.0
 12
283.0
 22
223.3019240541592
 32
0.0
 13
283.0
 23
223.3019240541592
 33
0.0
  0
MTEXT
  5
1E9A
330
1E94
100
AcDbEntity
  8
BEM
 62
     1
100
AcDbMText
 10
225.0
 20
229.8019240541592
 30
0.0
 40
7.0
 41
0.0
 71
     5
 72
     1
  1
\A1;116
 73
     1
 44
1.0
  0
POINT
  5
1E9B
330
1E94
100
AcDbEntity
  8
Defpoints
 62
     0
100
AcDbPoint
 10
167.0
 20
248.5439275310404
 30
0.0
  0
POINT
  5
1E9C
330
1E94
100
AcDbEntity
  8
Defpoints
 62
     0
100
AcDbPoint
 10
283.0
 20
248.5439275310401
 30
0.0
  0
POINT
  5
1E9D
330
1E94
100
AcDbEntity
  8
Defpoints
 62
     0
100
AcDbPoint
 10
283.0
 20
223.3019240541592
 30
0.0
  0
ENDBLK
  5
1E9F
330
1E94
100
AcDbEntity
  8
0
100
AcDbBlockEnd
  0
BLOCK
  5
1EAB
330
1EA1
100
AcDbEntity
  8
0
100
AcDbBlockBegin
  2
*D7
 70
     1
 10
0.0
 20
0.0
 30
0.0
  3
*D7
  1

  0
LINE
  5
1EA2
330
1EA1
100
AcDbEntity
  8
BEM
 62
     0
370
    -2
100
AcDbLine
 10
154.9999999999999
 20
258.0439275310401
 30
0.0
 11
154.9999999999999
 21
204.6738834781381
 31
0.0
  0
LINE
  5
1EA3
330
1EA1
100
AcDbEntity
  8
BEM
 62
     0
370
    -2
100
AcDbLine
 10
295.0000000000001
 20
258.0439275310401
 30
0.0
 11
295.0000000000001
 21
204.6738834781381
 31
0.0
  0
LINE
  5
1EA4
330
1EA1
100
AcDbEntity
  8
BEM
 62
     0
370
    -2
100
AcDbLine
 10
161.9999999999999
 20
206.6738834781381
 30
0.0
 11
288.0000000000001
 21
206.6738834781381
 31
0.0
  0
SOLID
  5
1EA5
330
1EA1
100
AcDbEntity
  8
BEM
 62
     0
100
AcDbTrace
 10
161.9999999999999
 20
207.8405501448048
 30
0.0
 11
161.9999999999999
 21
205.5072168114715
 31
0.0
 12
154.9999999999999
 22
206.6738834781381
 32
0.0
 13
154.9999999999999
 23
206.6738834781381
 33
0.0
  0
SOLID
  5
1EA6
330
1EA1
100
AcDbEntity
  8
BEM
 62
     0
100
AcDbTrace
 10
288.0000000000001
 20
207.8405501448048
 30
0.0
 11
288.0000000000001
 21
205.5072168114715
 31
0.0
 12
295.0000000000001
 22
206.6738834781381
 32
0.0
 13
295.0000000000001
 23
206.6738834781381
 33
0.0
  0
MTEXT
  5
1EA7
330
1EA1
100
AcDbEntity
  8
BEM
 62
     1
100
AcDbMText
 10
225.0
 20
213.1738834781381
 30
0.0
 40
7.0
 41
0.0
 71
     5
 72
     1
  1
\A1;140
 73
     1
 44
1.0
  0
POINT
  5
1EA8
330
1EA1
100
AcDbEntity
  8
Defpoints
 62
     0
100
AcDbPoint
 10
154.9999999999999
 20
260.0439275310401
 30
0.0
  0
POINT
  5
1EA9
330
1EA1
100
AcDbEntity
  8
Defpoints
 62
     0
100
AcDbPoint
 10
295.0000000000001
 20
260.0439275310401
 30
0.0
  0
POINT
  5
1EAA
330
1EA1
100
AcDbEntity
  8
Defpoints
 62
     0
100
AcDbPoint
 10
295.0000000000001
 20
206.6738834781381
 30
0.0
  0
ENDBLK
  5
1EAC
330
1EA1
100
AcDbEntity
  8
0
100
AcDbBlockEnd
  0
BLOCK
  5
1EDE
330
1ED4
100
AcDbEntity
  8
0
100
AcDbBlockBegin
  2
*D8
 70
     1
 10
0.0
 20
0.0
 30
0.0
  3
*D8
  1

  0
LINE
  5
1EEC
330
1ED4
100
AcDbEntity
  8
BEM
 62
     0
370
    -2
100
AcDbLine
 10
264.25
 20
467.3059241534202
 30
0.0
 11
327.5887186142691
 21
467.3059241534202
 31
0.0
  0
LINE
  5
1EED
330
1ED4
100
AcDbEntity
  8
BEM
 62
     0
370
    -2
100
AcDbLine
 10
296.9999999999999
 20
426.6059241534204
 30
0.0
 11
327.5887186142691
 21
426.6059241534204
 31
0.0
  0
LINE
  5
1EEE
330
1ED4
100
AcDbEntity
  8
BEM
 62
     0
370
    -2
100
AcDbLine
 10
325.5887186142691
 20
460.3059241534203
 30
0.0
 11
325.5887186142691
 21
433.6059241534203
 31
0.0
  0
SOLID
  5
1EEF
330
1ED4
100
AcDbEntity
  8
BEM
 62
     0
100
AcDbTrace
 10
324.4220519476024
 20
460.3059241534203
 30
0.0
 11
326.7553852809357
 21
460.3059241534203
 31
0.0
 12
325.5887186142691
 22
467.3059241534202
 32
0.0
 13
325.5887186142691
 23
467.3059241534202
 33
0.0
  0
SOLID
  5
1EF0
330
1ED4
100
AcDbEntity
  8
BEM
 62
     0
100
AcDbTrace
 10
324.4220519476024
 20
433.6059241534203
 30
0.0
 11
326.7553852809357
 21
433.6059241534203
 31
0.0
 12
325.5887186142691
 22
426.6059241534204
 32
0.0
 13
325.5887186142691
 23
426.6059241534204
 33
0.0
  0
MTEXT
  5
1EF1
330
1ED4
100
AcDbEntity
  8
BEM
 62
     1
100
AcDbMText
 10
319.0887186142689
 20
446.9559241534203
 30
0.0
 40
7.0
 41
0.0
 71
     5
 72
     1
  1
\A1;40.7
 11
0.0000000000000001
 21
1.0
 31
0.0
 73
     1
 44
1.0
  0
POINT
  5
1EF2
330
1ED4
100
AcDbEntity
  8
Defpoints
 62
     0
100
AcDbPoint
 10
262.25
 20
467.3059241534202
 30
0.0
  0
POINT
  5
1EF3
330
1ED4
100
AcDbEntity
  8
Defpoints
 62
     0
100
AcDbPoint
 10
294.9999999999999
 20
426.6059241534204
 30
0.0
  0
POINT
  5
1EF4
330
1ED4
100
AcDbEntity
  8
Defpoints
 62
     0
100
AcDbPoint
 10
325.5887186142691
 20
426.6059241534204
 30
0.0
  0
ENDBLK
  5
1EDF
330
1ED4
100
AcDbEntity
  8
0
100
AcDbBlockEnd
  0
BLOCK
  5
1EEA
330
1EE0
100
AcDbEntity
  8
0
100
AcDbBlockBegin
  2
*D9
 70
     1
 10
0.0
 20
0.0
 30
0.0
  3
*D9
  1

  0
LINE
  5
1EF5
330
1EE0
100
AcDbEntity
  8
BEM
 62
     0
370
    -2
100
AcDbLine
 10
235.5000000000003
 20
358.1059241534202
 30
0.0
 11
327.588718614269
 21
358.1059241534202
 31
0.0
  0
LINE
  5
1EF6
330
1EE0
100
AcDbEntity
  8
BEM
 62
     0
370
    -2
100
AcDbLine
 10
296.9999999999999
 20
423.6059241534204
 30
0.0
 11
327.5887186142691
 21
423.6059241534204
 31
0.0
  0
LINE
  5
1EF7
330
1EE0
100
AcDbEntity
  8
BEM
 62
     0
370
    -2
100
AcDbLine
 10
325.588718614269
 20
365.1059241534202
 30
0.0
 11
325.5887186142691
 21
416.6059241534203
 31
0.0
  0
SOLID
  5
1EF8
330
1EE0
100
AcDbEntity
  8
BEM
 62
     0
100
AcDbTrace
 10
324.4220519476023
 20
365.1059241534202
 30
0.0
 11
326.7553852809357
 21
365.1059241534202
 31
0.0
 12
325.588718614269
 22
358.1059241534202
 32
0.0
 13
325.588718614269
 23
358.1059241534202
 33
0.0
  0
SOLID
  5
1EF9
330
1EE0
100
AcDbEntity
  8
BEM
 62
     0
100
AcDbTrace
 10
324.4220519476024
 20
416.6059241534203
 30
0.0
 11
326.7553852809357
 21
416.6059241534203
 31
0.0
 12
325.5887186142691
 22
423.6059241534204
 32
0.0
 13
325.5887186142691
 23
423.6059241534204
 33
0.0
  0
MTEXT
  5
1EFA
330
1EE0
100
AcDbEntity
  8
BEM
 62
     1
100
AcDbMText
 10
319.0887186142689
 20
390.8559241534204
 30
0.0
 40
7.0
 41
0.0
 71
     5
 72
     1
  1
\A1;65.5
 11
0.0000000000000001
 21
1.0
 31
0.0
 73
     1
 44
1.0
  0
POINT
  5
1EFB
330
1EE0
100
AcDbEntity
  8
Defpoints
 62
     0
100
AcDbPoint
 10
233.5000000000003
 20
358.1059241534202
 30
0.0
  0
POINT
  5
1EFC
330
1EE0
100
AcDbEntity
  8
Defpoints
 62
     0
100
AcDbPoint
 10
294.9999999999999
 20
423.6059241534204
 30
0.0
  0
POINT
  5
1EFD
330
1EE0
100
AcDbEntity
  8
Defpoints
 62
     0
100
AcDbPoint
 10
325.5887186142691
 20
423.6059241534204
 30
0.0
  0
ENDBLK
  5
1EEB
330
1EE0
100
AcDbEntity
  8
0
100
AcDbBlockEnd
  0
BLOCK
  5
1F09
330
1EFF
100
AcDbEntity
  8
0
100
AcDbBlockBegin
  2
*D10
 70
     1
 10
0.0
 20
0.0
 30
0.0
  3
*D10
  1

  0
LINE
  5
1F14
330
1EFF
100
AcDbEntity
  8
BEM
 62
     0
370
    -2
100
AcDbLine
 10
185.7499999999999
 20
385.1059241534202
 30
0.0
 11
143.8937517592896
 21
385.1059241534202
 31
0.0
  0
LINE
  5
1F15
330
1EFF
100
AcDbEntity
  8
BEM
 62
     0
370
    -2
100
AcDbLine
 10
185.7499999999999
 20
465.1059241534202
 30
0.0
 11
143.8937517592896
 21
465.1059241534202
 31
0.0
  0
LINE
  5
1F16
330
1EFF
100
AcDbEntity
  8
BEM
 62
     0
370
    -2
100
AcDbLine
 10
145.8937517592896
 20
392.1059241534202
 30
0.0
 11
145.8937517592896
 21
458.1059241534202
 31
0.0
  0
SOLID
  5
1F17
330
1EFF
100
AcDbEntity
  8
BEM
 62
     0
100
AcDbTrace
 10
144.727085092623
 20
392.1059241534202
 30
0.0
 11
147.0604184259563
 21
392.1059241534202
 31
0.0
 12
145.8937517592896
 22
385.1059241534202
 32
0.0
 13
145.8937517592896
 23
385.1059241534202
 33
0.0
  0
SOLID
  5
1F18
330
1EFF
100
AcDbEntity
  8
BEM
 62
     0
100
AcDbTrace
 10
144.727085092623
 20
458.1059241534202
 30
0.0
 11
147.0604184259563
 21
458.1059241534202
 31
0.0
 12
145.8937517592896
 22
465.1059241534202
 32
0.0
 13
145.8937517592896
 23
465.1059241534202
 33
0.0
  0
MTEXT
  5
1F19
330
1EFF
100
AcDbEntity
  8
BEM
 62
     1
100
AcDbMText
 10
139.3937517592896
 20
425.1059241534203
 30
0.0
 40
7.0
 41
0.0
 71
     5
 72
     1
  1
\A1;80
 11
0.0000000000000001
 21
1.0
 31
0.0
 73
     1
 44
1.0
  0
POINT
  5
1F1A
330
1EFF
100
AcDbEntity
  8
Defpoints
 62
     0
100
AcDbPoint
 10
187.7499999999999
 20
385.1059241534202
 30
0.0
  0
POINT
  5
1F1B
330
1EFF
100
AcDbEntity
  8
Defpoints
 62
     0
100
AcDbPoint
 10
187.7499999999999
 20
465.1059241534202
 30
0.0
  0
POINT
  5
1F1C
330
1EFF
100
AcDbEntity
  8
Defpoints
 62
     0
100
AcDbPoint
 10
145.8937517592896
 20
465.1059241534202
 30
0.0
  0
ENDBLK
  5
1F0A
330
1EFF
100
AcDbEntity
  8
0
100
AcDbBlockEnd
  0
ENDSEC
  0
SECTION
  2
ENTITIES
  0
LINE
  5
57
330
1E
100
AcDbEntity
  8
STEMPEL
100
AcDbLine
 10
410.0
 20
110.0
 30
0.0
 11
39.99999999999997
 21
110.0
 31
0.0
  0
LINE
  5
58
330
1E
100
AcDbEntity
  8
STEMPEL
100
AcDbLine
 10
136.0000000000001
 20
109.9999999999999
 30
0.0
 11
136.0
 21
9.999999999999971
 31
0.0
  0
LINE
  5
59
330
1E
100
AcDbEntity
  8
STEMPEL
100
AcDbLine
 10
220.0
 20
110.0
 30
0.0
 11
220.0
 21
9.999999999999971
 31
0.0
  0
LINE
  5
5A
330
1E
100
AcDbEntity
  8
STEMPEL
100
AcDbLine
 10
332.0
 20
109.9999999999997
 30
0.0
 11
332.0
 21
40.0
 31
0.0
  0
LINE
  5
5B
330
1E
100
AcDbEntity
  8
STEMPEL
100
AcDbLine
 10
135.9999999999999
 20
29.99999999999997
 30
0.0
 11
39.99999999999997
 21
29.99999999999997
 31
0.0
  0
LINE
  5
5C
330
1E
100
AcDbEntity
  8
STEMPEL
100
AcDbLine
 10
410.0
 20
40.0
 30
0.0
 11
136.0000000000001
 21
39.99999999999997
 31
0.0
  0
LINE
  5
5D
330
1E
100
AcDbEntity
  8
STEMPEL
100
AcDbLine
 10
410.0
 20
80.0
 30
0.0
 11
136.0000000000001
 21
79.99999999999994
 31
0.0
  0
LINE
  5
5E
330
1E
100
AcDbEntity
  8
VOLL
100
AcDbLine
 10
54.00000000000009
 20
110.0
 30
0.0
 11
53.99999999999997
 21
9.999999999999971
 31
0.0
  0
LINE
  5
5F
330
1E
100
AcDbEntity
  8
VOLL
100
AcDbLine
 10
94.00000000000011
 20
109.9999999999999
 30
0.0
 11
94.0
 21
9.999999999999971
 31
0.0
  0
LINE
  5
60
330
1E
100
AcDbEntity
  8
VOLL
100
AcDbLine
 10
114.0000000000001
 20
109.9999999999999
 30
0.0
 11
114.0
 21
9.999999999999971
 31
0.0
  0
LINE
  5
61
330
1E
100
AcDbEntity
  8
VOLL
100
AcDbLine
 10
154.0000000000001
 20
79.99999999999994
 30
0.0
 11
154.0000000000001
 21
39.99999999999997
 31
0.0
  0
LINE
  5
62
330
1E
100
AcDbEntity
  8
VOLL
100
AcDbLine
 10
180.0000000000001
 20
109.9999999999998
 30
0.0
 11
180.0
 21
39.99999999999997
 31
0.0
  0
LINE
  5
63
330
1E
100
AcDbEntity
  8
HILF
100
AcDbLine
 10
40.00000000000008
 20
100.0
 30
0.0
 11
136.0000000000001
 21
100.0
 31
0.0
  0
LINE
  5
64
330
1E
100
AcDbEntity
  8
HILF
100
AcDbLine
 10
40.00000000000008
 20
90.00000000000005
 30
0.0
 11
136.0000000000001
 21
90.00000000000005
 31
0.0
  0
LINE
  5
65
330
1E
100
AcDbEntity
  8
HILF
100
AcDbLine
 10
40.00000000000008
 20
79.99999999999994
 30
0.0
 11
136.0000000000001
 21
79.99999999999994
 31
0.0
  0
LINE
  5
66
330
1E
100
AcDbEntity
  8
HILF
100
AcDbLine
 10
40.00000000000008
 20
69.99999999999994
 30
0.0
 11
136.0000000000001
 21
69.99999999999994
 31
0.0
  0
LINE
  5
67
330
1E
100
AcDbEntity
  8
HILF
100
AcDbLine
 10
40.00000000000008
 20
59.99999999999997
 30
0.0
 11
136.0000000000001
 21
59.99999999999997
 31
0.0
  0
LINE
  5
68
330
1E
100
AcDbEntity
  8
HILF
100
AcDbLine
 10
40.00000000000008
 20
49.99999999999997
 30
0.0
 11
136.0000000000001
 21
49.99999999999997
 31
0.0
  0
LINE
  5
69
330
1E
100
AcDbEntity
  8
HILF
100
AcDbLine
 10
40.00000000000008
 20
39.99999999999997
 30
0.0
 11
136.0000000000001
 21
39.99999999999997
 31
0.0
  0
LINE
  5
6A
330
1E
100
AcDbEntity
  8
HILF
100
AcDbLine
 10
136.0000000000001
 20
69.99999999999994
 30
0.0
 11
220.0
 21
69.99999999999994
 31
0.0
  0
LINE
  5
6B
330
1E
100
AcDbEntity
  8
HILF
100
AcDbLine
 10
136.0000000000001
 20
59.99999999999997
 30
0.0
 11
220.0
 21
59.99999999999997
 31
0.0
  0
LINE
  5
6C
330
1E
100
AcDbEntity
  8
HILF
100
AcDbLine
 10
136.0000000000001
 20
49.99999999999997
 30
0.0
 11
220.0
 21
49.99999999999997
 31
0.0
  0
LINE
  5
6D
330
1E
100
AcDbEntity
  8
HILF
100
AcDbLine
 10
224.7736801096948
 20
84.03758247564139
 30
0.0
 11
324.8353916556311
 21
84.03758247564139
 31
0.0
  0
LINE
  5
6E
330
1E
100
AcDbEntity
  8
HILF
100
AcDbLine
 10
224.7736801096948
 20
69.99999999999994
 30
0.0
 11
324.835391655631
 21
69.99999999999994
 31
0.0
  0
LINE
  5
6F
330
1E
100
AcDbEntity
  8
HILF
100
AcDbLine
 10
224.7736801096948
 20
59.99999999999997
 30
0.0
 11
324.835391655631
 21
59.99999999999997
 31
0.0
  0
LINE
  5
70
330
1E
100
AcDbEntity
  8
HILF
100
AcDbLine
 10
224.7736801096948
 20
49.99999999999997
 30
0.0
 11
324.835391655631
 21
49.99999999999997
 31
0.0
  0
LINE
  5
71
330
1E
100
AcDbEntity
  8
VOLL
100
AcDbLine
 10
332.0
 20
60.0
 30
0.0
 11
410.0
 21
60.0
 31
0.0
  0
LINE
  5
72
330
1E
100
AcDbEntity
  8
HILF
100
AcDbLine
 10
336.7238616296993
 20
83.77983636955827
 30
0.0
 11
404.8588839326728
 21
83.77983636955827
 31
0.0
  0
LINE
  5
73
330
1E
100
AcDbEntity
  8
HILF
100
AcDbLine
 10
223.4909699289885
 20
14.89398258028314
 30
0.0
 11
404.8588839326728
 21
14.89398258028314
 31
0.0
  0
TEXT
  5
74
330
1E
100
AcDbEntity
  8
TEXT
100
AcDbText
 10
63.86165979631819
 20
18.67381894984132
 30
0.0
 40
4.0
  1
Änderung
 41
0.8
  7
GREEKS
 72
     1
 11
74.60451693917534
 21
18.67381894984132
 31
0.0
100
AcDbText
  0
TEXT
  5
75
330
1E
100
AcDbEntity
  8
TEXT
100
AcDbText
 10
143.5163572150377
 20
102.4620895087088
 30
0.0
 40
5.0
  1
Maßstab
 41
0.8
  7
GREEKS
100
AcDbText
  0
TEXT
  5
76
330
1E
100
AcDbEntity
  8
TEXT
100
AcDbText
 10
184.2858954734051
 20
102.4184168434819
 30
0.0
 40
5.0
  1
Zul. Abw.
 41
0.8
  7
GREEKS
100
AcDbText
  0
TEXT
  5
77
330
1E
100
AcDbEntity
  8
TEXT
100
AcDbText
 10
224.877940380901
 20
102.5489328011779
 30
0.0
 40
5.0
  1
Benennung
 41
0.8
  7
GREEKS
100
AcDbText
  0
TEXT
  5
78
330
1E
100
AcDbEntity
  8
TEXT
100
AcDbText
 10
336.178754957634
 20
102.3132034537136
 30
0.0
 40
5.0
  1
Zeichnungs Nr.
 41
0.8
  7
GREEKS
100
AcDbText
  0
TEXT
  5
79
330
1E
100
AcDbEntity
  8
TEXT
100
AcDbText
 10
224.742238391136
 20
30.84560570193057
 30
0.0
 40
5.0
  1
Bauvorhaben
 41
0.8
  7
GREEKS
100
AcDbText
  0
TEXT
  5
7A
330
1E
100
AcDbEntity
  8
TEXT
100
AcDbText
 10
336.7238616296993
 20
73.1811823709997
 30
0.0
 40
5.0
  1
Ersatz für:
 41
0.8
  7
GREEKS
100
AcDbText
  0
TEXT
  5
7B
330
1E
100
AcDbEntity
  8
TEXT
100
AcDbText
 10
48.26641107045756
 20
13.65465846027192
 30
0.0
 40
4.0
  1
Index
 50
90.0
 41
0.8
  7
GREEKS
100
AcDbText
  0
TEXT
  5
7C
330
1E
100
AcDbEntity
  8
TEXT
100
AcDbText
 10
100.0934676075481
 20
18.6715626933981
 30
0.0
 40
4.0
  1
Tag
 41
0.8
  7
GREEKS
 72
     1
 11
103.8268009408814
 21
18.6715626933981
 31
0.0
100
AcDbText
  0
TEXT
  5
7D
330
1E
100
AcDbEntity
  8
TEXT
100
AcDbText
 10
119.0122744386592
 20
18.59324216966408
 30
0.0
 40
4.0
  1
Name
 41
0.8
  7
GREEKS
 72
     1
 11
125.3360839624688
 21
18.59324216966408
 31
0.0
100
AcDbText
  0
TEXT
  5
7E
330
1E
100
AcDbEntity
  8
TEXT
100
AcDbText
 10
162.3311673153651
 20
73.31880501229926
 30
0.0
 40
4.0
  1
Tag
 41
0.8
  7
GREEKS
100
AcDbText
  0
TEXT
  5
7F
330
1E
100
AcDbEntity
  8
TEXT
100
AcDbText
 10
192.4626584226295
 20
73.30961091915225
 30
0.0
 40
4.0
  1
Name
 41
0.8
  7
GREEKS
100
AcDbText
  0
TEXT
  5
80
330
1E
100
AcDbEntity
  8
TEXT
100
AcDbText
 10
137.5836127167615
 20
63.62990369617964
 30
0.0
 40
4.0
  1
Gez.
 41
0.8
  7
GREEKS
100
AcDbText
  0
TEXT
  5
81
330
1E
100
AcDbEntity
  8
TEXT
100
AcDbText
 10
137.5515086571672
 20
53.68926291428377
 30
0.0
 40
4.0
  1
Gepr.
 41
0.8
  7
GREEKS
100
AcDbText
  0
TEXT
  5
82
330
1E
100
AcDbEntity
  8
TEXT
100
AcDbText
 10
137.6006777387304
 20
43.52946389649807
 30
0.0
 40
4.0
  1
Norm.
 41
0.8
  7
GREEKS
100
AcDbText
  0
LINE
  5
83
330
1E
100
AcDbEntity
  8
STEMPEL
100
AcDbLine
 10
49.99999999999989
 20
10.0
 30
0.0
 11
410.0
 21
10.0
 31
0.0
  0
TEXT
  5
84
330
1E
100
AcDbEntity
  8
TEXT
100
AcDbText
 10
337.2400861497006
 20
52.07416177878602
 30
0.0
 40
5.0
  1
ersetzt durch:
 41
0.8
  7
GREEKS
100
AcDbText
  0
LINE
  5
85
330
1E
100
AcDbEntity
  8
STEMPEL
100
AcDbLine
 10
410.0
 20
10.0
 30
0.0
 11
39.99999999999989
 21
10.0
 31
0.0
  0
LINE
  5
86
330
1E
100
AcDbEntity
  8
STEMPEL
100
AcDbLine
 10
410.0
 20
10.0
 30
0.0
 11
410.0
 21
584.0
 31
0.0
  0
LINE
  5
87
330
1E
100
AcDbEntity
  8
STEMPEL
100
AcDbLine
 10
40.0
 20
10.0
 30
0.0
 11
39.99999999999989
 21
584.0
 31
0.0
  0
LINE
  5
88
330
1E
100
AcDbEntity
  8
STEMPEL
100
AcDbLine
 10
410.0
 20
584.0
 30
0.0
 11
39.99999999999989
 21
584.0
 31
0.0
  0
LINE
  5
89
330
1E
100
AcDbEntity
  8
HILF
100
AcDbLine
 10
0.0
 20
0.0
 30
0.0
 11
-0.0000000000001137
 21
594.0
 31
0.0
  0
LINE
  5
8A
330
1E
100
AcDbEntity
  8
HILF
100
AcDbLine
 10
419.9999999999999
 20
594.0000000000002
 30
0.0
 11
0.0
 21
594.0
 31
0.0
  0
LINE
  5
8B
330
1E
100
AcDbEntity
  8
HILF
100
AcDbLine
 10
420.0
 20
0.0
 30
0.0
 11
0.0
 21
0.0
 31
0.0
  0
LINE
  5
8C
330
1E
100
AcDbEntity
  8
HILF
100
AcDbLine
 10
31.08767135713856
 20
297.0
 30
0.0
 11
0.0000000000001137
 21
297.0
 31
0.0
  0
TEXT
  5
8D
330
1E
100
AcDbEntity
  8
TEXT
100
AcDbText
 10
138.622109822104
 20
73.14025471151666
 30
0.0
 40
4.0
  1
2012
 41
0.8
  7
GREEKS
100
AcDbText
  0
LINE
  5
8E
330
1E
100
AcDbEntity
  8
HILF
100
AcDbLine
 10
420.0
 20
-0.0000000000001137
 30
0.0
 11
419.9999999999999
 21
594.0
 31
0.0
  0
TEXT
  5
8F
330
1E
100
AcDbEntity
  8
VOLL
100
AcDbText
 10
78.07675471698113
 20
31.02594776470585
 30
0.0
 40
1.8
  1

  7
GREEKS
100
AcDbText
  0
TEXT
  5
90
330
1E
100
AcDbEntity
  8
TEXT
100
AcDbText
 10
41.85509950977674
 20
111.6719999999999
 30
0.0
 40
5.0
  1
Erstellt mit AUTOCAD 2004
 41
0.8
  7
GREEKS
100
AcDbText
  0
TEXT
  5
91
330
1E
100
AcDbEntity
  8
TEXT
100
AcDbText
 10
194.4216048581257
 20
63.0896391972351
 30
0.0
 40
4.0
  1
Koeh
 41
0.8
  7
GREEKS
 72
     1
 11
199.6787477152685
 21
63.0896391972351
 31
0.0
100
AcDbText
  0
TEXT
  5
92
330
1E
100
AcDbEntity
  8
TEXT
 62
     1
100
AcDbText
 10
346.5027356103079
 20
88.14901428913959
 30
0.0
 40
7.0
  1
00991080W
 41
0.8
  7
GREEKS
 72
     1
 11
369.9694022769746
 21
88.14901428913959
 31
0.0
100
AcDbText
  0
TEXT
  5
93
330
1E
100
AcDbEntity
  8
TEXT
 62
     1
100
AcDbText
 10
150.5006306481887
 20
88.14901428913959
 30
0.0
 40
7.0
  1
1:2
 41
0.8
  7
GREEKS
100
AcDbText
  0
TEXT
  5
94
330
1E
100
AcDbEntity
  8
TEXT
100
AcDbText
 10
160.7037590129979
 20
63.10765040825732
 30
0.0
 40
4.0
  1
29.10.
 41
0.8
  7
GREEKS
 72
     1
 11
167.4085209177598
 21
63.10765040825732
 31
0.0
100
AcDbText
  0
TEXT
  5
95
330
1E
100
AcDbEntity
  8
TEXT
 62
     1
100
AcDbText
 10
226.8935731057402
 20
87.41748789253779
 30
0.0
 40
7.0
  1
Rohrschelle   DN80
 41
0.8
  7
GREEKS
100
AcDbText
  0
TEXT
  5
96
330
1E
100
AcDbEntity
  8
TEXT
100
AcDbText
 10
225.1296391125315
 20
71.50334417585288
 30
0.0
 40
5.0
  1
mit Anschlußgewinde M10
 41
0.8
  7
GREEKS
100
AcDbText
  0
TEXT
  5
98
330
1E
100
AcDbEntity
  8
TEXT
100
AcDbText
 10
225.1296391125315
 20
51.64011943042158
 30
0.0
 40
5.0
  1
EDV-Art.Nr. 00991.080X
 41
0.8
  7
GREEKS
100
AcDbText
  0
TEXT
  5
99
330
1E
100
AcDbEntity
  8
TEXT
100
AcDbText
 10
224.9837501577827
 20
42.62974153022632
 30
0.0
 40
4.0
  1
00991080W.DWG
 41
0.8
  7
GREEKS
100
AcDbText
  0
TEXT
  5
9A
330
1E
100
AcDbEntity
  8
TEXT
100
AcDbText
 10
182.626132208084
 20
90.76363841023022
 30
0.0
 40
4.0
  1
DIN EN1123-2
 41
0.8
  7
GREEKS
 72
     1
 11
199.6166083985602
 21
90.76363841023022
 31
0.0
100
AcDbText
  0
INSERT
  5
9B
330
1E
100
AcDbEntity
  8
STEMPEL
100
AcDbBlockReference
  2
LOGO
 10
140.9955485457794
 20
45.02105276448322
 30
0.0
 41
2.0
 42
2.0
 43
2.0
  0
TEXT
  5
118
330
1E
100
AcDbEntity
  8
BEM
100
AcDbText
 10
417.3022923857165
 20
10.16790107998849
 30
0.0
 40
4.0
  1
Diese Zeichnung ist urheberrechtlich geschützt und bleibt unser Eigentum. Sie darf weder ganz noch teilweise verfielfältigt und nicht an Dritte weitergegeben werden.
 50
90.0
 41
0.8
  7
GREEKS
100
AcDbText
  0
TEXT
  5
7A1
330
1E
100
AcDbEntity
  8
TEXT
 62
     1
100
AcDbText
 10
242.8365522679117
 20
115.6405708316599
 30
0.0
 40
7.0
  1
Werkstoff: St37 Dickschichtpassiviert
 41
0.8
  7
GREEKS
100
AcDbText
  0
LWPOLYLINE
  5
18E9
330
1E
100
AcDbEntity
  8
TEXT
 62
     1
100
AcDbPolyline
 90
        4
 70
     1
 43
0.0
 10
279.5439296435284
 20
94.3882247546162
 10
279.5439296435284
 20
87.38822475461621
 10
286.5439296435284
 20
87.38822475461621
 10
286.5439296435284
 20
94.3882247546162
  0
TEXT
  5
1BA5
330
1E
100
AcDbEntity
  8
TEXT
 62
     1
100
AcDbText
 10
300.3583748917372
 20
486.9549860050874
 30
0.0
 40
7.0
  1
Schraube M8x25
 41
0.8
  7
GREEKS
100
AcDbText
  0
LINE
  5
1BA6
330
1E
100
AcDbEntity
  8
TEXT
 62
     2
100
AcDbLine
 10
298.2384818956918
 20
483.5750805881909
 30
0.0
 11
369.2795675403933
 21
483.5750805881909
 31
0.0
  0
LINE
  5
1BA7
330
1E
100
AcDbEntity
  8
TEXT
 62
     2
100
AcDbLine
 10
298.2384818956918
 20
483.5750805881909
 30
0.0
 11
282.9999999999994
 21
430.4766503526693
 31
0.0
  0
TEXT
  5
1CCF
330
1E
100
AcDbEntity
  8
TEXT
 62
     1
100
AcDbText
 10
367.247717454267
 20
63.9887170077875
 30
0.0
 40
7.0
  1

 41
0.8
  7
GREEKS
 72
     1
 11
367.247717454267
 21
63.9887170077875
 31
0.0
100
AcDbText
  0
LINE
  5
1CDD
330
1E
100
AcDbEntity
  8
MITTEL
100
AcDbLine
 10
225.0
 20
473.8059241534201
 30
0.0
 11
225.0
 21
353.1059241534202
 31
0.0
  0
LINE
  5
1CDE
330
1E
100
AcDbEntity
  8
MITTEL
100
AcDbLine
 10
300.0
 20
425.1059241534202
 30
0.0
 11
150.0
 21
425.1059241534202
 31
0.0
  0
LINE
  5
1CDF
330
1E
100
AcDbEntity
  8
STEMPEL
100
AcDbLine
 10
294.9999999999999
 20
426.6059241534202
 30
0.0
 11
270.4500000000001
 21
426.6059241534201
 31
0.0
  0
LINE
  5
1CE0
330
1E
100
AcDbEntity
  8
STEMPEL
100
AcDbLine
 10
294.9999999999999
 20
423.6059241534201
 30
0.0
 11
270.4500000000001
 21
423.6059241534201
 31
0.0
  0
LINE
  5
1CE4
330
1E
100
AcDbEntity
  8
STEMPEL
100
AcDbLine
 10
294.9999999999998
 20
428.8059241534202
 30
0.0
 11
294.9999999999999
 21
426.6059241534202
 31
0.0
  0
LINE
  5
1CE5
330
1E
100
AcDbEntity
  8
STEMPEL
100
AcDbLine
 10
294.9999999999999
 20
423.6059241534201
 30
0.0
 11
294.9999999999999
 21
421.4059241534202
 31
0.0
  0
LINE
  5
1CE7
330
1E
100
AcDbEntity
  8
STEMPEL
100
AcDbLine
 10
294.9999999999999
 20
428.8059241534202
 30
0.0
 11
270.4500000000001
 21
428.8059241534202
 31
0.0
  0
LINE
  5
1CE8
330
1E
100
AcDbEntity
  8
STEMPEL
100
AcDbLine
 10
294.9999999999999
 20
421.4059241534202
 30
0.0
 11
270.4500000000001
 21
421.4059241534202
 31
0.0
  0
LINE
  5
1CE9
330
1E
100
AcDbEntity
  8
STEMPEL
100
AcDbLine
 10
262.25
 20
385.1059241534202
 30
0.0
 11
245.8726896031428
 21
385.1059241534203
 31
0.0
  0
LINE
  5
1CEA
330
1E
100
AcDbEntity
  8
STEMPEL
100
AcDbLine
 10
184.7499999999999
 20
462.1059241534202
 30
0.0
 11
184.75
 21
431.8059241534203
 31
0.0
  0
LINE
  5
1CEB
330
1E
100
AcDbEntity
  8
STEMPEL
100
AcDbLine
 10
265.2500000000001
 20
462.1059241534203
 30
0.0
 11
265.2500000000001
 21
431.8059241534202
 31
0.0
  0
LINE
  5
1CEC
330
1E
100
AcDbEntity
  8
STEMPEL
100
AcDbLine
 10
265.2500000000001
 20
418.4059241534202
 30
0.0
 11
265.2499999999999
 21
388.1059241534202
 31
0.0
  0
LINE
  5
1CED
330
1E
100
AcDbEntity
  8
STEMPEL
100
AcDbLine
 10
184.75
 20
418.4059241534202
 30
0.0
 11
184.7499999999999
 21
388.1059241534202
 31
0.0
  0
LINE
  5
1CEE
330
1E
100
AcDbEntity
  8
STEMPEL
100
AcDbLine
 10
262.25
 20
465.1059241534203
 30
0.0
 11
187.7499999999999
 21
465.1059241534202
 31
0.0
  0
ARC
  5
1CEF
330
1E
100
AcDbEntity
  8
STEMPEL
100
AcDbCircle
 10
262.25
 20
462.1059241534203
 30
0.0
 40
3.0
100
AcDbArc
 50
0.0000000000000509
 51
89.99999999999998
  0
ARC
  5
1CF0
330
1E
100
AcDbEntity
  8
STEMPEL
100
AcDbCircle
 10
187.7499999999999
 20
462.1059241534202
 30
0.0
 40
3.0
100
AcDbArc
 50
90.0
 51
180.0
  0
ARC
  5
1CF1
330
1E
100
AcDbEntity
  8
STEMPEL
100
AcDbCircle
 10
187.7499999999999
 20
388.1059241534202
 30
0.0
 40
3.0
100
AcDbArc
 50
180.0
 51
269.9999999999999
  0
ARC
  5
1CF2
330
1E
100
AcDbEntity
  8
STEMPEL
100
AcDbCircle
 10
262.25
 20
388.1059241534202
 30
0.0
 40
3.0
100
AcDbArc
 50
270.0
 51
0.0
  0
LINE
  5
1CF3
330
1E
100
AcDbEntity
  8
STEMPEL
100
AcDbLine
 10
179.5500000000001
 20
421.4059241534202
 30
0.0
 11
154.9999999999999
 21
421.4059241534203
 31
0.0
  0
LINE
  5
1CF4
330
1E
100
AcDbEntity
  8
STEMPEL
100
AcDbLine
 10
179.5500000000001
 20
423.6059241534201
 30
0.0
 11
154.9999999999999
 21
423.6059241534203
 31
0.0
  0
LINE
  5
1CF5
330
1E
100
AcDbEntity
  8
STEMPEL
100
AcDbLine
 10
179.5499999999999
 20
426.6059241534202
 30
0.0
 11
154.9999999999999
 21
426.6059241534202
 31
0.0
  0
LINE
  5
1CF6
330
1E
100
AcDbEntity
  8
STEMPEL
100
AcDbLine
 10
179.5499999999999
 20
428.8059241534202
 30
0.0
 11
154.9999999999999
 21
428.8059241534202
 31
0.0
  0
LINE
  5
1CF7
330
1E
100
AcDbEntity
  8
STEMPEL
100
AcDbLine
 10
267.4500000000001
 20
418.4059241534202
 30
0.0
 11
267.45
 21
388.1059241534202
 31
0.0
  0
ARC
  5
1CF8
330
1E
100
AcDbEntity
  8
STEMPEL
100
AcDbCircle
 10
262.25
 20
388.1059241534202
 30
0.0
 40
5.2
100
AcDbArc
 50
270.0
 51
0.0
  0
LINE
  5
1CF9
330
1E
100
AcDbEntity
  8
STEMPEL
100
AcDbLine
 10
262.25
 20
382.9059241534202
 30
0.0
 11
245.8726896031428
 21
382.9059241534204
 31
0.0
  0
ARC
  5
1CFA
330
1E
100
AcDbEntity
  8
STEMPEL
100
AcDbCircle
 10
187.7499999999999
 20
388.1059241534202
 30
0.0
 40
5.2
100
AcDbArc
 50
180.0
 51
269.9999999999999
  0
LINE
  5
1CFB
330
1E
100
AcDbEntity
  8
STEMPEL
100
AcDbLine
 10
182.5500000000001
 20
418.4059241534202
 30
0.0
 11
182.5499999999999
 21
388.1059241534202
 31
0.0
  0
LINE
  5
1CFC
330
1E
100
AcDbEntity
  8
STEMPEL
100
AcDbLine
 10
182.5499999999999
 20
462.1059241534202
 30
0.0
 11
182.5499999999999
 21
431.8059241534203
 31
0.0
  0
ARC
  5
1CFD
330
1E
100
AcDbEntity
  8
STEMPEL
100
AcDbCircle
 10
187.7499999999999
 20
462.1059241534202
 30
0.0
 40
5.2
100
AcDbArc
 50
90.0
 51
180.0
  0
LINE
  5
1CFE
330
1E
100
AcDbEntity
  8
STEMPEL
100
AcDbLine
 10
262.25
 20
467.3059241534202
 30
0.0
 11
187.7499999999999
 21
467.3059241534202
 31
0.0
  0
ARC
  5
1CFF
330
1E
100
AcDbEntity
  8
STEMPEL
100
AcDbCircle
 10
262.25
 20
462.1059241534203
 30
0.0
 40
5.2
100
AcDbArc
 50
0.0000000000000509
 51
89.99999999999998
  0
LINE
  5
1D00
330
1E
100
AcDbEntity
  8
STEMPEL
100
AcDbLine
 10
267.4500000000001
 20
462.1059241534203
 30
0.0
 11
267.4500000000001
 21
431.8059241534202
 31
0.0
  0
ARC
  5
1D01
330
1E
100
AcDbEntity
  8
STEMPEL
100
AcDbCircle
 10
270.4500000000001
 20
431.8059241534202
 30
0.0
 40
3.0
100
AcDbArc
 50
180.0
 51
270.0
  0
ARC
  5
1D02
330
1E
100
AcDbEntity
  8
STEMPEL
100
AcDbCircle
 10
270.4500000000001
 20
418.4059241534202
 30
0.0
 40
3.0
100
AcDbArc
 50
90.0
 51
179.9999999999998
  0
ARC
  5
1D03
330
1E
100
AcDbEntity
  8
STEMPEL
100
AcDbCircle
 10
179.5499999999999
 20
431.8059241534203
 30
0.0
 40
3.0
100
AcDbArc
 50
270.0000000000001
 51
0.0000000000001781
  0
ARC
  5
1D04
330
1E
100
AcDbEntity
  8
STEMPEL
100
AcDbCircle
 10
179.5500000000001
 20
418.4059241534202
 30
0.0
 40
3.0
100
AcDbArc
 50
359.9999999999998
 51
89.99999999999991
  0
ARC
  5
1D05
330
1E
100
AcDbEntity
  8
STEMPEL
100
AcDbCircle
 10
179.5499999999999
 20
431.8059241534203
 30
0.0
 40
5.2
100
AcDbArc
 50
270.0000000000001
 51
0.0000000000001781
  0
ARC
  5
1D06
330
1E
100
AcDbEntity
  8
STEMPEL
100
AcDbCircle
 10
179.5500000000001
 20
418.4059241534202
 30
0.0
 40
5.2
100
AcDbArc
 50
359.9999999999998
 51
89.99999999999991
  0
ARC
  5
1D07
330
1E
100
AcDbEntity
  8
STEMPEL
100
AcDbCircle
 10
270.4500000000001
 20
418.4059241534202
 30
0.0
 40
5.2
100
AcDbArc
 50
90.0
 51
179.9999999999998
  0
ARC
  5
1D08
330
1E
100
AcDbEntity
  8
STEMPEL
100
AcDbCircle
 10
270.4500000000001
 20
431.8059241534202
 30
0.0
 40
5.2
100
AcDbArc
 50
180.0
 51
270.0
  0
LINE
  5
1D0A
330
1E
100
AcDbEntity
  8
MITTEL
100
AcDbLine
 10
282.9999999999994
 20
439.1024649534201
 30
0.0
 11
283.0000000000002
 21
398.8059241534202
 31
0.0
  0
LINE
  5
1D0B
330
1E
100
AcDbEntity
  8
STEMPEL
100
AcDbLine
 10
287.9999999999999
 20
419.8059241534201
 30
0.0
 11
277.9999999999998
 21
419.8059241534201
 31
0.0
  0
LINE
  5
1D13
330
1E
100
AcDbEntity
  8
STEMPEL
100
AcDbLine
 10
277.9999999999998
 20
421.4059241534202
 30
0.0
 11
277.9999999999998
 21
419.8059241534201
 31
0.0
  0
LINE
  5
1D14
330
1E
100
AcDbEntity
  8
STEMPEL
100
AcDbLine
 10
287.9999999999996
 20
421.4059241534202
 30
0.0
 11
287.9999999999997
 21
419.8059241534201
 31
0.0
  0
LINE
  5
1D18
102
{ACAD_REACTORS
330
1D3C
102
}
330
1E
100
AcDbEntity
  8
STEMPEL
100
AcDbLine
 10
235.9999999999998
 20
371.6059241534202
 30
0.0
 11
214.0
 21
371.6059241534202
 31
0.0
  0
LINE
  5
1D19
330
1E
100
AcDbEntity
  8
STEMPEL
100
AcDbLine
 10
235.9999999999998
 20
373.8059241534202
 30
0.0
 11
214.0
 21
373.8059241534202
 31
0.0
  0
ARC
  5
1D1D
102
{ACAD_REACTORS
330
1D3C
102
}
330
1E
100
AcDbEntity
  8
STEMPEL
100
AcDbCircle
 10
214.0
 20
376.6059241534202
 30
0.0
 40
5.0
100
AcDbArc
 50
209.9999999999999
 51
270.0
  0
ARC
  5
1D1E
330
1E
100
AcDbEntity
  8
STEMPEL
100
AcDbCircle
 10
214.0
 20
376.6059241534202
 30
0.0
 40
2.799999999999999
100
AcDbArc
 50
209.9999999999994
 51
270.0
  0
LINE
  5
1D1F
330
1E
100
AcDbEntity
  8
STEMPEL
100
AcDbLine
 10
204.820130719885
 20
382.5059241534203
 30
0.0
 11
209.6698729810777
 21
374.1059241534202
 31
0.0
  0
LINE
  5
1D20
330
1E
100
AcDbEntity
  8
STEMPEL
100
AcDbLine
 10
206.7253866082108
 20
383.6059241534203
 30
0.0
 11
211.5751288694035
 21
375.2059241534202
 31
0.0
  0
LINE
  5
1D21
330
1E
100
AcDbEntity
  8
STEMPEL
100
AcDbLine
 10
243.2746133917894
 20
383.6059241534203
 30
0.0
 11
238.4248711305965
 21
375.2059241534202
 31
0.0
  0
LINE
  5
1D22
330
1E
100
AcDbEntity
  8
STEMPEL
100
AcDbLine
 10
245.1798692801152
 20
382.5059241534203
 30
0.0
 11
240.3301270189223
 21
374.1059241534202
 31
0.0
  0
ARC
  5
1D23
330
1E
100
AcDbEntity
  8
STEMPEL
100
AcDbCircle
 10
236.0000000000001
 20
376.6059241534202
 30
0.0
 40
2.799999999999999
100
AcDbArc
 50
270.0
 51
330.0000000000006
  0
ARC
  5
1D24
102
{ACAD_REACTORS
330
1D3C
102
}
330
1E
100
AcDbEntity
  8
STEMPEL
100
AcDbCircle
 10
236.0000000000001
 20
376.6059241534202
 30
0.0
 40
5.0
100
AcDbArc
 50
270.0
 51
330.0000000000001
  0
LINE
  5
1D25
330
1E
100
AcDbEntity
  8
STEMPEL
100
AcDbLine
 10
204.1273103968574
 20
385.1059241534203
 30
0.0
 11
187.7499999999999
 21
385.1059241534202
 31
0.0
  0
LINE
  5
1D26
330
1E
100
AcDbEntity
  8
STEMPEL
100
AcDbLine
 10
204.1273103968574
 20
382.9059241534203
 30
0.0
 11
187.7499999999999
 21
382.9059241534202
 31
0.0
  0
ARC
  5
1D27
330
1E
100
AcDbEntity
  8
STEMPEL
100
AcDbCircle
 10
245.8726896031428
 20
382.1059241534203
 30
0.0
 40
3.0
100
AcDbArc
 50
89.99999999999982
 51
150.0
  0
ARC
  5
1D28
330
1E
100
AcDbEntity
  8
STEMPEL
100
AcDbCircle
 10
204.1273103968574
 20
382.1059241534204
 30
0.0
 40
3.0
100
AcDbArc
 50
29.99999999999998
 51
90.00000000000019
  0
ARC
  5
1D29
330
1E
100
AcDbEntity
  8
STEMPEL
100
AcDbCircle
 10
245.8726896031428
 20
382.1059241534203
 30
0.0
 40
0.7999999999999999
100
AcDbArc
 50
89.99999999999982
 51
150.0
  0
ARC
  5
1D2A
330
1E
100
AcDbEntity
  8
STEMPEL
100
AcDbCircle
 10
204.1273103968574
 20
382.1059241534204
 30
0.0
 40
0.7999999999999999
100
AcDbArc
 50
29.99999999999998
 51
90.00000000000019
  0
LINE
  5
1D2C
330
1E
100
AcDbEntity
  8
STEMPEL
100
AcDbLine
 10
233.4999999999999
 20
358.1059241534202
 30
0.0
 11
216.4999999999998
 21
358.1059241534202
 31
0.0
  0
LINE
  5
1D2D
102
{ACAD_REACTORS
330
1D3C
102
}
330
1E
100
AcDbEntity
  8
STEMPEL
100
AcDbLine
 10
216.4999999999998
 20
371.6059241534202
 30
0.0
 11
216.4999999999998
 21
358.1059241534202
 31
0.0
  0
LINE
  5
1D2E
102
{ACAD_REACTORS
330
1D3C
102
}
330
1E
100
AcDbEntity
  8
STEMPEL
100
AcDbLine
 10
233.4999999999998
 20
371.6059241534202
 30
0.0
 11
233.4999999999998
 21
358.1059241534202
 31
0.0
  0
LINE
  5
1D2F
330
1E
100
AcDbEntity
  8
STEMPEL
100
AcDbLine
 10
224.9999999999998
 20
371.6059241534202
 30
0.0
 11
224.9999999999998
 21
358.1059241534202
 31
0.0
  0
ARC
  5
1D32
102
{ACAD_REACTORS
330
1D3C
102
}
330
1E
100
AcDbEntity
  8
SCHRAFF
100
AcDbCircle
 10
233.4999999999998
 20
371.6059241534202
 30
0.0
 40
3.0
100
AcDbArc
 50
270.0
 51
0.4784692926755988
  0
ARC
  5
1D33
102
{ACAD_REACTORS
330
1D3C
102
}
330
1E
100
AcDbEntity
  8
SCHRAFF
100
AcDbCircle
 10
216.4999999999998
 20
371.6059241534202
 30
0.0
 40
3.0
100
AcDbArc
 50
179.5215307073233
 51
270.0
  0
HATCH
  5
1D3C
330
1E
100
AcDbEntity
  8
SCHRAFF
100
AcDbHatch
 10
0.0
 20
0.0
 30
0.0
210
0.0
220
0.0
230
1.0
  2
_USER
 70
     0
 71
     1
 91
        2
 92
        7
 72
     1
 73
     1
 93
        4
 10
216.4999999999998
 20
368.6059241534203
 42
0.0
 10
216.4999999999998
 20
371.6059241534202
 42
0.0
 10
214.0
 20
371.6059241534202
 42
-0.025041831259989
 10
213.5001046047995
 20
371.63097645582
 42
0.416661594481948
 97
        4
330
1D18
330
1D1D
330
1D33
330
1D2D
 92
        7
 72
     1
 73
     1
 93
        4
 10
233.4999999999998
 20
368.6059241534203
 42
0.4166615944819484
 10
236.4998953952002
 20
371.63097645582
 42
-0.0250418312599719
 10
236.0000000000001
 20
371.6059241534202
 42
0.0
 10
233.4999999999998
 20
371.6059241534202
 42
0.0
 97
        4
330
1D24
330
1D18
330
1D2E
330
1D32
 75
     0
 76
     0
 52
0.0
 41
0.1
 77
     0
 78
     1
 53
0.0
 43
-356.0754877224495
 44
39.63170827755164
 45
0.0
 46
0.1
 79
     0
 47
0.0837457659635581
 98
        2
 10
214.7081819982645
 20
369.8157221446537
 10
234.3960827848591
 20
370.2344517070736
  0
LINE
  5
1D3E
330
1E
100
AcDbEntity
  8
MITTEL
100
AcDbLine
 10
149.9999999999999
 20
260.0439275310401
 30
0.0
 11
300.0
 21
260.0439275310401
 31
0.0
  0
LINE
  5
1D3F
330
1E
100
AcDbEntity
  8
MITTEL
100
AcDbLine
 10
225.0
 20
282.5439275310401
 30
0.0
 11
225.0
 21
237.5439275310401
 31
0.0
  0
LINE
  5
1D40
330
1E
100
AcDbEntity
  8
STEMPEL
100
AcDbLine
 10
165.3175416344807
 20
277.5439275310401
 30
0.0
 11
284.6824583655186
 21
277.5439275310401
 31
0.0
  0
LINE
  5
1D41
330
1E
100
AcDbEntity
  8
STEMPEL
100
AcDbLine
 10
165.317541634482
 20
242.5439275310401
 30
0.0
 11
284.6824583655186
 21
242.5439275310401
 31
0.0
  0
ARC
  5
1D4A
330
1E
100
AcDbEntity
  8
STEMPEL
100
AcDbCircle
 10
275.0
 20
260.0439275310401
 30
0.0
 40
20.0
100
AcDbArc
 50
298.9550243718598
 51
61.04497562814018
  0
LINE
  5
1D4B
330
1E
100
AcDbEntity
  8
MITTEL
100
AcDbLine
 10
283.0
 20
271.5439275310401
 30
0.0
 11
283.0
 21
248.5439275310401
 31
0.0
  0
LINE
  5
1D55
330
1E
100
AcDbEntity
  8
STEMPEL
100
AcDbLine
 10
267.4500000000001
 20
277.5439275310402
 30
0.0
 11
267.45
 21
242.5439275310401
 31
0.0
  0
LINE
  5
1D56
330
1E
100
AcDbEntity
  8
STEMPEL
100
AcDbLine
 10
182.55
 20
277.5439275310404
 30
0.0
 11
182.5499999999999
 21
242.5439275310404
 31
0.0
  0
LINE
  5
1D5D
330
1E
100
AcDbEntity
  8
HILF
100
AcDbLine
 10
188.3342804253461
 20
264.79392753104
 30
0.0
 11
215.6358395998361
 21
264.7939275310401
 31
0.0
  0
LINE
  5
1D5E
330
1E
100
AcDbEntity
  8
HILF
100
AcDbLine
 10
188.3342804253462
 20
255.29392753104
 30
0.0
 11
215.6358395998361
 21
255.29392753104
 31
0.0
  0
CIRCLE
  5
1D5F
330
1E
100
AcDbEntity
  8
HILF
100
AcDbCircle
 10
225.0
 20
260.0439275310401
 30
0.0
 40
10.5
  0
TEXT
  5
1D69
330
1E
100
AcDbEntity
  8
TEXT
 62
     1
100
AcDbText
 10
220.294545946181
 20
261.97092753104
 30
0.0
 40
3.5
  1
LORO
 41
0.8
 72
     1
 11
225.3612126128476
 21
261.97092753104
 31
0.0
100
AcDbText
  0
TEXT
  5
1D6A
330
1E
100
AcDbEntity
  8
TEXT
 62
     1
100
AcDbText
 10
219.8819800507489
 20
254.8689275310401
 30
0.0
 40
3.5
  1
DN80
 41
0.8
 72
     1
 11
225.0153133840822
 21
254.8689275310401
 31
0.0
100
AcDbText
  0
CIRCLE
  5
1D6B
330
1E
100
AcDbEntity
  8
HILF
100
AcDbCircle
 10
225.0
 20
260.0439275310401
 30
0.0
 40
9.5
  0
LINE
  5
1D6C
330
1E
100
AcDbEntity
  8
HILF
100
AcDbLine
 10
234.3641604001641
 20
264.7939275310401
 30
0.0
 11
261.6657195746539
 21
264.7939275310401
 31
0.0
  0
LINE
  5
1D6D
330
1E
100
AcDbEntity
  8
HILF
100
AcDbLine
 10
234.3641604001641
 20
255.29392753104
 30
0.0
 11
261.6657195746538
 21
255.29392753104
 31
0.0
  0
LINE
  5
1D6E
330
1E
100
AcDbEntity
  8
STEMPEL
100
AcDbLine
 10
260.1553646893925
 20
468.8059241534203
 30
0.0
 11
189.8446353106074
 21
468.8059241534201
 31
0.0
  0
LINE
  5
1D6F
330
1E
100
AcDbEntity
  8
STEMPEL
100
AcDbLine
 10
284.6824583655185
 20
421.4059241534201
 30
0.0
 11
284.6824583655185
 21
423.6059241534201
 31
0.0
  0
LINE
  5
1D72
330
1E
100
AcDbEntity
  8
STEMPEL
100
AcDbLine
 10
284.6824583655185
 20
426.6059241534202
 30
0.0
 11
284.6824583655186
 21
428.8059241534202
 31
0.0
  0
ARC
  5
1D7D
330
1E
100
AcDbEntity
  8
HILF
100
AcDbCircle
 10
191.9999999999999
 20
260.0439275310401
 30
0.0
 40
6.0
100
AcDbArc
 50
127.6584620062086
 51
232.3415379937931
  0
ARC
  5
1D7E
330
1E
100
AcDbEntity
  8
HILF
100
AcDbCircle
 10
258.0
 20
260.0439275310401
 30
0.0
 40
6.0
100
AcDbArc
 50
307.6584620062069
 51
52.34153799379142
  0
ARC
  5
1D8D
330
1E
100
AcDbEntity
  8
STEMPEL
100
AcDbCircle
 10
260.1553646893925
 20
463.8059241534202
 30
0.0
 40
5.0
100
AcDbArc
 50
39.74236250305285
 51
90.0
  0
ARC
  5
1D8E
330
1E
100
AcDbEntity
  8
STEMPEL
100
AcDbCircle
 10
189.8446353106074
 20
463.8059241534202
 30
0.0
 40
5.0
100
AcDbArc
 50
90.0
 51
140.2576374969471
  0
LINE
  5
1D93
330
1E
100
AcDbEntity
  8
HILF
100
AcDbLine
 10
234.3641604001641
 20
467.3059241534202
 30
0.0
 11
234.3641604001641
 21
468.8059241534202
 31
0.0
  0
LINE
  5
1D94
330
1E
100
AcDbEntity
  8
HILF
100
AcDbLine
 10
215.6358395998358
 20
467.3059241534202
 30
0.0
 11
215.6358395998357
 21
468.80592415342
 31
0.0
  0
LINE
  5
1D95
330
1E
100
AcDbEntity
  8
STEMPEL
100
AcDbLine
 10
289.2499999999997
 20
425.3559241534202
 30
0.0
 11
276.7499999999997
 21
425.3559241534203
 31
0.0
  0
LINE
  5
1D96
330
1E
100
AcDbEntity
  8
STEMPEL
100
AcDbLine
 10
289.2499999999997
 20
424.8559241534201
 30
0.0
 11
276.7499999999997
 21
424.8559241534202
 31
0.0
  0
LINE
  5
1D97
330
1E
100
AcDbEntity
  8
STEMPEL
100
AcDbLine
 10
276.7499999999997
 20
425.3559241534201
 30
0.0
 11
276.7499999999997
 21
424.8559241534202
 31
0.0
  0
LINE
  5
1D98
330
1E
100
AcDbEntity
  8
STEMPEL
100
AcDbLine
 10
289.2499999999998
 20
425.3559241534203
 30
0.0
 11
289.2499999999998
 21
424.8559241534202
 31
0.0
  0
LINE
  5
1DB3
330
1E
100
AcDbEntity
  8
HILF
  6
Continuous
100
AcDbLine
 10
285.7999999999996
 20
424.8559241534201
 30
0.0
 11
285.7999999999998
 21
423.6059241534202
 31
0.0
  0
LINE
  5
1DB4
330
1E
100
AcDbEntity
  8
HILF
  6
Continuous
100
AcDbLine
 10
280.1999999999998
 20
424.8559241534202
 30
0.0
 11
280.1999999999999
 21
423.6059241534201
 31
0.0
  0
LINE
  5
1DB5
330
1E
100
AcDbEntity
  8
STEMPEL
100
AcDbLine
 10
278.9999999999998
 20
426.6059241534202
 30
0.0
 11
278.9999999999998
 21
425.3559241534202
 31
0.0
  0
LINE
  5
1DB6
330
1E
100
AcDbEntity
  8
STEMPEL
100
AcDbLine
 10
286.9999999999997
 20
426.6059241534202
 30
0.0
 11
286.9999999999997
 21
425.3559241534202
 31
0.0
  0
LINE
  5
1DB7
330
1E
100
AcDbEntity
  8
STEMPEL
100
AcDbLine
 10
280.1999999999998
 20
403.8059241534202
 30
0.0
 11
285.7999999999996
 21
403.8059241534202
 31
0.0
  0
LINE
  5
1DB8
330
1E
100
AcDbEntity
  8
STEMPEL
100
AcDbLine
 10
278.9999999999997
 20
405.0059241534202
 30
0.0
 11
286.9999999999997
 21
405.0059241534202
 31
0.0
  0
LINE
  5
1DB9
330
1E
100
AcDbEntity
  8
STEMPEL
100
AcDbLine
 10
278.9999999999997
 20
405.0059241534202
 30
0.0
 11
280.1999999999998
 21
403.8059241534202
 31
0.0
  0
LINE
  5
1DBA
330
1E
100
AcDbEntity
  8
STEMPEL
100
AcDbLine
 10
285.7999999999996
 20
403.8059241534202
 30
0.0
 11
286.9999999999997
 21
405.0059241534202
 31
0.0
  0
ARC
  5
1DBC
330
1E
100
AcDbEntity
  8
STEMPEL
100
AcDbCircle
 10
282.9999999999997
 20
423.3197597534203
 30
0.0
 40
10.7827052
100
AcDbArc
 50
70.52782738138624
 51
84.67867936304486
  0
LINE
  5
1DBD
330
1E
100
AcDbEntity
  8
STEMPEL
100
AcDbLine
 10
277.6089198051744
 20
434.1024649534202
 30
0.0
 11
281.9999999999995
 21
434.1024649534203
 31
0.0
  0
ARC
  5
1DBF
330
1E
100
AcDbEntity
  8
STEMPEL
100
AcDbCircle
 10
277.6083940338877
 20
431.1755140155567
 30
0.0
 40
2.926950985085932
100
AcDbArc
 50
52.11936428281847
 51
121.4691945240804
  0
LINE
  5
1DC0
330
1E
100
AcDbEntity
  8
STEMPEL
100
AcDbLine
 10
275.8111920451838
 20
433.5165397643536
 30
0.0
 11
276.2103909417804
 21
433.7470173547639
 31
0.0
  0
LINE
  5
1DC1
330
1E
100
AcDbEntity
  8
STEMPEL
100
AcDbLine
 10
275.8111920451838
 20
433.5165397643536
 30
0.0
 11
275.8111920451838
 21
428.8059241534202
 31
0.0
  0
LINE
  5
1DC2
330
1E
100
AcDbEntity
  8
STEMPEL
100
AcDbLine
 10
279.4055960225918
 20
433.4857319881502
 30
0.0
 11
279.4055960225918
 21
428.8059241534202
 31
0.0
  0
ARC
  5
1DC3
330
1E
100
AcDbEntity
  8
STEMPEL
100
AcDbCircle
 10
288.3916059661117
 20
431.1755140155567
 30
0.0
 40
2.926950985085932
100
AcDbArc
 50
58.53080547591956
 51
127.8806357171815
  0
LINE
  5
1DC4
330
1E
100
AcDbEntity
  8
STEMPEL
100
AcDbLine
 10
286.5944039774077
 20
433.4857319881502
 30
0.0
 11
286.5944039774077
 21
428.8059241534202
 31
0.0
  0
LINE
  5
1DC5
330
1E
100
AcDbEntity
  8
STEMPEL
100
AcDbLine
 10
288.3864507247586
 20
434.1024649534202
 30
0.0
 11
288.3910801948054
 21
434.1024649534202
 31
0.0
  0
LINE
  5
1DC6
330
1E
100
AcDbEntity
  8
STEMPEL
100
AcDbLine
 10
290.1888079548157
 20
433.5165397643536
 30
0.0
 11
289.789609058219
 21
433.7470173547639
 31
0.0
  0
LINE
  5
1DC7
330
1E
100
AcDbEntity
  8
STEMPEL
100
AcDbLine
 10
290.1888079548157
 20
433.5165397643536
 30
0.0
 11
290.1888079548157
 21
428.8059241534202
 31
0.0
  0
LINE
  5
1DCA
330
1E
100
AcDbEntity
  8
HILF
100
AcDbLine
 10
286.2959999999997
 20
426.6059241534202
 30
0.0
 11
285.8959999999997
 21
425.3559241534201
 31
0.0
  0
LINE
  5
1DCB
330
1E
100
AcDbEntity
  8
HILF
100
AcDbLine
 10
279.7039999999998
 20
426.6059241534202
 30
0.0
 11
280.1039999999998
 21
425.3559241534203
 31
0.0
  0
LINE
  5
1DCC
330
1E
100
AcDbEntity
  8
HILF
  6
Continuous
100
AcDbLine
 10
280.1999999999998
 20
419.80592415342
 30
0.0
 11
280.1999999999998
 21
403.8059241534202
 31
0.0
  0
LINE
  5
1DCD
330
1E
100
AcDbEntity
  8
STEMPEL
100
AcDbLine
 10
278.9999999999997
 20
419.8059241534201
 30
0.0
 11
278.9999999999997
 21
405.0059241534202
 31
0.0
  0
LINE
  5
1DCE
330
1E
100
AcDbEntity
  8
HILF
  6
Continuous
100
AcDbLine
 10
285.7999999999996
 20
419.80592415342
 30
0.0
 11
285.7999999999996
 21
403.8059241534202
 31
0.0
  0
LINE
  5
1DCF
330
1E
100
AcDbEntity
  8
STEMPEL
100
AcDbLine
 10
286.9999999999997
 20
419.8059241534201
 30
0.0
 11
286.9999999999997
 21
405.0059241534202
 31
0.0
  0
LINE
  5
1DD0
330
1E
100
AcDbEntity
  8
STEMPEL
100
AcDbLine
 10
286.9999999999997
 20
424.8559241534201
 30
0.0
 11
286.9999999999997
 21
423.6059241534202
 31
0.0
  0
LINE
  5
1DD1
330
1E
100
AcDbEntity
  8
STEMPEL
100
AcDbLine
 10
278.9999999999998
 20
424.8559241534201
 30
0.0
 11
278.9999999999997
 21
423.6059241534202
 31
0.0
  0
LINE
  5
1DD4
330
1E
100
AcDbEntity
  8
STEMPEL
100
AcDbLine
 10
281.9999999999995
 20
432.1024649534203
 30
0.0
 11
283.9999999999995
 21
432.1024649534203
 31
0.0
  0
LINE
  5
1DD5
330
1E
100
AcDbEntity
  8
STEMPEL
100
AcDbLine
 10
281.9999999999995
 20
434.1024649534202
 30
0.0
 11
281.9999999999995
 21
432.1024649534203
 31
0.0
  0
LINE
  5
1DD6
330
1E
100
AcDbEntity
  8
STEMPEL
100
AcDbLine
 10
283.9999999999995
 20
434.1024649534203
 30
0.0
 11
283.9999999999996
 21
432.1024649534203
 31
0.0
  0
LINE
  5
1DD7
330
1E
100
AcDbEntity
  8
STEMPEL
100
AcDbLine
 10
283.9999999999996
 20
434.1024649534203
 30
0.0
 11
288.3910801948157
 21
434.1024649534202
 31
0.0
  0
ARC
  5
1DD8
330
1E
100
AcDbEntity
  8
STEMPEL
100
AcDbCircle
 10
282.9999999999997
 20
423.3197597534203
 30
0.0
 40
10.7827052
100
AcDbArc
 50
95.32132063695758
 51
109.4721726186137
  0
ARC
  5
1DDA
330
1E
100
AcDbEntity
  8
STEMPEL
100
AcDbCircle
 10
167.0000000000003
 20
423.3197597534201
 30
0.0
 40
10.7827052
100
AcDbArc
 50
70.52782738138636
 51
84.67867936304253
  0
LINE
  5
1DDB
330
1E
100
AcDbEntity
  8
STEMPEL
100
AcDbLine
 10
166.0000000000004
 20
434.1024649534201
 30
0.0
 11
161.6089198051842
 21
434.1024649534201
 31
0.0
  0
LINE
  5
1DDC
330
1E
100
AcDbEntity
  8
STEMPEL
100
AcDbLine
 10
166.0000000000005
 20
434.1024649534202
 30
0.0
 11
166.0000000000004
 21
432.1024649534201
 31
0.0
  0
LINE
  5
1DDD
330
1E
100
AcDbEntity
  8
STEMPEL
100
AcDbLine
 10
168.0000000000005
 20
434.1024649534201
 30
0.0
 11
168.0000000000005
 21
432.1024649534201
 31
0.0
  0
LINE
  5
1DDE
330
1E
100
AcDbEntity
  8
STEMPEL
100
AcDbLine
 10
168.0000000000005
 20
432.1024649534201
 30
0.0
 11
166.0000000000005
 21
432.1024649534201
 31
0.0
  0
LINE
  5
1DDF
330
1E
100
AcDbEntity
  8
STEMPEL
100
AcDbLine
 10
171.0000000000001
 20
424.85592415342
 30
0.0
 11
171.0000000000003
 21
423.6059241534201
 31
0.0
  0
LINE
  5
1DE0
330
1E
100
AcDbEntity
  8
STEMPEL
100
AcDbLine
 10
163.0000000000003
 20
424.85592415342
 30
0.0
 11
163.0000000000003
 21
423.6059241534201
 31
0.0
  0
LINE
  5
1DE1
330
1E
100
AcDbEntity
  8
STEMPEL
100
AcDbLine
 10
163.0000000000003
 20
419.80592415342
 30
0.0
 11
163.0000000000003
 21
405.00592415342
 31
0.0
  0
LINE
  5
1DE2
330
1E
100
AcDbEntity
  8
HILF
  6
Continuous
100
AcDbLine
 10
164.2000000000004
 20
419.8059241534199
 30
0.0
 11
164.2000000000003
 21
403.8059241534201
 31
0.0
  0
LINE
  5
1DE3
330
1E
100
AcDbEntity
  8
STEMPEL
100
AcDbLine
 10
171.0000000000003
 20
419.80592415342
 30
0.0
 11
171.0000000000003
 21
405.00592415342
 31
0.0
  0
LINE
  5
1DE4
330
1E
100
AcDbEntity
  8
HILF
  6
Continuous
100
AcDbLine
 10
169.8000000000002
 20
419.8059241534199
 30
0.0
 11
169.8000000000002
 21
403.8059241534201
 31
0.0
  0
LINE
  5
1DE5
330
1E
100
AcDbEntity
  8
HILF
100
AcDbLine
 10
170.2960000000002
 20
426.6059241534201
 30
0.0
 11
169.8960000000002
 21
425.3559241534202
 31
0.0
  0
LINE
  5
1DE6
330
1E
100
AcDbEntity
  8
HILF
100
AcDbLine
 10
163.7040000000002
 20
426.6059241534201
 30
0.0
 11
164.1040000000003
 21
425.35592415342
 31
0.0
  0
LINE
  5
1DE7
330
1E
100
AcDbEntity
  8
STEMPEL
100
AcDbLine
 10
159.8111920451843
 20
433.5165397643535
 30
0.0
 11
159.8111920451843
 21
428.8059241534201
 31
0.0
  0
LINE
  5
1DE8
330
1E
100
AcDbEntity
  8
STEMPEL
100
AcDbLine
 10
159.8111920451843
 20
433.5165397643535
 30
0.0
 11
160.210390941781
 21
433.7470173547639
 31
0.0
  0
LINE
  5
1DE9
330
1E
100
AcDbEntity
  8
STEMPEL
100
AcDbLine
 10
161.6135492752414
 20
434.1024649534201
 30
0.0
 11
161.6089198051946
 21
434.1024649534201
 31
0.0
  0
LINE
  5
1DEA
330
1E
100
AcDbEntity
  8
STEMPEL
100
AcDbLine
 10
163.4055960225923
 20
433.4857319881501
 30
0.0
 11
163.4055960225923
 21
428.8059241534201
 31
0.0
  0
ARC
  5
1DEB
330
1E
100
AcDbEntity
  8
STEMPEL
100
AcDbCircle
 10
161.6083940338882
 20
431.1755140155566
 30
0.0
 40
2.926950985085932
100
AcDbArc
 50
52.11936428281859
 51
121.4691945240805
  0
LINE
  5
1DEC
330
1E
100
AcDbEntity
  8
STEMPEL
100
AcDbLine
 10
170.5944039774082
 20
433.4857319881501
 30
0.0
 11
170.5944039774082
 21
428.8059241534201
 31
0.0
  0
LINE
  5
1DED
330
1E
100
AcDbEntity
  8
STEMPEL
100
AcDbLine
 10
174.1888079548162
 20
433.5165397643535
 30
0.0
 11
174.1888079548162
 21
428.8059241534201
 31
0.0
  0
LINE
  5
1DEE
330
1E
100
AcDbEntity
  8
STEMPEL
100
AcDbLine
 10
174.1888079548162
 20
433.5165397643535
 30
0.0
 11
173.7896090582196
 21
433.7470173547639
 31
0.0
  0
ARC
  5
1DEF
330
1E
100
AcDbEntity
  8
STEMPEL
100
AcDbCircle
 10
172.3916059661123
 20
431.1755140155566
 30
0.0
 40
2.926950985085932
100
AcDbArc
 50
58.53080547591966
 51
127.8806357171816
  0
LINE
  5
1DF0
330
1E
100
AcDbEntity
  8
STEMPEL
100
AcDbLine
 10
172.3910801948256
 20
434.1024649534201
 30
0.0
 11
168.0000000000005
 21
434.1024649534201
 31
0.0
  0
ARC
  5
1DF1
330
1E
100
AcDbEntity
  8
STEMPEL
100
AcDbCircle
 10
167.0000000000003
 20
423.3197597534201
 30
0.0
 40
10.7827052
100
AcDbArc
 50
95.32132063695524
 51
109.4721726186138
  0
LINE
  5
1DF2
330
1E
100
AcDbEntity
  8
STEMPEL
100
AcDbLine
 10
164.2000000000003
 20
403.8059241534201
 30
0.0
 11
163.0000000000003
 21
405.00592415342
 31
0.0
  0
LINE
  5
1DF3
330
1E
100
AcDbEntity
  8
STEMPEL
100
AcDbLine
 10
171.0000000000003
 20
405.00592415342
 30
0.0
 11
169.8000000000002
 21
403.8059241534201
 31
0.0
  0
LINE
  5
1DF4
330
1E
100
AcDbEntity
  8
STEMPEL
100
AcDbLine
 10
171.0000000000003
 20
405.00592415342
 30
0.0
 11
163.0000000000003
 21
405.00592415342
 31
0.0
  0
LINE
  5
1DF5
330
1E
100
AcDbEntity
  8
STEMPEL
100
AcDbLine
 10
169.8000000000002
 20
403.8059241534201
 30
0.0
 11
164.2000000000003
 21
403.8059241534201
 31
0.0
  0
LINE
  5
1DF6
330
1E
100
AcDbEntity
  8
STEMPEL
100
AcDbLine
 10
163.0000000000003
 20
426.6059241534201
 30
0.0
 11
163.0000000000003
 21
425.3559241534201
 31
0.0
  0
LINE
  5
1DF7
330
1E
100
AcDbEntity
  8
STEMPEL
100
AcDbLine
 10
171.0000000000001
 20
426.6059241534201
 30
0.0
 11
171.0000000000001
 21
425.3559241534201
 31
0.0
  0
LINE
  5
1DF8
330
1E
100
AcDbEntity
  8
HILF
  6
Continuous
100
AcDbLine
 10
169.8000000000002
 20
424.85592415342
 30
0.0
 11
169.8000000000001
 21
423.60592415342
 31
0.0
  0
LINE
  5
1DF9
330
1E
100
AcDbEntity
  8
HILF
  6
Continuous
100
AcDbLine
 10
164.2000000000004
 20
424.85592415342
 30
0.0
 11
164.2000000000002
 21
423.6059241534201
 31
0.0
  0
LINE
  5
1DFA
330
1E
100
AcDbEntity
  8
STEMPEL
100
AcDbLine
 10
160.7500000000001
 20
425.3559241534201
 30
0.0
 11
160.7500000000001
 21
424.85592415342
 31
0.0
  0
LINE
  5
1DFB
330
1E
100
AcDbEntity
  8
STEMPEL
100
AcDbLine
 10
173.2500000000003
 20
425.35592415342
 30
0.0
 11
173.2500000000003
 21
424.85592415342
 31
0.0
  0
LINE
  5
1DFC
330
1E
100
AcDbEntity
  8
STEMPEL
100
AcDbLine
 10
160.7500000000003
 20
424.85592415342
 30
0.0
 11
173.2500000000003
 21
424.85592415342
 31
0.0
  0
LINE
  5
1DFD
330
1E
100
AcDbEntity
  8
STEMPEL
100
AcDbLine
 10
160.7500000000003
 20
425.3559241534201
 30
0.0
 11
173.2500000000003
 21
425.3559241534201
 31
0.0
  0
LINE
  5
1DFE
330
1E
100
AcDbEntity
  8
STEMPEL
100
AcDbLine
 10
165.3175416344815
 20
426.60592415342
 30
0.0
 11
165.3175416344814
 21
428.8059241534202
 31
0.0
  0
LINE
  5
1DFF
330
1E
100
AcDbEntity
  8
STEMPEL
100
AcDbLine
 10
165.3175416344815
 20
421.40592415342
 30
0.0
 11
165.3175416344815
 21
423.60592415342
 31
0.0
  0
LINE
  5
1E00
330
1E
100
AcDbEntity
  8
STEMPEL
100
AcDbLine
 10
162.0000000000004
 20
421.40592415342
 30
0.0
 11
162.0000000000002
 21
419.80592415342
 31
0.0
  0
LINE
  5
1E01
330
1E
100
AcDbEntity
  8
STEMPEL
100
AcDbLine
 10
172.0000000000001
 20
421.40592415342
 30
0.0
 11
172.0000000000001
 21
419.80592415342
 31
0.0
  0
LINE
  5
1E02
330
1E
100
AcDbEntity
  8
STEMPEL
100
AcDbLine
 10
162.0000000000001
 20
419.80592415342
 30
0.0
 11
172.0000000000001
 21
419.80592415342
 31
0.0
  0
LINE
  5
1E03
330
1E
100
AcDbEntity
  8
MITTEL
100
AcDbLine
 10
167.0000000000006
 20
439.10246495342
 30
0.0
 11
166.9999999999998
 21
398.8059241534201
 31
0.0
  0
LINE
  5
1E04
330
1E
100
AcDbEntity
  8
STEMPEL
100
AcDbLine
 10
155.0
 20
423.6059241534199
 30
0.0
 11
155.0
 21
421.40592415342
 31
0.0
  0
LINE
  5
1E05
330
1E
100
AcDbEntity
  8
STEMPEL
100
AcDbLine
 10
155.0000000000002
 20
428.80592415342
 30
0.0
 11
155.0
 21
426.60592415342
 31
0.0
  0
LWPOLYLINE
  5
1E07
330
1E
100
AcDbEntity
  8
VERDECKT
100
AcDbPolyline
 90
        6
 70
     1
 43
0.0
 10
216.5
 20
255.1364502429282
 10
225.0
 20
250.2289729548165
 10
233.5
 20
255.1364502429282
 10
233.5
 20
264.951404819152
 10
225.0
 20
269.8588821072637
 10
216.5
 20
264.951404819152
  0
TEXT
  5
1E0C
330
1E
100
AcDbEntity
  8
TEXT
 62
     1
100
AcDbText
 10
300.3583748917372
 20
473.890096388278
 30
0.0
 40
7.0
  1
DIN933
 41
0.8
  7
GREEKS
100
AcDbText
  0
DIMENSION
  5
1E11
330
1E
100
AcDbEntity
  8
BEM
100
AcDbDimension
  2
*D1
 10
265.2500000000001
 20
478.9203523739379
 30
0.0
 11
225.0
 21
485.4203523739379
 31
0.0
 70
    32
  1
80
 71
     5
 42
80.50000000000011
  3
Standard
100
AcDbAlignedDimension
 13
184.7499999999999
 23
462.1059241534202
 33
0.0
 14
265.2500000000001
 24
462.1059241534203
 34
0.0
100
AcDbRotatedDimension
1001
ACAD
1000
DSTYLE
1002
{
1070
    40
1040
2.0
1070
    41
1040
3.5
1070
    42
1040
1.0
1070
    43
1040
7.0
1070
    44
1040
1.0
1070
    73
1070
     0
1070
    74
1070
     0
1070
    77
1070
     1
1070
    78
1070
     8
1070
    79
1070
     2
1070
   140
1040
3.5
1070
   141
1040
1.5
1070
   146
1040
0.5
1070
   147
1040
1.5
1070
   172
1070
     1
1070
   178
1070
     1
1070
   179
1070
     2
1070
   271
1070
     2
1070
   272
1070
     2
1070
   284
1070
     8
1070
   285
1070
     8
1070
   286
1070
     8
1002
}
  0
DIMENSION
  5
1E30
330
1E
100
AcDbEntity
  8
BEM
100
AcDbDimension
  2
*D2
 10
312.914794154849
 20
423.6059241534201
 30
0.0
 11
306.4147941548489
 21
404.7392574867535
 31
0.0
 70
    32
 71
     5
 42
3.000000000000056
  3
Standard
100
AcDbAlignedDimension
 13
294.9999999999999
 23
426.6059241534202
 33
0.0
 14
294.9999999999999
 24
423.6059241534201
 34
0.0
 50
90.0
100
AcDbRotatedDimension
1001
ACAD
1000
DSTYLE
1002
{
1070
    40
1040
2.0
1070
    41
1040
3.5
1070
    42
1040
1.0
1070
    43
1040
7.0
1070
    44
1040
1.0
1070
    73
1070
     0
1070
    74
1070
     0
1070
    77
1070
     1
1070
    78
1070
     8
1070
    79
1070
     2
1070
   140
1040
3.5
1070
   141
1040
1.5
1070
   146
1040
0.5
1070
   147
1040
1.5
1070
   172
1070
     1
1070
   178
1070
     1
1070
   179
1070
     2
1070
   271
1070
     2
1070
   272
1070
     2
1070
   284
1070
     8
1070
   285
1070
     8
1070
   286
1070
     8
1002
}
  0
ARC
  5
1E60
330
1E
100
AcDbEntity
  8
STEMPEL
  6
Continuous
100
AcDbCircle
 10
283.0
 20
260.0439275310401
 30
0.0
 40
6.5
100
AcDbArc
 50
278.849883098429
 51
81.15011690157095
  0
LINE
  5
1E61
330
1E
100
AcDbEntity
  8
STEMPEL
  6
Continuous
100
AcDbLine
 10
279.2472232502674
 20
266.5439275310401
 30
0.0
 11
275.4944465005348
 21
260.0439275310401
 31
0.0
  0
LINE
  5
1E62
330
1E
100
AcDbEntity
  8
STEMPEL
  6
Continuous
100
AcDbLine
 10
275.4944465005348
 20
260.0439275310401
 30
0.0
 11
279.2472232502674
 21
253.5439275310401
 31
0.0
  0
LINE
  5
1E63
330
1E
100
AcDbEntity
  8
STEMPEL
  6
Continuous
100
AcDbLine
 10
279.2472232502674
 20
253.5439275310401
 30
0.0
 11
286.7527767497325
 21
253.5439275310401
 31
0.0
  0
LINE
  5
1E64
330
1E
100
AcDbEntity
  8
STEMPEL
  6
Continuous
100
AcDbLine
 10
286.7527767497325
 20
253.5439275310401
 30
0.0
 11
290.5055534994651
 21
260.0439275310401
 31
0.0
  0
LINE
  5
1E65
330
1E
100
AcDbEntity
  8
STEMPEL
  6
Continuous
100
AcDbLine
 10
290.5055534994651
 20
260.0439275310401
 30
0.0
 11
286.7527767497325
 21
266.5439275310401
 31
0.0
  0
LINE
  5
1E66
330
1E
100
AcDbEntity
  8
STEMPEL
  6
Continuous
100
AcDbLine
 10
286.7527767497325
 20
266.5439275310401
 30
0.0
 11
279.2472232502674
 21
266.5439275310401
 31
0.0
  0
LINE
  5
1E71
330
1E
100
AcDbEntity
  8
STEMPEL
100
AcDbLine
 10
281.9999999999999
 20
266.5439275310401
 30
0.0
 11
281.9999999999999
 21
253.5439275310401
 31
0.0
  0
LINE
  5
1E72
330
1E
100
AcDbEntity
  8
STEMPEL
100
AcDbLine
 10
283.9999999999999
 20
266.5439275310401
 30
0.0
 11
283.9999999999999
 21
253.5439275310401
 31
0.0
  0
ARC
  5
1E73
330
1E
100
AcDbEntity
  8
STEMPEL
  6
Continuous
100
AcDbCircle
 10
283.0
 20
260.0439275310401
 30
0.0
 40
6.5
100
AcDbArc
 50
98.84988309842903
 51
261.150116901571
  0
ARC
  5
1E74
330
1E
100
AcDbEntity
  8
STEMPEL
  6
Continuous
100
AcDbCircle
 10
167.0
 20
260.0439275310403
 30
0.0
 40
6.5
100
AcDbArc
 50
278.8498830984287
 51
81.15011690157068
  0
LINE
  5
1E75
330
1E
100
AcDbEntity
  8
STEMPEL
100
AcDbLine
 10
166.0000000000001
 20
266.5439275310404
 30
0.0
 11
166.0
 21
253.5439275310404
 31
0.0
  0
LINE
  5
1E76
330
1E
100
AcDbEntity
  8
STEMPEL
100
AcDbLine
 10
168.0000000000001
 20
266.5439275310404
 30
0.0
 11
168.0
 21
253.5439275310404
 31
0.0
  0
LINE
  5
1E77
330
1E
100
AcDbEntity
  8
STEMPEL
  6
Continuous
100
AcDbLine
 10
163.2472232502675
 20
266.5439275310404
 30
0.0
 11
170.7527767497326
 21
266.5439275310404
 31
0.0
  0
LINE
  5
1E78
330
1E
100
AcDbEntity
  8
STEMPEL
  6
Continuous
100
AcDbLine
 10
159.4944465005349
 20
260.0439275310404
 30
0.0
 11
163.2472232502675
 21
266.5439275310404
 31
0.0
  0
LINE
  5
1E79
330
1E
100
AcDbEntity
  8
STEMPEL
  6
Continuous
100
AcDbLine
 10
163.2472232502675
 20
253.5439275310404
 30
0.0
 11
159.4944465005349
 21
260.0439275310404
 31
0.0
  0
LINE
  5
1E7A
330
1E
100
AcDbEntity
  8
STEMPEL
  6
Continuous
100
AcDbLine
 10
170.7527767497326
 20
253.5439275310404
 30
0.0
 11
163.2472232502675
 21
253.5439275310404
 31
0.0
  0
LINE
  5
1E7B
330
1E
100
AcDbEntity
  8
STEMPEL
  6
Continuous
100
AcDbLine
 10
174.5055534994652
 20
260.0439275310403
 30
0.0
 11
170.7527767497326
 21
253.5439275310404
 31
0.0
  0
LINE
  5
1E7C
330
1E
100
AcDbEntity
  8
STEMPEL
  6
Continuous
100
AcDbLine
 10
170.7527767497326
 20
266.5439275310404
 30
0.0
 11
174.5055534994652
 21
260.0439275310403
 31
0.0
  0
ARC
  5
1E7D
330
1E
100
AcDbEntity
  8
STEMPEL
  6
Continuous
100
AcDbCircle
 10
167.0
 20
260.0439275310403
 30
0.0
 40
6.5
100
AcDbArc
 50
98.84988309842876
 51
261.1501169015706
  0
LINE
  5
1E7E
330
1E
100
AcDbEntity
  8
MITTEL
100
AcDbLine
 10
167.0000000000001
 20
271.5439275310404
 30
0.0
 11
167.0
 21
248.5439275310404
 31
0.0
  0
ARC
  5
1E7F
330
1E
100
AcDbEntity
  8
STEMPEL
100
AcDbCircle
 10
174.9999999999999
 20
260.0439275310403
 30
0.0
 40
20.0
100
AcDbArc
 50
118.9550243718595
 51
241.0449756281398
  0
DIMENSION
  5
1E86
330
1E
100
AcDbEntity
  8
BEM
100
AcDbDimension
  2
*D5
 10
142.2628782154784
 20
277.5439275310404
 30
0.0
 11
135.7628782154783
 21
260.0439275310403
 31
0.0
 70
    32
 71
     5
 42
35.00000000000031
  3
Standard
100
AcDbAlignedDimension
 13
165.317541634482
 23
242.5439275310401
 33
0.0
 14
165.3175416344815
 24
277.5439275310404
 34
0.0
 50
90.0
100
AcDbRotatedDimension
1001
ACAD
1000
DSTYLE
1002
{
1070
    40
1040
2.0
1070
    41
1040
3.5
1070
    42
1040
1.0
1070
    43
1040
7.0
1070
    44
1040
1.0
1070
    73
1070
     0
1070
    74
1070
     0
1070
    77
1070
     1
1070
    78
1070
     8
1070
    79
1070
     2
1070
   140
1040
3.5
1070
   141
1040
1.5
1070
   146
1040
0.5
1070
   147
1040
1.5
1070
   172
1070
     1
1070
   178
1070
     1
1070
   179
1070
     2
1070
   271
1070
     2
1070
   272
1070
     2
1070
   284
1070
     8
1070
   285
1070
     8
1070
   286
1070
     8
1002
}
  0
DIMENSION
  5
1E93
330
1E
100
AcDbEntity
  8
BEM
100
AcDbDimension
  2
*D6
 10
283.0
 20
223.3019240541592
 30
0.0
 11
225.0
 21
229.8019240541592
 31
0.0
 70
    32
 71
     5
 42
115.9999999999999
  3
Standard
100
AcDbAlignedDimension
 13
167.0
 23
248.5439275310404
 33
0.0
 14
283.0
 24
248.5439275310401
 34
0.0
100
AcDbRotatedDimension
1001
ACAD
1000
DSTYLE
1002
{
1070
    40
1040
2.0
1070
    41
1040
3.5
1070
    42
1040
1.0
1070
    43
1040
7.0
1070
    44
1040
1.0
1070
    73
1070
     0
1070
    74
1070
     0
1070
    77
1070
     1
1070
    78
1070
     8
1070
    79
1070
     2
1070
   140
1040
3.5
1070
   141
1040
1.5
1070
   146
1040
0.5
1070
   147
1040
1.5
1070
   172
1070
     1
1070
   178
1070
     1
1070
   179
1070
     2
1070
   271
1070
     2
1070
   272
1070
     2
1070
   284
1070
     8
1070
   285
1070
     8
1070
   286
1070
     8
1002
}
  0
DIMENSION
  5
1EA0
330
1E
100
AcDbEntity
  8
BEM
100
AcDbDimension
  2
*D7
 10
295.0000000000001
 20
206.6738834781381
 30
0.0
 11
225.0
 21
213.1738834781381
 31
0.0
 70
    32
 71
     5
 42
140.0000000000001
  3
Standard
100
AcDbAlignedDimension
 13
154.9999999999999
 23
260.0439275310401
 33
0.0
 14
295.0000000000001
 24
260.0439275310401
 34
0.0
100
AcDbRotatedDimension
1001
ACAD
1000
DSTYLE
1002
{
1070
    40
1040
2.0
1070
    41
1040
3.5
1070
    42
1040
1.0
1070
    43
1040
7.0
1070
    44
1040
1.0
1070
    73
1070
     0
1070
    74
1070
     0
1070
    77
1070
     1
1070
    78
1070
     8
1070
    79
1070
     2
1070
   140
1040
3.5
1070
   141
1040
1.5
1070
   146
1040
0.5
1070
   147
1040
1.5
1070
   172
1070
     1
1070
   178
1070
     1
1070
   179
1070
     2
1070
   271
1070
     2
1070
   272
1070
     2
1070
   284
1070
     8
1070
   285
1070
     8
1070
   286
1070
     8
1002
}
  0
DIMENSION
  5
1ED2
330
1E
100
AcDbEntity
  8
BEM
100
AcDbDimension
  2
*D9
 10
325.5887186142691
 20
423.6059241534204
 30
0.0
 11
319.0887186142689
 21
390.8559241534204
 31
0.0
 70
    32
 71
     5
 42
65.50000000000022
  3
Standard
100
AcDbAlignedDimension
 13
233.5000000000003
 23
358.1059241534202
 33
0.0
 14
294.9999999999999
 24
423.6059241534204
 34
0.0
 50
90.0
100
AcDbRotatedDimension
1001
ACAD
1000
DSTYLE
1002
{
1070
    40
1040
2.0
1070
    41
1040
3.5
1070
    42
1040
1.0
1070
    43
1040
7.0
1070
    44
1040
1.0
1070
    73
1070
     0
1070
    74
1070
     0
1070
    77
1070
     1
1070
    78
1070
     8
1070
    79
1070
     2
1070
   140
1040
3.5
1070
   141
1040
1.5
1070
   146
1040
0.5
1070
   147
1040
1.5
1070
   172
1070
     1
1070
   178
1070
     1
1070
   179
1070
     2
1070
   271
1070
     2
1070
   272
1070
     2
1070
   284
1070
     8
1070
   285
1070
     8
1070
   286
1070
     8
1002
}
  0
DIMENSION
  5
1ED3
330
1E
100
AcDbEntity
  8
BEM
100
AcDbDimension
  2
*D8
 10
325.5887186142691
 20
426.6059241534204
 30
0.0
 11
319.0887186142689
 21
446.9559241534203
 31
0.0
 70
    32
 71
     5
 42
40.69999999999987
  3
Standard
100
AcDbAlignedDimension
 13
262.25
 23
467.3059241534202
 33
0.0
 14
294.9999999999999
 24
426.6059241534204
 34
0.0
 50
90.0
100
AcDbRotatedDimension
1001
ACAD
1000
DSTYLE
1002
{
1070
    40
1040
2.0
1070
    41
1040
3.5
1070
    42
1040
1.0
1070
    43
1040
7.0
1070
    44
1040
1.0
1070
    73
1070
     0
1070
    74
1070
     0
1070
    77
1070
     1
1070
    78
1070
     8
1070
    79
1070
     2
1070
   140
1040
3.5
1070
   141
1040
1.5
1070
   146
1040
0.5
1070
   147
1040
1.5
1070
   172
1070
     1
1070
   178
1070
     1
1070
   179
1070
     2
1070
   271
1070
     2
1070
   272
1070
     2
1070
   284
1070
     8
1070
   285
1070
     8
1070
   286
1070
     8
1002
}
  0
DIMENSION
  5
1EFE
330
1E
100
AcDbEntity
  8
BEM
100
AcDbDimension
  2
*D10
 10
145.8937517592896
 20
465.1059241534202
 30
0.0
 11
139.3937517592896
 21
425.1059241534203
 31
0.0
 70
    32
 71
     5
 42
80.0
  3
Standard
100
AcDbAlignedDimension
 13
187.7499999999999
 23
385.1059241534202
 33
0.0
 14
187.7499999999999
 24
465.1059241534202
 34
0.0
 50
90.0
100
AcDbRotatedDimension
1001
ACAD
1000
DSTYLE
1002
{
1070
    40
1040
2.0
1070
    41
1040
3.5
1070
    42
1040
1.0
1070
    43
1040
7.0
1070
    44
1040
1.0
1070
    73
1070
     0
1070
    74
1070
     0
1070
    77
1070
     1
1070
    78
1070
     8
1070
    79
1070
     2
1070
   140
1040
3.5
1070
   141
1040
1.5
1070
   146
1040
0.5
1070
   147
1040
1.5
1070
   172
1070
     1
1070
   178
1070
     1
1070
   179
1070
     2
1070
   271
1070
     2
1070
   272
1070
     2
1070
   284
1070
     8
1070
   285
1070
     8
1070
   286
1070
     8
1002
}
  0
ENDSEC
  0
SECTION
  2
OBJECTS
  0
DICTIONARY
  5
C
330
0
100
AcDbDictionary
281
     1
  3
ACAD_COLOR
350
DF
  3
ACAD_GROUP
350
D
  3
ACAD_LAYOUT
350
19
  3
ACAD_MATERIAL
350
DE
  3
ACAD_MLINESTYLE
350
16
  3
ACAD_PLOTSETTINGS
350
18
  3
ACAD_PLOTSTYLENAME
350
E
  3
AcDbVariableDictionary
350
EA
  0
DICTIONARY
  5
A0
330
1E
100
AcDbDictionary
280
     1
281
     1
  3
ACAD_LAYOUTSELFREF
360
D4
  0
DICTIONARY
  5
A2
330
1A
100
AcDbDictionary
280
     1
281
     1
  3
ACAD_LAYOUTSELFREF
360
D3
  0
DICTIONARY
  5
DF
102
{ACAD_REACTORS
330
C
102
}
330
C
100
AcDbDictionary
281
     1
  0
DICTIONARY
  5
D
102
{ACAD_REACTORS
330
C
102
}
330
C
100
AcDbDictionary
281
     1
  0
DICTIONARY
  5
19
102
{ACAD_REACTORS
330
C
102
}
330
C
100
AcDbDictionary
281
     1
  3
Layout1
350
1D
  3
Model
350
21
  0
DICTIONARY
  5
DE
102
{ACAD_REACTORS
330
C
102
}
330
C
100
AcDbDictionary
281
     1
  0
DICTIONARY
  5
16
102
{ACAD_REACTORS
330
C
102
}
330
C
100
AcDbDictionary
281
     1
  3
Standard
350
17
  0
DICTIONARY
  5
18
102
{ACAD_REACTORS
330
C
102
}
330
C
100
AcDbDictionary
281
     1
  0
ACDBDICTIONARYWDFLT
  5
E
102
{ACAD_REACTORS
330
C
102
}
330
C
100
AcDbDictionary
281
     1
  3
Normal
350
F
100
AcDbDictionaryWithDefault
340
F
  0
DICTIONARY
  5
EA
102
{ACAD_REACTORS
330
C
102
}
330
C
100
AcDbDictionary
281
     1
  3
DIMASSOC
350
EB
  3
PROJECTNAME
350
EC
  0
XRECORD
  5
D4
102
{ACAD_REACTORS
330
A0
102
}
330
A0
100
AcDbXrecord
280
     1
340
1E
  0
XRECORD
  5
D3
102
{ACAD_REACTORS
330
A2
102
}
330
A2
100
AcDbXrecord
280
     1
340
1A
  0
LAYOUT
  5
1D
102
{ACAD_REACTORS
330
19
102
}
330
19
100
AcDbPlotSettings
  1

  2
\\NT_WORK01\HP LaserJet 5000 PCL 6
  4

  6

 40
0.0
 41
0.0
 42
0.0
 43
0.0
 44
0.0
 45
0.0
 46
0.0
 47
0.0
 48
0.0
 49
0.0
140
0.0
141
0.0
142
1.0
143
1.0
 70
   688
 72
     0
 73
     0
 74
     5
  7

 75
    16
147
1.0
 76
     0
 77
     2
 78
   300
148
0.0
149
0.0
100
AcDbLayout
  1
Layout1
 70
     0
 71
     1
 10
0.0
 20
0.0
 11
12.0
 21
9.0
 12
0.0
 22
0.0
 32
0.0
 14
1.000000000000000E+20
 24
1.000000000000000E+20
 34
1.000000000000000E+20
 15
-1.000000000000000E+20
 25
-1.000000000000000E+20
 35
-1.000000000000000E+20
146
0.0
 13
0.0
 23
0.0
 33
0.0
 16
1.0
 26
0.0
 36
0.0
 17
0.0
 27
1.0
 37
0.0
 76
     0
330
1A
  0
LAYOUT
  5
21
102
{ACAD_REACTORS
330
19
102
}
330
19
100
AcDbPlotSettings
  1

  2
none_device
  4
Letter_(8.50_x_11.00_Inches)
  6

 40
6.349999904632568
 41
6.349999904632568
 42
6.350006103515625
 43
6.350006103515625
 44
215.8999938964844
 45
279.3999938964844
 46
0.0
 47
0.0
 48
0.0
 49
0.0
140
0.0
141
0.0
142
1.0
143
1.0
 70
 11952
 72
     0
 73
     1
 74
     0
  7

 75
     0
147
1.0
 76
     0
 77
     2
 78
   300
148
-230.4417396561563
149
47.00486644638983
100
AcDbLayout
  1
Model
 70
     1
 71
     0
 10
0.0
 20
0.0
 11
12.0
 21
9.0
 12
0.0
 22
0.0
 32
0.0
 14
0.0
 24
0.0
 34
0.0
 15
0.0
 25
0.0
 35
0.0
146
0.0
 13
0.0
 23
0.0
 33
0.0
 16
1.0
 26
0.0
 36
0.0
 17
0.0
 27
1.0
 37
0.0
 76
     0
330
1E
  0
MLINESTYLE
  5
17
102
{ACAD_REACTORS
330
16
102
}
330
16
100
AcDbMlineStyle
  2
STANDARD
 70
     0
  3

 62
   256
 51
90.0
 52
90.0
 71
     2
 49
0.5
 62
   256
  6
BYLAYER
 49
-0.5
 62
   256
  6
BYLAYER
  0
ACDBPLACEHOLDER
  5
F
102
{ACAD_REACTORS
330
E
102
}
330
E
  0
DICTIONARYVAR
  5
EB
102
{ACAD_REACTORS
330
EA
102
}
330
EA
100
DictionaryVariables
280
     0
  1
1
  0
DICTIONARYVAR
  5
EC
102
{ACAD_REACTORS
330
EA
102
}
330
EA
100
DictionaryVariables
280
     0
  1

  0
ENDSEC
  0
EOF
