  0
SECTION
  2
HEADER
  9
$ACADVER
  1
AC1027
  9
$ACADMAINTVER
 70
   125
  9
$DWGCODEPAGE
  3
ANSI_1252
  9
$LASTSAVEDBY
  1
w.koehlhoff
  9
$REQUIREDVERSIONS
160
                 0
  9
$INSBASE
 10
0.0
 20
0.0
 30
0.0
  9
$EXTMIN
 10
-0.0063978361730506
 20
-0.0045241841507959
 30
-0.0000000000000053
  9
$EXTMAX
 10
420.0064129945078
 20
297.0045349032589
 30
0.0000000000000099
  9
$LIMMIN
 10
0.0
 20
0.0
  9
$LIMMAX
 10
420.0
 20
297.0
  9
$ORTHOMODE
 70
     1
  9
$REGENMODE
 70
     1
  9
$FILLMODE
 70
     1
  9
$QTEXTMODE
 70
     0
  9
$MIRRTEXT
 70
     1
  9
$LTSCALE
 40
10.0
  9
$ATTMODE
 70
     1
  9
$TEXTSIZE
 40
3.5
  9
$TRACEWID
 40
1.0
  9
$TEXTSTYLE
  7
STANDARD
  9
$CLAYER
  8
BEM
  9
$CELTYPE
  6
ByLayer
  9
$CECOLOR
 62
   256
  9
$CELTSCALE
 40
1.0
  9
$DISPSILH
 70
     0
  9
$DIMSCALE
 40
1.0
  9
$DIMASZ
 40
3.5
  9
$DIMEXO
 40
1.0
  9
$DIMDLI
 40
7.0
  9
$DIMRND
 40
0.0
  9
$DIMDLE
 40
0.0
  9
$DIMEXE
 40
1.0
  9
$DIMTP
 40
0.0
  9
$DIMTM
 40
0.0
  9
$DIMTXT
 40
3.5
  9
$DIMCEN
 40
1.5
  9
$DIMTSZ
 40
0.0
  9
$DIMTOL
 70
     0
  9
$DIMLIM
 70
     0
  9
$DIMTIH
 70
     0
  9
$DIMTOH
 70
     0
  9
$DIMSE1
 70
     0
  9
$DIMSE2
 70
     0
  9
$DIMTAD
 70
     1
  9
$DIMZIN
 70
     8
  9
$DIMBLK
  1

  9
$DIMASO
 70
     1
  9
$DIMSHO
 70
     0
  9
$DIMPOST
  1

  9
$DIMAPOST
  1

  9
$DIMALT
 70
     0
  9
$DIMALTD
 70
     2
  9
$DIMALTF
 40
25.4
  9
$DIMLFAC
 40
1.0
  9
$DIMTOFL
 70
     1
  9
$DIMTVP
 40
0.0
  9
$DIMTIX
 70
     0
  9
$DIMSOXD
 70
     0
  9
$DIMSAH
 70
     0
  9
$DIMBLK1
  1

  9
$DIMBLK2
  1

  9
$DIMSTYLE
  2
Standard
  9
$DIMCLRD
 70
     0
  9
$DIMCLRE
 70
     0
  9
$DIMCLRT
 70
     1
  9
$DIMTFAC
 40
0.5142857142857144
  9
$DIMGAP
 40
1.5
  9
$DIMJUST
 70
     0
  9
$DIMSD1
 70
     0
  9
$DIMSD2
 70
     0
  9
$DIMTOLJ
 70
     1
  9
$DIMTZIN
 70
     8
  9
$DIMALTZ
 70
     8
  9
$DIMALTTZ
 70
     8
  9
$DIMUPT
 70
     0
  9
$DIMDEC
 70
     2
  9
$DIMTDEC
 70
     2
  9
$DIMALTU
 70
     2
  9
$DIMALTTD
 70
     2
  9
$DIMTXSTY
  7
STANDARD
  9
$DIMAUNIT
 70
     0
  9
$DIMADEC
 70
     2
  9
$DIMALTRND
 40
0.0
  9
$DIMAZIN
 70
     2
  9
$DIMDSEP
 70
    46
  9
$DIMATFIT
 70
     3
  9
$DIMFRAC
 70
     0
  9
$DIMLDRBLK
  1

  9
$DIMLUNIT
 70
     2
  9
$DIMLWD
 70
    -2
  9
$DIMLWE
 70
    -2
  9
$DIMTMOVE
 70
     0
  9
$DIMFXL
 40
1.0
  9
$DIMFXLON
 70
     0
  9
$DIMJOGANG
 40
0.7853981633974483
  9
$DIMTFILL
 70
     0
  9
$DIMTFILLCLR
 70
     0
  9
$DIMARCSYM
 70
     0
  9
$DIMLTYPE
  6

  9
$DIMLTEX1
  6

  9
$DIMLTEX2
  6

  9
$DIMTXTDIRECTION
 70
     0
  9
$LUNITS
 70
     2
  9
$LUPREC
 70
     2
  9
$SKETCHINC
 40
1.0
  9
$FILLETRAD
 40
6.0
  9
$AUNITS
 70
     0
  9
$AUPREC
 70
     0
  9
$MENU
  1
ACAD
  9
$ELEVATION
 40
0.0
  9
$PELEVATION
 40
0.0
  9
$THICKNESS
 40
0.0
  9
$LIMCHECK
 70
     0
  9
$CHAMFERA
 40
0.0
  9
$CHAMFERB
 40
0.0
  9
$CHAMFERC
 40
0.0
  9
$CHAMFERD
 40
0.0
  9
$SKPOLY
 70
     0
  9
$TDCREATE
 40
2455397.867048611
  9
$TDUCREATE
 40
2455397.783726505
  9
$TDUPDATE
 40
2457925.553912037
  9
$TDUUPDATE
 40
2457925.470578704
  9
$TDINDWG
 40
0.2492625116
  9
$TDUSRTIMER
 40
0.2492625116
  9
$USRTIMER
 70
     1
  9
$ANGBASE
 50
0.0
  9
$ANGDIR
 70
     0
  9
$PDMODE
 70
     0
  9
$PDSIZE
 40
0.0
  9
$PLINEWID
 40
0.0
  9
$SPLFRAME
 70
     0
  9
$SPLINETYPE
 70
     6
  9
$SPLINESEGS
 70
     8
  9
$HANDSEED
  5
2471
  9
$SURFTAB1
 70
     6
  9
$SURFTAB2
 70
     6
  9
$SURFTYPE
 70
     6
  9
$SURFU
 70
     6
  9
$SURFV
 70
     6
  9
$UCSBASE
  2

  9
$UCSNAME
  2

  9
$UCSORG
 10
0.0
 20
0.0
 30
0.0
  9
$UCSXDIR
 10
1.0
 20
0.0
 30
0.0
  9
$UCSYDIR
 10
0.0
 20
1.0
 30
0.0
  9
$UCSORTHOREF
  2

  9
$UCSORTHOVIEW
 70
     0
  9
$UCSORGTOP
 10
0.0
 20
0.0
 30
0.0
  9
$UCSORGBOTTOM
 10
0.0
 20
0.0
 30
0.0
  9
$UCSORGLEFT
 10
0.0
 20
0.0
 30
0.0
  9
$UCSORGRIGHT
 10
0.0
 20
0.0
 30
0.0
  9
$UCSORGFRONT
 10
0.0
 20
0.0
 30
0.0
  9
$UCSORGBACK
 10
0.0
 20
0.0
 30
0.0
  9
$PUCSBASE
  2

  9
$PUCSNAME
  2

  9
$PUCSORG
 10
0.0
 20
0.0
 30
0.0
  9
$PUCSXDIR
 10
1.0
 20
0.0
 30
0.0
  9
$PUCSYDIR
 10
0.0
 20
1.0
 30
0.0
  9
$PUCSORTHOREF
  2

  9
$PUCSORTHOVIEW
 70
     0
  9
$PUCSORGTOP
 10
0.0
 20
0.0
 30
0.0
  9
$PUCSORGBOTTOM
 10
0.0
 20
0.0
 30
0.0
  9
$PUCSORGLEFT
 10
0.0
 20
0.0
 30
0.0
  9
$PUCSORGRIGHT
 10
0.0
 20
0.0
 30
0.0
  9
$PUCSORGFRONT
 10
0.0
 20
0.0
 30
0.0
  9
$PUCSORGBACK
 10
0.0
 20
0.0
 30
0.0
  9
$USERI1
 70
     0
  9
$USERI2
 70
     0
  9
$USERI3
 70
     0
  9
$USERI4
 70
     0
  9
$USERI5
 70
     0
  9
$USERR1
 40
0.0
  9
$USERR2
 40
0.0
  9
$USERR3
 40
0.0
  9
$USERR4
 40
0.0
  9
$USERR5
 40
0.0
  9
$WORLDVIEW
 70
     1
  9
$SHADEDGE
 70
     3
  9
$SHADEDIF
 70
    70
  9
$TILEMODE
 70
     1
  9
$MAXACTVP
 70
    16
  9
$PINSBASE
 10
0.0
 20
0.0
 30
0.0
  9
$PLIMCHECK
 70
     0
  9
$PEXTMIN
 10
1.000000000000000E+20
 20
1.000000000000000E+20
 30
1.000000000000000E+20
  9
$PEXTMAX
 10
-1.000000000000000E+20
 20
-1.000000000000000E+20
 30
-1.000000000000000E+20
  9
$PLIMMIN
 10
0.0
 20
0.0
  9
$PLIMMAX
 10
12.0
 20
9.0
  9
$UNITMODE
 70
     0
  9
$VISRETAIN
 70
     0
  9
$PLINEGEN
 70
     0
  9
$PSLTSCALE
 70
     0
  9
$TREEDEPTH
 70
  3020
  9
$CMLSTYLE
  2
Standard
  9
$CMLJUST
 70
     0
  9
$CMLSCALE
 40
1.0
  9
$PROXYGRAPHICS
 70
     1
  9
$MEASUREMENT
 70
     0
  9
$CELWEIGHT
370
    -1
  9
$ENDCAPS
280
     0
  9
$JOINSTYLE
280
     0
  9
$LWDISPLAY
290
     0
  9
$INSUNITS
 70
     0
  9
$HYPERLINKBASE
  1

  9
$STYLESHEET
  1

  9
$XEDIT
290
     1
  9
$CEPSNTYPE
380
     0
  9
$PSTYLEMODE
290
     1
  9
$FINGERPRINTGUID
  2
{D68B0D0D-A558-11D7-B632-000102183313}
  9
$VERSIONGUID
  2
{64692D71-9954-534F-996A-FC63A6B03374}
  9
$EXTNAMES
290
     1
  9
$PSVPSCALE
 40
0.0
  9
$OLESTARTUP
290
     0
  9
$SORTENTS
280
   127
  9
$INDEXCTL
280
     0
  9
$HIDETEXT
280
     0
  9
$XCLIPFRAME
280
     0
  9
$HALOGAP
280
     0
  9
$OBSCOLOR
 70
   257
  9
$OBSLTYPE
280
     0
  9
$INTERSECTIONDISPLAY
280
     0
  9
$INTERSECTIONCOLOR
 70
   257
  9
$DIMASSOC
280
     1
  9
$PROJECTNAME
  1

  9
$CAMERADISPLAY
290
     0
  9
$LENSLENGTH
 40
50.0
  9
$CAMERAHEIGHT
 40
0.0
  9
$STEPSPERSEC
 40
2.0
  9
$STEPSIZE
 40
6.0
  9
$3DDWFPREC
 40
2.0
  9
$PSOLWIDTH
 40
0.25
  9
$PSOLHEIGHT
 40
4.0
  9
$LOFTANG1
 40
1.570796326794896
  9
$LOFTANG2
 40
1.570796326794896
  9
$LOFTMAG1
 40
0.0
  9
$LOFTMAG2
 40
0.0
  9
$LOFTPARAM
 70
     7
  9
$LOFTNORMALS
280
     1
  9
$LATITUDE
 40
37.795
  9
$LONGITUDE
 40
-122.394
  9
$NORTHDIRECTION
 40
0.0
  9
$TIMEZONE
 70
 -8000
  9
$LIGHTGLYPHDISPLAY
280
     1
  9
$TILEMODELIGHTSYNCH
280
     1
  9
$CMATERIAL
347
23CB
  9
$SOLIDHIST
280
     0
  9
$SHOWHIST
280
     1
  9
$DWFFRAME
280
     2
  9
$DGNFRAME
280
     0
  9
$REALWORLDSCALE
290
     1
  9
$INTERFERECOLOR
 62
     1
  9
$INTERFEREOBJVS
345
23ED
  9
$INTERFEREVPVS
346
23EA
  9
$CSHADOW
280
     0
  9
$SHADOWPLANELOCATION
 40
0.0
  0
ENDSEC
  0
SECTION
  2
CLASSES
  0
CLASS
  1
ACDBDICTIONARYWDFLT
  2
AcDbDictionaryWithDefault
  3
ObjectDBX Classes
 90
        0
 91
        1
280
     0
281
     0
  0
CLASS
  1
DICTIONARYVAR
  2
AcDbDictionaryVar
  3
ObjectDBX Classes
 90
        0
 91
       11
280
     0
281
     0
  0
CLASS
  1
MATERIAL
  2
AcDbMaterial
  3
ObjectDBX Classes
 90
     1153
 91
        3
280
     0
281
     0
  0
CLASS
  1
VISUALSTYLE
  2
AcDbVisualStyle
  3
ObjectDBX Classes
 90
     4095
 91
       24
280
     0
281
     0
  0
CLASS
  1
TABLESTYLE
  2
AcDbTableStyle
  3
ObjectDBX Classes
 90
     4095
 91
        1
280
     0
281
     0
  0
CLASS
  1
SCALE
  2
AcDbScale
  3
ObjectDBX Classes
 90
     1153
 91
       17
280
     0
281
     0
  0
CLASS
  1
MLEADERSTYLE
  2
AcDbMLeaderStyle
  3
ACDB_MLEADERSTYLE_CLASS
 90
     4095
 91
        1
280
     0
281
     0
  0
CLASS
  1
ACDBSECTIONVIEWSTYLE
  2
AcDbSectionViewStyle
  3
ObjectDBX Classes
 90
     1025
 91
        1
280
     0
281
     0
  0
CLASS
  1
ACDBDETAILVIEWSTYLE
  2
AcDbDetailViewStyle
  3
ObjectDBX Classes
 90
     1025
 91
        1
280
     0
281
     0
  0
CLASS
  1
RAPIDRTRENDERSETTINGS
  2
AcDbRapidRTRenderSettings
  3
ObjectDBX Classes
 90
     1024
 91
        7
280
     0
281
     0
  0
CLASS
  1
FIELD
  2
AcDbField
  3
ObjectDBX Classes
 90
     1152
 91
        2
280
     0
281
     0
  0
CLASS
  1
FIELDLIST
  2
AcDbFieldList
  3
ObjectDBX Classes
 90
     1152
 91
        1
280
     0
281
     0
  0
CLASS
  1
CELLSTYLEMAP
  2
AcDbCellStyleMap
  3
ObjectDBX Classes
 90
     1152
 91
        1
280
     0
281
     0
  0
ENDSEC
  0
SECTION
  2
TABLES
  0
TABLE
  2
VPORT
  5
8
330
0
100
AcDbSymbolTable
 70
     1
1001
ACAD
1000
DbSaveVer
1071
        5
  0
VPORT
  5
23C9
330
8
100
AcDbSymbolTableRecord
100
AcDbViewportTableRecord
  2
*Active
 70
     0
 10
0.0
 20
0.0
 11
1.0
 21
1.0
 12
210.0000075791674
 22
148.500005359554
 13
0.0
 23
0.0
 14
1.0
 24
1.0
 15
10.0
 25
10.0
 16
0.0
 26
0.0
 36
1.0
 17
0.0
 27
0.0
 37
0.0
 40
299.3385419037815
 41
1.971204188481675
 42
50.0
 43
0.0
 44
0.0
 50
0.0
 51
0.0
 71
     0
 72
  1500
 73
     1
 74
     0
 75
     0
 76
     0
 77
     0
 78
     0
281
     0
 65
     1
110
0.0
120
0.0
130
0.0
111
1.0
121
0.0
131
0.0
112
0.0
122
1.0
132
0.0
 79
     0
146
0.0
348
23E9
 60
     3
 61
     5
292
     1
282
     1
141
0.0
142
0.0
 63
   250
421
  3355443
1001
ACAD_NAV_VCDISPLAY
1070
     3
  0
ENDTAB
  0
TABLE
  2
LTYPE
  5
5
330
0
100
AcDbSymbolTable
 70
     3
  0
LTYPE
  5
13
330
5
100
AcDbSymbolTableRecord
100
AcDbLinetypeTableRecord
  2
ByBlock
 70
     0
  3

 72
    65
 73
     0
 40
0.0
  0
LTYPE
  5
14
330
5
100
AcDbSymbolTableRecord
100
AcDbLinetypeTableRecord
  2
ByLayer
 70
     0
  3

 72
    65
 73
     0
 40
0.0
  0
LTYPE
  5
15
330
5
100
AcDbSymbolTableRecord
100
AcDbLinetypeTableRecord
  2
Continuous
 70
     0
  3
Solid line
 72
    65
 73
     0
 40
0.0
  0
LTYPE
  5
25
330
5
100
AcDbSymbolTableRecord
100
AcDbLinetypeTableRecord
  2
STRICHPUNKT
 70
     0
  3
__ . __ . __ . __ . __ . __ . __ . __ . __ . __
 72
    65
 73
     4
 40
1.0
 49
0.5
 74
     0
 49
-0.25
 74
     0
 49
0.0
 74
     0
 49
-0.25
 74
     0
  0
LTYPE
  5
1808
330
5
100
AcDbSymbolTableRecord
100
AcDbLinetypeTableRecord
  2
VERDECKT
 70
     0
  3
Verdeckt __ __ __ __ __ __ __ __ __ __ __ __ __
 72
    65
 73
     2
 40
0.375
 49
0.25
 74
     0
 49
-0.125
 74
     0
  0
ENDTAB
  0
TABLE
  2
LAYER
  5
2
102
{ACAD_XDICTIONARY
360
2423
102
}
330
0
100
AcDbSymbolTable
 70
     9
  0
LAYER
  5
10
102
{ACAD_XDICTIONARY
360
2430
102
}
330
2
100
AcDbSymbolTableRecord
100
AcDbLayerTableRecord
  2
0
 70
     0
 62
     7
  6
Continuous
370
    -3
390
F
347
23DB
348
0
  0
LAYER
  5
2B
102
{ACAD_XDICTIONARY
360
2432
102
}
330
2
100
AcDbSymbolTableRecord
100
AcDbLayerTableRecord
  2
VOLL
 70
     0
 62
     1
  6
Continuous
370
    -3
390
F
347
23DB
348
0
  0
LAYER
  5
2C
102
{ACAD_XDICTIONARY
360
2434
102
}
330
2
100
AcDbSymbolTableRecord
100
AcDbLayerTableRecord
  2
HILF
 70
     0
 62
     2
  6
Continuous
370
    -3
390
F
347
23DB
348
0
  0
LAYER
  5
2D
102
{ACAD_XDICTIONARY
360
2436
102
}
330
2
100
AcDbSymbolTableRecord
100
AcDbLayerTableRecord
  2
MITTEL
 70
     0
 62
     2
  6
STRICHPUNKT
370
    -3
390
F
347
23DB
348
0
  0
LAYER
  5
2F
102
{ACAD_XDICTIONARY
360
2438
102
}
330
2
100
AcDbSymbolTableRecord
100
AcDbLayerTableRecord
  2
BEM
 70
     0
 62
     7
  6
Continuous
370
    -3
390
F
347
23DB
348
0
  0
LAYER
  5
30
102
{ACAD_XDICTIONARY
360
243A
102
}
330
2
100
AcDbSymbolTableRecord
100
AcDbLayerTableRecord
  2
STEMPEL
 70
     0
 62
     3
  6
Continuous
370
    -3
390
F
347
23DB
348
0
  0
LAYER
  5
33
102
{ACAD_XDICTIONARY
360
243C
102
}
330
2
100
AcDbSymbolTableRecord
100
AcDbLayerTableRecord
  2
TEXT
 70
     0
 62
     7
  6
Continuous
370
    -3
390
F
347
23DB
348
0
  0
LAYER
  5
1BF
330
2
100
AcDbSymbolTableRecord
100
AcDbLayerTableRecord
  2
Defpoints
 70
     0
 62
     7
  6
Continuous
290
     0
370
    -3
390
F
347
23DB
348
0
  0
LAYER
  5
1809
102
{ACAD_XDICTIONARY
360
243E
102
}
330
2
100
AcDbSymbolTableRecord
100
AcDbLayerTableRecord
  2
Verdeckt
 70
     0
 62
     6
  6
VERDECKT
370
    -3
390
F
347
23DB
348
0
  0
ENDTAB
  0
TABLE
  2
STYLE
  5
3
330
0
100
AcDbSymbolTable
 70
     2
  0
STYLE
  5
11
330
3
100
AcDbSymbolTableRecord
100
AcDbTextStyleTableRecord
  2
STANDARD
 70
     0
 40
0.0
 41
0.8
 50
0.0
 71
     0
 42
3.5
  3
simplex.shx
  4

  0
STYLE
  5
24
330
3
100
AcDbSymbolTableRecord
100
AcDbTextStyleTableRecord
  2
GREEKS
 70
     0
 40
0.0
 41
0.8
 50
0.0
 71
     0
 42
2.5
  3
SIMPLEX.shx
  4

  0
ENDTAB
  0
TABLE
  2
VIEW
  5
6
330
0
100
AcDbSymbolTable
 70
     0
  0
ENDTAB
  0
TABLE
  2
UCS
  5
7
330
0
100
AcDbSymbolTable
 70
     0
  0
ENDTAB
  0
TABLE
  2
APPID
  5
9
330
0
100
AcDbSymbolTable
 70
     4
  0
APPID
  5
12
330
9
100
AcDbSymbolTableRecord
100
AcDbRegAppTableRecord
  2
ACAD
 70
     0
  0
APPID
  5
2421
330
9
100
AcDbSymbolTableRecord
100
AcDbRegAppTableRecord
  2
ACAD_NAV_VCDISPLAY
 70
     0
  0
APPID
  5
2422
330
9
100
AcDbSymbolTableRecord
100
AcDbRegAppTableRecord
  2
ACAD_PSEXT
 70
     0
  0
APPID
  5
2458
330
9
100
AcDbSymbolTableRecord
100
AcDbRegAppTableRecord
  2
ACAD_EXEMPT_FROM_CAD_STANDARDS
 70
     0
  0
ENDTAB
  0
TABLE
  2
DIMSTYLE
  5
A
330
0
100
AcDbSymbolTable
 70
     1
100
AcDbDimStyleTable
 71
     1
340
A2
  0
DIMSTYLE
105
A2
102
{ACAD_REACTORS
330
2326
330
2333
330
2370
330
23B8
102
}
330
A
100
AcDbSymbolTableRecord
100
AcDbDimStyleTableRecord
  2
Standard
 70
     0
340
11
  0
ENDTAB
  0
TABLE
  2
BLOCK_RECORD
  5
1
330
0
100
AcDbSymbolTable
 70
     6
  0
BLOCK_RECORD
  5
1E
102
{ACAD_XDICTIONARY
360
DB
102
}
330
1
100
AcDbSymbolTableRecord
100
AcDbBlockTableRecord
  2
*Model_Space
340
21
 70
     0
280
     1
281
     0
  0
BLOCK_RECORD
  5
1A
102
{ACAD_XDICTIONARY
360
DD
102
}
330
1
100
AcDbSymbolTableRecord
100
AcDbBlockTableRecord
  2
*Paper_Space
340
1D
 70
     0
280
     1
281
     0
  0
BLOCK_RECORD
  5
22
330
1
100
AcDbSymbolTableRecord
100
AcDbBlockTableRecord
  2
LOGO
340
0
102
{BLKREFS
331
56
102
}
 70
     0
280
     1
281
     0
  0
BLOCK_RECORD
  5
23
330
1
100
AcDbSymbolTableRecord
100
AcDbBlockTableRecord
  2
LORO
340
0
102
{BLKREFS
331
131F
102
}
 70
     0
280
     1
281
     0
  0
BLOCK_RECORD
  5
2327
330
1
100
AcDbSymbolTableRecord
100
AcDbBlockTableRecord
  2
*D2
340
0
 70
     0
280
     1
281
     0
  0
BLOCK_RECORD
  5
2334
330
1
100
AcDbSymbolTableRecord
100
AcDbBlockTableRecord
  2
*D3
340
0
 70
     0
280
     1
281
     0
  0
BLOCK_RECORD
  5
2371
330
1
100
AcDbSymbolTableRecord
100
AcDbBlockTableRecord
  2
*D4
340
0
 70
     0
280
     1
281
     0
  0
BLOCK_RECORD
  5
23B9
330
1
100
AcDbSymbolTableRecord
100
AcDbBlockTableRecord
  2
*D5
340
0
 70
     0
280
     1
281
     0
  0
ENDTAB
  0
ENDSEC
  0
SECTION
  2
BLOCKS
  0
BLOCK
  5
37
330
1E
100
AcDbEntity
  8
0
100
AcDbBlockBegin
  2
*Model_Space
 70
     0
 10
0.0
 20
0.0
 30
0.0
  3
*Model_Space
  1

  0
ENDBLK
  5
38
330
1E
100
AcDbEntity
  8
0
100
AcDbBlockEnd
  0
BLOCK
  5
35
330
1A
100
AcDbEntity
 67
     1
  8
0
100
AcDbBlockBegin
  2
*Paper_Space
 70
     0
 10
0.0
 20
0.0
 30
0.0
  3
*Paper_Space
  1

  0
ENDBLK
  5
36
330
1A
100
AcDbEntity
 67
     1
  8
0
100
AcDbBlockEnd
  0
BLOCK
  5
39
330
22
100
AcDbEntity
  8
0
100
AcDbBlockBegin
  2
LOGO
 70
     0
 10
0.0
 20
0.0
 30
0.0
  3
LOGO
  1

  0
ARC
  5
3A
330
22
100
AcDbEntity
  8
0
100
AcDbCircle
 10
11.59973089678112
 20
-9.271599258481501
 30
0.0
 40
4.5
100
AcDbArc
 50
270.0
 51
231.0575587310159
  0
LINE
  5
3B
330
22
100
AcDbEntity
  8
0
100
AcDbLine
 10
3.599730896781125
 20
-4.771599258481529
 30
0.0
 11
3.599730896781153
 21
-11.77159925848133
 31
0.0
  0
LINE
  5
3C
330
22
100
AcDbEntity
  8
0
100
AcDbLine
 10
2.599730896781125
 20
-4.771599258481529
 30
0.0
 11
2.599730896781153
 21
-11.77159925848133
 31
0.0
  0
CIRCLE
  5
3D
330
22
100
AcDbEntity
  8
0
100
AcDbCircle
 10
11.59973089678112
 20
-9.271599258481501
 30
0.0
 40
3.5
  0
ARC
  5
3E
330
22
100
AcDbEntity
  8
0
100
AcDbCircle
 10
31.59973089678115
 20
-9.271599258481472
 30
0.0
 40
4.5
100
AcDbArc
 50
270.0
 51
231.0575587310182
  0
LINE
  5
3F
330
22
100
AcDbEntity
  8
0
100
AcDbLine
 10
17.59973089678112
 20
-4.771599258481472
 30
0.0
 11
17.59973089678115
 21
-13.77159925848147
 31
0.0
  0
ARC
  5
40
330
22
100
AcDbEntity
  8
0
100
AcDbCircle
 10
22.59973089678116
 20
-7.271599258481472
 30
0.0
 40
2.5
100
AcDbArc
 50
293.1161887722295
 51
90.0
  0
CIRCLE
  5
41
330
22
100
AcDbEntity
  8
0
100
AcDbCircle
 10
31.59973089678115
 20
-9.271599258481472
 30
0.0
 40
3.5
  0
ARC
  5
42
330
22
100
AcDbEntity
  8
0
100
AcDbCircle
 10
4.599730896781153
 20
-11.77159925848133
 30
0.0
 40
1.0
100
AcDbArc
 50
180.0
 51
270.0
  0
ARC
  5
43
330
22
100
AcDbEntity
  8
0
100
AcDbCircle
 10
4.599730896781153
 20
-11.77159925848133
 30
0.0
 40
2.0
100
AcDbArc
 50
179.9999999999992
 51
270.0
  0
LINE
  5
44
330
22
100
AcDbEntity
  8
0
100
AcDbLine
 10
11.59973089678115
 20
-13.77159925848144
 30
0.0
 11
4.599730896781153
 21
-13.77159925848147
 31
0.0
  0
LINE
  5
45
330
22
100
AcDbEntity
  8
0
100
AcDbLine
 10
8.771303772034769
 20
-12.77159925848136
 30
0.0
 11
4.599730896781153
 21
-12.77159925848133
 31
0.0
  0
LINE
  5
46
330
22
100
AcDbEntity
  8
0
100
AcDbLine
 10
31.59973089678115
 20
-13.77159925848147
 30
0.0
 11
23.6715276665056
 21
-13.77159925848144
 31
0.0
  0
LINE
  5
47
330
22
100
AcDbEntity
  8
0
100
AcDbLine
 10
23.56565672307022
 20
-9.51278021337896
 30
0.0
 11
24.4388546544846
 21
-12.77159925848144
 31
0.0
  0
LINE
  5
48
330
22
100
AcDbEntity
  8
0
100
AcDbLine
 10
22.59973089678116
 20
-9.771599258481472
 30
0.0
 11
18.59973089678112
 21
-9.771599258481472
 31
0.0
  0
LINE
  5
49
330
22
100
AcDbEntity
  8
0
100
AcDbLine
 10
18.59973089678115
 20
-13.77159925848144
 30
0.0
 11
17.59973089678115
 21
-13.77159925848144
 31
0.0
  0
LINE
  5
4A
330
22
100
AcDbEntity
  8
0
100
AcDbLine
 10
18.59973089678115
 20
-9.771599258481472
 30
0.0
 11
18.59973089678115
 21
-13.77159925848144
 31
0.0
  0
LINE
  5
4B
330
22
100
AcDbEntity
  8
0
100
AcDbLine
 10
22.59973089678116
 20
-9.771599258481472
 30
0.0
 11
23.67152766650562
 21
-13.77159925848147
 31
0.0
  0
ARC
  5
4C
330
22
100
AcDbEntity
  8
0
100
AcDbCircle
 10
22.59973089678116
 20
-7.271599258481472
 30
0.0
 40
2.5
100
AcDbArc
 50
270.0
 51
270.0000000000007
  0
LINE
  5
4D
330
22
100
AcDbEntity
  8
0
100
AcDbLine
 10
28.77130377203494
 20
-12.77159925848147
 30
0.0
 11
24.43885465448463
 21
-12.77159925848144
 31
0.0
  0
LINE
  5
4E
330
22
100
AcDbEntity
  8
0
100
AcDbLine
 10
3.599730896781125
 20
-4.771599258481472
 30
0.0
 11
2.599730896781125
 21
-4.771599258481472
 31
0.0
  0
LINE
  5
4F
330
22
100
AcDbEntity
  8
0
100
AcDbLine
 10
22.59973089678116
 20
-8.771599258481472
 30
0.0
 11
18.59973089678115
 21
-8.771599258481472
 31
0.0
  0
LINE
  5
50
330
22
100
AcDbEntity
  8
0
100
AcDbLine
 10
22.59973089678116
 20
-5.771599258481472
 30
0.0
 11
18.59973089678115
 21
-5.771599258481472
 31
0.0
  0
LINE
  5
51
330
22
100
AcDbEntity
  8
0
100
AcDbLine
 10
22.59973089678116
 20
-4.771599258481472
 30
0.0
 11
17.59973089678115
 21
-4.771599258481472
 31
0.0
  0
LINE
  5
52
330
22
100
AcDbEntity
  8
0
100
AcDbLine
 10
18.59973089678115
 20
-5.771599258481472
 30
0.0
 11
18.59973089678115
 21
-8.771599258481472
 31
0.0
  0
ARC
  5
53
330
22
100
AcDbEntity
  8
0
100
AcDbCircle
 10
22.59973089678116
 20
-7.271599258481472
 30
0.0
 40
1.5
100
AcDbArc
 50
270.0
 51
90.0
  0
ENDBLK
  5
54
330
22
100
AcDbEntity
  8
0
100
AcDbBlockEnd
  0
BLOCK
  5
55
330
23
100
AcDbEntity
  8
0
100
AcDbBlockBegin
  2
LORO
 70
     0
 10
0.0
 20
0.0
 30
0.0
  3
LORO
  1

  0
INSERT
  5
56
330
23
100
AcDbEntity
  8
STEMPEL
100
AcDbBlockReference
  2
LOGO
 10
-1.748032802467321
 20
3.771489518552062
 30
0.0
  0
ENDBLK
  5
57
330
23
100
AcDbEntity
  8
0
100
AcDbBlockEnd
  0
BLOCK
  5
2331
330
2327
100
AcDbEntity
  8
0
100
AcDbBlockBegin
  2
*D2
 70
     1
 10
0.0
 20
0.0
 30
0.0
  3
*D2
  1

  0
LINE
  5
2328
330
2327
100
AcDbEntity
  8
BEM
 62
     0
440
 16777216
370
    -2
100
AcDbLine
 10
79.77712886331824
 20
130.4101340009307
 30
0.0
 11
68.73983018965316
 21
130.4101340009307
 31
0.0
  0
LINE
  5
2329
330
2327
100
AcDbEntity
  8
BEM
 62
     0
440
 16777216
370
    -2
100
AcDbLine
 10
79.77712886331824
 20
113.6101340009307
 30
0.0
 11
68.73983018965316
 21
113.6101340009307
 31
0.0
  0
LINE
  5
232A
330
2327
100
AcDbEntity
  8
BEM
 62
     0
440
 16777216
370
    -2
100
AcDbLine
 10
69.73983018965316
 20
126.9101340009307
 30
0.0
 11
69.73983018965316
 21
117.1101340009307
 31
0.0
  0
SOLID
  5
232B
330
2327
100
AcDbEntity
  8
BEM
 62
     0
440
 16777216
100
AcDbTrace
 10
69.15649685631983
 20
126.9101340009307
 30
0.0
 11
70.32316352298649
 21
126.9101340009307
 31
0.0
 12
69.73983018965316
 22
130.4101340009307
 32
0.0
 13
69.73983018965316
 23
130.4101340009307
 33
0.0
  0
SOLID
  5
232C
330
2327
100
AcDbEntity
  8
BEM
 62
     0
440
 16777216
100
AcDbTrace
 10
69.15649685631983
 20
117.1101340009307
 30
0.0
 11
70.32316352298649
 21
117.1101340009307
 31
0.0
 12
69.73983018965316
 22
113.6101340009307
 32
0.0
 13
69.73983018965316
 23
113.6101340009307
 33
0.0
  0
MTEXT
  5
232D
330
2327
100
AcDbEntity
  8
BEM
 62
     1
440
 16777216
100
AcDbMText
 10
66.48983018965314
 20
122.0101340009307
 30
0.0
 40
3.5
 41
0.0
 46
0.0
 71
     5
 72
     1
  1
\A1;16.8
 11
0.0000000000000001
 21
1.0
 31
0.0
 73
     1
 44
1.0
  0
POINT
  5
232E
330
2327
100
AcDbEntity
  8
Defpoints
 62
     0
440
 16777216
100
AcDbPoint
 10
80.77712886331823
 20
130.4101340009307
 30
0.0
  0
POINT
  5
232F
330
2327
100
AcDbEntity
  8
Defpoints
 62
     0
440
 16777216
100
AcDbPoint
 10
80.77712886331823
 20
113.6101340009307
 30
0.0
  0
POINT
  5
2330
330
2327
100
AcDbEntity
  8
Defpoints
 62
     0
440
 16777216
100
AcDbPoint
 10
69.73983018965316
 20
113.6101340009307
 30
0.0
  0
ENDBLK
  5
2332
330
2327
100
AcDbEntity
  8
0
100
AcDbBlockEnd
  0
BLOCK
  5
233E
330
2334
100
AcDbEntity
  8
0
100
AcDbBlockBegin
  2
*D3
 70
     1
 10
0.0
 20
0.0
 30
0.0
  3
*D3
  1

  0
LINE
  5
2340
330
2334
100
AcDbEntity
  8
BEM
 62
     0
440
 16777216
370
    -2
100
AcDbLine
 10
179.6271288633182
 20
197.9691340009307
 30
0.0
 11
60.41707559242222
 21
197.9691340009308
 31
0.0
  0
LINE
  5
2341
330
2334
100
AcDbEntity
  8
BEM
 62
     0
440
 16777216
370
    -2
100
AcDbLine
 10
172.538872024906
 20
20.05213400093079
 30
0.0
 11
60.41707559242219
 21
20.05213400093083
 31
0.0
  0
LINE
  5
2342
330
2334
100
AcDbEntity
  8
BEM
 62
     0
440
 16777216
370
    -2
100
AcDbLine
 10
61.41707559242221
 20
194.4691340009308
 30
0.0
 11
61.41707559242218
 21
23.55213400093083
 31
0.0
  0
SOLID
  5
2343
330
2334
100
AcDbEntity
  8
BEM
 62
     0
440
 16777216
100
AcDbTrace
 10
60.83374225908888
 20
194.4691340009308
 30
0.0
 11
62.00040892575555
 21
194.4691340009308
 31
0.0
 12
61.41707559242221
 22
197.9691340009308
 32
0.0
 13
61.41707559242221
 23
197.9691340009308
 33
0.0
  0
SOLID
  5
2344
330
2334
100
AcDbEntity
  8
BEM
 62
     0
440
 16777216
100
AcDbTrace
 10
60.83374225908884
 20
23.55213400093083
 30
0.0
 11
62.00040892575551
 21
23.55213400093083
 31
0.0
 12
61.41707559242218
 22
20.05213400093083
 32
0.0
 13
61.41707559242218
 23
20.05213400093083
 33
0.0
  0
MTEXT
  5
2345
330
2334
100
AcDbEntity
  8
BEM
 62
     1
440
 16777216
100
AcDbMText
 10
58.16707559242217
 20
109.0106340009308
 30
0.0
 40
3.5
 41
0.0
 46
0.0
 71
     5
 72
     1
  1
\A1;178
 11
0.0000000000000001
 21
1.0
 31
0.0
 73
     1
 44
1.0
  0
POINT
  5
2346
330
2334
100
AcDbEntity
  8
Defpoints
 62
     0
440
 16777216
100
AcDbPoint
 10
180.6271288633182
 20
197.9691340009307
 30
0.0
  0
POINT
  5
2347
330
2334
100
AcDbEntity
  8
Defpoints
 62
     0
440
 16777216
100
AcDbPoint
 10
173.538872024906
 20
20.05213400093079
 30
0.0
  0
POINT
  5
2348
330
2334
100
AcDbEntity
  8
Defpoints
 62
     0
440
 16777216
100
AcDbPoint
 10
61.41707559242218
 20
20.05213400093083
 30
0.0
  0
ENDBLK
  5
233F
330
2334
100
AcDbEntity
  8
0
100
AcDbBlockEnd
  0
BLOCK
  5
237B
330
2371
100
AcDbEntity
  8
0
100
AcDbBlockBegin
  2
*D4
 70
     1
 10
0.0
 20
0.0
 30
0.0
  3
*D4
  1

  0
LINE
  5
2396
330
2371
100
AcDbEntity
  8
BEM
 62
     0
440
 16777216
370
    -2
100
AcDbLine
 10
231.5690843307304
 20
164.7145100450855
 30
0.0
 11
129.685173395906
 21
79.22375795677611
 31
0.0
  0
SOLID
  5
2397
330
2371
100
AcDbEntity
  8
BEM
 62
     0
440
 16777216
100
AcDbTrace
 10
231.1941248917466
 20
165.1613693035716
 30
0.0
 11
231.9440437697142
 21
164.2676507865995
 31
0.0
 12
234.2502398816468
 22
166.9642666789884
 32
0.0
 13
234.2502398816468
 23
166.9642666789884
 33
0.0
  0
SOLID
  5
2398
330
2371
100
AcDbEntity
  8
BEM
 62
     0
440
 16777216
100
AcDbTrace
 10
129.3102139569222
 20
79.67061721526218
 30
0.0
 11
130.0601328348898
 21
78.77689869829004
 31
0.0
 12
127.0040178449896
 22
76.97400132287322
 32
0.0
 13
127.0040178449896
 23
76.97400132287322
 33
0.0
  0
MTEXT
  5
2399
330
2371
100
AcDbEntity
  8
BEM
 62
     1
440
 16777216
100
AcDbMText
 10
192.1814955785249
 20
135.9069725404776
 30
0.0
 40
3.5
 41
0.0
 46
0.0
 71
     5
 72
     1
  1
\A1;140
 11
0.7660444431189798
 21
0.6427876096865372
 31
0.0
 73
     1
 44
1.0
  0
POINT
  5
239A
330
2371
100
AcDbEntity
  8
Defpoints
 62
     0
440
 16777216
100
AcDbPoint
 10
234.2502398816467
 20
166.9642666789885
 30
0.0
  0
POINT
  5
239B
330
2371
100
AcDbEntity
  8
Defpoints
 62
     0
440
 16777216
100
AcDbPoint
 10
127.0040178449897
 20
76.97400132287302
 30
0.0
  0
POINT
  5
239C
330
2371
100
AcDbEntity
  8
Defpoints
 62
     0
440
 16777216
100
AcDbPoint
 10
127.0040178449896
 20
76.97400132287322
 30
0.0
  0
ENDBLK
  5
237C
330
2371
100
AcDbEntity
  8
0
100
AcDbBlockEnd
  0
BLOCK
  5
23C3
330
23B9
100
AcDbEntity
  8
0
100
AcDbBlockBegin
  2
*D5
 70
     1
 10
0.0
 20
0.0
 30
0.0
  3
*D5
  1

  0
LINE
  5
23BA
330
23B9
100
AcDbEntity
  8
BEM
 62
     0
440
 16777216
370
    -2
100
AcDbLine
 10
80.77712886331829
 20
249.1824516371843
 30
0.0
 11
80.77712886331829
 21
268.9170810518878
 31
0.0
  0
LINE
  5
23BB
330
23B9
100
AcDbEntity
  8
BEM
 62
     0
440
 16777216
370
    -2
100
AcDbLine
 10
280.4761288633183
 20
249.1824516371843
 30
0.0
 11
280.4761288633183
 21
268.9170810518878
 31
0.0
  0
LINE
  5
23BC
330
23B9
100
AcDbEntity
  8
BEM
 62
     0
440
 16777216
370
    -2
100
AcDbLine
 10
84.27712886331828
 20
267.9170810518879
 30
0.0
 11
276.9761288633183
 21
267.9170810518879
 31
0.0
  0
SOLID
  5
23BD
330
23B9
100
AcDbEntity
  8
BEM
 62
     0
440
 16777216
100
AcDbTrace
 10
84.27712886331828
 20
268.5004143852212
 30
0.0
 11
84.27712886331828
 21
267.3337477185545
 31
0.0
 12
80.77712886331829
 22
267.9170810518879
 32
0.0
 13
80.77712886331829
 23
267.9170810518879
 33
0.0
  0
SOLID
  5
23BE
330
23B9
100
AcDbEntity
  8
BEM
 62
     0
440
 16777216
100
AcDbTrace
 10
276.9761288633183
 20
268.5004143852212
 30
0.0
 11
276.9761288633183
 21
267.3337477185545
 31
0.0
 12
280.4761288633183
 22
267.9170810518879
 32
0.0
 13
280.4761288633183
 23
267.9170810518879
 33
0.0
  0
MTEXT
  5
23BF
330
23B9
100
AcDbEntity
  8
BEM
 62
     1
440
 16777216
100
AcDbMText
 10
180.6266288633183
 20
271.1670810518878
 30
0.0
 40
3.5
 41
0.0
 46
0.0
 71
     5
 72
     1
  1
\A1;199.7
 73
     1
 44
1.0
  0
POINT
  5
23C0
330
23B9
100
AcDbEntity
  8
Defpoints
 62
     0
440
 16777216
100
AcDbPoint
 10
80.77712886331829
 20
248.1824516371843
 30
0.0
  0
POINT
  5
23C1
330
23B9
100
AcDbEntity
  8
Defpoints
 62
     0
440
 16777216
100
AcDbPoint
 10
280.4761288633183
 20
248.1824516371843
 30
0.0
  0
POINT
  5
23C2
330
23B9
100
AcDbEntity
  8
Defpoints
 62
     0
440
 16777216
100
AcDbPoint
 10
280.4761288633183
 20
267.9170810518879
 30
0.0
  0
ENDBLK
  5
23C4
330
23B9
100
AcDbEntity
  8
0
100
AcDbBlockEnd
  0
ENDSEC
  0
SECTION
  2
ENTITIES
  0
LINE
  5
1319
330
1E
100
AcDbEntity
  8
BEM
100
AcDbLine
 10
228.0
 20
297.0
 30
0.0
 11
228.0
 21
292.0
 31
0.0
  0
TEXT
  5
131A
330
1E
100
AcDbEntity
  8
BEM
100
AcDbText
 10
418.6511461928582
 20
5.083950539994304
 30
0.0
 40
2.0
  1
Diese Zeichnung ist urheberrechtlich geschützt und bleibt unser Eigentum. Sie darf weder ganz noch teilweise verfielfältigt und nicht an Dritte weitergegeben werden.
 50
90.0
 41
0.8
  7
GREEKS
100
AcDbText
  0
LINE
  5
131B
330
1E
100
AcDbEntity
  8
HILF
100
AcDbLine
 10
0.0
 20
148.5
 30
0.0
 11
20.0
 21
148.5
 31
0.0
  0
LINE
  5
131C
330
1E
100
AcDbEntity
  8
STEMPEL
100
AcDbLine
 10
20.0
 20
5.0
 30
0.0
 11
20.0
 21
292.0
 31
0.0
  0
LINE
  5
131D
330
1E
100
AcDbEntity
  8
HILF
100
AcDbLine
 10
0.0
 20
0.0
 30
0.0
 11
0.0
 21
297.0
 31
0.0
  0
LINE
  5
131E
330
1E
100
AcDbEntity
  8
BEM
100
AcDbLine
 10
228.0
 20
0.0
 30
0.0
 11
228.0
 21
5.0
 31
0.0
  0
INSERT
  5
131F
330
1E
100
AcDbEntity
  8
HILF
100
AcDbBlockReference
  2
LORO
 10
286.5312492981177
 20
18.4902965014948
 30
0.0
  0
TEXT
  5
1320
330
1E
100
AcDbEntity
  8
TEXT
100
AcDbText
 10
235.0220569675064
 20
57.05717925255214
 30
0.0
 40
2.5
  1
Erstellt mit AUTOCAD 2004
 41
0.8
  7
GREEKS
100
AcDbText
  0
TEXT
  5
1321
330
1E
100
AcDbEntity
  8
TEXT
 62
     1
100
AcDbText
 10
291.3517456017111
 20
43.73538544207488
 30
0.0
 40
3.5
  1
1:1
 41
0.8
  7
GREEKS
100
AcDbText
  0
TEXT
  5
1322
102
{ACAD_XDICTIONARY
360
245A
102
}
330
1E
100
AcDbEntity
  8
TEXT
100
AcDbText
 10
327.0838025054674
 20
21.65563812395754
 30
0.0
 40
2.0
  1
00984.125X.DXF
 41
0.8
  7
GREEKS
100
AcDbText
  0
TEXT
  5
1323
330
1E
100
AcDbEntity
  8
TEXT
100
AcDbText
 10
327.1705470442496
 20
26.29548668923029
 30
0.0
 40
2.5
  1
EDV-Art.Nr. 00984.125X
 41
0.8
  7
GREEKS
100
AcDbText
  0
TEXT
  5
1324
330
1E
100
AcDbEntity
  8
TEXT
100
AcDbText
 10
312.0115876613305
 20
31.47148827582734
 30
0.0
 40
2.0
  1
Koeh
 41
0.8
  7
GREEKS
 72
     1
 11
314.6401590899019
 21
31.47148827582734
 31
0.0
100
AcDbText
  0
TEXT
  5
1325
330
1E
100
AcDbEntity
  8
TEXT
100
AcDbText
 10
295.0782618755935
 20
31.5754293806011
 30
0.0
 40
2.0
  1
03.08.
 41
0.8
  7
GREEKS
 72
     1
 11
298.5830237803554
 21
31.5754293806011
 31
0.0
100
AcDbText
  0
TEXT
  5
1326
330
1E
100
AcDbEntity
  8
TEXT
100
AcDbText
 10
309.2545113207915
 20
51.41994805689501
 30
0.0
 40
2.5
  1
Zul.Abw.
 41
0.8
  7
GREEKS
100
AcDbText
  0
TEXT
  5
1327
330
1E
100
AcDbEntity
  8
TEXT
 62
     1
100
AcDbText
 10
383.7314044425402
 20
43.68671537826272
 30
0.0
 40
3.5
  1
00984125X
 41
0.8
  7
GREEKS
 72
     1
 11
395.0647377758735
 21
43.68671537826272
 31
0.0
100
AcDbText
  0
TEXT
  5
1328
330
1E
100
AcDbEntity
  8
TEXT
 62
     1
100
AcDbText
 10
327.5195286236595
 20
43.68671537826272
 30
0.0
 40
3.5
  1
Schwerlastschelle DN125
 41
0.7
  7
GREEKS
100
AcDbText
  0
LINE
  5
1329
330
1E
100
AcDbEntity
  8
STEMPEL
100
AcDbLine
 10
415.0
 20
5.0
 30
0.0
 11
415.0
 21
292.0
 31
0.0
  0
LINE
  5
132A
330
1E
100
AcDbEntity
  8
STEMPEL
100
AcDbLine
 10
20.0
 20
5.0
 30
0.0
 11
415.0
 21
5.0
 31
0.0
  0
LINE
  5
132B
330
1E
100
AcDbEntity
  8
STEMPEL
100
AcDbLine
 10
415.0
 20
292.0
 30
0.0
 11
20.0
 21
292.0
 31
0.0
  0
LINE
  5
132C
330
1E
100
AcDbEntity
  8
HILF
100
AcDbLine
 10
420.0
 20
297.0
 30
0.0
 11
0.0
 21
297.0
 31
0.0
  0
LINE
  5
132D
330
1E
100
AcDbEntity
  8
HILF
100
AcDbLine
 10
420.0
 20
0.0
 30
0.0
 11
420.0
 21
297.0
 31
0.0
  0
LINE
  5
132E
330
1E
100
AcDbEntity
  8
HILF
100
AcDbLine
 10
0.0
 20
0.0
 30
0.0
 11
420.0
 21
0.0
 31
0.0
  0
TEXT
  5
132F
330
1E
100
AcDbEntity
  8
TEXT
100
AcDbText
 10
284.4346513903662
 20
36.48341298261862
 30
0.0
 40
2.0
  1
2009
 41
0.8
  7
GREEKS
100
AcDbText
  0
TEXT
  5
1330
330
1E
100
AcDbEntity
  8
TEXT
100
AcDbText
 10
378.6200430748504
 20
26.03708088939298
 30
0.0
 40
2.5
  1
ersetzt durch:
 41
0.8
  7
GREEKS
100
AcDbText
  0
TEXT
  5
1331
330
1E
100
AcDbEntity
  8
TEXT
100
AcDbText
 10
283.8003388693652
 20
21.76473194824902
 30
0.0
 40
2.0
  1
Norm.
 41
0.8
  7
GREEKS
100
AcDbText
  0
TEXT
  5
1332
330
1E
100
AcDbEntity
  8
TEXT
100
AcDbText
 10
283.7757543285837
 20
26.84463145714186
 30
0.0
 40
2.0
  1
Gepr.
 41
0.8
  7
GREEKS
100
AcDbText
  0
TEXT
  5
1333
330
1E
100
AcDbEntity
  8
TEXT
100
AcDbText
 10
283.7918063583808
 20
31.8149518480898
 30
0.0
 40
2.0
  1
Gez.
 41
0.8
  7
GREEKS
100
AcDbText
  0
TEXT
  5
1334
330
1E
100
AcDbEntity
  8
TEXT
100
AcDbText
 10
311.2313292113148
 20
36.6548054595761
 30
0.0
 40
2.0
  1
Name
 41
0.8
  7
GREEKS
100
AcDbText
  0
TEXT
  5
1335
330
1E
100
AcDbEntity
  8
TEXT
100
AcDbText
 10
296.1655836576826
 20
36.6594025061496
 30
0.0
 40
2.0
  1
Tag
 41
0.8
  7
GREEKS
100
AcDbText
  0
TEXT
  5
1336
330
1E
100
AcDbEntity
  8
TEXT
100
AcDbText
 10
274.4897839069147
 20
9.296621084832022
 30
0.0
 40
2.0
  1
Name
 41
0.8
  7
GREEKS
 72
     1
 11
277.6516886688194
 21
9.296621084832022
 31
0.0
100
AcDbText
  0
TEXT
  5
1337
330
1E
100
AcDbEntity
  8
TEXT
100
AcDbText
 10
264.949505659349
 20
9.33578134669904
 30
0.0
 40
2.0
  1
Tag
 41
0.8
  7
GREEKS
 72
     1
 11
266.8161723260157
 21
9.33578134669904
 31
0.0
100
AcDbText
  0
TEXT
  5
1338
330
1E
100
AcDbEntity
  8
TEXT
100
AcDbText
 10
239.1332055352289
 20
6.827329230135937
 30
0.0
 40
2.0
  1
Index
 50
90.0
 41
0.8
  7
GREEKS
100
AcDbText
  0
TEXT
  5
1339
330
1E
100
AcDbEntity
  8
TEXT
100
AcDbText
 10
378.3619308148498
 20
36.59059118549983
 30
0.0
 40
2.5
  1
Ersatz für:
 41
0.8
  7
GREEKS
100
AcDbText
  0
TEXT
  5
133A
330
1E
100
AcDbEntity
  8
TEXT
100
AcDbText
 10
327.371119195568
 20
15.42280285096527
 30
0.0
 40
2.5
  1
Bauvorhaben
 41
0.8
  7
GREEKS
100
AcDbText
  0
TEXT
  5
133B
330
1E
100
AcDbEntity
  8
TEXT
100
AcDbText
 10
378.0893774788172
 20
51.15660172685679
 30
0.0
 40
2.5
  1
Zeichnungs Nr.
 41
0.8
  7
GREEKS
100
AcDbText
  0
TEXT
  5
133C
330
1E
100
AcDbEntity
  8
TEXT
100
AcDbText
 10
327.4389701904506
 20
51.27446640058896
 30
0.0
 40
2.5
  1
Benennung
 41
0.8
  7
GREEKS
100
AcDbText
  0
TEXT
  5
133D
330
1E
100
AcDbEntity
  8
TEXT
100
AcDbText
 10
286.7581786075189
 20
51.2310447543544
 30
0.0
 40
2.5
  1
Maßstab
 41
0.8
  7
GREEKS
100
AcDbText
  0
TEXT
  5
133E
330
1E
100
AcDbEntity
  8
TEXT
100
AcDbText
 10
246.1999119631649
 20
9.336909474920645
 30
0.0
 40
2.0
  1
Änderung
 41
0.8
  7
GREEKS
 72
     1
 11
251.5713405345934
 21
9.336909474920645
 31
0.0
100
AcDbText
  0
LINE
  5
133F
330
1E
100
AcDbEntity
  8
HILF
100
AcDbLine
 10
327.3868400548474
 20
7.446991290141525
 30
0.0
 11
412.4294419663365
 21
7.446991290141525
 31
0.0
  0
LINE
  5
1340
330
1E
100
AcDbEntity
  8
HILF
100
AcDbLine
 10
378.3619308148498
 20
41.88991818477911
 30
0.0
 11
412.4294419663365
 21
41.88991818477911
 31
0.0
  0
LINE
  5
1341
330
1E
100
AcDbEntity
  8
VOLL
100
AcDbLine
 10
376.0000000000001
 20
30.0
 30
0.0
 11
415.0000000000001
 21
30.0
 31
0.0
  0
LINE
  5
1342
330
1E
100
AcDbEntity
  8
HILF
100
AcDbLine
 10
327.3868400548474
 20
25.0
 30
0.0
 11
373.3148921257406
 21
25.0
 31
0.0
  0
LINE
  5
1343
330
1E
100
AcDbEntity
  8
HILF
100
AcDbLine
 10
327.3868400548474
 20
30.0
 30
0.0
 11
373.3148921257406
 21
30.0
 31
0.0
  0
LINE
  5
1344
330
1E
100
AcDbEntity
  8
HILF
100
AcDbLine
 10
327.3868400548474
 20
35.0
 30
0.0
 11
373.3148921257406
 21
35.0
 31
0.0
  0
LINE
  5
1345
330
1E
100
AcDbEntity
  8
HILF
100
AcDbLine
 10
327.3868400548474
 20
42.01879123782068
 30
0.0
 11
373.3148921257406
 21
42.01879123782068
 31
0.0
  0
LINE
  5
1346
330
1E
100
AcDbEntity
  8
HILF
100
AcDbLine
 10
283.0000000000001
 20
25.0
 30
0.0
 11
325.0
 21
25.0
 31
0.0
  0
LINE
  5
1347
330
1E
100
AcDbEntity
  8
HILF
100
AcDbLine
 10
283.0000000000001
 20
30.0
 30
0.0
 11
325.0
 21
30.0
 31
0.0
  0
LINE
  5
1348
330
1E
100
AcDbEntity
  8
HILF
100
AcDbLine
 10
283.0000000000001
 20
35.0
 30
0.0
 11
325.0
 21
35.0
 31
0.0
  0
LINE
  5
1349
330
1E
100
AcDbEntity
  8
HILF
100
AcDbLine
 10
235.0000000000001
 20
20.0
 30
0.0
 11
283.0000000000001
 21
20.0
 31
0.0
  0
LINE
  5
134A
330
1E
100
AcDbEntity
  8
HILF
100
AcDbLine
 10
235.0000000000001
 20
25.0
 30
0.0
 11
283.0000000000001
 21
25.0
 31
0.0
  0
LINE
  5
134B
330
1E
100
AcDbEntity
  8
HILF
100
AcDbLine
 10
235.0000000000001
 20
30.0
 30
0.0
 11
283.0000000000001
 21
30.0
 31
0.0
  0
LINE
  5
134C
330
1E
100
AcDbEntity
  8
HILF
100
AcDbLine
 10
235.0000000000001
 20
35.0
 30
0.0
 11
283.0000000000001
 21
35.0
 31
0.0
  0
LINE
  5
134D
330
1E
100
AcDbEntity
  8
HILF
100
AcDbLine
 10
235.0000000000001
 20
40.0
 30
0.0
 11
283.0000000000001
 21
40.0
 31
0.0
  0
LINE
  5
134E
330
1E
100
AcDbEntity
  8
HILF
100
AcDbLine
 10
235.0000000000001
 20
45.0
 30
0.0
 11
283.0000000000001
 21
45.0
 31
0.0
  0
LINE
  5
134F
330
1E
100
AcDbEntity
  8
HILF
100
AcDbLine
 10
235.0000000000001
 20
50.0
 30
0.0
 11
283.0000000000001
 21
50.0
 31
0.0
  0
LINE
  5
1350
330
1E
100
AcDbEntity
  8
VOLL
100
AcDbLine
 10
305.0000000000001
 20
54.99999999999992
 30
0.0
 11
305.0000000000001
 21
20.0
 31
0.0
  0
LINE
  5
1351
330
1E
100
AcDbEntity
  8
VOLL
100
AcDbLine
 10
292.0000000000001
 20
40.0
 30
0.0
 11
292.0000000000001
 21
20.0
 31
0.0
  0
LINE
  5
1352
330
1E
100
AcDbEntity
  8
VOLL
100
AcDbLine
 10
272.0000000000001
 20
54.99999999999996
 30
0.0
 11
272.0000000000001
 21
4.999999999999957
 31
0.0
  0
LINE
  5
1353
330
1E
100
AcDbEntity
  8
VOLL
100
AcDbLine
 10
262.0000000000001
 20
54.99999999999997
 30
0.0
 11
262.0
 21
4.999999999999971
 31
0.0
  0
LINE
  5
1354
330
1E
100
AcDbEntity
  8
VOLL
100
AcDbLine
 10
242.0000000000001
 20
55.0
 30
0.0
 11
242.0000000000001
 21
4.999999999999992
 31
0.0
  0
LINE
  5
1355
330
1E
100
AcDbEntity
  8
STEMPEL
100
AcDbLine
 10
415.0000000000001
 20
40.0
 30
0.0
 11
283.0000000000001
 21
40.0
 31
0.0
  0
LINE
  5
1356
330
1E
100
AcDbEntity
  8
STEMPEL
100
AcDbLine
 10
415.0000000000001
 20
20.0
 30
0.0
 11
283.0
 21
20.0
 31
0.0
  0
LINE
  5
1357
330
1E
100
AcDbEntity
  8
STEMPEL
100
AcDbLine
 10
283.0
 20
15.0
 30
0.0
 11
235.0
 21
15.0
 31
0.0
  0
LINE
  5
1358
330
1E
100
AcDbEntity
  8
STEMPEL
100
AcDbLine
 10
376.0000000000001
 20
54.99999999999984
 30
0.0
 11
376.0000000000001
 21
20.0
 31
0.0
  0
LINE
  5
1359
330
1E
100
AcDbEntity
  8
STEMPEL
100
AcDbLine
 10
325.0
 20
55.0
 30
0.0
 11
325.0
 21
5.0
 31
0.0
  0
LINE
  5
135A
330
1E
100
AcDbEntity
  8
STEMPEL
100
AcDbLine
 10
283.0000000000001
 20
54.99999999999994
 30
0.0
 11
283.0
 21
4.999999999999943
 31
0.0
  0
LINE
  5
135B
330
1E
100
AcDbEntity
  8
STEMPEL
100
AcDbLine
 10
235.0000000000001
 20
55.0
 30
0.0
 11
235.0
 21
5.0
 31
0.0
  0
LINE
  5
135C
330
1E
100
AcDbEntity
  8
STEMPEL
100
AcDbLine
 10
415.0000000000001
 20
55.0
 30
0.0
 11
235.0000000000001
 21
55.0
 31
0.0
  0
TEXT
  5
1793
330
1E
100
AcDbEntity
  8
TEXT
100
AcDbText
 10
327.1705470442496
 20
36.29548668923029
 30
0.0
 40
2.5
  1
mit Schallschutz
 41
0.8
  7
GREEKS
100
AcDbText
  0
LINE
  5
20BA
330
1E
100
AcDbEntity
  8
STEMPEL
100
AcDbLine
 10
255.2431288633183
 20
230.4324516371843
 30
0.0
 11
106.0101288633183
 21
230.4324516371843
 31
0.0
  0
LINE
  5
20BB
330
1E
100
AcDbEntity
  8
STEMPEL
100
AcDbLine
 10
106.0101288633183
 20
230.4324516371843
 30
0.0
 11
106.0101288633183
 21
221.9324516371843
 31
0.0
  0
LINE
  5
20BC
330
1E
100
AcDbEntity
  8
STEMPEL
100
AcDbLine
 10
106.0101288633183
 20
256.4324516371843
 30
0.0
 11
106.0101288633183
 21
247.9324516371843
 31
0.0
  0
LINE
  5
20BD
330
1E
100
AcDbEntity
  8
STEMPEL
100
AcDbLine
 10
255.2431288633183
 20
230.4324516371843
 30
0.0
 11
255.2431288633183
 21
221.9324516371843
 31
0.0
  0
LINE
  5
20BE
330
1E
100
AcDbEntity
  8
STEMPEL
100
AcDbLine
 10
255.2431288633183
 20
256.4324516371843
 30
0.0
 11
255.2431288633183
 21
247.9324516371843
 31
0.0
  0
LINE
  5
20C0
330
1E
100
AcDbEntity
  8
STEMPEL
100
AcDbLine
 10
106.0101288633183
 20
247.9324516371843
 30
0.0
 11
255.2431288633183
 21
247.9324516371843
 31
0.0
  0
LINE
  5
20C1
330
1E
100
AcDbEntity
  8
STEMPEL
100
AcDbLine
 10
106.0101288633183
 20
256.4324516371843
 30
0.0
 11
255.2431288633183
 21
256.4324516371843
 31
0.0
  0
LINE
  5
20C2
330
1E
100
AcDbEntity
  8
STEMPEL
100
AcDbLine
 10
106.0101288633183
 20
221.9324516371843
 30
0.0
 11
255.2431288633183
 21
221.9324516371843
 31
0.0
  0
ARC
  5
20D7
330
1E
100
AcDbEntity
  8
STEMPEL
100
AcDbCircle
 10
180.6271288633182
 20
121.9691340009307
 30
0.0
 40
74.25
100
AcDbArc
 50
9.091003688000039
 51
10.94961450600031
  0
ARC
  5
20D9
330
1E
100
AcDbEntity
  8
STEMPEL
100
AcDbCircle
 10
180.6271288633182
 20
122.0521340009308
 30
0.0
 40
74.25
100
AcDbArc
 50
349.0503854939997
 51
350.908996312
  0
LINE
  5
20DE
330
1E
100
AcDbEntity
  8
STEMPEL
100
AcDbLine
 10
255.258916187518
 20
107.6130788047626
 30
0.0
 11
245.4410624264413
 21
109.5130505042987
 31
0.0
  0
LINE
  5
20E3
330
1E
100
AcDbEntity
  8
STEMPEL
100
AcDbLine
 10
274.4771288633183
 20
130.4101340009307
 30
0.0
 11
274.4771288633183
 21
133.4081340009307
 31
0.0
  0
LINE
  5
20E7
330
1E
100
AcDbEntity
  8
STEMPEL
100
AcDbLine
 10
255.2425261952362
 20
130.4101340009307
 30
0.0
 11
280.4771288633183
 21
130.4101340009307
 31
0.0
  0
LINE
  5
20E8
330
1E
100
AcDbEntity
  8
STEMPEL
100
AcDbLine
 10
255.2429132457128
 20
133.4081340009307
 30
0.0
 11
280.4771288633183
 21
133.4081340009307
 31
0.0
  0
LINE
  5
20EA
330
1E
100
AcDbEntity
  8
STEMPEL
100
AcDbLine
 10
280.4771288633183
 20
130.4101340009307
 30
0.0
 11
280.4771288633183
 21
133.4081340009307
 31
0.0
  0
LINE
  5
20EB
330
1E
100
AcDbEntity
  8
MITTEL
100
AcDbLine
 10
180.6271288633182
 20
15.05213400093078
 30
0.0
 11
180.6271288633182
 21
202.9691340009307
 31
0.0
  0
LINE
  5
20EC
330
1E
100
AcDbEntity
  8
MITTEL
100
AcDbLine
 10
75.77712886331823
 20
121.9691340009307
 30
0.0
 11
285.4771288633182
 21
121.9691340009307
 31
0.0
  0
LINE
  5
20F9
330
1E
100
AcDbEntity
  8
STEMPEL
100
AcDbLine
 10
274.4771288633183
 20
113.6101340009307
 30
0.0
 11
274.4771288633183
 21
110.6131340009307
 31
0.0
  0
LINE
  5
20FD
330
1E
100
AcDbEntity
  8
STEMPEL
100
AcDbLine
 10
255.2583496693589
 20
113.6101340009307
 30
0.0
 11
280.4771288633183
 21
113.6101340009307
 31
0.0
  0
LINE
  5
20FE
330
1E
100
AcDbEntity
  8
STEMPEL
100
AcDbLine
 10
255.2589268049463
 20
110.6131340009307
 30
0.0
 11
280.4771288633183
 21
110.6131340009307
 31
0.0
  0
LINE
  5
2100
330
1E
100
AcDbEntity
  8
STEMPEL
100
AcDbLine
 10
280.4771288633183
 20
113.6101340009307
 30
0.0
 11
280.4771288633183
 21
110.6131340009307
 31
0.0
  0
LINE
  5
215D
330
1E
100
AcDbEntity
  8
STEMPEL
100
AcDbLine
 10
108.8911288633182
 20
244.6824516371843
 30
0.0
 11
168.1271288633182
 21
244.6824516371843
 31
0.0
  0
LINE
  5
215E
330
1E
100
AcDbEntity
  8
STEMPEL
100
AcDbLine
 10
168.1271288633182
 20
233.6824516371843
 30
0.0
 11
168.1271288633182
 21
244.6824516371843
 31
0.0
  0
LINE
  5
215F
330
1E
100
AcDbEntity
  8
STEMPEL
100
AcDbLine
 10
168.1271288633182
 20
233.6824516371843
 30
0.0
 11
108.8911288633182
 21
233.6824516371843
 31
0.0
  0
LINE
  5
2160
330
1E
100
AcDbEntity
  8
STEMPEL
100
AcDbLine
 10
193.1271288633182
 20
233.6824516371843
 30
0.0
 11
193.1271288633182
 21
244.6824516371843
 31
0.0
  0
LINE
  5
2161
330
1E
100
AcDbEntity
  8
STEMPEL
100
AcDbLine
 10
193.1271288633182
 20
244.6824516371843
 30
0.0
 11
252.3621288633183
 21
244.6824516371843
 31
0.0
  0
LINE
  5
2162
330
1E
100
AcDbEntity
  8
STEMPEL
100
AcDbLine
 10
252.3621288633183
 20
233.6824516371843
 30
0.0
 11
193.1271288633182
 21
233.6824516371843
 31
0.0
  0
LINE
  5
2163
330
1E
100
AcDbEntity
  8
TEXT
 62
     2
100
AcDbLine
 10
157.6851288633184
 20
237.6414516371843
 30
0.0
 11
157.4841288633183
 21
237.6414516371843
 31
0.0
  0
LINE
  5
2164
330
1E
100
AcDbEntity
  8
TEXT
 62
     2
100
AcDbLine
 10
157.6851288633184
 20
237.6414516371843
 30
0.0
 11
158.2541288633183
 21
238.7804516371843
 31
0.0
  0
LINE
  5
2165
330
1E
100
AcDbEntity
  8
TEXT
 62
     2
100
AcDbLine
 10
158.2541288633183
 20
238.7804516371843
 30
0.0
 11
158.4551288633183
 21
238.7804516371843
 31
0.0
  0
LINE
  5
2166
330
1E
100
AcDbEntity
  8
TEXT
 62
     2
100
AcDbLine
 10
158.4551288633183
 20
238.7804516371843
 30
0.0
 11
158.9241288633183
 21
237.6414516371843
 31
0.0
  0
LINE
  5
2167
330
1E
100
AcDbEntity
  8
TEXT
 62
     2
100
AcDbLine
 10
159.1251288633183
 20
237.6414516371843
 30
0.0
 11
158.9241288633183
 21
237.6414516371843
 31
0.0
  0
LINE
  5
2168
330
1E
100
AcDbEntity
  8
TEXT
 62
     2
100
AcDbLine
 10
159.5941288633182
 20
238.7804516371843
 30
0.0
 11
159.1251288633183
 21
237.6414516371843
 31
0.0
  0
LINE
  5
2169
330
1E
100
AcDbEntity
  8
TEXT
 62
     2
100
AcDbLine
 10
159.7951288633183
 20
238.7804516371843
 30
0.0
 11
159.5941288633182
 21
238.7804516371843
 31
0.0
  0
LINE
  5
216A
330
1E
100
AcDbEntity
  8
TEXT
 62
     2
100
AcDbLine
 10
160.3651288633183
 20
237.6414516371843
 30
0.0
 11
159.7951288633183
 21
238.7804516371843
 31
0.0
  0
LINE
  5
216B
330
1E
100
AcDbEntity
  8
TEXT
 62
     2
100
AcDbLine
 10
160.3651288633183
 20
237.6414516371843
 30
0.0
 11
160.5661288633183
 21
237.6414516371843
 31
0.0
  0
LINE
  5
216C
330
1E
100
AcDbEntity
  8
TEXT
 62
     2
100
AcDbLine
 10
157.6851288633184
 20
240.7234516371843
 30
0.0
 11
157.4841288633183
 21
240.7234516371843
 31
0.0
  0
LINE
  5
216D
330
1E
100
AcDbEntity
  8
TEXT
 62
     2
100
AcDbLine
 10
157.6851288633184
 20
240.7234516371843
 30
0.0
 11
158.2541288633183
 21
239.5844516371842
 31
0.0
  0
LINE
  5
216E
330
1E
100
AcDbEntity
  8
TEXT
 62
     2
100
AcDbLine
 10
158.2541288633183
 20
239.5844516371842
 30
0.0
 11
158.4551288633183
 21
239.5844516371842
 31
0.0
  0
LINE
  5
216F
330
1E
100
AcDbEntity
  8
TEXT
 62
     2
100
AcDbLine
 10
158.4551288633183
 20
239.5844516371842
 30
0.0
 11
158.9241288633183
 21
240.7234516371843
 31
0.0
  0
LINE
  5
2170
330
1E
100
AcDbEntity
  8
TEXT
 62
     2
100
AcDbLine
 10
159.1251288633183
 20
240.7234516371843
 30
0.0
 11
158.9241288633183
 21
240.7234516371843
 31
0.0
  0
LINE
  5
2171
330
1E
100
AcDbEntity
  8
TEXT
 62
     2
100
AcDbLine
 10
159.5941288633182
 20
239.5844516371842
 30
0.0
 11
159.1251288633183
 21
240.7234516371843
 31
0.0
  0
LINE
  5
2172
330
1E
100
AcDbEntity
  8
TEXT
 62
     2
100
AcDbLine
 10
159.7951288633183
 20
239.5844516371842
 30
0.0
 11
159.5941288633182
 21
239.5844516371842
 31
0.0
  0
LINE
  5
2173
330
1E
100
AcDbEntity
  8
TEXT
 62
     2
100
AcDbLine
 10
160.3651288633183
 20
240.7234516371843
 30
0.0
 11
159.7951288633183
 21
239.5844516371842
 31
0.0
  0
LINE
  5
2174
330
1E
100
AcDbEntity
  8
TEXT
 62
     2
100
AcDbLine
 10
160.3651288633183
 20
240.7234516371843
 30
0.0
 11
160.5661288633183
 21
240.7234516371843
 31
0.0
  0
LINE
  5
2175
330
1E
100
AcDbEntity
  8
TEXT
100
AcDbLine
 10
157.0151288633183
 20
237.1724516371843
 30
0.0
 11
161.0351288633182
 21
237.1724516371843
 31
0.0
  0
LINE
  5
2176
330
1E
100
AcDbEntity
  8
TEXT
100
AcDbLine
 10
161.0351288633182
 20
237.1724516371843
 30
0.0
 11
161.0351288633182
 21
241.1924516371843
 31
0.0
  0
LINE
  5
2177
330
1E
100
AcDbEntity
  8
TEXT
100
AcDbLine
 10
161.0351288633182
 20
241.1924516371843
 30
0.0
 11
157.0151288633183
 21
241.1924516371843
 31
0.0
  0
LINE
  5
2178
330
1E
100
AcDbEntity
  8
TEXT
100
AcDbLine
 10
157.0151288633183
 20
241.1924516371843
 30
0.0
 11
157.0151288633183
 21
237.1724516371843
 31
0.0
  0
LINE
  5
2179
330
1E
100
AcDbEntity
  8
MITTEL
100
AcDbLine
 10
163.9151288633182
 20
246.3614516371843
 30
0.0
 11
163.9151288633182
 21
232.0034516371843
 31
0.0
  0
CIRCLE
  5
217B
330
1E
100
AcDbEntity
  8
STEMPEL
100
AcDbCircle
 10
163.9151288633182
 20
239.1824516371843
 30
0.0
 40
2.178999999999999
  0
LINE
  5
217C
330
1E
100
AcDbEntity
  8
TEXT
 62
     2
100
AcDbLine
 10
160.3651288633183
 20
240.7234516371843
 30
0.0
 11
160.5661288633183
 21
240.7234516371843
 31
0.0
  0
TEXT
  5
217D
330
1E
100
AcDbEntity
  8
TEXT
 62
     2
100
AcDbText
 10
263.6667065593083
 20
228.8804516371842
 30
0.0
 40
3.0
  1
125-133
 41
0.8
100
AcDbText
  0
LINE
  5
217E
330
1E
100
AcDbEntity
  8
TEXT
100
AcDbLine
 10
257.8041288633183
 20
228.8624516371843
 30
0.0
 11
258.4291288633183
 21
228.8624516371843
 31
0.0
  0
ARC
  5
217F
330
1E
100
AcDbEntity
  8
TEXT
100
AcDbCircle
 10
257.4541288633184
 20
228.8154516371843
 30
0.0
 40
0.353
100
AcDbArc
 50
172.3718503310002
 51
7.628149668999752
  0
LINE
  5
2180
330
1E
100
AcDbEntity
  8
TEXT
100
AcDbLine
 10
256.4791288633182
 20
228.8624516371843
 30
0.0
 11
257.1041288633182
 21
228.8624516371843
 31
0.0
  0
ARC
  5
2181
330
1E
100
AcDbEntity
  8
TEXT
100
AcDbCircle
 10
256.1291288633183
 20
228.8154516371843
 30
0.0
 40
0.353
100
AcDbArc
 50
172.3718503310002
 51
7.628149668999752
  0
LINE
  5
2182
330
1E
100
AcDbEntity
  8
TEXT
100
AcDbLine
 10
255.4391288633183
 20
228.8624516371843
 30
0.0
 11
255.7791288633183
 21
228.8624516371843
 31
0.0
  0
LINE
  5
2183
330
1E
100
AcDbEntity
  8
TEXT
100
AcDbLine
 10
255.4391288633183
 20
230.2024516371842
 30
0.0
 11
255.4391288633183
 21
228.8624516371843
 31
0.0
  0
LINE
  5
2184
330
1E
100
AcDbEntity
  8
TEXT
100
AcDbLine
 10
257.1391288633183
 20
230.2024516371842
 30
0.0
 11
255.4391288633183
 21
230.2024516371842
 31
0.0
  0
LINE
  5
2185
330
1E
100
AcDbEntity
  8
TEXT
100
AcDbLine
 10
257.1391288633183
 20
230.0624516371843
 30
0.0
 11
257.1391288633183
 21
230.2024516371842
 31
0.0
  0
ARC
  5
2186
330
1E
100
AcDbEntity
  8
TEXT
100
AcDbCircle
 10
256.9391288633183
 20
230.0624516371843
 30
0.0
 40
0.2
100
AcDbArc
 50
270.0
 51
0.0
  0
LINE
  5
2187
330
1E
100
AcDbEntity
  8
TEXT
100
AcDbLine
 10
255.7791288633183
 20
229.8624516371843
 30
0.0
 11
256.9391288633183
 21
229.8624516371843
 31
0.0
  0
LINE
  5
2188
330
1E
100
AcDbEntity
  8
TEXT
100
AcDbLine
 10
255.7791288633183
 20
229.2624516371843
 30
0.0
 11
255.7791288633183
 21
229.8624516371843
 31
0.0
  0
LINE
  5
2189
330
1E
100
AcDbEntity
  8
TEXT
100
AcDbLine
 10
261.7791288633183
 20
229.2624516371843
 30
0.0
 11
255.7791288633183
 21
229.2624516371843
 31
0.0
  0
LINE
  5
218A
330
1E
100
AcDbEntity
  8
TEXT
100
AcDbLine
 10
261.7791288633183
 20
229.8624516371843
 30
0.0
 11
261.7791288633183
 21
229.2624516371843
 31
0.0
  0
LINE
  5
218B
330
1E
100
AcDbEntity
  8
TEXT
100
AcDbLine
 10
260.6191288633183
 20
229.8624516371843
 30
0.0
 11
261.7791288633183
 21
229.8624516371843
 31
0.0
  0
ARC
  5
218C
330
1E
100
AcDbEntity
  8
TEXT
100
AcDbCircle
 10
260.6191288633183
 20
230.0624516371843
 30
0.0
 40
0.2
100
AcDbArc
 50
180.0
 51
270.0
  0
LINE
  5
218D
330
1E
100
AcDbEntity
  8
TEXT
100
AcDbLine
 10
260.4191288633183
 20
230.2024516371842
 30
0.0
 11
260.4191288633183
 21
230.0624516371843
 31
0.0
  0
LINE
  5
218E
330
1E
100
AcDbEntity
  8
TEXT
100
AcDbLine
 10
262.1191288633184
 20
230.2024516371842
 30
0.0
 11
260.4191288633183
 21
230.2024516371842
 31
0.0
  0
LINE
  5
218F
330
1E
100
AcDbEntity
  8
TEXT
100
AcDbLine
 10
262.1191288633184
 20
228.8624516371843
 30
0.0
 11
262.1191288633184
 21
230.2024516371842
 31
0.0
  0
LINE
  5
2190
330
1E
100
AcDbEntity
  8
TEXT
100
AcDbLine
 10
261.7791288633183
 20
228.8624516371843
 30
0.0
 11
262.1191288633184
 21
228.8624516371843
 31
0.0
  0
ARC
  5
2191
330
1E
100
AcDbEntity
  8
TEXT
100
AcDbCircle
 10
261.4291288633183
 20
228.8154516371843
 30
0.0
 40
0.353
100
AcDbArc
 50
172.3718503310002
 51
7.628149668999752
  0
LINE
  5
2192
330
1E
100
AcDbEntity
  8
TEXT
100
AcDbLine
 10
260.4541288633184
 20
228.8624516371843
 30
0.0
 11
261.0791288633184
 21
228.8624516371843
 31
0.0
  0
ARC
  5
2193
330
1E
100
AcDbEntity
  8
TEXT
100
AcDbCircle
 10
260.1041288633183
 20
228.8154516371843
 30
0.0
 40
0.353
100
AcDbArc
 50
172.3718503310002
 51
7.628149668999752
  0
LINE
  5
2194
330
1E
100
AcDbEntity
  8
TEXT
100
AcDbLine
 10
259.1291288633183
 20
228.8624516371843
 30
0.0
 11
259.7541288633183
 21
228.8624516371843
 31
0.0
  0
ARC
  5
2195
330
1E
100
AcDbEntity
  8
TEXT
100
AcDbCircle
 10
258.7791288633183
 20
228.8154516371843
 30
0.0
 40
0.353
100
AcDbArc
 50
172.3718503310002
 51
7.628149668999752
  0
LINE
  5
2196
330
1E
100
AcDbEntity
  8
TEXT
100
AcDbLine
 10
255.4391288633183
 20
244.6224516371843
 30
0.0
 11
262.1191288633184
 21
250.6224516371843
 31
0.0
  0
LINE
  5
2197
330
1E
100
AcDbEntity
  8
TEXT
100
AcDbLine
 10
262.1191288633184
 20
244.6224516371843
 30
0.0
 11
255.4391288633183
 21
250.6224516371843
 31
0.0
  0
TEXT
  5
2198
330
1E
100
AcDbEntity
  8
TEXT
 62
     2
100
AcDbText
 10
263.4697065593084
 20
246.8084516371842
 30
0.0
 40
3.0
  1
132-140
 41
0.8
100
AcDbText
  0
LINE
  5
2199
330
1E
100
AcDbEntity
  8
TEXT
100
AcDbLine
 10
257.8041288633183
 20
246.9524516371842
 30
0.0
 11
258.4291288633183
 21
246.9524516371842
 31
0.0
  0
ARC
  5
219A
330
1E
100
AcDbEntity
  8
TEXT
100
AcDbCircle
 10
257.4541288633184
 20
246.9054516371843
 30
0.0
 40
0.353
100
AcDbArc
 50
172.3718503310002
 51
7.628149668999752
  0
LINE
  5
219B
330
1E
100
AcDbEntity
  8
TEXT
100
AcDbLine
 10
256.4791288633182
 20
246.9524516371842
 30
0.0
 11
257.1041288633182
 21
246.9524516371842
 31
0.0
  0
ARC
  5
219C
330
1E
100
AcDbEntity
  8
TEXT
100
AcDbCircle
 10
256.1291288633183
 20
246.9054516371843
 30
0.0
 40
0.353
100
AcDbArc
 50
172.3718503310002
 51
7.628149668999752
  0
LINE
  5
219D
330
1E
100
AcDbEntity
  8
TEXT
100
AcDbLine
 10
255.4391288633183
 20
246.9524516371842
 30
0.0
 11
255.7791288633183
 21
246.9524516371842
 31
0.0
  0
LINE
  5
219E
330
1E
100
AcDbEntity
  8
TEXT
100
AcDbLine
 10
255.4391288633183
 20
248.2924516371843
 30
0.0
 11
255.4391288633183
 21
246.9524516371842
 31
0.0
  0
LINE
  5
219F
330
1E
100
AcDbEntity
  8
TEXT
100
AcDbLine
 10
257.1391288633183
 20
248.2924516371843
 30
0.0
 11
255.4391288633183
 21
248.2924516371843
 31
0.0
  0
LINE
  5
21A0
330
1E
100
AcDbEntity
  8
TEXT
100
AcDbLine
 10
257.1391288633183
 20
248.1524516371843
 30
0.0
 11
257.1391288633183
 21
248.2924516371843
 31
0.0
  0
ARC
  5
21A1
330
1E
100
AcDbEntity
  8
TEXT
100
AcDbCircle
 10
256.9391288633183
 20
248.1524516371843
 30
0.0
 40
0.2
100
AcDbArc
 50
270.0
 51
0.0
  0
LINE
  5
21A2
330
1E
100
AcDbEntity
  8
TEXT
100
AcDbLine
 10
255.7791288633183
 20
247.9524516371843
 30
0.0
 11
256.9391288633183
 21
247.9524516371843
 31
0.0
  0
LINE
  5
21A3
330
1E
100
AcDbEntity
  8
TEXT
100
AcDbLine
 10
255.7791288633183
 20
247.3524516371843
 30
0.0
 11
255.7791288633183
 21
247.9524516371843
 31
0.0
  0
LINE
  5
21A4
330
1E
100
AcDbEntity
  8
TEXT
100
AcDbLine
 10
261.7791288633183
 20
247.3524516371843
 30
0.0
 11
255.7791288633183
 21
247.3524516371843
 31
0.0
  0
LINE
  5
21A5
330
1E
100
AcDbEntity
  8
TEXT
100
AcDbLine
 10
261.7791288633183
 20
247.9524516371843
 30
0.0
 11
261.7791288633183
 21
247.3524516371843
 31
0.0
  0
LINE
  5
21A6
330
1E
100
AcDbEntity
  8
TEXT
100
AcDbLine
 10
260.6191288633183
 20
247.9524516371843
 30
0.0
 11
261.7791288633183
 21
247.9524516371843
 31
0.0
  0
ARC
  5
21A7
330
1E
100
AcDbEntity
  8
TEXT
100
AcDbCircle
 10
260.6191288633183
 20
248.1524516371843
 30
0.0
 40
0.2
100
AcDbArc
 50
180.0
 51
270.0
  0
LINE
  5
21A8
330
1E
100
AcDbEntity
  8
TEXT
100
AcDbLine
 10
260.4191288633183
 20
248.2924516371843
 30
0.0
 11
260.4191288633183
 21
248.1524516371843
 31
0.0
  0
LINE
  5
21A9
330
1E
100
AcDbEntity
  8
TEXT
100
AcDbLine
 10
262.1191288633184
 20
248.2924516371843
 30
0.0
 11
260.4191288633183
 21
248.2924516371843
 31
0.0
  0
LINE
  5
21AA
330
1E
100
AcDbEntity
  8
TEXT
100
AcDbLine
 10
262.1191288633184
 20
246.9524516371842
 30
0.0
 11
262.1191288633184
 21
248.2924516371843
 31
0.0
  0
LINE
  5
21AB
330
1E
100
AcDbEntity
  8
TEXT
100
AcDbLine
 10
261.7791288633183
 20
246.9524516371842
 30
0.0
 11
262.1191288633184
 21
246.9524516371842
 31
0.0
  0
ARC
  5
21AC
330
1E
100
AcDbEntity
  8
TEXT
100
AcDbCircle
 10
261.4291288633183
 20
246.9054516371843
 30
0.0
 40
0.353
100
AcDbArc
 50
172.3718503310002
 51
7.628149668999752
  0
LINE
  5
21AD
330
1E
100
AcDbEntity
  8
TEXT
100
AcDbLine
 10
260.4541288633184
 20
246.9524516371842
 30
0.0
 11
261.0791288633184
 21
246.9524516371842
 31
0.0
  0
ARC
  5
21AE
330
1E
100
AcDbEntity
  8
TEXT
100
AcDbCircle
 10
260.1041288633183
 20
246.9054516371843
 30
0.0
 40
0.353
100
AcDbArc
 50
172.3718503310002
 51
7.628149668999752
  0
LINE
  5
21AF
330
1E
100
AcDbEntity
  8
TEXT
100
AcDbLine
 10
259.1291288633183
 20
246.9524516371842
 30
0.0
 11
259.7541288633183
 21
246.9524516371842
 31
0.0
  0
ARC
  5
21B0
330
1E
100
AcDbEntity
  8
TEXT
100
AcDbCircle
 10
258.7791288633183
 20
246.9054516371843
 30
0.0
 40
0.353
100
AcDbArc
 50
172.3718503310002
 51
7.628149668999752
  0
LINE
  5
21B1
330
1E
100
AcDbEntity
  8
HILF
100
AcDbLine
 10
108.5281288633183
 20
244.8075343401808
 30
0.0
 11
108.5281288633183
 21
233.5754516371843
 31
0.0
  0
CIRCLE
  5
21B3
330
1E
100
AcDbEntity
  8
STEMPEL
100
AcDbCircle
 10
180.6271288633182
 20
239.1824516371843
 30
0.0
 40
2.75
  0
LINE
  5
21B4
330
1E
100
AcDbEntity
  8
MITTEL
100
AcDbLine
 10
180.6271288633182
 20
216.9324516371843
 30
0.0
 11
180.6271288633182
 21
261.4324516371843
 31
0.0
  0
LINE
  5
21B5
330
1E
100
AcDbEntity
  8
MITTEL
100
AcDbLine
 10
75.77712886331828
 20
239.1824516371843
 30
0.0
 11
285.4761288633183
 21
239.1824516371843
 31
0.0
  0
LINE
  5
21B7
330
1E
100
AcDbEntity
  8
STEMPEL
100
AcDbLine
 10
80.77712886331829
 20
230.1824516371842
 30
0.0
 11
80.77712886331829
 21
248.1824516371843
 31
0.0
  0
LINE
  5
21B9
330
1E
100
AcDbEntity
  8
STEMPEL
100
AcDbLine
 10
106.0101288633183
 20
224.1824516371843
 30
0.0
 11
86.7771288633183
 21
224.1824516371842
 31
0.0
  0
LINE
  5
21BA
330
1E
100
AcDbEntity
  8
STEMPEL
100
AcDbLine
 10
274.4761288633183
 20
224.1824516371842
 30
0.0
 11
255.2431288633183
 21
224.1824516371843
 31
0.0
  0
LINE
  5
21BC
330
1E
100
AcDbEntity
  8
STEMPEL
100
AcDbLine
 10
280.4761288633183
 20
248.1824516371843
 30
0.0
 11
280.4761288633183
 21
230.1824516371843
 31
0.0
  0
LINE
  5
21BE
330
1E
100
AcDbEntity
  8
STEMPEL
100
AcDbLine
 10
255.2431288633183
 20
254.1824516371843
 30
0.0
 11
274.4761288633183
 21
254.1824516371843
 31
0.0
  0
LINE
  5
21BF
330
1E
100
AcDbEntity
  8
STEMPEL
100
AcDbLine
 10
86.77712886331828
 20
254.1824516371843
 30
0.0
 11
106.0101288633183
 21
254.1824516371843
 31
0.0
  0
ARC
  5
21E9
330
1E
100
AcDbEntity
  8
STEMPEL
100
AcDbCircle
 10
273.4761288633183
 20
113.7831340009308
 30
0.0
 40
0.825
100
AcDbArc
 50
109.8044465770002
 51
116.0947175499988
  0
ARC
  5
21EA
330
1E
100
AcDbEntity
  8
STEMPEL
100
AcDbCircle
 10
273.4801288633183
 20
113.7761340009307
 30
0.0
 40
0.832
100
AcDbArc
 50
103.7919950169986
 51
109.8607746800007
  0
ARC
  5
21EB
330
1E
100
AcDbEntity
  8
STEMPEL
100
AcDbCircle
 10
273.4801288633183
 20
113.7761340009307
 30
0.0
 40
0.8339999999999999
100
AcDbArc
 50
96.67849485100063
 51
103.8009687570009
  0
ARC
  5
21EC
330
1E
100
AcDbEntity
  8
STEMPEL
100
AcDbCircle
 10
273.4791288633182
 20
113.7831340009308
 30
0.0
 40
0.8279999999999999
100
AcDbArc
 50
89.64007983999957
 51
96.67768667300004
  0
ARC
  5
21ED
330
1E
100
AcDbEntity
  8
STEMPEL
100
AcDbCircle
 10
273.4791288633182
 20
110.4311340009307
 30
0.0
 40
0.8269999999999999
100
AcDbArc
 50
263.322313327
 51
270.3599201600005
  0
ARC
  5
21EE
330
1E
100
AcDbEntity
  8
STEMPEL
100
AcDbCircle
 10
273.4801288633183
 20
110.4381340009307
 30
0.0
 40
0.833
100
AcDbArc
 50
256.199031242999
 51
263.3215051489993
  0
ARC
  5
21EF
330
1E
100
AcDbEntity
  8
STEMPEL
100
AcDbCircle
 10
273.4801288633183
 20
110.4381340009307
 30
0.0
 40
0.832
100
AcDbArc
 50
250.1392253199993
 51
256.2080049830014
  0
ARC
  5
21F0
330
1E
100
AcDbEntity
  8
STEMPEL
100
AcDbCircle
 10
273.4761288633183
 20
110.4311340009307
 30
0.0
 40
0.8259999999999999
100
AcDbArc
 50
243.9052824500011
 51
250.1955534229998
  0
LINE
  5
21F1
330
1E
100
AcDbEntity
  8
STEMPEL
100
AcDbLine
 10
273.1131288633183
 20
110.6031340009307
 30
0.0
 11
273.1131288633183
 21
109.6891340009308
 31
0.0
  0
LINE
  5
21F2
330
1E
100
AcDbEntity
  8
STEMPEL
100
AcDbLine
 10
256.7271288633183
 20
113.6101340009307
 30
0.0
 11
256.7271288633183
 21
114.6101340009307
 31
0.0
  0
LINE
  5
21F3
330
1E
100
AcDbEntity
  8
STEMPEL
100
AcDbLine
 10
256.7271288633183
 20
114.6101340009307
 30
0.0
 11
276.7271288633183
 21
114.6101340009307
 31
0.0
  0
LINE
  5
21F4
330
1E
100
AcDbEntity
  8
STEMPEL
100
AcDbLine
 10
273.1131288633183
 20
114.5251340009307
 30
0.0
 11
273.1131288633183
 21
113.6091340009308
 31
0.0
  0
LINE
  5
21F5
330
1E
100
AcDbEntity
  8
STEMPEL
100
AcDbLine
 10
276.7271288633183
 20
114.6101340009307
 30
0.0
 11
276.7271288633183
 21
113.6101340009307
 31
0.0
  0
LINE
  5
21F6
330
1E
100
AcDbEntity
  8
STEMPEL
100
AcDbLine
 10
276.7271288633183
 20
110.6031340009307
 30
0.0
 11
276.7271288633183
 21
109.6031340009307
 31
0.0
  0
LINE
  5
21F7
330
1E
100
AcDbEntity
  8
STEMPEL
100
AcDbLine
 10
276.7271288633183
 20
109.6031340009307
 30
0.0
 11
256.7271288633183
 21
109.6031340009308
 31
0.0
  0
LINE
  5
21F9
330
1E
100
AcDbEntity
  8
STEMPEL
100
AcDbLine
 10
256.7271288633183
 20
109.6031340009308
 30
0.0
 11
256.7271288633183
 21
110.6031340009307
 31
0.0
  0
LINE
  5
21FA
330
1E
100
AcDbEntity
  8
STEMPEL
100
AcDbLine
 10
259.2271288633183
 20
102.6031340009307
 30
0.0
 11
259.2271288633183
 21
109.6031340009307
 31
0.0
  0
LINE
  5
21FB
330
1E
100
AcDbEntity
  8
STEMPEL
100
AcDbLine
 10
274.2271288633183
 20
102.6031340009307
 30
0.0
 11
259.2271288633183
 21
102.6031340009307
 31
0.0
  0
LINE
  5
21FD
330
1E
100
AcDbEntity
  8
STEMPEL
100
AcDbLine
 10
266.7271288633183
 20
102.6031340009307
 30
0.0
 11
266.7271288633183
 21
109.6031340009307
 31
0.0
  0
LINE
  5
21FF
330
1E
100
AcDbEntity
  8
STEMPEL
100
AcDbLine
 10
274.2271288633183
 20
109.6031340009307
 30
0.0
 11
274.2271288633183
 21
102.6031340009307
 31
0.0
  0
LINE
  5
2200
330
1E
100
AcDbEntity
  8
STEMPEL
100
AcDbLine
 10
259.4771288633183
 20
125.5121340009307
 30
0.0
 11
259.4771288633183
 21
126.0121340009307
 31
0.0
  0
LINE
  5
2201
330
1E
100
AcDbEntity
  8
STEMPEL
100
AcDbLine
 10
273.9771288633183
 20
125.5121340009307
 30
0.0
 11
259.4771288633183
 21
125.5121340009307
 31
0.0
  0
LINE
  5
2202
330
1E
100
AcDbEntity
  8
STEMPEL
100
AcDbLine
 10
273.9771288633183
 20
126.0121340009307
 30
0.0
 11
273.9771288633183
 21
125.5121340009307
 31
0.0
  0
LINE
  5
2203
330
1E
100
AcDbEntity
  8
STEMPEL
100
AcDbLine
 10
259.4771288633183
 20
126.0121340009307
 30
0.0
 11
273.9771288633183
 21
126.0121340009307
 31
0.0
  0
LINE
  5
2208
330
1E
100
AcDbEntity
  8
HILF
100
AcDbLine
 10
263.4941288633183
 20
130.1451340009307
 30
0.0
 11
263.4251288633184
 21
130.4011340009307
 31
0.0
  0
LINE
  5
220B
330
1E
100
AcDbEntity
  8
HILF
100
AcDbLine
 10
263.4941288633183
 20
130.4101340009307
 30
0.0
 11
263.4941288633183
 21
126.0121340009307
 31
0.0
  0
LINE
  5
220C
330
1E
100
AcDbEntity
  8
HILF
100
AcDbLine
 10
269.9601288633182
 20
130.1451340009307
 30
0.0
 11
270.0281288633183
 21
130.4011340009307
 31
0.0
  0
LINE
  5
220F
330
1E
100
AcDbEntity
  8
HILF
100
AcDbLine
 10
269.9601288633182
 20
98.74513400093077
 30
0.0
 11
269.9601288633182
 21
102.6031340009307
 31
0.0
  0
LINE
  5
2210
330
1E
100
AcDbEntity
  8
STEMPEL
100
AcDbLine
 10
270.7271288633183
 20
99.51213400093076
 30
0.0
 11
262.7271288633183
 21
99.51213400093076
 31
0.0
  0
LINE
  5
2217
330
1E
100
AcDbEntity
  8
STEMPEL
100
AcDbLine
 10
262.7271288633183
 20
99.51213400093076
 30
0.0
 11
262.7271288633183
 21
102.6031340009307
 31
0.0
  0
LINE
  5
2218
330
1E
100
AcDbEntity
  8
STEMPEL
100
AcDbLine
 10
263.4941288633183
 20
98.74513400093077
 30
0.0
 11
262.7271288633183
 21
99.51213400093076
 31
0.0
  0
LINE
  5
2219
330
1E
100
AcDbEntity
  8
STEMPEL
100
AcDbLine
 10
269.9601288633182
 20
98.74513400093077
 30
0.0
 11
263.4941288633183
 21
98.74513400093077
 31
0.0
  0
LINE
  5
221A
330
1E
100
AcDbEntity
  8
STEMPEL
100
AcDbLine
 10
270.7271288633183
 20
99.51213400093076
 30
0.0
 11
269.9601288633182
 21
98.74513400093077
 31
0.0
  0
LINE
  5
221B
330
1E
100
AcDbEntity
  8
STEMPEL
100
AcDbLine
 10
270.7271288633183
 20
130.4101340009307
 30
0.0
 11
270.7271288633183
 21
126.0121340009307
 31
0.0
  0
ARC
  5
2268
330
1E
100
AcDbEntity
  8
STEMPEL
100
AcDbCircle
 10
173.5376807345183
 20
41.95890097798368
 30
0.0
 40
3.848390227184345
100
AcDbArc
 50
52.11936428282204
 51
121.4691945240799
  0
ARC
  5
2269
330
1E
100
AcDbEntity
  8
STEMPEL
100
AcDbCircle
 10
173.5381807345182
 20
23.9005241660265
 30
0.0
 40
3.848390227184345
100
AcDbArc
 50
238.5308054759201
 51
307.8806357171777
  0
LINE
  5
226A
330
1E
100
AcDbEntity
  8
STEMPEL
100
AcDbLine
 10
173.538872024906
 20
20.05213400093079
 30
0.0
 11
187.7153857017183
 21
20.05213400093076
 31
0.0
  0
LINE
  5
226B
330
1E
100
AcDbEntity
  8
STEMPEL
100
AcDbLine
 10
171.1746980249183
 20
45.03690968368554
 30
0.0
 11
171.1751980249182
 21
20.82251546032464
 31
0.0
  0
LINE
  5
226C
330
1E
100
AcDbEntity
  8
STEMPEL
100
AcDbLine
 10
171.1751980249182
 20
20.82251546032465
 30
0.0
 11
171.7000695175376
 21
20.51948076277096
 31
0.0
  0
LINE
  5
226D
330
1E
100
AcDbEntity
  8
STEMPEL
100
AcDbLine
 10
171.1746980249182
 20
45.03690968368553
 30
0.0
 11
173.6785026860242
 21
46.4824819787731
 31
0.0
  0
ARC
  5
226E
330
1E
100
AcDbEntity
  8
STEMPEL
100
AcDbCircle
 10
180.6266288633183
 20
31.63006114307942
 30
0.0
 40
14.17723
100
AcDbArc
 50
70.52782738138472
 51
109.4721726186152
  0
ARC
  5
226F
330
1E
100
AcDbEntity
  8
STEMPEL
100
AcDbCircle
 10
180.6271288633182
 20
34.22936400093077
 30
0.0
 40
14.17723
100
AcDbArc
 50
250.5278273813848
 51
289.4721726186153
  0
LINE
  5
2270
330
1E
100
AcDbEntity
  8
STEMPEL
100
AcDbLine
 10
175.9006634441182
 20
44.99640325038109
 30
0.0
 11
175.9011634441183
 21
20.86302189362911
 31
0.0
  0
LINE
  5
2271
330
1E
100
AcDbEntity
  8
STEMPEL
100
AcDbLine
 10
190.0785597017183
 20
45.03690968368552
 30
0.0
 11
190.0790597017183
 21
20.82251546032463
 31
0.0
  0
LINE
  5
2272
330
1E
100
AcDbEntity
  8
STEMPEL
100
AcDbLine
 10
185.3525942825182
 20
44.99640325038109
 30
0.0
 11
185.3530942825182
 21
20.86302189362908
 31
0.0
  0
ARC
  5
2273
330
1E
100
AcDbEntity
  8
STEMPEL
100
AcDbCircle
 10
187.7160769921183
 20
23.9005241660265
 30
0.0
 40
3.848390227184345
100
AcDbArc
 50
232.1193642828222
 51
301.4691945240799
  0
LINE
  5
2274
330
1E
100
AcDbEntity
  8
STEMPEL
100
AcDbLine
 10
187.7092988190148
 20
20.05213400093076
 30
0.0
 11
187.7153857017047
 21
20.05213400093076
 31
0.0
  0
LINE
  5
2275
330
1E
100
AcDbEntity
  8
STEMPEL
100
AcDbLine
 10
190.0790597017183
 20
20.82251546032465
 30
0.0
 11
189.554188209099
 21
20.51948076277096
 31
0.0
  0
ARC
  5
2276
330
1E
100
AcDbEntity
  8
STEMPEL
100
AcDbCircle
 10
187.7155769921182
 20
41.95890097798368
 30
0.0
 40
3.848390227184345
100
AcDbArc
 50
58.5308054759201
 51
127.8806357171779
  0
LINE
  5
2277
330
1E
100
AcDbEntity
  8
STEMPEL
100
AcDbLine
 10
187.7087988190148
 20
45.80729114307942
 30
0.0
 11
187.7148857017045
 21
45.80729114307942
 31
0.0
  0
LINE
  5
2278
330
1E
100
AcDbEntity
  8
STEMPEL
100
AcDbLine
 10
190.0785597017183
 20
45.03690968368553
 30
0.0
 11
187.5749555037295
 21
46.48236624133851
 31
0.0
  0
LINE
  5
2279
330
1E
100
AcDbEntity
  8
STEMPEL
100
AcDbLine
 10
273.9159368181343
 20
137.732283637563
 30
0.0
 11
273.9159368181343
 21
133.4081340009307
 31
0.0
  0
LINE
  5
227A
330
1E
100
AcDbEntity
  8
STEMPEL
100
AcDbLine
 10
273.9159368181343
 20
138.1187496118642
 30
0.0
 11
273.5167379215376
 21
138.3492272022745
 31
0.0
  0
LINE
  5
227B
330
1E
100
AcDbEntity
  8
STEMPEL
100
AcDbLine
 10
273.9159368181343
 20
138.0879418356608
 30
0.0
 11
273.9159368181343
 21
138.1187496118642
 31
0.0
  0
LINE
  5
227C
330
1E
100
AcDbEntity
  8
STEMPEL
100
AcDbLine
 10
273.9159368181343
 20
137.732283637563
 30
0.0
 11
273.9159368181343
 21
137.9943213299115
 31
0.0
  0
LINE
  5
227D
330
1E
100
AcDbEntity
  8
STEMPEL
100
AcDbLine
 10
273.9159368181343
 20
137.9943213299115
 30
0.0
 11
273.9159368181343
 21
138.0879418356608
 31
0.0
  0
LINE
  5
227E
330
1E
100
AcDbEntity
  8
STEMPEL
100
AcDbLine
 10
272.1135795880772
 20
138.7046748009308
 30
0.0
 11
272.118209058124
 21
138.7046748009308
 31
0.0
  0
LINE
  5
227F
330
1E
100
AcDbEntity
  8
STEMPEL
100
AcDbLine
 10
270.3215328407263
 20
137.732283637563
 30
0.0
 11
270.3215328407263
 21
133.4081340009307
 31
0.0
  0
LINE
  5
2280
330
1E
100
AcDbEntity
  8
STEMPEL
100
AcDbLine
 10
270.3215328407263
 20
137.732283637563
 30
0.0
 11
270.3215328407263
 21
138.0879418356608
 31
0.0
  0
ARC
  5
2281
330
1E
100
AcDbEntity
  8
STEMPEL
100
AcDbCircle
 10
272.1187348294303
 20
135.7777238630673
 30
0.0
 40
2.926950985085932
100
AcDbArc
 50
58.53080547592148
 51
127.8806357171789
  0
LINE
  5
2282
330
1E
100
AcDbEntity
  8
STEMPEL
100
AcDbLine
 10
263.1327248859103
 20
137.732283637563
 30
0.0
 11
263.1327248859103
 21
133.4081340009307
 31
0.0
  0
LINE
  5
2283
330
1E
100
AcDbEntity
  8
STEMPEL
100
AcDbLine
 10
263.1327248859103
 20
137.732283637563
 30
0.0
 11
263.1327248859103
 21
138.0879418356608
 31
0.0
  0
ARC
  5
2284
330
1E
100
AcDbEntity
  8
STEMPEL
100
AcDbCircle
 10
261.3355228972062
 20
135.7777238630673
 30
0.0
 40
2.926950985085932
100
AcDbArc
 50
52.11936428282104
 51
121.4691945240785
  0
LINE
  5
2285
330
1E
100
AcDbEntity
  8
STEMPEL
100
AcDbLine
 10
261.3360486684929
 20
138.7046748009308
 30
0.0
 11
272.1182090581343
 21
138.7046748009308
 31
0.0
  0
ARC
  5
2286
330
1E
100
AcDbEntity
  8
STEMPEL
100
AcDbCircle
 10
266.7271288633183
 20
127.9219696009308
 30
0.0
 40
10.7827052
100
AcDbArc
 50
70.52782738138624
 51
109.4721726186137
  0
LINE
  5
2287
330
1E
100
AcDbEntity
  8
MITTEL
100
AcDbLine
 10
266.7271288633183
 20
93.74513400093077
 30
0.0
 11
266.7271288633183
 21
143.7046748009308
 31
0.0
  0
LWPOLYLINE
  5
22AF
330
1E
100
AcDbEntity
  8
STEMPEL
100
AcDbPolyline
 90
        6
 70
     1
 43
0.0
 10
90.77535211358577
 20
245.6824516371843
 10
87.02257536385321
 20
239.1824516371843
 10
90.77535211358577
 20
232.6824516371843
 10
98.28090561305089
 20
232.6824516371843
 10
102.0336823627834
 20
239.1824516371843
 10
98.28090561305089
 20
245.6824516371843
  0
CIRCLE
  5
22B0
330
1E
100
AcDbEntity
  8
STEMPEL
100
AcDbCircle
 10
94.52812886331832
 20
239.1824516371843
 30
0.0
 40
6.5
  0
LINE
  5
22B1
330
1E
100
AcDbEntity
  8
MITTEL
100
AcDbLine
 10
94.52812886331832
 20
250.6824516371843
 30
0.0
 11
94.52812886331832
 21
227.6824516371843
 31
0.0
  0
LINE
  5
22B2
330
1E
100
AcDbEntity
  8
HILF
100
AcDbLine
 10
263.4941288633183
 20
102.6031340009307
 30
0.0
 11
263.4941288633183
 21
98.74513400093077
 31
0.0
  0
LINE
  5
22B3
330
1E
100
AcDbEntity
  8
STEMPEL
100
AcDbLine
 10
262.7271288633183
 20
114.6101340009307
 30
0.0
 11
262.7271288633183
 21
125.5121340009307
 31
0.0
  0
LINE
  5
22B4
330
1E
100
AcDbEntity
  8
HILF
100
AcDbLine
 10
269.9601288633182
 20
114.6101340009307
 30
0.0
 11
269.9601288633182
 21
125.5121340009307
 31
0.0
  0
LINE
  5
22B5
330
1E
100
AcDbEntity
  8
STEMPEL
100
AcDbLine
 10
270.7271288633183
 20
102.6031340009307
 30
0.0
 11
270.7271288633183
 21
99.51213400093076
 31
0.0
  0
LINE
  5
22B6
330
1E
100
AcDbEntity
  8
STEMPEL
100
AcDbLine
 10
270.7271288633183
 20
125.5121340009307
 30
0.0
 11
270.7271288633183
 21
114.6101340009307
 31
0.0
  0
LINE
  5
22B7
330
1E
100
AcDbEntity
  8
HILF
100
AcDbLine
 10
269.9601288633182
 20
126.0121340009307
 30
0.0
 11
269.9601288633182
 21
130.4101340009307
 31
0.0
  0
LINE
  5
22B8
330
1E
100
AcDbEntity
  8
HILF
100
AcDbLine
 10
263.4941288633183
 20
125.5121340009307
 30
0.0
 11
263.4941288633183
 21
114.6101340009307
 31
0.0
  0
LINE
  5
22B9
330
1E
100
AcDbEntity
  8
STEMPEL
100
AcDbLine
 10
262.7271288633183
 20
126.0121340009307
 30
0.0
 11
262.7271288633183
 21
130.4101340009307
 31
0.0
  0
ARC
  5
22BA
330
1E
100
AcDbEntity
  8
STEMPEL
100
AcDbCircle
 10
180.6271288633182
 20
121.9691340009307
 30
0.0
 40
66.0
100
AcDbArc
 50
190.9558882730372
 51
349.1214075818485
  0
ARC
  5
22BB
330
1E
100
AcDbEntity
  8
STEMPEL
100
AcDbCircle
 10
180.6271288633182
 20
121.9691340009307
 30
0.0
 40
76.0
100
AcDbArc
 50
190.9554570536421
 51
349.1116682896258
  0
LINE
  5
22BE
330
1E
100
AcDbEntity
  8
STEMPEL
100
AcDbLine
 10
259.5383209085023
 20
137.732283637563
 30
0.0
 11
259.5383209085023
 21
133.4081340009307
 31
0.0
  0
LINE
  5
22BF
330
1E
100
AcDbEntity
  8
STEMPEL
100
AcDbLine
 10
259.5383209085023
 20
137.9943213299115
 30
0.0
 11
259.5383209085023
 21
138.0879418356608
 31
0.0
  0
LINE
  5
22C0
330
1E
100
AcDbEntity
  8
STEMPEL
100
AcDbLine
 10
259.5383209085023
 20
137.732283637563
 30
0.0
 11
259.5383209085023
 21
137.9943213299115
 31
0.0
  0
LINE
  5
22C1
330
1E
100
AcDbEntity
  8
STEMPEL
100
AcDbLine
 10
259.5383209085023
 20
138.0879418356608
 30
0.0
 11
259.5383209085023
 21
138.1187496118642
 31
0.0
  0
LINE
  5
22C2
330
1E
100
AcDbEntity
  8
STEMPEL
100
AcDbLine
 10
259.5383209085023
 20
138.0879418356608
 30
0.0
 11
259.5383209085023
 21
138.1187496118642
 31
0.0
  0
LINE
  5
22C3
330
1E
100
AcDbEntity
  8
STEMPEL
100
AcDbLine
 10
259.5383209085023
 20
138.1187496118642
 30
0.0
 11
259.937519805099
 21
138.3492272022745
 31
0.0
  0
LINE
  5
22C5
330
1E
100
AcDbEntity
  8
STEMPEL
100
AcDbLine
 10
245.4256338893685
 20
134.5052317346336
 30
0.0
 11
255.2434805497489
 21
136.4052020600281
 31
0.0
  0
ARC
  5
22C6
330
1E
100
AcDbEntity
  8
Verdeckt
100
AcDbCircle
 10
180.6271288633182
 20
121.9691340009307
 30
0.0
 40
70.0
100
AcDbArc
 50
10.95355207934552
 51
168.9776000426019
  0
ARC
  5
22C7
330
1E
100
AcDbEntity
  8
Verdeckt
100
AcDbCircle
 10
180.6271288633182
 20
121.9691340009307
 30
0.0
 40
73.0
100
AcDbArc
 50
10.95201632042836
 51
168.9804680830475
  0
ARC
  5
22C8
330
1E
100
AcDbEntity
  8
Verdeckt
100
AcDbCircle
 10
180.6271288633182
 20
121.9691340009307
 30
0.0
 40
70.0
100
AcDbArc
 50
190.9557010006141
 51
349.109407517407
  0
ARC
  5
22C9
330
1E
100
AcDbEntity
  8
Verdeckt
100
AcDbCircle
 10
180.6271288633182
 20
121.9691340009307
 30
0.0
 40
73.0
100
AcDbArc
 50
190.9555740145191
 51
349.1117106644284
  0
ARC
  5
22CA
330
1E
100
AcDbEntity
  8
STEMPEL
100
AcDbCircle
 10
180.6271288633182
 20
121.9691340009307
 30
0.0
 40
66.0
100
AcDbArc
 50
10.94933373823835
 51
168.9733704068761
  0
ARC
  5
22CB
330
1E
100
AcDbEntity
  8
STEMPEL
100
AcDbCircle
 10
180.6271288633182
 20
121.9691340009307
 30
0.0
 40
76.0
100
AcDbArc
 50
10.94976495763338
 51
168.9831096990988
  0
ARC
  5
22CC
330
1E
100
AcDbEntity
  8
STEMPEL
100
AcDbCircle
 10
255.2429132457128
 20
136.4081340009307
 30
0.0
 40
3.0
100
AcDbArc
 50
190.9520163204282
 51
270.0
  0
ARC
  5
22CD
330
1E
100
AcDbEntity
  8
STEMPEL
100
AcDbCircle
 10
255.2589268049463
 20
107.6131340009307
 30
0.0
 40
3.0
100
AcDbArc
 50
90.0
 51
169.111710664429
  0
ARC
  5
22CE
330
1E
100
AcDbEntity
  8
STEMPEL
100
AcDbCircle
 10
255.2425261952363
 20
136.4101340009307
 30
0.0
 40
6.0
100
AcDbArc
 50
190.9535520793453
 51
269.9999999999998
  0
ARC
  5
22CF
330
1E
100
AcDbEntity
  8
STEMPEL
100
AcDbCircle
 10
255.258349669359
 20
107.6101340009308
 30
0.0
 40
6.0
100
AcDbArc
 50
90.00000000000026
 51
169.1094075174069
  0
ARC
  5
22D1
330
1E
100
AcDbEntity
  8
STEMPEL
100
AcDbCircle
 10
105.9959080572775
 20
107.6101340009308
 30
0.0
 40
6.0
100
AcDbArc
 50
10.89059248259311
 51
89.99999999999976
  0
ARC
  5
22D2
330
1E
100
AcDbEntity
  8
STEMPEL
100
AcDbCircle
 10
106.0117315314002
 20
136.4101340009307
 30
0.0
 40
6.0
100
AcDbArc
 50
270.0000000000002
 51
349.0464479206547
  0
ARC
  5
22D3
330
1E
100
AcDbEntity
  8
STEMPEL
100
AcDbCircle
 10
105.9953309216902
 20
107.6131340009307
 30
0.0
 40
3.0
100
AcDbArc
 50
10.88828933557096
 51
90.0
  0
ARC
  5
22D4
330
1E
100
AcDbEntity
  8
STEMPEL
100
AcDbCircle
 10
106.0113444809237
 20
136.4081340009307
 30
0.0
 40
3.0
100
AcDbArc
 50
270.0
 51
349.0479836795718
  0
LINE
  5
22D5
330
1E
100
AcDbEntity
  8
STEMPEL
100
AcDbLine
 10
115.8286238372681
 20
134.5052317346336
 30
0.0
 11
106.0107771768876
 21
136.4052020600281
 31
0.0
  0
LINE
  5
22D6
330
1E
100
AcDbEntity
  8
STEMPEL
100
AcDbLine
 10
101.7159368181342
 20
138.1187496118642
 30
0.0
 11
101.3167379215375
 21
138.3492272022745
 31
0.0
  0
LINE
  5
22D7
330
1E
100
AcDbEntity
  8
STEMPEL
100
AcDbLine
 10
101.7159368181342
 20
138.0879418356608
 30
0.0
 11
101.7159368181342
 21
138.1187496118642
 31
0.0
  0
LINE
  5
22D8
330
1E
100
AcDbEntity
  8
STEMPEL
100
AcDbLine
 10
101.7159368181342
 20
138.0879418356608
 30
0.0
 11
101.7159368181342
 21
138.1187496118642
 31
0.0
  0
LINE
  5
22D9
330
1E
100
AcDbEntity
  8
STEMPEL
100
AcDbLine
 10
101.7159368181342
 20
137.732283637563
 30
0.0
 11
101.7159368181342
 21
137.9943213299115
 31
0.0
  0
LINE
  5
22DA
330
1E
100
AcDbEntity
  8
STEMPEL
100
AcDbLine
 10
101.7159368181342
 20
137.9943213299115
 30
0.0
 11
101.7159368181342
 21
138.0879418356608
 31
0.0
  0
LINE
  5
22DB
330
1E
100
AcDbEntity
  8
STEMPEL
100
AcDbLine
 10
101.7159368181342
 20
137.732283637563
 30
0.0
 11
101.7159368181342
 21
133.4081340009307
 31
0.0
  0
LINE
  5
22DC
330
1E
100
AcDbEntity
  8
STEMPEL
100
AcDbLine
 10
98.52712886331824
 20
126.0121340009307
 30
0.0
 11
98.52712886331824
 21
130.4101340009307
 31
0.0
  0
LINE
  5
22DD
330
1E
100
AcDbEntity
  8
HILF
100
AcDbLine
 10
97.7601288633182
 20
125.5121340009307
 30
0.0
 11
97.7601288633182
 21
114.6101340009307
 31
0.0
  0
LINE
  5
22DE
330
1E
100
AcDbEntity
  8
HILF
100
AcDbLine
 10
91.29412886331829
 20
126.0121340009307
 30
0.0
 11
91.29412886331834
 21
130.4101340009307
 31
0.0
  0
LINE
  5
22DF
330
1E
100
AcDbEntity
  8
STEMPEL
100
AcDbLine
 10
90.52712886331823
 20
125.5121340009307
 30
0.0
 11
90.52712886331823
 21
114.6101340009307
 31
0.0
  0
LINE
  5
22E0
330
1E
100
AcDbEntity
  8
STEMPEL
100
AcDbLine
 10
90.52712886331823
 20
102.6031340009307
 30
0.0
 11
90.52712886331823
 21
99.51213400093076
 31
0.0
  0
LINE
  5
22E1
330
1E
100
AcDbEntity
  8
HILF
100
AcDbLine
 10
91.29412886331829
 20
114.6101340009307
 30
0.0
 11
91.29412886331829
 21
125.5121340009307
 31
0.0
  0
LINE
  5
22E2
330
1E
100
AcDbEntity
  8
STEMPEL
100
AcDbLine
 10
98.52712886331824
 20
114.6101340009307
 30
0.0
 11
98.52712886331824
 21
125.5121340009307
 31
0.0
  0
LINE
  5
22E3
330
1E
100
AcDbEntity
  8
HILF
100
AcDbLine
 10
97.7601288633182
 20
102.6031340009307
 30
0.0
 11
97.7601288633182
 21
98.74513400093077
 31
0.0
  0
LINE
  5
22E4
330
1E
100
AcDbEntity
  8
MITTEL
100
AcDbLine
 10
94.52712886331823
 20
93.74513400093077
 30
0.0
 11
94.52712886331823
 21
143.7046748009308
 31
0.0
  0
ARC
  5
22E5
330
1E
100
AcDbEntity
  8
STEMPEL
100
AcDbCircle
 10
94.52712886331823
 20
127.9219696009308
 30
0.0
 40
10.7827052
100
AcDbArc
 50
70.52782738138626
 51
109.4721726186137
  0
LINE
  5
22E6
330
1E
100
AcDbEntity
  8
STEMPEL
100
AcDbLine
 10
99.91820905814359
 20
138.7046748009308
 30
0.0
 11
89.13604866850221
 21
138.7046748009308
 31
0.0
  0
ARC
  5
22E7
330
1E
100
AcDbEntity
  8
STEMPEL
100
AcDbCircle
 10
99.91873482943027
 20
135.7777238630673
 30
0.0
 40
2.926950985085932
100
AcDbArc
 50
58.53080547592149
 51
127.8806357171789
  0
LINE
  5
22E8
330
1E
100
AcDbEntity
  8
STEMPEL
100
AcDbLine
 10
98.12153284072621
 20
137.732283637563
 30
0.0
 11
98.12153284072621
 21
138.0879418356608
 31
0.0
  0
LINE
  5
22E9
330
1E
100
AcDbEntity
  8
STEMPEL
100
AcDbLine
 10
98.12153284072621
 20
137.732283637563
 30
0.0
 11
98.12153284072621
 21
133.4081340009307
 31
0.0
  0
ARC
  5
22EA
330
1E
100
AcDbEntity
  8
STEMPEL
100
AcDbCircle
 10
89.13552289720621
 20
135.7777238630673
 30
0.0
 40
2.926950985085932
100
AcDbArc
 50
52.11936428282106
 51
121.4691945240785
  0
LINE
  5
22EB
330
1E
100
AcDbEntity
  8
STEMPEL
100
AcDbLine
 10
90.93272488591026
 20
137.732283637563
 30
0.0
 11
90.93272488591026
 21
138.0879418356608
 31
0.0
  0
LINE
  5
22EC
330
1E
100
AcDbEntity
  8
STEMPEL
100
AcDbLine
 10
90.93272488591026
 20
137.732283637563
 30
0.0
 11
90.93272488591026
 21
133.4081340009307
 31
0.0
  0
LINE
  5
22ED
330
1E
100
AcDbEntity
  8
STEMPEL
100
AcDbLine
 10
89.14067813855934
 20
138.7046748009308
 30
0.0
 11
89.13604866851256
 21
138.7046748009308
 31
0.0
  0
LINE
  5
22EE
330
1E
100
AcDbEntity
  8
STEMPEL
100
AcDbLine
 10
87.33832090850228
 20
137.9943213299115
 30
0.0
 11
87.33832090850228
 21
138.0879418356608
 31
0.0
  0
LINE
  5
22EF
330
1E
100
AcDbEntity
  8
STEMPEL
100
AcDbLine
 10
87.33832090850228
 20
137.732283637563
 30
0.0
 11
87.33832090850228
 21
137.9943213299115
 31
0.0
  0
LINE
  5
22F0
330
1E
100
AcDbEntity
  8
STEMPEL
100
AcDbLine
 10
87.33832090850228
 20
138.0879418356608
 30
0.0
 11
87.33832090850228
 21
138.1187496118642
 31
0.0
  0
LINE
  5
22F1
330
1E
100
AcDbEntity
  8
STEMPEL
100
AcDbLine
 10
87.33832090850228
 20
138.1187496118642
 30
0.0
 11
87.73751980509894
 21
138.3492272022745
 31
0.0
  0
LINE
  5
22F2
330
1E
100
AcDbEntity
  8
STEMPEL
100
AcDbLine
 10
87.33832090850228
 20
137.732283637563
 30
0.0
 11
87.33832090850228
 21
133.4081340009307
 31
0.0
  0
LINE
  5
22F3
330
1E
100
AcDbEntity
  8
STEMPEL
100
AcDbLine
 10
90.52712886331823
 20
130.4101340009307
 30
0.0
 11
90.52712886331823
 21
126.0121340009307
 31
0.0
  0
LINE
  5
22F4
330
1E
100
AcDbEntity
  8
STEMPEL
100
AcDbLine
 10
90.52712886331823
 20
99.51213400093076
 30
0.0
 11
91.29412886331829
 21
98.74513400093077
 31
0.0
  0
LINE
  5
22F5
330
1E
100
AcDbEntity
  8
STEMPEL
100
AcDbLine
 10
91.29412886331829
 20
98.74513400093077
 30
0.0
 11
97.7601288633182
 21
98.74513400093077
 31
0.0
  0
LINE
  5
22F6
330
1E
100
AcDbEntity
  8
STEMPEL
100
AcDbLine
 10
97.7601288633182
 20
98.74513400093077
 30
0.0
 11
98.52712886331824
 21
99.51213400093076
 31
0.0
  0
LINE
  5
22F7
330
1E
100
AcDbEntity
  8
STEMPEL
100
AcDbLine
 10
98.52712886331824
 20
99.51213400093076
 30
0.0
 11
98.52712886331824
 21
102.6031340009307
 31
0.0
  0
LINE
  5
22F8
330
1E
100
AcDbEntity
  8
STEMPEL
100
AcDbLine
 10
90.52712886331823
 20
99.51213400093076
 30
0.0
 11
98.52712886331824
 21
99.51213400093076
 31
0.0
  0
LINE
  5
22F9
330
1E
100
AcDbEntity
  8
HILF
100
AcDbLine
 10
91.29412886331829
 20
98.74513400093077
 30
0.0
 11
91.29412886331829
 21
102.6031340009307
 31
0.0
  0
LINE
  5
22FA
330
1E
100
AcDbEntity
  8
HILF
100
AcDbLine
 10
91.29412886331829
 20
130.1451340009307
 30
0.0
 11
91.2261288633182
 21
130.4011340009307
 31
0.0
  0
LINE
  5
22FB
330
1E
100
AcDbEntity
  8
HILF
100
AcDbLine
 10
97.7601288633182
 20
130.4101340009307
 30
0.0
 11
97.7601288633182
 21
126.0121340009307
 31
0.0
  0
LINE
  5
22FC
330
1E
100
AcDbEntity
  8
HILF
100
AcDbLine
 10
97.7601288633182
 20
130.1451340009307
 30
0.0
 11
97.82912886331814
 21
130.4011340009307
 31
0.0
  0
LINE
  5
22FD
330
1E
100
AcDbEntity
  8
STEMPEL
100
AcDbLine
 10
101.7771288633182
 20
126.0121340009307
 30
0.0
 11
87.27712886331824
 21
126.0121340009307
 31
0.0
  0
LINE
  5
22FE
330
1E
100
AcDbEntity
  8
STEMPEL
100
AcDbLine
 10
87.27712886331824
 20
126.0121340009307
 30
0.0
 11
87.27712886331824
 21
125.5121340009307
 31
0.0
  0
LINE
  5
22FF
330
1E
100
AcDbEntity
  8
STEMPEL
100
AcDbLine
 10
87.27712886331824
 20
125.5121340009307
 30
0.0
 11
101.7771288633182
 21
125.5121340009307
 31
0.0
  0
LINE
  5
2300
330
1E
100
AcDbEntity
  8
STEMPEL
100
AcDbLine
 10
101.7771288633182
 20
125.5121340009307
 30
0.0
 11
101.7771288633182
 21
126.0121340009307
 31
0.0
  0
LINE
  5
2301
330
1E
100
AcDbEntity
  8
STEMPEL
100
AcDbLine
 10
87.02712886331823
 20
109.6031340009307
 30
0.0
 11
87.02712886331823
 21
102.6031340009307
 31
0.0
  0
LINE
  5
2302
330
1E
100
AcDbEntity
  8
STEMPEL
100
AcDbLine
 10
94.52712886331823
 20
102.6031340009307
 30
0.0
 11
94.52712886331823
 21
109.6031340009307
 31
0.0
  0
LINE
  5
2303
330
1E
100
AcDbEntity
  8
STEMPEL
100
AcDbLine
 10
87.02712886331823
 20
102.6031340009307
 30
0.0
 11
102.0271288633182
 21
102.6031340009307
 31
0.0
  0
LINE
  5
2304
330
1E
100
AcDbEntity
  8
STEMPEL
100
AcDbLine
 10
102.0271288633182
 20
102.6031340009307
 30
0.0
 11
102.0271288633182
 21
109.6031340009307
 31
0.0
  0
LINE
  5
2305
330
1E
100
AcDbEntity
  8
STEMPEL
100
AcDbLine
 10
104.5271288633182
 20
109.6031340009308
 30
0.0
 11
104.5271288633182
 21
110.6031340009307
 31
0.0
  0
LINE
  5
2306
330
1E
100
AcDbEntity
  8
STEMPEL
100
AcDbLine
 10
84.52712886331823
 20
109.6031340009307
 30
0.0
 11
104.5271288633182
 21
109.6031340009308
 31
0.0
  0
LINE
  5
2307
330
1E
100
AcDbEntity
  8
STEMPEL
100
AcDbLine
 10
84.52712886331823
 20
110.6031340009307
 30
0.0
 11
84.52712886331823
 21
109.6031340009307
 31
0.0
  0
LINE
  5
2308
330
1E
100
AcDbEntity
  8
STEMPEL
100
AcDbLine
 10
84.52712886331823
 20
114.6101340009307
 30
0.0
 11
84.52712886331823
 21
113.6101340009307
 31
0.0
  0
LINE
  5
2309
330
1E
100
AcDbEntity
  8
STEMPEL
100
AcDbLine
 10
88.14112886331827
 20
114.5251340009307
 30
0.0
 11
88.14112886331827
 21
113.6091340009308
 31
0.0
  0
LINE
  5
230A
330
1E
100
AcDbEntity
  8
STEMPEL
100
AcDbLine
 10
104.5271288633182
 20
114.6101340009307
 30
0.0
 11
84.52712886331823
 21
114.6101340009307
 31
0.0
  0
LINE
  5
230B
330
1E
100
AcDbEntity
  8
STEMPEL
100
AcDbLine
 10
104.5271288633182
 20
113.6101340009307
 30
0.0
 11
104.5271288633182
 21
114.6101340009307
 31
0.0
  0
LINE
  5
230C
330
1E
100
AcDbEntity
  8
STEMPEL
100
AcDbLine
 10
88.14112886331827
 20
110.6031340009307
 30
0.0
 11
88.14112886331827
 21
109.6891340009308
 31
0.0
  0
ARC
  5
230D
330
1E
100
AcDbEntity
  8
STEMPEL
100
AcDbCircle
 10
87.77812886331821
 20
110.4311340009307
 30
0.0
 40
0.8259999999999999
100
AcDbArc
 50
289.8044465770002
 51
296.0947175499988
  0
ARC
  5
230E
330
1E
100
AcDbEntity
  8
STEMPEL
100
AcDbCircle
 10
87.7741288633182
 20
110.4381340009307
 30
0.0
 40
0.832
100
AcDbArc
 50
283.7919950169986
 51
289.8607746800007
  0
ARC
  5
230F
330
1E
100
AcDbEntity
  8
STEMPEL
100
AcDbCircle
 10
87.7741288633182
 20
110.4381340009307
 30
0.0
 40
0.833
100
AcDbArc
 50
276.6784948510007
 51
283.8009687570009
  0
ARC
  5
2310
330
1E
100
AcDbEntity
  8
STEMPEL
100
AcDbCircle
 10
87.77512886331829
 20
110.4311340009307
 30
0.0
 40
0.8269999999999999
100
AcDbArc
 50
269.6400798399996
 51
276.677686673
  0
ARC
  5
2311
330
1E
100
AcDbEntity
  8
STEMPEL
100
AcDbCircle
 10
87.77512886331829
 20
113.7831340009308
 30
0.0
 40
0.8279999999999999
100
AcDbArc
 50
83.32231332699997
 51
90.35992016000042
  0
ARC
  5
2312
330
1E
100
AcDbEntity
  8
STEMPEL
100
AcDbCircle
 10
87.7741288633182
 20
113.7761340009307
 30
0.0
 40
0.8339999999999999
100
AcDbArc
 50
76.19903124299906
 51
83.32150514899938
  0
ARC
  5
2313
330
1E
100
AcDbEntity
  8
STEMPEL
100
AcDbCircle
 10
87.7741288633182
 20
113.7761340009307
 30
0.0
 40
0.832
100
AcDbArc
 50
70.13922531999934
 51
76.2080049830014
  0
ARC
  5
2314
330
1E
100
AcDbEntity
  8
STEMPEL
100
AcDbCircle
 10
87.77812886331821
 20
113.7831340009308
 30
0.0
 40
0.825
100
AcDbArc
 50
63.90528245000117
 51
70.1955534229998
  0
LINE
  5
2315
330
1E
100
AcDbEntity
  8
STEMPEL
100
AcDbLine
 10
80.77712886331823
 20
113.6101340009307
 30
0.0
 11
80.77712886331823
 21
110.6131340009307
 31
0.0
  0
LINE
  5
2316
330
1E
100
AcDbEntity
  8
STEMPEL
100
AcDbLine
 10
105.9953309216902
 20
110.6131340009307
 30
0.0
 11
80.77712886331823
 21
110.6131340009307
 31
0.0
  0
LINE
  5
2317
330
1E
100
AcDbEntity
  8
STEMPEL
100
AcDbLine
 10
105.9959080572776
 20
113.6101340009307
 30
0.0
 11
80.77712886331823
 21
113.6101340009307
 31
0.0
  0
LINE
  5
2318
330
1E
100
AcDbEntity
  8
STEMPEL
100
AcDbLine
 10
86.77712886331823
 20
113.6101340009307
 30
0.0
 11
86.77712886331823
 21
110.6131340009307
 31
0.0
  0
LINE
  5
2319
330
1E
100
AcDbEntity
  8
STEMPEL
100
AcDbLine
 10
80.77712886331823
 20
130.4101340009307
 30
0.0
 11
80.77712886331823
 21
133.4081340009307
 31
0.0
  0
LINE
  5
231A
330
1E
100
AcDbEntity
  8
STEMPEL
100
AcDbLine
 10
106.0113444809237
 20
133.4081340009307
 30
0.0
 11
80.77712886331823
 21
133.4081340009307
 31
0.0
  0
LINE
  5
231B
330
1E
100
AcDbEntity
  8
STEMPEL
100
AcDbLine
 10
106.0117315314002
 20
130.4101340009307
 30
0.0
 11
80.77712886331823
 21
130.4101340009307
 31
0.0
  0
LINE
  5
231C
330
1E
100
AcDbEntity
  8
STEMPEL
100
AcDbLine
 10
86.77712886331823
 20
130.4101340009307
 30
0.0
 11
86.77712886331823
 21
133.4081340009307
 31
0.0
  0
LINE
  5
231D
330
1E
100
AcDbEntity
  8
STEMPEL
100
AcDbLine
 10
105.9953415391185
 20
107.6130788047626
 30
0.0
 11
115.8131953001952
 21
109.5130505042987
 31
0.0
  0
ARC
  5
231E
330
1E
100
AcDbEntity
  8
STEMPEL
100
AcDbCircle
 10
180.6271288633182
 20
122.0521340009308
 30
0.0
 40
74.25
100
AcDbArc
 50
189.0910036880001
 51
190.9496145060003
  0
ARC
  5
231F
330
1E
100
AcDbEntity
  8
STEMPEL
100
AcDbCircle
 10
180.6271288633182
 20
121.9691340009307
 30
0.0
 40
74.25
100
AcDbArc
 50
169.0503854939996
 51
170.9089963119999
  0
DIMENSION
  5
2326
330
1E
100
AcDbEntity
  8
BEM
100
AcDbDimension
280
     0
  2
*D2
 10
69.73983018965316
 20
113.6101340009307
 30
0.0
 11
66.48983018965314
 21
122.0101340009307
 31
0.0
 70
    32
 71
     5
 42
16.79999999999999
 73
     0
 74
     0
 75
     0
  3
Standard
100
AcDbAlignedDimension
 13
80.77712886331823
 23
130.4101340009307
 33
0.0
 14
80.77712886331823
 24
113.6101340009307
 34
0.0
 50
90.0
100
AcDbRotatedDimension
1001
ACAD
1000
DSTYLE
1002
{
1070
    41
1040
3.5
1070
    42
1040
1.0
1070
    43
1040
7.0
1070
    44
1040
1.0
1070
    73
1070
     0
1070
    74
1070
     0
1070
    77
1070
     1
1070
    78
1070
     8
1070
    79
1070
     2
1070
   140
1040
3.5
1070
   141
1040
1.5
1070
   146
1040
0.5142857142857144
1070
   147
1040
1.5
1070
   172
1070
     1
1070
   178
1070
     1
1070
   179
1070
     2
1070
   271
1070
     2
1070
   272
1070
     2
1070
   284
1070
     8
1070
   285
1070
     8
1070
   286
1070
     8
1002
}
  0
DIMENSION
  5
2333
330
1E
100
AcDbEntity
  8
BEM
100
AcDbDimension
280
     0
  2
*D3
 10
61.41707559242218
 20
20.05213400093083
 30
0.0
 11
58.16707559242217
 21
109.0106340009308
 31
0.0
 70
    32
  1
178
 71
     5
 42
177.9169999999999
 73
     0
 74
     0
 75
     0
  3
Standard
100
AcDbAlignedDimension
 13
180.6271288633182
 23
197.9691340009307
 33
0.0
 14
173.538872024906
 24
20.05213400093079
 34
0.0
 50
90.0
100
AcDbRotatedDimension
1001
ACAD
1000
DSTYLE
1002
{
1070
    41
1040
3.5
1070
    42
1040
1.0
1070
    43
1040
7.0
1070
    44
1040
1.0
1070
    73
1070
     0
1070
    74
1070
     0
1070
    77
1070
     1
1070
    78
1070
     8
1070
    79
1070
     2
1070
   140
1040
3.5
1070
   141
1040
1.5
1070
   146
1040
0.5142857142857144
1070
   147
1040
1.5
1070
   172
1070
     1
1070
   178
1070
     1
1070
   179
1070
     2
1070
   271
1070
     2
1070
   272
1070
     2
1070
   284
1070
     8
1070
   285
1070
     8
1070
   286
1070
     8
1002
}
  0
DIMENSION
  5
2370
330
1E
100
AcDbEntity
  8
BEM
100
AcDbDimension
280
     0
  2
*D4
 10
127.0040178449896
 20
76.97400132287322
 30
0.0
 11
194.2705553100061
 21
133.4173281003409
 31
0.0
 70
   160
 71
     5
 42
140.0
 73
     0
 74
     0
 75
     0
  3
Standard
100
AcDbAlignedDimension
 13
234.2502398816467
 23
166.9642666789885
 33
0.0
 14
127.0040178449897
 24
76.97400132287302
 34
0.0
 50
39.99999999999984
100
AcDbRotatedDimension
1001
ACAD
1000
DSTYLE
1002
{
1070
    41
1040
3.5
1070
    42
1040
1.0
1070
    43
1040
7.0
1070
    44
1040
1.0
1070
    73
1070
     0
1070
    74
1070
     0
1070
    77
1070
     1
1070
    78
1070
     8
1070
    79
1070
     2
1070
   140
1040
3.5
1070
   141
1040
1.5
1070
   146
1040
0.5142857142857144
1070
   147
1040
1.5
1070
   172
1070
     1
1070
   178
1070
     1
1070
   179
1070
     2
1070
   271
1070
     2
1070
   272
1070
     2
1070
   284
1070
     8
1070
   285
1070
     8
1070
   286
1070
     8
1002
}
  0
ARC
  5
239E
330
1E
100
AcDbEntity
  8
STEMPEL
100
AcDbCircle
 10
274.4761288633183
 20
248.1824516371843
 30
0.0
 40
6.0
100
AcDbArc
 50
0.0
 51
90.0
  0
ARC
  5
239F
330
1E
100
AcDbEntity
  8
STEMPEL
100
AcDbCircle
 10
274.4761288633183
 20
230.1824516371842
 30
0.0
 40
6.0
100
AcDbArc
 50
270.0
 51
0.0000000000001781
  0
ARC
  5
23A0
330
1E
100
AcDbEntity
  8
STEMPEL
100
AcDbCircle
 10
86.77712886331828
 20
248.1824516371843
 30
0.0
 40
6.0
100
AcDbArc
 50
90.0
 51
180.0
  0
ARC
  5
23A1
330
1E
100
AcDbEntity
  8
STEMPEL
100
AcDbCircle
 10
86.7771288633183
 20
230.1824516371842
 30
0.0
 40
6.0
100
AcDbArc
 50
180.0
 51
270.0
  0
ARC
  5
23A6
330
1E
100
AcDbEntity
  8
STEMPEL
100
AcDbCircle
 10
109.3823732857153
 20
246.6973510644178
 30
0.0
 40
2.073919184636188
100
AcDbArc
 50
143.4407186555969
 51
256.2982583661689
  0
ARC
  5
23A7
330
1E
100
AcDbEntity
  8
STEMPEL
100
AcDbCircle
 10
109.3823732857153
 20
231.6675522099508
 30
0.0
 40
2.073919184636188
100
AcDbArc
 50
103.7017416338311
 51
216.5592813444031
  0
ARC
  5
23AB
330
1E
100
AcDbEntity
  8
STEMPEL
100
AcDbCircle
 10
251.8718844409212
 20
231.6675522099508
 30
0.0
 40
2.073919184636188
100
AcDbArc
 50
323.4407186555969
 51
76.29825836616887
  0
ARC
  5
23AC
330
1E
100
AcDbEntity
  8
STEMPEL
100
AcDbCircle
 10
251.8718844409212
 20
246.6973510644178
 30
0.0
 40
2.073919184636188
100
AcDbArc
 50
283.7017416338311
 51
36.55928134440308
  0
LINE
  5
23AD
330
1E
100
AcDbEntity
  8
HILF
100
AcDbLine
 10
252.7261288633182
 20
244.8075343401808
 30
0.0
 11
252.7261288633182
 21
233.5754516371843
 31
0.0
  0
LINE
  5
23AE
330
1E
100
AcDbEntity
  8
MITTEL
100
AcDbLine
 10
266.7261288633182
 20
250.6824516371843
 30
0.0
 11
266.7261288633182
 21
227.6824516371843
 31
0.0
  0
CIRCLE
  5
23AF
330
1E
100
AcDbEntity
  8
STEMPEL
100
AcDbCircle
 10
266.7261288633182
 20
239.1824516371843
 30
0.0
 40
6.5
  0
LWPOLYLINE
  5
23B0
330
1E
100
AcDbEntity
  8
STEMPEL
100
AcDbPolyline
 90
        6
 70
     1
 43
0.0
 10
270.4789056130508
 20
245.6824516371843
 10
274.2316823627833
 20
239.1824516371843
 10
270.4789056130508
 20
232.6824516371843
 10
262.9733521135857
 20
232.6824516371843
 10
259.2205753638531
 20
239.1824516371843
 10
262.9733521135857
 20
245.6824516371843
  0
DIMENSION
  5
23B8
330
1E
100
AcDbEntity
  8
BEM
100
AcDbDimension
280
     0
  2
*D5
 10
280.4761288633183
 20
267.9170810518879
 30
0.0
 11
180.6266288633183
 21
271.1670810518878
 31
0.0
 70
    32
 71
     5
 42
199.6989999999999
 73
     0
 74
     0
 75
     0
  3
Standard
100
AcDbAlignedDimension
 13
80.77712886331829
 23
248.1824516371843
 33
0.0
 14
280.4761288633183
 24
248.1824516371843
 34
0.0
100
AcDbRotatedDimension
1001
ACAD
1000
DSTYLE
1002
{
1070
    41
1040
3.5
1070
    42
1040
1.0
1070
    43
1040
7.0
1070
    44
1040
1.0
1070
    73
1070
     0
1070
    74
1070
     0
1070
    77
1070
     1
1070
    78
1070
     8
1070
    79
1070
     2
1070
   140
1040
3.5
1070
   141
1040
1.5
1070
   146
1040
0.5142857142857144
1070
   147
1040
1.5
1070
   172
1070
     1
1070
   178
1070
     1
1070
   179
1070
     2
1070
   271
1070
     2
1070
   272
1070
     2
1070
   284
1070
     8
1070
   285
1070
     8
1070
   286
1070
     8
1002
}
  0
TEXT
  5
242D
330
1E
100
AcDbEntity
  8
TEXT
 62
     1
100
AcDbText
 10
190.5220271910172
 20
9.291849379193472
 30
0.0
 40
3.5
  1
M10/12
 41
0.8
  7
GREEKS
100
AcDbText
  0
LINE
  5
242E
330
1E
100
AcDbEntity
  8
TEXT
 62
     2
100
AcDbLine
 10
190.3893386222051
 20
7.623925238751425
 30
0.0
 11
206.5744248103623
 21
7.623925238751425
 31
0.0
  0
LINE
  5
242F
330
1E
100
AcDbEntity
  8
TEXT
 62
     2
100
AcDbLine
 10
180.6271288633182
 20
20.05213400093077
 30
0.0
 11
190.3893386222051
 21
7.623925238751425
 31
0.0
  0
ENDSEC
  0
SECTION
  2
OBJECTS
  0
DICTIONARY
  5
C
330
0
100
AcDbDictionary
281
     1
  3
ACAD_CIP_PREVIOUS_PRODUCT_INFO
350
2418
  3
ACAD_COLOR
350
11A
  3
ACAD_DETAILVIEWSTYLE
350
2414
  3
ACAD_FIELDLIST
350
245E
  3
ACAD_GROUP
350
D
  3
ACAD_LAYOUT
350
19
  3
ACAD_MATERIAL
350
119
  3
ACAD_MLEADERSTYLE
350
2410
  3
ACAD_MLINESTYLE
350
16
  3
ACAD_PLOTSETTINGS
350
18
  3
ACAD_PLOTSTYLENAME
350
E
  3
ACAD_RENDER_ACTIVE_RAPIDRT_SETTINGS
350
2420
  3
ACAD_RENDER_RAPIDRT_SETTINGS
350
2419
  3
ACAD_SCALELIST
350
23FE
  3
ACAD_SECTIONVIEWSTYLE
350
2412
  3
ACAD_TABLESTYLE
350
23FC
  3
ACAD_VISUALSTYLE
350
23E3
  3
ACDB_RECOMPOSE_DATA
350
2470
  3
AcDbVariableDictionary
350
125
  0
DICTIONARY
  5
2423
330
2
100
AcDbDictionary
280
     1
281
     1
  3
ACAD_LAYERSTATES
360
2424
  0
DICTIONARY
  5
2430
330
10
100
AcDbDictionary
280
     1
281
     1
  3
ADSK_XREC_LAYER_RECONCILED
360
2431
  0
DICTIONARY
  5
2432
330
2B
100
AcDbDictionary
280
     1
281
     1
  3
ADSK_XREC_LAYER_RECONCILED
360
2433
  0
DICTIONARY
  5
2434
330
2C
100
AcDbDictionary
280
     1
281
     1
  3
ADSK_XREC_LAYER_RECONCILED
360
2435
  0
DICTIONARY
  5
2436
330
2D
100
AcDbDictionary
280
     1
281
     1
  3
ADSK_XREC_LAYER_RECONCILED
360
2437
  0
DICTIONARY
  5
2438
330
2F
100
AcDbDictionary
280
     1
281
     1
  3
ADSK_XREC_LAYER_RECONCILED
360
2439
  0
DICTIONARY
  5
243A
330
30
100
AcDbDictionary
280
     1
281
     1
  3
ADSK_XREC_LAYER_RECONCILED
360
243B
  0
DICTIONARY
  5
243C
330
33
100
AcDbDictionary
280
     1
281
     1
  3
ADSK_XREC_LAYER_RECONCILED
360
243D
  0
DICTIONARY
  5
243E
330
1809
100
AcDbDictionary
280
     1
281
     1
  3
ADSK_XREC_LAYER_RECONCILED
360
243F
  0
DICTIONARY
  5
DB
330
1E
100
AcDbDictionary
280
     1
281
     1
  3
ACAD_LAYOUTSELFREF
360
10F
  0
DICTIONARY
  5
DD
330
1A
100
AcDbDictionary
280
     1
281
     1
  3
ACAD_LAYOUTSELFREF
360
10E
  0
DICTIONARY
  5
245A
330
1322
100
AcDbDictionary
280
     1
281
     1
  3
ACAD_FIELD
360
245B
  0
XRECORD
  5
2418
102
{ACAD_REACTORS
330
C
102
}
330
C
100
AcDbXrecord
280
     1
300
ACD
300
2017
300
ACD_F_S
  0
DICTIONARY
  5
11A
102
{ACAD_REACTORS
330
C
102
}
330
C
100
AcDbDictionary
281
     1
  0
DICTIONARY
  5
2414
102
{ACAD_REACTORS
330
C
102
}
330
C
100
AcDbDictionary
281
     1
  3
Imperial24
350
2415
  0
FIELDLIST
  5
245E
102
{ACAD_REACTORS
330
C
102
}
330
C
100
AcDbIdSet
 90
        2
330
245C
330
245D
100
AcDbFieldList
  0
DICTIONARY
  5
D
102
{ACAD_REACTORS
330
C
102
}
330
C
100
AcDbDictionary
281
     1
  0
DICTIONARY
  5
19
102
{ACAD_REACTORS
330
C
102
}
330
C
100
AcDbDictionary
281
     1
  3
Layout1
350
1D
  3
Model
350
21
  0
DICTIONARY
  5
119
102
{ACAD_REACTORS
330
C
102
}
330
C
100
AcDbDictionary
281
     1
  3
ByBlock
350
23D3
  3
ByLayer
350
23CB
  3
Global
350
23DB
  0
DICTIONARY
  5
2410
102
{ACAD_REACTORS
330
C
102
}
330
C
100
AcDbDictionary
281
     1
  3
Standard
350
2411
  0
DICTIONARY
  5
16
102
{ACAD_REACTORS
330
C
102
}
330
C
100
AcDbDictionary
281
     1
  3
Standard
350
17
  0
DICTIONARY
  5
18
102
{ACAD_REACTORS
330
C
102
}
330
C
100
AcDbDictionary
281
     1
  0
ACDBDICTIONARYWDFLT
  5
E
102
{ACAD_REACTORS
330
C
102
}
330
C
100
AcDbDictionary
281
     1
  3
Normal
350
F
100
AcDbDictionaryWithDefault
340
F
  0
RAPIDRTRENDERSETTINGS
  5
2420
102
{ACAD_REACTORS
330
C
102
}
330
C
100
AcDbRenderSettings
 90
        2
  1
Mittel
290
     1
290
     0
290
     1
290
     1
  1

  1
Wendet 5 Render-Ebenen an
 90
        0
100
AcDbRapidRTRenderSettings
 90
        3
 70
     0
 90
        5
 90
        1
 70
     1
 70
     2
 40
3.0
 40
3.0
290
     1
  0
DICTIONARY
  5
2419
102
{ACAD_REACTORS
330
C
102
}
330
C
100
AcDbDictionary
281
     1
  3
Hoch
350
241C
  3
Mittagsqualität
350
241E
  3
Mittel
350
241B
  3
Morgenqualität
350
241D
  3
Nachtqualität
350
241F
  3
Niedrig
350
241A
  0
DICTIONARY
  5
23FE
102
{ACAD_REACTORS
330
C
102
}
330
C
100
AcDbDictionary
281
     1
  3
A0
350
23FF
  3
A1
350
2400
  3
A2
350
2401
  3
A3
350
2402
  3
A4
350
2403
  3
A5
350
2404
  3
A6
350
2405
  3
A7
350
2406
  3
A8
350
2407
  3
A9
350
2408
  3
B0
350
2409
  3
B1
350
240A
  3
B2
350
240B
  3
B3
350
240C
  3
B4
350
240D
  3
B5
350
240E
  3
B6
350
240F
  0
DICTIONARY
  5
2412
102
{ACAD_REACTORS
330
C
102
}
330
C
100
AcDbDictionary
281
     1
  3
Imperial24
350
2413
  0
DICTIONARY
  5
23FC
102
{ACAD_REACTORS
330
C
102
}
330
C
100
AcDbDictionary
281
     1
  3
Standard
350
23FD
  0
DICTIONARY
  5
23E3
102
{ACAD_REACTORS
330
C
102
}
330
C
100
AcDbDictionary
281
     1
  3
2dWireframe
350
23E9
  3
Basic
350
23E8
  3
Brighten
350
23EF
  3
ColorChange
350
23F3
  3
Conceptual
350
23EC
  3
Dim
350
23EE
  3
EdgeColorOff
350
23FB
  3
Facepattern
350
23F2
  3
Flat
350
23E4
  3
FlatWithEdges
350
23E5
  3
Gouraud
350
23E6
  3
GouraudWithEdges
350
23E7
  3
Hidden
350
23EB
  3
JitterOff
350
23F9
  3
Linepattern
350
23F1
  3
OverhangOff
350
23FA
  3
Realistic
350
23ED
  3
Shaded
350
23F8
  3
Shaded with edges
350
23F7
  3
Shades of Gray
350
23F4
  3
Sketchy
350
23F5
  3
Thicken
350
23F0
  3
Wireframe
350
23EA
  3
X-Ray
350
23F6
  0
XRECORD
  5
2470
102
{ACAD_REACTORS
330
C
102
}
330
C
100
AcDbXrecord
280
     1
 90
        1
330
23FD
330
2413
330
2415
  0
DICTIONARY
  5
125
102
{ACAD_REACTORS
330
C
102
}
330
C
100
AcDbDictionary
281
     1
  3
CANNOSCALE
350
2451
  3
CMLEADERSTYLE
350
244D
  3
CTABLESTYLE
350
244C
  3
CVIEWDETAILSTYLE
350
244E
  3
CVIEWSECTIONSTYLE
350
244F
  3
DIMASSOC
350
126
  3
LAYEREVAL
350
2453
  3
LAYERNOTIFY
350
2454
  3
LIGHTINGUNITS
350
2452
  3
MSLTSCALE
350
2450
  3
PROJECTNAME
350
127
  0
DICTIONARY
  5
2424
102
{ACAD_REACTORS
330
2423
102
}
330
2423
100
AcDbDictionary
281
     1
  0
XRECORD
  5
2431
102
{ACAD_REACTORS
330
2430
102
}
330
2430
100
AcDbXrecord
280
     1
290
     1
  0
XRECORD
  5
2433
102
{ACAD_REACTORS
330
2432
102
}
330
2432
100
AcDbXrecord
280
     1
290
     1
  0
XRECORD
  5
2435
102
{ACAD_REACTORS
330
2434
102
}
330
2434
100
AcDbXrecord
280
     1
290
     1
  0
XRECORD
  5
2437
102
{ACAD_REACTORS
330
2436
102
}
330
2436
100
AcDbXrecord
280
     1
290
     1
  0
XRECORD
  5
2439
102
{ACAD_REACTORS
330
2438
102
}
330
2438
100
AcDbXrecord
280
     1
290
     1
  0
XRECORD
  5
243B
102
{ACAD_REACTORS
330
243A
102
}
330
243A
100
AcDbXrecord
280
     1
290
     1
  0
XRECORD
  5
243D
102
{ACAD_REACTORS
330
243C
102
}
330
243C
100
AcDbXrecord
280
     1
290
     1
  0
XRECORD
  5
243F
102
{ACAD_REACTORS
330
243E
102
}
330
243E
100
AcDbXrecord
280
     1
290
     1
  0
XRECORD
  5
10F
102
{ACAD_REACTORS
330
DB
102
}
330
DB
100
AcDbXrecord
280
     1
340
1E
  0
XRECORD
  5
10E
102
{ACAD_REACTORS
330
DD
102
}
330
DD
100
AcDbXrecord
280
     1
340
1A
  0
DICTIONARY
  5
245B
102
{ACAD_REACTORS
330
245A
102
}
330
245A
100
AcDbDictionary
280
     1
281
     1
  3
TEXT
360
245C
  0
ACDBDETAILVIEWSTYLE
  5
2415
102
{ACAD_XDICTIONARY
360
2449
102
}
102
{ACAD_REACTORS
330
2414
102
}
330
2414
100
AcDbModelDocViewStyle
 70
     0
  3
Imperial24
290
     0
100
AcDbDetailViewStyle
 70
     0
 71
     0
 90
        3
 71
     1
340
11
 62
   256
 40
0.24
340
0
 62
   256
 40
0.24
300

 40
0.36
280
     3
 71
     2
340
15
 90
       25
 62
   256
 71
     3
340
11
 62
   256
 40
0.24
 90
        1
 40
0.75
 90
        1
300
%<\AcVar ViewType \f "%tc1">% %<\AcVar ViewDetailId>%\PVARIA %<\AcVar ViewScale \f "%sn">%
 71
     4
340
15
 90
       25
 62
   256
340
15
 90
       25
 62
   256
280
     0
  0
LAYOUT
  5
1D
102
{ACAD_REACTORS
330
19
102
}
330
19
100
AcDbPlotSettings
  1

  2
\\NT_WORK01\HP LaserJet 5000 PCL 6
  4

  6

 40
0.0
 41
0.0
 42
0.0
 43
0.0
 44
0.0
 45
0.0
 46
0.0
 47
0.0
 48
0.0
 49
0.0
140
0.0
141
0.0
142
1.0
143
1.0
 70
   688
 72
     0
 73
     0
 74
     5
  7

 75
    16
147
1.0
 76
     0
 77
     2
 78
   300
148
0.0
149
0.0
100
AcDbLayout
  1
Layout1
 70
     0
 71
     1
 10
0.0
 20
0.0
 11
12.0
 21
9.0
 12
0.0
 22
0.0
 32
0.0
 14
1.000000000000000E+20
 24
1.000000000000000E+20
 34
1.000000000000000E+20
 15
-1.000000000000000E+20
 25
-1.000000000000000E+20
 35
-1.000000000000000E+20
146
0.0
 13
0.0
 23
0.0
 33
0.0
 16
1.0
 26
0.0
 36
0.0
 17
0.0
 27
1.0
 37
0.0
 76
     0
330
1A
  0
LAYOUT
  5
21
102
{ACAD_REACTORS
330
19
102
}
330
19
100
AcDbPlotSettings
  1

  2
\\NT_WORK01\HP LaserJet 5000 PCL 6
  4

  6

 40
0.0
 41
0.0
 42
0.0
 43
0.0
 44
0.0
 45
0.0
 46
0.0
 47
0.0
 48
0.0
 49
0.0
140
0.0
141
0.0
142
1.0
143
1.0
 70
  1712
 72
     0
 73
     0
 74
     0
  7

 75
     0
147
1.0
 76
     0
 77
     2
 78
   300
148
0.0
149
0.0
100
AcDbLayout
  1
Model
 70
     1
 71
     0
 10
0.0
 20
0.0
 11
12.0
 21
9.0
 12
0.0
 22
0.0
 32
0.0
 14
0.0
 24
0.0
 34
0.0
 15
0.0
 25
0.0
 35
0.0
146
0.0
 13
0.0
 23
0.0
 33
0.0
 16
1.0
 26
0.0
 36
0.0
 17
0.0
 27
1.0
 37
0.0
 76
     0
330
1E
331
23C9
  0
MATERIAL
  5
23D3
102
{ACAD_XDICTIONARY
360
23D4
102
}
102
{ACAD_REACTORS
330
119
102
}
330
119
100
AcDbMaterial
  1
ByBlock
 72
     0
 43
0.0208333333333333
 43
0.0
 43
0.0
 43
0.0
 43
0.0
 43
0.0208333333333333
 43
0.0
 43
0.0
 43
0.0
 43
0.0
 43
1.0
 43
0.0
 43
0.0
 43
0.0
 43
0.0
 43
1.0
 77
     0
 47
0.0208333333333333
 47
0.0
 47
0.0
 47
0.0
 47
0.0
 47
0.0208333333333333
 47
0.0
 47
0.0
 47
0.0
 47
0.0
 47
1.0
 47
0.0
 47
0.0
 47
0.0
 47
0.0
 47
1.0
171
     0
 49
0.0208333333333333
 49
0.0
 49
0.0
 49
0.0
 49
0.0
 49
0.0208333333333333
 49
0.0
 49
0.0
 49
0.0
 49
0.0
 49
1.0
 49
0.0
 49
0.0
 49
0.0
 49
0.0
 49
1.0
175
     0
142
0.0208333333333333
142
0.0
142
0.0
142
0.0
142
0.0
142
0.0208333333333333
142
0.0
142
0.0
142
0.0
142
0.0
142
1.0
142
0.0
142
0.0
142
0.0
142
0.0
142
1.0
179
     0
144
0.0208333333333333
144
0.0
144
0.0
144
0.0
144
0.0
144
0.0208333333333333
144
0.0
144
0.0
144
0.0
144
0.0
144
1.0
144
0.0
144
0.0
144
0.0
144
0.0
144
1.0
147
0.0208333333333333
147
0.0
147
0.0
147
0.0
147
0.0
147
0.0208333333333333
147
0.0
147
0.0
147
0.0
147
0.0
147
1.0
147
0.0
147
0.0
147
0.0
147
0.0
147
1.0
  0
MATERIAL
  5
23CB
102
{ACAD_XDICTIONARY
360
23CC
102
}
102
{ACAD_REACTORS
330
119
102
}
330
119
100
AcDbMaterial
  1
ByLayer
 72
     0
 43
0.0208333333333333
 43
0.0
 43
0.0
 43
0.0
 43
0.0
 43
0.0208333333333333
 43
0.0
 43
0.0
 43
0.0
 43
0.0
 43
1.0
 43
0.0
 43
0.0
 43
0.0
 43
0.0
 43
1.0
 77
     0
 47
0.0208333333333333
 47
0.0
 47
0.0
 47
0.0
 47
0.0
 47
0.0208333333333333
 47
0.0
 47
0.0
 47
0.0
 47
0.0
 47
1.0
 47
0.0
 47
0.0
 47
0.0
 47
0.0
 47
1.0
171
     0
 49
0.0208333333333333
 49
0.0
 49
0.0
 49
0.0
 49
0.0
 49
0.0208333333333333
 49
0.0
 49
0.0
 49
0.0
 49
0.0
 49
1.0
 49
0.0
 49
0.0
 49
0.0
 49
0.0
 49
1.0
175
     0
142
0.0208333333333333
142
0.0
142
0.0
142
0.0
142
0.0
142
0.0208333333333333
142
0.0
142
0.0
142
0.0
142
0.0
142
1.0
142
0.0
142
0.0
142
0.0
142
0.0
142
1.0
179
     0
144
0.0208333333333333
144
0.0
144
0.0
144
0.0
144
0.0
144
0.0208333333333333
144
0.0
144
0.0
144
0.0
144
0.0
144
1.0
144
0.0
144
0.0
144
0.0
144
0.0
144
1.0
147
0.0208333333333333
147
0.0
147
0.0
147
0.0
147
0.0
147
0.0208333333333333
147
0.0
147
0.0
147
0.0
147
0.0
147
1.0
147
0.0
147
0.0
147
0.0
147
0.0
147
1.0
  0
MATERIAL
  5
23DB
102
{ACAD_XDICTIONARY
360
23DC
102
}
102
{ACAD_REACTORS
330
119
102
}
330
119
100
AcDbMaterial
  1
Global
 72
     0
 43
0.0208333333333333
 43
0.0
 43
0.0
 43
0.0
 43
0.0
 43
0.0208333333333333
 43
0.0
 43
0.0
 43
0.0
 43
0.0
 43
1.0
 43
0.0
 43
0.0
 43
0.0
 43
0.0
 43
1.0
 77
     0
 47
0.0208333333333333
 47
0.0
 47
0.0
 47
0.0
 47
0.0
 47
0.0208333333333333
 47
0.0
 47
0.0
 47
0.0
 47
0.0
 47
1.0
 47
0.0
 47
0.0
 47
0.0
 47
0.0
 47
1.0
171
     0
 49
0.0208333333333333
 49
0.0
 49
0.0
 49
0.0
 49
0.0
 49
0.0208333333333333
 49
0.0
 49
0.0
 49
0.0
 49
0.0
 49
1.0
 49
0.0
 49
0.0
 49
0.0
 49
0.0
 49
1.0
175
     0
142
0.0208333333333333
142
0.0
142
0.0
142
0.0
142
0.0
142
0.0208333333333333
142
0.0
142
0.0
142
0.0
142
0.0
142
1.0
142
0.0
142
0.0
142
0.0
142
0.0
142
1.0
179
     0
144
0.0208333333333333
144
0.0
144
0.0
144
0.0
144
0.0
144
0.0208333333333333
144
0.0
144
0.0
144
0.0
144
0.0
144
1.0
144
0.0
144
0.0
144
0.0
144
0.0
144
1.0
147
0.0208333333333333
147
0.0
147
0.0
147
0.0
147
0.0
147
0.0208333333333333
147
0.0
147
0.0
147
0.0
147
0.0
147
1.0
147
0.0
147
0.0
147
0.0
147
0.0
147
1.0
  0
MLEADERSTYLE
  5
2411
102
{ACAD_REACTORS
330
2410
102
}
330
2410
100
AcDbMLeaderStyle
179
     2
170
     2
171
     1
172
     0
 90
        2
 40
0.0
 41
0.0
173
     1
 91
-1056964608
340
13
 92
       -2
290
     1
 42
0.09
291
     1
 43
0.36
  3
Standard
 44
0.18
300

342
11
174
     1
178
     6
175
     1
176
     0
 93
-1056964608
 45
0.18
292
     0
297
     0
 46
0.18
 94
-1056964608
 47
1.0
 49
1.0
140
1.0
293
     1
141
0.0
294
     1
177
     0
142
1.0
295
     1
296
     0
143
0.125
271
     0
272
     9
273
     9
298
     1
  0
MLINESTYLE
  5
17
102
{ACAD_REACTORS
330
16
102
}
330
16
100
AcDbMlineStyle
  2
STANDARD
 70
     0
  3

 62
   256
 51
90.0
 52
90.0
 71
     2
 49
0.5
 62
   256
  6
BYLAYER
 49
-0.5
 62
   256
  6
BYLAYER
  0
ACDBPLACEHOLDER
  5
F
102
{ACAD_REACTORS
330
E
102
}
330
E
  0
RAPIDRTRENDERSETTINGS
  5
241C
102
{ACAD_REACTORS
330
2419
102
}
330
2419
100
AcDbRenderSettings
 90
        2
  1
Hoch
290
     1
290
     0
290
     1
290
     1
  1

  1
Wendet 10 Render-Ebenen an
 90
        2
100
AcDbRapidRTRenderSettings
 90
        3
 70
     0
 90
       10
 90
        1
 70
     2
 70
     2
 40
3.0
 40
3.0
290
     1
  0
RAPIDRTRENDERSETTINGS
  5
241E
102
{ACAD_REACTORS
330
2419
102
}
330
2419
100
AcDbRenderSettings
 90
        2
  1
Mittagsqualität
290
     1
290
     0
290
     1
290
     1
  1

  1
Rendert für 60 Minuten
 90
        4
100
AcDbRapidRTRenderSettings
 90
        3
 70
     1
 90
        1
 90
       60
 70
     2
 70
     2
 40
3.0
 40
3.0
290
     1
  0
RAPIDRTRENDERSETTINGS
  5
241B
102
{ACAD_REACTORS
330
2419
102
}
330
2419
100
AcDbRenderSettings
 90
        2
  1
Mittel
290
     1
290
     0
290
     1
290
     1
  1

  1
Wendet 5 Render-Ebenen an
 90
        1
100
AcDbRapidRTRenderSettings
 90
        3
 70
     0
 90
        5
 90
        1
 70
     1
 70
     2
 40
3.0
 40
3.0
290
     1
  0
RAPIDRTRENDERSETTINGS
  5
241D
102
{ACAD_REACTORS
330
2419
102
}
330
2419
100
AcDbRenderSettings
 90
        2
  1
Morgenqualität
290
     1
290
     0
290
     1
290
     1
  1

  1
Rendert für 10 Minuten
 90
        3
100
AcDbRapidRTRenderSettings
 90
        3
 70
     1
 90
        1
 90
       10
 70
     1
 70
     2
 40
3.0
 40
3.0
290
     1
  0
RAPIDRTRENDERSETTINGS
  5
241F
102
{ACAD_REACTORS
330
2419
102
}
330
2419
100
AcDbRenderSettings
 90
        2
  1
Nachtqualität
290
     1
290
     0
290
     1
290
     1
  1

  1
Rendert für 12 Stunden
 90
        5
100
AcDbRapidRTRenderSettings
 90
        3
 70
     1
 90
        1
 90
      720
 70
     2
 70
     2
 40
3.0
 40
3.0
290
     1
  0
RAPIDRTRENDERSETTINGS
  5
241A
102
{ACAD_REACTORS
330
2419
102
}
330
2419
100
AcDbRenderSettings
 90
        2
  1
Niedrig
290
     1
290
     0
290
     1
290
     1
  1

  1
Wendet 1 Render-Ebene an
 90
        0
100
AcDbRapidRTRenderSettings
 90
        3
 70
     0
 90
        1
 90
        1
 70
     0
 70
     2
 40
3.0
 40
3.0
290
     1
  0
SCALE
  5
23FF
102
{ACAD_REACTORS
330
23FE
102
}
330
23FE
100
AcDbScale
 70
     0
300
1:1
140
1.0
141
1.0
290
     1
  0
SCALE
  5
2400
102
{ACAD_REACTORS
330
23FE
102
}
330
23FE
100
AcDbScale
 70
     0
300
1/128" = 1'-0"
140
0.0078125
141
12.0
290
     0
  0
SCALE
  5
2401
102
{ACAD_REACTORS
330
23FE
102
}
330
23FE
100
AcDbScale
 70
     0
300
1/64" = 1'-0"
140
0.015625
141
12.0
290
     0
  0
SCALE
  5
2402
102
{ACAD_REACTORS
330
23FE
102
}
330
23FE
100
AcDbScale
 70
     0
300
1/32" = 1'-0"
140
0.03125
141
12.0
290
     0
  0
SCALE
  5
2403
102
{ACAD_REACTORS
330
23FE
102
}
330
23FE
100
AcDbScale
 70
     0
300
1/16" = 1'-0"
140
0.0625
141
12.0
290
     0
  0
SCALE
  5
2404
102
{ACAD_REACTORS
330
23FE
102
}
330
23FE
100
AcDbScale
 70
     0
300
3/32" = 1'-0"
140
0.09375
141
12.0
290
     0
  0
SCALE
  5
2405
102
{ACAD_REACTORS
330
23FE
102
}
330
23FE
100
AcDbScale
 70
     0
300
1/8" = 1'-0"
140
0.125
141
12.0
290
     0
  0
SCALE
  5
2406
102
{ACAD_REACTORS
330
23FE
102
}
330
23FE
100
AcDbScale
 70
     0
300
3/16" = 1'-0"
140
0.1875
141
12.0
290
     0
  0
SCALE
  5
2407
102
{ACAD_REACTORS
330
23FE
102
}
330
23FE
100
AcDbScale
 70
     0
300
1/4" = 1'-0"
140
0.25
141
12.0
290
     0
  0
SCALE
  5
2408
102
{ACAD_REACTORS
330
23FE
102
}
330
23FE
100
AcDbScale
 70
     0
300
3/8" = 1'-0"
140
0.375
141
12.0
290
     0
  0
SCALE
  5
2409
102
{ACAD_REACTORS
330
23FE
102
}
330
23FE
100
AcDbScale
 70
     0
300
1/2" = 1'-0"
140
0.5
141
12.0
290
     0
  0
SCALE
  5
240A
102
{ACAD_REACTORS
330
23FE
102
}
330
23FE
100
AcDbScale
 70
     0
300
3/4" = 1'-0"
140
0.75
141
12.0
290
     0
  0
SCALE
  5
240B
102
{ACAD_REACTORS
330
23FE
102
}
330
23FE
100
AcDbScale
 70
     0
300
1" = 1'-0"
140
1.0
141
12.0
290
     0
  0
SCALE
  5
240C
102
{ACAD_REACTORS
330
23FE
102
}
330
23FE
100
AcDbScale
 70
     0
300
1-1/2" = 1'-0"
140
1.5
141
12.0
290
     0
  0
SCALE
  5
240D
102
{ACAD_REACTORS
330
23FE
102
}
330
23FE
100
AcDbScale
 70
     0
300
3" = 1'-0"
140
3.0
141
12.0
290
     0
  0
SCALE
  5
240E
102
{ACAD_REACTORS
330
23FE
102
}
330
23FE
100
AcDbScale
 70
     0
300
6" = 1'-0"
140
6.0
141
12.0
290
     0
  0
SCALE
  5
240F
102
{ACAD_REACTORS
330
23FE
102
}
330
23FE
100
AcDbScale
 70
     0
300
1'-0" = 1'-0"
140
12.0
141
12.0
290
     0
  0
ACDBSECTIONVIEWSTYLE
  5
2413
102
{ACAD_XDICTIONARY
360
2447
102
}
102
{ACAD_REACTORS
330
2412
102
}
330
2412
100
AcDbModelDocViewStyle
 70
     0
  3
Imperial24
290
     0
100
AcDbSectionViewStyle
 70
     0
 71
     0
 90
       78
 71
     1
340
11
 62
   256
 40
0.24
340
0
340
0
 62
   256
 40
0.24
300
I, O, Q, S, X, Z
 40
0.48
 90
        3
 40
0.18
 90
        1
 71
     2
340
15
 90
       25
 62
   256
340
15
 90
       50
 62
   256
 40
0.24
 40
0.0
 40
0.24
 71
     3
340
11
 62
   256
 40
0.24
 90
        1
 40
0.75
 90
        1
300
%<\AcVar ViewType \f "%tc1">% %<\AcVar ViewSectionStartId>%-%<\AcVar ViewSectionEndId>%\PVARIA %<\AcVar ViewScale \f "%sn">%
 71
     4
 62
   256
 62
   257
300
ANSI31
 40
1.0
 90
        0
290
     0
290
     0
 90
        6
 40
0.0
 40
1.570796326794896
 40
0.2617993877991494
 40
1.308996938995747
 40
-0.2617993877991494
 40
1.832595714594046
  0
TABLESTYLE
  5
23FD
102
{ACAD_XDICTIONARY
360
246C
102
}
102
{ACAD_REACTORS
330
23FC
102
}
330
23FC
100
AcDbTableStyle
280
     0
  3
Standard
 70
     0
 71
     0
 40
0.06
 41
0.06
280
     0
281
     0
  7
STANDARD
140
0.18
170
     2
 62
     0
 63
     7
283
     0
 90
      512
 91
        0
  1

274
    -2
284
     1
 64
     0
275
    -2
285
     1
 65
     0
276
    -2
286
     1
 66
     0
277
    -2
287
     1
 67
     0
278
    -2
288
     1
 68
     0
279
    -2
289
     1
 69
     0
  7
STANDARD
140
0.25
170
     5
 62
     0
 63
     7
283
     0
 90
      512
 91
        0
  1

274
    -2
284
     1
 64
     0
275
    -2
285
     1
 65
     0
276
    -2
286
     1
 66
     0
277
    -2
287
     1
 67
     0
278
    -2
288
     1
 68
     0
279
    -2
289
     1
 69
     0
  7
STANDARD
140
0.18
170
     5
 62
     0
 63
     7
283
     0
 90
      512
 91
        0
  1

274
    -2
284
     1
 64
     0
275
    -2
285
     1
 65
     0
276
    -2
286
     1
 66
     0
277
    -2
287
     1
 67
     0
278
    -2
288
     1
 68
     0
279
    -2
289
     1
 69
     0
  0
VISUALSTYLE
  5
23E9
102
{ACAD_REACTORS
330
23E3
102
}
330
23E3
100
AcDbVisualStyle
  2
2dWireframe
 70
     4
177
     3
291
     0
 70
    58
 90
        0
176
     1
 90
        2
176
     1
 90
        0
176
     1
 90
        0
176
     1
 40
0.6
176
     1
 40
30.0
176
     1
 62
     7
420
 16777215
176
     1
 90
        1
176
     1
 90
        4
176
     1
 62
     7
176
     1
 62
   257
176
     1
 90
        1
176
     1
 90
        1
176
     1
 40
1.0
176
     1
 90
        0
176
     1
 62
   257
176
     1
 40
1.0
176
     1
 90
        1
176
     1
 90
        6
176
     1
 90
        2
176
     1
 62
     7
176
     1
 90
        5
176
     1
 90
        0
176
     1
 90
        0
176
     1
290
     0
176
     1
 90
        1
176
     1
 40
0.0
176
     1
 90
        0
176
     1
290
     1
176
     1
290
     1
176
     1
290
     0
176
     1
290
     0
176
     1
290
     0
176
     1
290
     0
176
     1
290
     0
176
     1
290
     0
176
     1
290
     0
176
     1
 90
       50
176
     1
 40
0.0
176
     1
 40
1.0
176
     1
 90
        0
176
     1
 62
    18
420
        0
176
     1
 90
       50
176
     1
 90
        3
176
     1
 62
     5
420
      255
176
     1
290
     0
176
     1
 90
       50
176
     1
 90
       50
176
     1
 90
       50
176
     1
290
     0
176
     1
 90
       50
176
     1
 62
   256
176
     0
 40
1.0
176
     0
 90
        2
176
     1
  1
strokes_ogs.tif
176
     1
290
     0
176
     1
 40
1.0
176
     1
 40
1.0
176
     1
  0
VISUALSTYLE
  5
23E8
102
{ACAD_REACTORS
330
23E3
102
}
330
23E3
100
AcDbVisualStyle
  2
Basic
 70
     7
177
     3
291
     1
 70
    58
 90
        1
176
     1
 90
        0
176
     1
 90
        1
176
     1
 90
        0
176
     1
 40
0.6
176
     1
 40
30.0
176
     1
 62
     7
420
 16777215
176
     1
 90
        0
176
     1
 90
        4
176
     1
 62
     7
176
     1
 62
   257
176
     1
 90
        1
176
     1
 90
        1
176
     1
 40
1.0
176
     1
 90
        8
176
     1
 62
     7
176
     1
 40
1.0
176
     1
 90
        1
176
     1
 90
        6
176
     1
 90
        2
176
     1
 62
     7
176
     1
 90
        5
176
     1
 90
        0
176
     1
 90
        0
176
     1
290
     0
176
     1
 90
        1
176
     1
 40
0.0
176
     1
 90
        0
176
     1
290
     0
176
     1
290
     1
176
     1
290
     1
176
     1
290
     0
176
     1
290
     0
176
     1
290
     0
176
     1
290
     0
176
     1
290
     0
176
     1
290
     0
176
     1
 90
       50
176
     1
 40
0.0
176
     1
 40
1.0
176
     1
 90
        0
176
     1
 62
    18
420
        0
176
     1
 90
       50
176
     1
 90
        3
176
     1
 62
     5
420
      255
176
     1
290
     0
176
     1
 90
       50
176
     1
 90
       50
176
     1
 90
       50
176
     1
290
     0
176
     1
 90
       50
176
     1
 62
   256
176
     0
 40
1.0
176
     0
 90
        2
176
     1
  1
strokes_ogs.tif
176
     1
290
     0
176
     1
 40
1.0
176
     1
 40
1.0
176
     1
  0
VISUALSTYLE
  5
23EF
102
{ACAD_REACTORS
330
23E3
102
}
330
23E3
100
AcDbVisualStyle
  2
Brighten
 70
    12
177
     3
291
     1
 70
    58
 90
        2
176
     1
 90
        2
176
     1
 90
        0
176
     1
 90
        0
176
     1
 40
0.6
176
     1
 40
30.0
176
     1
 62
     7
420
 16777215
176
     1
 90
        1
176
     1
 90
        4
176
     1
 62
     7
176
     1
 62
   257
176
     1
 90
        1
176
     1
 90
        1
176
     1
 40
1.0
176
     1
 90
        8
176
     1
 62
     7
176
     1
 40
1.0
176
     1
 90
        1
176
     1
 90
        6
176
     1
 90
        2
176
     1
 62
     7
176
     1
 90
        5
176
     1
 90
        0
176
     1
 90
        0
176
     1
290
     0
176
     1
 90
        1
176
     1
 40
50.0
176
     1
 90
        0
176
     1
290
     0
176
     1
290
     1
176
     1
290
     1
176
     1
290
     0
176
     1
290
     0
176
     1
290
     0
176
     1
290
     0
176
     1
290
     0
176
     1
290
     0
176
     1
 90
       50
176
     1
 40
0.0
176
     1
 40
1.0
176
     1
 90
        0
176
     1
 62
    18
420
        0
176
     1
 90
       50
176
     1
 90
        3
176
     1
 62
     5
420
      255
176
     1
290
     0
176
     1
 90
       50
176
     1
 90
       50
176
     1
 90
       50
176
     1
290
     0
176
     1
 90
       50
176
     1
 62
   256
176
     0
 40
1.0
176
     0
 90
        2
176
     1
  1
strokes_ogs.tif
176
     1
290
     0
176
     1
 40
1.0
176
     1
 40
1.0
176
     1
  0
VISUALSTYLE
  5
23F3
102
{ACAD_REACTORS
330
23E3
102
}
330
23E3
100
AcDbVisualStyle
  2
ColorChange
 70
    16
177
     3
291
     1
 70
    58
 90
        2
176
     1
 90
        2
176
     1
 90
        3
176
     1
 90
        0
176
     1
 40
0.6
176
     1
 40
30.0
176
     1
 62
     8
420
  8421504
176
     1
 90
        1
176
     1
 90
        4
176
     1
 62
     7
176
     1
 62
   257
176
     1
 90
        1
176
     1
 90
        1
176
     1
 40
1.0
176
     1
 90
        8
176
     1
 62
     8
420
  8421504
176
     1
 40
1.0
176
     1
 90
        1
176
     1
 90
        6
176
     1
 90
        2
176
     1
 62
     7
176
     1
 90
        5
176
     1
 90
        0
176
     1
 90
        0
176
     1
290
     0
176
     1
 90
        1
176
     1
 40
0.0
176
     1
 90
        0
176
     1
290
     0
176
     1
290
     1
176
     1
290
     1
176
     1
290
     0
176
     1
290
     0
176
     1
290
     0
176
     1
290
     0
176
     1
290
     0
176
     1
290
     0
176
     1
 90
       50
176
     1
 40
0.0
176
     1
 40
1.0
176
     1
 90
        0
176
     1
 62
    18
420
        0
176
     1
 90
       50
176
     1
 90
        3
176
     1
 62
     5
420
      255
176
     1
290
     0
176
     1
 90
       50
176
     1
 90
       50
176
     1
 90
       50
176
     1
290
     0
176
     1
 90
       50
176
     1
 62
   256
176
     0
 40
1.0
176
     0
 90
        2
176
     1
  1
strokes_ogs.tif
176
     1
290
     0
176
     1
 40
1.0
176
     1
 40
1.0
176
     1
  0
VISUALSTYLE
  5
23EC
102
{ACAD_REACTORS
330
23E3
102
}
330
23E3
100
AcDbVisualStyle
  2
Conceptual
 70
     9
177
     3
291
     0
 70
    58
 90
        3
176
     1
 90
        2
176
     1
 90
        0
176
     1
 90
        0
176
     1
 40
0.6
176
     1
 40
30.0
176
     1
 62
     7
420
 16777215
176
     1
 90
        2
176
     1
 90
        2
176
     1
 62
     7
176
     1
 62
   257
176
     1
 90
        1
176
     1
 90
        1
176
     1
 40
179.0
176
     1
 90
        8
176
     1
 62
     7
176
     1
 40
1.0
176
     1
 90
        1
176
     1
 90
        6
176
     1
 90
        2
176
     1
 62
     7
176
     1
 90
        3
176
     1
 90
        0
176
     1
 90
        0
176
     1
290
     0
176
     1
 90
        1
176
     1
 40
0.0
176
     1
 90
        0
176
     1
290
     0
176
     1
290
     1
176
     1
290
     1
176
     1
290
     0
176
     1
290
     0
176
     1
290
     0
176
     1
290
     0
176
     1
290
     0
176
     1
290
     0
176
     1
 90
       50
176
     1
 40
0.0
176
     1
 40
1.0
176
     1
 90
        0
176
     1
 62
    18
420
        0
176
     1
 90
       50
176
     1
 90
        3
176
     1
 62
     5
420
      255
176
     1
290
     0
176
     1
 90
       50
176
     1
 90
       50
176
     1
 90
       50
176
     1
290
     0
176
     1
 90
       50
176
     1
 62
   256
176
     0
 40
1.0
176
     0
 90
        2
176
     1
  1
strokes_ogs.tif
176
     1
290
     0
176
     1
 40
1.0
176
     1
 40
1.0
176
     1
  0
VISUALSTYLE
  5
23EE
102
{ACAD_REACTORS
330
23E3
102
}
330
23E3
100
AcDbVisualStyle
  2
Dim
 70
    11
177
     3
291
     1
 70
    58
 90
        2
176
     1
 90
        2
176
     1
 90
        0
176
     1
 90
        0
176
     1
 40
0.6
176
     1
 40
30.0
176
     1
 62
     7
420
 16777215
176
     1
 90
        1
176
     1
 90
        4
176
     1
 62
     7
176
     1
 62
   257
176
     1
 90
        1
176
     1
 90
        1
176
     1
 40
1.0
176
     1
 90
        8
176
     1
 62
     7
176
     1
 40
1.0
176
     1
 90
        1
176
     1
 90
        6
176
     1
 90
        2
176
     1
 62
     7
176
     1
 90
        5
176
     1
 90
        0
176
     1
 90
        0
176
     1
290
     0
176
     1
 90
        1
176
     1
 40
-50.0
176
     1
 90
        0
176
     1
290
     0
176
     1
290
     1
176
     1
290
     1
176
     1
290
     0
176
     1
290
     0
176
     1
290
     0
176
     1
290
     0
176
     1
290
     0
176
     1
290
     0
176
     1
 90
       50
176
     1
 40
0.0
176
     1
 40
1.0
176
     1
 90
        0
176
     1
 62
    18
420
        0
176
     1
 90
       50
176
     1
 90
        3
176
     1
 62
     5
420
      255
176
     1
290
     0
176
     1
 90
       50
176
     1
 90
       50
176
     1
 90
       50
176
     1
290
     0
176
     1
 90
       50
176
     1
 62
   256
176
     0
 40
1.0
176
     0
 90
        2
176
     1
  1
strokes_ogs.tif
176
     1
290
     0
176
     1
 40
1.0
176
     1
 40
1.0
176
     1
  0
VISUALSTYLE
  5
23FB
102
{ACAD_REACTORS
330
23E3
102
}
330
23E3
100
AcDbVisualStyle
  2
EdgeColorOff
 70
    22
177
     3
291
     1
 70
    58
 90
        2
176
     0
 90
        2
176
     0
 90
        0
176
     0
 90
        0
176
     0
 40
0.6
176
     0
 40
30.0
176
     0
 62
     7
420
 16777215
176
     0
 90
        1
176
     0
 90
        4
176
     0
 62
     7
176
     0
 62
   257
176
     0
 90
        1
176
     0
 90
        1
176
     0
 40
1.0
176
     0
 90
        8
176
     2
 62
     7
176
     0
 40
1.0
176
     0
 90
        1
176
     0
 90
        6
176
     0
 90
        2
176
     0
 62
     7
176
     0
 90
        5
176
     0
 90
        0
176
     0
 90
        0
176
     0
290
     0
176
     0
 90
        1
176
     0
 40
0.0
176
     0
 90
        0
176
     0
290
     0
176
     0
290
     1
176
     0
290
     1
176
     0
290
     0
176
     0
290
     0
176
     0
290
     0
176
     0
290
     0
176
     0
290
     0
176
     0
290
     0
176
     0
 90
       50
176
     0
 40
0.0
176
     0
 40
1.0
176
     0
 90
        0
176
     0
 62
    18
420
        0
176
     0
 90
       50
176
     0
 90
        3
176
     0
 62
     5
420
      255
176
     0
290
     0
176
     0
 90
       50
176
     0
 90
       50
176
     0
 90
       50
176
     0
290
     0
176
     0
 90
       50
176
     0
 62
   256
176
     0
 40
1.0
176
     0
 90
        2
176
     0
  1
strokes_ogs.tif
176
     0
290
     0
176
     0
 40
1.0
176
     0
 40
1.0
176
     0
  0
VISUALSTYLE
  5
23F2
102
{ACAD_REACTORS
330
23E3
102
}
330
23E3
100
AcDbVisualStyle
  2
Facepattern
 70
    15
177
     3
291
     1
 70
    58
 90
        2
176
     1
 90
        2
176
     1
 90
        0
176
     1
 90
        0
176
     1
 40
0.6
176
     1
 40
30.0
176
     1
 62
     7
420
 16777215
176
     1
 90
        1
176
     1
 90
        4
176
     1
 62
     7
176
     1
 62
   257
176
     1
 90
        1
176
     1
 90
        1
176
     1
 40
1.0
176
     1
 90
        8
176
     1
 62
     7
176
     1
 40
1.0
176
     1
 90
        1
176
     1
 90
        6
176
     1
 90
        2
176
     1
 62
     7
176
     1
 90
        5
176
     1
 90
        0
176
     1
 90
        0
176
     1
290
     0
176
     1
 90
        1
176
     1
 40
0.0
176
     1
 90
        0
176
     1
290
     0
176
     1
290
     1
176
     1
290
     1
176
     1
290
     0
176
     1
290
     0
176
     1
290
     0
176
     1
290
     0
176
     1
290
     0
176
     1
290
     0
176
     1
 90
       50
176
     1
 40
0.0
176
     1
 40
1.0
176
     1
 90
        0
176
     1
 62
    18
420
        0
176
     1
 90
       50
176
     1
 90
        3
176
     1
 62
     5
420
      255
176
     1
290
     0
176
     1
 90
       50
176
     1
 90
       50
176
     1
 90
       50
176
     1
290
     0
176
     1
 90
       50
176
     1
 62
   256
176
     0
 40
1.0
176
     0
 90
        2
176
     1
  1
strokes_ogs.tif
176
     1
290
     0
176
     1
 40
1.0
176
     1
 40
1.0
176
     1
  0
VISUALSTYLE
  5
23E4
102
{ACAD_REACTORS
330
23E3
102
}
330
23E3
100
AcDbVisualStyle
  2
Flat
 70
     0
177
     3
291
     1
 70
    58
 90
        2
176
     1
 90
        1
176
     1
 90
        1
176
     1
 90
        2
176
     1
 40
0.6
176
     1
 40
30.0
176
     1
 62
     7
420
 16777215
176
     1
 90
        0
176
     1
 90
        0
176
     1
 62
     7
176
     1
 62
   257
176
     1
 90
        1
176
     1
 90
        1
176
     1
 40
1.0
176
     1
 90
        8
176
     1
 62
     7
176
     1
 40
1.0
176
     1
 90
        1
176
     1
 90
        6
176
     1
 90
        2
176
     1
 62
     7
176
     1
 90
        5
176
     1
 90
        0
176
     1
 90
        0
176
     1
290
     0
176
     1
 90
       13
176
     1
 40
0.0
176
     1
 90
        0
176
     1
290
     0
176
     1
290
     1
176
     1
290
     1
176
     1
290
     0
176
     1
290
     0
176
     1
290
     0
176
     1
290
     0
176
     1
290
     0
176
     1
290
     0
176
     1
 90
       50
176
     1
 40
0.0
176
     1
 40
1.0
176
     1
 90
        0
176
     1
 62
    18
420
        0
176
     1
 90
       50
176
     1
 90
        3
176
     1
 62
     5
420
      255
176
     1
290
     0
176
     1
 90
       50
176
     1
 90
       50
176
     1
 90
       50
176
     1
290
     0
176
     1
 90
       50
176
     1
 62
   256
176
     0
 40
1.0
176
     0
 90
        2
176
     1
  1
strokes_ogs.tif
176
     1
290
     0
176
     1
 40
1.0
176
     1
 40
1.0
176
     1
  0
VISUALSTYLE
  5
23E5
102
{ACAD_REACTORS
330
23E3
102
}
330
23E3
100
AcDbVisualStyle
  2
FlatWithEdges
 70
     1
177
     3
291
     1
 70
    58
 90
        2
176
     1
 90
        1
176
     1
 90
        1
176
     1
 90
        2
176
     1
 40
0.6
176
     1
 40
30.0
176
     1
 62
     7
420
 16777215
176
     1
 90
        1
176
     1
 90
        0
176
     1
 62
     7
176
     1
 62
   257
176
     1
 90
        1
176
     1
 90
        1
176
     1
 40
1.0
176
     1
 90
        0
176
     1
 62
   257
176
     1
 40
1.0
176
     1
 90
        1
176
     1
 90
        6
176
     1
 90
        2
176
     1
 62
     7
176
     1
 90
        5
176
     1
 90
        0
176
     1
 90
        0
176
     1
290
     0
176
     1
 90
       13
176
     1
 40
0.0
176
     1
 90
        0
176
     1
290
     0
176
     1
290
     1
176
     1
290
     1
176
     1
290
     0
176
     1
290
     0
176
     1
290
     0
176
     1
290
     0
176
     1
290
     0
176
     1
290
     0
176
     1
 90
       50
176
     1
 40
0.0
176
     1
 40
1.0
176
     1
 90
        0
176
     1
 62
    18
420
        0
176
     1
 90
       50
176
     1
 90
        3
176
     1
 62
     5
420
      255
176
     1
290
     0
176
     1
 90
       50
176
     1
 90
       50
176
     1
 90
       50
176
     1
290
     0
176
     1
 90
       50
176
     1
 62
   256
176
     0
 40
1.0
176
     0
 90
        2
176
     1
  1
strokes_ogs.tif
176
     1
290
     0
176
     1
 40
1.0
176
     1
 40
1.0
176
     1
  0
VISUALSTYLE
  5
23E6
102
{ACAD_REACTORS
330
23E3
102
}
330
23E3
100
AcDbVisualStyle
  2
Gouraud
 70
     2
177
     3
291
     1
 70
    58
 90
        2
176
     1
 90
        2
176
     1
 90
        1
176
     1
 90
        2
176
     1
 40
0.6
176
     1
 40
30.0
176
     1
 62
     7
420
 16777215
176
     1
 90
        0
176
     1
 90
        0
176
     1
 62
     7
176
     1
 62
   257
176
     1
 90
        1
176
     1
 90
        1
176
     1
 40
1.0
176
     1
 90
        0
176
     1
 62
     7
176
     1
 40
1.0
176
     1
 90
        1
176
     1
 90
        6
176
     1
 90
        2
176
     1
 62
     7
176
     1
 90
        5
176
     1
 90
        0
176
     1
 90
        0
176
     1
290
     0
176
     1
 90
       13
176
     1
 40
0.0
176
     1
 90
        0
176
     1
290
     0
176
     1
290
     1
176
     1
290
     1
176
     1
290
     0
176
     1
290
     0
176
     1
290
     0
176
     1
290
     0
176
     1
290
     0
176
     1
290
     0
176
     1
 90
       50
176
     1
 40
0.0
176
     1
 40
1.0
176
     1
 90
        0
176
     1
 62
    18
420
        0
176
     1
 90
       50
176
     1
 90
        3
176
     1
 62
     5
420
      255
176
     1
290
     0
176
     1
 90
       50
176
     1
 90
       50
176
     1
 90
       50
176
     1
290
     0
176
     1
 90
       50
176
     1
 62
   256
176
     0
 40
1.0
176
     0
 90
        2
176
     1
  1
strokes_ogs.tif
176
     1
290
     0
176
     1
 40
1.0
176
     1
 40
1.0
176
     1
  0
VISUALSTYLE
  5
23E7
102
{ACAD_REACTORS
330
23E3
102
}
330
23E3
100
AcDbVisualStyle
  2
GouraudWithEdges
 70
     3
177
     3
291
     1
 70
    58
 90
        2
176
     1
 90
        2
176
     1
 90
        1
176
     1
 90
        2
176
     1
 40
0.6
176
     1
 40
30.0
176
     1
 62
     7
420
 16777215
176
     1
 90
        1
176
     1
 90
        0
176
     1
 62
     7
176
     1
 62
   257
176
     1
 90
        1
176
     1
 90
        1
176
     1
 40
1.0
176
     1
 90
        0
176
     1
 62
   257
176
     1
 40
1.0
176
     1
 90
        1
176
     1
 90
        6
176
     1
 90
        2
176
     1
 62
     7
176
     1
 90
        5
176
     1
 90
        0
176
     1
 90
        0
176
     1
290
     0
176
     1
 90
       13
176
     1
 40
0.0
176
     1
 90
        0
176
     1
290
     0
176
     1
290
     1
176
     1
290
     1
176
     1
290
     0
176
     1
290
     0
176
     1
290
     0
176
     1
290
     0
176
     1
290
     0
176
     1
290
     0
176
     1
 90
       50
176
     1
 40
0.0
176
     1
 40
1.0
176
     1
 90
        0
176
     1
 62
    18
420
        0
176
     1
 90
       50
176
     1
 90
        3
176
     1
 62
     5
420
      255
176
     1
290
     0
176
     1
 90
       50
176
     1
 90
       50
176
     1
 90
       50
176
     1
290
     0
176
     1
 90
       50
176
     1
 62
   256
176
     0
 40
1.0
176
     0
 90
        2
176
     1
  1
strokes_ogs.tif
176
     1
290
     0
176
     1
 40
1.0
176
     1
 40
1.0
176
     1
  0
VISUALSTYLE
  5
23EB
102
{ACAD_REACTORS
330
23E3
102
}
330
23E3
100
AcDbVisualStyle
  2
Hidden
 70
     6
177
     3
291
     0
 70
    58
 90
        1
176
     1
 90
        2
176
     1
 90
        2
176
     1
 90
        0
176
     1
 40
0.6
176
     1
 40
30.0
176
     1
 62
     7
420
 16777215
176
     1
 90
        2
176
     1
 90
        2
176
     1
 62
     7
176
     1
 62
   257
176
     1
 90
        2
176
     1
 90
        1
176
     1
 40
40.0
176
     1
 90
        0
176
     1
 62
   257
176
     1
 40
1.0
176
     1
 90
        1
176
     1
 90
        6
176
     1
 90
        2
176
     1
 62
     7
176
     1
 90
        3
176
     1
 90
        0
176
     1
 90
        0
176
     1
290
     0
176
     1
 90
        1
176
     1
 40
0.0
176
     1
 90
        0
176
     1
290
     0
176
     1
290
     1
176
     1
290
     1
176
     1
290
     0
176
     1
290
     0
176
     1
290
     0
176
     1
290
     0
176
     1
290
     0
176
     1
290
     0
176
     1
 90
       50
176
     1
 40
0.0
176
     1
 40
1.0
176
     1
 90
        0
176
     1
 62
    18
420
        0
176
     1
 90
       50
176
     1
 90
        3
176
     1
 62
     5
420
      255
176
     1
290
     0
176
     1
 90
       50
176
     1
 90
       50
176
     1
 90
       50
176
     1
290
     0
176
     1
 90
       50
176
     1
 62
   256
176
     0
 40
1.0
176
     0
 90
        2
176
     1
  1
strokes_ogs.tif
176
     1
290
     0
176
     1
 40
1.0
176
     1
 40
1.0
176
     1
  0
VISUALSTYLE
  5
23F9
102
{ACAD_REACTORS
330
23E3
102
}
330
23E3
100
AcDbVisualStyle
  2
JitterOff
 70
    20
177
     3
291
     1
 70
    58
 90
        2
176
     0
 90
        2
176
     0
 90
        0
176
     0
 90
        0
176
     0
 40
0.6
176
     0
 40
30.0
176
     0
 62
     7
420
 16777215
176
     0
 90
        1
176
     0
 90
        4
176
     0
 62
     7
176
     0
 62
   257
176
     0
 90
        1
176
     0
 90
        1
176
     0
 40
1.0
176
     0
 90
       10
176
     2
 62
     7
176
     0
 40
1.0
176
     0
 90
        1
176
     0
 90
        6
176
     0
 90
        2
176
     0
 62
     7
176
     0
 90
        5
176
     0
 90
        0
176
     0
 90
        0
176
     0
290
     0
176
     0
 90
        1
176
     0
 40
0.0
176
     0
 90
        0
176
     0
290
     0
176
     0
290
     1
176
     0
290
     1
176
     0
290
     0
176
     0
290
     0
176
     0
290
     0
176
     0
290
     0
176
     0
290
     0
176
     0
290
     0
176
     0
 90
       50
176
     0
 40
0.0
176
     0
 40
1.0
176
     0
 90
        0
176
     0
 62
    18
420
        0
176
     0
 90
       50
176
     0
 90
        3
176
     0
 62
     5
420
      255
176
     0
290
     0
176
     0
 90
       50
176
     0
 90
       50
176
     0
 90
       50
176
     0
290
     0
176
     0
 90
       50
176
     0
 62
   256
176
     0
 40
1.0
176
     0
 90
        2
176
     0
  1
strokes_ogs.tif
176
     0
290
     0
176
     0
 40
1.0
176
     0
 40
1.0
176
     0
  0
VISUALSTYLE
  5
23F1
102
{ACAD_REACTORS
330
23E3
102
}
330
23E3
100
AcDbVisualStyle
  2
Linepattern
 70
    14
177
     3
291
     1
 70
    58
 90
        2
176
     1
 90
        2
176
     1
 90
        0
176
     1
 90
        0
176
     1
 40
0.6
176
     1
 40
30.0
176
     1
 62
     7
420
 16777215
176
     1
 90
        1
176
     1
 90
        4
176
     1
 62
     7
176
     1
 62
   257
176
     1
 90
        7
176
     1
 90
        7
176
     1
 40
1.0
176
     1
 90
        8
176
     1
 62
     7
176
     1
 40
1.0
176
     1
 90
        1
176
     1
 90
        6
176
     1
 90
        2
176
     1
 62
     7
176
     1
 90
        5
176
     1
 90
        0
176
     1
 90
        0
176
     1
290
     0
176
     1
 90
        1
176
     1
 40
0.0
176
     1
 90
        0
176
     1
290
     0
176
     1
290
     1
176
     1
290
     1
176
     1
290
     0
176
     1
290
     0
176
     1
290
     0
176
     1
290
     0
176
     1
290
     0
176
     1
290
     0
176
     1
 90
       50
176
     1
 40
0.0
176
     1
 40
1.0
176
     1
 90
        0
176
     1
 62
    18
420
        0
176
     1
 90
       50
176
     1
 90
        3
176
     1
 62
     5
420
      255
176
     1
290
     0
176
     1
 90
       50
176
     1
 90
       50
176
     1
 90
       50
176
     1
290
     0
176
     1
 90
       50
176
     1
 62
   256
176
     0
 40
1.0
176
     0
 90
        2
176
     1
  1
strokes_ogs.tif
176
     1
290
     0
176
     1
 40
1.0
176
     1
 40
1.0
176
     1
  0
VISUALSTYLE
  5
23FA
102
{ACAD_REACTORS
330
23E3
102
}
330
23E3
100
AcDbVisualStyle
  2
OverhangOff
 70
    21
177
     3
291
     1
 70
    58
 90
        2
176
     0
 90
        2
176
     0
 90
        0
176
     0
 90
        0
176
     0
 40
0.6
176
     0
 40
30.0
176
     0
 62
     7
420
 16777215
176
     0
 90
        1
176
     0
 90
        4
176
     0
 62
     7
176
     0
 62
   257
176
     0
 90
        1
176
     0
 90
        1
176
     0
 40
1.0
176
     0
 90
        9
176
     2
 62
     7
176
     0
 40
1.0
176
     0
 90
        1
176
     0
 90
        6
176
     0
 90
        2
176
     0
 62
     7
176
     0
 90
        5
176
     0
 90
        0
176
     0
 90
        0
176
     0
290
     0
176
     0
 90
        1
176
     0
 40
0.0
176
     0
 90
        0
176
     0
290
     0
176
     0
290
     1
176
     0
290
     1
176
     0
290
     0
176
     0
290
     0
176
     0
290
     0
176
     0
290
     0
176
     0
290
     0
176
     0
290
     0
176
     0
 90
       50
176
     0
 40
0.0
176
     0
 40
1.0
176
     0
 90
        0
176
     0
 62
    18
420
        0
176
     0
 90
       50
176
     0
 90
        3
176
     0
 62
     5
420
      255
176
     0
290
     0
176
     0
 90
       50
176
     0
 90
       50
176
     0
 90
       50
176
     0
290
     0
176
     0
 90
       50
176
     0
 62
   256
176
     0
 40
1.0
176
     0
 90
        2
176
     0
  1
strokes_ogs.tif
176
     0
290
     0
176
     0
 40
1.0
176
     0
 40
1.0
176
     0
  0
VISUALSTYLE
  5
23ED
102
{ACAD_REACTORS
330
23E3
102
}
330
23E3
100
AcDbVisualStyle
  2
Realistic
 70
     8
177
     3
291
     0
 70
    58
 90
        2
176
     1
 90
        3
176
     1
 90
        0
176
     1
 90
        2
176
     1
 40
0.6
176
     1
 40
30.0
176
     1
 62
     7
420
 16777215
176
     1
 90
        0
176
     1
 90
        0
176
     1
 62
     7
176
     1
 62
   257
176
     1
 90
        1
176
     1
 90
        1
176
     1
 40
1.0
176
     1
 90
        8
176
     1
 62
   257
176
     1
 40
1.0
176
     1
 90
        1
176
     1
 90
        6
176
     1
 90
        2
176
     1
 62
     7
176
     1
 90
        3
176
     1
 90
        0
176
     1
 90
        0
176
     1
290
     0
176
     1
 90
       13
176
     1
 40
0.0
176
     1
 90
        0
176
     1
290
     0
176
     1
290
     1
176
     1
290
     1
176
     1
290
     0
176
     1
290
     0
176
     1
290
     0
176
     1
290
     0
176
     1
290
     0
176
     1
290
     0
176
     1
 90
       50
176
     1
 40
0.0
176
     1
 40
1.0
176
     1
 90
        0
176
     1
 62
    18
420
        0
176
     1
 90
       50
176
     1
 90
        3
176
     1
 62
     5
420
      255
176
     1
290
     0
176
     1
 90
       50
176
     1
 90
       50
176
     1
 90
       50
176
     1
290
     0
176
     1
 90
       50
176
     1
 62
   256
176
     0
 40
1.0
176
     0
 90
        2
176
     1
  1
strokes_ogs.tif
176
     1
290
     0
176
     1
 40
1.0
176
     1
 40
1.0
176
     1
  0
VISUALSTYLE
  5
23F8
102
{ACAD_REACTORS
330
23E3
102
}
330
23E3
100
AcDbVisualStyle
  2
Shaded
 70
    27
177
     3
291
     0
 70
    58
 90
        2
176
     1
 90
        2
176
     1
 90
        1
176
     1
 90
        2
176
     1
 40
0.6
176
     1
 40
30.0
176
     1
 62
     7
420
 16777215
176
     1
 90
        0
176
     1
 90
        4
176
     1
 62
     7
176
     1
 62
   257
176
     1
 90
        1
176
     1
 90
        1
176
     1
 40
1.0
176
     1
 90
        8
176
     1
 62
   257
176
     1
 40
1.0
176
     1
 90
        1
176
     1
 90
        6
176
     1
 90
        2
176
     1
 62
     8
420
  7895160
176
     1
 90
        3
176
     1
 90
        0
176
     1
 90
        0
176
     1
290
     0
176
     1
 90
        5
176
     1
 40
0.0
176
     1
 90
        0
176
     1
290
     0
176
     1
290
     1
176
     1
290
     1
176
     1
290
     0
176
     1
290
     0
176
     1
290
     0
176
     1
290
     0
176
     1
290
     0
176
     1
290
     0
176
     1
 90
       50
176
     1
 40
0.0
176
     1
 40
1.0
176
     1
 90
        0
176
     1
 62
    18
420
        0
176
     1
 90
       50
176
     1
 90
        3
176
     1
 62
     5
420
      255
176
     1
290
     0
176
     1
 90
       50
176
     1
 90
       50
176
     1
 90
       50
176
     1
290
     0
176
     1
 90
       50
176
     1
 62
   256
176
     0
 40
1.0
176
     0
 90
        2
176
     1
  1
strokes_ogs.tif
176
     1
290
     0
176
     1
 40
1.0
176
     1
 40
1.0
176
     1
  0
VISUALSTYLE
  5
23F7
102
{ACAD_REACTORS
330
23E3
102
}
330
23E3
100
AcDbVisualStyle
  2
Shaded with edges
 70
    26
177
     3
291
     0
 70
    58
 90
        2
176
     1
 90
        2
176
     1
 90
        1
176
     1
 90
        2
176
     1
 40
0.6
176
     1
 40
30.0
176
     1
 62
     7
420
 16777215
176
     1
 90
        1
176
     1
 90
        2
176
     1
 62
     7
176
     1
 62
   257
176
     1
 90
        2
176
     1
 90
        1
176
     1
 40
1.0
176
     1
 90
        8
176
     1
 62
   257
176
     1
 40
1.0
176
     1
 90
        1
176
     1
 90
        6
176
     1
 90
        2
176
     1
 62
     7
176
     1
 90
        3
176
     1
 90
        0
176
     1
 90
        0
176
     1
290
     0
176
     1
 90
        5
176
     1
 40
0.0
176
     1
 90
        0
176
     1
290
     0
176
     1
290
     1
176
     1
290
     1
176
     1
290
     0
176
     1
290
     0
176
     1
290
     0
176
     1
290
     0
176
     1
290
     0
176
     1
290
     0
176
     1
 90
       50
176
     1
 40
0.0
176
     1
 40
1.0
176
     1
 90
        0
176
     1
 62
    18
420
        0
176
     1
 90
       50
176
     1
 90
        3
176
     1
 62
     5
420
      255
176
     1
290
     0
176
     1
 90
       50
176
     1
 90
       50
176
     1
 90
       50
176
     1
290
     0
176
     1
 90
       50
176
     1
 62
   256
176
     0
 40
1.0
176
     0
 90
        2
176
     1
  1
strokes_ogs.tif
176
     1
290
     0
176
     1
 40
1.0
176
     1
 40
1.0
176
     1
  0
VISUALSTYLE
  5
23F4
102
{ACAD_REACTORS
330
23E3
102
}
330
23E3
100
AcDbVisualStyle
  2
Shades of Gray
 70
    23
177
     3
291
     0
 70
    58
 90
        2
176
     1
 90
        2
176
     1
 90
        3
176
     1
 90
        0
176
     1
 40
0.6
176
     1
 40
30.0
176
     1
 62
     7
420
 16777215
176
     1
 90
        2
176
     1
 90
        2
176
     1
 62
     7
176
     1
 62
     7
176
     1
 90
        1
176
     1
 90
        1
176
     1
 40
40.0
176
     1
 90
        8
176
     1
 62
     7
176
     1
 40
1.0
176
     1
 90
        1
176
     1
 90
        6
176
     1
 90
        2
176
     1
 62
     7
176
     1
 90
        3
176
     1
 90
        0
176
     1
 90
        0
176
     1
290
     0
176
     1
 90
        1
176
     1
 40
0.0
176
     1
 90
        0
176
     1
290
     0
176
     1
290
     1
176
     1
290
     1
176
     1
290
     0
176
     1
290
     0
176
     1
290
     0
176
     1
290
     0
176
     1
290
     0
176
     1
290
     0
176
     1
 90
       50
176
     1
 40
0.0
176
     1
 40
1.0
176
     1
 90
        0
176
     1
 62
    18
420
        0
176
     1
 90
       50
176
     1
 90
        3
176
     1
 62
     5
420
      255
176
     1
290
     0
176
     1
 90
       50
176
     1
 90
       50
176
     1
 90
       50
176
     1
290
     0
176
     1
 90
       50
176
     1
 62
   256
176
     0
 40
1.0
176
     0
 90
        2
176
     1
  1
strokes_ogs.tif
176
     1
290
     0
176
     1
 40
1.0
176
     1
 40
1.0
176
     1
  0
VISUALSTYLE
  5
23F5
102
{ACAD_REACTORS
330
23E3
102
}
330
23E3
100
AcDbVisualStyle
  2
Sketchy
 70
    24
177
     3
291
     0
 70
    58
 90
        1
176
     1
 90
        2
176
     1
 90
        2
176
     1
 90
        0
176
     1
 40
0.6
176
     1
 40
30.0
176
     1
 62
     7
420
 16777215
176
     1
 90
        2
176
     1
 90
        2
176
     1
 62
     7
176
     1
 62
     7
176
     1
 90
        1
176
     1
 90
        1
176
     1
 40
40.0
176
     1
 90
       11
176
     1
 62
     7
176
     1
 40
1.0
176
     1
 90
        1
176
     1
 90
        6
176
     1
 90
        2
176
     1
 62
     7
176
     1
 90
        6
176
     1
 90
        0
176
     1
 90
        0
176
     1
290
     0
176
     1
 90
        1
176
     1
 40
0.0
176
     1
 90
        0
176
     1
290
     0
176
     1
290
     1
176
     1
290
     1
176
     1
290
     0
176
     1
290
     0
176
     1
290
     0
176
     1
290
     0
176
     1
290
     0
176
     1
290
     0
176
     1
 90
       50
176
     1
 40
0.0
176
     1
 40
1.0
176
     1
 90
        0
176
     1
 62
    18
420
        0
176
     1
 90
       50
176
     1
 90
        3
176
     1
 62
     5
420
      255
176
     1
290
     0
176
     1
 90
       50
176
     1
 90
       50
176
     1
 90
       50
176
     1
290
     0
176
     1
 90
       50
176
     1
 62
   256
176
     0
 40
1.0
176
     0
 90
        2
176
     1
  1
strokes_ogs.tif
176
     1
290
     0
176
     1
 40
1.0
176
     1
 40
1.0
176
     1
  0
VISUALSTYLE
  5
23F0
102
{ACAD_REACTORS
330
23E3
102
}
330
23E3
100
AcDbVisualStyle
  2
Thicken
 70
    13
177
     3
291
     1
 70
    58
 90
        2
176
     1
 90
        2
176
     1
 90
        0
176
     1
 90
        0
176
     1
 40
0.6
176
     1
 40
30.0
176
     1
 62
     7
420
 16777215
176
     1
 90
        1
176
     1
 90
        4
176
     1
 62
     7
176
     1
 62
   257
176
     1
 90
        1
176
     1
 90
        1
176
     1
 40
1.0
176
     1
 90
       12
176
     1
 62
     7
176
     1
 40
1.0
176
     1
 90
        1
176
     1
 90
        6
176
     1
 90
        2
176
     1
 62
     7
176
     1
 90
        5
176
     1
 90
        0
176
     1
 90
        0
176
     1
290
     0
176
     1
 90
        1
176
     1
 40
0.0
176
     1
 90
        0
176
     1
290
     0
176
     1
290
     1
176
     1
290
     1
176
     1
290
     0
176
     1
290
     0
176
     1
290
     0
176
     1
290
     0
176
     1
290
     0
176
     1
290
     0
176
     1
 90
       50
176
     1
 40
0.0
176
     1
 40
1.0
176
     1
 90
        0
176
     1
 62
    18
420
        0
176
     1
 90
       50
176
     1
 90
        3
176
     1
 62
     5
420
      255
176
     1
290
     0
176
     1
 90
       50
176
     1
 90
       50
176
     1
 90
       50
176
     1
290
     0
176
     1
 90
       50
176
     1
 62
   256
176
     0
 40
1.0
176
     0
 90
        2
176
     1
  1
strokes_ogs.tif
176
     1
290
     0
176
     1
 40
1.0
176
     1
 40
1.0
176
     1
  0
VISUALSTYLE
  5
23EA
102
{ACAD_REACTORS
330
23E3
102
}
330
23E3
100
AcDbVisualStyle
  2
Wireframe
 70
     5
177
     3
291
     0
 70
    58
 90
        0
176
     1
 90
        2
176
     1
 90
        0
176
     1
 90
        0
176
     1
 40
0.6
176
     1
 40
30.0
176
     1
 62
     7
420
 16777215
176
     1
 90
        1
176
     1
 90
        4
176
     1
 62
     7
176
     1
 62
   257
176
     1
 90
        1
176
     1
 90
        1
176
     1
 40
1.0
176
     1
 90
        0
176
     1
 62
   257
176
     1
 40
1.0
176
     1
 90
        1
176
     1
 90
        6
176
     1
 90
        2
176
     1
 62
     7
176
     1
 90
        3
176
     1
 90
        0
176
     1
 90
        0
176
     1
290
     0
176
     1
 90
        1
176
     1
 40
0.0
176
     1
 90
        0
176
     1
290
     0
176
     1
290
     1
176
     1
290
     1
176
     1
290
     0
176
     1
290
     0
176
     1
290
     0
176
     1
290
     0
176
     1
290
     0
176
     1
290
     0
176
     1
 90
       50
176
     1
 40
0.0
176
     1
 40
1.0
176
     1
 90
        0
176
     1
 62
    18
420
        0
176
     1
 90
       50
176
     1
 90
        3
176
     1
 62
     5
420
      255
176
     1
290
     0
176
     1
 90
       50
176
     1
 90
       50
176
     1
 90
       50
176
     1
290
     0
176
     1
 90
       50
176
     1
 62
   256
176
     0
 40
1.0
176
     0
 90
        2
176
     1
  1
strokes_ogs.tif
176
     1
290
     0
176
     1
 40
1.0
176
     1
 40
1.0
176
     1
  0
VISUALSTYLE
  5
23F6
102
{ACAD_REACTORS
330
23E3
102
}
330
23E3
100
AcDbVisualStyle
  2
X-Ray
 70
    25
177
     3
291
     0
 70
    58
 90
        2
176
     1
 90
        2
176
     1
 90
        1
176
     1
 90
        1
176
     1
 40
0.5
176
     1
 40
30.0
176
     1
 62
     7
420
 16777215
176
     1
 90
        1
176
     1
 90
        0
176
     1
 62
     7
176
     1
 62
   257
176
     1
 90
        1
176
     1
 90
        1
176
     1
 40
1.0
176
     1
 90
        8
176
     1
 62
     7
176
     1
 40
1.0
176
     1
 90
        1
176
     1
 90
        6
176
     1
 90
        2
176
     1
 62
     7
176
     1
 90
        3
176
     1
 90
        0
176
     1
 90
        0
176
     1
290
     0
176
     1
 90
       13
176
     1
 40
0.0
176
     1
 90
        0
176
     1
290
     0
176
     1
290
     1
176
     1
290
     1
176
     1
290
     0
176
     1
290
     0
176
     1
290
     0
176
     1
290
     0
176
     1
290
     0
176
     1
290
     0
176
     1
 90
       50
176
     1
 40
0.0
176
     1
 40
1.0
176
     1
 90
        0
176
     1
 62
    18
420
        0
176
     1
 90
       50
176
     1
 90
        3
176
     1
 62
     5
420
      255
176
     1
290
     0
176
     1
 90
       50
176
     1
 90
       50
176
     1
 90
       50
176
     1
290
     0
176
     1
 90
       50
176
     1
 62
   256
176
     0
 40
1.0
176
     0
 90
        2
176
     1
  1
strokes_ogs.tif
176
     1
290
     0
176
     1
 40
1.0
176
     1
 40
1.0
176
     1
  0
DICTIONARYVAR
  5
2451
102
{ACAD_REACTORS
330
125
102
}
330
125
100
DictionaryVariables
280
     0
  1
1:1
  0
DICTIONARYVAR
  5
244D
102
{ACAD_REACTORS
330
125
102
}
330
125
100
DictionaryVariables
280
     0
  1
STANDARD
  0
DICTIONARYVAR
  5
244C
102
{ACAD_REACTORS
330
125
102
}
330
125
100
DictionaryVariables
280
     0
  1
STANDARD
  0
DICTIONARYVAR
  5
244E
102
{ACAD_REACTORS
330
125
102
}
330
125
100
DictionaryVariables
280
     0
  1
Imperial24
  0
DICTIONARYVAR
  5
244F
102
{ACAD_REACTORS
330
125
102
}
330
125
100
DictionaryVariables
280
     0
  1
Imperial24
  0
DICTIONARYVAR
  5
126
102
{ACAD_REACTORS
330
125
102
}
330
125
100
DictionaryVariables
280
     0
  1
1
  0
DICTIONARYVAR
  5
2453
102
{ACAD_REACTORS
330
125
102
}
330
125
100
DictionaryVariables
280
     0
  1
1
  0
DICTIONARYVAR
  5
2454
102
{ACAD_REACTORS
330
125
102
}
330
125
100
DictionaryVariables
280
     0
  1
15
  0
DICTIONARYVAR
  5
2452
102
{ACAD_REACTORS
330
125
102
}
330
125
100
DictionaryVariables
280
     0
  1
0
  0
DICTIONARYVAR
  5
2450
102
{ACAD_REACTORS
330
125
102
}
330
125
100
DictionaryVariables
280
     0
  1
0
  0
DICTIONARYVAR
  5
127
102
{ACAD_REACTORS
330
125
102
}
330
125
100
DictionaryVariables
280
     0
  1

  0
FIELD
  5
245C
102
{ACAD_REACTORS
330
245B
102
}
330
245B
100
AcDbField
  1
_text
  2
%<\_FldIdx 0>%
 90
        1
360
245D
 97
        0
 91
       63
 92
        0
 94
        9
 95
        2
 96
        0
300

 93
        1
  6
ACFD_FIELDTEXT_CHECKSUM
 93
        2
 90
        2
140
6621.0
 94
        0
300

302

304
ACVALUE_END
  7
ACFD_FIELD_VALUE
 93
        3
 90
        0
 94
        0
300

302

304
ACVALUE_END
301

 98
        0
  0
DICTIONARY
  5
2449
330
2415
100
AcDbDictionary
280
     1
281
     1
  3
ACAD_XREC_ROUNDTRIP
360
246F
  0
DICTIONARY
  5
23D4
330
23D3
100
AcDbDictionary
280
     1
281
     1
  3
BUMPTILE
360
23D6
  3
DIFFUSETILE
360
23D5
  3
OPACITYTILE
360
23D9
  3
REFLECTIONTILE
360
23D8
  3
REFRACTIONTILE
360
23DA
  3
SPECULARTILE
360
23D7
  0
DICTIONARY
  5
23CC
330
23CB
100
AcDbDictionary
280
     1
281
     1
  3
BUMPTILE
360
23CE
  3
DIFFUSETILE
360
23CD
  3
OPACITYTILE
360
23D1
  3
REFLECTIONTILE
360
23D0
  3
REFRACTIONTILE
360
23D2
  3
SPECULARTILE
360
23CF
  0
DICTIONARY
  5
23DC
330
23DB
100
AcDbDictionary
280
     1
281
     1
  3
BUMPTILE
360
23DE
  3
DIFFUSETILE
360
23DD
  3
OPACITYTILE
360
23E1
  3
REFLECTIONTILE
360
23E0
  3
REFRACTIONTILE
360
23E2
  3
SPECULARTILE
360
23DF
  0
DICTIONARY
  5
2447
330
2413
100
AcDbDictionary
280
     1
281
     1
  3
ACAD_XREC_ROUNDTRIP
360
246E
  0
DICTIONARY
  5
246C
330
23FD
100
AcDbDictionary
280
     1
281
     1
  3
ACAD_ROUNDTRIP_2008_TABLESTYLE_CELLSTYLEMAP
360
246D
  0
FIELD
  5
245D
330
245C
100
AcDbField
  1
AcVar
  2
\AcVar Filename \f "%tc1%fn6"
 90
        0
 97
        0
 91
       63
 92
        0
 94
       59
 95
        2
 96
        0
300

 93
        1
  6
Variable
 93
        2
 90
        4
  1
Filename
 94
        0
300

302

304
ACVALUE_END
  7
ACFD_FIELD_VALUE
 93
        4
 90
        4
  1
C:\Users\w.koehlhoff.LOROWERK\Arbeit Koeh\AUTOCAD\Arbeit\WERBUNG\00984.125X.dxf
 94
        0
300
%tc1%fn6
302
00984.125X.DXF
304
ACVALUE_END
301
00984.125X.DXF
 98
       14
  0
XRECORD
  5
246F
102
{ACAD_REACTORS
330
2449
102
}
330
2449
100
AcDbXrecord
280
     1
102
DISPLAYNAME
  1
Imperial24
102
FLAGS
 90
        0
  0
XRECORD
  5
23D6
102
{ACAD_REACTORS
330
23D4
102
}
330
23D4
100
AcDbXrecord
280
     1
270
     1
271
     1
  0
XRECORD
  5
23D5
102
{ACAD_REACTORS
330
23D4
102
}
330
23D4
100
AcDbXrecord
280
     1
270
     1
271
     1
  0
XRECORD
  5
23D9
102
{ACAD_REACTORS
330
23D4
102
}
330
23D4
100
AcDbXrecord
280
     1
270
     1
271
     1
  0
XRECORD
  5
23D8
102
{ACAD_REACTORS
330
23D4
102
}
330
23D4
100
AcDbXrecord
280
     1
270
     1
271
     1
  0
XRECORD
  5
23DA
102
{ACAD_REACTORS
330
23D4
102
}
330
23D4
100
AcDbXrecord
280
     1
270
     1
271
     1
  0
XRECORD
  5
23D7
102
{ACAD_REACTORS
330
23D4
102
}
330
23D4
100
AcDbXrecord
280
     1
270
     1
271
     1
  0
XRECORD
  5
23CE
102
{ACAD_REACTORS
330
23CC
102
}
330
23CC
100
AcDbXrecord
280
     1
270
     1
271
     1
  0
XRECORD
  5
23CD
102
{ACAD_REACTORS
330
23CC
102
}
330
23CC
100
AcDbXrecord
280
     1
270
     1
271
     1
  0
XRECORD
  5
23D1
102
{ACAD_REACTORS
330
23CC
102
}
330
23CC
100
AcDbXrecord
280
     1
270
     1
271
     1
  0
XRECORD
  5
23D0
102
{ACAD_REACTORS
330
23CC
102
}
330
23CC
100
AcDbXrecord
280
     1
270
     1
271
     1
  0
XRECORD
  5
23D2
102
{ACAD_REACTORS
330
23CC
102
}
330
23CC
100
AcDbXrecord
280
     1
270
     1
271
     1
  0
XRECORD
  5
23CF
102
{ACAD_REACTORS
330
23CC
102
}
330
23CC
100
AcDbXrecord
280
     1
270
     1
271
     1
  0
XRECORD
  5
23DE
102
{ACAD_REACTORS
330
23DC
102
}
330
23DC
100
AcDbXrecord
280
     1
270
     1
271
     1
  0
XRECORD
  5
23DD
102
{ACAD_REACTORS
330
23DC
102
}
330
23DC
100
AcDbXrecord
280
     1
270
     1
271
     1
  0
XRECORD
  5
23E1
102
{ACAD_REACTORS
330
23DC
102
}
330
23DC
100
AcDbXrecord
280
     1
270
     1
271
     1
  0
XRECORD
  5
23E0
102
{ACAD_REACTORS
330
23DC
102
}
330
23DC
100
AcDbXrecord
280
     1
270
     1
271
     1
  0
XRECORD
  5
23E2
102
{ACAD_REACTORS
330
23DC
102
}
330
23DC
100
AcDbXrecord
280
     1
270
     1
271
     1
  0
XRECORD
  5
23DF
102
{ACAD_REACTORS
330
23DC
102
}
330
23DC
100
AcDbXrecord
280
     1
270
     1
271
     1
  0
XRECORD
  5
246E
102
{ACAD_REACTORS
330
2447
102
}
330
2447
100
AcDbXrecord
280
     1
102
DISPLAYNAME
  1
Imperial24
102
FLAGS
 90
        0
  0
CELLSTYLEMAP
  5
246D
102
{ACAD_REACTORS
330
246C
102
}
330
246C
100
AcDbCellStyleMap
 90
        3
300
CELLSTYLE
  1
TABLEFORMAT_BEGIN
 90
        5
170
     1
 91
        0
 92
    32768
 62
   257
 93
        1
300
CONTENTFORMAT
  1
CONTENTFORMAT_BEGIN
 90
        0
 91
        0
 92
      512
 93
        0
300

 40
0.0
140
1.0
 94
        5
 62
     0
340
11
144
0.25
309
CONTENTFORMAT_END
171
     0
 94
        0
309
TABLEFORMAT_END
  1
CELLSTYLE_BEGIN
 90
        1
 91
        1
300
_TITLE
309
CELLSTYLE_END
300
CELLSTYLE
  1
TABLEFORMAT_BEGIN
 90
        5
170
     1
 91
        0
 92
        0
 62
   257
 93
        1
300
CONTENTFORMAT
  1
CONTENTFORMAT_BEGIN
 90
        0
 91
        0
 92
      512
 93
        0
300

 40
0.0
140
1.0
 94
        5
 62
     0
340
11
144
0.18
309
CONTENTFORMAT_END
171
     0
 94
        0
309
TABLEFORMAT_END
  1
CELLSTYLE_BEGIN
 90
        2
 91
        1
300
_HEADER
309
CELLSTYLE_END
300
CELLSTYLE
  1
TABLEFORMAT_BEGIN
 90
        5
170
     1
 91
        0
 92
        0
 62
   257
 93
        1
300
CONTENTFORMAT
  1
CONTENTFORMAT_BEGIN
 90
        0
 91
        0
 92
      512
 93
        0
300

 40
0.0
140
1.0
 94
        2
 62
     0
340
11
144
0.18
309
CONTENTFORMAT_END
171
     0
 94
        0
309
TABLEFORMAT_END
  1
CELLSTYLE_BEGIN
 90
        3
 91
        2
300
_DATA
309
CELLSTYLE_END
  0
ENDSEC
  0
SECTION
  2
ACDSDATA
 70
     2
 71
     8
  0
ACDSSCHEMA
 90
        0
  1
AcDb_Thumbnail_Schema
  2
AcDbDs::ID
280
    10
 91
        8
  2
Thumbnail_Data
280
    15
 91
        0
101
ACDSRECORD
 95
        0
 90
        1
  2
AcDbDs::TreatedAsObjectData
280
     1
291
     1
101
ACDSRECORD
 95
        0
 90
        2
  2
AcDbDs::Legacy
280
     1
291
     1
101
ACDSRECORD
  1
AcDbDs::ID
 90
        3
  2
AcDs:Indexable
280
     1
291
     1
101
ACDSRECORD
  1
AcDbDs::ID
 90
        4
  2
AcDbDs::HandleAttribute
280
     7
282
     1
  0
ACDSSCHEMA
 90
        1
  1
AcDbDs::TreatedAsObjectDataSchema
  2
AcDbDs::TreatedAsObjectData
280
     1
 91
        0
  0
ACDSSCHEMA
 90
        2
  1
AcDbDs::LegacySchema
  2
AcDbDs::Legacy
280
     1
 91
        0
  0
ACDSSCHEMA
 90
        3
  1
AcDbDs::IndexedPropertySchema
  2
AcDs:Indexable
280
     1
 91
        0
  0
ACDSSCHEMA
 90
        4
  1
AcDbDs::HandleAttributeSchema
  2
AcDbDs::HandleAttribute
280
     7
 91
        1
284
     1
  0
ACDSRECORD
 90
        0
  2
AcDbDs::ID
280
    10
320
21
  2
Thumbnail_Data
280
    15
 94
     2227
310
89504E470D0A1A0A0000000D49484452000001000000008108030000001837949D00000300504C5445000000000000C8C8C80000000000000000000000000000000000000000000000000000330000660000990000CC0000FF0033000033330033660033990033CC0033FF0066000066330066660066990066CC0066FF0099
310
000099330099660099990099CC0099FF00CC0000CC3300CC6600CC9900CCCC00CCFF00FF0000FF3300FF6600FF9900FFCC00FFFF3300003300333300663300993300CC3300FF3333003333333333663333993333CC3333FF3366003366333366663366993366CC3366FF3399003399333399663399993399CC3399FF33CC00
310
33CC3333CC6633CC9933CCCC33CCFF33FF0033FF3333FF6633FF9933FFCC33FFFF6600006600336600666600996600CC6600FF6633006633336633666633996633CC6633FF6666006666336666666666996666CC6666FF6699006699336699666699996699CC6699FF66CC0066CC3366CC6666CC9966CCCC66CCFF66FF0066
310
FF3366FF6666FF9966FFCC66FFFF9900009900339900669900999900CC9900FF9933009933339933669933999933CC9933FF9966009966339966669966999966CC9966FF9999009999339999669999999999CC9999FF99CC0099CC3399CC6699CC9999CCCC99CCFF99FF0099FF3399FF6699FF9999FFCC99FFFFCC0000CC00
310
33CC0066CC0099CC00CCCC00FFCC3300CC3333CC3366CC3399CC33CCCC33FFCC6600CC6633CC6666CC6699CC66CCCC66FFCC9900CC9933CC9966CC9999CC99CCCC99FFCCCC00CCCC33CCCC66CCCC99CCCCCCCCCCFFCCFF00CCFF33CCFF66CCFF99CCFFCCCCFFFFFF0000FF0033FF0066FF0099FF00CCFF00FFFF3300FF3333
310
FF3366FF3399FF33CCFF33FFFF6600FF6633FF6666FF6699FF66CCFF66FFFF9900FF9933FF9966FF9999FF99CCFF99FFFFCC00FFCC33FFCC66FFCC99FFCCCCFFCCFFFFFF00FFFF33FFFF66FFFF99FFFFCCFFFFFF0000000D0D0D1A1A1A2828283535354343435050505D5D5D6B6B6B787878868686939393A1A1A1AEAEAEBB
310
BBBBC9C9C9D6D6D6E4E4E4F1F1F1FFFFFF00000000000000000000000000000000000000000000000000000000000008F1915C0000055A4944415478DAED9DDD79EB200C86358EF61FC0375D436BE8BEE1CF015B18124382083CA76D4EE3D2F2F221044836C02A158554969600BA23E60EBDD6A12E5454FA00D0336A178005
310
600158001680056044009B290BC07C00B84F510460B025C2023030005A002607505AA8527125AB1280D880B71410D5A44E0154E32D5059F7EC6B520AE0E61030F3BFDFD65304006DCB09AFAEA22A0518000E1411AA02E03AF74201BE3D0599986EF735813200E642CC75B1ED567BE5B54CCC4FDB2D4D443D008C58C96AD67F
310
7E6B1BFFF912C95569FEFDA602C2676D3600DCC8CDFDEAC4065CFE32F4287501D867819B4630BCAB6E16E8E007280570D71374004019003CB0B8B11610EAD4B027D8613104AA00F4580EEB04D0704364019812002C009F00C00BC002B000FCF42CB0007C06C05B47BEEDFCBD110054FF45A6CD7F7BB1DF98014075EBC1B73B
310
FED25108430138743D012442981EC0DEFCC34A377C17E70680E81BBF0FFA7DDF2C30E8218261003CBA1F0E268F62CB009D44300800D7FD87814E47F3F060D45C04630040DFBF78E108217611C11000ACFCCF3F4522A60901D88609E22669A04063020300C09CB2494005AD2783EF034067DCEA1643E8460B4E04E0A245245F
310
CF4DEDC0F701E47B54FECBB8ED54F06D00767AC717F603D89BCC4900A0F3FEEA01B01F34D300B8326994D955B8528D3200D74DA14C2576104C02E0724EA35C1D2D25F05500858650AE8A9656A031806CC40AE77CC06A007C20378502AE954C27F397AC1E503300AA19CA94E7873B00D20CA0E0D6535E3F4F760A01ECDB9D85
310
11E06A33B9832CAFA0D1875DA336002628C17CB2100AB599E44916CD87FDE9102CAD08C00B814E8FDA36D8E433A56324952200519874E1EFB60AC82F237723782F58FA73009213CF9A7EA3C24E52881356A380480555E1FD543E4EB81728FD59005B507375982395DBEF14A007409CEB5151B8943162ABC15BF783FA8202CC
310
6535BAAD09295039042A01708D93A70940B0689573005778B9FB2C303E80EDD56990CB6EBE264728BA1B489D1FC8E5750E2A050015AE307371A59BBAC2C30F81E47E303ECD2DBF1A64794BECB018329B627BDEA0B2D5E00E40DCD9632803F0FB014A0144FB018204185E00A0C9138C2F439FF22D0060A802E0C58377DBFFD5
310
2DB168674FF4FEA82400A55B622980E45A166B9301206806B02B3901C05007A0E5D9D84847630CB500A6391B4C9AC2500960A2C3D1C80A088B5FFA8000BE1F21E207015FD47616C03C0112BE3BE5BD0FEA3F00060160027F6A0120FECD1525660601436D9C6008959C09403E4A8032FAFF9B2B52341B2A2C86CA360F971E24
310
585A8C14207109305FB0742E5DE008A04FC2C02009132E62FA80804ECD87F67943A3E40CA1901C4749F33B250D8D943415B2A64EB5B9E687EE6F795BE5B1D2E69E08C2C33FA2D4C1A7996C7A63E9B112273D82BFA8E30142D2E02E8DC60F59192A7738C99D4D4AB4F98F2672C697CD7F983C0A2F85CDBDB277DC3CAB038FAA
310
192C79DA766F48952538B71EEC46E8168EC737FF411100AE04C043020810BCD107E1F428A3001B5105CFF7D09DC6D86F9A97F676FD9BBD6E2F83024806BAF096AC8070FE140338173D00FCCD22515C106614F02B004405CC310BDC50C0C3A86DF09C055273C7672338A21FB000DC1902E1C5FE9E1C8786237B823715E03C00
310
F35FA7804CBD1300B8A580D3BC30950D80781A14574CDF7385F9D76D007F510143D880376E2446AFB8C2A33B426FD5963B1B135DE1E7131BDC6A0AEB764BC6BE9D1E5DAE93D2784384A8F9730030F56D6E259B2AC0FB7C4705040DF820BCB1B6C4DEAD5002E09C5EE7F518DB672D46147DB753980000088FC7F60A2802A87B
310
604727005DCBA3CDE1E5E63F46DB14ED57467FF6F8AF3F7D7EE2F20FF1D5E657C7DFA5CB0000000049454E44AE4260829B96F417759854C20000000049454E44AE426082
  0
ENDSEC
  0
EOF
