  0
SECTION
  2
HEADER
  9
$ACADVER
  1
AC1027
  9
$ACADMAINTVER
 70
   125
  9
$DWGCODEPAGE
  3
ANSI_1252
  9
$LASTSAVEDBY
  1
w.koehlhoff
  9
$REQUIREDVERSIONS
160
                 0
  9
$INSBASE
 10
0.0
 20
0.0
 30
0.0
  9
$EXTMIN
 10
-0.0192209888435855
 20
-0.0135919849680022
 30
-0.0000000000000058
  9
$EXTMAX
 10
420.0192288123715
 20
297.0135975173197
 30
0.0000000000000104
  9
$LIMMIN
 10
0.0
 20
0.0
  9
$LIMMAX
 10
420.0
 20
297.0
  9
$ORTHOMODE
 70
     1
  9
$REGENMODE
 70
     1
  9
$FILLMODE
 70
     1
  9
$QTEXTMODE
 70
     0
  9
$MIRRTEXT
 70
     1
  9
$LTSCALE
 40
10.0
  9
$ATTMODE
 70
     1
  9
$TEXTSIZE
 40
3.5
  9
$TRACEWID
 40
1.0
  9
$TEXTSTYLE
  7
STANDARD
  9
$CLAYER
  8
VOLL
  9
$CELTYPE
  6
ByLayer
  9
$CECOLOR
 62
   256
  9
$CELTSCALE
 40
1.0
  9
$DISPSILH
 70
     0
  9
$DIMSCALE
 40
1.0
  9
$DIMASZ
 40
3.5
  9
$DIMEXO
 40
1.0
  9
$DIMDLI
 40
7.0
  9
$DIMRND
 40
0.0
  9
$DIMDLE
 40
0.0
  9
$DIMEXE
 40
1.0
  9
$DIMTP
 40
0.0
  9
$DIMTM
 40
0.0
  9
$DIMTXT
 40
3.5
  9
$DIMCEN
 40
1.5
  9
$DIMTSZ
 40
0.0
  9
$DIMTOL
 70
     0
  9
$DIMLIM
 70
     0
  9
$DIMTIH
 70
     0
  9
$DIMTOH
 70
     0
  9
$DIMSE1
 70
     0
  9
$DIMSE2
 70
     0
  9
$DIMTAD
 70
     1
  9
$DIMZIN
 70
     8
  9
$DIMBLK
  1

  9
$DIMASO
 70
     1
  9
$DIMSHO
 70
     0
  9
$DIMPOST
  1

  9
$DIMAPOST
  1

  9
$DIMALT
 70
     0
  9
$DIMALTD
 70
     2
  9
$DIMALTF
 40
25.4
  9
$DIMLFAC
 40
1.0
  9
$DIMTOFL
 70
     1
  9
$DIMTVP
 40
0.0
  9
$DIMTIX
 70
     0
  9
$DIMSOXD
 70
     0
  9
$DIMSAH
 70
     0
  9
$DIMBLK1
  1

  9
$DIMBLK2
  1

  9
$DIMSTYLE
  2
Standard
  9
$DIMCLRD
 70
     0
  9
$DIMCLRE
 70
     0
  9
$DIMCLRT
 70
     1
  9
$DIMTFAC
 40
0.5142857142857144
  9
$DIMGAP
 40
1.5
  9
$DIMJUST
 70
     0
  9
$DIMSD1
 70
     0
  9
$DIMSD2
 70
     0
  9
$DIMTOLJ
 70
     1
  9
$DIMTZIN
 70
     8
  9
$DIMALTZ
 70
     8
  9
$DIMALTTZ
 70
     8
  9
$DIMUPT
 70
     0
  9
$DIMDEC
 70
     2
  9
$DIMTDEC
 70
     2
  9
$DIMALTU
 70
     2
  9
$DIMALTTD
 70
     2
  9
$DIMTXSTY
  7
STANDARD
  9
$DIMAUNIT
 70
     0
  9
$DIMADEC
 70
     2
  9
$DIMALTRND
 40
0.0
  9
$DIMAZIN
 70
     2
  9
$DIMDSEP
 70
    46
  9
$DIMATFIT
 70
     3
  9
$DIMFRAC
 70
     0
  9
$DIMLDRBLK
  1

  9
$DIMLUNIT
 70
     2
  9
$DIMLWD
 70
    -2
  9
$DIMLWE
 70
    -2
  9
$DIMTMOVE
 70
     0
  9
$DIMFXL
 40
1.0
  9
$DIMFXLON
 70
     0
  9
$DIMJOGANG
 40
0.7853981633974483
  9
$DIMTFILL
 70
     0
  9
$DIMTFILLCLR
 70
     0
  9
$DIMARCSYM
 70
     0
  9
$DIMLTYPE
  6

  9
$DIMLTEX1
  6

  9
$DIMLTEX2
  6

  9
$DIMTXTDIRECTION
 70
     0
  9
$LUNITS
 70
     2
  9
$LUPREC
 70
     2
  9
$SKETCHINC
 40
1.0
  9
$FILLETRAD
 40
6.0
  9
$AUNITS
 70
     0
  9
$AUPREC
 70
     0
  9
$MENU
  1
ACAD
  9
$ELEVATION
 40
0.0
  9
$PELEVATION
 40
0.0
  9
$THICKNESS
 40
0.0
  9
$LIMCHECK
 70
     0
  9
$CHAMFERA
 40
0.0
  9
$CHAMFERB
 40
0.0
  9
$CHAMFERC
 40
0.0
  9
$CHAMFERD
 40
0.0
  9
$SKPOLY
 70
     0
  9
$TDCREATE
 40
2455397.867048611
  9
$TDUCREATE
 40
2455397.783726505
  9
$TDUPDATE
 40
2457925.552800926
  9
$TDUUPDATE
 40
2457925.469467593
  9
$TDINDWG
 40
0.1939067014
  9
$TDUSRTIMER
 40
0.1939067014
  9
$USRTIMER
 70
     1
  9
$ANGBASE
 50
0.0
  9
$ANGDIR
 70
     0
  9
$PDMODE
 70
     0
  9
$PDSIZE
 40
0.0
  9
$PLINEWID
 40
0.0
  9
$SPLFRAME
 70
     0
  9
$SPLINETYPE
 70
     6
  9
$SPLINESEGS
 70
     8
  9
$HANDSEED
  5
1F4A
  9
$SURFTAB1
 70
     6
  9
$SURFTAB2
 70
     6
  9
$SURFTYPE
 70
     6
  9
$SURFU
 70
     6
  9
$SURFV
 70
     6
  9
$UCSBASE
  2

  9
$UCSNAME
  2

  9
$UCSORG
 10
0.0
 20
0.0
 30
0.0
  9
$UCSXDIR
 10
1.0
 20
0.0
 30
0.0
  9
$UCSYDIR
 10
0.0
 20
1.0
 30
0.0
  9
$UCSORTHOREF
  2

  9
$UCSORTHOVIEW
 70
     0
  9
$UCSORGTOP
 10
0.0
 20
0.0
 30
0.0
  9
$UCSORGBOTTOM
 10
0.0
 20
0.0
 30
0.0
  9
$UCSORGLEFT
 10
0.0
 20
0.0
 30
0.0
  9
$UCSORGRIGHT
 10
0.0
 20
0.0
 30
0.0
  9
$UCSORGFRONT
 10
0.0
 20
0.0
 30
0.0
  9
$UCSORGBACK
 10
0.0
 20
0.0
 30
0.0
  9
$PUCSBASE
  2

  9
$PUCSNAME
  2

  9
$PUCSORG
 10
0.0
 20
0.0
 30
0.0
  9
$PUCSXDIR
 10
1.0
 20
0.0
 30
0.0
  9
$PUCSYDIR
 10
0.0
 20
1.0
 30
0.0
  9
$PUCSORTHOREF
  2

  9
$PUCSORTHOVIEW
 70
     0
  9
$PUCSORGTOP
 10
0.0
 20
0.0
 30
0.0
  9
$PUCSORGBOTTOM
 10
0.0
 20
0.0
 30
0.0
  9
$PUCSORGLEFT
 10
0.0
 20
0.0
 30
0.0
  9
$PUCSORGRIGHT
 10
0.0
 20
0.0
 30
0.0
  9
$PUCSORGFRONT
 10
0.0
 20
0.0
 30
0.0
  9
$PUCSORGBACK
 10
0.0
 20
0.0
 30
0.0
  9
$USERI1
 70
     0
  9
$USERI2
 70
     0
  9
$USERI3
 70
     0
  9
$USERI4
 70
     0
  9
$USERI5
 70
     0
  9
$USERR1
 40
0.0
  9
$USERR2
 40
0.0
  9
$USERR3
 40
0.0
  9
$USERR4
 40
0.0
  9
$USERR5
 40
0.0
  9
$WORLDVIEW
 70
     1
  9
$SHADEDGE
 70
     3
  9
$SHADEDIF
 70
    70
  9
$TILEMODE
 70
     1
  9
$MAXACTVP
 70
    16
  9
$PINSBASE
 10
0.0
 20
0.0
 30
0.0
  9
$PLIMCHECK
 70
     0
  9
$PEXTMIN
 10
1.000000000000000E+20
 20
1.000000000000000E+20
 30
1.000000000000000E+20
  9
$PEXTMAX
 10
-1.000000000000000E+20
 20
-1.000000000000000E+20
 30
-1.000000000000000E+20
  9
$PLIMMIN
 10
0.0
 20
0.0
  9
$PLIMMAX
 10
12.0
 20
9.0
  9
$UNITMODE
 70
     0
  9
$VISRETAIN
 70
     0
  9
$PLINEGEN
 70
     0
  9
$PSLTSCALE
 70
     0
  9
$TREEDEPTH
 70
  3020
  9
$CMLSTYLE
  2
Standard
  9
$CMLJUST
 70
     0
  9
$CMLSCALE
 40
1.0
  9
$PROXYGRAPHICS
 70
     1
  9
$MEASUREMENT
 70
     0
  9
$CELWEIGHT
370
    -1
  9
$ENDCAPS
280
     0
  9
$JOINSTYLE
280
     0
  9
$LWDISPLAY
290
     0
  9
$INSUNITS
 70
     0
  9
$HYPERLINKBASE
  1

  9
$STYLESHEET
  1

  9
$XEDIT
290
     1
  9
$CEPSNTYPE
380
     0
  9
$PSTYLEMODE
290
     1
  9
$FINGERPRINTGUID
  2
{D68B0D0D-A558-11D7-B632-000102183313}
  9
$VERSIONGUID
  2
{EE6879AA-BDA2-EB4B-B982-DC37CB37425A}
  9
$EXTNAMES
290
     1
  9
$PSVPSCALE
 40
0.0
  9
$OLESTARTUP
290
     0
  9
$SORTENTS
280
   127
  9
$INDEXCTL
280
     0
  9
$HIDETEXT
280
     0
  9
$XCLIPFRAME
280
     0
  9
$HALOGAP
280
     0
  9
$OBSCOLOR
 70
   257
  9
$OBSLTYPE
280
     0
  9
$INTERSECTIONDISPLAY
280
     0
  9
$INTERSECTIONCOLOR
 70
   257
  9
$DIMASSOC
280
     1
  9
$PROJECTNAME
  1

  9
$CAMERADISPLAY
290
     0
  9
$LENSLENGTH
 40
50.0
  9
$CAMERAHEIGHT
 40
0.0
  9
$STEPSPERSEC
 40
2.0
  9
$STEPSIZE
 40
6.0
  9
$3DDWFPREC
 40
2.0
  9
$PSOLWIDTH
 40
0.25
  9
$PSOLHEIGHT
 40
4.0
  9
$LOFTANG1
 40
1.570796326794896
  9
$LOFTANG2
 40
1.570796326794896
  9
$LOFTMAG1
 40
0.0
  9
$LOFTMAG2
 40
0.0
  9
$LOFTPARAM
 70
     7
  9
$LOFTNORMALS
280
     1
  9
$LATITUDE
 40
37.795
  9
$LONGITUDE
 40
-122.394
  9
$NORTHDIRECTION
 40
0.0
  9
$TIMEZONE
 70
 -8000
  9
$LIGHTGLYPHDISPLAY
280
     1
  9
$TILEMODELIGHTSYNCH
280
     1
  9
$CMATERIAL
347
1EA2
  9
$SOLIDHIST
280
     0
  9
$SHOWHIST
280
     1
  9
$DWFFRAME
280
     2
  9
$DGNFRAME
280
     0
  9
$REALWORLDSCALE
290
     1
  9
$INTERFERECOLOR
 62
     1
  9
$INTERFEREOBJVS
345
1EC4
  9
$INTERFEREVPVS
346
1EC1
  9
$CSHADOW
280
     0
  9
$SHADOWPLANELOCATION
 40
0.0
  0
ENDSEC
  0
SECTION
  2
CLASSES
  0
CLASS
  1
ACDBDICTIONARYWDFLT
  2
AcDbDictionaryWithDefault
  3
ObjectDBX Classes
 90
        0
 91
        1
280
     0
281
     0
  0
CLASS
  1
DICTIONARYVAR
  2
AcDbDictionaryVar
  3
ObjectDBX Classes
 90
        0
 91
       11
280
     0
281
     0
  0
CLASS
  1
MATERIAL
  2
AcDbMaterial
  3
ObjectDBX Classes
 90
     1153
 91
        3
280
     0
281
     0
  0
CLASS
  1
VISUALSTYLE
  2
AcDbVisualStyle
  3
ObjectDBX Classes
 90
     4095
 91
       24
280
     0
281
     0
  0
CLASS
  1
TABLESTYLE
  2
AcDbTableStyle
  3
ObjectDBX Classes
 90
     4095
 91
        1
280
     0
281
     0
  0
CLASS
  1
SCALE
  2
AcDbScale
  3
ObjectDBX Classes
 90
     1153
 91
       17
280
     0
281
     0
  0
CLASS
  1
MLEADERSTYLE
  2
AcDbMLeaderStyle
  3
ACDB_MLEADERSTYLE_CLASS
 90
     4095
 91
        1
280
     0
281
     0
  0
CLASS
  1
ACDBSECTIONVIEWSTYLE
  2
AcDbSectionViewStyle
  3
ObjectDBX Classes
 90
     1025
 91
        1
280
     0
281
     0
  0
CLASS
  1
ACDBDETAILVIEWSTYLE
  2
AcDbDetailViewStyle
  3
ObjectDBX Classes
 90
     1025
 91
        1
280
     0
281
     0
  0
CLASS
  1
RAPIDRTRENDERSETTINGS
  2
AcDbRapidRTRenderSettings
  3
ObjectDBX Classes
 90
     1024
 91
        7
280
     0
281
     0
  0
CLASS
  1
FIELD
  2
AcDbField
  3
ObjectDBX Classes
 90
     1152
 91
        2
280
     0
281
     0
  0
CLASS
  1
FIELDLIST
  2
AcDbFieldList
  3
ObjectDBX Classes
 90
     1152
 91
        1
280
     0
281
     0
  0
CLASS
  1
CELLSTYLEMAP
  2
AcDbCellStyleMap
  3
ObjectDBX Classes
 90
     1152
 91
        1
280
     0
281
     0
  0
ENDSEC
  0
SECTION
  2
TABLES
  0
TABLE
  2
VPORT
  5
8
330
0
100
AcDbSymbolTable
 70
     1
1001
ACAD
1000
DbSaveVer
1071
        5
  0
VPORT
  5
1EA0
330
8
100
AcDbSymbolTableRecord
100
AcDbViewportTableRecord
  2
*Active
 70
     0
 10
0.0
 20
0.0
 11
1.0
 21
1.0
 12
210.000003911764
 22
148.5000027661758
 13
0.0
 23
0.0
 14
1.0
 24
1.0
 15
10.0
 25
10.0
 16
0.0
 26
0.0
 36
1.0
 17
0.0
 27
0.0
 37
0.0
 40
299.3568145179919
 41
1.971204188481675
 42
50.0
 43
0.0
 44
0.0
 50
0.0
 51
0.0
 71
     0
 72
  1500
 73
     1
 74
     0
 75
     0
 76
     0
 77
     0
 78
     0
281
     0
 65
     1
110
0.0
120
0.0
130
0.0
111
1.0
121
0.0
131
0.0
112
0.0
122
1.0
132
0.0
 79
     0
146
0.0
348
1EC0
 60
     3
 61
     5
292
     1
282
     1
141
0.0
142
0.0
 63
   250
421
  3355443
1001
ACAD_NAV_VCDISPLAY
1070
     3
  0
ENDTAB
  0
TABLE
  2
LTYPE
  5
5
330
0
100
AcDbSymbolTable
 70
     3
  0
LTYPE
  5
13
330
5
100
AcDbSymbolTableRecord
100
AcDbLinetypeTableRecord
  2
ByBlock
 70
     0
  3

 72
    65
 73
     0
 40
0.0
  0
LTYPE
  5
14
330
5
100
AcDbSymbolTableRecord
100
AcDbLinetypeTableRecord
  2
ByLayer
 70
     0
  3

 72
    65
 73
     0
 40
0.0
  0
LTYPE
  5
15
330
5
100
AcDbSymbolTableRecord
100
AcDbLinetypeTableRecord
  2
Continuous
 70
     0
  3
Solid line
 72
    65
 73
     0
 40
0.0
  0
LTYPE
  5
25
330
5
100
AcDbSymbolTableRecord
100
AcDbLinetypeTableRecord
  2
STRICHPUNKT
 70
     0
  3
__ . __ . __ . __ . __ . __ . __ . __ . __ . __
 72
    65
 73
     4
 40
1.0
 49
0.5
 74
     0
 49
-0.25
 74
     0
 49
0.0
 74
     0
 49
-0.25
 74
     0
  0
LTYPE
  5
1808
330
5
100
AcDbSymbolTableRecord
100
AcDbLinetypeTableRecord
  2
VERDECKT
 70
     0
  3
Verdeckt __ __ __ __ __ __ __ __ __ __ __ __ __
 72
    65
 73
     2
 40
0.375
 49
0.25
 74
     0
 49
-0.125
 74
     0
  0
ENDTAB
  0
TABLE
  2
LAYER
  5
2
102
{ACAD_XDICTIONARY
360
1EFA
102
}
330
0
100
AcDbSymbolTable
 70
    10
  0
LAYER
  5
10
102
{ACAD_XDICTIONARY
360
1F07
102
}
330
2
100
AcDbSymbolTableRecord
100
AcDbLayerTableRecord
  2
0
 70
     0
 62
     7
  6
Continuous
370
    -3
390
F
347
1EB2
348
0
  0
LAYER
  5
2B
102
{ACAD_XDICTIONARY
360
1F09
102
}
330
2
100
AcDbSymbolTableRecord
100
AcDbLayerTableRecord
  2
VOLL
 70
     0
 62
     1
  6
Continuous
370
    -3
390
F
347
1EB2
348
0
  0
LAYER
  5
2C
102
{ACAD_XDICTIONARY
360
1F0B
102
}
330
2
100
AcDbSymbolTableRecord
100
AcDbLayerTableRecord
  2
HILF
 70
     0
 62
     2
  6
Continuous
370
    -3
390
F
347
1EB2
348
0
  0
LAYER
  5
2D
102
{ACAD_XDICTIONARY
360
1F0D
102
}
330
2
100
AcDbSymbolTableRecord
100
AcDbLayerTableRecord
  2
MITTEL
 70
     0
 62
     2
  6
STRICHPUNKT
370
    -3
390
F
347
1EB2
348
0
  0
LAYER
  5
2F
102
{ACAD_XDICTIONARY
360
1F0F
102
}
330
2
100
AcDbSymbolTableRecord
100
AcDbLayerTableRecord
  2
BEM
 70
     0
 62
     7
  6
Continuous
370
    -3
390
F
347
1EB2
348
0
  0
LAYER
  5
30
102
{ACAD_XDICTIONARY
360
1F11
102
}
330
2
100
AcDbSymbolTableRecord
100
AcDbLayerTableRecord
  2
STEMPEL
 70
     0
 62
     3
  6
Continuous
370
    -3
390
F
347
1EB2
348
0
  0
LAYER
  5
33
102
{ACAD_XDICTIONARY
360
1F13
102
}
330
2
100
AcDbSymbolTableRecord
100
AcDbLayerTableRecord
  2
TEXT
 70
     0
 62
     7
  6
Continuous
370
    -3
390
F
347
1EB2
348
0
  0
LAYER
  5
1BF
330
2
100
AcDbSymbolTableRecord
100
AcDbLayerTableRecord
  2
Defpoints
 70
     0
 62
     7
  6
Continuous
290
     0
370
    -3
390
F
347
1EB2
348
0
  0
LAYER
  5
1809
102
{ACAD_XDICTIONARY
360
1F15
102
}
330
2
100
AcDbSymbolTableRecord
100
AcDbLayerTableRecord
  2
Verdeckt
 70
     0
 62
     6
  6
VERDECKT
370
    -3
390
F
347
1EB2
348
0
  0
LAYER
  5
19E4
102
{ACAD_XDICTIONARY
360
1F17
102
}
330
2
100
AcDbSymbolTableRecord
100
AcDbLayerTableRecord
  2
LE_NORM
 70
     0
 62
     7
  6
Continuous
370
    -3
390
F
347
1EB2
348
0
  0
ENDTAB
  0
TABLE
  2
STYLE
  5
3
330
0
100
AcDbSymbolTable
 70
     2
  0
STYLE
  5
11
330
3
100
AcDbSymbolTableRecord
100
AcDbTextStyleTableRecord
  2
STANDARD
 70
     0
 40
0.0
 41
0.8
 50
0.0
 71
     0
 42
3.5
  3
simplex.shx
  4

  0
STYLE
  5
24
330
3
100
AcDbSymbolTableRecord
100
AcDbTextStyleTableRecord
  2
GREEKS
 70
     0
 40
0.0
 41
0.8
 50
0.0
 71
     0
 42
2.5
  3
SIMPLEX.shx
  4

  0
ENDTAB
  0
TABLE
  2
VIEW
  5
6
330
0
100
AcDbSymbolTable
 70
     0
  0
ENDTAB
  0
TABLE
  2
UCS
  5
7
330
0
100
AcDbSymbolTable
 70
     0
  0
ENDTAB
  0
TABLE
  2
APPID
  5
9
330
0
100
AcDbSymbolTable
 70
     4
  0
APPID
  5
12
330
9
100
AcDbSymbolTableRecord
100
AcDbRegAppTableRecord
  2
ACAD
 70
     0
  0
APPID
  5
1EF8
330
9
100
AcDbSymbolTableRecord
100
AcDbRegAppTableRecord
  2
ACAD_NAV_VCDISPLAY
 70
     0
  0
APPID
  5
1EF9
330
9
100
AcDbSymbolTableRecord
100
AcDbRegAppTableRecord
  2
ACAD_PSEXT
 70
     0
  0
APPID
  5
1F31
330
9
100
AcDbSymbolTableRecord
100
AcDbRegAppTableRecord
  2
ACAD_EXEMPT_FROM_CAD_STANDARDS
 70
     0
  0
ENDTAB
  0
TABLE
  2
DIMSTYLE
  5
A
330
0
100
AcDbSymbolTable
 70
     1
100
AcDbDimStyleTable
 71
     1
340
A2
  0
DIMSTYLE
105
A2
102
{ACAD_REACTORS
330
1DEA
330
1E25
330
1E3B
330
1E63
102
}
330
A
100
AcDbSymbolTableRecord
100
AcDbDimStyleTableRecord
  2
Standard
 70
     0
340
11
  0
ENDTAB
  0
TABLE
  2
BLOCK_RECORD
  5
1
330
0
100
AcDbSymbolTable
 70
     6
  0
BLOCK_RECORD
  5
1E
102
{ACAD_XDICTIONARY
360
DB
102
}
330
1
100
AcDbSymbolTableRecord
100
AcDbBlockTableRecord
  2
*Model_Space
340
21
 70
     0
280
     1
281
     0
  0
BLOCK_RECORD
  5
1A
102
{ACAD_XDICTIONARY
360
DD
102
}
330
1
100
AcDbSymbolTableRecord
100
AcDbBlockTableRecord
  2
*Paper_Space
340
1D
 70
     0
280
     1
281
     0
  0
BLOCK_RECORD
  5
22
330
1
100
AcDbSymbolTableRecord
100
AcDbBlockTableRecord
  2
LOGO
340
0
102
{BLKREFS
331
56
102
}
 70
     0
280
     1
281
     0
  0
BLOCK_RECORD
  5
23
330
1
100
AcDbSymbolTableRecord
100
AcDbBlockTableRecord
  2
LORO
340
0
102
{BLKREFS
331
131F
102
}
 70
     0
280
     1
281
     0
  0
BLOCK_RECORD
  5
1DEB
330
1
100
AcDbSymbolTableRecord
100
AcDbBlockTableRecord
  2
*D2
340
0
 70
     0
280
     1
281
     0
  0
BLOCK_RECORD
  5
1E26
330
1
100
AcDbSymbolTableRecord
100
AcDbBlockTableRecord
  2
*D3
340
0
 70
     0
280
     1
281
     0
  0
BLOCK_RECORD
  5
1E3C
330
1
100
AcDbSymbolTableRecord
100
AcDbBlockTableRecord
  2
*D4
340
0
 70
     0
280
     1
281
     0
  0
BLOCK_RECORD
  5
1E64
330
1
100
AcDbSymbolTableRecord
100
AcDbBlockTableRecord
  2
*D5
340
0
 70
     0
280
     1
281
     0
  0
ENDTAB
  0
ENDSEC
  0
SECTION
  2
BLOCKS
  0
BLOCK
  5
37
330
1E
100
AcDbEntity
  8
0
100
AcDbBlockBegin
  2
*Model_Space
 70
     0
 10
0.0
 20
0.0
 30
0.0
  3
*Model_Space
  1

  0
ENDBLK
  5
38
330
1E
100
AcDbEntity
  8
0
100
AcDbBlockEnd
  0
BLOCK
  5
35
330
1A
100
AcDbEntity
 67
     1
  8
0
100
AcDbBlockBegin
  2
*Paper_Space
 70
     0
 10
0.0
 20
0.0
 30
0.0
  3
*Paper_Space
  1

  0
ENDBLK
  5
36
330
1A
100
AcDbEntity
 67
     1
  8
0
100
AcDbBlockEnd
  0
BLOCK
  5
39
330
22
100
AcDbEntity
  8
0
100
AcDbBlockBegin
  2
LOGO
 70
     0
 10
0.0
 20
0.0
 30
0.0
  3
LOGO
  1

  0
ARC
  5
3A
330
22
100
AcDbEntity
  8
0
100
AcDbCircle
 10
11.59973089678112
 20
-9.271599258481501
 30
0.0
 40
4.5
100
AcDbArc
 50
270.0
 51
231.0575587310159
  0
LINE
  5
3B
330
22
100
AcDbEntity
  8
0
100
AcDbLine
 10
3.599730896781125
 20
-4.771599258481529
 30
0.0
 11
3.599730896781153
 21
-11.77159925848133
 31
0.0
  0
LINE
  5
3C
330
22
100
AcDbEntity
  8
0
100
AcDbLine
 10
2.599730896781125
 20
-4.771599258481529
 30
0.0
 11
2.599730896781153
 21
-11.77159925848133
 31
0.0
  0
CIRCLE
  5
3D
330
22
100
AcDbEntity
  8
0
100
AcDbCircle
 10
11.59973089678112
 20
-9.271599258481501
 30
0.0
 40
3.5
  0
ARC
  5
3E
330
22
100
AcDbEntity
  8
0
100
AcDbCircle
 10
31.59973089678115
 20
-9.271599258481472
 30
0.0
 40
4.5
100
AcDbArc
 50
270.0
 51
231.0575587310182
  0
LINE
  5
3F
330
22
100
AcDbEntity
  8
0
100
AcDbLine
 10
17.59973089678112
 20
-4.771599258481472
 30
0.0
 11
17.59973089678115
 21
-13.77159925848147
 31
0.0
  0
ARC
  5
40
330
22
100
AcDbEntity
  8
0
100
AcDbCircle
 10
22.59973089678116
 20
-7.271599258481472
 30
0.0
 40
2.5
100
AcDbArc
 50
293.1161887722295
 51
90.0
  0
CIRCLE
  5
41
330
22
100
AcDbEntity
  8
0
100
AcDbCircle
 10
31.59973089678115
 20
-9.271599258481472
 30
0.0
 40
3.5
  0
ARC
  5
42
330
22
100
AcDbEntity
  8
0
100
AcDbCircle
 10
4.599730896781153
 20
-11.77159925848133
 30
0.0
 40
1.0
100
AcDbArc
 50
180.0
 51
270.0
  0
ARC
  5
43
330
22
100
AcDbEntity
  8
0
100
AcDbCircle
 10
4.599730896781153
 20
-11.77159925848133
 30
0.0
 40
2.0
100
AcDbArc
 50
179.9999999999992
 51
270.0
  0
LINE
  5
44
330
22
100
AcDbEntity
  8
0
100
AcDbLine
 10
11.59973089678115
 20
-13.77159925848144
 30
0.0
 11
4.599730896781153
 21
-13.77159925848147
 31
0.0
  0
LINE
  5
45
330
22
100
AcDbEntity
  8
0
100
AcDbLine
 10
8.771303772034769
 20
-12.77159925848136
 30
0.0
 11
4.599730896781153
 21
-12.77159925848133
 31
0.0
  0
LINE
  5
46
330
22
100
AcDbEntity
  8
0
100
AcDbLine
 10
31.59973089678115
 20
-13.77159925848147
 30
0.0
 11
23.6715276665056
 21
-13.77159925848144
 31
0.0
  0
LINE
  5
47
330
22
100
AcDbEntity
  8
0
100
AcDbLine
 10
23.56565672307022
 20
-9.51278021337896
 30
0.0
 11
24.4388546544846
 21
-12.77159925848144
 31
0.0
  0
LINE
  5
48
330
22
100
AcDbEntity
  8
0
100
AcDbLine
 10
22.59973089678116
 20
-9.771599258481472
 30
0.0
 11
18.59973089678112
 21
-9.771599258481472
 31
0.0
  0
LINE
  5
49
330
22
100
AcDbEntity
  8
0
100
AcDbLine
 10
18.59973089678115
 20
-13.77159925848144
 30
0.0
 11
17.59973089678115
 21
-13.77159925848144
 31
0.0
  0
LINE
  5
4A
330
22
100
AcDbEntity
  8
0
100
AcDbLine
 10
18.59973089678115
 20
-9.771599258481472
 30
0.0
 11
18.59973089678115
 21
-13.77159925848144
 31
0.0
  0
LINE
  5
4B
330
22
100
AcDbEntity
  8
0
100
AcDbLine
 10
22.59973089678116
 20
-9.771599258481472
 30
0.0
 11
23.67152766650562
 21
-13.77159925848147
 31
0.0
  0
ARC
  5
4C
330
22
100
AcDbEntity
  8
0
100
AcDbCircle
 10
22.59973089678116
 20
-7.271599258481472
 30
0.0
 40
2.5
100
AcDbArc
 50
270.0
 51
270.0000000000007
  0
LINE
  5
4D
330
22
100
AcDbEntity
  8
0
100
AcDbLine
 10
28.77130377203494
 20
-12.77159925848147
 30
0.0
 11
24.43885465448463
 21
-12.77159925848144
 31
0.0
  0
LINE
  5
4E
330
22
100
AcDbEntity
  8
0
100
AcDbLine
 10
3.599730896781125
 20
-4.771599258481472
 30
0.0
 11
2.599730896781125
 21
-4.771599258481472
 31
0.0
  0
LINE
  5
4F
330
22
100
AcDbEntity
  8
0
100
AcDbLine
 10
22.59973089678116
 20
-8.771599258481472
 30
0.0
 11
18.59973089678115
 21
-8.771599258481472
 31
0.0
  0
LINE
  5
50
330
22
100
AcDbEntity
  8
0
100
AcDbLine
 10
22.59973089678116
 20
-5.771599258481472
 30
0.0
 11
18.59973089678115
 21
-5.771599258481472
 31
0.0
  0
LINE
  5
51
330
22
100
AcDbEntity
  8
0
100
AcDbLine
 10
22.59973089678116
 20
-4.771599258481472
 30
0.0
 11
17.59973089678115
 21
-4.771599258481472
 31
0.0
  0
LINE
  5
52
330
22
100
AcDbEntity
  8
0
100
AcDbLine
 10
18.59973089678115
 20
-5.771599258481472
 30
0.0
 11
18.59973089678115
 21
-8.771599258481472
 31
0.0
  0
ARC
  5
53
330
22
100
AcDbEntity
  8
0
100
AcDbCircle
 10
22.59973089678116
 20
-7.271599258481472
 30
0.0
 40
1.5
100
AcDbArc
 50
270.0
 51
90.0
  0
ENDBLK
  5
54
330
22
100
AcDbEntity
  8
0
100
AcDbBlockEnd
  0
BLOCK
  5
55
330
23
100
AcDbEntity
  8
0
100
AcDbBlockBegin
  2
LORO
 70
     0
 10
0.0
 20
0.0
 30
0.0
  3
LORO
  1

  0
INSERT
  5
56
330
23
100
AcDbEntity
  8
STEMPEL
100
AcDbBlockReference
  2
LOGO
 10
-1.748032802467321
 20
3.771489518552062
 30
0.0
  0
ENDBLK
  5
57
330
23
100
AcDbEntity
  8
0
100
AcDbBlockEnd
  0
BLOCK
  5
1DF5
330
1DEB
100
AcDbEntity
  8
0
100
AcDbBlockBegin
  2
*D2
 70
     1
 10
0.0
 20
0.0
 30
0.0
  3
*D2
  1

  0
LINE
  5
1E1E
330
1DEB
100
AcDbEntity
  8
BEM
 62
     0
440
 16777216
370
    -2
100
AcDbLine
 10
231.0597555317308
 20
153.3970243352358
 30
0.0
 11
141.7721827042307
 21
90.87719277297164
 31
0.0
  0
SOLID
  5
1E1F
330
1DEB
100
AcDbEntity
  8
BEM
 62
     0
440
 16777216
100
AcDbTrace
 10
230.7251692771926
 20
153.8748630277377
 30
0.0
 11
231.3943417862688
 21
152.9191856427338
 31
0.0
 12
233.9267876867422
 22
155.4045418624644
 32
0.0
 13
233.9267876867422
 23
155.4045418624644
 33
0.0
  0
SOLID
  5
1E20
330
1DEB
100
AcDbEntity
  8
BEM
 62
     0
440
 16777216
100
AcDbTrace
 10
141.4375964496926
 20
91.35503146547355
 30
0.0
 11
142.1067689587688
 21
90.39935408046972
 31
0.0
 12
138.9051505492192
 22
88.86967524574298
 32
0.0
 13
138.9051505492192
 23
88.86967524574298
 33
0.0
  0
MTEXT
  5
1E21
330
1DEB
100
AcDbEntity
  8
BEM
 62
     1
440
 16777216
100
AcDbMText
 10
197.4719014052833
 20
133.8460730970838
 30
0.0
 40
3.5
 41
0.0
 46
0.0
 71
     5
 72
     1
  1
\A1;116
 11
0.8191520442889911
 21
0.5735764363510471
 31
0.0
 73
     1
 44
1.0
  0
POINT
  5
1E22
330
1DEB
100
AcDbEntity
  8
Defpoints
 62
     0
440
 16777216
100
AcDbPoint
 10
233.9267876867423
 20
155.4045418624644
 30
0.0
  0
POINT
  5
1E23
330
1DEB
100
AcDbEntity
  8
Defpoints
 62
     0
440
 16777216
100
AcDbPoint
 10
138.9051505492191
 20
88.86967524574306
 30
0.0
  0
POINT
  5
1E24
330
1DEB
100
AcDbEntity
  8
Defpoints
 62
     0
440
 16777216
100
AcDbPoint
 10
138.9051505492192
 20
88.86967524574298
 30
0.0
  0
ENDBLK
  5
1DF6
330
1DEB
100
AcDbEntity
  8
0
100
AcDbBlockEnd
  0
BLOCK
  5
1E30
330
1E26
100
AcDbEntity
  8
0
100
AcDbBlockBegin
  2
*D3
 70
     1
 10
0.0
 20
0.0
 30
0.0
  3
*D3
  1

  0
LINE
  5
1E51
330
1E26
100
AcDbEntity
  8
BEM
 62
     0
440
 16777216
370
    -2
100
AcDbLine
 10
97.81596911798056
 20
113.8331085541037
 30
0.0
 11
88.45811385209799
 21
113.8331085541037
 31
0.0
  0
LINE
  5
1E52
330
1E26
100
AcDbEntity
  8
BEM
 62
     0
440
 16777216
370
    -2
100
AcDbLine
 10
97.81596911798056
 20
130.4421085541037
 30
0.0
 11
88.45811385209799
 21
130.4421085541037
 31
0.0
  0
LINE
  5
1E53
330
1E26
100
AcDbEntity
  8
BEM
 62
     0
440
 16777216
370
    -2
100
AcDbLine
 10
89.45811385209799
 20
117.3331085541037
 30
0.0
 11
89.45811385209799
 21
126.9421085541037
 31
0.0
  0
SOLID
  5
1E54
330
1E26
100
AcDbEntity
  8
BEM
 62
     0
440
 16777216
100
AcDbTrace
 10
88.87478051876467
 20
117.3331085541037
 30
0.0
 11
90.04144718543132
 21
117.3331085541037
 31
0.0
 12
89.45811385209799
 22
113.8331085541037
 32
0.0
 13
89.45811385209799
 23
113.8331085541037
 33
0.0
  0
SOLID
  5
1E55
330
1E26
100
AcDbEntity
  8
BEM
 62
     0
440
 16777216
100
AcDbTrace
 10
88.87478051876467
 20
126.9421085541037
 30
0.0
 11
90.04144718543132
 21
126.9421085541037
 31
0.0
 12
89.45811385209799
 22
130.4421085541037
 32
0.0
 13
89.45811385209799
 23
130.4421085541037
 33
0.0
  0
MTEXT
  5
1E56
330
1E26
100
AcDbEntity
  8
BEM
 62
     1
440
 16777216
100
AcDbMText
 10
86.20811385209798
 20
122.1376085541037
 30
0.0
 40
3.5
 41
0.0
 46
0.0
 71
     5
 72
     1
  1
\A1;16.6
 11
0.0000000000000001
 21
1.0
 31
0.0
 73
     1
 44
1.0
  0
POINT
  5
1E57
330
1E26
100
AcDbEntity
  8
Defpoints
 62
     0
440
 16777216
100
AcDbPoint
 10
98.81596911798055
 20
113.8331085541037
 30
0.0
  0
POINT
  5
1E58
330
1E26
100
AcDbEntity
  8
Defpoints
 62
     0
440
 16777216
100
AcDbPoint
 10
98.81596911798055
 20
130.4421085541037
 30
0.0
  0
POINT
  5
1E59
330
1E26
100
AcDbEntity
  8
Defpoints
 62
     0
440
 16777216
100
AcDbPoint
 10
89.45811385209799
 20
130.4421085541037
 30
0.0
  0
ENDBLK
  5
1E31
330
1E26
100
AcDbEntity
  8
0
100
AcDbBlockEnd
  0
BLOCK
  5
1E46
330
1E3C
100
AcDbEntity
  8
0
100
AcDbBlockBegin
  2
*D4
 70
     1
 10
0.0
 20
0.0
 30
0.0
  3
*D4
  1

  0
LINE
  5
1E48
330
1E3C
100
AcDbEntity
  8
BEM
 62
     0
440
 16777216
370
    -2
100
AcDbLine
 10
185.4159691179807
 20
186.1371085541037
 30
0.0
 11
79.4451610871686
 21
186.1371085541037
 31
0.0
  0
LINE
  5
1E49
330
1E3C
100
AcDbEntity
  8
BEM
 62
     0
440
 16777216
370
    -2
100
AcDbLine
 10
178.3277122795684
 20
32.13710855410374
 30
0.0
 11
79.44516108716857
 21
32.13710855410378
 31
0.0
  0
LINE
  5
1E4A
330
1E3C
100
AcDbEntity
  8
BEM
 62
     0
440
 16777216
370
    -2
100
AcDbLine
 10
80.44516108716861
 20
182.6371085541037
 30
0.0
 11
80.44516108716857
 21
35.63710855410377
 31
0.0
  0
SOLID
  5
1E4B
330
1E3C
100
AcDbEntity
  8
BEM
 62
     0
440
 16777216
100
AcDbTrace
 10
79.86182775383527
 20
182.6371085541037
 30
0.0
 11
81.02849442050192
 21
182.6371085541037
 31
0.0
 12
80.44516108716861
 22
186.1371085541037
 32
0.0
 13
80.44516108716861
 23
186.1371085541037
 33
0.0
  0
SOLID
  5
1E4C
330
1E3C
100
AcDbEntity
  8
BEM
 62
     0
440
 16777216
100
AcDbTrace
 10
79.86182775383524
 20
35.63710855410378
 30
0.0
 11
81.02849442050191
 21
35.63710855410377
 31
0.0
 12
80.44516108716857
 22
32.13710855410377
 32
0.0
 13
80.44516108716857
 23
32.13710855410377
 33
0.0
  0
MTEXT
  5
1E4D
330
1E3C
100
AcDbEntity
  8
BEM
 62
     1
440
 16777216
100
AcDbMText
 10
77.19516108716856
 20
109.1371085541037
 30
0.0
 40
3.5
 41
0.0
 46
0.0
 71
     5
 72
     1
  1
\A1;154
 11
0.0000000000000001
 21
1.0
 31
0.0
 73
     1
 44
1.0
  0
POINT
  5
1E4E
330
1E3C
100
AcDbEntity
  8
Defpoints
 62
     0
440
 16777216
100
AcDbPoint
 10
186.4159691179807
 20
186.1371085541037
 30
0.0
  0
POINT
  5
1E4F
330
1E3C
100
AcDbEntity
  8
Defpoints
 62
     0
440
 16777216
100
AcDbPoint
 10
179.3277122795684
 20
32.13710855410374
 30
0.0
  0
POINT
  5
1E50
330
1E3C
100
AcDbEntity
  8
Defpoints
 62
     0
440
 16777216
100
AcDbPoint
 10
80.44516108716857
 20
32.13710855410377
 30
0.0
  0
ENDBLK
  5
1E47
330
1E3C
100
AcDbEntity
  8
0
100
AcDbBlockEnd
  0
BLOCK
  5
1E6E
330
1E64
100
AcDbEntity
  8
0
100
AcDbBlockBegin
  2
*D5
 70
     1
 10
0.0
 20
0.0
 30
0.0
  3
*D5
  1

  0
LINE
  5
1E79
330
1E64
100
AcDbEntity
  8
BEM
 62
     0
440
 16777216
370
    -2
100
AcDbLine
 10
274.0309691179807
 20
238.7392453194427
 30
0.0
 11
274.0309691179807
 21
256.9981651171272
 31
0.0
  0
LINE
  5
1E7A
330
1E64
100
AcDbEntity
  8
BEM
 62
     0
440
 16777216
370
    -2
100
AcDbLine
 10
98.7999691179807
 20
238.7392453194426
 30
0.0
 11
98.7999691179807
 21
256.9981651171272
 31
0.0
  0
LINE
  5
1E7B
330
1E64
100
AcDbEntity
  8
BEM
 62
     0
440
 16777216
370
    -2
100
AcDbLine
 10
270.5309691179807
 20
255.9981651171272
 30
0.0
 11
102.2999691179807
 21
255.9981651171272
 31
0.0
  0
SOLID
  5
1E7C
330
1E64
100
AcDbEntity
  8
BEM
 62
     0
440
 16777216
100
AcDbTrace
 10
270.5309691179807
 20
256.5814984504605
 30
0.0
 11
270.5309691179807
 21
255.4148317837939
 31
0.0
 12
274.0309691179807
 22
255.9981651171272
 32
0.0
 13
274.0309691179807
 23
255.9981651171272
 33
0.0
  0
SOLID
  5
1E7D
330
1E64
100
AcDbEntity
  8
BEM
 62
     0
440
 16777216
100
AcDbTrace
 10
102.2999691179807
 20
256.5814984504605
 30
0.0
 11
102.2999691179807
 21
255.4148317837939
 31
0.0
 12
98.7999691179807
 22
255.9981651171272
 32
0.0
 13
98.7999691179807
 23
255.9981651171272
 33
0.0
  0
MTEXT
  5
1E7E
330
1E64
100
AcDbEntity
  8
BEM
 62
     1
440
 16777216
100
AcDbMText
 10
186.4154691179807
 20
259.2481651171272
 30
0.0
 40
3.5
 41
0.0
 46
0.0
 71
     5
 72
     1
  1
\A1;175.2
 73
     1
 44
1.0
  0
POINT
  5
1E7F
330
1E64
100
AcDbEntity
  8
Defpoints
 62
     0
440
 16777216
100
AcDbPoint
 10
274.0309691179807
 20
237.7392453194427
 30
0.0
  0
POINT
  5
1E80
330
1E64
100
AcDbEntity
  8
Defpoints
 62
     0
440
 16777216
100
AcDbPoint
 10
98.7999691179807
 20
237.7392453194426
 30
0.0
  0
POINT
  5
1E81
330
1E64
100
AcDbEntity
  8
Defpoints
 62
     0
440
 16777216
100
AcDbPoint
 10
98.7999691179807
 20
255.9981651171272
 30
0.0
  0
ENDBLK
  5
1E6F
330
1E64
100
AcDbEntity
  8
0
100
AcDbBlockEnd
  0
ENDSEC
  0
SECTION
  2
ENTITIES
  0
LINE
  5
1319
330
1E
100
AcDbEntity
  8
BEM
100
AcDbLine
 10
228.0
 20
297.0
 30
0.0
 11
228.0
 21
292.0
 31
0.0
  0
TEXT
  5
131A
330
1E
100
AcDbEntity
  8
BEM
100
AcDbText
 10
418.6511461928582
 20
5.083950539994304
 30
0.0
 40
2.0
  1
Diese Zeichnung ist urheberrechtlich geschützt und bleibt unser Eigentum. Sie darf weder ganz noch teilweise verfielfältigt und nicht an Dritte weitergegeben werden.
 50
90.0
 41
0.8
  7
GREEKS
100
AcDbText
  0
LINE
  5
131B
330
1E
100
AcDbEntity
  8
HILF
100
AcDbLine
 10
0.0
 20
148.5
 30
0.0
 11
20.0
 21
148.5
 31
0.0
  0
LINE
  5
131C
330
1E
100
AcDbEntity
  8
STEMPEL
100
AcDbLine
 10
20.0
 20
5.0
 30
0.0
 11
20.0
 21
292.0
 31
0.0
  0
LINE
  5
131D
330
1E
100
AcDbEntity
  8
HILF
100
AcDbLine
 10
0.0
 20
0.0
 30
0.0
 11
0.0
 21
297.0
 31
0.0
  0
LINE
  5
131E
330
1E
100
AcDbEntity
  8
BEM
100
AcDbLine
 10
228.0
 20
0.0
 30
0.0
 11
228.0
 21
5.0
 31
0.0
  0
INSERT
  5
131F
330
1E
100
AcDbEntity
  8
HILF
100
AcDbBlockReference
  2
LORO
 10
286.5312492981177
 20
18.4902965014948
 30
0.0
  0
TEXT
  5
1320
330
1E
100
AcDbEntity
  8
TEXT
100
AcDbText
 10
235.0220569675064
 20
57.05717925255214
 30
0.0
 40
2.5
  1
Erstellt mit AUTOCAD 2004
 41
0.8
  7
GREEKS
100
AcDbText
  0
TEXT
  5
1321
330
1E
100
AcDbEntity
  8
TEXT
 62
     1
100
AcDbText
 10
291.3517456017111
 20
43.73538544207488
 30
0.0
 40
3.5
  1
1:1
 41
0.8
  7
GREEKS
100
AcDbText
  0
TEXT
  5
1322
102
{ACAD_XDICTIONARY
360
1F33
102
}
330
1E
100
AcDbEntity
  8
TEXT
100
AcDbText
 10
327.0838025054674
 20
21.65563812395754
 30
0.0
 40
2.0
  1
00984.100X.DXF
 41
0.8
  7
GREEKS
100
AcDbText
  0
TEXT
  5
1323
330
1E
100
AcDbEntity
  8
TEXT
100
AcDbText
 10
327.1705470442496
 20
26.29548668923029
 30
0.0
 40
2.5
  1
EDV-Art.Nr. 00984.100X
 41
0.8
  7
GREEKS
100
AcDbText
  0
TEXT
  5
1324
330
1E
100
AcDbEntity
  8
TEXT
100
AcDbText
 10
312.0115876613305
 20
31.47148827582734
 30
0.0
 40
2.0
  1
Koeh
 41
0.8
  7
GREEKS
 72
     1
 11
314.6401590899019
 21
31.47148827582734
 31
0.0
100
AcDbText
  0
TEXT
  5
1325
330
1E
100
AcDbEntity
  8
TEXT
100
AcDbText
 10
295.0782618755935
 20
31.5754293806011
 30
0.0
 40
2.0
  1
03.08.
 41
0.8
  7
GREEKS
 72
     1
 11
298.5830237803554
 21
31.5754293806011
 31
0.0
100
AcDbText
  0
TEXT
  5
1326
330
1E
100
AcDbEntity
  8
TEXT
100
AcDbText
 10
309.2545113207915
 20
51.41994805689501
 30
0.0
 40
2.5
  1
Zul.Abw.
 41
0.8
  7
GREEKS
100
AcDbText
  0
TEXT
  5
1327
330
1E
100
AcDbEntity
  8
TEXT
 62
     1
100
AcDbText
 10
383.7314044425402
 20
43.68671537826272
 30
0.0
 40
3.5
  1
00984100X
 41
0.8
  7
GREEKS
 72
     1
 11
395.0647377758735
 21
43.68671537826272
 31
0.0
100
AcDbText
  0
TEXT
  5
1328
330
1E
100
AcDbEntity
  8
TEXT
 62
     1
100
AcDbText
 10
327.5195286236595
 20
43.68671537826272
 30
0.0
 40
3.5
  1
Schwerlastschelle DN100
 41
0.7
  7
GREEKS
100
AcDbText
  0
LINE
  5
1329
330
1E
100
AcDbEntity
  8
STEMPEL
100
AcDbLine
 10
415.0
 20
5.0
 30
0.0
 11
415.0
 21
292.0
 31
0.0
  0
LINE
  5
132A
330
1E
100
AcDbEntity
  8
STEMPEL
100
AcDbLine
 10
20.0
 20
5.0
 30
0.0
 11
415.0
 21
5.0
 31
0.0
  0
LINE
  5
132B
330
1E
100
AcDbEntity
  8
STEMPEL
100
AcDbLine
 10
415.0
 20
292.0
 30
0.0
 11
20.0
 21
292.0
 31
0.0
  0
LINE
  5
132C
330
1E
100
AcDbEntity
  8
HILF
100
AcDbLine
 10
420.0
 20
297.0
 30
0.0
 11
0.0
 21
297.0
 31
0.0
  0
LINE
  5
132D
330
1E
100
AcDbEntity
  8
HILF
100
AcDbLine
 10
420.0
 20
0.0
 30
0.0
 11
420.0
 21
297.0
 31
0.0
  0
LINE
  5
132E
330
1E
100
AcDbEntity
  8
HILF
100
AcDbLine
 10
0.0
 20
0.0
 30
0.0
 11
420.0
 21
0.0
 31
0.0
  0
TEXT
  5
132F
330
1E
100
AcDbEntity
  8
TEXT
100
AcDbText
 10
284.4346513903662
 20
36.48341298261862
 30
0.0
 40
2.0
  1
2009
 41
0.8
  7
GREEKS
100
AcDbText
  0
TEXT
  5
1330
330
1E
100
AcDbEntity
  8
TEXT
100
AcDbText
 10
378.6200430748504
 20
26.03708088939298
 30
0.0
 40
2.5
  1
ersetzt durch:
 41
0.8
  7
GREEKS
100
AcDbText
  0
TEXT
  5
1331
330
1E
100
AcDbEntity
  8
TEXT
100
AcDbText
 10
283.8003388693652
 20
21.76473194824902
 30
0.0
 40
2.0
  1
Norm.
 41
0.8
  7
GREEKS
100
AcDbText
  0
TEXT
  5
1332
330
1E
100
AcDbEntity
  8
TEXT
100
AcDbText
 10
283.7757543285837
 20
26.84463145714186
 30
0.0
 40
2.0
  1
Gepr.
 41
0.8
  7
GREEKS
100
AcDbText
  0
TEXT
  5
1333
330
1E
100
AcDbEntity
  8
TEXT
100
AcDbText
 10
283.7918063583808
 20
31.8149518480898
 30
0.0
 40
2.0
  1
Gez.
 41
0.8
  7
GREEKS
100
AcDbText
  0
TEXT
  5
1334
330
1E
100
AcDbEntity
  8
TEXT
100
AcDbText
 10
311.2313292113148
 20
36.6548054595761
 30
0.0
 40
2.0
  1
Name
 41
0.8
  7
GREEKS
100
AcDbText
  0
TEXT
  5
1335
330
1E
100
AcDbEntity
  8
TEXT
100
AcDbText
 10
296.1655836576826
 20
36.6594025061496
 30
0.0
 40
2.0
  1
Tag
 41
0.8
  7
GREEKS
100
AcDbText
  0
TEXT
  5
1336
330
1E
100
AcDbEntity
  8
TEXT
100
AcDbText
 10
274.4897839069147
 20
9.296621084832022
 30
0.0
 40
2.0
  1
Name
 41
0.8
  7
GREEKS
 72
     1
 11
277.6516886688194
 21
9.296621084832022
 31
0.0
100
AcDbText
  0
TEXT
  5
1337
330
1E
100
AcDbEntity
  8
TEXT
100
AcDbText
 10
264.949505659349
 20
9.33578134669904
 30
0.0
 40
2.0
  1
Tag
 41
0.8
  7
GREEKS
 72
     1
 11
266.8161723260157
 21
9.33578134669904
 31
0.0
100
AcDbText
  0
TEXT
  5
1338
330
1E
100
AcDbEntity
  8
TEXT
100
AcDbText
 10
239.1332055352289
 20
6.827329230135937
 30
0.0
 40
2.0
  1
Index
 50
90.0
 41
0.8
  7
GREEKS
100
AcDbText
  0
TEXT
  5
1339
330
1E
100
AcDbEntity
  8
TEXT
100
AcDbText
 10
378.3619308148498
 20
36.59059118549983
 30
0.0
 40
2.5
  1
Ersatz für:
 41
0.8
  7
GREEKS
100
AcDbText
  0
TEXT
  5
133A
330
1E
100
AcDbEntity
  8
TEXT
100
AcDbText
 10
327.371119195568
 20
15.42280285096527
 30
0.0
 40
2.5
  1
Bauvorhaben
 41
0.8
  7
GREEKS
100
AcDbText
  0
TEXT
  5
133B
330
1E
100
AcDbEntity
  8
TEXT
100
AcDbText
 10
378.0893774788172
 20
51.15660172685679
 30
0.0
 40
2.5
  1
Zeichnungs Nr.
 41
0.8
  7
GREEKS
100
AcDbText
  0
TEXT
  5
133C
330
1E
100
AcDbEntity
  8
TEXT
100
AcDbText
 10
327.4389701904506
 20
51.27446640058896
 30
0.0
 40
2.5
  1
Benennung
 41
0.8
  7
GREEKS
100
AcDbText
  0
TEXT
  5
133D
330
1E
100
AcDbEntity
  8
TEXT
100
AcDbText
 10
286.7581786075189
 20
51.2310447543544
 30
0.0
 40
2.5
  1
Maßstab
 41
0.8
  7
GREEKS
100
AcDbText
  0
TEXT
  5
133E
330
1E
100
AcDbEntity
  8
TEXT
100
AcDbText
 10
246.1999119631649
 20
9.336909474920645
 30
0.0
 40
2.0
  1
Änderung
 41
0.8
  7
GREEKS
 72
     1
 11
251.5713405345934
 21
9.336909474920645
 31
0.0
100
AcDbText
  0
LINE
  5
133F
330
1E
100
AcDbEntity
  8
HILF
100
AcDbLine
 10
327.3868400548474
 20
7.446991290141525
 30
0.0
 11
412.4294419663365
 21
7.446991290141525
 31
0.0
  0
LINE
  5
1340
330
1E
100
AcDbEntity
  8
HILF
100
AcDbLine
 10
378.3619308148498
 20
41.88991818477911
 30
0.0
 11
412.4294419663365
 21
41.88991818477911
 31
0.0
  0
LINE
  5
1341
330
1E
100
AcDbEntity
  8
VOLL
100
AcDbLine
 10
376.0000000000001
 20
30.0
 30
0.0
 11
415.0000000000001
 21
30.0
 31
0.0
  0
LINE
  5
1342
330
1E
100
AcDbEntity
  8
HILF
100
AcDbLine
 10
327.3868400548474
 20
25.0
 30
0.0
 11
373.3148921257406
 21
25.0
 31
0.0
  0
LINE
  5
1343
330
1E
100
AcDbEntity
  8
HILF
100
AcDbLine
 10
327.3868400548474
 20
30.0
 30
0.0
 11
373.3148921257406
 21
30.0
 31
0.0
  0
LINE
  5
1344
330
1E
100
AcDbEntity
  8
HILF
100
AcDbLine
 10
327.3868400548474
 20
35.0
 30
0.0
 11
373.3148921257406
 21
35.0
 31
0.0
  0
LINE
  5
1345
330
1E
100
AcDbEntity
  8
HILF
100
AcDbLine
 10
327.3868400548474
 20
42.01879123782068
 30
0.0
 11
373.3148921257406
 21
42.01879123782068
 31
0.0
  0
LINE
  5
1346
330
1E
100
AcDbEntity
  8
HILF
100
AcDbLine
 10
283.0000000000001
 20
25.0
 30
0.0
 11
325.0
 21
25.0
 31
0.0
  0
LINE
  5
1347
330
1E
100
AcDbEntity
  8
HILF
100
AcDbLine
 10
283.0000000000001
 20
30.0
 30
0.0
 11
325.0
 21
30.0
 31
0.0
  0
LINE
  5
1348
330
1E
100
AcDbEntity
  8
HILF
100
AcDbLine
 10
283.0000000000001
 20
35.0
 30
0.0
 11
325.0
 21
35.0
 31
0.0
  0
LINE
  5
1349
330
1E
100
AcDbEntity
  8
HILF
100
AcDbLine
 10
235.0000000000001
 20
20.0
 30
0.0
 11
283.0000000000001
 21
20.0
 31
0.0
  0
LINE
  5
134A
330
1E
100
AcDbEntity
  8
HILF
100
AcDbLine
 10
235.0000000000001
 20
25.0
 30
0.0
 11
283.0000000000001
 21
25.0
 31
0.0
  0
LINE
  5
134B
330
1E
100
AcDbEntity
  8
HILF
100
AcDbLine
 10
235.0000000000001
 20
30.0
 30
0.0
 11
283.0000000000001
 21
30.0
 31
0.0
  0
LINE
  5
134C
330
1E
100
AcDbEntity
  8
HILF
100
AcDbLine
 10
235.0000000000001
 20
35.0
 30
0.0
 11
283.0000000000001
 21
35.0
 31
0.0
  0
LINE
  5
134D
330
1E
100
AcDbEntity
  8
HILF
100
AcDbLine
 10
235.0000000000001
 20
40.0
 30
0.0
 11
283.0000000000001
 21
40.0
 31
0.0
  0
LINE
  5
134E
330
1E
100
AcDbEntity
  8
HILF
100
AcDbLine
 10
235.0000000000001
 20
45.0
 30
0.0
 11
283.0000000000001
 21
45.0
 31
0.0
  0
LINE
  5
134F
330
1E
100
AcDbEntity
  8
HILF
100
AcDbLine
 10
235.0000000000001
 20
50.0
 30
0.0
 11
283.0000000000001
 21
50.0
 31
0.0
  0
LINE
  5
1350
330
1E
100
AcDbEntity
  8
VOLL
100
AcDbLine
 10
305.0000000000001
 20
54.99999999999992
 30
0.0
 11
305.0000000000001
 21
20.0
 31
0.0
  0
LINE
  5
1351
330
1E
100
AcDbEntity
  8
VOLL
100
AcDbLine
 10
292.0000000000001
 20
40.0
 30
0.0
 11
292.0000000000001
 21
20.0
 31
0.0
  0
LINE
  5
1352
330
1E
100
AcDbEntity
  8
VOLL
100
AcDbLine
 10
272.0000000000001
 20
54.99999999999996
 30
0.0
 11
272.0000000000001
 21
4.999999999999957
 31
0.0
  0
LINE
  5
1353
330
1E
100
AcDbEntity
  8
VOLL
100
AcDbLine
 10
262.0000000000001
 20
54.99999999999997
 30
0.0
 11
262.0
 21
4.999999999999971
 31
0.0
  0
LINE
  5
1354
330
1E
100
AcDbEntity
  8
VOLL
100
AcDbLine
 10
242.0000000000001
 20
55.0
 30
0.0
 11
242.0000000000001
 21
4.999999999999992
 31
0.0
  0
LINE
  5
1355
330
1E
100
AcDbEntity
  8
STEMPEL
100
AcDbLine
 10
415.0000000000001
 20
40.0
 30
0.0
 11
283.0000000000001
 21
40.0
 31
0.0
  0
LINE
  5
1356
330
1E
100
AcDbEntity
  8
STEMPEL
100
AcDbLine
 10
415.0000000000001
 20
20.0
 30
0.0
 11
283.0
 21
20.0
 31
0.0
  0
LINE
  5
1357
330
1E
100
AcDbEntity
  8
STEMPEL
100
AcDbLine
 10
283.0
 20
15.0
 30
0.0
 11
235.0
 21
15.0
 31
0.0
  0
LINE
  5
1358
330
1E
100
AcDbEntity
  8
STEMPEL
100
AcDbLine
 10
376.0000000000001
 20
54.99999999999984
 30
0.0
 11
376.0000000000001
 21
20.0
 31
0.0
  0
LINE
  5
1359
330
1E
100
AcDbEntity
  8
STEMPEL
100
AcDbLine
 10
325.0
 20
55.0
 30
0.0
 11
325.0
 21
5.0
 31
0.0
  0
LINE
  5
135A
330
1E
100
AcDbEntity
  8
STEMPEL
100
AcDbLine
 10
283.0000000000001
 20
54.99999999999994
 30
0.0
 11
283.0
 21
4.999999999999943
 31
0.0
  0
LINE
  5
135B
330
1E
100
AcDbEntity
  8
STEMPEL
100
AcDbLine
 10
235.0000000000001
 20
55.0
 30
0.0
 11
235.0
 21
5.0
 31
0.0
  0
LINE
  5
135C
330
1E
100
AcDbEntity
  8
STEMPEL
100
AcDbLine
 10
415.0000000000001
 20
55.0
 30
0.0
 11
235.0000000000001
 21
55.0
 31
0.0
  0
TEXT
  5
1793
330
1E
100
AcDbEntity
  8
TEXT
100
AcDbText
 10
327.1705470442496
 20
36.29548668923029
 30
0.0
 40
2.5
  1
mit Schallschutz
 41
0.8
  7
GREEKS
100
AcDbText
  0
POINT
  5
1B88
330
1E
100
AcDbEntity
  8
LE_NORM
100
AcDbPoint
 10
260.2809691179807
 20
228.7392453194426
 30
0.0
  0
LINE
  5
1B8C
330
1E
100
AcDbEntity
  8
STEMPEL
100
AcDbLine
 10
248.7979691179808
 20
219.9892453194427
 30
0.0
 11
124.0329691179807
 21
219.9892453194427
 31
0.0
  0
LINE
  5
1B8D
330
1E
100
AcDbEntity
  8
STEMPEL
100
AcDbLine
 10
124.0329691179807
 20
219.9892453194427
 30
0.0
 11
124.0329691179807
 21
211.4892453194427
 31
0.0
  0
LINE
  5
1B8E
330
1E
100
AcDbEntity
  8
STEMPEL
100
AcDbLine
 10
124.0329691179807
 20
245.9892453194427
 30
0.0
 11
124.0329691179807
 21
237.4892453194426
 31
0.0
  0
LINE
  5
1B8F
330
1E
100
AcDbEntity
  8
STEMPEL
100
AcDbLine
 10
248.7979691179808
 20
219.9892453194427
 30
0.0
 11
248.7979691179808
 21
211.4892453194427
 31
0.0
  0
LINE
  5
1B90
330
1E
100
AcDbEntity
  8
STEMPEL
100
AcDbLine
 10
248.7979691179808
 20
245.9892453194427
 30
0.0
 11
248.7979691179808
 21
237.4892453194426
 31
0.0
  0
LINE
  5
1B92
330
1E
100
AcDbEntity
  8
STEMPEL
100
AcDbLine
 10
124.0329691179807
 20
237.4892453194426
 30
0.0
 11
248.7979691179808
 21
237.4892453194426
 31
0.0
  0
LINE
  5
1B93
330
1E
100
AcDbEntity
  8
STEMPEL
100
AcDbLine
 10
124.0329691179807
 20
245.9892453194427
 30
0.0
 11
248.7979691179808
 21
245.9892453194427
 31
0.0
  0
LINE
  5
1B94
330
1E
100
AcDbEntity
  8
STEMPEL
100
AcDbLine
 10
124.0329691179807
 20
211.4892453194427
 30
0.0
 11
248.7979691179808
 21
211.4892453194427
 31
0.0
  0
LINE
  5
1BF2
330
1E
100
AcDbEntity
  8
STEMPEL
100
AcDbLine
 10
173.9159691179807
 20
223.2392453194427
 30
0.0
 11
126.8289691179807
 21
223.2392453194427
 31
0.0
  0
LINE
  5
1BF3
330
1E
100
AcDbEntity
  8
STEMPEL
100
AcDbLine
 10
173.9159691179807
 20
223.2392453194427
 30
0.0
 11
173.9159691179807
 21
234.2392453194427
 31
0.0
  0
LINE
  5
1BF4
330
1E
100
AcDbEntity
  8
STEMPEL
100
AcDbLine
 10
126.8289691179807
 20
234.2392453194427
 30
0.0
 11
173.9159691179807
 21
234.2392453194427
 31
0.0
  0
LINE
  5
1BF5
330
1E
100
AcDbEntity
  8
STEMPEL
100
AcDbLine
 10
198.9159691179807
 20
223.2392453194427
 30
0.0
 11
198.9159691179807
 21
234.2392453194427
 31
0.0
  0
LINE
  5
1BF6
330
1E
100
AcDbEntity
  8
STEMPEL
100
AcDbLine
 10
198.9159691179807
 20
234.2392453194427
 30
0.0
 11
246.0019691179807
 21
234.2392453194427
 31
0.0
  0
LINE
  5
1BF7
330
1E
100
AcDbEntity
  8
STEMPEL
100
AcDbLine
 10
246.0019691179807
 20
223.2392453194427
 30
0.0
 11
198.9159691179807
 21
223.2392453194427
 31
0.0
  0
LINE
  5
1BF8
330
1E
100
AcDbEntity
  8
TEXT
 62
     2
100
AcDbLine
 10
163.4739691179807
 20
227.1982453194427
 30
0.0
 11
163.2729691179808
 21
227.1982453194427
 31
0.0
  0
LINE
  5
1BF9
330
1E
100
AcDbEntity
  8
TEXT
 62
     2
100
AcDbLine
 10
163.4739691179807
 20
227.1982453194427
 30
0.0
 11
164.0429691179807
 21
228.3372453194427
 31
0.0
  0
LINE
  5
1BFA
330
1E
100
AcDbEntity
  8
TEXT
 62
     2
100
AcDbLine
 10
164.0429691179807
 20
228.3372453194427
 30
0.0
 11
164.2439691179808
 21
228.3372453194427
 31
0.0
  0
LINE
  5
1BFB
330
1E
100
AcDbEntity
  8
TEXT
 62
     2
100
AcDbLine
 10
164.2439691179808
 20
228.3372453194427
 30
0.0
 11
164.7129691179807
 21
227.1982453194427
 31
0.0
  0
LINE
  5
1BFC
330
1E
100
AcDbEntity
  8
TEXT
 62
     2
100
AcDbLine
 10
164.9139691179807
 20
227.1982453194427
 30
0.0
 11
164.7129691179807
 21
227.1982453194427
 31
0.0
  0
LINE
  5
1BFD
330
1E
100
AcDbEntity
  8
TEXT
 62
     2
100
AcDbLine
 10
165.3829691179808
 20
228.3372453194427
 30
0.0
 11
164.9139691179807
 21
227.1982453194427
 31
0.0
  0
LINE
  5
1BFE
330
1E
100
AcDbEntity
  8
TEXT
 62
     2
100
AcDbLine
 10
165.5839691179808
 20
228.3372453194427
 30
0.0
 11
165.3829691179808
 21
228.3372453194427
 31
0.0
  0
LINE
  5
1BFF
330
1E
100
AcDbEntity
  8
TEXT
 62
     2
100
AcDbLine
 10
166.1539691179807
 20
227.1982453194427
 30
0.0
 11
165.5839691179808
 21
228.3372453194427
 31
0.0
  0
LINE
  5
1C00
330
1E
100
AcDbEntity
  8
TEXT
 62
     2
100
AcDbLine
 10
166.1539691179807
 20
227.1982453194427
 30
0.0
 11
166.3549691179808
 21
227.1982453194427
 31
0.0
  0
LINE
  5
1C01
330
1E
100
AcDbEntity
  8
TEXT
 62
     2
100
AcDbLine
 10
163.4739691179807
 20
230.2802453194427
 30
0.0
 11
163.2729691179808
 21
230.2802453194427
 31
0.0
  0
LINE
  5
1C02
330
1E
100
AcDbEntity
  8
TEXT
 62
     2
100
AcDbLine
 10
163.4739691179807
 20
230.2802453194427
 30
0.0
 11
164.0429691179807
 21
229.1412453194427
 31
0.0
  0
LINE
  5
1C03
330
1E
100
AcDbEntity
  8
TEXT
 62
     2
100
AcDbLine
 10
164.0429691179807
 20
229.1412453194427
 30
0.0
 11
164.2439691179808
 21
229.1412453194427
 31
0.0
  0
LINE
  5
1C04
330
1E
100
AcDbEntity
  8
TEXT
 62
     2
100
AcDbLine
 10
164.2439691179808
 20
229.1412453194427
 30
0.0
 11
164.7129691179807
 21
230.2802453194427
 31
0.0
  0
LINE
  5
1C05
330
1E
100
AcDbEntity
  8
TEXT
 62
     2
100
AcDbLine
 10
164.9139691179807
 20
230.2802453194427
 30
0.0
 11
164.7129691179807
 21
230.2802453194427
 31
0.0
  0
LINE
  5
1C06
330
1E
100
AcDbEntity
  8
TEXT
 62
     2
100
AcDbLine
 10
165.3829691179808
 20
229.1412453194427
 30
0.0
 11
164.9139691179807
 21
230.2802453194427
 31
0.0
  0
LINE
  5
1C07
330
1E
100
AcDbEntity
  8
TEXT
 62
     2
100
AcDbLine
 10
165.5839691179808
 20
229.1412453194427
 30
0.0
 11
165.3829691179808
 21
229.1412453194427
 31
0.0
  0
LINE
  5
1C08
330
1E
100
AcDbEntity
  8
TEXT
 62
     2
100
AcDbLine
 10
166.1539691179807
 20
230.2802453194427
 30
0.0
 11
165.5839691179808
 21
229.1412453194427
 31
0.0
  0
LINE
  5
1C09
330
1E
100
AcDbEntity
  8
TEXT
 62
     2
100
AcDbLine
 10
166.1539691179807
 20
230.2802453194427
 30
0.0
 11
166.3549691179808
 21
230.2802453194427
 31
0.0
  0
LINE
  5
1C0A
330
1E
100
AcDbEntity
  8
TEXT
100
AcDbLine
 10
162.8039691179807
 20
226.7292453194427
 30
0.0
 11
166.8239691179808
 21
226.7292453194427
 31
0.0
  0
LINE
  5
1C0B
330
1E
100
AcDbEntity
  8
TEXT
100
AcDbLine
 10
166.8239691179808
 20
226.7292453194427
 30
0.0
 11
166.8239691179808
 21
230.7492453194427
 31
0.0
  0
LINE
  5
1C0C
330
1E
100
AcDbEntity
  8
TEXT
100
AcDbLine
 10
166.8239691179808
 20
230.7492453194427
 30
0.0
 11
162.8039691179807
 21
230.7492453194427
 31
0.0
  0
LINE
  5
1C0D
330
1E
100
AcDbEntity
  8
TEXT
100
AcDbLine
 10
162.8039691179807
 20
230.7492453194427
 30
0.0
 11
162.8039691179807
 21
226.7292453194427
 31
0.0
  0
LINE
  5
1C0E
330
1E
100
AcDbEntity
  8
MITTEL
100
AcDbLine
 10
169.7039691179807
 20
235.9182453194426
 30
0.0
 11
169.7039691179807
 21
221.5602453194426
 31
0.0
  0
CIRCLE
  5
1C10
330
1E
100
AcDbEntity
  8
STEMPEL
100
AcDbCircle
 10
169.7039691179807
 20
228.7392453194426
 30
0.0
 40
2.178999999999999
  0
LINE
  5
1C11
330
1E
100
AcDbEntity
  8
TEXT
 62
     2
100
AcDbLine
 10
166.1539691179807
 20
230.2802453194427
 30
0.0
 11
166.3549691179808
 21
230.2802453194427
 31
0.0
  0
LINE
  5
1C12
330
1E
100
AcDbEntity
  8
TEXT
100
AcDbLine
 10
248.9939691179808
 20
219.7592453194427
 30
0.0
 11
248.9939691179808
 21
218.4192453194427
 31
0.0
  0
LINE
  5
1C13
330
1E
100
AcDbEntity
  8
TEXT
100
AcDbLine
 10
248.9939691179808
 20
237.8492453194427
 30
0.0
 11
248.9939691179808
 21
236.5092453194427
 31
0.0
  0
TEXT
  5
1C14
330
1E
100
AcDbEntity
  8
TEXT
 62
     2
100
AcDbText
 10
256.7590293352974
 20
218.4382453194427
 30
0.0
 40
3.0
  1
101-109
 41
0.8
100
AcDbText
  0
LINE
  5
1C15
330
1E
100
AcDbEntity
  8
TEXT
100
AcDbLine
 10
251.3589691179807
 20
218.4192453194427
 30
0.0
 11
251.9839691179807
 21
218.4192453194427
 31
0.0
  0
ARC
  5
1C16
330
1E
100
AcDbEntity
  8
TEXT
100
AcDbCircle
 10
251.0089691179808
 20
218.3722453194426
 30
0.0
 40
0.353
100
AcDbArc
 50
172.3718503309998
 51
7.628149669000184
  0
LINE
  5
1C17
330
1E
100
AcDbEntity
  8
TEXT
100
AcDbLine
 10
250.0339691179807
 20
218.4192453194427
 30
0.0
 11
250.6589691179808
 21
218.4192453194427
 31
0.0
  0
ARC
  5
1C18
330
1E
100
AcDbEntity
  8
TEXT
100
AcDbCircle
 10
249.6839691179807
 20
218.3722453194426
 30
0.0
 40
0.353
100
AcDbArc
 50
172.3718503309998
 51
7.628149669000184
  0
LINE
  5
1C19
330
1E
100
AcDbEntity
  8
TEXT
100
AcDbLine
 10
248.9939691179808
 20
218.4192453194427
 30
0.0
 11
249.3339691179808
 21
218.4192453194427
 31
0.0
  0
LINE
  5
1C1A
330
1E
100
AcDbEntity
  8
TEXT
100
AcDbLine
 10
250.6939691179807
 20
219.7592453194427
 30
0.0
 11
248.9939691179808
 21
219.7592453194427
 31
0.0
  0
LINE
  5
1C1B
330
1E
100
AcDbEntity
  8
TEXT
100
AcDbLine
 10
250.6939691179807
 20
219.6192453194427
 30
0.0
 11
250.6939691179807
 21
219.7592453194427
 31
0.0
  0
ARC
  5
1C1C
330
1E
100
AcDbEntity
  8
TEXT
100
AcDbCircle
 10
250.4939691179808
 20
219.6192453194427
 30
0.0
 40
0.2
100
AcDbArc
 50
270.0
 51
0.0
  0
LINE
  5
1C1D
330
1E
100
AcDbEntity
  8
TEXT
100
AcDbLine
 10
249.3339691179808
 20
219.4192453194427
 30
0.0
 11
250.4939691179808
 21
219.4192453194427
 31
0.0
  0
LINE
  5
1C1E
330
1E
100
AcDbEntity
  8
TEXT
100
AcDbLine
 10
249.3339691179808
 20
218.8192453194426
 30
0.0
 11
249.3339691179808
 21
219.4192453194427
 31
0.0
  0
LINE
  5
1C1F
330
1E
100
AcDbEntity
  8
TEXT
100
AcDbLine
 10
255.3339691179808
 20
218.8192453194426
 30
0.0
 11
249.3339691179808
 21
218.8192453194426
 31
0.0
  0
LINE
  5
1C20
330
1E
100
AcDbEntity
  8
TEXT
100
AcDbLine
 10
255.3339691179808
 20
219.4192453194427
 30
0.0
 11
255.3339691179808
 21
218.8192453194426
 31
0.0
  0
LINE
  5
1C21
330
1E
100
AcDbEntity
  8
TEXT
100
AcDbLine
 10
254.1739691179807
 20
219.4192453194427
 30
0.0
 11
255.3339691179808
 21
219.4192453194427
 31
0.0
  0
ARC
  5
1C22
330
1E
100
AcDbEntity
  8
TEXT
100
AcDbCircle
 10
254.1739691179807
 20
219.6192453194427
 30
0.0
 40
0.2
100
AcDbArc
 50
180.0
 51
270.0
  0
LINE
  5
1C23
330
1E
100
AcDbEntity
  8
TEXT
100
AcDbLine
 10
253.9739691179807
 20
219.7592453194427
 30
0.0
 11
253.9739691179807
 21
219.6192453194427
 31
0.0
  0
LINE
  5
1C24
330
1E
100
AcDbEntity
  8
TEXT
100
AcDbLine
 10
255.6739691179807
 20
219.7592453194427
 30
0.0
 11
253.9739691179807
 21
219.7592453194427
 31
0.0
  0
LINE
  5
1C25
330
1E
100
AcDbEntity
  8
TEXT
100
AcDbLine
 10
255.6739691179807
 20
218.4192453194427
 30
0.0
 11
255.6739691179807
 21
219.7592453194427
 31
0.0
  0
LINE
  5
1C26
330
1E
100
AcDbEntity
  8
TEXT
100
AcDbLine
 10
255.3339691179808
 20
218.4192453194427
 30
0.0
 11
255.6739691179807
 21
218.4192453194427
 31
0.0
  0
ARC
  5
1C27
330
1E
100
AcDbEntity
  8
TEXT
100
AcDbCircle
 10
254.9839691179807
 20
218.3722453194426
 30
0.0
 40
0.353
100
AcDbArc
 50
172.3718503309998
 51
7.628149669000184
  0
LINE
  5
1C28
330
1E
100
AcDbEntity
  8
TEXT
100
AcDbLine
 10
254.0089691179808
 20
218.4192453194427
 30
0.0
 11
254.6339691179808
 21
218.4192453194427
 31
0.0
  0
ARC
  5
1C29
330
1E
100
AcDbEntity
  8
TEXT
100
AcDbCircle
 10
253.6589691179807
 20
218.3722453194426
 30
0.0
 40
0.353
100
AcDbArc
 50
172.3718503309998
 51
7.628149669000184
  0
LINE
  5
1C2A
330
1E
100
AcDbEntity
  8
TEXT
100
AcDbLine
 10
252.6839691179807
 20
218.4192453194427
 30
0.0
 11
253.3089691179807
 21
218.4192453194427
 31
0.0
  0
ARC
  5
1C2B
330
1E
100
AcDbEntity
  8
TEXT
100
AcDbCircle
 10
252.3339691179808
 20
218.3722453194426
 30
0.0
 40
0.353
100
AcDbArc
 50
172.3718503309998
 51
7.628149669000184
  0
LINE
  5
1C2C
330
1E
100
AcDbEntity
  8
TEXT
100
AcDbLine
 10
248.9939691179808
 20
234.1792453194427
 30
0.0
 11
255.6739691179807
 21
240.1792453194427
 31
0.0
  0
LINE
  5
1C2D
330
1E
100
AcDbEntity
  8
TEXT
100
AcDbLine
 10
255.6739691179807
 20
234.1792453194427
 30
0.0
 11
248.9939691179808
 21
240.1792453194427
 31
0.0
  0
TEXT
  5
1C2E
330
1E
100
AcDbEntity
  8
TEXT
 62
     2
100
AcDbText
 10
256.5620293352974
 20
236.3662453194427
 30
0.0
 40
3.0
  1
108-116
 41
0.8
100
AcDbText
  0
LINE
  5
1C2F
330
1E
100
AcDbEntity
  8
TEXT
100
AcDbLine
 10
251.3589691179807
 20
236.5092453194427
 30
0.0
 11
251.9839691179807
 21
236.5092453194427
 31
0.0
  0
ARC
  5
1C30
330
1E
100
AcDbEntity
  8
TEXT
100
AcDbCircle
 10
251.0089691179808
 20
236.4622453194427
 30
0.0
 40
0.353
100
AcDbArc
 50
172.3718503309998
 51
7.628149669000184
  0
LINE
  5
1C31
330
1E
100
AcDbEntity
  8
TEXT
100
AcDbLine
 10
250.0339691179807
 20
236.5092453194427
 30
0.0
 11
250.6589691179808
 21
236.5092453194427
 31
0.0
  0
ARC
  5
1C32
330
1E
100
AcDbEntity
  8
TEXT
100
AcDbCircle
 10
249.6839691179807
 20
236.4622453194427
 30
0.0
 40
0.353
100
AcDbArc
 50
172.3718503309998
 51
7.628149669000184
  0
LINE
  5
1C33
330
1E
100
AcDbEntity
  8
TEXT
100
AcDbLine
 10
248.9939691179808
 20
236.5092453194427
 30
0.0
 11
249.3339691179808
 21
236.5092453194427
 31
0.0
  0
LINE
  5
1C34
330
1E
100
AcDbEntity
  8
TEXT
100
AcDbLine
 10
250.6939691179807
 20
237.8492453194427
 30
0.0
 11
248.9939691179808
 21
237.8492453194427
 31
0.0
  0
LINE
  5
1C35
330
1E
100
AcDbEntity
  8
TEXT
100
AcDbLine
 10
250.6939691179807
 20
237.7092453194426
 30
0.0
 11
250.6939691179807
 21
237.8492453194427
 31
0.0
  0
ARC
  5
1C36
330
1E
100
AcDbEntity
  8
TEXT
100
AcDbCircle
 10
250.4939691179808
 20
237.7092453194426
 30
0.0
 40
0.2
100
AcDbArc
 50
270.0
 51
0.0
  0
LINE
  5
1C37
330
1E
100
AcDbEntity
  8
TEXT
100
AcDbLine
 10
249.3339691179808
 20
237.5092453194426
 30
0.0
 11
250.4939691179808
 21
237.5092453194426
 31
0.0
  0
LINE
  5
1C38
330
1E
100
AcDbEntity
  8
TEXT
100
AcDbLine
 10
249.3339691179808
 20
236.9092453194427
 30
0.0
 11
249.3339691179808
 21
237.5092453194426
 31
0.0
  0
LINE
  5
1C39
330
1E
100
AcDbEntity
  8
TEXT
100
AcDbLine
 10
255.3339691179808
 20
236.9092453194427
 30
0.0
 11
249.3339691179808
 21
236.9092453194427
 31
0.0
  0
LINE
  5
1C3A
330
1E
100
AcDbEntity
  8
TEXT
100
AcDbLine
 10
255.3339691179808
 20
237.5092453194426
 30
0.0
 11
255.3339691179808
 21
236.9092453194427
 31
0.0
  0
LINE
  5
1C3B
330
1E
100
AcDbEntity
  8
TEXT
100
AcDbLine
 10
254.1739691179807
 20
237.5092453194426
 30
0.0
 11
255.3339691179808
 21
237.5092453194426
 31
0.0
  0
ARC
  5
1C3C
330
1E
100
AcDbEntity
  8
TEXT
100
AcDbCircle
 10
254.1739691179807
 20
237.7092453194426
 30
0.0
 40
0.2
100
AcDbArc
 50
180.0
 51
270.0
  0
LINE
  5
1C3D
330
1E
100
AcDbEntity
  8
TEXT
100
AcDbLine
 10
253.9739691179807
 20
237.8492453194427
 30
0.0
 11
253.9739691179807
 21
237.7092453194426
 31
0.0
  0
LINE
  5
1C3E
330
1E
100
AcDbEntity
  8
TEXT
100
AcDbLine
 10
255.6739691179807
 20
237.8492453194427
 30
0.0
 11
253.9739691179807
 21
237.8492453194427
 31
0.0
  0
LINE
  5
1C3F
330
1E
100
AcDbEntity
  8
TEXT
100
AcDbLine
 10
255.6739691179807
 20
236.5092453194427
 30
0.0
 11
255.6739691179807
 21
237.8492453194427
 31
0.0
  0
LINE
  5
1C40
330
1E
100
AcDbEntity
  8
TEXT
100
AcDbLine
 10
255.3339691179808
 20
236.5092453194427
 30
0.0
 11
255.6739691179807
 21
236.5092453194427
 31
0.0
  0
ARC
  5
1C41
330
1E
100
AcDbEntity
  8
TEXT
100
AcDbCircle
 10
254.9839691179807
 20
236.4622453194427
 30
0.0
 40
0.353
100
AcDbArc
 50
172.3718503309998
 51
7.628149669000184
  0
LINE
  5
1C42
330
1E
100
AcDbEntity
  8
TEXT
100
AcDbLine
 10
254.0089691179808
 20
236.5092453194427
 30
0.0
 11
254.6339691179808
 21
236.5092453194427
 31
0.0
  0
ARC
  5
1C43
330
1E
100
AcDbEntity
  8
TEXT
100
AcDbCircle
 10
253.6589691179807
 20
236.4622453194427
 30
0.0
 40
0.353
100
AcDbArc
 50
172.3718503309998
 51
7.628149669000184
  0
LINE
  5
1C44
330
1E
100
AcDbEntity
  8
TEXT
100
AcDbLine
 10
252.6839691179807
 20
236.5092453194427
 30
0.0
 11
253.3089691179807
 21
236.5092453194427
 31
0.0
  0
ARC
  5
1C45
330
1E
100
AcDbEntity
  8
TEXT
100
AcDbCircle
 10
252.3339691179808
 20
236.4622453194427
 30
0.0
 40
0.353
100
AcDbArc
 50
172.3718503309998
 51
7.628149669000184
  0
LINE
  5
1C46
330
1E
100
AcDbEntity
  8
HILF
100
AcDbLine
 10
126.4719691179807
 20
223.1352453194427
 30
0.0
 11
126.4719691179807
 21
234.3622498774439
 31
0.0
  0
CIRCLE
  5
1C48
330
1E
100
AcDbEntity
  8
STEMPEL
100
AcDbCircle
 10
186.4159691179807
 20
228.7392453194426
 30
0.0
 40
2.75
  0
LINE
  5
1C49
330
1E
100
AcDbEntity
  8
MITTEL
100
AcDbLine
 10
186.4159691179807
 20
206.4892453194427
 30
0.0
 11
186.4159691179806
 21
250.9892453194427
 31
0.0
  0
LINE
  5
1C4A
330
1E
100
AcDbEntity
  8
MITTEL
100
AcDbLine
 10
94.7479691179808
 20
228.7392453194426
 30
0.0
 11
277.5069691179808
 21
228.7392453194426
 31
0.0
  0
LINE
  5
1C4C
330
1E
100
AcDbEntity
  8
STEMPEL
100
AcDbLine
 10
98.79996911798071
 20
219.7392453194427
 30
0.0
 11
98.7999691179807
 21
237.7392453194426
 31
0.0
  0
LINE
  5
1C4E
330
1E
100
AcDbEntity
  8
STEMPEL
100
AcDbLine
 10
124.0329691179807
 20
213.7392453194427
 30
0.0
 11
104.7999691179807
 21
213.7392453194427
 31
0.0
  0
LINE
  5
1C4F
330
1E
100
AcDbEntity
  8
STEMPEL
100
AcDbLine
 10
268.0309691179807
 20
213.7392453194426
 30
0.0
 11
248.7979691179808
 21
213.7392453194427
 31
0.0
  0
LINE
  5
1C51
330
1E
100
AcDbEntity
  8
STEMPEL
100
AcDbLine
 10
274.0309691179807
 20
237.7392453194427
 30
0.0
 11
274.0309691179807
 21
219.7392453194426
 31
0.0
  0
LINE
  5
1C53
330
1E
100
AcDbEntity
  8
STEMPEL
100
AcDbLine
 10
248.7979691179808
 20
243.7392453194426
 30
0.0
 11
268.0309691179807
 21
243.7392453194426
 31
0.0
  0
LINE
  5
1C54
330
1E
100
AcDbEntity
  8
STEMPEL
100
AcDbLine
 10
104.7999691179807
 20
243.7392453194426
 30
0.0
 11
124.0329691179807
 21
243.7392453194426
 31
0.0
  0
ARC
  5
1C56
330
1E
100
AcDbEntity
  8
STEMPEL
100
AcDbCircle
 10
186.4159691179807
 20
122.1371085541037
 30
0.0
 40
62.25
100
AcDbArc
 50
10.69782857099921
 51
12.90986233199979
  0
ARC
  5
1C58
330
1E
100
AcDbEntity
  8
STEMPEL
100
AcDbCircle
 10
186.4159691179807
 20
122.1371085541037
 30
0.0
 40
62.25
100
AcDbArc
 50
347.0901376680002
 51
349.3021714290008
  0
LINE
  5
1C64
330
1E
100
AcDbEntity
  8
STEMPEL
100
AcDbLine
 10
248.7974791670329
 20
133.4391085541037
 30
0.0
 11
274.0159691179808
 21
133.4391085541037
 31
0.0
  0
LINE
  5
1C65
330
1E
100
AcDbEntity
  8
STEMPEL
100
AcDbLine
 10
248.7967912911455
 20
130.4421085541037
 30
0.0
 11
274.0159691179808
 21
130.4421085541037
 31
0.0
  0
LINE
  5
1C66
330
1E
100
AcDbEntity
  8
STEMPEL
100
AcDbLine
 10
268.0159691179808
 20
130.4421085541037
 30
0.0
 11
268.0159691179808
 21
133.4391085541037
 31
0.0
  0
LINE
  5
1C69
330
1E
100
AcDbEntity
  8
STEMPEL
100
AcDbLine
 10
274.0159691179808
 20
130.4421085541037
 30
0.0
 11
274.0159691179808
 21
133.4391085541037
 31
0.0
  0
LINE
  5
1C6A
330
1E
100
AcDbEntity
  8
MITTEL
100
AcDbLine
 10
186.4159691179807
 20
27.13710855410373
 30
0.0
 11
186.4159691179807
 21
191.1371085541037
 31
0.0
  0
LINE
  5
1C6B
330
1E
100
AcDbEntity
  8
MITTEL
100
AcDbLine
 10
93.81596911798053
 20
122.1371085541037
 30
0.0
 11
279.0159691179808
 21
122.1371085541037
 31
0.0
  0
ARC
  5
1C6D
330
1E
100
AcDbEntity
  8
Verdeckt
100
AcDbCircle
 10
186.4159691179807
 20
122.1371085541037
 30
0.0
 40
58.0
100
AcDbArc
 50
12.91560691922772
 51
167.0901376680002
  0
ARC
  5
1C70
330
1E
100
AcDbEntity
  8
Verdeckt
100
AcDbCircle
 10
186.4159691179807
 20
122.1371085541037
 30
0.0
 40
61.0
100
AcDbArc
 50
12.91285148278398
 51
167.0901376680002
  0
ARC
  5
1C73
330
1E
100
AcDbEntity
  8
Verdeckt
100
AcDbCircle
 10
186.4159691179807
 20
122.1371085541037
 30
0.0
 40
58.0
100
AcDbArc
 50
192.9098623319997
 51
347.0853115629629
  0
ARC
  5
1C76
330
1E
100
AcDbEntity
  8
Verdeckt
100
AcDbCircle
 10
186.4159691179807
 20
122.1371085541037
 30
0.0
 40
61.0
100
AcDbArc
 50
192.9098623319997
 51
347.088066989279
  0
LINE
  5
1C7A
330
1E
100
AcDbEntity
  8
STEMPEL
100
AcDbLine
 10
248.7977084252491
 20
110.8361085541037
 30
0.0
 11
274.0159691179808
 21
110.8361085541037
 31
0.0
  0
LINE
  5
1C7B
330
1E
100
AcDbEntity
  8
STEMPEL
100
AcDbLine
 10
248.7970205999813
 20
113.8331085541037
 30
0.0
 11
274.0159691179808
 21
113.8331085541037
 31
0.0
  0
LINE
  5
1C7C
330
1E
100
AcDbEntity
  8
STEMPEL
100
AcDbLine
 10
268.0159691179808
 20
113.8331085541037
 30
0.0
 11
268.0159691179808
 21
110.8361085541037
 31
0.0
  0
LINE
  5
1C7F
330
1E
100
AcDbEntity
  8
STEMPEL
100
AcDbLine
 10
274.0159691179808
 20
113.8331085541037
 30
0.0
 11
274.0159691179808
 21
110.8361085541037
 31
0.0
  0
LINE
  5
1C89
330
1E
100
AcDbEntity
  8
MITTEL
100
AcDbLine
 10
112.5509691179807
 20
240.2392453194427
 30
0.0
 11
112.5509691179807
 21
217.2392453194427
 31
0.0
  0
ARC
  5
1CA6
330
1E
100
AcDbEntity
  8
STEMPEL
100
AcDbCircle
 10
267.0159691179808
 20
114.0051085541037
 30
0.0
 40
0.825
100
AcDbArc
 50
109.8044465770033
 51
116.0947175499987
  0
ARC
  5
1CA7
330
1E
100
AcDbEntity
  8
STEMPEL
100
AcDbCircle
 10
267.0189691179808
 20
113.9991085541037
 30
0.0
 40
0.832
100
AcDbArc
 50
103.7919950170018
 51
109.8607746800006
  0
ARC
  5
1CA8
330
1E
100
AcDbEntity
  8
STEMPEL
100
AcDbCircle
 10
267.0189691179808
 20
113.9981085541037
 30
0.0
 40
0.8339999999999999
100
AcDbArc
 50
96.67849485100067
 51
103.800968757001
  0
ARC
  5
1CA9
330
1E
100
AcDbEntity
  8
STEMPEL
100
AcDbCircle
 10
267.0179691179808
 20
114.0051085541037
 30
0.0
 40
0.8279999999999999
100
AcDbArc
 50
89.64007984000282
 51
96.67768667300004
  0
ARC
  5
1CAA
330
1E
100
AcDbEntity
  8
STEMPEL
100
AcDbCircle
 10
267.0179691179808
 20
110.6541085541037
 30
0.0
 40
0.8269999999999999
100
AcDbArc
 50
263.322313327
 51
270.3599201599971
  0
ARC
  5
1CAB
330
1E
100
AcDbEntity
  8
STEMPEL
100
AcDbCircle
 10
267.0189691179808
 20
110.6611085541037
 30
0.0
 40
0.833
100
AcDbArc
 50
256.199031242999
 51
263.3215051489993
  0
ARC
  5
1CAC
330
1E
100
AcDbEntity
  8
STEMPEL
100
AcDbCircle
 10
267.0189691179808
 20
110.6601085541037
 30
0.0
 40
0.832
100
AcDbArc
 50
250.1392253199994
 51
256.2080049829983
  0
ARC
  5
1CAD
330
1E
100
AcDbEntity
  8
STEMPEL
100
AcDbCircle
 10
267.0159691179808
 20
110.6531085541037
 30
0.0
 40
0.8259999999999999
100
AcDbArc
 50
243.9052824500012
 51
250.1955534229967
  0
LINE
  5
1CAE
330
1E
100
AcDbEntity
  8
STEMPEL
100
AcDbLine
 10
266.6519691179808
 20
110.8261085541037
 30
0.0
 11
266.6519691179808
 21
109.9121085541037
 31
0.0
  0
LINE
  5
1CAF
330
1E
100
AcDbEntity
  8
STEMPEL
100
AcDbLine
 10
250.2659691179808
 20
113.8331085541037
 30
0.0
 11
250.2659691179808
 21
114.8331085541037
 31
0.0
  0
LINE
  5
1CB0
330
1E
100
AcDbEntity
  8
STEMPEL
100
AcDbLine
 10
250.2659691179808
 20
114.8331085541037
 30
0.0
 11
270.2659691179808
 21
114.8331085541037
 31
0.0
  0
LINE
  5
1CB1
330
1E
100
AcDbEntity
  8
STEMPEL
100
AcDbLine
 10
266.6519691179808
 20
114.7471085541037
 30
0.0
 11
266.6519691179808
 21
113.8311085541037
 31
0.0
  0
LINE
  5
1CB2
330
1E
100
AcDbEntity
  8
STEMPEL
100
AcDbLine
 10
270.2659691179808
 20
114.8331085541037
 30
0.0
 11
270.2659691179808
 21
113.8331085541037
 31
0.0
  0
LINE
  5
1CB3
330
1E
100
AcDbEntity
  8
STEMPEL
100
AcDbLine
 10
270.2659691179808
 20
110.8261085541037
 30
0.0
 11
270.2659691179808
 21
109.8261085541037
 31
0.0
  0
LINE
  5
1CB5
330
1E
100
AcDbEntity
  8
STEMPEL
100
AcDbLine
 10
270.2659691179808
 20
109.8261085541037
 30
0.0
 11
250.2659691179808
 21
109.8261085541037
 31
0.0
  0
LINE
  5
1CB6
330
1E
100
AcDbEntity
  8
STEMPEL
100
AcDbLine
 10
250.2659691179808
 20
109.8261085541037
 30
0.0
 11
250.2659691179808
 21
110.8261085541037
 31
0.0
  0
LINE
  5
1CB7
330
1E
100
AcDbEntity
  8
STEMPEL
100
AcDbLine
 10
252.7659691179808
 20
102.8261085541037
 30
0.0
 11
252.7659691179808
 21
109.8261085541037
 31
0.0
  0
LINE
  5
1CBA
330
1E
100
AcDbEntity
  8
STEMPEL
100
AcDbLine
 10
260.2659691179808
 20
102.8261085541037
 30
0.0
 11
260.2659691179808
 21
109.8261085541037
 31
0.0
  0
LINE
  5
1CBC
330
1E
100
AcDbEntity
  8
STEMPEL
100
AcDbLine
 10
267.7659691179808
 20
109.8261085541037
 30
0.0
 11
267.7659691179808
 21
102.8261085541037
 31
0.0
  0
LINE
  5
1CBD
330
1E
100
AcDbEntity
  8
STEMPEL
100
AcDbLine
 10
253.0159691179808
 20
125.5431085541037
 30
0.0
 11
253.0159691179808
 21
126.0431085541037
 31
0.0
  0
LINE
  5
1CBE
330
1E
100
AcDbEntity
  8
STEMPEL
100
AcDbLine
 10
267.5159691179808
 20
125.5431085541037
 30
0.0
 11
253.0159691179808
 21
125.5431085541037
 31
0.0
  0
LINE
  5
1CBF
330
1E
100
AcDbEntity
  8
STEMPEL
100
AcDbLine
 10
267.5159691179808
 20
126.0431085541037
 30
0.0
 11
267.5159691179808
 21
125.5431085541037
 31
0.0
  0
LINE
  5
1CC0
330
1E
100
AcDbEntity
  8
STEMPEL
100
AcDbLine
 10
253.0159691179808
 20
126.0431085541037
 30
0.0
 11
267.5159691179808
 21
126.0431085541037
 31
0.0
  0
LINE
  5
1CC5
330
1E
100
AcDbEntity
  8
HILF
100
AcDbLine
 10
257.0329691179808
 20
130.1761085541037
 30
0.0
 11
256.9639691179807
 21
130.4331085541037
 31
0.0
  0
LINE
  5
1CC6
330
1E
100
AcDbEntity
  8
HILF
100
AcDbLine
 10
257.0329691179808
 20
130.4421085541037
 30
0.0
 11
257.0329691179808
 21
126.0431085541037
 31
0.0
  0
LINE
  5
1CC8
330
1E
100
AcDbEntity
  8
HILF
100
AcDbLine
 10
257.0329691179808
 20
102.8261085541037
 30
0.0
 11
257.0329691179808
 21
98.69310855410374
 31
0.0
  0
LINE
  5
1CC9
330
1E
100
AcDbEntity
  8
HILF
100
AcDbLine
 10
263.4989691179808
 20
130.1761085541037
 30
0.0
 11
263.5669691179808
 21
130.4331085541037
 31
0.0
  0
LINE
  5
1CCB
330
1E
100
AcDbEntity
  8
HILF
100
AcDbLine
 10
263.4989691179808
 20
114.8331085541037
 30
0.0
 11
263.4989691179808
 21
125.5431085541037
 31
0.0
  0
LINE
  5
1CCC
330
1E
100
AcDbEntity
  8
HILF
100
AcDbLine
 10
263.4989691179808
 20
98.69310855410374
 30
0.0
 11
263.4989691179808
 21
102.8261085541037
 31
0.0
  0
LINE
  5
1CCD
330
1E
100
AcDbEntity
  8
STEMPEL
100
AcDbLine
 10
264.2659691179808
 20
99.46010855410372
 30
0.0
 11
256.2659691179808
 21
99.46010855410372
 31
0.0
  0
LINE
  5
1CCF
330
1E
100
AcDbEntity
  8
STEMPEL
100
AcDbLine
 10
256.2659691179808
 20
114.8331085541037
 30
0.0
 11
256.2659691179808
 21
125.5431085541037
 31
0.0
  0
LINE
  5
1CD0
330
1E
100
AcDbEntity
  8
STEMPEL
100
AcDbLine
 10
264.2659691179808
 20
130.4421085541037
 30
0.0
 11
264.2659691179808
 21
126.0431085541037
 31
0.0
  0
LINE
  5
1CD4
330
1E
100
AcDbEntity
  8
STEMPEL
100
AcDbLine
 10
256.2659691179808
 20
99.46010855410372
 30
0.0
 11
256.2659691179808
 21
102.8261085541037
 31
0.0
  0
LINE
  5
1CD5
330
1E
100
AcDbEntity
  8
STEMPEL
100
AcDbLine
 10
257.0329691179808
 20
98.69310855410374
 30
0.0
 11
256.2659691179808
 21
99.46010855410372
 31
0.0
  0
LINE
  5
1CD6
330
1E
100
AcDbEntity
  8
STEMPEL
100
AcDbLine
 10
263.4989691179808
 20
98.69310855410374
 30
0.0
 11
257.0329691179808
 21
98.69310855410374
 31
0.0
  0
LINE
  5
1CD7
330
1E
100
AcDbEntity
  8
STEMPEL
100
AcDbLine
 10
264.2659691179808
 20
99.46010855410372
 30
0.0
 11
263.4989691179808
 21
98.69310855410374
 31
0.0
  0
LINE
  5
1CD8
330
1E
100
AcDbEntity
  8
STEMPEL
100
AcDbLine
 10
264.2659691179808
 20
102.8261085541037
 30
0.0
 11
264.2659691179808
 21
99.46010855410372
 31
0.0
  0
LINE
  5
1D04
330
1E
100
AcDbEntity
  8
MITTEL
100
AcDbLine
 10
260.2659691179808
 20
97.00710855410372
 30
0.0
 11
260.2659691179808
 21
143.7356493541037
 31
0.0
  0
LINE
  5
1D39
330
1E
100
AcDbEntity
  8
STEMPEL
100
AcDbLine
 10
195.8673999563807
 20
57.12188423685848
 30
0.0
 11
193.4394512351445
 21
58.52366108464267
 31
0.0
  0
LINE
  5
1D3A
330
1E
100
AcDbEntity
  8
STEMPEL
100
AcDbLine
 10
193.4976390736772
 20
57.89226569625237
 30
0.0
 11
193.5037259563671
 21
57.89226569625237
 31
0.0
  0
ARC
  5
1D3B
330
1E
100
AcDbEntity
  8
STEMPEL
100
AcDbCircle
 10
193.5044172467807
 20
54.04387553115664
 30
0.0
 40
3.848390227184345
100
AcDbArc
 50
58.5308054759201
 51
127.8806357171779
  0
LINE
  5
1D3C
330
1E
100
AcDbEntity
  8
STEMPEL
100
AcDbLine
 10
195.8678999563807
 20
32.9074900134976
 30
0.0
 11
195.3430284637614
 21
32.6044553159439
 31
0.0
  0
LINE
  5
1D3D
330
1E
100
AcDbEntity
  8
STEMPEL
100
AcDbLine
 10
193.4981390736773
 20
32.13710855410371
 30
0.0
 11
193.5042259563671
 21
32.13710855410371
 31
0.0
  0
ARC
  5
1D3E
330
1E
100
AcDbEntity
  8
STEMPEL
100
AcDbCircle
 10
193.5049172467807
 20
35.98549871919945
 30
0.0
 40
3.848390227184345
100
AcDbArc
 50
232.1193642828222
 51
301.4691945240799
  0
LINE
  5
1D3F
330
1E
100
AcDbEntity
  8
STEMPEL
100
AcDbLine
 10
191.1414345371807
 20
57.08137780355404
 30
0.0
 11
191.1419345371807
 21
32.94799644680204
 31
0.0
  0
LINE
  5
1D40
330
1E
100
AcDbEntity
  8
STEMPEL
100
AcDbLine
 10
195.8673999563807
 20
57.12188423685847
 30
0.0
 11
195.8678999563807
 21
32.90749001349758
 31
0.0
  0
LINE
  5
1D41
330
1E
100
AcDbEntity
  8
STEMPEL
100
AcDbLine
 10
181.6895036987807
 20
57.08137780355404
 30
0.0
 11
181.6900036987807
 21
32.94799644680206
 31
0.0
  0
ARC
  5
1D42
330
1E
100
AcDbEntity
  8
STEMPEL
100
AcDbCircle
 10
186.4159691179807
 20
46.31433855410372
 30
0.0
 40
14.17723
100
AcDbArc
 50
250.5278273813848
 51
289.4721726186153
  0
ARC
  5
1D43
330
1E
100
AcDbEntity
  8
STEMPEL
100
AcDbCircle
 10
186.4154691179807
 20
43.71503569625237
 30
0.0
 40
14.17723
100
AcDbArc
 50
70.52782738138472
 51
109.4721726186152
  0
LINE
  5
1D44
330
1E
100
AcDbEntity
  8
STEMPEL
100
AcDbLine
 10
176.9635382795807
 20
57.12188423685848
 30
0.0
 11
179.3916475430492
 21
58.52375377374371
 31
0.0
  0
LINE
  5
1D45
330
1E
100
AcDbEntity
  8
STEMPEL
100
AcDbLine
 10
176.9640382795807
 20
32.9074900134976
 30
0.0
 11
177.4889097722
 21
32.6044553159439
 31
0.0
  0
LINE
  5
1D46
330
1E
100
AcDbEntity
  8
STEMPEL
100
AcDbLine
 10
176.9635382795807
 20
57.1218842368585
 30
0.0
 11
176.9640382795807
 21
32.90749001349759
 31
0.0
  0
LINE
  5
1D47
330
1E
100
AcDbEntity
  8
STEMPEL
100
AcDbLine
 10
179.3277122795684
 20
32.13710855410374
 30
0.0
 11
193.5042259563807
 21
32.13710855410371
 31
0.0
  0
ARC
  5
1D48
330
1E
100
AcDbEntity
  8
STEMPEL
100
AcDbCircle
 10
179.3270209891807
 20
35.98549871919945
 30
0.0
 40
3.848390227184345
100
AcDbArc
 50
238.5308054759201
 51
307.8806357171777
  0
ARC
  5
1D49
330
1E
100
AcDbEntity
  8
STEMPEL
100
AcDbCircle
 10
179.3265209891807
 20
54.04387553115664
 30
0.0
 40
3.848390227184345
100
AcDbArc
 50
52.11936428282204
 51
121.4691945240799
  0
ARC
  5
1D4C
330
1E
100
AcDbEntity
  8
STEMPEL
100
AcDbCircle
 10
186.4159691179807
 20
122.1371085541037
 30
0.0
 40
54.0
100
AcDbArc
 50
192.9098623319998
 51
347.0901376680002
  0
ARC
  5
1D4D
330
1E
100
AcDbEntity
  8
STEMPEL
100
AcDbCircle
 10
186.4159691179807
 20
122.1371085541037
 30
0.0
 40
64.0
100
AcDbArc
 50
192.9098623319998
 51
347.0901376680002
  0
LINE
  5
1D4E
330
1E
100
AcDbEntity
  8
STEMPEL
100
AcDbLine
 10
239.0509977082436
 20
134.2016750735525
 30
0.0
 11
248.798225224959
 21
136.4358540586356
 31
0.0
  0
LINE
  5
1D4F
330
1E
100
AcDbEntity
  8
STEMPEL
100
AcDbLine
 10
239.0509977082436
 20
110.0725420346549
 30
0.0
 11
248.798225224959
 21
107.8383630495717
 31
0.0
  0
LINE
  5
1D50
330
1E
100
AcDbEntity
  8
STEMPEL
100
AcDbLine
 10
133.7809405277178
 20
134.2016750735526
 30
0.0
 11
124.0337130110024
 21
136.4358540586357
 31
0.0
  0
LINE
  5
1D51
330
1E
100
AcDbEntity
  8
STEMPEL
100
AcDbLine
 10
133.7809405277178
 20
110.0725420346549
 30
0.0
 11
124.0337130110024
 21
107.8383630495717
 31
0.0
  0
ARC
  5
1D52
330
1E
100
AcDbEntity
  8
STEMPEL
100
AcDbCircle
 10
186.4159691179807
 20
122.1371085541037
 30
0.0
 40
54.0
100
AcDbArc
 50
12.90986233199981
 51
167.0901376680001
  0
ARC
  5
1D53
330
1E
100
AcDbEntity
  8
STEMPEL
100
AcDbCircle
 10
186.4159691179807
 20
122.1371085541037
 30
0.0
 40
64.0
100
AcDbArc
 50
12.90986233199979
 51
167.0901376680002
  0
ARC
  5
1D54
330
1E
100
AcDbEntity
  8
STEMPEL
100
AcDbCircle
 10
248.7974791670329
 20
136.4391085541037
 30
0.0
 40
3.0
100
AcDbArc
 50
192.9128514827842
 51
270.0000000000005
  0
ARC
  5
1D55
330
1E
100
AcDbEntity
  8
STEMPEL
100
AcDbCircle
 10
248.7977084252491
 20
107.8361085541037
 30
0.0
 40
3.0
100
AcDbArc
 50
90.0
 51
167.0880669892796
  0
ARC
  5
1D56
330
1E
100
AcDbEntity
  8
STEMPEL
100
AcDbCircle
 10
248.7967912911454
 20
136.4421085541037
 30
0.0
 40
6.0
100
AcDbArc
 50
192.9156069192277
 51
270.0000000000002
  0
ARC
  5
1D57
330
1E
100
AcDbEntity
  8
STEMPEL
100
AcDbCircle
 10
248.7970205999813
 20
107.8331085541037
 30
0.0
 40
6.0
100
AcDbArc
 50
90.0
 51
167.0853115629631
  0
LINE
  5
1D59
330
1E
100
AcDbEntity
  8
STEMPEL
100
AcDbLine
 10
252.7659691179808
 20
102.8261085541037
 30
0.0
 11
267.7659691179808
 21
102.8261085541037
 31
0.0
  0
LINE
  5
1D5A
330
1E
100
AcDbEntity
  8
STEMPEL
100
AcDbLine
 10
264.2659691179808
 20
125.5431085541037
 30
0.0
 11
264.2659691179808
 21
114.8331085541037
 31
0.0
  0
LINE
  5
1D5B
330
1E
100
AcDbEntity
  8
HILF
100
AcDbLine
 10
263.4989691179808
 20
126.0431085541037
 30
0.0
 11
263.4989691179808
 21
130.4421085541037
 31
0.0
  0
LINE
  5
1D5C
330
1E
100
AcDbEntity
  8
HILF
100
AcDbLine
 10
257.0329691179808
 20
125.5431085541037
 30
0.0
 11
257.0329691179808
 21
114.8331085541037
 31
0.0
  0
LINE
  5
1D5D
330
1E
100
AcDbEntity
  8
STEMPEL
100
AcDbLine
 10
256.2659691179808
 20
126.0431085541037
 30
0.0
 11
256.2659691179808
 21
130.4421085541037
 31
0.0
  0
LINE
  5
1D87
330
1E
100
AcDbEntity
  8
STEMPEL
100
AcDbLine
 10
253.0771611631648
 20
133.4391085541037
 30
0.0
 11
267.4547770727969
 21
133.4391085541037
 31
0.0
  0
ARC
  5
1D88
330
1E
100
AcDbEntity
  8
STEMPEL
100
AcDbCircle
 10
260.2659691179808
 20
127.9529441541038
 30
0.0
 40
10.7827052
100
AcDbArc
 50
70.52782738138624
 51
109.4721726186137
  0
LINE
  5
1D89
330
1E
100
AcDbEntity
  8
STEMPEL
100
AcDbLine
 10
254.8748889231555
 20
138.7356493541037
 30
0.0
 11
265.6570493127969
 21
138.7356493541037
 31
0.0
  0
ARC
  5
1D8B
330
1E
100
AcDbEntity
  8
STEMPEL
100
AcDbCircle
 10
254.8743631518688
 20
135.8086984162403
 30
0.0
 40
2.926950985085932
100
AcDbArc
 50
52.11936428282104
 51
121.4691945240785
  0
LINE
  5
1D8C
330
1E
100
AcDbEntity
  8
STEMPEL
100
AcDbLine
 10
253.0771611631648
 20
137.763258190736
 30
0.0
 11
253.0771611631648
 21
138.1497241650372
 31
0.0
  0
LINE
  5
1D8D
330
1E
100
AcDbEntity
  8
STEMPEL
100
AcDbLine
 10
253.0771611631648
 20
138.1497241650372
 30
0.0
 11
253.4763600597615
 21
138.3802017554475
 31
0.0
  0
LINE
  5
1D8E
330
1E
100
AcDbEntity
  8
STEMPEL
100
AcDbLine
 10
253.0771611631648
 20
137.763258190736
 30
0.0
 11
253.0771611631648
 21
133.4391085541037
 31
0.0
  0
LINE
  5
1D8F
330
1E
100
AcDbEntity
  8
STEMPEL
100
AcDbLine
 10
256.6715651405729
 20
137.763258190736
 30
0.0
 11
256.6715651405729
 21
138.1189163888337
 31
0.0
  0
LINE
  5
1D90
330
1E
100
AcDbEntity
  8
STEMPEL
100
AcDbLine
 10
256.6715651405729
 20
137.763258190736
 30
0.0
 11
256.6715651405729
 21
133.4391085541037
 31
0.0
  0
ARC
  5
1D91
330
1E
100
AcDbEntity
  8
STEMPEL
100
AcDbCircle
 10
265.6575750840929
 20
135.8086984162403
 30
0.0
 40
2.926950985085932
100
AcDbArc
 50
58.53080547592148
 51
127.8806357171789
  0
LINE
  5
1D92
330
1E
100
AcDbEntity
  8
STEMPEL
100
AcDbLine
 10
263.8603730953888
 20
137.763258190736
 30
0.0
 11
263.8603730953888
 21
138.1189163888337
 31
0.0
  0
LINE
  5
1D93
330
1E
100
AcDbEntity
  8
STEMPEL
100
AcDbLine
 10
263.8603730953888
 20
137.763258190736
 30
0.0
 11
263.8603730953888
 21
133.4391085541037
 31
0.0
  0
LINE
  5
1D94
330
1E
100
AcDbEntity
  8
STEMPEL
100
AcDbLine
 10
265.6524198427397
 20
138.7356493541037
 30
0.0
 11
265.6570493127865
 21
138.7356493541037
 31
0.0
  0
LINE
  5
1D95
330
1E
100
AcDbEntity
  8
STEMPEL
100
AcDbLine
 10
267.4547770727969
 20
138.0252958830844
 30
0.0
 11
267.4547770727969
 21
138.1189163888337
 31
0.0
  0
LINE
  5
1D96
330
1E
100
AcDbEntity
  8
STEMPEL
100
AcDbLine
 10
267.4547770727969
 20
137.7632581907359
 30
0.0
 11
267.4547770727969
 21
138.0252958830844
 31
0.0
  0
LINE
  5
1D97
330
1E
100
AcDbEntity
  8
STEMPEL
100
AcDbLine
 10
267.4547770727969
 20
138.1189163888337
 30
0.0
 11
267.4547770727969
 21
138.1497241650372
 31
0.0
  0
LINE
  5
1D98
330
1E
100
AcDbEntity
  8
STEMPEL
100
AcDbLine
 10
267.4547770727969
 20
138.1497241650372
 30
0.0
 11
267.0555781762001
 21
138.3802017554475
 31
0.0
  0
LINE
  5
1D99
330
1E
100
AcDbEntity
  8
STEMPEL
100
AcDbLine
 10
267.4547770727969
 20
137.7632581907359
 30
0.0
 11
267.4547770727969
 21
133.4391085541037
 31
0.0
  0
LINE
  5
1D9D
330
1E
100
AcDbEntity
  8
STEMPEL
100
AcDbLine
 10
105.3771611631645
 20
137.7632581907359
 30
0.0
 11
105.3771611631645
 21
133.4391085541037
 31
0.0
  0
LINE
  5
1D9E
330
1E
100
AcDbEntity
  8
STEMPEL
100
AcDbLine
 10
105.3771611631645
 20
138.1497241650372
 30
0.0
 11
105.7763600597612
 21
138.3802017554475
 31
0.0
  0
LINE
  5
1D9F
330
1E
100
AcDbEntity
  8
STEMPEL
100
AcDbLine
 10
105.3771611631645
 20
138.1189163888337
 30
0.0
 11
105.3771611631645
 21
138.1497241650372
 31
0.0
  0
LINE
  5
1DA0
330
1E
100
AcDbEntity
  8
STEMPEL
100
AcDbLine
 10
105.3771611631645
 20
137.7632581907359
 30
0.0
 11
105.3771611631645
 21
138.0252958830844
 31
0.0
  0
LINE
  5
1DA1
330
1E
100
AcDbEntity
  8
STEMPEL
100
AcDbLine
 10
105.3771611631645
 20
138.0252958830844
 30
0.0
 11
105.3771611631645
 21
138.1189163888337
 31
0.0
  0
LINE
  5
1DA2
330
1E
100
AcDbEntity
  8
STEMPEL
100
AcDbLine
 10
107.1795183932216
 20
138.7356493541037
 30
0.0
 11
107.1748889231749
 21
138.7356493541037
 31
0.0
  0
LINE
  5
1DA3
330
1E
100
AcDbEntity
  8
STEMPEL
100
AcDbLine
 10
108.9715651405726
 20
137.763258190736
 30
0.0
 11
108.9715651405726
 21
133.4391085541037
 31
0.0
  0
LINE
  5
1DA4
330
1E
100
AcDbEntity
  8
STEMPEL
100
AcDbLine
 10
108.9715651405726
 20
137.763258190736
 30
0.0
 11
108.9715651405726
 21
138.1189163888337
 31
0.0
  0
ARC
  5
1DA5
330
1E
100
AcDbEntity
  8
STEMPEL
100
AcDbCircle
 10
107.1743631518685
 20
135.8086984162403
 30
0.0
 40
2.926950985085932
100
AcDbArc
 50
52.11936428282105
 51
121.4691945240785
  0
LINE
  5
1DA6
330
1E
100
AcDbEntity
  8
STEMPEL
100
AcDbLine
 10
116.1603730953885
 20
137.763258190736
 30
0.0
 11
116.1603730953885
 21
133.4391085541037
 31
0.0
  0
LINE
  5
1DA7
330
1E
100
AcDbEntity
  8
STEMPEL
100
AcDbLine
 10
116.1603730953885
 20
137.763258190736
 30
0.0
 11
116.1603730953885
 21
138.1189163888337
 31
0.0
  0
LINE
  5
1DA8
330
1E
100
AcDbEntity
  8
STEMPEL
100
AcDbLine
 10
119.7547770727966
 20
137.763258190736
 30
0.0
 11
119.7547770727966
 21
133.4391085541037
 31
0.0
  0
LINE
  5
1DA9
330
1E
100
AcDbEntity
  8
STEMPEL
100
AcDbLine
 10
119.7547770727966
 20
138.1497241650372
 30
0.0
 11
119.3555781761998
 21
138.3802017554475
 31
0.0
  0
LINE
  5
1DAA
330
1E
100
AcDbEntity
  8
STEMPEL
100
AcDbLine
 10
119.7547770727966
 20
137.763258190736
 30
0.0
 11
119.7547770727966
 21
138.1497241650372
 31
0.0
  0
ARC
  5
1DAB
330
1E
100
AcDbEntity
  8
STEMPEL
100
AcDbCircle
 10
117.9575750840926
 20
135.8086984162403
 30
0.0
 40
2.926950985085932
100
AcDbArc
 50
58.53080547592148
 51
127.880635717179
  0
LINE
  5
1DAC
330
1E
100
AcDbEntity
  8
STEMPEL
100
AcDbLine
 10
117.9570493128059
 20
138.7356493541037
 30
0.0
 11
107.1748889231645
 21
138.7356493541037
 31
0.0
  0
ARC
  5
1DAD
330
1E
100
AcDbEntity
  8
STEMPEL
100
AcDbCircle
 10
112.5659691179805
 20
127.9529441541038
 30
0.0
 40
10.7827052
100
AcDbArc
 50
70.52782738138624
 51
109.4721726186137
  0
LINE
  5
1DAE
330
1E
100
AcDbEntity
  8
STEMPEL
100
AcDbLine
 10
119.7547770727966
 20
133.4391085541037
 30
0.0
 11
105.3771611631645
 21
133.4391085541037
 31
0.0
  0
LINE
  5
1DAF
330
1E
100
AcDbEntity
  8
STEMPEL
100
AcDbLine
 10
116.5659691179805
 20
126.0431085541037
 30
0.0
 11
116.5659691179805
 21
130.4421085541037
 31
0.0
  0
LINE
  5
1DB0
330
1E
100
AcDbEntity
  8
HILF
100
AcDbLine
 10
115.7989691179806
 20
125.5431085541037
 30
0.0
 11
115.7989691179806
 21
114.8331085541037
 31
0.0
  0
LINE
  5
1DB1
330
1E
100
AcDbEntity
  8
HILF
100
AcDbLine
 10
109.3329691179805
 20
126.0431085541037
 30
0.0
 11
109.3329691179806
 21
130.4421085541037
 31
0.0
  0
LINE
  5
1DB2
330
1E
100
AcDbEntity
  8
STEMPEL
100
AcDbLine
 10
108.5659691179805
 20
125.5431085541037
 30
0.0
 11
108.5659691179805
 21
114.8331085541037
 31
0.0
  0
LINE
  5
1DB3
330
1E
100
AcDbEntity
  8
STEMPEL
100
AcDbLine
 10
120.0659691179805
 20
102.8261085541037
 30
0.0
 11
105.0659691179805
 21
102.8261085541037
 31
0.0
  0
LINE
  5
1DB4
330
1E
100
AcDbEntity
  8
MITTEL
100
AcDbLine
 10
112.5659691179805
 20
97.00710855410372
 30
0.0
 11
112.5659691179805
 21
143.7356493541037
 31
0.0
  0
LINE
  5
1DB5
330
1E
100
AcDbEntity
  8
STEMPEL
100
AcDbLine
 10
108.5659691179805
 20
102.8261085541037
 30
0.0
 11
108.5659691179805
 21
99.46010855410372
 31
0.0
  0
LINE
  5
1DB6
330
1E
100
AcDbEntity
  8
STEMPEL
100
AcDbLine
 10
108.5659691179805
 20
99.46010855410372
 30
0.0
 11
109.3329691179806
 21
98.69310855410374
 31
0.0
  0
LINE
  5
1DB7
330
1E
100
AcDbEntity
  8
STEMPEL
100
AcDbLine
 10
109.3329691179806
 20
98.69310855410374
 30
0.0
 11
115.7989691179806
 21
98.69310855410374
 31
0.0
  0
LINE
  5
1DB8
330
1E
100
AcDbEntity
  8
STEMPEL
100
AcDbLine
 10
115.7989691179806
 20
98.69310855410374
 30
0.0
 11
116.5659691179805
 21
99.46010855410372
 31
0.0
  0
LINE
  5
1DB9
330
1E
100
AcDbEntity
  8
STEMPEL
100
AcDbLine
 10
116.5659691179805
 20
99.46010855410372
 30
0.0
 11
116.5659691179805
 21
102.8261085541037
 31
0.0
  0
LINE
  5
1DBA
330
1E
100
AcDbEntity
  8
STEMPEL
100
AcDbLine
 10
108.5659691179805
 20
130.4421085541037
 30
0.0
 11
108.5659691179805
 21
126.0431085541037
 31
0.0
  0
LINE
  5
1DBB
330
1E
100
AcDbEntity
  8
STEMPEL
100
AcDbLine
 10
116.5659691179805
 20
114.8331085541037
 30
0.0
 11
116.5659691179805
 21
125.5431085541037
 31
0.0
  0
LINE
  5
1DBC
330
1E
100
AcDbEntity
  8
STEMPEL
100
AcDbLine
 10
108.5659691179805
 20
99.46010855410372
 30
0.0
 11
116.5659691179805
 21
99.46010855410372
 31
0.0
  0
LINE
  5
1DBD
330
1E
100
AcDbEntity
  8
HILF
100
AcDbLine
 10
109.3329691179806
 20
98.69310855410374
 30
0.0
 11
109.3329691179806
 21
102.8261085541037
 31
0.0
  0
LINE
  5
1DBE
330
1E
100
AcDbEntity
  8
HILF
100
AcDbLine
 10
109.3329691179806
 20
114.8331085541037
 30
0.0
 11
109.3329691179805
 21
125.5431085541037
 31
0.0
  0
LINE
  5
1DBF
330
1E
100
AcDbEntity
  8
HILF
100
AcDbLine
 10
109.3329691179806
 20
130.1761085541037
 30
0.0
 11
109.2649691179806
 21
130.4331085541037
 31
0.0
  0
LINE
  5
1DC0
330
1E
100
AcDbEntity
  8
HILF
100
AcDbLine
 10
115.7989691179806
 20
102.8261085541037
 30
0.0
 11
115.7989691179806
 21
98.69310855410374
 31
0.0
  0
LINE
  5
1DC1
330
1E
100
AcDbEntity
  8
HILF
100
AcDbLine
 10
115.7989691179806
 20
130.4421085541037
 30
0.0
 11
115.7989691179806
 21
126.0431085541037
 31
0.0
  0
LINE
  5
1DC2
330
1E
100
AcDbEntity
  8
HILF
100
AcDbLine
 10
115.7989691179806
 20
130.1761085541037
 30
0.0
 11
115.8679691179807
 21
130.4331085541037
 31
0.0
  0
LINE
  5
1DC3
330
1E
100
AcDbEntity
  8
STEMPEL
100
AcDbLine
 10
119.8159691179805
 20
126.0431085541037
 30
0.0
 11
105.3159691179805
 21
126.0431085541037
 31
0.0
  0
LINE
  5
1DC4
330
1E
100
AcDbEntity
  8
STEMPEL
100
AcDbLine
 10
105.3159691179805
 20
126.0431085541037
 30
0.0
 11
105.3159691179805
 21
125.5431085541037
 31
0.0
  0
LINE
  5
1DC5
330
1E
100
AcDbEntity
  8
STEMPEL
100
AcDbLine
 10
105.3159691179805
 20
125.5431085541037
 30
0.0
 11
119.8159691179805
 21
125.5431085541037
 31
0.0
  0
LINE
  5
1DC6
330
1E
100
AcDbEntity
  8
STEMPEL
100
AcDbLine
 10
119.8159691179805
 20
125.5431085541037
 30
0.0
 11
119.8159691179805
 21
126.0431085541037
 31
0.0
  0
LINE
  5
1DC7
330
1E
100
AcDbEntity
  8
STEMPEL
100
AcDbLine
 10
105.0659691179805
 20
109.8261085541037
 30
0.0
 11
105.0659691179805
 21
102.8261085541037
 31
0.0
  0
LINE
  5
1DC8
330
1E
100
AcDbEntity
  8
STEMPEL
100
AcDbLine
 10
112.5659691179805
 20
102.8261085541037
 30
0.0
 11
112.5659691179805
 21
109.8261085541037
 31
0.0
  0
LINE
  5
1DC9
330
1E
100
AcDbEntity
  8
STEMPEL
100
AcDbLine
 10
120.0659691179805
 20
102.8261085541037
 30
0.0
 11
120.0659691179805
 21
109.8261085541037
 31
0.0
  0
LINE
  5
1DCA
330
1E
100
AcDbEntity
  8
STEMPEL
100
AcDbLine
 10
102.5659691179805
 20
110.8261085541037
 30
0.0
 11
102.5659691179805
 21
109.8261085541037
 31
0.0
  0
LINE
  5
1DCB
330
1E
100
AcDbEntity
  8
STEMPEL
100
AcDbLine
 10
102.5659691179805
 20
114.8331085541037
 30
0.0
 11
102.5659691179805
 21
113.8331085541037
 31
0.0
  0
LINE
  5
1DCC
330
1E
100
AcDbEntity
  8
STEMPEL
100
AcDbLine
 10
106.1799691179806
 20
114.7471085541037
 30
0.0
 11
106.1799691179806
 21
113.8311085541037
 31
0.0
  0
LINE
  5
1DCD
330
1E
100
AcDbEntity
  8
STEMPEL
100
AcDbLine
 10
106.1799691179806
 20
110.8261085541037
 30
0.0
 11
106.1799691179806
 21
109.9121085541037
 31
0.0
  0
ARC
  5
1DCE
330
1E
100
AcDbEntity
  8
STEMPEL
100
AcDbCircle
 10
105.8159691179805
 20
110.6531085541037
 30
0.0
 40
0.8259999999999999
100
AcDbArc
 50
289.8044465770033
 51
296.0947175499988
  0
ARC
  5
1DCF
330
1E
100
AcDbEntity
  8
STEMPEL
100
AcDbCircle
 10
105.8129691179806
 20
110.6601085541037
 30
0.0
 40
0.832
100
AcDbArc
 50
283.7919950170018
 51
289.8607746800006
  0
ARC
  5
1DD0
330
1E
100
AcDbEntity
  8
STEMPEL
100
AcDbCircle
 10
105.8129691179806
 20
110.6611085541037
 30
0.0
 40
0.833
100
AcDbArc
 50
276.6784948510007
 51
283.8009687570011
  0
ARC
  5
1DD1
330
1E
100
AcDbEntity
  8
STEMPEL
100
AcDbCircle
 10
105.8139691179806
 20
110.6541085541037
 30
0.0
 40
0.8269999999999999
100
AcDbArc
 50
269.6400798400028
 51
276.677686673
  0
ARC
  5
1DD2
330
1E
100
AcDbEntity
  8
STEMPEL
100
AcDbCircle
 10
105.8139691179806
 20
114.0051085541037
 30
0.0
 40
0.8279999999999999
100
AcDbArc
 50
83.32231332699997
 51
90.35992015999717
  0
ARC
  5
1DD3
330
1E
100
AcDbEntity
  8
STEMPEL
100
AcDbCircle
 10
105.8129691179806
 20
113.9981085541037
 30
0.0
 40
0.8339999999999999
100
AcDbArc
 50
76.199031242999
 51
83.32150514899934
  0
ARC
  5
1DD4
330
1E
100
AcDbEntity
  8
STEMPEL
100
AcDbCircle
 10
105.8129691179806
 20
113.9991085541037
 30
0.0
 40
0.832
100
AcDbArc
 50
70.13922531999938
 51
76.20800498299823
  0
ARC
  5
1DD5
330
1E
100
AcDbEntity
  8
STEMPEL
100
AcDbCircle
 10
105.8159691179805
 20
114.0051085541037
 30
0.0
 40
0.825
100
AcDbArc
 50
63.90528245000125
 51
70.19555342299669
  0
LINE
  5
1DD6
330
1E
100
AcDbEntity
  8
STEMPEL
100
AcDbLine
 10
98.81596911798055
 20
113.8331085541037
 30
0.0
 11
98.81596911798055
 21
110.8361085541037
 31
0.0
  0
LINE
  5
1DD7
330
1E
100
AcDbEntity
  8
STEMPEL
100
AcDbLine
 10
104.8159691179805
 20
113.8331085541037
 30
0.0
 11
104.8159691179805
 21
110.8361085541037
 31
0.0
  0
LINE
  5
1DD8
330
1E
100
AcDbEntity
  8
STEMPEL
100
AcDbLine
 10
98.81596911798055
 20
130.4421085541037
 30
0.0
 11
98.81596911798055
 21
133.4391085541037
 31
0.0
  0
LINE
  5
1DD9
330
1E
100
AcDbEntity
  8
STEMPEL
100
AcDbLine
 10
104.8159691179805
 20
130.4421085541037
 30
0.0
 11
104.8159691179805
 21
133.4391085541037
 31
0.0
  0
LINE
  5
1DDA
330
1E
100
AcDbEntity
  8
STEMPEL
100
AcDbLine
 10
122.5659691179805
 20
109.8261085541037
 30
0.0
 11
122.5659691179805
 21
110.8261085541037
 31
0.0
  0
LINE
  5
1DDB
330
1E
100
AcDbEntity
  8
STEMPEL
100
AcDbLine
 10
102.5659691179805
 20
109.8261085541037
 30
0.0
 11
122.5659691179805
 21
109.8261085541037
 31
0.0
  0
LINE
  5
1DDC
330
1E
100
AcDbEntity
  8
STEMPEL
100
AcDbLine
 10
122.5659691179805
 20
114.8331085541037
 30
0.0
 11
102.5659691179805
 21
114.8331085541037
 31
0.0
  0
LINE
  5
1DDD
330
1E
100
AcDbEntity
  8
STEMPEL
100
AcDbLine
 10
122.5659691179805
 20
113.8331085541037
 30
0.0
 11
122.5659691179805
 21
114.8331085541037
 31
0.0
  0
LINE
  5
1DDE
330
1E
100
AcDbEntity
  8
STEMPEL
100
AcDbLine
 10
124.0349176359801
 20
113.8331085541037
 30
0.0
 11
98.81596911798055
 21
113.8331085541037
 31
0.0
  0
LINE
  5
1DDF
330
1E
100
AcDbEntity
  8
STEMPEL
100
AcDbLine
 10
124.0342298107122
 20
110.8361085541037
 30
0.0
 11
98.81596911798055
 21
110.8361085541037
 31
0.0
  0
ARC
  5
1DE0
330
1E
100
AcDbEntity
  8
STEMPEL
100
AcDbCircle
 10
124.0349176359801
 20
107.8331085541037
 30
0.0
 40
6.0
100
AcDbArc
 50
12.91468843703687
 51
90.0
  0
ARC
  5
1DE1
330
1E
100
AcDbEntity
  8
STEMPEL
100
AcDbCircle
 10
124.0342298107122
 20
107.8361085541037
 30
0.0
 40
3.0
100
AcDbArc
 50
12.91193301072041
 51
90.0
  0
ARC
  5
1DE2
330
1E
100
AcDbEntity
  8
STEMPEL
100
AcDbCircle
 10
186.4159691179807
 20
122.1371085541037
 30
0.0
 40
62.25
100
AcDbArc
 50
190.6978285709992
 51
192.9098623319998
  0
ARC
  5
1DE3
330
1E
100
AcDbEntity
  8
STEMPEL
100
AcDbCircle
 10
124.0351469448159
 20
136.4421085541037
 30
0.0
 40
6.0
100
AcDbArc
 50
269.9999999999998
 51
347.0843930807723
  0
ARC
  5
1DE4
330
1E
100
AcDbEntity
  8
STEMPEL
100
AcDbCircle
 10
124.0344590689285
 20
136.4391085541037
 30
0.0
 40
3.0
100
AcDbArc
 50
269.9999999999995
 51
347.0871485172158
  0
LINE
  5
1DE5
330
1E
100
AcDbEntity
  8
STEMPEL
100
AcDbLine
 10
124.0351469448159
 20
130.4421085541037
 30
0.0
 11
98.81596911798055
 21
130.4421085541037
 31
0.0
  0
LINE
  5
1DE6
330
1E
100
AcDbEntity
  8
STEMPEL
100
AcDbLine
 10
124.0344590689284
 20
133.4391085541037
 30
0.0
 11
98.81596911798055
 21
133.4391085541037
 31
0.0
  0
ARC
  5
1DE7
330
1E
100
AcDbEntity
  8
STEMPEL
100
AcDbCircle
 10
186.4159691179807
 20
122.1371085541037
 30
0.0
 40
62.25
100
AcDbArc
 50
167.0901376680002
 51
169.3021714290008
  0
DIMENSION
  5
1DEA
330
1E
100
AcDbEntity
  8
BEM
100
AcDbDimension
280
     0
  2
*D2
 10
138.9051505492192
 20
88.86967524574298
 30
0.0
 11
199.3360248234242
 21
131.1838289531446
 31
0.0
 70
   160
 71
     5
 42
116.0
 73
     0
 74
     0
 75
     0
  3
Standard
100
AcDbAlignedDimension
 13
233.9267876867423
 23
155.4045418624644
 33
0.0
 14
138.9051505492191
 24
88.86967524574306
 34
0.0
 50
35.00000000000007
100
AcDbRotatedDimension
1001
ACAD
1000
DSTYLE
1002
{
1070
    41
1040
3.5
1070
    42
1040
1.0
1070
    43
1040
7.0
1070
    44
1040
1.0
1070
    73
1070
     0
1070
    74
1070
     0
1070
    77
1070
     1
1070
    78
1070
     8
1070
    79
1070
     2
1070
   140
1040
3.5
1070
   141
1040
1.5
1070
   146
1040
0.5142857142857144
1070
   147
1040
1.5
1070
   172
1070
     1
1070
   178
1070
     1
1070
   179
1070
     2
1070
   271
1070
     2
1070
   272
1070
     2
1070
   284
1070
     8
1070
   285
1070
     8
1070
   286
1070
     8
1002
}
  0
DIMENSION
  5
1E25
330
1E
100
AcDbEntity
  8
BEM
100
AcDbDimension
280
     0
  2
*D3
 10
89.45811385209799
 20
130.4421085541037
 30
0.0
 11
86.20811385209798
 21
122.1376085541037
 31
0.0
 70
    32
  1
16.6
 71
     5
 42
16.60899999999998
 73
     0
 74
     0
 75
     0
  3
Standard
100
AcDbAlignedDimension
 13
98.81596911798055
 23
113.8331085541037
 33
0.0
 14
98.81596911798055
 24
130.4421085541037
 34
0.0
 50
90.0
100
AcDbRotatedDimension
1001
ACAD
1000
DSTYLE
1002
{
1070
    41
1040
3.5
1070
    42
1040
1.0
1070
    43
1040
7.0
1070
    44
1040
1.0
1070
    73
1070
     0
1070
    74
1070
     0
1070
    77
1070
     1
1070
    78
1070
     8
1070
    79
1070
     2
1070
   140
1040
3.5
1070
   141
1040
1.5
1070
   146
1040
0.5142857142857144
1070
   147
1040
1.5
1070
   172
1070
     1
1070
   178
1070
     1
1070
   179
1070
     2
1070
   271
1070
     2
1070
   272
1070
     2
1070
   284
1070
     8
1070
   285
1070
     8
1070
   286
1070
     8
1002
}
  0
DIMENSION
  5
1E3B
330
1E
100
AcDbEntity
  8
BEM
100
AcDbDimension
280
     0
  2
*D4
 10
80.44516108716857
 20
32.13710855410377
 30
0.0
 11
77.19516108716856
 21
109.1371085541037
 31
0.0
 70
    32
 71
     5
 42
154.0
 73
     0
 74
     0
 75
     0
  3
Standard
100
AcDbAlignedDimension
 13
186.4159691179807
 23
186.1371085541037
 33
0.0
 14
179.3277122795684
 24
32.13710855410374
 34
0.0
 50
90.0
100
AcDbRotatedDimension
1001
ACAD
1000
DSTYLE
1002
{
1070
    41
1040
3.5
1070
    42
1040
1.0
1070
    43
1040
7.0
1070
    44
1040
1.0
1070
    73
1070
     0
1070
    74
1070
     0
1070
    77
1070
     1
1070
    78
1070
     8
1070
    79
1070
     2
1070
   140
1040
3.5
1070
   141
1040
1.5
1070
   146
1040
0.5142857142857144
1070
   147
1040
1.5
1070
   172
1070
     1
1070
   178
1070
     1
1070
   179
1070
     2
1070
   271
1070
     2
1070
   272
1070
     2
1070
   284
1070
     8
1070
   285
1070
     8
1070
   286
1070
     8
1002
}
  0
ARC
  5
1E5F
330
1E
100
AcDbEntity
  8
STEMPEL
100
AcDbCircle
 10
268.0309691179807
 20
237.7392453194427
 30
0.0
 40
6.0
100
AcDbArc
 50
0.0
 51
90.0
  0
ARC
  5
1E60
330
1E
100
AcDbEntity
  8
STEMPEL
100
AcDbCircle
 10
268.0309691179807
 20
219.7392453194426
 30
0.0
 40
6.0
100
AcDbArc
 50
270.0
 51
0.0
  0
ARC
  5
1E61
330
1E
100
AcDbEntity
  8
STEMPEL
100
AcDbCircle
 10
104.7999691179807
 20
237.7392453194426
 30
0.0
 40
6.0
100
AcDbArc
 50
90.0
 51
180.0
  0
ARC
  5
1E62
330
1E
100
AcDbEntity
  8
STEMPEL
100
AcDbCircle
 10
104.7999691179807
 20
219.7392453194427
 30
0.0
 40
6.0
100
AcDbArc
 50
180.0
 51
270.0
  0
DIMENSION
  5
1E63
330
1E
100
AcDbEntity
  8
BEM
100
AcDbDimension
280
     0
  2
*D5
 10
98.7999691179807
 20
255.9981651171272
 30
0.0
 11
186.4154691179807
 21
259.2481651171272
 31
0.0
 70
    32
  1
175.2
 71
     5
 42
175.231
 73
     0
 74
     0
 75
     0
  3
Standard
100
AcDbAlignedDimension
 13
274.0309691179807
 23
237.7392453194427
 33
0.0
 14
98.7999691179807
 24
237.7392453194426
 34
0.0
100
AcDbRotatedDimension
1001
ACAD
1000
DSTYLE
1002
{
1070
    41
1040
3.5
1070
    42
1040
1.0
1070
    43
1040
7.0
1070
    44
1040
1.0
1070
    73
1070
     0
1070
    74
1070
     0
1070
    77
1070
     1
1070
    78
1070
     8
1070
    79
1070
     2
1070
   140
1040
3.5
1070
   141
1040
1.5
1070
   146
1040
0.5142857142857144
1070
   147
1040
1.5
1070
   172
1070
     1
1070
   178
1070
     1
1070
   179
1070
     2
1070
   271
1070
     2
1070
   272
1070
     2
1070
   284
1070
     8
1070
   285
1070
     8
1070
   286
1070
     8
1002
}
  0
CIRCLE
  5
1E82
330
1E
100
AcDbEntity
  8
STEMPEL
100
AcDbCircle
 10
112.5509691179807
 20
228.7392453194426
 30
0.0
 40
6.5
  0
LWPOLYLINE
  5
1E83
330
1E
100
AcDbEntity
  8
STEMPEL
100
AcDbPolyline
 90
        6
 70
     1
 43
0.0
 10
108.7981923682481
 20
235.2392453194426
 10
105.0454156185155
 20
228.7392453194426
 10
108.7981923682481
 20
222.2392453194427
 10
116.3037458677132
 20
222.2392453194427
 10
120.0565226174458
 20
228.7392453194426
 10
116.3037458677132
 20
235.2392453194426
  0
LWPOLYLINE
  5
1E86
330
1E
100
AcDbEntity
  8
STEMPEL
100
AcDbPolyline
 90
        6
 70
     1
 43
0.0
 10
264.0337458677133
 20
235.2392453194429
 10
267.7865226174458
 20
228.7392453194429
 10
264.0337458677133
 20
222.2392453194429
 10
256.5281923682481
 20
222.2392453194429
 10
252.7754156185156
 20
228.7392453194428
 10
256.5281923682481
 20
235.2392453194429
  0
CIRCLE
  5
1E87
330
1E
100
AcDbEntity
  8
STEMPEL
100
AcDbCircle
 10
260.2809691179807
 20
228.7392453194429
 30
0.0
 40
6.5
  0
LINE
  5
1E88
330
1E
100
AcDbEntity
  8
MITTEL
100
AcDbLine
 10
260.2809691179806
 20
240.2392453194428
 30
0.0
 11
260.2809691179807
 21
217.2392453194428
 31
0.0
  0
ARC
  5
1E8C
330
1E
100
AcDbEntity
  8
STEMPEL
100
AcDbCircle
 10
127.3239825538626
 20
236.25550684084
 30
0.0
 40
2.076137958896524
100
AcDbArc
 50
143.532869314443
 51
256.2061077073225
  0
ARC
  5
1E8E
330
1E
100
AcDbEntity
  8
STEMPEL
100
AcDbCircle
 10
127.3239825538626
 20
221.2229837980453
 30
0.0
 40
2.076137958896524
100
AcDbArc
 50
103.7938922926775
 51
216.467130685557
  0
ARC
  5
1E8F
330
1E
100
AcDbEntity
  8
STEMPEL
100
AcDbCircle
 10
245.5079556820988
 20
221.2229837980455
 30
0.0
 40
2.076137958896524
100
AcDbArc
 50
323.5328693144432
 51
76.20610770732267
  0
ARC
  5
1E90
330
1E
100
AcDbEntity
  8
STEMPEL
100
AcDbCircle
 10
245.5079556820987
 20
236.2555068408402
 30
0.0
 40
2.076137958896524
100
AcDbArc
 50
283.7938922926777
 51
36.46713068555716
  0
LINE
  5
1E91
330
1E
100
AcDbEntity
  8
HILF
100
AcDbLine
 10
246.3599691179807
 20
223.1352453194428
 30
0.0
 11
246.3599691179806
 21
234.3622498774441
 31
0.0
  0
TEXT
  5
1F04
330
1E
100
AcDbEntity
  8
TEXT
 62
     1
100
AcDbText
 10
196.3108674456735
 20
21.37682393236643
 30
0.0
 40
3.5
  1
M10/12
 41
0.8
  7
GREEKS
100
AcDbText
  0
LINE
  5
1F05
330
1E
100
AcDbEntity
  8
TEXT
 62
     2
100
AcDbLine
 10
196.1781788768614
 20
19.70889979192438
 30
0.0
 11
212.3632650650187
 21
19.70889979192438
 31
0.0
  0
LINE
  5
1F06
330
1E
100
AcDbEntity
  8
TEXT
 62
     2
100
AcDbLine
 10
186.4159691179746
 20
32.13710855410373
 30
0.0
 11
196.1781788768614
 21
19.70889979192438
 31
0.0
  0
ENDSEC
  0
SECTION
  2
OBJECTS
  0
DICTIONARY
  5
C
330
0
100
AcDbDictionary
281
     1
  3
ACAD_CIP_PREVIOUS_PRODUCT_INFO
350
1EEF
  3
ACAD_COLOR
350
11A
  3
ACAD_DETAILVIEWSTYLE
350
1EEB
  3
ACAD_FIELDLIST
350
1F37
  3
ACAD_GROUP
350
D
  3
ACAD_LAYOUT
350
19
  3
ACAD_MATERIAL
350
119
  3
ACAD_MLEADERSTYLE
350
1EE7
  3
ACAD_MLINESTYLE
350
16
  3
ACAD_PLOTSETTINGS
350
18
  3
ACAD_PLOTSTYLENAME
350
E
  3
ACAD_RENDER_ACTIVE_RAPIDRT_SETTINGS
350
1EF7
  3
ACAD_RENDER_RAPIDRT_SETTINGS
350
1EF0
  3
ACAD_SCALELIST
350
1ED5
  3
ACAD_SECTIONVIEWSTYLE
350
1EE9
  3
ACAD_TABLESTYLE
350
1ED3
  3
ACAD_VISUALSTYLE
350
1EBA
  3
ACDB_RECOMPOSE_DATA
350
1F49
  3
AcDbVariableDictionary
350
125
  0
DICTIONARY
  5
1EFA
330
2
100
AcDbDictionary
280
     1
281
     1
  3
ACAD_LAYERSTATES
360
1EFB
  0
DICTIONARY
  5
1F07
330
10
100
AcDbDictionary
280
     1
281
     1
  3
ADSK_XREC_LAYER_RECONCILED
360
1F08
  0
DICTIONARY
  5
1F09
330
2B
100
AcDbDictionary
280
     1
281
     1
  3
ADSK_XREC_LAYER_RECONCILED
360
1F0A
  0
DICTIONARY
  5
1F0B
330
2C
100
AcDbDictionary
280
     1
281
     1
  3
ADSK_XREC_LAYER_RECONCILED
360
1F0C
  0
DICTIONARY
  5
1F0D
330
2D
100
AcDbDictionary
280
     1
281
     1
  3
ADSK_XREC_LAYER_RECONCILED
360
1F0E
  0
DICTIONARY
  5
1F0F
330
2F
100
AcDbDictionary
280
     1
281
     1
  3
ADSK_XREC_LAYER_RECONCILED
360
1F10
  0
DICTIONARY
  5
1F11
330
30
100
AcDbDictionary
280
     1
281
     1
  3
ADSK_XREC_LAYER_RECONCILED
360
1F12
  0
DICTIONARY
  5
1F13
330
33
100
AcDbDictionary
280
     1
281
     1
  3
ADSK_XREC_LAYER_RECONCILED
360
1F14
  0
DICTIONARY
  5
1F15
330
1809
100
AcDbDictionary
280
     1
281
     1
  3
ADSK_XREC_LAYER_RECONCILED
360
1F16
  0
DICTIONARY
  5
1F17
330
19E4
100
AcDbDictionary
280
     1
281
     1
  3
ADSK_XREC_LAYER_RECONCILED
360
1F18
  0
DICTIONARY
  5
DB
330
1E
100
AcDbDictionary
280
     1
281
     1
  3
ACAD_LAYOUTSELFREF
360
10F
  0
DICTIONARY
  5
DD
330
1A
100
AcDbDictionary
280
     1
281
     1
  3
ACAD_LAYOUTSELFREF
360
10E
  0
DICTIONARY
  5
1F33
330
1322
100
AcDbDictionary
280
     1
281
     1
  3
ACAD_FIELD
360
1F34
  0
XRECORD
  5
1EEF
102
{ACAD_REACTORS
330
C
102
}
330
C
100
AcDbXrecord
280
     1
300
ACD
300
2017
300
ACD_F_S
  0
DICTIONARY
  5
11A
102
{ACAD_REACTORS
330
C
102
}
330
C
100
AcDbDictionary
281
     1
  0
DICTIONARY
  5
1EEB
102
{ACAD_REACTORS
330
C
102
}
330
C
100
AcDbDictionary
281
     1
  3
Imperial24
350
1EEC
  0
FIELDLIST
  5
1F37
102
{ACAD_REACTORS
330
C
102
}
330
C
100
AcDbIdSet
 90
        2
330
1F35
330
1F36
100
AcDbFieldList
  0
DICTIONARY
  5
D
102
{ACAD_REACTORS
330
C
102
}
330
C
100
AcDbDictionary
281
     1
  0
DICTIONARY
  5
19
102
{ACAD_REACTORS
330
C
102
}
330
C
100
AcDbDictionary
281
     1
  3
Layout1
350
1D
  3
Model
350
21
  0
DICTIONARY
  5
119
102
{ACAD_REACTORS
330
C
102
}
330
C
100
AcDbDictionary
281
     1
  3
ByBlock
350
1EAA
  3
ByLayer
350
1EA2
  3
Global
350
1EB2
  0
DICTIONARY
  5
1EE7
102
{ACAD_REACTORS
330
C
102
}
330
C
100
AcDbDictionary
281
     1
  3
Standard
350
1EE8
  0
DICTIONARY
  5
16
102
{ACAD_REACTORS
330
C
102
}
330
C
100
AcDbDictionary
281
     1
  3
Standard
350
17
  0
DICTIONARY
  5
18
102
{ACAD_REACTORS
330
C
102
}
330
C
100
AcDbDictionary
281
     1
  0
ACDBDICTIONARYWDFLT
  5
E
102
{ACAD_REACTORS
330
C
102
}
330
C
100
AcDbDictionary
281
     1
  3
Normal
350
F
100
AcDbDictionaryWithDefault
340
F
  0
RAPIDRTRENDERSETTINGS
  5
1EF7
102
{ACAD_REACTORS
330
C
102
}
330
C
100
AcDbRenderSettings
 90
        2
  1
Mittel
290
     1
290
     0
290
     1
290
     1
  1

  1
Wendet 5 Render-Ebenen an
 90
        0
100
AcDbRapidRTRenderSettings
 90
        3
 70
     0
 90
        5
 90
        1
 70
     1
 70
     2
 40
3.0
 40
3.0
290
     1
  0
DICTIONARY
  5
1EF0
102
{ACAD_REACTORS
330
C
102
}
330
C
100
AcDbDictionary
281
     1
  3
Hoch
350
1EF3
  3
Mittagsqualität
350
1EF5
  3
Mittel
350
1EF2
  3
Morgenqualität
350
1EF4
  3
Nachtqualität
350
1EF6
  3
Niedrig
350
1EF1
  0
DICTIONARY
  5
1ED5
102
{ACAD_REACTORS
330
C
102
}
330
C
100
AcDbDictionary
281
     1
  3
A0
350
1ED6
  3
A1
350
1ED7
  3
A2
350
1ED8
  3
A3
350
1ED9
  3
A4
350
1EDA
  3
A5
350
1EDB
  3
A6
350
1EDC
  3
A7
350
1EDD
  3
A8
350
1EDE
  3
A9
350
1EDF
  3
B0
350
1EE0
  3
B1
350
1EE1
  3
B2
350
1EE2
  3
B3
350
1EE3
  3
B4
350
1EE4
  3
B5
350
1EE5
  3
B6
350
1EE6
  0
DICTIONARY
  5
1EE9
102
{ACAD_REACTORS
330
C
102
}
330
C
100
AcDbDictionary
281
     1
  3
Imperial24
350
1EEA
  0
DICTIONARY
  5
1ED3
102
{ACAD_REACTORS
330
C
102
}
330
C
100
AcDbDictionary
281
     1
  3
Standard
350
1ED4
  0
DICTIONARY
  5
1EBA
102
{ACAD_REACTORS
330
C
102
}
330
C
100
AcDbDictionary
281
     1
  3
2dWireframe
350
1EC0
  3
Basic
350
1EBF
  3
Brighten
350
1EC6
  3
ColorChange
350
1ECA
  3
Conceptual
350
1EC3
  3
Dim
350
1EC5
  3
EdgeColorOff
350
1ED2
  3
Facepattern
350
1EC9
  3
Flat
350
1EBB
  3
FlatWithEdges
350
1EBC
  3
Gouraud
350
1EBD
  3
GouraudWithEdges
350
1EBE
  3
Hidden
350
1EC2
  3
JitterOff
350
1ED0
  3
Linepattern
350
1EC8
  3
OverhangOff
350
1ED1
  3
Realistic
350
1EC4
  3
Shaded
350
1ECF
  3
Shaded with edges
350
1ECE
  3
Shades of Gray
350
1ECB
  3
Sketchy
350
1ECC
  3
Thicken
350
1EC7
  3
Wireframe
350
1EC1
  3
X-Ray
350
1ECD
  0
XRECORD
  5
1F49
102
{ACAD_REACTORS
330
C
102
}
330
C
100
AcDbXrecord
280
     1
 90
        1
330
1ED4
330
1EEA
330
1EEC
  0
DICTIONARY
  5
125
102
{ACAD_REACTORS
330
C
102
}
330
C
100
AcDbDictionary
281
     1
  3
CANNOSCALE
350
1F2A
  3
CMLEADERSTYLE
350
1F26
  3
CTABLESTYLE
350
1F25
  3
CVIEWDETAILSTYLE
350
1F27
  3
CVIEWSECTIONSTYLE
350
1F28
  3
DIMASSOC
350
126
  3
LAYEREVAL
350
1F2C
  3
LAYERNOTIFY
350
1F2D
  3
LIGHTINGUNITS
350
1F2B
  3
MSLTSCALE
350
1F29
  3
PROJECTNAME
350
127
  0
DICTIONARY
  5
1EFB
102
{ACAD_REACTORS
330
1EFA
102
}
330
1EFA
100
AcDbDictionary
281
     1
  0
XRECORD
  5
1F08
102
{ACAD_REACTORS
330
1F07
102
}
330
1F07
100
AcDbXrecord
280
     1
290
     1
  0
XRECORD
  5
1F0A
102
{ACAD_REACTORS
330
1F09
102
}
330
1F09
100
AcDbXrecord
280
     1
290
     1
  0
XRECORD
  5
1F0C
102
{ACAD_REACTORS
330
1F0B
102
}
330
1F0B
100
AcDbXrecord
280
     1
290
     1
  0
XRECORD
  5
1F0E
102
{ACAD_REACTORS
330
1F0D
102
}
330
1F0D
100
AcDbXrecord
280
     1
290
     1
  0
XRECORD
  5
1F10
102
{ACAD_REACTORS
330
1F0F
102
}
330
1F0F
100
AcDbXrecord
280
     1
290
     1
  0
XRECORD
  5
1F12
102
{ACAD_REACTORS
330
1F11
102
}
330
1F11
100
AcDbXrecord
280
     1
290
     1
  0
XRECORD
  5
1F14
102
{ACAD_REACTORS
330
1F13
102
}
330
1F13
100
AcDbXrecord
280
     1
290
     1
  0
XRECORD
  5
1F16
102
{ACAD_REACTORS
330
1F15
102
}
330
1F15
100
AcDbXrecord
280
     1
290
     1
  0
XRECORD
  5
1F18
102
{ACAD_REACTORS
330
1F17
102
}
330
1F17
100
AcDbXrecord
280
     1
290
     1
  0
XRECORD
  5
10F
102
{ACAD_REACTORS
330
DB
102
}
330
DB
100
AcDbXrecord
280
     1
340
1E
  0
XRECORD
  5
10E
102
{ACAD_REACTORS
330
DD
102
}
330
DD
100
AcDbXrecord
280
     1
340
1A
  0
DICTIONARY
  5
1F34
102
{ACAD_REACTORS
330
1F33
102
}
330
1F33
100
AcDbDictionary
280
     1
281
     1
  3
TEXT
360
1F35
  0
ACDBDETAILVIEWSTYLE
  5
1EEC
102
{ACAD_XDICTIONARY
360
1F22
102
}
102
{ACAD_REACTORS
330
1EEB
102
}
330
1EEB
100
AcDbModelDocViewStyle
 70
     0
  3
Imperial24
290
     0
100
AcDbDetailViewStyle
 70
     0
 71
     0
 90
        3
 71
     1
340
11
 62
   256
 40
0.24
340
0
 62
   256
 40
0.24
300

 40
0.36
280
     3
 71
     2
340
15
 90
       25
 62
   256
 71
     3
340
11
 62
   256
 40
0.24
 90
        1
 40
0.75
 90
        1
300
%<\AcVar ViewType \f "%tc1">% %<\AcVar ViewDetailId>%\PVARIA %<\AcVar ViewScale \f "%sn">%
 71
     4
340
15
 90
       25
 62
   256
340
15
 90
       25
 62
   256
280
     0
  0
LAYOUT
  5
1D
102
{ACAD_REACTORS
330
19
102
}
330
19
100
AcDbPlotSettings
  1

  2
\\NT_WORK01\HP LaserJet 5000 PCL 6
  4

  6

 40
0.0
 41
0.0
 42
0.0
 43
0.0
 44
0.0
 45
0.0
 46
0.0
 47
0.0
 48
0.0
 49
0.0
140
0.0
141
0.0
142
1.0
143
1.0
 70
   688
 72
     0
 73
     0
 74
     5
  7

 75
    16
147
1.0
 76
     0
 77
     2
 78
   300
148
0.0
149
0.0
100
AcDbLayout
  1
Layout1
 70
     0
 71
     1
 10
0.0
 20
0.0
 11
12.0
 21
9.0
 12
0.0
 22
0.0
 32
0.0
 14
1.000000000000000E+20
 24
1.000000000000000E+20
 34
1.000000000000000E+20
 15
-1.000000000000000E+20
 25
-1.000000000000000E+20
 35
-1.000000000000000E+20
146
0.0
 13
0.0
 23
0.0
 33
0.0
 16
1.0
 26
0.0
 36
0.0
 17
0.0
 27
1.0
 37
0.0
 76
     0
330
1A
  0
LAYOUT
  5
21
102
{ACAD_REACTORS
330
19
102
}
330
19
100
AcDbPlotSettings
  1

  2
\\NT_WORK01\HP LaserJet 5000 PCL 6
  4

  6

 40
0.0
 41
0.0
 42
0.0
 43
0.0
 44
0.0
 45
0.0
 46
0.0
 47
0.0
 48
0.0
 49
0.0
140
0.0
141
0.0
142
1.0
143
1.0
 70
  1712
 72
     0
 73
     0
 74
     0
  7

 75
     0
147
1.0
 76
     0
 77
     2
 78
   300
148
0.0
149
0.0
100
AcDbLayout
  1
Model
 70
     1
 71
     0
 10
0.0
 20
0.0
 11
12.0
 21
9.0
 12
0.0
 22
0.0
 32
0.0
 14
0.0
 24
0.0
 34
0.0
 15
0.0
 25
0.0
 35
0.0
146
0.0
 13
0.0
 23
0.0
 33
0.0
 16
1.0
 26
0.0
 36
0.0
 17
0.0
 27
1.0
 37
0.0
 76
     0
330
1E
331
1EA0
  0
MATERIAL
  5
1EAA
102
{ACAD_XDICTIONARY
360
1EAB
102
}
102
{ACAD_REACTORS
330
119
102
}
330
119
100
AcDbMaterial
  1
ByBlock
 72
     0
 43
0.0208333333333333
 43
0.0
 43
0.0
 43
0.0
 43
0.0
 43
0.0208333333333333
 43
0.0
 43
0.0
 43
0.0
 43
0.0
 43
1.0
 43
0.0
 43
0.0
 43
0.0
 43
0.0
 43
1.0
 77
     0
 47
0.0208333333333333
 47
0.0
 47
0.0
 47
0.0
 47
0.0
 47
0.0208333333333333
 47
0.0
 47
0.0
 47
0.0
 47
0.0
 47
1.0
 47
0.0
 47
0.0
 47
0.0
 47
0.0
 47
1.0
171
     0
 49
0.0208333333333333
 49
0.0
 49
0.0
 49
0.0
 49
0.0
 49
0.0208333333333333
 49
0.0
 49
0.0
 49
0.0
 49
0.0
 49
1.0
 49
0.0
 49
0.0
 49
0.0
 49
0.0
 49
1.0
175
     0
142
0.0208333333333333
142
0.0
142
0.0
142
0.0
142
0.0
142
0.0208333333333333
142
0.0
142
0.0
142
0.0
142
0.0
142
1.0
142
0.0
142
0.0
142
0.0
142
0.0
142
1.0
179
     0
144
0.0208333333333333
144
0.0
144
0.0
144
0.0
144
0.0
144
0.0208333333333333
144
0.0
144
0.0
144
0.0
144
0.0
144
1.0
144
0.0
144
0.0
144
0.0
144
0.0
144
1.0
147
0.0208333333333333
147
0.0
147
0.0
147
0.0
147
0.0
147
0.0208333333333333
147
0.0
147
0.0
147
0.0
147
0.0
147
1.0
147
0.0
147
0.0
147
0.0
147
0.0
147
1.0
  0
MATERIAL
  5
1EA2
102
{ACAD_XDICTIONARY
360
1EA3
102
}
102
{ACAD_REACTORS
330
119
102
}
330
119
100
AcDbMaterial
  1
ByLayer
 72
     0
 43
0.0208333333333333
 43
0.0
 43
0.0
 43
0.0
 43
0.0
 43
0.0208333333333333
 43
0.0
 43
0.0
 43
0.0
 43
0.0
 43
1.0
 43
0.0
 43
0.0
 43
0.0
 43
0.0
 43
1.0
 77
     0
 47
0.0208333333333333
 47
0.0
 47
0.0
 47
0.0
 47
0.0
 47
0.0208333333333333
 47
0.0
 47
0.0
 47
0.0
 47
0.0
 47
1.0
 47
0.0
 47
0.0
 47
0.0
 47
0.0
 47
1.0
171
     0
 49
0.0208333333333333
 49
0.0
 49
0.0
 49
0.0
 49
0.0
 49
0.0208333333333333
 49
0.0
 49
0.0
 49
0.0
 49
0.0
 49
1.0
 49
0.0
 49
0.0
 49
0.0
 49
0.0
 49
1.0
175
     0
142
0.0208333333333333
142
0.0
142
0.0
142
0.0
142
0.0
142
0.0208333333333333
142
0.0
142
0.0
142
0.0
142
0.0
142
1.0
142
0.0
142
0.0
142
0.0
142
0.0
142
1.0
179
     0
144
0.0208333333333333
144
0.0
144
0.0
144
0.0
144
0.0
144
0.0208333333333333
144
0.0
144
0.0
144
0.0
144
0.0
144
1.0
144
0.0
144
0.0
144
0.0
144
0.0
144
1.0
147
0.0208333333333333
147
0.0
147
0.0
147
0.0
147
0.0
147
0.0208333333333333
147
0.0
147
0.0
147
0.0
147
0.0
147
1.0
147
0.0
147
0.0
147
0.0
147
0.0
147
1.0
  0
MATERIAL
  5
1EB2
102
{ACAD_XDICTIONARY
360
1EB3
102
}
102
{ACAD_REACTORS
330
119
102
}
330
119
100
AcDbMaterial
  1
Global
 72
     0
 43
0.0208333333333333
 43
0.0
 43
0.0
 43
0.0
 43
0.0
 43
0.0208333333333333
 43
0.0
 43
0.0
 43
0.0
 43
0.0
 43
1.0
 43
0.0
 43
0.0
 43
0.0
 43
0.0
 43
1.0
 77
     0
 47
0.0208333333333333
 47
0.0
 47
0.0
 47
0.0
 47
0.0
 47
0.0208333333333333
 47
0.0
 47
0.0
 47
0.0
 47
0.0
 47
1.0
 47
0.0
 47
0.0
 47
0.0
 47
0.0
 47
1.0
171
     0
 49
0.0208333333333333
 49
0.0
 49
0.0
 49
0.0
 49
0.0
 49
0.0208333333333333
 49
0.0
 49
0.0
 49
0.0
 49
0.0
 49
1.0
 49
0.0
 49
0.0
 49
0.0
 49
0.0
 49
1.0
175
     0
142
0.0208333333333333
142
0.0
142
0.0
142
0.0
142
0.0
142
0.0208333333333333
142
0.0
142
0.0
142
0.0
142
0.0
142
1.0
142
0.0
142
0.0
142
0.0
142
0.0
142
1.0
179
     0
144
0.0208333333333333
144
0.0
144
0.0
144
0.0
144
0.0
144
0.0208333333333333
144
0.0
144
0.0
144
0.0
144
0.0
144
1.0
144
0.0
144
0.0
144
0.0
144
0.0
144
1.0
147
0.0208333333333333
147
0.0
147
0.0
147
0.0
147
0.0
147
0.0208333333333333
147
0.0
147
0.0
147
0.0
147
0.0
147
1.0
147
0.0
147
0.0
147
0.0
147
0.0
147
1.0
  0
MLEADERSTYLE
  5
1EE8
102
{ACAD_REACTORS
330
1EE7
102
}
330
1EE7
100
AcDbMLeaderStyle
179
     2
170
     2
171
     1
172
     0
 90
        2
 40
0.0
 41
0.0
173
     1
 91
-1056964608
340
13
 92
       -2
290
     1
 42
0.09
291
     1
 43
0.36
  3
Standard
 44
0.18
300

342
11
174
     1
178
     6
175
     1
176
     0
 93
-1056964608
 45
0.18
292
     0
297
     0
 46
0.18
 94
-1056964608
 47
1.0
 49
1.0
140
1.0
293
     1
141
0.0
294
     1
177
     0
142
1.0
295
     1
296
     0
143
0.125
271
     0
272
     9
273
     9
298
     1
  0
MLINESTYLE
  5
17
102
{ACAD_REACTORS
330
16
102
}
330
16
100
AcDbMlineStyle
  2
STANDARD
 70
     0
  3

 62
   256
 51
90.0
 52
90.0
 71
     2
 49
0.5
 62
   256
  6
BYLAYER
 49
-0.5
 62
   256
  6
BYLAYER
  0
ACDBPLACEHOLDER
  5
F
102
{ACAD_REACTORS
330
E
102
}
330
E
  0
RAPIDRTRENDERSETTINGS
  5
1EF3
102
{ACAD_REACTORS
330
1EF0
102
}
330
1EF0
100
AcDbRenderSettings
 90
        2
  1
Hoch
290
     1
290
     0
290
     1
290
     1
  1

  1
Wendet 10 Render-Ebenen an
 90
        2
100
AcDbRapidRTRenderSettings
 90
        3
 70
     0
 90
       10
 90
        1
 70
     2
 70
     2
 40
3.0
 40
3.0
290
     1
  0
RAPIDRTRENDERSETTINGS
  5
1EF5
102
{ACAD_REACTORS
330
1EF0
102
}
330
1EF0
100
AcDbRenderSettings
 90
        2
  1
Mittagsqualität
290
     1
290
     0
290
     1
290
     1
  1

  1
Rendert für 60 Minuten
 90
        4
100
AcDbRapidRTRenderSettings
 90
        3
 70
     1
 90
        1
 90
       60
 70
     2
 70
     2
 40
3.0
 40
3.0
290
     1
  0
RAPIDRTRENDERSETTINGS
  5
1EF2
102
{ACAD_REACTORS
330
1EF0
102
}
330
1EF0
100
AcDbRenderSettings
 90
        2
  1
Mittel
290
     1
290
     0
290
     1
290
     1
  1

  1
Wendet 5 Render-Ebenen an
 90
        1
100
AcDbRapidRTRenderSettings
 90
        3
 70
     0
 90
        5
 90
        1
 70
     1
 70
     2
 40
3.0
 40
3.0
290
     1
  0
RAPIDRTRENDERSETTINGS
  5
1EF4
102
{ACAD_REACTORS
330
1EF0
102
}
330
1EF0
100
AcDbRenderSettings
 90
        2
  1
Morgenqualität
290
     1
290
     0
290
     1
290
     1
  1

  1
Rendert für 10 Minuten
 90
        3
100
AcDbRapidRTRenderSettings
 90
        3
 70
     1
 90
        1
 90
       10
 70
     1
 70
     2
 40
3.0
 40
3.0
290
     1
  0
RAPIDRTRENDERSETTINGS
  5
1EF6
102
{ACAD_REACTORS
330
1EF0
102
}
330
1EF0
100
AcDbRenderSettings
 90
        2
  1
Nachtqualität
290
     1
290
     0
290
     1
290
     1
  1

  1
Rendert für 12 Stunden
 90
        5
100
AcDbRapidRTRenderSettings
 90
        3
 70
     1
 90
        1
 90
      720
 70
     2
 70
     2
 40
3.0
 40
3.0
290
     1
  0
RAPIDRTRENDERSETTINGS
  5
1EF1
102
{ACAD_REACTORS
330
1EF0
102
}
330
1EF0
100
AcDbRenderSettings
 90
        2
  1
Niedrig
290
     1
290
     0
290
     1
290
     1
  1

  1
Wendet 1 Render-Ebene an
 90
        0
100
AcDbRapidRTRenderSettings
 90
        3
 70
     0
 90
        1
 90
        1
 70
     0
 70
     2
 40
3.0
 40
3.0
290
     1
  0
SCALE
  5
1ED6
102
{ACAD_REACTORS
330
1ED5
102
}
330
1ED5
100
AcDbScale
 70
     0
300
1:1
140
1.0
141
1.0
290
     1
  0
SCALE
  5
1ED7
102
{ACAD_REACTORS
330
1ED5
102
}
330
1ED5
100
AcDbScale
 70
     0
300
1/128" = 1'-0"
140
0.0078125
141
12.0
290
     0
  0
SCALE
  5
1ED8
102
{ACAD_REACTORS
330
1ED5
102
}
330
1ED5
100
AcDbScale
 70
     0
300
1/64" = 1'-0"
140
0.015625
141
12.0
290
     0
  0
SCALE
  5
1ED9
102
{ACAD_REACTORS
330
1ED5
102
}
330
1ED5
100
AcDbScale
 70
     0
300
1/32" = 1'-0"
140
0.03125
141
12.0
290
     0
  0
SCALE
  5
1EDA
102
{ACAD_REACTORS
330
1ED5
102
}
330
1ED5
100
AcDbScale
 70
     0
300
1/16" = 1'-0"
140
0.0625
141
12.0
290
     0
  0
SCALE
  5
1EDB
102
{ACAD_REACTORS
330
1ED5
102
}
330
1ED5
100
AcDbScale
 70
     0
300
3/32" = 1'-0"
140
0.09375
141
12.0
290
     0
  0
SCALE
  5
1EDC
102
{ACAD_REACTORS
330
1ED5
102
}
330
1ED5
100
AcDbScale
 70
     0
300
1/8" = 1'-0"
140
0.125
141
12.0
290
     0
  0
SCALE
  5
1EDD
102
{ACAD_REACTORS
330
1ED5
102
}
330
1ED5
100
AcDbScale
 70
     0
300
3/16" = 1'-0"
140
0.1875
141
12.0
290
     0
  0
SCALE
  5
1EDE
102
{ACAD_REACTORS
330
1ED5
102
}
330
1ED5
100
AcDbScale
 70
     0
300
1/4" = 1'-0"
140
0.25
141
12.0
290
     0
  0
SCALE
  5
1EDF
102
{ACAD_REACTORS
330
1ED5
102
}
330
1ED5
100
AcDbScale
 70
     0
300
3/8" = 1'-0"
140
0.375
141
12.0
290
     0
  0
SCALE
  5
1EE0
102
{ACAD_REACTORS
330
1ED5
102
}
330
1ED5
100
AcDbScale
 70
     0
300
1/2" = 1'-0"
140
0.5
141
12.0
290
     0
  0
SCALE
  5
1EE1
102
{ACAD_REACTORS
330
1ED5
102
}
330
1ED5
100
AcDbScale
 70
     0
300
3/4" = 1'-0"
140
0.75
141
12.0
290
     0
  0
SCALE
  5
1EE2
102
{ACAD_REACTORS
330
1ED5
102
}
330
1ED5
100
AcDbScale
 70
     0
300
1" = 1'-0"
140
1.0
141
12.0
290
     0
  0
SCALE
  5
1EE3
102
{ACAD_REACTORS
330
1ED5
102
}
330
1ED5
100
AcDbScale
 70
     0
300
1-1/2" = 1'-0"
140
1.5
141
12.0
290
     0
  0
SCALE
  5
1EE4
102
{ACAD_REACTORS
330
1ED5
102
}
330
1ED5
100
AcDbScale
 70
     0
300
3" = 1'-0"
140
3.0
141
12.0
290
     0
  0
SCALE
  5
1EE5
102
{ACAD_REACTORS
330
1ED5
102
}
330
1ED5
100
AcDbScale
 70
     0
300
6" = 1'-0"
140
6.0
141
12.0
290
     0
  0
SCALE
  5
1EE6
102
{ACAD_REACTORS
330
1ED5
102
}
330
1ED5
100
AcDbScale
 70
     0
300
1'-0" = 1'-0"
140
12.0
141
12.0
290
     0
  0
ACDBSECTIONVIEWSTYLE
  5
1EEA
102
{ACAD_XDICTIONARY
360
1F20
102
}
102
{ACAD_REACTORS
330
1EE9
102
}
330
1EE9
100
AcDbModelDocViewStyle
 70
     0
  3
Imperial24
290
     0
100
AcDbSectionViewStyle
 70
     0
 71
     0
 90
       78
 71
     1
340
11
 62
   256
 40
0.24
340
0
340
0
 62
   256
 40
0.24
300
I, O, Q, S, X, Z
 40
0.48
 90
        3
 40
0.18
 90
        1
 71
     2
340
15
 90
       25
 62
   256
340
15
 90
       50
 62
   256
 40
0.24
 40
0.0
 40
0.24
 71
     3
340
11
 62
   256
 40
0.24
 90
        1
 40
0.75
 90
        1
300
%<\AcVar ViewType \f "%tc1">% %<\AcVar ViewSectionStartId>%-%<\AcVar ViewSectionEndId>%\PVARIA %<\AcVar ViewScale \f "%sn">%
 71
     4
 62
   256
 62
   257
300
ANSI31
 40
1.0
 90
        0
290
     0
290
     0
 90
        6
 40
0.0
 40
1.570796326794896
 40
0.2617993877991494
 40
1.308996938995747
 40
-0.2617993877991494
 40
1.832595714594046
  0
TABLESTYLE
  5
1ED4
102
{ACAD_XDICTIONARY
360
1F45
102
}
102
{ACAD_REACTORS
330
1ED3
102
}
330
1ED3
100
AcDbTableStyle
280
     0
  3
Standard
 70
     0
 71
     0
 40
0.06
 41
0.06
280
     0
281
     0
  7
STANDARD
140
0.18
170
     2
 62
     0
 63
     7
283
     0
 90
      512
 91
        0
  1

274
    -2
284
     1
 64
     0
275
    -2
285
     1
 65
     0
276
    -2
286
     1
 66
     0
277
    -2
287
     1
 67
     0
278
    -2
288
     1
 68
     0
279
    -2
289
     1
 69
     0
  7
STANDARD
140
0.25
170
     5
 62
     0
 63
     7
283
     0
 90
      512
 91
        0
  1

274
    -2
284
     1
 64
     0
275
    -2
285
     1
 65
     0
276
    -2
286
     1
 66
     0
277
    -2
287
     1
 67
     0
278
    -2
288
     1
 68
     0
279
    -2
289
     1
 69
     0
  7
STANDARD
140
0.18
170
     5
 62
     0
 63
     7
283
     0
 90
      512
 91
        0
  1

274
    -2
284
     1
 64
     0
275
    -2
285
     1
 65
     0
276
    -2
286
     1
 66
     0
277
    -2
287
     1
 67
     0
278
    -2
288
     1
 68
     0
279
    -2
289
     1
 69
     0
  0
VISUALSTYLE
  5
1EC0
102
{ACAD_REACTORS
330
1EBA
102
}
330
1EBA
100
AcDbVisualStyle
  2
2dWireframe
 70
     4
177
     3
291
     0
 70
    58
 90
        0
176
     1
 90
        2
176
     1
 90
        0
176
     1
 90
        0
176
     1
 40
0.6
176
     1
 40
30.0
176
     1
 62
     7
420
 16777215
176
     1
 90
        1
176
     1
 90
        4
176
     1
 62
     7
176
     1
 62
   257
176
     1
 90
        1
176
     1
 90
        1
176
     1
 40
1.0
176
     1
 90
        0
176
     1
 62
   257
176
     1
 40
1.0
176
     1
 90
        1
176
     1
 90
        6
176
     1
 90
        2
176
     1
 62
     7
176
     1
 90
        5
176
     1
 90
        0
176
     1
 90
        0
176
     1
290
     0
176
     1
 90
        1
176
     1
 40
0.0
176
     1
 90
        0
176
     1
290
     1
176
     1
290
     1
176
     1
290
     0
176
     1
290
     0
176
     1
290
     0
176
     1
290
     0
176
     1
290
     0
176
     1
290
     0
176
     1
290
     0
176
     1
 90
       50
176
     1
 40
0.0
176
     1
 40
1.0
176
     1
 90
        0
176
     1
 62
    18
420
        0
176
     1
 90
       50
176
     1
 90
        3
176
     1
 62
     5
420
      255
176
     1
290
     0
176
     1
 90
       50
176
     1
 90
       50
176
     1
 90
       50
176
     1
290
     0
176
     1
 90
       50
176
     1
 62
   256
176
     0
 40
1.0
176
     0
 90
        2
176
     1
  1
strokes_ogs.tif
176
     1
290
     0
176
     1
 40
1.0
176
     1
 40
1.0
176
     1
  0
VISUALSTYLE
  5
1EBF
102
{ACAD_REACTORS
330
1EBA
102
}
330
1EBA
100
AcDbVisualStyle
  2
Basic
 70
     7
177
     3
291
     1
 70
    58
 90
        1
176
     1
 90
        0
176
     1
 90
        1
176
     1
 90
        0
176
     1
 40
0.6
176
     1
 40
30.0
176
     1
 62
     7
420
 16777215
176
     1
 90
        0
176
     1
 90
        4
176
     1
 62
     7
176
     1
 62
   257
176
     1
 90
        1
176
     1
 90
        1
176
     1
 40
1.0
176
     1
 90
        8
176
     1
 62
     7
176
     1
 40
1.0
176
     1
 90
        1
176
     1
 90
        6
176
     1
 90
        2
176
     1
 62
     7
176
     1
 90
        5
176
     1
 90
        0
176
     1
 90
        0
176
     1
290
     0
176
     1
 90
        1
176
     1
 40
0.0
176
     1
 90
        0
176
     1
290
     0
176
     1
290
     1
176
     1
290
     1
176
     1
290
     0
176
     1
290
     0
176
     1
290
     0
176
     1
290
     0
176
     1
290
     0
176
     1
290
     0
176
     1
 90
       50
176
     1
 40
0.0
176
     1
 40
1.0
176
     1
 90
        0
176
     1
 62
    18
420
        0
176
     1
 90
       50
176
     1
 90
        3
176
     1
 62
     5
420
      255
176
     1
290
     0
176
     1
 90
       50
176
     1
 90
       50
176
     1
 90
       50
176
     1
290
     0
176
     1
 90
       50
176
     1
 62
   256
176
     0
 40
1.0
176
     0
 90
        2
176
     1
  1
strokes_ogs.tif
176
     1
290
     0
176
     1
 40
1.0
176
     1
 40
1.0
176
     1
  0
VISUALSTYLE
  5
1EC6
102
{ACAD_REACTORS
330
1EBA
102
}
330
1EBA
100
AcDbVisualStyle
  2
Brighten
 70
    12
177
     3
291
     1
 70
    58
 90
        2
176
     1
 90
        2
176
     1
 90
        0
176
     1
 90
        0
176
     1
 40
0.6
176
     1
 40
30.0
176
     1
 62
     7
420
 16777215
176
     1
 90
        1
176
     1
 90
        4
176
     1
 62
     7
176
     1
 62
   257
176
     1
 90
        1
176
     1
 90
        1
176
     1
 40
1.0
176
     1
 90
        8
176
     1
 62
     7
176
     1
 40
1.0
176
     1
 90
        1
176
     1
 90
        6
176
     1
 90
        2
176
     1
 62
     7
176
     1
 90
        5
176
     1
 90
        0
176
     1
 90
        0
176
     1
290
     0
176
     1
 90
        1
176
     1
 40
50.0
176
     1
 90
        0
176
     1
290
     0
176
     1
290
     1
176
     1
290
     1
176
     1
290
     0
176
     1
290
     0
176
     1
290
     0
176
     1
290
     0
176
     1
290
     0
176
     1
290
     0
176
     1
 90
       50
176
     1
 40
0.0
176
     1
 40
1.0
176
     1
 90
        0
176
     1
 62
    18
420
        0
176
     1
 90
       50
176
     1
 90
        3
176
     1
 62
     5
420
      255
176
     1
290
     0
176
     1
 90
       50
176
     1
 90
       50
176
     1
 90
       50
176
     1
290
     0
176
     1
 90
       50
176
     1
 62
   256
176
     0
 40
1.0
176
     0
 90
        2
176
     1
  1
strokes_ogs.tif
176
     1
290
     0
176
     1
 40
1.0
176
     1
 40
1.0
176
     1
  0
VISUALSTYLE
  5
1ECA
102
{ACAD_REACTORS
330
1EBA
102
}
330
1EBA
100
AcDbVisualStyle
  2
ColorChange
 70
    16
177
     3
291
     1
 70
    58
 90
        2
176
     1
 90
        2
176
     1
 90
        3
176
     1
 90
        0
176
     1
 40
0.6
176
     1
 40
30.0
176
     1
 62
     8
420
  8421504
176
     1
 90
        1
176
     1
 90
        4
176
     1
 62
     7
176
     1
 62
   257
176
     1
 90
        1
176
     1
 90
        1
176
     1
 40
1.0
176
     1
 90
        8
176
     1
 62
     8
420
  8421504
176
     1
 40
1.0
176
     1
 90
        1
176
     1
 90
        6
176
     1
 90
        2
176
     1
 62
     7
176
     1
 90
        5
176
     1
 90
        0
176
     1
 90
        0
176
     1
290
     0
176
     1
 90
        1
176
     1
 40
0.0
176
     1
 90
        0
176
     1
290
     0
176
     1
290
     1
176
     1
290
     1
176
     1
290
     0
176
     1
290
     0
176
     1
290
     0
176
     1
290
     0
176
     1
290
     0
176
     1
290
     0
176
     1
 90
       50
176
     1
 40
0.0
176
     1
 40
1.0
176
     1
 90
        0
176
     1
 62
    18
420
        0
176
     1
 90
       50
176
     1
 90
        3
176
     1
 62
     5
420
      255
176
     1
290
     0
176
     1
 90
       50
176
     1
 90
       50
176
     1
 90
       50
176
     1
290
     0
176
     1
 90
       50
176
     1
 62
   256
176
     0
 40
1.0
176
     0
 90
        2
176
     1
  1
strokes_ogs.tif
176
     1
290
     0
176
     1
 40
1.0
176
     1
 40
1.0
176
     1
  0
VISUALSTYLE
  5
1EC3
102
{ACAD_REACTORS
330
1EBA
102
}
330
1EBA
100
AcDbVisualStyle
  2
Conceptual
 70
     9
177
     3
291
     0
 70
    58
 90
        3
176
     1
 90
        2
176
     1
 90
        0
176
     1
 90
        0
176
     1
 40
0.6
176
     1
 40
30.0
176
     1
 62
     7
420
 16777215
176
     1
 90
        2
176
     1
 90
        2
176
     1
 62
     7
176
     1
 62
   257
176
     1
 90
        1
176
     1
 90
        1
176
     1
 40
179.0
176
     1
 90
        8
176
     1
 62
     7
176
     1
 40
1.0
176
     1
 90
        1
176
     1
 90
        6
176
     1
 90
        2
176
     1
 62
     7
176
     1
 90
        3
176
     1
 90
        0
176
     1
 90
        0
176
     1
290
     0
176
     1
 90
        1
176
     1
 40
0.0
176
     1
 90
        0
176
     1
290
     0
176
     1
290
     1
176
     1
290
     1
176
     1
290
     0
176
     1
290
     0
176
     1
290
     0
176
     1
290
     0
176
     1
290
     0
176
     1
290
     0
176
     1
 90
       50
176
     1
 40
0.0
176
     1
 40
1.0
176
     1
 90
        0
176
     1
 62
    18
420
        0
176
     1
 90
       50
176
     1
 90
        3
176
     1
 62
     5
420
      255
176
     1
290
     0
176
     1
 90
       50
176
     1
 90
       50
176
     1
 90
       50
176
     1
290
     0
176
     1
 90
       50
176
     1
 62
   256
176
     0
 40
1.0
176
     0
 90
        2
176
     1
  1
strokes_ogs.tif
176
     1
290
     0
176
     1
 40
1.0
176
     1
 40
1.0
176
     1
  0
VISUALSTYLE
  5
1EC5
102
{ACAD_REACTORS
330
1EBA
102
}
330
1EBA
100
AcDbVisualStyle
  2
Dim
 70
    11
177
     3
291
     1
 70
    58
 90
        2
176
     1
 90
        2
176
     1
 90
        0
176
     1
 90
        0
176
     1
 40
0.6
176
     1
 40
30.0
176
     1
 62
     7
420
 16777215
176
     1
 90
        1
176
     1
 90
        4
176
     1
 62
     7
176
     1
 62
   257
176
     1
 90
        1
176
     1
 90
        1
176
     1
 40
1.0
176
     1
 90
        8
176
     1
 62
     7
176
     1
 40
1.0
176
     1
 90
        1
176
     1
 90
        6
176
     1
 90
        2
176
     1
 62
     7
176
     1
 90
        5
176
     1
 90
        0
176
     1
 90
        0
176
     1
290
     0
176
     1
 90
        1
176
     1
 40
-50.0
176
     1
 90
        0
176
     1
290
     0
176
     1
290
     1
176
     1
290
     1
176
     1
290
     0
176
     1
290
     0
176
     1
290
     0
176
     1
290
     0
176
     1
290
     0
176
     1
290
     0
176
     1
 90
       50
176
     1
 40
0.0
176
     1
 40
1.0
176
     1
 90
        0
176
     1
 62
    18
420
        0
176
     1
 90
       50
176
     1
 90
        3
176
     1
 62
     5
420
      255
176
     1
290
     0
176
     1
 90
       50
176
     1
 90
       50
176
     1
 90
       50
176
     1
290
     0
176
     1
 90
       50
176
     1
 62
   256
176
     0
 40
1.0
176
     0
 90
        2
176
     1
  1
strokes_ogs.tif
176
     1
290
     0
176
     1
 40
1.0
176
     1
 40
1.0
176
     1
  0
VISUALSTYLE
  5
1ED2
102
{ACAD_REACTORS
330
1EBA
102
}
330
1EBA
100
AcDbVisualStyle
  2
EdgeColorOff
 70
    22
177
     3
291
     1
 70
    58
 90
        2
176
     0
 90
        2
176
     0
 90
        0
176
     0
 90
        0
176
     0
 40
0.6
176
     0
 40
30.0
176
     0
 62
     7
420
 16777215
176
     0
 90
        1
176
     0
 90
        4
176
     0
 62
     7
176
     0
 62
   257
176
     0
 90
        1
176
     0
 90
        1
176
     0
 40
1.0
176
     0
 90
        8
176
     2
 62
     7
176
     0
 40
1.0
176
     0
 90
        1
176
     0
 90
        6
176
     0
 90
        2
176
     0
 62
     7
176
     0
 90
        5
176
     0
 90
        0
176
     0
 90
        0
176
     0
290
     0
176
     0
 90
        1
176
     0
 40
0.0
176
     0
 90
        0
176
     0
290
     0
176
     0
290
     1
176
     0
290
     1
176
     0
290
     0
176
     0
290
     0
176
     0
290
     0
176
     0
290
     0
176
     0
290
     0
176
     0
290
     0
176
     0
 90
       50
176
     0
 40
0.0
176
     0
 40
1.0
176
     0
 90
        0
176
     0
 62
    18
420
        0
176
     0
 90
       50
176
     0
 90
        3
176
     0
 62
     5
420
      255
176
     0
290
     0
176
     0
 90
       50
176
     0
 90
       50
176
     0
 90
       50
176
     0
290
     0
176
     0
 90
       50
176
     0
 62
   256
176
     0
 40
1.0
176
     0
 90
        2
176
     0
  1
strokes_ogs.tif
176
     0
290
     0
176
     0
 40
1.0
176
     0
 40
1.0
176
     0
  0
VISUALSTYLE
  5
1EC9
102
{ACAD_REACTORS
330
1EBA
102
}
330
1EBA
100
AcDbVisualStyle
  2
Facepattern
 70
    15
177
     3
291
     1
 70
    58
 90
        2
176
     1
 90
        2
176
     1
 90
        0
176
     1
 90
        0
176
     1
 40
0.6
176
     1
 40
30.0
176
     1
 62
     7
420
 16777215
176
     1
 90
        1
176
     1
 90
        4
176
     1
 62
     7
176
     1
 62
   257
176
     1
 90
        1
176
     1
 90
        1
176
     1
 40
1.0
176
     1
 90
        8
176
     1
 62
     7
176
     1
 40
1.0
176
     1
 90
        1
176
     1
 90
        6
176
     1
 90
        2
176
     1
 62
     7
176
     1
 90
        5
176
     1
 90
        0
176
     1
 90
        0
176
     1
290
     0
176
     1
 90
        1
176
     1
 40
0.0
176
     1
 90
        0
176
     1
290
     0
176
     1
290
     1
176
     1
290
     1
176
     1
290
     0
176
     1
290
     0
176
     1
290
     0
176
     1
290
     0
176
     1
290
     0
176
     1
290
     0
176
     1
 90
       50
176
     1
 40
0.0
176
     1
 40
1.0
176
     1
 90
        0
176
     1
 62
    18
420
        0
176
     1
 90
       50
176
     1
 90
        3
176
     1
 62
     5
420
      255
176
     1
290
     0
176
     1
 90
       50
176
     1
 90
       50
176
     1
 90
       50
176
     1
290
     0
176
     1
 90
       50
176
     1
 62
   256
176
     0
 40
1.0
176
     0
 90
        2
176
     1
  1
strokes_ogs.tif
176
     1
290
     0
176
     1
 40
1.0
176
     1
 40
1.0
176
     1
  0
VISUALSTYLE
  5
1EBB
102
{ACAD_REACTORS
330
1EBA
102
}
330
1EBA
100
AcDbVisualStyle
  2
Flat
 70
     0
177
     3
291
     1
 70
    58
 90
        2
176
     1
 90
        1
176
     1
 90
        1
176
     1
 90
        2
176
     1
 40
0.6
176
     1
 40
30.0
176
     1
 62
     7
420
 16777215
176
     1
 90
        0
176
     1
 90
        0
176
     1
 62
     7
176
     1
 62
   257
176
     1
 90
        1
176
     1
 90
        1
176
     1
 40
1.0
176
     1
 90
        8
176
     1
 62
     7
176
     1
 40
1.0
176
     1
 90
        1
176
     1
 90
        6
176
     1
 90
        2
176
     1
 62
     7
176
     1
 90
        5
176
     1
 90
        0
176
     1
 90
        0
176
     1
290
     0
176
     1
 90
       13
176
     1
 40
0.0
176
     1
 90
        0
176
     1
290
     0
176
     1
290
     1
176
     1
290
     1
176
     1
290
     0
176
     1
290
     0
176
     1
290
     0
176
     1
290
     0
176
     1
290
     0
176
     1
290
     0
176
     1
 90
       50
176
     1
 40
0.0
176
     1
 40
1.0
176
     1
 90
        0
176
     1
 62
    18
420
        0
176
     1
 90
       50
176
     1
 90
        3
176
     1
 62
     5
420
      255
176
     1
290
     0
176
     1
 90
       50
176
     1
 90
       50
176
     1
 90
       50
176
     1
290
     0
176
     1
 90
       50
176
     1
 62
   256
176
     0
 40
1.0
176
     0
 90
        2
176
     1
  1
strokes_ogs.tif
176
     1
290
     0
176
     1
 40
1.0
176
     1
 40
1.0
176
     1
  0
VISUALSTYLE
  5
1EBC
102
{ACAD_REACTORS
330
1EBA
102
}
330
1EBA
100
AcDbVisualStyle
  2
FlatWithEdges
 70
     1
177
     3
291
     1
 70
    58
 90
        2
176
     1
 90
        1
176
     1
 90
        1
176
     1
 90
        2
176
     1
 40
0.6
176
     1
 40
30.0
176
     1
 62
     7
420
 16777215
176
     1
 90
        1
176
     1
 90
        0
176
     1
 62
     7
176
     1
 62
   257
176
     1
 90
        1
176
     1
 90
        1
176
     1
 40
1.0
176
     1
 90
        0
176
     1
 62
   257
176
     1
 40
1.0
176
     1
 90
        1
176
     1
 90
        6
176
     1
 90
        2
176
     1
 62
     7
176
     1
 90
        5
176
     1
 90
        0
176
     1
 90
        0
176
     1
290
     0
176
     1
 90
       13
176
     1
 40
0.0
176
     1
 90
        0
176
     1
290
     0
176
     1
290
     1
176
     1
290
     1
176
     1
290
     0
176
     1
290
     0
176
     1
290
     0
176
     1
290
     0
176
     1
290
     0
176
     1
290
     0
176
     1
 90
       50
176
     1
 40
0.0
176
     1
 40
1.0
176
     1
 90
        0
176
     1
 62
    18
420
        0
176
     1
 90
       50
176
     1
 90
        3
176
     1
 62
     5
420
      255
176
     1
290
     0
176
     1
 90
       50
176
     1
 90
       50
176
     1
 90
       50
176
     1
290
     0
176
     1
 90
       50
176
     1
 62
   256
176
     0
 40
1.0
176
     0
 90
        2
176
     1
  1
strokes_ogs.tif
176
     1
290
     0
176
     1
 40
1.0
176
     1
 40
1.0
176
     1
  0
VISUALSTYLE
  5
1EBD
102
{ACAD_REACTORS
330
1EBA
102
}
330
1EBA
100
AcDbVisualStyle
  2
Gouraud
 70
     2
177
     3
291
     1
 70
    58
 90
        2
176
     1
 90
        2
176
     1
 90
        1
176
     1
 90
        2
176
     1
 40
0.6
176
     1
 40
30.0
176
     1
 62
     7
420
 16777215
176
     1
 90
        0
176
     1
 90
        0
176
     1
 62
     7
176
     1
 62
   257
176
     1
 90
        1
176
     1
 90
        1
176
     1
 40
1.0
176
     1
 90
        0
176
     1
 62
     7
176
     1
 40
1.0
176
     1
 90
        1
176
     1
 90
        6
176
     1
 90
        2
176
     1
 62
     7
176
     1
 90
        5
176
     1
 90
        0
176
     1
 90
        0
176
     1
290
     0
176
     1
 90
       13
176
     1
 40
0.0
176
     1
 90
        0
176
     1
290
     0
176
     1
290
     1
176
     1
290
     1
176
     1
290
     0
176
     1
290
     0
176
     1
290
     0
176
     1
290
     0
176
     1
290
     0
176
     1
290
     0
176
     1
 90
       50
176
     1
 40
0.0
176
     1
 40
1.0
176
     1
 90
        0
176
     1
 62
    18
420
        0
176
     1
 90
       50
176
     1
 90
        3
176
     1
 62
     5
420
      255
176
     1
290
     0
176
     1
 90
       50
176
     1
 90
       50
176
     1
 90
       50
176
     1
290
     0
176
     1
 90
       50
176
     1
 62
   256
176
     0
 40
1.0
176
     0
 90
        2
176
     1
  1
strokes_ogs.tif
176
     1
290
     0
176
     1
 40
1.0
176
     1
 40
1.0
176
     1
  0
VISUALSTYLE
  5
1EBE
102
{ACAD_REACTORS
330
1EBA
102
}
330
1EBA
100
AcDbVisualStyle
  2
GouraudWithEdges
 70
     3
177
     3
291
     1
 70
    58
 90
        2
176
     1
 90
        2
176
     1
 90
        1
176
     1
 90
        2
176
     1
 40
0.6
176
     1
 40
30.0
176
     1
 62
     7
420
 16777215
176
     1
 90
        1
176
     1
 90
        0
176
     1
 62
     7
176
     1
 62
   257
176
     1
 90
        1
176
     1
 90
        1
176
     1
 40
1.0
176
     1
 90
        0
176
     1
 62
   257
176
     1
 40
1.0
176
     1
 90
        1
176
     1
 90
        6
176
     1
 90
        2
176
     1
 62
     7
176
     1
 90
        5
176
     1
 90
        0
176
     1
 90
        0
176
     1
290
     0
176
     1
 90
       13
176
     1
 40
0.0
176
     1
 90
        0
176
     1
290
     0
176
     1
290
     1
176
     1
290
     1
176
     1
290
     0
176
     1
290
     0
176
     1
290
     0
176
     1
290
     0
176
     1
290
     0
176
     1
290
     0
176
     1
 90
       50
176
     1
 40
0.0
176
     1
 40
1.0
176
     1
 90
        0
176
     1
 62
    18
420
        0
176
     1
 90
       50
176
     1
 90
        3
176
     1
 62
     5
420
      255
176
     1
290
     0
176
     1
 90
       50
176
     1
 90
       50
176
     1
 90
       50
176
     1
290
     0
176
     1
 90
       50
176
     1
 62
   256
176
     0
 40
1.0
176
     0
 90
        2
176
     1
  1
strokes_ogs.tif
176
     1
290
     0
176
     1
 40
1.0
176
     1
 40
1.0
176
     1
  0
VISUALSTYLE
  5
1EC2
102
{ACAD_REACTORS
330
1EBA
102
}
330
1EBA
100
AcDbVisualStyle
  2
Hidden
 70
     6
177
     3
291
     0
 70
    58
 90
        1
176
     1
 90
        2
176
     1
 90
        2
176
     1
 90
        0
176
     1
 40
0.6
176
     1
 40
30.0
176
     1
 62
     7
420
 16777215
176
     1
 90
        2
176
     1
 90
        2
176
     1
 62
     7
176
     1
 62
   257
176
     1
 90
        2
176
     1
 90
        1
176
     1
 40
40.0
176
     1
 90
        0
176
     1
 62
   257
176
     1
 40
1.0
176
     1
 90
        1
176
     1
 90
        6
176
     1
 90
        2
176
     1
 62
     7
176
     1
 90
        3
176
     1
 90
        0
176
     1
 90
        0
176
     1
290
     0
176
     1
 90
        1
176
     1
 40
0.0
176
     1
 90
        0
176
     1
290
     0
176
     1
290
     1
176
     1
290
     1
176
     1
290
     0
176
     1
290
     0
176
     1
290
     0
176
     1
290
     0
176
     1
290
     0
176
     1
290
     0
176
     1
 90
       50
176
     1
 40
0.0
176
     1
 40
1.0
176
     1
 90
        0
176
     1
 62
    18
420
        0
176
     1
 90
       50
176
     1
 90
        3
176
     1
 62
     5
420
      255
176
     1
290
     0
176
     1
 90
       50
176
     1
 90
       50
176
     1
 90
       50
176
     1
290
     0
176
     1
 90
       50
176
     1
 62
   256
176
     0
 40
1.0
176
     0
 90
        2
176
     1
  1
strokes_ogs.tif
176
     1
290
     0
176
     1
 40
1.0
176
     1
 40
1.0
176
     1
  0
VISUALSTYLE
  5
1ED0
102
{ACAD_REACTORS
330
1EBA
102
}
330
1EBA
100
AcDbVisualStyle
  2
JitterOff
 70
    20
177
     3
291
     1
 70
    58
 90
        2
176
     0
 90
        2
176
     0
 90
        0
176
     0
 90
        0
176
     0
 40
0.6
176
     0
 40
30.0
176
     0
 62
     7
420
 16777215
176
     0
 90
        1
176
     0
 90
        4
176
     0
 62
     7
176
     0
 62
   257
176
     0
 90
        1
176
     0
 90
        1
176
     0
 40
1.0
176
     0
 90
       10
176
     2
 62
     7
176
     0
 40
1.0
176
     0
 90
        1
176
     0
 90
        6
176
     0
 90
        2
176
     0
 62
     7
176
     0
 90
        5
176
     0
 90
        0
176
     0
 90
        0
176
     0
290
     0
176
     0
 90
        1
176
     0
 40
0.0
176
     0
 90
        0
176
     0
290
     0
176
     0
290
     1
176
     0
290
     1
176
     0
290
     0
176
     0
290
     0
176
     0
290
     0
176
     0
290
     0
176
     0
290
     0
176
     0
290
     0
176
     0
 90
       50
176
     0
 40
0.0
176
     0
 40
1.0
176
     0
 90
        0
176
     0
 62
    18
420
        0
176
     0
 90
       50
176
     0
 90
        3
176
     0
 62
     5
420
      255
176
     0
290
     0
176
     0
 90
       50
176
     0
 90
       50
176
     0
 90
       50
176
     0
290
     0
176
     0
 90
       50
176
     0
 62
   256
176
     0
 40
1.0
176
     0
 90
        2
176
     0
  1
strokes_ogs.tif
176
     0
290
     0
176
     0
 40
1.0
176
     0
 40
1.0
176
     0
  0
VISUALSTYLE
  5
1EC8
102
{ACAD_REACTORS
330
1EBA
102
}
330
1EBA
100
AcDbVisualStyle
  2
Linepattern
 70
    14
177
     3
291
     1
 70
    58
 90
        2
176
     1
 90
        2
176
     1
 90
        0
176
     1
 90
        0
176
     1
 40
0.6
176
     1
 40
30.0
176
     1
 62
     7
420
 16777215
176
     1
 90
        1
176
     1
 90
        4
176
     1
 62
     7
176
     1
 62
   257
176
     1
 90
        7
176
     1
 90
        7
176
     1
 40
1.0
176
     1
 90
        8
176
     1
 62
     7
176
     1
 40
1.0
176
     1
 90
        1
176
     1
 90
        6
176
     1
 90
        2
176
     1
 62
     7
176
     1
 90
        5
176
     1
 90
        0
176
     1
 90
        0
176
     1
290
     0
176
     1
 90
        1
176
     1
 40
0.0
176
     1
 90
        0
176
     1
290
     0
176
     1
290
     1
176
     1
290
     1
176
     1
290
     0
176
     1
290
     0
176
     1
290
     0
176
     1
290
     0
176
     1
290
     0
176
     1
290
     0
176
     1
 90
       50
176
     1
 40
0.0
176
     1
 40
1.0
176
     1
 90
        0
176
     1
 62
    18
420
        0
176
     1
 90
       50
176
     1
 90
        3
176
     1
 62
     5
420
      255
176
     1
290
     0
176
     1
 90
       50
176
     1
 90
       50
176
     1
 90
       50
176
     1
290
     0
176
     1
 90
       50
176
     1
 62
   256
176
     0
 40
1.0
176
     0
 90
        2
176
     1
  1
strokes_ogs.tif
176
     1
290
     0
176
     1
 40
1.0
176
     1
 40
1.0
176
     1
  0
VISUALSTYLE
  5
1ED1
102
{ACAD_REACTORS
330
1EBA
102
}
330
1EBA
100
AcDbVisualStyle
  2
OverhangOff
 70
    21
177
     3
291
     1
 70
    58
 90
        2
176
     0
 90
        2
176
     0
 90
        0
176
     0
 90
        0
176
     0
 40
0.6
176
     0
 40
30.0
176
     0
 62
     7
420
 16777215
176
     0
 90
        1
176
     0
 90
        4
176
     0
 62
     7
176
     0
 62
   257
176
     0
 90
        1
176
     0
 90
        1
176
     0
 40
1.0
176
     0
 90
        9
176
     2
 62
     7
176
     0
 40
1.0
176
     0
 90
        1
176
     0
 90
        6
176
     0
 90
        2
176
     0
 62
     7
176
     0
 90
        5
176
     0
 90
        0
176
     0
 90
        0
176
     0
290
     0
176
     0
 90
        1
176
     0
 40
0.0
176
     0
 90
        0
176
     0
290
     0
176
     0
290
     1
176
     0
290
     1
176
     0
290
     0
176
     0
290
     0
176
     0
290
     0
176
     0
290
     0
176
     0
290
     0
176
     0
290
     0
176
     0
 90
       50
176
     0
 40
0.0
176
     0
 40
1.0
176
     0
 90
        0
176
     0
 62
    18
420
        0
176
     0
 90
       50
176
     0
 90
        3
176
     0
 62
     5
420
      255
176
     0
290
     0
176
     0
 90
       50
176
     0
 90
       50
176
     0
 90
       50
176
     0
290
     0
176
     0
 90
       50
176
     0
 62
   256
176
     0
 40
1.0
176
     0
 90
        2
176
     0
  1
strokes_ogs.tif
176
     0
290
     0
176
     0
 40
1.0
176
     0
 40
1.0
176
     0
  0
VISUALSTYLE
  5
1EC4
102
{ACAD_REACTORS
330
1EBA
102
}
330
1EBA
100
AcDbVisualStyle
  2
Realistic
 70
     8
177
     3
291
     0
 70
    58
 90
        2
176
     1
 90
        3
176
     1
 90
        0
176
     1
 90
        2
176
     1
 40
0.6
176
     1
 40
30.0
176
     1
 62
     7
420
 16777215
176
     1
 90
        0
176
     1
 90
        0
176
     1
 62
     7
176
     1
 62
   257
176
     1
 90
        1
176
     1
 90
        1
176
     1
 40
1.0
176
     1
 90
        8
176
     1
 62
   257
176
     1
 40
1.0
176
     1
 90
        1
176
     1
 90
        6
176
     1
 90
        2
176
     1
 62
     7
176
     1
 90
        3
176
     1
 90
        0
176
     1
 90
        0
176
     1
290
     0
176
     1
 90
       13
176
     1
 40
0.0
176
     1
 90
        0
176
     1
290
     0
176
     1
290
     1
176
     1
290
     1
176
     1
290
     0
176
     1
290
     0
176
     1
290
     0
176
     1
290
     0
176
     1
290
     0
176
     1
290
     0
176
     1
 90
       50
176
     1
 40
0.0
176
     1
 40
1.0
176
     1
 90
        0
176
     1
 62
    18
420
        0
176
     1
 90
       50
176
     1
 90
        3
176
     1
 62
     5
420
      255
176
     1
290
     0
176
     1
 90
       50
176
     1
 90
       50
176
     1
 90
       50
176
     1
290
     0
176
     1
 90
       50
176
     1
 62
   256
176
     0
 40
1.0
176
     0
 90
        2
176
     1
  1
strokes_ogs.tif
176
     1
290
     0
176
     1
 40
1.0
176
     1
 40
1.0
176
     1
  0
VISUALSTYLE
  5
1ECF
102
{ACAD_REACTORS
330
1EBA
102
}
330
1EBA
100
AcDbVisualStyle
  2
Shaded
 70
    27
177
     3
291
     0
 70
    58
 90
        2
176
     1
 90
        2
176
     1
 90
        1
176
     1
 90
        2
176
     1
 40
0.6
176
     1
 40
30.0
176
     1
 62
     7
420
 16777215
176
     1
 90
        0
176
     1
 90
        4
176
     1
 62
     7
176
     1
 62
   257
176
     1
 90
        1
176
     1
 90
        1
176
     1
 40
1.0
176
     1
 90
        8
176
     1
 62
   257
176
     1
 40
1.0
176
     1
 90
        1
176
     1
 90
        6
176
     1
 90
        2
176
     1
 62
     8
420
  7895160
176
     1
 90
        3
176
     1
 90
        0
176
     1
 90
        0
176
     1
290
     0
176
     1
 90
        5
176
     1
 40
0.0
176
     1
 90
        0
176
     1
290
     0
176
     1
290
     1
176
     1
290
     1
176
     1
290
     0
176
     1
290
     0
176
     1
290
     0
176
     1
290
     0
176
     1
290
     0
176
     1
290
     0
176
     1
 90
       50
176
     1
 40
0.0
176
     1
 40
1.0
176
     1
 90
        0
176
     1
 62
    18
420
        0
176
     1
 90
       50
176
     1
 90
        3
176
     1
 62
     5
420
      255
176
     1
290
     0
176
     1
 90
       50
176
     1
 90
       50
176
     1
 90
       50
176
     1
290
     0
176
     1
 90
       50
176
     1
 62
   256
176
     0
 40
1.0
176
     0
 90
        2
176
     1
  1
strokes_ogs.tif
176
     1
290
     0
176
     1
 40
1.0
176
     1
 40
1.0
176
     1
  0
VISUALSTYLE
  5
1ECE
102
{ACAD_REACTORS
330
1EBA
102
}
330
1EBA
100
AcDbVisualStyle
  2
Shaded with edges
 70
    26
177
     3
291
     0
 70
    58
 90
        2
176
     1
 90
        2
176
     1
 90
        1
176
     1
 90
        2
176
     1
 40
0.6
176
     1
 40
30.0
176
     1
 62
     7
420
 16777215
176
     1
 90
        1
176
     1
 90
        2
176
     1
 62
     7
176
     1
 62
   257
176
     1
 90
        2
176
     1
 90
        1
176
     1
 40
1.0
176
     1
 90
        8
176
     1
 62
   257
176
     1
 40
1.0
176
     1
 90
        1
176
     1
 90
        6
176
     1
 90
        2
176
     1
 62
     7
176
     1
 90
        3
176
     1
 90
        0
176
     1
 90
        0
176
     1
290
     0
176
     1
 90
        5
176
     1
 40
0.0
176
     1
 90
        0
176
     1
290
     0
176
     1
290
     1
176
     1
290
     1
176
     1
290
     0
176
     1
290
     0
176
     1
290
     0
176
     1
290
     0
176
     1
290
     0
176
     1
290
     0
176
     1
 90
       50
176
     1
 40
0.0
176
     1
 40
1.0
176
     1
 90
        0
176
     1
 62
    18
420
        0
176
     1
 90
       50
176
     1
 90
        3
176
     1
 62
     5
420
      255
176
     1
290
     0
176
     1
 90
       50
176
     1
 90
       50
176
     1
 90
       50
176
     1
290
     0
176
     1
 90
       50
176
     1
 62
   256
176
     0
 40
1.0
176
     0
 90
        2
176
     1
  1
strokes_ogs.tif
176
     1
290
     0
176
     1
 40
1.0
176
     1
 40
1.0
176
     1
  0
VISUALSTYLE
  5
1ECB
102
{ACAD_REACTORS
330
1EBA
102
}
330
1EBA
100
AcDbVisualStyle
  2
Shades of Gray
 70
    23
177
     3
291
     0
 70
    58
 90
        2
176
     1
 90
        2
176
     1
 90
        3
176
     1
 90
        0
176
     1
 40
0.6
176
     1
 40
30.0
176
     1
 62
     7
420
 16777215
176
     1
 90
        2
176
     1
 90
        2
176
     1
 62
     7
176
     1
 62
     7
176
     1
 90
        1
176
     1
 90
        1
176
     1
 40
40.0
176
     1
 90
        8
176
     1
 62
     7
176
     1
 40
1.0
176
     1
 90
        1
176
     1
 90
        6
176
     1
 90
        2
176
     1
 62
     7
176
     1
 90
        3
176
     1
 90
        0
176
     1
 90
        0
176
     1
290
     0
176
     1
 90
        1
176
     1
 40
0.0
176
     1
 90
        0
176
     1
290
     0
176
     1
290
     1
176
     1
290
     1
176
     1
290
     0
176
     1
290
     0
176
     1
290
     0
176
     1
290
     0
176
     1
290
     0
176
     1
290
     0
176
     1
 90
       50
176
     1
 40
0.0
176
     1
 40
1.0
176
     1
 90
        0
176
     1
 62
    18
420
        0
176
     1
 90
       50
176
     1
 90
        3
176
     1
 62
     5
420
      255
176
     1
290
     0
176
     1
 90
       50
176
     1
 90
       50
176
     1
 90
       50
176
     1
290
     0
176
     1
 90
       50
176
     1
 62
   256
176
     0
 40
1.0
176
     0
 90
        2
176
     1
  1
strokes_ogs.tif
176
     1
290
     0
176
     1
 40
1.0
176
     1
 40
1.0
176
     1
  0
VISUALSTYLE
  5
1ECC
102
{ACAD_REACTORS
330
1EBA
102
}
330
1EBA
100
AcDbVisualStyle
  2
Sketchy
 70
    24
177
     3
291
     0
 70
    58
 90
        1
176
     1
 90
        2
176
     1
 90
        2
176
     1
 90
        0
176
     1
 40
0.6
176
     1
 40
30.0
176
     1
 62
     7
420
 16777215
176
     1
 90
        2
176
     1
 90
        2
176
     1
 62
     7
176
     1
 62
     7
176
     1
 90
        1
176
     1
 90
        1
176
     1
 40
40.0
176
     1
 90
       11
176
     1
 62
     7
176
     1
 40
1.0
176
     1
 90
        1
176
     1
 90
        6
176
     1
 90
        2
176
     1
 62
     7
176
     1
 90
        6
176
     1
 90
        0
176
     1
 90
        0
176
     1
290
     0
176
     1
 90
        1
176
     1
 40
0.0
176
     1
 90
        0
176
     1
290
     0
176
     1
290
     1
176
     1
290
     1
176
     1
290
     0
176
     1
290
     0
176
     1
290
     0
176
     1
290
     0
176
     1
290
     0
176
     1
290
     0
176
     1
 90
       50
176
     1
 40
0.0
176
     1
 40
1.0
176
     1
 90
        0
176
     1
 62
    18
420
        0
176
     1
 90
       50
176
     1
 90
        3
176
     1
 62
     5
420
      255
176
     1
290
     0
176
     1
 90
       50
176
     1
 90
       50
176
     1
 90
       50
176
     1
290
     0
176
     1
 90
       50
176
     1
 62
   256
176
     0
 40
1.0
176
     0
 90
        2
176
     1
  1
strokes_ogs.tif
176
     1
290
     0
176
     1
 40
1.0
176
     1
 40
1.0
176
     1
  0
VISUALSTYLE
  5
1EC7
102
{ACAD_REACTORS
330
1EBA
102
}
330
1EBA
100
AcDbVisualStyle
  2
Thicken
 70
    13
177
     3
291
     1
 70
    58
 90
        2
176
     1
 90
        2
176
     1
 90
        0
176
     1
 90
        0
176
     1
 40
0.6
176
     1
 40
30.0
176
     1
 62
     7
420
 16777215
176
     1
 90
        1
176
     1
 90
        4
176
     1
 62
     7
176
     1
 62
   257
176
     1
 90
        1
176
     1
 90
        1
176
     1
 40
1.0
176
     1
 90
       12
176
     1
 62
     7
176
     1
 40
1.0
176
     1
 90
        1
176
     1
 90
        6
176
     1
 90
        2
176
     1
 62
     7
176
     1
 90
        5
176
     1
 90
        0
176
     1
 90
        0
176
     1
290
     0
176
     1
 90
        1
176
     1
 40
0.0
176
     1
 90
        0
176
     1
290
     0
176
     1
290
     1
176
     1
290
     1
176
     1
290
     0
176
     1
290
     0
176
     1
290
     0
176
     1
290
     0
176
     1
290
     0
176
     1
290
     0
176
     1
 90
       50
176
     1
 40
0.0
176
     1
 40
1.0
176
     1
 90
        0
176
     1
 62
    18
420
        0
176
     1
 90
       50
176
     1
 90
        3
176
     1
 62
     5
420
      255
176
     1
290
     0
176
     1
 90
       50
176
     1
 90
       50
176
     1
 90
       50
176
     1
290
     0
176
     1
 90
       50
176
     1
 62
   256
176
     0
 40
1.0
176
     0
 90
        2
176
     1
  1
strokes_ogs.tif
176
     1
290
     0
176
     1
 40
1.0
176
     1
 40
1.0
176
     1
  0
VISUALSTYLE
  5
1EC1
102
{ACAD_REACTORS
330
1EBA
102
}
330
1EBA
100
AcDbVisualStyle
  2
Wireframe
 70
     5
177
     3
291
     0
 70
    58
 90
        0
176
     1
 90
        2
176
     1
 90
        0
176
     1
 90
        0
176
     1
 40
0.6
176
     1
 40
30.0
176
     1
 62
     7
420
 16777215
176
     1
 90
        1
176
     1
 90
        4
176
     1
 62
     7
176
     1
 62
   257
176
     1
 90
        1
176
     1
 90
        1
176
     1
 40
1.0
176
     1
 90
        0
176
     1
 62
   257
176
     1
 40
1.0
176
     1
 90
        1
176
     1
 90
        6
176
     1
 90
        2
176
     1
 62
     7
176
     1
 90
        3
176
     1
 90
        0
176
     1
 90
        0
176
     1
290
     0
176
     1
 90
        1
176
     1
 40
0.0
176
     1
 90
        0
176
     1
290
     0
176
     1
290
     1
176
     1
290
     1
176
     1
290
     0
176
     1
290
     0
176
     1
290
     0
176
     1
290
     0
176
     1
290
     0
176
     1
290
     0
176
     1
 90
       50
176
     1
 40
0.0
176
     1
 40
1.0
176
     1
 90
        0
176
     1
 62
    18
420
        0
176
     1
 90
       50
176
     1
 90
        3
176
     1
 62
     5
420
      255
176
     1
290
     0
176
     1
 90
       50
176
     1
 90
       50
176
     1
 90
       50
176
     1
290
     0
176
     1
 90
       50
176
     1
 62
   256
176
     0
 40
1.0
176
     0
 90
        2
176
     1
  1
strokes_ogs.tif
176
     1
290
     0
176
     1
 40
1.0
176
     1
 40
1.0
176
     1
  0
VISUALSTYLE
  5
1ECD
102
{ACAD_REACTORS
330
1EBA
102
}
330
1EBA
100
AcDbVisualStyle
  2
X-Ray
 70
    25
177
     3
291
     0
 70
    58
 90
        2
176
     1
 90
        2
176
     1
 90
        1
176
     1
 90
        1
176
     1
 40
0.5
176
     1
 40
30.0
176
     1
 62
     7
420
 16777215
176
     1
 90
        1
176
     1
 90
        0
176
     1
 62
     7
176
     1
 62
   257
176
     1
 90
        1
176
     1
 90
        1
176
     1
 40
1.0
176
     1
 90
        8
176
     1
 62
     7
176
     1
 40
1.0
176
     1
 90
        1
176
     1
 90
        6
176
     1
 90
        2
176
     1
 62
     7
176
     1
 90
        3
176
     1
 90
        0
176
     1
 90
        0
176
     1
290
     0
176
     1
 90
       13
176
     1
 40
0.0
176
     1
 90
        0
176
     1
290
     0
176
     1
290
     1
176
     1
290
     1
176
     1
290
     0
176
     1
290
     0
176
     1
290
     0
176
     1
290
     0
176
     1
290
     0
176
     1
290
     0
176
     1
 90
       50
176
     1
 40
0.0
176
     1
 40
1.0
176
     1
 90
        0
176
     1
 62
    18
420
        0
176
     1
 90
       50
176
     1
 90
        3
176
     1
 62
     5
420
      255
176
     1
290
     0
176
     1
 90
       50
176
     1
 90
       50
176
     1
 90
       50
176
     1
290
     0
176
     1
 90
       50
176
     1
 62
   256
176
     0
 40
1.0
176
     0
 90
        2
176
     1
  1
strokes_ogs.tif
176
     1
290
     0
176
     1
 40
1.0
176
     1
 40
1.0
176
     1
  0
DICTIONARYVAR
  5
1F2A
102
{ACAD_REACTORS
330
125
102
}
330
125
100
DictionaryVariables
280
     0
  1
1:1
  0
DICTIONARYVAR
  5
1F26
102
{ACAD_REACTORS
330
125
102
}
330
125
100
DictionaryVariables
280
     0
  1
STANDARD
  0
DICTIONARYVAR
  5
1F25
102
{ACAD_REACTORS
330
125
102
}
330
125
100
DictionaryVariables
280
     0
  1
STANDARD
  0
DICTIONARYVAR
  5
1F27
102
{ACAD_REACTORS
330
125
102
}
330
125
100
DictionaryVariables
280
     0
  1
Imperial24
  0
DICTIONARYVAR
  5
1F28
102
{ACAD_REACTORS
330
125
102
}
330
125
100
DictionaryVariables
280
     0
  1
Imperial24
  0
DICTIONARYVAR
  5
126
102
{ACAD_REACTORS
330
125
102
}
330
125
100
DictionaryVariables
280
     0
  1
1
  0
DICTIONARYVAR
  5
1F2C
102
{ACAD_REACTORS
330
125
102
}
330
125
100
DictionaryVariables
280
     0
  1
1
  0
DICTIONARYVAR
  5
1F2D
102
{ACAD_REACTORS
330
125
102
}
330
125
100
DictionaryVariables
280
     0
  1
15
  0
DICTIONARYVAR
  5
1F2B
102
{ACAD_REACTORS
330
125
102
}
330
125
100
DictionaryVariables
280
     0
  1
0
  0
DICTIONARYVAR
  5
1F29
102
{ACAD_REACTORS
330
125
102
}
330
125
100
DictionaryVariables
280
     0
  1
0
  0
DICTIONARYVAR
  5
127
102
{ACAD_REACTORS
330
125
102
}
330
125
100
DictionaryVariables
280
     0
  1

  0
FIELD
  5
1F35
102
{ACAD_REACTORS
330
1F34
102
}
330
1F34
100
AcDbField
  1
_text
  2
%<\_FldIdx 0>%
 90
        1
360
1F36
 97
        0
 91
       63
 92
        0
 94
        9
 95
        2
 96
        0
300

 93
        1
  6
ACFD_FIELDTEXT_CHECKSUM
 93
        2
 90
        2
140
6560.0
 94
        0
300

302

304
ACVALUE_END
  7
ACFD_FIELD_VALUE
 93
        3
 90
        0
 94
        0
300

302

304
ACVALUE_END
301

 98
        0
  0
DICTIONARY
  5
1F22
330
1EEC
100
AcDbDictionary
280
     1
281
     1
  3
ACAD_XREC_ROUNDTRIP
360
1F48
  0
DICTIONARY
  5
1EAB
330
1EAA
100
AcDbDictionary
280
     1
281
     1
  3
BUMPTILE
360
1EAD
  3
DIFFUSETILE
360
1EAC
  3
OPACITYTILE
360
1EB0
  3
REFLECTIONTILE
360
1EAF
  3
REFRACTIONTILE
360
1EB1
  3
SPECULARTILE
360
1EAE
  0
DICTIONARY
  5
1EA3
330
1EA2
100
AcDbDictionary
280
     1
281
     1
  3
BUMPTILE
360
1EA5
  3
DIFFUSETILE
360
1EA4
  3
OPACITYTILE
360
1EA8
  3
REFLECTIONTILE
360
1EA7
  3
REFRACTIONTILE
360
1EA9
  3
SPECULARTILE
360
1EA6
  0
DICTIONARY
  5
1EB3
330
1EB2
100
AcDbDictionary
280
     1
281
     1
  3
BUMPTILE
360
1EB5
  3
DIFFUSETILE
360
1EB4
  3
OPACITYTILE
360
1EB8
  3
REFLECTIONTILE
360
1EB7
  3
REFRACTIONTILE
360
1EB9
  3
SPECULARTILE
360
1EB6
  0
DICTIONARY
  5
1F20
330
1EEA
100
AcDbDictionary
280
     1
281
     1
  3
ACAD_XREC_ROUNDTRIP
360
1F47
  0
DICTIONARY
  5
1F45
330
1ED4
100
AcDbDictionary
280
     1
281
     1
  3
ACAD_ROUNDTRIP_2008_TABLESTYLE_CELLSTYLEMAP
360
1F46
  0
FIELD
  5
1F36
330
1F35
100
AcDbField
  1
AcVar
  2
\AcVar Filename \f "%tc1%fn6"
 90
        0
 97
        0
 91
       63
 92
        0
 94
       59
 95
        2
 96
        0
300

 93
        1
  6
Variable
 93
        2
 90
        4
  1
Filename
 94
        0
300

302

304
ACVALUE_END
  7
ACFD_FIELD_VALUE
 93
        4
 90
        4
  1
C:\Users\w.koehlhoff.LOROWERK\Arbeit Koeh\AUTOCAD\Arbeit\WERBUNG\00984.100X.dxf
 94
        0
300
%tc1%fn6
302
00984.100X.DXF
304
ACVALUE_END
301
00984.100X.DXF
 98
       14
  0
XRECORD
  5
1F48
102
{ACAD_REACTORS
330
1F22
102
}
330
1F22
100
AcDbXrecord
280
     1
102
DISPLAYNAME
  1
Imperial24
102
FLAGS
 90
        0
  0
XRECORD
  5
1EAD
102
{ACAD_REACTORS
330
1EAB
102
}
330
1EAB
100
AcDbXrecord
280
     1
270
     1
271
     1
  0
XRECORD
  5
1EAC
102
{ACAD_REACTORS
330
1EAB
102
}
330
1EAB
100
AcDbXrecord
280
     1
270
     1
271
     1
  0
XRECORD
  5
1EB0
102
{ACAD_REACTORS
330
1EAB
102
}
330
1EAB
100
AcDbXrecord
280
     1
270
     1
271
     1
  0
XRECORD
  5
1EAF
102
{ACAD_REACTORS
330
1EAB
102
}
330
1EAB
100
AcDbXrecord
280
     1
270
     1
271
     1
  0
XRECORD
  5
1EB1
102
{ACAD_REACTORS
330
1EAB
102
}
330
1EAB
100
AcDbXrecord
280
     1
270
     1
271
     1
  0
XRECORD
  5
1EAE
102
{ACAD_REACTORS
330
1EAB
102
}
330
1EAB
100
AcDbXrecord
280
     1
270
     1
271
     1
  0
XRECORD
  5
1EA5
102
{ACAD_REACTORS
330
1EA3
102
}
330
1EA3
100
AcDbXrecord
280
     1
270
     1
271
     1
  0
XRECORD
  5
1EA4
102
{ACAD_REACTORS
330
1EA3
102
}
330
1EA3
100
AcDbXrecord
280
     1
270
     1
271
     1
  0
XRECORD
  5
1EA8
102
{ACAD_REACTORS
330
1EA3
102
}
330
1EA3
100
AcDbXrecord
280
     1
270
     1
271
     1
  0
XRECORD
  5
1EA7
102
{ACAD_REACTORS
330
1EA3
102
}
330
1EA3
100
AcDbXrecord
280
     1
270
     1
271
     1
  0
XRECORD
  5
1EA9
102
{ACAD_REACTORS
330
1EA3
102
}
330
1EA3
100
AcDbXrecord
280
     1
270
     1
271
     1
  0
XRECORD
  5
1EA6
102
{ACAD_REACTORS
330
1EA3
102
}
330
1EA3
100
AcDbXrecord
280
     1
270
     1
271
     1
  0
XRECORD
  5
1EB5
102
{ACAD_REACTORS
330
1EB3
102
}
330
1EB3
100
AcDbXrecord
280
     1
270
     1
271
     1
  0
XRECORD
  5
1EB4
102
{ACAD_REACTORS
330
1EB3
102
}
330
1EB3
100
AcDbXrecord
280
     1
270
     1
271
     1
  0
XRECORD
  5
1EB8
102
{ACAD_REACTORS
330
1EB3
102
}
330
1EB3
100
AcDbXrecord
280
     1
270
     1
271
     1
  0
XRECORD
  5
1EB7
102
{ACAD_REACTORS
330
1EB3
102
}
330
1EB3
100
AcDbXrecord
280
     1
270
     1
271
     1
  0
XRECORD
  5
1EB9
102
{ACAD_REACTORS
330
1EB3
102
}
330
1EB3
100
AcDbXrecord
280
     1
270
     1
271
     1
  0
XRECORD
  5
1EB6
102
{ACAD_REACTORS
330
1EB3
102
}
330
1EB3
100
AcDbXrecord
280
     1
270
     1
271
     1
  0
XRECORD
  5
1F47
102
{ACAD_REACTORS
330
1F20
102
}
330
1F20
100
AcDbXrecord
280
     1
102
DISPLAYNAME
  1
Imperial24
102
FLAGS
 90
        0
  0
CELLSTYLEMAP
  5
1F46
102
{ACAD_REACTORS
330
1F45
102
}
330
1F45
100
AcDbCellStyleMap
 90
        3
300
CELLSTYLE
  1
TABLEFORMAT_BEGIN
 90
        5
170
     1
 91
        0
 92
    32768
 62
   257
 93
        1
300
CONTENTFORMAT
  1
CONTENTFORMAT_BEGIN
 90
        0
 91
        0
 92
      512
 93
        0
300

 40
0.0
140
1.0
 94
        5
 62
     0
340
11
144
0.25
309
CONTENTFORMAT_END
171
     0
 94
        0
309
TABLEFORMAT_END
  1
CELLSTYLE_BEGIN
 90
        1
 91
        1
300
_TITLE
309
CELLSTYLE_END
300
CELLSTYLE
  1
TABLEFORMAT_BEGIN
 90
        5
170
     1
 91
        0
 92
        0
 62
   257
 93
        1
300
CONTENTFORMAT
  1
CONTENTFORMAT_BEGIN
 90
        0
 91
        0
 92
      512
 93
        0
300

 40
0.0
140
1.0
 94
        5
 62
     0
340
11
144
0.18
309
CONTENTFORMAT_END
171
     0
 94
        0
309
TABLEFORMAT_END
  1
CELLSTYLE_BEGIN
 90
        2
 91
        1
300
_HEADER
309
CELLSTYLE_END
300
CELLSTYLE
  1
TABLEFORMAT_BEGIN
 90
        5
170
     1
 91
        0
 92
        0
 62
   257
 93
        1
300
CONTENTFORMAT
  1
CONTENTFORMAT_BEGIN
 90
        0
 91
        0
 92
      512
 93
        0
300

 40
0.0
140
1.0
 94
        2
 62
     0
340
11
144
0.18
309
CONTENTFORMAT_END
171
     0
 94
        0
309
TABLEFORMAT_END
  1
CELLSTYLE_BEGIN
 90
        3
 91
        2
300
_DATA
309
CELLSTYLE_END
  0
ENDSEC
  0
SECTION
  2
ACDSDATA
 70
     2
 71
     8
  0
ACDSSCHEMA
 90
        0
  1
AcDb_Thumbnail_Schema
  2
AcDbDs::ID
280
    10
 91
        8
  2
Thumbnail_Data
280
    15
 91
        0
101
ACDSRECORD
 95
        0
 90
        1
  2
AcDbDs::TreatedAsObjectData
280
     1
291
     1
101
ACDSRECORD
 95
        0
 90
        2
  2
AcDbDs::Legacy
280
     1
291
     1
101
ACDSRECORD
  1
AcDbDs::ID
 90
        3
  2
AcDs:Indexable
280
     1
291
     1
101
ACDSRECORD
  1
AcDbDs::ID
 90
        4
  2
AcDbDs::HandleAttribute
280
     7
282
     1
  0
ACDSSCHEMA
 90
        1
  1
AcDbDs::TreatedAsObjectDataSchema
  2
AcDbDs::TreatedAsObjectData
280
     1
 91
        0
  0
ACDSSCHEMA
 90
        2
  1
AcDbDs::LegacySchema
  2
AcDbDs::Legacy
280
     1
 91
        0
  0
ACDSSCHEMA
 90
        3
  1
AcDbDs::IndexedPropertySchema
  2
AcDs:Indexable
280
     1
 91
        0
  0
ACDSSCHEMA
 90
        4
  1
AcDbDs::HandleAttributeSchema
  2
AcDbDs::HandleAttribute
280
     7
 91
        1
284
     1
  0
ACDSRECORD
 90
        0
  2
AcDbDs::ID
280
    10
320
21
  2
Thumbnail_Data
280
    15
 94
     2158
310
89504E470D0A1A0A0000000D49484452000001000000008108030000001837949D00000300504C5445000000000000C8C8C80000000000000000000000000000000000000000000000000000330000660000990000CC0000FF0033000033330033660033990033CC0033FF0066000066330066660066990066CC0066FF0099
310
000099330099660099990099CC0099FF00CC0000CC3300CC6600CC9900CCCC00CCFF00FF0000FF3300FF6600FF9900FFCC00FFFF3300003300333300663300993300CC3300FF3333003333333333663333993333CC3333FF3366003366333366663366993366CC3366FF3399003399333399663399993399CC3399FF33CC00
310
33CC3333CC6633CC9933CCCC33CCFF33FF0033FF3333FF6633FF9933FFCC33FFFF6600006600336600666600996600CC6600FF6633006633336633666633996633CC6633FF6666006666336666666666996666CC6666FF6699006699336699666699996699CC6699FF66CC0066CC3366CC6666CC9966CCCC66CCFF66FF0066
310
FF3366FF6666FF9966FFCC66FFFF9900009900339900669900999900CC9900FF9933009933339933669933999933CC9933FF9966009966339966669966999966CC9966FF9999009999339999669999999999CC9999FF99CC0099CC3399CC6699CC9999CCCC99CCFF99FF0099FF3399FF6699FF9999FFCC99FFFFCC0000CC00
310
33CC0066CC0099CC00CCCC00FFCC3300CC3333CC3366CC3399CC33CCCC33FFCC6600CC6633CC6666CC6699CC66CCCC66FFCC9900CC9933CC9966CC9999CC99CCCC99FFCCCC00CCCC33CCCC66CCCC99CCCCCCCCCCFFCCFF00CCFF33CCFF66CCFF99CCFFCCCCFFFFFF0000FF0033FF0066FF0099FF00CCFF00FFFF3300FF3333
310
FF3366FF3399FF33CCFF33FFFF6600FF6633FF6666FF6699FF66CCFF66FFFF9900FF9933FF9966FF9999FF99CCFF99FFFFCC00FFCC33FFCC66FFCC99FFCCCCFFCCFFFFFF00FFFF33FFFF66FFFF99FFFFCCFFFFFF0000000D0D0D1A1A1A2828283535354343435050505D5D5D6B6B6B787878868686939393A1A1A1AEAEAEBB
310
BBBBC9C9C9D6D6D6E4E4E4F1F1F1FFFFFF00000000000000000000000000000000000000000000000000000000000008F1915C000005294944415478DAED9D517A83200C80731CEE7F005F7A8D5C83F70101040D8A1527A1F0AD9BED0A5FF31B42088102D4141459A05D69D9165F74FB26278007DA5282CA3300404C990026
310
80096002980026800960029800268009A03B008B2B13C0980074CB2212402F4192BE01E004F00B000EC2557814CA920E8013E582062428640258E5FE12C07A2514407CFF77008CD4DA2E6A9887601B80376C8019FFFDCA8E48002A88CE13C0D432F0680C80505F2A0023065809906B68ED226C6BE83FBBAD2F17807D3F03C0
310
E8B6BFB5A80E00A8505F22007437DF7660FAFD4DF1F5DDCF681A60C688730D00C91A00D1F81D1A413C3082CE86C8368207C32056B9C2DE0F9009E0B623B4FA012201C05D00497DA100DA4D864486C4A0E174F81E00DD7358FCF99CA309A06F0030014C0013C0043001CC6170021808C0C575DF964E6F2F002A6707001F5FE0
310
5108FFDE057485F8243B5806E0413C86A03B004EFC70FBD1FF85E710740680C4A7DB9FCC7B89C12308FA02A0949334AE19616A119E41D0150073FB818CDE76188C76410D0CC0DE7E273EEB07F8CED19C403F00E81EE7214EDCDA87F6043A02C0A838328C1A13E80680E2467BDC8F11AD75A017008A3571C89AC9A663412700
310
14EFEA60E18D0302E03B37721F5837ED047D0028C8CF0130B3A9A686501A009B3AD0B413340670BE5EAB2FC8BF07A0BD1968A7025D68802A4DF6900B26B45581770160B4EC7C1564AB2A3B14966C84480051A043003A1D0AD3343AA900FCF2B7EB01700A208DA511B136CBE46F02004A9434421C0270DB86746E33ACE0A1BE
310
4C0075F90EE8E45FB6A1D496B912AF01483304D5517B567E267610FFAF401C8035E27F760771DBFB7325B049A21235204A64FA309EB677104242BC3F0EFC3F80B817B2A207E3D1428AD70091007C8A27E53AAF4F70F74497FF4575D5DDD3B05ED4003B75383160278B08A7F57B05A0EB00E893CF2614409CD39C0D02FAD8D5
310
A551E07EA6E8FF0258D86150B1B7FFD0D7CF3249E50058D5FFCC13D447B3BD6D2AAD44001B049B1A61F02B01800C00C8041036BBA8FD6C50974362E96C10FC9619B9B3C115401A0F487C1F2C2880ABA0EE6F187A3B1E80B4EB270F09EA72482C01A0407E3CC06E9E5394019000D0700680568760DD34253E24E6FA34D5D9B8
310
FE25001F182426B85A351249974362D99B3FE32D8C1815608E83E196C6D4882B43F6AE6A5DB736D87875B4A3D5E1AAC5D1515787CBAB633F03006A1224946A9E23D34F8A0C65BF9CE408C1B8003C81BC2AEEB5A475B2644F798294225B4A93F3B992E3E6092699826A0FC065CBC267E44449C853853357396C1F003572AA6C
310
F407B25CF1982FFE50BA786FFB0562BEFC676DCFEF1C7966C3407F3B464262F85AE0C92D231D6E99715D3E47F0E0A6A11E01403C6006D7A366921636078ADE3B54B45300A915DCB5D0F458D58E01D05961FBB61A7FC98A40007681C997C53FCC8B411516BAB249C58C76A8ADD6480480B88415F2C53F3001A02B0168B10078
310
0DB017F1A97D85D6E1DD8BF692CEA976EF8B65280D20317300FB320480A206FC0A0056037E7E1430468D122A6914C8CD9DDE1BC1B7FC00FDEB001EEB02E122FE8F3FAA53BDED095E3B3E82CD032D69007900F629694001EBDBAEF0B5F6B80F774F0376E342E787A8B08B63451B00E930C8CE98DE7785AF37B96CBE6B44B60D
310
F8A2CD1D80CB1A20D706784390E7030B77841A04B1785738C91AA25F75D1128900F8234643F260FC332E00D0711751A6014107287BAEF2334804404E2F793DD6F6693A8C5C6D34605C005007A0F28C7A2DEF9BA78DCCE172F18FDE82A2CF95F9E5EB9D031059AA44FB03AAAE5499AA2FE6910000000049454E44AE426082
  0
ENDSEC
  0
EOF
