  0
SECTION
  2
HEADER
  9
$ACADVER
  1
AC1018
  9
$ACADMAINTVER
 70
     2
  9
$DWGCODEPAGE
  3
ANSI_1252
  9
$INSBASE
 10
0.0
 20
0.0
 30
0.0
  9
$EXTMIN
 10
-0.0127449277902088
 20
-0.0317004075857312
 30
-0.0000000000000129
  9
$EXTMAX
 10
420.0082719239349
 20
594.0317242670564
 30
0.0000000000000023
  9
$LIMMIN
 10
0.0
 20
0.0
  9
$LIMMAX
 10
419.9999999999999
 20
594.0
  9
$ORTHOMODE
 70
     1
  9
$REGENMODE
 70
     1
  9
$FILLMODE
 70
     1
  9
$QTEXTMODE
 70
     0
  9
$MIRRTEXT
 70
     1
  9
$LTSCALE
 40
20.0
  9
$ATTMODE
 70
     1
  9
$TEXTSIZE
 40
2.5
  9
$TRACEWID
 40
0.5
  9
$TEXTSTYLE
  7
GREEKS
  9
$CLAYER
  8
BEM
  9
$CELTYPE
  6
ByLayer
  9
$CECOLOR
 62
   256
  9
$CELTSCALE
 40
1.0
  9
$DISPSILH
 70
     0
  9
$DIMSCALE
 40
2.0
  9
$DIMASZ
 40
3.5
  9
$DIMEXO
 40
1.0
  9
$DIMDLI
 40
7.0
  9
$DIMRND
 40
0.0
  9
$DIMDLE
 40
0.0
  9
$DIMEXE
 40
1.0
  9
$DIMTP
 40
0.0
  9
$DIMTM
 40
0.0
  9
$DIMTXT
 40
3.5
  9
$DIMCEN
 40
1.5
  9
$DIMTSZ
 40
0.0
  9
$DIMTOL
 70
     0
  9
$DIMLIM
 70
     0
  9
$DIMTIH
 70
     0
  9
$DIMTOH
 70
     0
  9
$DIMSE1
 70
     0
  9
$DIMSE2
 70
     0
  9
$DIMTAD
 70
     1
  9
$DIMZIN
 70
     8
  9
$DIMBLK
  1

  9
$DIMASO
 70
     1
  9
$DIMSHO
 70
     0
  9
$DIMPOST
  1

  9
$DIMAPOST
  1

  9
$DIMALT
 70
     0
  9
$DIMALTD
 70
     2
  9
$DIMALTF
 40
25.4
  9
$DIMLFAC
 40
1.0
  9
$DIMTOFL
 70
     1
  9
$DIMTVP
 40
0.0
  9
$DIMTIX
 70
     0
  9
$DIMSOXD
 70
     0
  9
$DIMSAH
 70
     0
  9
$DIMBLK1
  1

  9
$DIMBLK2
  1

  9
$DIMSTYLE
  2
Standard
  9
$DIMCLRD
 70
     0
  9
$DIMCLRE
 70
     0
  9
$DIMCLRT
 70
     1
  9
$DIMTFAC
 40
0.5142857142857144
  9
$DIMGAP
 40
1.5
  9
$DIMJUST
 70
     0
  9
$DIMSD1
 70
     0
  9
$DIMSD2
 70
     0
  9
$DIMTOLJ
 70
     1
  9
$DIMTZIN
 70
     8
  9
$DIMALTZ
 70
     8
  9
$DIMALTTZ
 70
     8
  9
$DIMUPT
 70
     0
  9
$DIMDEC
 70
     2
  9
$DIMTDEC
 70
     2
  9
$DIMALTU
 70
     2
  9
$DIMALTTD
 70
     2
  9
$DIMTXSTY
  7
STANDARD
  9
$DIMAUNIT
 70
     0
  9
$DIMADEC
 70
     2
  9
$DIMALTRND
 40
0.0
  9
$DIMAZIN
 70
     2
  9
$DIMDSEP
 70
    46
  9
$DIMATFIT
 70
     3
  9
$DIMFRAC
 70
     0
  9
$DIMLDRBLK
  1

  9
$DIMLUNIT
 70
     2
  9
$DIMLWD
 70
    -2
  9
$DIMLWE
 70
    -2
  9
$DIMTMOVE
 70
     0
  9
$LUNITS
 70
     2
  9
$LUPREC
 70
     2
  9
$SKETCHINC
 40
1.0
  9
$FILLETRAD
 40
0.0
  9
$AUNITS
 70
     0
  9
$AUPREC
 70
     0
  9
$MENU
  1
ACAD
  9
$ELEVATION
 40
0.0
  9
$PELEVATION
 40
0.0
  9
$THICKNESS
 40
0.0
  9
$LIMCHECK
 70
     0
  9
$CHAMFERA
 40
0.0
  9
$CHAMFERB
 40
0.0
  9
$CHAMFERC
 40
0.0
  9
$CHAMFERD
 40
0.0
  9
$SKPOLY
 70
     0
  9
$TDCREATE
 40
2455397.823042361
  9
$TDUCREATE
 40
2455397.781375695
  9
$TDUPDATE
 40
2456230.318205405
  9
$TDUUPDATE
 40
2456230.276538739
  9
$TDINDWG
 40
0.4043173264
  9
$TDUSRTIMER
 40
0.4043173264
  9
$USRTIMER
 70
     1
  9
$ANGBASE
 50
0.0
  9
$ANGDIR
 70
     0
  9
$PDMODE
 70
     0
  9
$PDSIZE
 40
0.0
  9
$PLINEWID
 40
0.0
  9
$SPLFRAME
 70
     0
  9
$SPLINETYPE
 70
     6
  9
$SPLINESEGS
 70
     8
  9
$HANDSEED
  5
2681
  9
$SURFTAB1
 70
     6
  9
$SURFTAB2
 70
     6
  9
$SURFTYPE
 70
     6
  9
$SURFU
 70
     6
  9
$SURFV
 70
     6
  9
$UCSBASE
  2

  9
$UCSNAME
  2

  9
$UCSORG
 10
0.0
 20
0.0
 30
0.0
  9
$UCSXDIR
 10
1.0
 20
0.0
 30
0.0
  9
$UCSYDIR
 10
0.0
 20
1.0
 30
0.0
  9
$UCSORTHOREF
  2

  9
$UCSORTHOVIEW
 70
     0
  9
$UCSORGTOP
 10
0.0
 20
0.0
 30
0.0
  9
$UCSORGBOTTOM
 10
0.0
 20
0.0
 30
0.0
  9
$UCSORGLEFT
 10
0.0
 20
0.0
 30
0.0
  9
$UCSORGRIGHT
 10
0.0
 20
0.0
 30
0.0
  9
$UCSORGFRONT
 10
0.0
 20
0.0
 30
0.0
  9
$UCSORGBACK
 10
0.0
 20
0.0
 30
0.0
  9
$PUCSBASE
  2

  9
$PUCSNAME
  2

  9
$PUCSORG
 10
0.0
 20
0.0
 30
0.0
  9
$PUCSXDIR
 10
1.0
 20
0.0
 30
0.0
  9
$PUCSYDIR
 10
0.0
 20
1.0
 30
0.0
  9
$PUCSORTHOREF
  2

  9
$PUCSORTHOVIEW
 70
     0
  9
$PUCSORGTOP
 10
0.0
 20
0.0
 30
0.0
  9
$PUCSORGBOTTOM
 10
0.0
 20
0.0
 30
0.0
  9
$PUCSORGLEFT
 10
0.0
 20
0.0
 30
0.0
  9
$PUCSORGRIGHT
 10
0.0
 20
0.0
 30
0.0
  9
$PUCSORGFRONT
 10
0.0
 20
0.0
 30
0.0
  9
$PUCSORGBACK
 10
0.0
 20
0.0
 30
0.0
  9
$USERI1
 70
     0
  9
$USERI2
 70
     0
  9
$USERI3
 70
     0
  9
$USERI4
 70
     0
  9
$USERI5
 70
     0
  9
$USERR1
 40
0.0
  9
$USERR2
 40
0.0
  9
$USERR3
 40
0.0
  9
$USERR4
 40
0.0
  9
$USERR5
 40
0.0
  9
$WORLDVIEW
 70
     1
  9
$SHADEDGE
 70
     3
  9
$SHADEDIF
 70
    70
  9
$TILEMODE
 70
     1
  9
$MAXACTVP
 70
    16
  9
$PINSBASE
 10
0.0
 20
0.0
 30
0.0
  9
$PLIMCHECK
 70
     0
  9
$PEXTMIN
 10
1.000000000000000E+20
 20
1.000000000000000E+20
 30
1.000000000000000E+20
  9
$PEXTMAX
 10
-1.000000000000000E+20
 20
-1.000000000000000E+20
 30
-1.000000000000000E+20
  9
$PLIMMIN
 10
0.0
 20
0.0
  9
$PLIMMAX
 10
12.0
 20
9.0
  9
$UNITMODE
 70
     0
  9
$VISRETAIN
 70
     0
  9
$PLINEGEN
 70
     0
  9
$PSLTSCALE
 70
     0
  9
$TREEDEPTH
 70
  3020
  9
$CMLSTYLE
  2
Standard
  9
$CMLJUST
 70
     0
  9
$CMLSCALE
 40
1.0
  9
$PROXYGRAPHICS
 70
     1
  9
$MEASUREMENT
 70
     0
  9
$CELWEIGHT
370
    -1
  9
$ENDCAPS
280
     0
  9
$JOINSTYLE
280
     0
  9
$LWDISPLAY
290
     0
  9
$INSUNITS
 70
     0
  9
$HYPERLINKBASE
  1

  9
$STYLESHEET
  1
monochrome 1.ctb
  9
$XEDIT
290
     1
  9
$CEPSNTYPE
380
     0
  9
$PSTYLEMODE
290
     1
  9
$FINGERPRINTGUID
  2
{D68B0D02-A558-11D7-B632-000102183313}
  9
$VERSIONGUID
  2
{B4B602F1-A42B-4C28-B0F9-D3110D9B66F6}
  9
$EXTNAMES
290
     1
  9
$PSVPSCALE
 40
0.0
  9
$OLESTARTUP
290
     0
  9
$SORTENTS
280
   127
  9
$INDEXCTL
280
     0
  9
$HIDETEXT
280
     0
  9
$XCLIPFRAME
290
     0
  9
$HALOGAP
280
     0
  9
$OBSCOLOR
 70
   257
  9
$OBSLTYPE
280
     0
  9
$INTERSECTIONDISPLAY
280
     0
  9
$INTERSECTIONCOLOR
 70
   257
  9
$DIMASSOC
280
     1
  9
$PROJECTNAME
  1

  0
ENDSEC
  0
SECTION
  2
CLASSES
  0
CLASS
  1
ACDBDICTIONARYWDFLT
  2
AcDbDictionaryWithDefault
  3
ObjectDBX Classes
 90
        0
 91
        1
280
     0
281
     0
  0
CLASS
  1
DICTIONARYVAR
  2
AcDbDictionaryVar
  3
ObjectDBX Classes
 90
        0
 91
        2
280
     0
281
     0
  0
ENDSEC
  0
SECTION
  2
TABLES
  0
TABLE
  2
VPORT
  5
8
330
0
100
AcDbSymbolTable
 70
     3
  0
VPORT
  5
2680
330
8
100
AcDbSymbolTableRecord
100
AcDbViewportTableRecord
  2
*Active
 70
     0
 10
0.0
 20
0.0
 11
1.0
 21
1.0
 12
209.9999999999999
 22
297.0
 13
0.0
 23
0.0
 14
1.0
 24
1.0
 15
10.0
 25
10.0
 16
0.0
 26
0.0
 36
1.0
 17
0.0
 27
0.0
 37
0.0
 40
594.4702169556625
 41
1.404858299595141
 42
50.0
 43
0.0
 44
0.0
 50
0.0
 51
0.0
 71
     0
 72
  1500
 73
     1
 74
     0
 75
     0
 76
     0
 77
     0
 78
     0
281
     0
 65
     1
110
0.0
120
0.0
130
0.0
111
1.0
121
0.0
131
0.0
112
0.0
122
1.0
132
0.0
 79
     0
146
0.0
  0
ENDTAB
  0
TABLE
  2
LTYPE
  5
5
330
0
100
AcDbSymbolTable
 70
     2
  0
LTYPE
  5
13
330
5
100
AcDbSymbolTableRecord
100
AcDbLinetypeTableRecord
  2
ByBlock
 70
     0
  3

 72
    65
 73
     0
 40
0.0
  0
LTYPE
  5
14
330
5
100
AcDbSymbolTableRecord
100
AcDbLinetypeTableRecord
  2
ByLayer
 70
     0
  3

 72
    65
 73
     0
 40
0.0
  0
LTYPE
  5
15
330
5
100
AcDbSymbolTableRecord
100
AcDbLinetypeTableRecord
  2
Continuous
 70
     0
  3
Solid line
 72
    65
 73
     0
 40
0.0
  0
LTYPE
  5
25
330
5
100
AcDbSymbolTableRecord
100
AcDbLinetypeTableRecord
  2
STRICHPUNKT
 70
     0
  3
__ . __ . __ . __ . __ . __ . __ . __ . __ . __
 72
    65
 73
     4
 40
1.0
 49
0.5
 74
     0
 49
-0.25
 74
     0
 49
0.0
 74
     0
 49
-0.25
 74
     0
  0
ENDTAB
  0
TABLE
  2
LAYER
  5
2
330
0
100
AcDbSymbolTable
 70
     8
  0
LAYER
  5
10
330
2
100
AcDbSymbolTableRecord
100
AcDbLayerTableRecord
  2
0
 70
     0
 62
     7
  6
Continuous
370
    -3
390
F
  0
LAYER
  5
2A
330
2
100
AcDbSymbolTableRecord
100
AcDbLayerTableRecord
  2
VOLL
 70
     0
 62
     1
  6
Continuous
370
    -3
390
F
  0
LAYER
  5
2B
330
2
100
AcDbSymbolTableRecord
100
AcDbLayerTableRecord
  2
HILF
 70
     0
 62
     2
  6
Continuous
370
    -3
390
F
  0
LAYER
  5
2C
330
2
100
AcDbSymbolTableRecord
100
AcDbLayerTableRecord
  2
MITTEL
 70
     0
 62
     2
  6
STRICHPUNKT
370
    -3
390
F
  0
LAYER
  5
2F
330
2
100
AcDbSymbolTableRecord
100
AcDbLayerTableRecord
  2
BEM
 70
     0
 62
     7
  6
Continuous
370
    -3
390
F
  0
LAYER
  5
30
330
2
100
AcDbSymbolTableRecord
100
AcDbLayerTableRecord
  2
STEMPEL
 70
     0
 62
     3
  6
Continuous
370
    -3
390
F
  0
LAYER
  5
31
330
2
100
AcDbSymbolTableRecord
100
AcDbLayerTableRecord
  2
TEXT
 70
     0
 62
     7
  6
Continuous
370
    -3
390
F
  0
LAYER
  5
1A8
330
2
100
AcDbSymbolTableRecord
100
AcDbLayerTableRecord
  2
Defpoints
 70
     0
 62
     7
  6
Continuous
290
     0
370
    -3
390
F
  0
ENDTAB
  0
TABLE
  2
STYLE
  5
3
330
0
100
AcDbSymbolTable
 70
     2
  0
STYLE
  5
11
330
3
100
AcDbSymbolTableRecord
100
AcDbTextStyleTableRecord
  2
STANDARD
 70
     0
 40
0.0
 41
0.8
 50
0.0
 71
     0
 42
3.5
  3
simplex.shx
  4

  0
STYLE
  5
24
330
3
100
AcDbSymbolTableRecord
100
AcDbTextStyleTableRecord
  2
GREEKS
 70
     0
 40
0.0
 41
0.8
 50
0.0
 71
     0
 42
2.5
  3
SIMPLEX.shx
  4

  0
ENDTAB
  0
TABLE
  2
VIEW
  5
6
330
0
100
AcDbSymbolTable
 70
     0
  0
ENDTAB
  0
TABLE
  2
UCS
  5
7
330
0
100
AcDbSymbolTable
 70
     0
  0
ENDTAB
  0
TABLE
  2
APPID
  5
9
330
0
100
AcDbSymbolTable
 70
     1
  0
APPID
  5
12
330
9
100
AcDbSymbolTableRecord
100
AcDbRegAppTableRecord
  2
ACAD
 70
     0
  0
ENDTAB
  0
TABLE
  2
DIMSTYLE
  5
A
330
0
100
AcDbSymbolTable
 70
     1
100
AcDbDimStyleTable
 71
     1
340
9D
  0
DIMSTYLE
105
9D
102
{ACAD_REACTORS
330
23E3
330
23F0
330
2426
330
2435
330
2469
330
266E
102
}
330
A
100
AcDbSymbolTableRecord
100
AcDbDimStyleTableRecord
  2
Standard
 70
     0
340
11
  0
ENDTAB
  0
TABLE
  2
BLOCK_RECORD
  5
1
330
0
100
AcDbSymbolTable
 70
     7
  0
BLOCK_RECORD
  5
1E
102
{ACAD_XDICTIONARY
360
A0
102
}
330
1
100
AcDbSymbolTableRecord
100
AcDbBlockTableRecord
  2
*Model_Space
340
21
  0
BLOCK_RECORD
  5
1A
102
{ACAD_XDICTIONARY
360
A2
102
}
330
1
100
AcDbSymbolTableRecord
100
AcDbBlockTableRecord
  2
*Paper_Space
340
1D
  0
BLOCK_RECORD
  5
22
330
1
100
AcDbSymbolTableRecord
100
AcDbBlockTableRecord
  2
LOGO
340
0
102
{BLKREFS
331
9B
102
}
  0
BLOCK_RECORD
  5
23E4
330
1
100
AcDbSymbolTableRecord
100
AcDbBlockTableRecord
  2
*D1
340
0
  0
BLOCK_RECORD
  5
23F1
330
1
100
AcDbSymbolTableRecord
100
AcDbBlockTableRecord
  2
*D2
340
0
  0
BLOCK_RECORD
  5
2427
330
1
100
AcDbSymbolTableRecord
100
AcDbBlockTableRecord
  2
*D3
340
0
  0
BLOCK_RECORD
  5
2436
330
1
100
AcDbSymbolTableRecord
100
AcDbBlockTableRecord
  2
*D4
340
0
  0
BLOCK_RECORD
  5
246A
330
1
100
AcDbSymbolTableRecord
100
AcDbBlockTableRecord
  2
*D5
340
0
  0
BLOCK_RECORD
  5
266F
330
1
100
AcDbSymbolTableRecord
100
AcDbBlockTableRecord
  2
*D6
340
0
  0
ENDTAB
  0
ENDSEC
  0
SECTION
  2
BLOCKS
  0
BLOCK
  5
35
330
1E
100
AcDbEntity
  8
0
100
AcDbBlockBegin
  2
*Model_Space
 70
     0
 10
0.0
 20
0.0
 30
0.0
  3
*Model_Space
  1

  0
ENDBLK
  5
36
330
1E
100
AcDbEntity
  8
0
100
AcDbBlockEnd
  0
BLOCK
  5
33
330
1A
100
AcDbEntity
 67
     1
  8
0
100
AcDbBlockBegin
  2
*Paper_Space
 70
     0
 10
0.0
 20
0.0
 30
0.0
  3
*Paper_Space
  1

  0
ENDBLK
  5
34
330
1A
100
AcDbEntity
 67
     1
  8
0
100
AcDbBlockEnd
  0
BLOCK
  5
37
330
22
100
AcDbEntity
  8
0
100
AcDbBlockBegin
  2
LOGO
 70
     0
 10
0.0
 20
0.0
 30
0.0
  3
LOGO
  1

  0
ARC
  5
38
330
22
100
AcDbEntity
  8
0
100
AcDbCircle
 10
11.59973089678112
 20
-9.271599258481501
 30
0.0
 40
4.5
100
AcDbArc
 50
270.0
 51
231.0575587310159
  0
LINE
  5
39
330
22
100
AcDbEntity
  8
0
100
AcDbLine
 10
3.599730896781125
 20
-4.771599258481529
 30
0.0
 11
3.599730896781153
 21
-11.77159925848133
 31
0.0
  0
LINE
  5
3A
330
22
100
AcDbEntity
  8
0
100
AcDbLine
 10
2.599730896781125
 20
-4.771599258481529
 30
0.0
 11
2.599730896781153
 21
-11.77159925848133
 31
0.0
  0
CIRCLE
  5
3B
330
22
100
AcDbEntity
  8
0
100
AcDbCircle
 10
11.59973089678112
 20
-9.271599258481501
 30
0.0
 40
3.5
  0
ARC
  5
3C
330
22
100
AcDbEntity
  8
0
100
AcDbCircle
 10
31.59973089678115
 20
-9.271599258481472
 30
0.0
 40
4.5
100
AcDbArc
 50
270.0
 51
231.0575587310182
  0
LINE
  5
3D
330
22
100
AcDbEntity
  8
0
100
AcDbLine
 10
17.59973089678112
 20
-4.771599258481472
 30
0.0
 11
17.59973089678115
 21
-13.77159925848147
 31
0.0
  0
ARC
  5
3E
330
22
100
AcDbEntity
  8
0
100
AcDbCircle
 10
22.59973089678116
 20
-7.271599258481472
 30
0.0
 40
2.5
100
AcDbArc
 50
293.1161887722295
 51
90.0
  0
CIRCLE
  5
3F
330
22
100
AcDbEntity
  8
0
100
AcDbCircle
 10
31.59973089678115
 20
-9.271599258481472
 30
0.0
 40
3.5
  0
ARC
  5
40
330
22
100
AcDbEntity
  8
0
100
AcDbCircle
 10
4.599730896781153
 20
-11.77159925848133
 30
0.0
 40
1.0
100
AcDbArc
 50
180.0
 51
270.0
  0
ARC
  5
41
330
22
100
AcDbEntity
  8
0
100
AcDbCircle
 10
4.599730896781153
 20
-11.77159925848133
 30
0.0
 40
2.0
100
AcDbArc
 50
179.9999999999992
 51
270.0
  0
LINE
  5
42
330
22
100
AcDbEntity
  8
0
100
AcDbLine
 10
11.59973089678115
 20
-13.77159925848144
 30
0.0
 11
4.599730896781153
 21
-13.77159925848147
 31
0.0
  0
LINE
  5
43
330
22
100
AcDbEntity
  8
0
100
AcDbLine
 10
8.771303772034769
 20
-12.77159925848136
 30
0.0
 11
4.599730896781153
 21
-12.77159925848133
 31
0.0
  0
LINE
  5
44
330
22
100
AcDbEntity
  8
0
100
AcDbLine
 10
31.59973089678115
 20
-13.77159925848147
 30
0.0
 11
23.6715276665056
 21
-13.77159925848144
 31
0.0
  0
LINE
  5
45
330
22
100
AcDbEntity
  8
0
100
AcDbLine
 10
23.56565672307022
 20
-9.51278021337896
 30
0.0
 11
24.4388546544846
 21
-12.77159925848144
 31
0.0
  0
LINE
  5
46
330
22
100
AcDbEntity
  8
0
100
AcDbLine
 10
22.59973089678116
 20
-9.771599258481472
 30
0.0
 11
18.59973089678112
 21
-9.771599258481472
 31
0.0
  0
LINE
  5
47
330
22
100
AcDbEntity
  8
0
100
AcDbLine
 10
18.59973089678115
 20
-13.77159925848144
 30
0.0
 11
17.59973089678115
 21
-13.77159925848144
 31
0.0
  0
LINE
  5
48
330
22
100
AcDbEntity
  8
0
100
AcDbLine
 10
18.59973089678115
 20
-9.771599258481472
 30
0.0
 11
18.59973089678115
 21
-13.77159925848144
 31
0.0
  0
LINE
  5
49
330
22
100
AcDbEntity
  8
0
100
AcDbLine
 10
22.59973089678116
 20
-9.771599258481472
 30
0.0
 11
23.67152766650562
 21
-13.77159925848147
 31
0.0
  0
ARC
  5
4A
330
22
100
AcDbEntity
  8
0
100
AcDbCircle
 10
22.59973089678116
 20
-7.271599258481472
 30
0.0
 40
2.5
100
AcDbArc
 50
270.0
 51
270.0000000000007
  0
LINE
  5
4B
330
22
100
AcDbEntity
  8
0
100
AcDbLine
 10
28.77130377203494
 20
-12.77159925848147
 30
0.0
 11
24.43885465448463
 21
-12.77159925848144
 31
0.0
  0
LINE
  5
4C
330
22
100
AcDbEntity
  8
0
100
AcDbLine
 10
3.599730896781125
 20
-4.771599258481472
 30
0.0
 11
2.599730896781125
 21
-4.771599258481472
 31
0.0
  0
LINE
  5
4D
330
22
100
AcDbEntity
  8
0
100
AcDbLine
 10
22.59973089678116
 20
-8.771599258481472
 30
0.0
 11
18.59973089678115
 21
-8.771599258481472
 31
0.0
  0
LINE
  5
4E
330
22
100
AcDbEntity
  8
0
100
AcDbLine
 10
22.59973089678116
 20
-5.771599258481472
 30
0.0
 11
18.59973089678115
 21
-5.771599258481472
 31
0.0
  0
LINE
  5
4F
330
22
100
AcDbEntity
  8
0
100
AcDbLine
 10
22.59973089678116
 20
-4.771599258481472
 30
0.0
 11
17.59973089678115
 21
-4.771599258481472
 31
0.0
  0
LINE
  5
50
330
22
100
AcDbEntity
  8
0
100
AcDbLine
 10
18.59973089678115
 20
-5.771599258481472
 30
0.0
 11
18.59973089678115
 21
-8.771599258481472
 31
0.0
  0
ARC
  5
51
330
22
100
AcDbEntity
  8
0
100
AcDbCircle
 10
22.59973089678116
 20
-7.271599258481472
 30
0.0
 40
1.5
100
AcDbArc
 50
270.0
 51
90.0
  0
ENDBLK
  5
52
330
22
100
AcDbEntity
  8
0
100
AcDbBlockEnd
  0
BLOCK
  5
23EE
330
23E4
100
AcDbEntity
  8
0
100
AcDbBlockBegin
  2
*D1
 70
     1
 10
0.0
 20
0.0
 30
0.0
  3
*D1
  1

  0
LINE
  5
245F
330
23E4
100
AcDbEntity
  8
BEM
 62
     0
370
    -2
100
AcDbLine
 10
83.26457403878226
 20
199.4884270191144
 30
0.0
 11
83.26457403878226
 21
169.8232796661766
 31
0.0
  0
LINE
  5
2460
330
23E4
100
AcDbEntity
  8
BEM
 62
     0
370
    -2
100
AcDbLine
 10
390.2645740387823
 20
199.4884270191144
 30
0.0
 11
390.2645740387823
 21
169.8232796661766
 31
0.0
  0
LINE
  5
2461
330
23E4
100
AcDbEntity
  8
BEM
 62
     0
370
    -2
100
AcDbLine
 10
90.26457403878225
 20
171.8232796661766
 30
0.0
 11
383.2645740387822
 21
171.8232796661766
 31
0.0
  0
SOLID
  5
2462
330
23E4
100
AcDbEntity
  8
BEM
 62
     0
100
AcDbTrace
 10
90.26457403878225
 20
172.9899463328433
 30
0.0
 11
90.26457403878225
 21
170.65661299951
 31
0.0
 12
83.26457403878226
 22
171.8232796661766
 32
0.0
 13
83.26457403878226
 23
171.8232796661766
 33
0.0
  0
SOLID
  5
2463
330
23E4
100
AcDbEntity
  8
BEM
 62
     0
100
AcDbTrace
 10
383.2645740387822
 20
172.9899463328433
 30
0.0
 11
383.2645740387822
 21
170.65661299951
 31
0.0
 12
390.2645740387823
 22
171.8232796661766
 32
0.0
 13
390.2645740387823
 23
171.8232796661766
 33
0.0
  0
MTEXT
  5
2464
330
23E4
100
AcDbEntity
  8
BEM
 62
     1
100
AcDbMText
 10
236.7645740387823
 20
178.3232796661766
 30
0.0
 40
7.0
 41
0.0
 71
     5
 72
     1
  1
\A1;307
 73
     1
 44
1.0
  0
POINT
  5
2465
330
23E4
100
AcDbEntity
  8
Defpoints
 62
     0
100
AcDbPoint
 10
83.26457403878226
 20
201.4884270191144
 30
0.0
  0
POINT
  5
2466
330
23E4
100
AcDbEntity
  8
Defpoints
 62
     0
100
AcDbPoint
 10
390.2645740387823
 20
201.4884270191144
 30
0.0
  0
POINT
  5
2467
330
23E4
100
AcDbEntity
  8
Defpoints
 62
     0
100
AcDbPoint
 10
390.2645740387823
 20
171.8232796661766
 30
0.0
  0
ENDBLK
  5
23EF
330
23E4
100
AcDbEntity
  8
0
100
AcDbBlockEnd
  0
BLOCK
  5
23FB
330
23F1
100
AcDbEntity
  8
0
100
AcDbBlockBegin
  2
*D2
 70
     1
 10
0.0
 20
0.0
 30
0.0
  3
*D2
  1

  0
LINE
  5
2456
330
23F1
100
AcDbEntity
  8
BEM
 62
     0
370
    -2
100
AcDbLine
 10
72.26457403878214
 20
210.9884270191144
 30
0.0
 11
72.26457403878214
 21
153.2905044245221
 31
0.0
  0
LINE
  5
2457
330
23F1
100
AcDbEntity
  8
BEM
 62
     0
370
    -2
100
AcDbLine
 10
401.2645740387821
 20
210.9884270191144
 30
0.0
 11
401.2645740387821
 21
153.2905044245221
 31
0.0
  0
LINE
  5
2458
330
23F1
100
AcDbEntity
  8
BEM
 62
     0
370
    -2
100
AcDbLine
 10
79.26457403878214
 20
155.2905044245221
 30
0.0
 11
394.2645740387821
 21
155.2905044245221
 31
0.0
  0
SOLID
  5
2459
330
23F1
100
AcDbEntity
  8
BEM
 62
     0
100
AcDbTrace
 10
79.26457403878214
 20
156.4571710911888
 30
0.0
 11
79.26457403878214
 21
154.1238377578555
 31
0.0
 12
72.26457403878214
 22
155.2905044245221
 32
0.0
 13
72.26457403878214
 23
155.2905044245221
 33
0.0
  0
SOLID
  5
245A
330
23F1
100
AcDbEntity
  8
BEM
 62
     0
100
AcDbTrace
 10
394.2645740387821
 20
156.4571710911888
 30
0.0
 11
394.2645740387821
 21
154.1238377578555
 31
0.0
 12
401.2645740387821
 22
155.2905044245221
 32
0.0
 13
401.2645740387821
 23
155.2905044245221
 33
0.0
  0
MTEXT
  5
245B
330
23F1
100
AcDbEntity
  8
BEM
 62
     1
100
AcDbMText
 10
236.7645740387821
 20
161.7905044245221
 30
0.0
 40
7.0
 41
0.0
 71
     5
 72
     1
  1
\A1;329
 73
     1
 44
1.0
  0
POINT
  5
245C
330
23F1
100
AcDbEntity
  8
Defpoints
 62
     0
100
AcDbPoint
 10
72.26457403878214
 20
212.9884270191144
 30
0.0
  0
POINT
  5
245D
330
23F1
100
AcDbEntity
  8
Defpoints
 62
     0
100
AcDbPoint
 10
401.2645740387821
 20
212.9884270191144
 30
0.0
  0
POINT
  5
245E
330
23F1
100
AcDbEntity
  8
Defpoints
 62
     0
100
AcDbPoint
 10
401.2645740387821
 20
155.2905044245221
 30
0.0
  0
ENDBLK
  5
23FC
330
23F1
100
AcDbEntity
  8
0
100
AcDbBlockEnd
  0
BLOCK
  5
2433
330
2427
100
AcDbEntity
  8
0
100
AcDbBlockBegin
  2
*D3
 70
     1
 10
0.0
 20
0.0
 30
0.0
  3
*D3
  1

  0
LINE
  5
244B
330
2427
100
AcDbEntity
  8
BEM
 62
     0
370
    -2
100
AcDbLine
 10
70.26457403878215
 20
417.9515324718997
 30
0.0
 11
63.18204764224219
 21
417.9515324718997
 31
0.0
  0
LINE
  5
244C
330
2427
100
AcDbEntity
  8
BEM
 62
     0
370
    -2
100
AcDbLine
 10
70.26457403878215
 20
420.9515324718998
 30
0.0
 11
63.18204764224219
 21
420.9515324718998
 31
0.0
  0
LINE
  5
244D
330
2427
100
AcDbEntity
  8
BEM
 62
     0
370
    -2
100
AcDbLine
 10
65.18204764224218
 20
410.9515324718997
 30
0.0
 11
65.18204764224218
 21
403.9515324718998
 31
0.0
  0
LINE
  5
244E
330
2427
100
AcDbEntity
  8
BEM
 62
     0
370
    -2
100
AcDbLine
 10
65.18204764224219
 20
427.9515324718998
 30
0.0
 11
65.18204764224219
 21
444.684865805233
 31
0.0
  0
LINE
  5
244F
330
2427
100
AcDbEntity
  8
BEM
 62
     0
370
    -2
100
AcDbLine
 10
65.18204764224219
 20
417.9515324718997
 30
0.0
 11
65.18204764224219
 21
420.9515324718998
 31
0.0
  0
SOLID
  5
2450
330
2427
100
AcDbEntity
  8
BEM
 62
     0
100
AcDbTrace
 10
64.01538097557551
 20
410.9515324718997
 30
0.0
 11
66.34871430890886
 21
410.9515324718997
 31
0.0
 12
65.18204764224219
 22
417.9515324718997
 32
0.0
 13
65.18204764224219
 23
417.9515324718997
 33
0.0
  0
SOLID
  5
2451
330
2427
100
AcDbEntity
  8
BEM
 62
     0
100
AcDbTrace
 10
64.01538097557552
 20
427.9515324718998
 30
0.0
 11
66.34871430890886
 21
427.9515324718998
 31
0.0
 12
65.18204764224219
 22
420.9515324718998
 32
0.0
 13
65.18204764224219
 23
420.9515324718998
 33
0.0
  0
MTEXT
  5
2452
330
2427
100
AcDbEntity
  8
BEM
 62
     1
100
AcDbMText
 10
58.68204764224213
 20
439.8181991385664
 30
0.0
 40
7.0
 41
0.0
 71
     5
 72
     1
  1
\A1;3
 11
0.0000000000000001
 21
1.0
 31
0.0
 73
     1
 44
1.0
  0
POINT
  5
2453
330
2427
100
AcDbEntity
  8
Defpoints
 62
     0
100
AcDbPoint
 10
72.26457403878214
 20
417.9515324718997
 30
0.0
  0
POINT
  5
2454
330
2427
100
AcDbEntity
  8
Defpoints
 62
     0
100
AcDbPoint
 10
72.26457403878214
 20
420.9515324718998
 30
0.0
  0
POINT
  5
2455
330
2427
100
AcDbEntity
  8
Defpoints
 62
     0
100
AcDbPoint
 10
65.18204764224219
 20
420.9515324718998
 30
0.0
  0
ENDBLK
  5
2434
330
2427
100
AcDbEntity
  8
0
100
AcDbBlockEnd
  0
BLOCK
  5
2440
330
2436
100
AcDbEntity
  8
0
100
AcDbBlockBegin
  2
*D4
 70
     1
 10
0.0
 20
0.0
 30
0.0
  3
*D4
  1

  0
LINE
  5
2442
330
2436
100
AcDbEntity
  8
BEM
 62
     0
370
    -2
100
AcDbLine
 10
234.7555740387821
 20
558.9515324718997
 30
0.0
 11
51.30766824251402
 21
558.9515324718997
 31
0.0
  0
LINE
  5
2443
330
2436
100
AcDbEntity
  8
BEM
 62
     0
370
    -2
100
AcDbLine
 10
226.9605740387822
 20
265.9515324718998
 30
0.0
 11
51.30766824251395
 21
265.9515324718999
 31
0.0
  0
LINE
  5
2444
330
2436
100
AcDbEntity
  8
BEM
 62
     0
370
    -2
100
AcDbLine
 10
53.30766824251401
 20
551.9515324718997
 30
0.0
 11
53.30766824251395
 21
272.9515324718998
 31
0.0
  0
SOLID
  5
2445
330
2436
100
AcDbEntity
  8
BEM
 62
     0
100
AcDbTrace
 10
52.14100157584734
 20
551.9515324718997
 30
0.0
 11
54.47433490918068
 21
551.9515324718997
 31
0.0
 12
53.30766824251401
 22
558.9515324718997
 32
0.0
 13
53.30766824251401
 23
558.9515324718997
 33
0.0
  0
SOLID
  5
2446
330
2436
100
AcDbEntity
  8
BEM
 62
     0
100
AcDbTrace
 10
52.14100157584729
 20
272.9515324718998
 30
0.0
 11
54.47433490918061
 21
272.9515324718998
 31
0.0
 12
53.30766824251394
 22
265.9515324718999
 32
0.0
 13
53.30766824251394
 23
265.9515324718999
 33
0.0
  0
MTEXT
  5
2447
330
2436
100
AcDbEntity
  8
BEM
 62
     1
100
AcDbMText
 10
46.80766824251391
 20
412.4515324718998
 30
0.0
 40
7.0
 41
0.0
 71
     5
 72
     1
  1
\A1;293
 11
0.0000000000000001
 21
1.0
 31
0.0
 73
     1
 44
1.0
  0
POINT
  5
2448
330
2436
100
AcDbEntity
  8
Defpoints
 62
     0
100
AcDbPoint
 10
236.7555740387821
 20
558.9515324718997
 30
0.0
  0
POINT
  5
2449
330
2436
100
AcDbEntity
  8
Defpoints
 62
     0
100
AcDbPoint
 10
228.9605740387822
 20
265.9515324718998
 30
0.0
  0
POINT
  5
244A
330
2436
100
AcDbEntity
  8
Defpoints
 62
     0
100
AcDbPoint
 10
53.30766824251394
 20
265.9515324718999
 30
0.0
  0
ENDBLK
  5
2441
330
2436
100
AcDbEntity
  8
0
100
AcDbBlockEnd
  0
BLOCK
  5
2472
330
246A
100
AcDbEntity
  8
0
100
AcDbBlockBegin
  2
*D5
 70
     1
 10
0.0
 20
0.0
 30
0.0
  3
*D5
  1

  0
LINE
  5
247B
330
246A
100
AcDbEntity
  8
BEM
 62
     0
370
    -2
100
AcDbLine
 10
143.041259186295
 20
320.182882834319
 30
0.0
 11
143.0194406728738
 21
320.2028557172821
 31
0.0
  0
LINE
  5
247C
330
246A
100
AcDbEntity
  8
BEM
 62
     0
370
    -2
100
AcDbLine
 10
327.376472679318
 20
521.5519259026871
 30
0.0
 11
327.3546541658968
 21
521.5718987856503
 31
0.0
  0
LINE
  5
247D
330
246A
100
AcDbEntity
  8
BEM
 62
     0
370
    -2
100
AcDbLine
 10
149.2212172560901
 20
324.0157243501974
 30
0.0
 11
324.1033404956495
 21
515.0581472231739
 31
0.0
  0
SOLID
  5
247E
330
246A
100
AcDbEntity
  8
BEM
 62
     0
100
AcDbTrace
 10
148.3606655731408
 20
324.8034818713194
 30
0.0
 11
150.0817689390395
 21
323.2279668290754
 31
0.0
 12
144.4946721293583
 22
318.8524142525016
 32
0.0
 13
144.4946721293583
 23
318.8524142525016
 33
0.0
  0
SOLID
  5
247F
330
246A
100
AcDbEntity
  8
BEM
 62
     0
100
AcDbTrace
 10
323.2427888127002
 20
515.8459047442959
 30
0.0
 11
324.9638921785988
 21
514.2703897020519
 31
0.0
 12
328.8298856223813
 22
520.2214573208697
 32
0.0
 13
328.8298856223813
 23
520.2214573208697
 33
0.0
  0
MTEXT
  5
2480
330
246A
100
AcDbEntity
  8
BEM
 62
     1
100
AcDbMText
 10
261.3325773607427
 20
456.1134195913907
 30
0.0
 40
7.0
 41
0.0
 71
     5
 72
     1
  1
\A1;273
 11
0.6752207323902585
 21
0.7376157282422624
 31
0.0
 73
     1
 44
1.0
  0
POINT
  5
2481
330
246A
100
AcDbEntity
  8
Defpoints
 62
     0
100
AcDbPoint
 10
144.5164906427796
 20
318.8324413695385
 30
0.0
  0
POINT
  5
2482
330
246A
100
AcDbEntity
  8
Defpoints
 62
     0
100
AcDbPoint
 10
328.8517041358026
 20
520.2014844379066
 30
0.0
  0
POINT
  5
2483
330
246A
100
AcDbEntity
  8
Defpoints
 62
     0
100
AcDbPoint
 10
328.8298856223813
 20
520.2214573208697
 30
0.0
  0
ENDBLK
  5
2473
330
246A
100
AcDbEntity
  8
0
100
AcDbBlockEnd
  0
BLOCK
  5
2679
330
266F
100
AcDbEntity
  8
0
100
AcDbBlockBegin
  2
*D6
 70
     1
 10
0.0
 20
0.0
 30
0.0
  3
*D6
  1

  0
LINE
  5
2670
330
266F
100
AcDbEntity
  8
BEM
 62
     0
370
    -2
100
AcDbLine
 10
75.62357403878218
 20
192.9884270191144
 30
0.0
 11
56.16714051952612
 21
192.9884270191144
 31
0.0
  0
LINE
  5
2671
330
266F
100
AcDbEntity
  8
BEM
 62
     0
370
    -2
100
AcDbLine
 10
75.62357403878218
 20
232.9884270191144
 30
0.0
 11
56.16714051952612
 21
232.9884270191144
 31
0.0
  0
LINE
  5
2672
330
266F
100
AcDbEntity
  8
BEM
 62
     0
370
    -2
100
AcDbLine
 10
58.16714051952612
 20
199.9884270191144
 30
0.0
 11
58.16714051952613
 21
225.9884270191144
 31
0.0
  0
SOLID
  5
2673
330
266F
100
AcDbEntity
  8
BEM
 62
     0
100
AcDbTrace
 10
57.00047385285945
 20
199.9884270191144
 30
0.0
 11
59.33380718619279
 21
199.9884270191144
 31
0.0
 12
58.16714051952612
 22
192.9884270191144
 32
0.0
 13
58.16714051952612
 23
192.9884270191144
 33
0.0
  0
SOLID
  5
2674
330
266F
100
AcDbEntity
  8
BEM
 62
     0
100
AcDbTrace
 10
57.00047385285946
 20
225.9884270191144
 30
0.0
 11
59.33380718619279
 21
225.9884270191144
 31
0.0
 12
58.16714051952613
 22
232.9884270191144
 32
0.0
 13
58.16714051952613
 23
232.9884270191144
 33
0.0
  0
MTEXT
  5
2675
330
266F
100
AcDbEntity
  8
BEM
 62
     1
100
AcDbMText
 10
51.6671405195261
 20
212.9884270191144
 30
0.0
 40
7.0
 41
0.0
 71
     5
 72
     1
  1
\A1;40
 11
0.0000000000000001
 21
1.0
 31
0.0
 73
     1
 44
1.0
  0
POINT
  5
2676
330
266F
100
AcDbEntity
  8
Defpoints
 62
     0
100
AcDbPoint
 10
77.62357403878218
 20
192.9884270191144
 30
0.0
  0
POINT
  5
2677
330
266F
100
AcDbEntity
  8
Defpoints
 62
     0
100
AcDbPoint
 10
77.62357403878218
 20
232.9884270191144
 30
0.0
  0
POINT
  5
2678
330
266F
100
AcDbEntity
  8
Defpoints
 62
     0
100
AcDbPoint
 10
58.16714051952613
 20
232.9884270191144
 30
0.0
  0
ENDBLK
  5
267A
330
266F
100
AcDbEntity
  8
0
100
AcDbBlockEnd
  0
ENDSEC
  0
SECTION
  2
ENTITIES
  0
LINE
  5
57
330
1E
100
AcDbEntity
  8
STEMPEL
100
AcDbLine
 10
410.0
 20
110.0
 30
0.0
 11
39.99999999999997
 21
110.0
 31
0.0
  0
LINE
  5
58
330
1E
100
AcDbEntity
  8
STEMPEL
100
AcDbLine
 10
136.0000000000001
 20
109.9999999999999
 30
0.0
 11
136.0
 21
9.999999999999971
 31
0.0
  0
LINE
  5
59
330
1E
100
AcDbEntity
  8
STEMPEL
100
AcDbLine
 10
220.0
 20
110.0
 30
0.0
 11
220.0
 21
9.999999999999971
 31
0.0
  0
LINE
  5
5A
330
1E
100
AcDbEntity
  8
STEMPEL
100
AcDbLine
 10
332.0
 20
109.9999999999997
 30
0.0
 11
332.0
 21
40.0
 31
0.0
  0
LINE
  5
5B
330
1E
100
AcDbEntity
  8
STEMPEL
100
AcDbLine
 10
135.9999999999999
 20
29.99999999999997
 30
0.0
 11
39.99999999999997
 21
29.99999999999997
 31
0.0
  0
LINE
  5
5C
330
1E
100
AcDbEntity
  8
STEMPEL
100
AcDbLine
 10
410.0
 20
40.0
 30
0.0
 11
136.0000000000001
 21
39.99999999999997
 31
0.0
  0
LINE
  5
5D
330
1E
100
AcDbEntity
  8
STEMPEL
100
AcDbLine
 10
410.0
 20
80.0
 30
0.0
 11
136.0000000000001
 21
79.99999999999994
 31
0.0
  0
LINE
  5
5E
330
1E
100
AcDbEntity
  8
VOLL
100
AcDbLine
 10
54.00000000000009
 20
110.0
 30
0.0
 11
53.99999999999997
 21
9.999999999999971
 31
0.0
  0
LINE
  5
5F
330
1E
100
AcDbEntity
  8
VOLL
100
AcDbLine
 10
94.00000000000011
 20
109.9999999999999
 30
0.0
 11
94.0
 21
9.999999999999971
 31
0.0
  0
LINE
  5
60
330
1E
100
AcDbEntity
  8
VOLL
100
AcDbLine
 10
114.0000000000001
 20
109.9999999999999
 30
0.0
 11
114.0
 21
9.999999999999971
 31
0.0
  0
LINE
  5
61
330
1E
100
AcDbEntity
  8
VOLL
100
AcDbLine
 10
154.0000000000001
 20
79.99999999999994
 30
0.0
 11
154.0000000000001
 21
39.99999999999997
 31
0.0
  0
LINE
  5
62
330
1E
100
AcDbEntity
  8
VOLL
100
AcDbLine
 10
180.0000000000001
 20
109.9999999999998
 30
0.0
 11
180.0
 21
39.99999999999997
 31
0.0
  0
LINE
  5
63
330
1E
100
AcDbEntity
  8
HILF
100
AcDbLine
 10
40.00000000000008
 20
100.0
 30
0.0
 11
136.0000000000001
 21
100.0
 31
0.0
  0
LINE
  5
64
330
1E
100
AcDbEntity
  8
HILF
100
AcDbLine
 10
40.00000000000008
 20
90.00000000000005
 30
0.0
 11
136.0000000000001
 21
90.00000000000005
 31
0.0
  0
LINE
  5
65
330
1E
100
AcDbEntity
  8
HILF
100
AcDbLine
 10
40.00000000000008
 20
79.99999999999994
 30
0.0
 11
136.0000000000001
 21
79.99999999999994
 31
0.0
  0
LINE
  5
66
330
1E
100
AcDbEntity
  8
HILF
100
AcDbLine
 10
40.00000000000008
 20
69.99999999999994
 30
0.0
 11
136.0000000000001
 21
69.99999999999994
 31
0.0
  0
LINE
  5
67
330
1E
100
AcDbEntity
  8
HILF
100
AcDbLine
 10
40.00000000000008
 20
59.99999999999997
 30
0.0
 11
136.0000000000001
 21
59.99999999999997
 31
0.0
  0
LINE
  5
68
330
1E
100
AcDbEntity
  8
HILF
100
AcDbLine
 10
40.00000000000008
 20
49.99999999999997
 30
0.0
 11
136.0000000000001
 21
49.99999999999997
 31
0.0
  0
LINE
  5
69
330
1E
100
AcDbEntity
  8
HILF
100
AcDbLine
 10
40.00000000000008
 20
39.99999999999997
 30
0.0
 11
136.0000000000001
 21
39.99999999999997
 31
0.0
  0
LINE
  5
6A
330
1E
100
AcDbEntity
  8
HILF
100
AcDbLine
 10
136.0000000000001
 20
69.99999999999994
 30
0.0
 11
220.0
 21
69.99999999999994
 31
0.0
  0
LINE
  5
6B
330
1E
100
AcDbEntity
  8
HILF
100
AcDbLine
 10
136.0000000000001
 20
59.99999999999997
 30
0.0
 11
220.0
 21
59.99999999999997
 31
0.0
  0
LINE
  5
6C
330
1E
100
AcDbEntity
  8
HILF
100
AcDbLine
 10
136.0000000000001
 20
49.99999999999997
 30
0.0
 11
220.0
 21
49.99999999999997
 31
0.0
  0
LINE
  5
6D
330
1E
100
AcDbEntity
  8
HILF
100
AcDbLine
 10
224.7736801096948
 20
84.03758247564139
 30
0.0
 11
324.8353916556311
 21
84.03758247564139
 31
0.0
  0
LINE
  5
6E
330
1E
100
AcDbEntity
  8
HILF
100
AcDbLine
 10
224.7736801096948
 20
69.99999999999994
 30
0.0
 11
324.835391655631
 21
69.99999999999994
 31
0.0
  0
LINE
  5
6F
330
1E
100
AcDbEntity
  8
HILF
100
AcDbLine
 10
224.7736801096948
 20
59.99999999999997
 30
0.0
 11
324.835391655631
 21
59.99999999999997
 31
0.0
  0
LINE
  5
70
330
1E
100
AcDbEntity
  8
HILF
100
AcDbLine
 10
224.7736801096948
 20
49.99999999999997
 30
0.0
 11
324.835391655631
 21
49.99999999999997
 31
0.0
  0
LINE
  5
71
330
1E
100
AcDbEntity
  8
VOLL
100
AcDbLine
 10
332.0
 20
60.0
 30
0.0
 11
410.0
 21
60.0
 31
0.0
  0
LINE
  5
72
330
1E
100
AcDbEntity
  8
HILF
100
AcDbLine
 10
336.7238616296993
 20
83.77983636955827
 30
0.0
 11
404.8588839326728
 21
83.77983636955827
 31
0.0
  0
LINE
  5
73
330
1E
100
AcDbEntity
  8
HILF
100
AcDbLine
 10
223.4909699289885
 20
14.89398258028314
 30
0.0
 11
404.8588839326728
 21
14.89398258028314
 31
0.0
  0
TEXT
  5
74
330
1E
100
AcDbEntity
  8
TEXT
100
AcDbText
 10
63.86165979631819
 20
18.67381894984132
 30
0.0
 40
4.0
  1
Änderung
 41
0.8
  7
GREEKS
 72
     1
 11
74.60451693917534
 21
18.67381894984132
 31
0.0
100
AcDbText
  0
TEXT
  5
75
330
1E
100
AcDbEntity
  8
TEXT
100
AcDbText
 10
143.5163572150377
 20
102.4620895087088
 30
0.0
 40
5.0
  1
Maßstab
 41
0.8
  7
GREEKS
100
AcDbText
  0
TEXT
  5
76
330
1E
100
AcDbEntity
  8
TEXT
100
AcDbText
 10
184.2858954734051
 20
102.4184168434819
 30
0.0
 40
5.0
  1
Zul. Abw.
 41
0.8
  7
GREEKS
100
AcDbText
  0
TEXT
  5
77
330
1E
100
AcDbEntity
  8
TEXT
100
AcDbText
 10
224.877940380901
 20
102.5489328011779
 30
0.0
 40
5.0
  1
Benennung
 41
0.8
  7
GREEKS
100
AcDbText
  0
TEXT
  5
78
330
1E
100
AcDbEntity
  8
TEXT
100
AcDbText
 10
336.178754957634
 20
102.3132034537136
 30
0.0
 40
5.0
  1
Zeichnungs Nr.
 41
0.8
  7
GREEKS
100
AcDbText
  0
TEXT
  5
79
330
1E
100
AcDbEntity
  8
TEXT
100
AcDbText
 10
224.742238391136
 20
30.84560570193057
 30
0.0
 40
5.0
  1
Bauvorhaben
 41
0.8
  7
GREEKS
100
AcDbText
  0
TEXT
  5
7A
330
1E
100
AcDbEntity
  8
TEXT
100
AcDbText
 10
336.7238616296993
 20
73.1811823709997
 30
0.0
 40
5.0
  1
Ersatz für:
 41
0.8
  7
GREEKS
100
AcDbText
  0
TEXT
  5
7B
330
1E
100
AcDbEntity
  8
TEXT
100
AcDbText
 10
48.26641107045756
 20
13.65465846027192
 30
0.0
 40
4.0
  1
Index
 50
90.0
 41
0.8
  7
GREEKS
100
AcDbText
  0
TEXT
  5
7C
330
1E
100
AcDbEntity
  8
TEXT
100
AcDbText
 10
100.0934676075481
 20
18.6715626933981
 30
0.0
 40
4.0
  1
Tag
 41
0.8
  7
GREEKS
 72
     1
 11
103.8268009408814
 21
18.6715626933981
 31
0.0
100
AcDbText
  0
TEXT
  5
7D
330
1E
100
AcDbEntity
  8
TEXT
100
AcDbText
 10
119.0122744386592
 20
18.59324216966408
 30
0.0
 40
4.0
  1
Name
 41
0.8
  7
GREEKS
 72
     1
 11
125.3360839624688
 21
18.59324216966408
 31
0.0
100
AcDbText
  0
TEXT
  5
7E
330
1E
100
AcDbEntity
  8
TEXT
100
AcDbText
 10
162.3311673153651
 20
73.31880501229926
 30
0.0
 40
4.0
  1
Tag
 41
0.8
  7
GREEKS
100
AcDbText
  0
TEXT
  5
7F
330
1E
100
AcDbEntity
  8
TEXT
100
AcDbText
 10
192.4626584226295
 20
73.30961091915225
 30
0.0
 40
4.0
  1
Name
 41
0.8
  7
GREEKS
100
AcDbText
  0
TEXT
  5
80
330
1E
100
AcDbEntity
  8
TEXT
100
AcDbText
 10
137.5836127167615
 20
63.62990369617964
 30
0.0
 40
4.0
  1
Gez.
 41
0.8
  7
GREEKS
100
AcDbText
  0
TEXT
  5
81
330
1E
100
AcDbEntity
  8
TEXT
100
AcDbText
 10
137.5515086571672
 20
53.68926291428377
 30
0.0
 40
4.0
  1
Gepr.
 41
0.8
  7
GREEKS
100
AcDbText
  0
TEXT
  5
82
330
1E
100
AcDbEntity
  8
TEXT
100
AcDbText
 10
137.6006777387304
 20
43.52946389649807
 30
0.0
 40
4.0
  1
Norm.
 41
0.8
  7
GREEKS
100
AcDbText
  0
LINE
  5
83
330
1E
100
AcDbEntity
  8
STEMPEL
100
AcDbLine
 10
49.99999999999989
 20
10.0
 30
0.0
 11
410.0
 21
10.0
 31
0.0
  0
TEXT
  5
84
330
1E
100
AcDbEntity
  8
TEXT
100
AcDbText
 10
337.2400861497006
 20
52.07416177878602
 30
0.0
 40
5.0
  1
ersetzt durch:
 41
0.8
  7
GREEKS
100
AcDbText
  0
LINE
  5
85
330
1E
100
AcDbEntity
  8
STEMPEL
100
AcDbLine
 10
410.0
 20
10.0
 30
0.0
 11
39.99999999999989
 21
10.0
 31
0.0
  0
LINE
  5
86
330
1E
100
AcDbEntity
  8
STEMPEL
100
AcDbLine
 10
410.0
 20
10.0
 30
0.0
 11
410.0
 21
584.0
 31
0.0
  0
LINE
  5
87
330
1E
100
AcDbEntity
  8
STEMPEL
100
AcDbLine
 10
40.0
 20
10.0
 30
0.0
 11
39.99999999999989
 21
584.0
 31
0.0
  0
LINE
  5
88
330
1E
100
AcDbEntity
  8
STEMPEL
100
AcDbLine
 10
410.0
 20
584.0
 30
0.0
 11
39.99999999999989
 21
584.0
 31
0.0
  0
LINE
  5
89
330
1E
100
AcDbEntity
  8
HILF
100
AcDbLine
 10
0.0
 20
0.0
 30
0.0
 11
-0.0000000000001137
 21
594.0
 31
0.0
  0
LINE
  5
8A
330
1E
100
AcDbEntity
  8
HILF
100
AcDbLine
 10
419.9999999999999
 20
594.0000000000002
 30
0.0
 11
0.0
 21
594.0
 31
0.0
  0
LINE
  5
8B
330
1E
100
AcDbEntity
  8
HILF
100
AcDbLine
 10
420.0
 20
0.0
 30
0.0
 11
0.0
 21
0.0
 31
0.0
  0
LINE
  5
8C
330
1E
100
AcDbEntity
  8
HILF
100
AcDbLine
 10
31.08767135713856
 20
297.0
 30
0.0
 11
0.0000000000001137
 21
297.0
 31
0.0
  0
TEXT
  5
8D
330
1E
100
AcDbEntity
  8
TEXT
100
AcDbText
 10
138.622109822104
 20
73.14025471151666
 30
0.0
 40
4.0
  1
2012
 41
0.8
  7
GREEKS
100
AcDbText
  0
LINE
  5
8E
330
1E
100
AcDbEntity
  8
HILF
100
AcDbLine
 10
420.0
 20
-0.0000000000001137
 30
0.0
 11
419.9999999999999
 21
594.0
 31
0.0
  0
TEXT
  5
8F
330
1E
100
AcDbEntity
  8
VOLL
100
AcDbText
 10
78.07675471698113
 20
31.02594776470585
 30
0.0
 40
1.8
  1

  7
GREEKS
100
AcDbText
  0
TEXT
  5
90
330
1E
100
AcDbEntity
  8
TEXT
100
AcDbText
 10
41.85509950977674
 20
111.6719999999999
 30
0.0
 40
5.0
  1
Erstellt mit AUTOCAD 2004
 41
0.8
  7
GREEKS
100
AcDbText
  0
TEXT
  5
91
330
1E
100
AcDbEntity
  8
TEXT
100
AcDbText
 10
194.4216048581257
 20
63.0896391972351
 30
0.0
 40
4.0
  1
Koeh
 41
0.8
  7
GREEKS
 72
     1
 11
199.6787477152685
 21
63.0896391972351
 31
0.0
100
AcDbText
  0
TEXT
  5
92
330
1E
100
AcDbEntity
  8
TEXT
 62
     1
100
AcDbText
 10
345.7721576428681
 20
88.14901428913959
 30
0.0
 40
7.0
  1
00977250W
 41
0.8
  7
GREEKS
 72
     1
 11
369.7721576428681
 21
88.14901428913959
 31
0.0
100
AcDbText
  0
TEXT
  5
93
330
1E
100
AcDbEntity
  8
TEXT
 62
     1
100
AcDbText
 10
150.5006306481887
 20
88.14901428913959
 30
0.0
 40
7.0
  1
1:2
 41
0.8
  7
GREEKS
100
AcDbText
  0
TEXT
  5
94
330
1E
100
AcDbEntity
  8
TEXT
100
AcDbText
 10
160.7037590129979
 20
63.10765040825732
 30
0.0
 40
4.0
  1
29.10.
 41
0.8
  7
GREEKS
 72
     1
 11
167.4085209177598
 21
63.10765040825732
 31
0.0
100
AcDbText
  0
TEXT
  5
95
330
1E
100
AcDbEntity
  8
TEXT
 62
     1
100
AcDbText
 10
226.8935731057402
 20
87.41748789253779
 30
0.0
 40
7.0
  1
Rohrschelle DN250
 41
0.8
  7
GREEKS
100
AcDbText
  0
TEXT
  5
96
330
1E
100
AcDbEntity
  8
TEXT
100
AcDbText
 10
225.1296391125315
 20
71.50334417585288
 30
0.0
 40
5.0
  1
mit Anschlußgewinde M12
 41
0.8
  7
GREEKS
100
AcDbText
  0
TEXT
  5
98
330
1E
100
AcDbEntity
  8
TEXT
100
AcDbText
 10
225.1296391125315
 20
51.64011943042158
 30
0.0
 40
5.0
  1
EDV-Art.Nr. 00977.250X
 41
0.8
  7
GREEKS
100
AcDbText
  0
TEXT
  5
99
330
1E
100
AcDbEntity
  8
TEXT
100
AcDbText
 10
224.9837501577827
 20
42.62974153022632
 30
0.0
 40
4.0
  1
00977250W.DWG
 41
0.8
  7
GREEKS
100
AcDbText
  0
TEXT
  5
9A
330
1E
100
AcDbEntity
  8
TEXT
100
AcDbText
 10
182.626132208084
 20
90.76363841023022
 30
0.0
 40
4.0
  1
DIN EN1123-2
 41
0.8
  7
GREEKS
 72
     1
 11
199.6166083985602
 21
90.76363841023022
 31
0.0
100
AcDbText
  0
INSERT
  5
9B
330
1E
100
AcDbEntity
  8
STEMPEL
100
AcDbBlockReference
  2
LOGO
 10
140.9955485457794
 20
45.02105276448322
 30
0.0
 41
2.0
 42
2.0
 43
2.0
  0
TEXT
  5
118
330
1E
100
AcDbEntity
  8
BEM
100
AcDbText
 10
417.3022923857165
 20
10.16790107998849
 30
0.0
 40
4.0
  1
Diese Zeichnung ist urheberrechtlich geschützt und bleibt unser Eigentum. Sie darf weder ganz noch teilweise verfielfältigt und nicht an Dritte weitergegeben werden.
 50
90.0
 41
0.8
  7
GREEKS
100
AcDbText
  0
LINE
  5
7BC
330
1E
100
AcDbEntity
  8
TEXT
 62
     2
100
AcDbLine
 10
403.3109833157054
 20
549.2656638739422
 30
0.0
 11
395.1436998752388
 21
426.8531930749204
 31
0.0
  0
LINE
  5
7BD
330
1E
100
AcDbEntity
  8
TEXT
 62
     2
100
AcDbLine
 10
328.309301498075
 20
549.2656638739422
 30
0.0
 11
403.3109833157054
 21
549.2656638739422
 31
0.0
  0
TEXT
  5
7BE
330
1E
100
AcDbEntity
  8
TEXT
 62
     1
100
AcDbText
 10
330.4291944941204
 20
552.6455692908387
 30
0.0
 40
7.0
  1
Schraube M8x30
 41
0.8
  7
GREEKS
100
AcDbText
  0
TEXT
  5
7BF
330
1E
100
AcDbEntity
  8
TEXT
 62
     1
100
AcDbText
 10
247.3327426589839
 20
247.3132363765815
 30
0.0
 40
7.0
  1
M12
 41
0.8
  7
GREEKS
100
AcDbText
  0
LINE
  5
7C0
330
1E
100
AcDbEntity
  8
TEXT
 62
     2
100
AcDbLine
 10
245.2128496629383
 20
243.9333309596852
 30
0.0
 11
263.1767627331363
 21
243.9333309596852
 31
0.0
  0
LINE
  5
7C1
330
1E
100
AcDbEntity
  8
TEXT
 62
     2
100
AcDbLine
 10
245.2128496629383
 20
243.9333309596852
 30
0.0
 11
236.7555740387821
 21
265.9515324718997
 31
0.0
  0
LINE
  5
231B
330
1E
100
AcDbEntity
  8
HILF
100
AcDbLine
 10
386.9965740387822
 20
393.9515324718998
 30
0.0
 11
386.9965740387822
 21
411.9515324718998
 31
0.0
  0
LINE
  5
231C
330
1E
100
AcDbEntity
  8
HILF
100
AcDbLine
 10
393.4965740387822
 20
393.9515324718998
 30
0.0
 11
393.4965740387822
 21
411.9515324718998
 31
0.0
  0
LINE
  5
231D
330
1E
100
AcDbEntity
  8
STEMPEL
100
AcDbLine
 10
394.2465740387822
 20
394.7015324718998
 30
0.0
 11
386.2465740387822
 21
394.7015324718998
 31
0.0
  0
LINE
  5
231E
330
1E
100
AcDbEntity
  8
HILF
100
AcDbLine
 10
386.9965740387822
 20
419.7015324718997
 30
0.0
 11
386.9965740387822
 21
420.9515324718998
 31
0.0
  0
LINE
  5
231F
330
1E
100
AcDbEntity
  8
HILF
100
AcDbLine
 10
386.9965740387822
 20
417.9515324718997
 30
0.0
 11
386.9965740387822
 21
419.2015324718997
 31
0.0
  0
LINE
  5
2320
330
1E
100
AcDbEntity
  8
HILF
100
AcDbLine
 10
393.4965740387822
 20
419.7015324718997
 30
0.0
 11
393.4965740387822
 21
420.9515324718998
 31
0.0
  0
LINE
  5
2321
330
1E
100
AcDbEntity
  8
HILF
100
AcDbLine
 10
393.4965740387822
 20
417.9515324718997
 30
0.0
 11
393.4965740387822
 21
419.2015324718997
 31
0.0
  0
LINE
  5
2322
330
1E
100
AcDbEntity
  8
STEMPEL
100
AcDbLine
 10
386.2465740387822
 20
419.7015324718997
 30
0.0
 11
386.2465740387822
 21
420.9515324718998
 31
0.0
  0
LINE
  5
2323
330
1E
100
AcDbEntity
  8
STEMPEL
100
AcDbLine
 10
386.2465740387822
 20
417.9515324718997
 30
0.0
 11
386.2465740387822
 21
419.2015324718997
 31
0.0
  0
LINE
  5
2324
330
1E
100
AcDbEntity
  8
STEMPEL
100
AcDbLine
 10
394.2465740387822
 20
419.2015324718997
 30
0.0
 11
394.2465740387822
 21
417.9515324718997
 31
0.0
  0
LINE
  5
2325
330
1E
100
AcDbEntity
  8
STEMPEL
100
AcDbLine
 10
394.2465740387822
 20
420.9515324718998
 30
0.0
 11
394.2465740387822
 21
419.7015324718997
 31
0.0
  0
ARC
  5
2326
330
1E
100
AcDbEntity
  8
STEMPEL
100
AcDbCircle
 10
390.2465740387822
 20
418.0935324718998
 30
0.0
 40
11.158
100
AcDbArc
 50
95.91552076700034
 51
109.652859632001
  0
ARC
  5
2327
330
1E
100
AcDbEntity
  8
STEMPEL
100
AcDbCircle
 10
390.2465740387822
 20
418.0935324718998
 30
0.0
 40
11.158
100
AcDbArc
 50
70.34714036799893
 51
84.08447923299966
  0
LINE
  5
2328
330
1E
100
AcDbEntity
  8
STEMPEL
100
AcDbLine
 10
389.0965740387821
 20
429.2515324718998
 30
0.0
 11
384.6175740387821
 21
429.2515324718998
 31
0.0
  0
LINE
  5
2329
330
1E
100
AcDbEntity
  8
STEMPEL
100
AcDbLine
 10
389.0965740387821
 20
426.7515324718997
 30
0.0
 11
389.0965740387821
 21
429.2515324718998
 31
0.0
  0
LINE
  5
232A
330
1E
100
AcDbEntity
  8
STEMPEL
100
AcDbLine
 10
391.3965740387821
 20
426.7515324718997
 30
0.0
 11
389.0965740387821
 21
426.7515324718997
 31
0.0
  0
LINE
  5
232B
330
1E
100
AcDbEntity
  8
STEMPEL
100
AcDbLine
 10
391.3965740387821
 20
429.2515324718998
 30
0.0
 11
391.3965740387821
 21
426.7515324718997
 31
0.0
  0
LINE
  5
232C
330
1E
100
AcDbEntity
  8
STEMPEL
100
AcDbLine
 10
395.8755740387821
 20
429.2515324718998
 30
0.0
 11
391.3965740387821
 21
429.2515324718998
 31
0.0
  0
LINE
  5
232D
330
1E
100
AcDbEntity
  8
STEMPEL
100
AcDbLine
 10
386.2465740387822
 20
394.7015324718998
 30
0.0
 11
386.2465740387822
 21
411.9515324718998
 31
0.0
  0
LINE
  5
232E
330
1E
100
AcDbEntity
  8
STEMPEL
100
AcDbLine
 10
386.9965740387822
 20
393.9515324718998
 30
0.0
 11
386.2465740387822
 21
394.7015324718998
 31
0.0
  0
LINE
  5
232F
330
1E
100
AcDbEntity
  8
STEMPEL
100
AcDbLine
 10
393.4965740387822
 20
393.9515324718998
 30
0.0
 11
386.9965740387822
 21
393.9515324718998
 31
0.0
  0
LINE
  5
2330
330
1E
100
AcDbEntity
  8
STEMPEL
100
AcDbLine
 10
394.2465740387822
 20
394.7015324718998
 30
0.0
 11
393.4965740387822
 21
393.9515324718998
 31
0.0
  0
LINE
  5
2331
330
1E
100
AcDbEntity
  8
STEMPEL
100
AcDbLine
 10
394.2465740387822
 20
411.9515324718998
 30
0.0
 11
394.2465740387822
 21
394.7015324718998
 31
0.0
  0
LINE
  5
2332
330
1E
100
AcDbEntity
  8
STEMPEL
100
AcDbLine
 10
393.9995740387822
 20
428.6015324718997
 30
0.0
 11
393.9995740387822
 21
423.9515324718998
 31
0.0
  0
ARC
  5
2333
330
1E
100
AcDbEntity
  8
STEMPEL
100
AcDbCircle
 10
395.8755740387821
 20
426.2185324718998
 30
0.0
 40
3.032999999999999
100
AcDbArc
 50
90.0
 51
128.2132107020002
  0
ARC
  5
2334
330
1E
100
AcDbEntity
  8
STEMPEL
100
AcDbCircle
 10
395.8755740387821
 20
426.2185324718998
 30
0.0
 40
3.032999999999999
100
AcDbArc
 50
51.78678929799973
 51
90.0
  0
LINE
  5
2335
330
1E
100
AcDbEntity
  8
STEMPEL
100
AcDbLine
 10
397.7515740387821
 20
423.9515324718998
 30
0.0
 11
397.7515740387821
 21
428.6015324718997
 31
0.0
  0
LINE
  5
2336
330
1E
100
AcDbEntity
  8
STEMPEL
100
AcDbLine
 10
394.6465740387821
 20
423.9515324718998
 30
0.0
 11
397.7515740387821
 21
423.9515324718998
 31
0.0
  0
LINE
  5
2337
330
1E
100
AcDbEntity
  8
STEMPEL
100
AcDbLine
 10
385.8465740387821
 20
423.9515324718998
 30
0.0
 11
394.6465740387821
 21
423.9515324718998
 31
0.0
  0
LINE
  5
2338
330
1E
100
AcDbEntity
  8
STEMPEL
100
AcDbLine
 10
382.7405740387821
 20
423.9515324718998
 30
0.0
 11
385.8465740387821
 21
423.9515324718998
 31
0.0
  0
LINE
  5
2339
330
1E
100
AcDbEntity
  8
STEMPEL
100
AcDbLine
 10
382.7405740387821
 20
428.6015324718997
 30
0.0
 11
382.7405740387821
 21
423.9515324718998
 31
0.0
  0
ARC
  5
233A
330
1E
100
AcDbEntity
  8
STEMPEL
100
AcDbCircle
 10
384.6175740387821
 20
426.2185324718998
 30
0.0
 40
3.032999999999999
100
AcDbArc
 50
90.0
 51
128.2132107020002
  0
ARC
  5
233B
330
1E
100
AcDbEntity
  8
STEMPEL
100
AcDbCircle
 10
384.6175740387821
 20
426.2185324718998
 30
0.0
 40
3.032999999999999
100
AcDbArc
 50
51.78678929799973
 51
90.0
  0
LINE
  5
233C
330
1E
100
AcDbEntity
  8
STEMPEL
100
AcDbLine
 10
386.4935740387822
 20
423.9515324718998
 30
0.0
 11
386.4935740387822
 21
428.6015324718997
 31
0.0
  0
LINE
  5
233D
330
1E
100
AcDbEntity
  8
HILF
100
AcDbLine
 10
80.01457403878214
 20
393.9515324718998
 30
0.0
 11
80.01457403878214
 21
411.9515324718998
 31
0.0
  0
LINE
  5
233E
330
1E
100
AcDbEntity
  8
HILF
100
AcDbLine
 10
86.51457403878215
 20
393.9515324718998
 30
0.0
 11
86.51457403878215
 21
411.9515324718998
 31
0.0
  0
LINE
  5
233F
330
1E
100
AcDbEntity
  8
STEMPEL
100
AcDbLine
 10
87.26457403878214
 20
394.7015324718998
 30
0.0
 11
79.26457403878214
 21
394.7015324718998
 31
0.0
  0
LINE
  5
2340
330
1E
100
AcDbEntity
  8
HILF
100
AcDbLine
 10
80.01457403878214
 20
419.7015324718997
 30
0.0
 11
80.01457403878214
 21
420.9515324718998
 31
0.0
  0
LINE
  5
2341
330
1E
100
AcDbEntity
  8
HILF
100
AcDbLine
 10
80.01457403878214
 20
417.9515324718997
 30
0.0
 11
80.01457403878214
 21
419.2015324718997
 31
0.0
  0
LINE
  5
2342
330
1E
100
AcDbEntity
  8
HILF
100
AcDbLine
 10
86.51457403878215
 20
419.7015324718997
 30
0.0
 11
86.51457403878215
 21
420.9515324718998
 31
0.0
  0
LINE
  5
2343
330
1E
100
AcDbEntity
  8
HILF
100
AcDbLine
 10
86.51457403878215
 20
417.9515324718997
 30
0.0
 11
86.51457403878215
 21
419.2015324718997
 31
0.0
  0
LINE
  5
2344
330
1E
100
AcDbEntity
  8
STEMPEL
100
AcDbLine
 10
79.26457403878214
 20
419.7015324718997
 30
0.0
 11
79.26457403878214
 21
420.9515324718998
 31
0.0
  0
LINE
  5
2345
330
1E
100
AcDbEntity
  8
STEMPEL
100
AcDbLine
 10
79.26457403878214
 20
417.9515324718997
 30
0.0
 11
79.26457403878214
 21
419.2015324718997
 31
0.0
  0
LINE
  5
2346
330
1E
100
AcDbEntity
  8
STEMPEL
100
AcDbLine
 10
87.26457403878214
 20
419.2015324718997
 30
0.0
 11
87.26457403878214
 21
417.9515324718997
 31
0.0
  0
LINE
  5
2347
330
1E
100
AcDbEntity
  8
STEMPEL
100
AcDbLine
 10
87.26457403878214
 20
420.9515324718998
 30
0.0
 11
87.26457403878214
 21
419.7015324718997
 31
0.0
  0
ARC
  5
2348
330
1E
100
AcDbEntity
  8
STEMPEL
100
AcDbCircle
 10
83.26457403878213
 20
418.0935324718998
 30
0.0
 40
11.158
100
AcDbArc
 50
95.91552076700034
 51
109.652859632001
  0
ARC
  5
2349
330
1E
100
AcDbEntity
  8
STEMPEL
100
AcDbCircle
 10
83.26457403878213
 20
418.0935324718998
 30
0.0
 40
11.158
100
AcDbArc
 50
70.34714036799893
 51
84.08447923299966
  0
LINE
  5
234A
330
1E
100
AcDbEntity
  8
STEMPEL
100
AcDbLine
 10
82.11457403878217
 20
429.2515324718998
 30
0.0
 11
77.63457403878215
 21
429.2515324718998
 31
0.0
  0
LINE
  5
234B
330
1E
100
AcDbEntity
  8
STEMPEL
100
AcDbLine
 10
82.11457403878217
 20
426.7515324718997
 30
0.0
 11
82.11457403878217
 21
429.2515324718998
 31
0.0
  0
LINE
  5
234C
330
1E
100
AcDbEntity
  8
STEMPEL
100
AcDbLine
 10
84.41457403878217
 20
426.7515324718997
 30
0.0
 11
82.11457403878217
 21
426.7515324718997
 31
0.0
  0
LINE
  5
234D
330
1E
100
AcDbEntity
  8
STEMPEL
100
AcDbLine
 10
84.41457403878217
 20
429.2515324718998
 30
0.0
 11
84.41457403878217
 21
426.7515324718997
 31
0.0
  0
LINE
  5
234E
330
1E
100
AcDbEntity
  8
STEMPEL
100
AcDbLine
 10
88.89357403878216
 20
429.2515324718998
 30
0.0
 11
84.41457403878217
 21
429.2515324718998
 31
0.0
  0
LINE
  5
234F
330
1E
100
AcDbEntity
  8
STEMPEL
100
AcDbLine
 10
79.26457403878214
 20
394.7015324718998
 30
0.0
 11
79.26457403878214
 21
411.9515324718998
 31
0.0
  0
LINE
  5
2350
330
1E
100
AcDbEntity
  8
STEMPEL
100
AcDbLine
 10
80.01457403878214
 20
393.9515324718998
 30
0.0
 11
79.26457403878214
 21
394.7015324718998
 31
0.0
  0
LINE
  5
2351
330
1E
100
AcDbEntity
  8
STEMPEL
100
AcDbLine
 10
86.51457403878215
 20
393.9515324718998
 30
0.0
 11
80.01457403878214
 21
393.9515324718998
 31
0.0
  0
LINE
  5
2352
330
1E
100
AcDbEntity
  8
STEMPEL
100
AcDbLine
 10
87.26457403878214
 20
394.7015324718998
 30
0.0
 11
86.51457403878215
 21
393.9515324718998
 31
0.0
  0
LINE
  5
2353
330
1E
100
AcDbEntity
  8
STEMPEL
100
AcDbLine
 10
87.26457403878214
 20
411.9515324718998
 30
0.0
 11
87.26457403878214
 21
394.7015324718998
 31
0.0
  0
LINE
  5
2354
330
1E
100
AcDbEntity
  8
STEMPEL
100
AcDbLine
 10
87.01657403878215
 20
428.6015324718997
 30
0.0
 11
87.01657403878215
 21
423.9515324718998
 31
0.0
  0
ARC
  5
2355
330
1E
100
AcDbEntity
  8
STEMPEL
100
AcDbCircle
 10
88.89357403878216
 20
426.2185324718998
 30
0.0
 40
3.032999999999999
100
AcDbArc
 50
90.0
 51
128.2132107020002
  0
ARC
  5
2356
330
1E
100
AcDbEntity
  8
STEMPEL
100
AcDbCircle
 10
88.89357403878216
 20
426.2185324718998
 30
0.0
 40
3.032999999999999
100
AcDbArc
 50
51.78678929799973
 51
90.0
  0
LINE
  5
2357
330
1E
100
AcDbEntity
  8
STEMPEL
100
AcDbLine
 10
90.76957403878214
 20
423.9515324718998
 30
0.0
 11
90.76957403878214
 21
428.6015324718997
 31
0.0
  0
LINE
  5
2358
330
1E
100
AcDbEntity
  8
STEMPEL
100
AcDbLine
 10
87.66457403878218
 20
423.9515324718998
 30
0.0
 11
90.76957403878214
 21
423.9515324718998
 31
0.0
  0
LINE
  5
2359
330
1E
100
AcDbEntity
  8
STEMPEL
100
AcDbLine
 10
78.86457403878217
 20
423.9515324718998
 30
0.0
 11
87.66457403878218
 21
423.9515324718998
 31
0.0
  0
LINE
  5
235A
330
1E
100
AcDbEntity
  8
STEMPEL
100
AcDbLine
 10
75.75857403878217
 20
423.9515324718998
 30
0.0
 11
78.86457403878217
 21
423.9515324718998
 31
0.0
  0
LINE
  5
235B
330
1E
100
AcDbEntity
  8
STEMPEL
100
AcDbLine
 10
75.75857403878217
 20
428.6015324718997
 30
0.0
 11
75.75857403878217
 21
423.9515324718998
 31
0.0
  0
ARC
  5
235C
330
1E
100
AcDbEntity
  8
STEMPEL
100
AcDbCircle
 10
77.63457403878215
 20
426.2185324718998
 30
0.0
 40
3.032999999999999
100
AcDbArc
 50
90.0
 51
128.2132107020002
  0
ARC
  5
235D
330
1E
100
AcDbEntity
  8
STEMPEL
100
AcDbCircle
 10
77.63457403878215
 20
426.2185324718998
 30
0.0
 40
3.032999999999999
100
AcDbArc
 50
51.78678929799973
 51
90.0
  0
LINE
  5
235E
330
1E
100
AcDbEntity
  8
STEMPEL
100
AcDbLine
 10
79.51157403878216
 20
423.9515324718998
 30
0.0
 11
79.51157403878216
 21
428.6015324718997
 31
0.0
  0
LINE
  5
2362
330
1E
100
AcDbEntity
  8
STEMPEL
100
AcDbLine
 10
382.9965740387822
 20
419.7015324718997
 30
0.0
 11
382.9965740387822
 21
419.2015324718997
 31
0.0
  0
LINE
  5
2363
330
1E
100
AcDbEntity
  8
STEMPEL
100
AcDbLine
 10
397.4965740387822
 20
419.7015324718997
 30
0.0
 11
382.9965740387822
 21
419.7015324718997
 31
0.0
  0
LINE
  5
2364
330
1E
100
AcDbEntity
  8
STEMPEL
100
AcDbLine
 10
397.4965740387822
 20
419.2015324718997
 30
0.0
 11
397.4965740387822
 21
419.7015324718997
 31
0.0
  0
LINE
  5
2365
330
1E
100
AcDbEntity
  8
STEMPEL
100
AcDbLine
 10
382.9965740387822
 20
419.2015324718997
 30
0.0
 11
397.4965740387822
 21
419.2015324718997
 31
0.0
  0
LINE
  5
2366
330
1E
100
AcDbEntity
  8
STEMPEL
100
AcDbLine
 10
76.01457403878214
 20
419.7015324718997
 30
0.0
 11
76.01457403878214
 21
419.2015324718997
 31
0.0
  0
LINE
  5
2367
330
1E
100
AcDbEntity
  8
STEMPEL
100
AcDbLine
 10
90.51457403878215
 20
419.7015324718997
 30
0.0
 11
76.01457403878214
 21
419.7015324718997
 31
0.0
  0
LINE
  5
2368
330
1E
100
AcDbEntity
  8
STEMPEL
100
AcDbLine
 10
90.51457403878215
 20
419.2015324718997
 30
0.0
 11
90.51457403878215
 21
419.7015324718997
 31
0.0
  0
LINE
  5
2369
330
1E
100
AcDbEntity
  8
STEMPEL
100
AcDbLine
 10
76.01457403878214
 20
419.2015324718997
 30
0.0
 11
90.51457403878215
 21
419.2015324718997
 31
0.0
  0
ARC
  5
2376
330
1E
100
AcDbEntity
  8
STEMPEL
100
AcDbCircle
 10
228.9605740387822
 20
270.1515324718998
 30
0.0
 40
4.2
100
AcDbArc
 50
270.0
 51
308.2132107020003
  0
ARC
  5
2377
330
1E
100
AcDbEntity
  8
STEMPEL
100
AcDbCircle
 10
228.9605740387822
 20
270.1515324718998
 30
0.0
 40
4.2
100
AcDbArc
 50
231.7867892979998
 51
270.0
  0
ARC
  5
2378
330
1E
100
AcDbEntity
  8
STEMPEL
100
AcDbCircle
 10
236.7555740387821
 20
281.4015324718998
 30
0.0
 40
15.45
100
AcDbArc
 50
250.3471403679989
 51
270.0
  0
LINE
  5
2379
330
1E
100
AcDbEntity
  8
STEMPEL
100
AcDbLine
 10
244.5495740387821
 20
265.9515324718998
 30
0.0
 11
228.9605740387822
 21
265.9515324718998
 31
0.0
  0
LINE
  5
237A
330
1E
100
AcDbEntity
  8
STEMPEL
100
AcDbLine
 10
226.3625740387822
 20
277.5515324718998
 30
0.0
 11
226.3625740387822
 21
266.8515324718998
 31
0.0
  0
LINE
  5
237B
330
1E
100
AcDbEntity
  8
STEMPEL
100
AcDbLine
 10
231.5595740387821
 20
277.5515324718998
 30
0.0
 11
231.5595740387821
 21
266.8515324718998
 31
0.0
  0
LINE
  5
237C
330
1E
100
AcDbEntity
  8
STEMPEL
100
AcDbLine
 10
241.9515740387821
 20
277.5515324718998
 30
0.0
 11
241.9515740387822
 21
266.8515324718998
 31
0.0
  0
LINE
  5
237E
330
1E
100
AcDbEntity
  8
STEMPEL
100
AcDbLine
 10
247.1475740387822
 20
277.5515324718998
 30
0.0
 11
247.1475740387822
 21
266.8515324718998
 31
0.0
  0
ARC
  5
237F
330
1E
100
AcDbEntity
  8
STEMPEL
100
AcDbCircle
 10
244.5495740387821
 20
270.1515324718998
 30
0.0
 40
4.2
100
AcDbArc
 50
270.0
 51
308.2132107020003
  0
ARC
  5
2381
330
1E
100
AcDbEntity
  8
STEMPEL
100
AcDbCircle
 10
236.7555740387821
 20
281.4015324718998
 30
0.0
 40
15.45
100
AcDbArc
 50
270.0
 51
289.6528596320011
  0
ARC
  5
2382
330
1E
100
AcDbEntity
  8
STEMPEL
100
AcDbCircle
 10
244.5495740387821
 20
270.1515324718998
 30
0.0
 40
4.2
100
AcDbArc
 50
231.7867892979998
 51
270.0
  0
ARC
  5
2383
330
1E
100
AcDbEntity
  8
STEMPEL
100
AcDbCircle
 10
383.7465740387822
 20
413.4515324718997
 30
0.0
 40
1.5
100
AcDbArc
 50
0.0
 51
90.0
  0
LINE
  5
2384
330
1E
100
AcDbEntity
  8
STEMPEL
100
AcDbLine
 10
385.2465740387822
 20
413.4515324718997
 30
0.0
 11
385.2465740387822
 21
411.9515324718998
 31
0.0
  0
LINE
  5
2385
330
1E
100
AcDbEntity
  8
STEMPEL
100
AcDbLine
 10
385.2465740387822
 20
411.9515324718998
 30
0.0
 11
395.2465740387822
 21
411.9515324718998
 31
0.0
  0
LINE
  5
2386
330
1E
100
AcDbEntity
  8
STEMPEL
100
AcDbLine
 10
395.2465740387822
 20
411.9515324718998
 30
0.0
 11
395.2465740387822
 21
413.4515324718997
 31
0.0
  0
ARC
  5
2387
330
1E
100
AcDbEntity
  8
STEMPEL
100
AcDbCircle
 10
396.7465740387822
 20
413.4515324718997
 30
0.0
 40
1.5
100
AcDbArc
 50
90.0
 51
180.0
  0
LINE
  5
2388
330
1E
100
AcDbEntity
  8
STEMPEL
100
AcDbLine
 10
395.9045740387821
 20
417.9515324718997
 30
0.0
 11
395.9045740387821
 21
414.9515324718997
 31
0.0
  0
LINE
  5
2389
330
1E
100
AcDbEntity
  8
STEMPEL
100
AcDbLine
 10
78.26457403878214
 20
413.4515324718997
 30
0.0
 11
78.26457403878214
 21
411.9515324718998
 31
0.0
  0
LINE
  5
238A
330
1E
100
AcDbEntity
  8
STEMPEL
100
AcDbLine
 10
88.26457403878213
 20
411.9515324718998
 30
0.0
 11
88.26457403878213
 21
413.4515324718997
 31
0.0
  0
LINE
  5
238B
330
1E
100
AcDbEntity
  8
STEMPEL
100
AcDbLine
 10
78.26457403878214
 20
411.9515324718998
 30
0.0
 11
88.26457403878213
 21
411.9515324718998
 31
0.0
  0
ARC
  5
238C
330
1E
100
AcDbEntity
  8
STEMPEL
100
AcDbCircle
 10
76.76457403878214
 20
413.4515324718997
 30
0.0
 40
1.5
100
AcDbArc
 50
0.0
 51
90.0
  0
LINE
  5
238D
330
1E
100
AcDbEntity
  8
STEMPEL
100
AcDbLine
 10
77.60657403878212
 20
417.9515324718997
 30
0.0
 11
77.60657403878212
 21
414.9515324718997
 31
0.0
  0
ARC
  5
238E
330
1E
100
AcDbEntity
  8
STEMPEL
100
AcDbCircle
 10
89.76457403878214
 20
413.4515324718997
 30
0.0
 40
1.5
100
AcDbArc
 50
90.0
 51
180.0
  0
ARC
  5
238F
330
1E
100
AcDbEntity
  8
STEMPEL
100
AcDbCircle
 10
379.0575740387822
 20
411.9515324718998
 30
0.0
 40
3.0
100
AcDbArc
 50
90.0
 51
176.9830386900005
  0
LINE
  5
2390
330
1E
100
AcDbEntity
  8
STEMPEL
100
AcDbLine
 10
401.2465740387822
 20
414.9515324718997
 30
0.0
 11
379.0575740387822
 21
414.9515324718997
 31
0.0
  0
LINE
  5
2391
330
1E
100
AcDbEntity
  8
STEMPEL
100
AcDbLine
 10
401.2465740387822
 20
417.9515324718997
 30
0.0
 11
401.2465740387822
 21
414.9515324718997
 31
0.0
  0
LINE
  5
2392
330
1E
100
AcDbEntity
  8
STEMPEL
100
AcDbLine
 10
379.0575740387822
 20
417.9515324718997
 30
0.0
 11
401.2465740387822
 21
417.9515324718997
 31
0.0
  0
ARC
  5
2393
330
1E
100
AcDbEntity
  8
STEMPEL
100
AcDbCircle
 10
94.45257403878214
 20
411.9515324718998
 30
0.0
 40
3.0
100
AcDbArc
 50
3.016961309999483
 51
90.0
  0
LINE
  5
2394
330
1E
100
AcDbEntity
  8
STEMPEL
100
AcDbLine
 10
72.26457403878214
 20
414.9515324718997
 30
0.0
 11
94.45257403878214
 21
414.9515324718997
 31
0.0
  0
LINE
  5
2395
330
1E
100
AcDbEntity
  8
STEMPEL
100
AcDbLine
 10
72.26457403878214
 20
417.9515324718997
 30
0.0
 11
72.26457403878214
 21
414.9515324718997
 31
0.0
  0
LINE
  5
2396
330
1E
100
AcDbEntity
  8
STEMPEL
100
AcDbLine
 10
94.45257403878214
 20
417.9515324718997
 30
0.0
 11
72.26457403878214
 21
417.9515324718997
 31
0.0
  0
LINE
  5
2398
330
1E
100
AcDbEntity
  8
STEMPEL
100
AcDbLine
 10
77.60657403878212
 20
420.9515324718998
 30
0.0
 11
77.60657403878212
 21
423.9515324718998
 31
0.0
  0
LINE
  5
2399
330
1E
100
AcDbEntity
  8
STEMPEL
100
AcDbLine
 10
395.9045740387821
 20
420.9515324718998
 30
0.0
 11
395.9045740387821
 21
423.9515324718998
 31
0.0
  0
ARC
  5
239A
330
1E
100
AcDbEntity
  8
STEMPEL
100
AcDbCircle
 10
236.7555740387821
 20
419.4515324718997
 30
0.0
 40
139.5
100
AcDbArc
 50
183.0169613099995
 51
356.9830386899997
  0
ARC
  5
239B
330
1E
100
AcDbEntity
  8
STEMPEL
100
AcDbCircle
 10
379.0575740387822
 20
411.9515324718998
 30
0.0
 40
6.0
100
AcDbArc
 50
90.0
 51
176.9830386900005
  0
ARC
  5
239C
330
1E
100
AcDbEntity
  8
STEMPEL
100
AcDbCircle
 10
236.7555740387821
 20
419.4515324718997
 30
0.0
 40
136.5
100
AcDbArc
 50
183.0169613099995
 51
356.9830386899997
  0
ARC
  5
239D
330
1E
100
AcDbEntity
  8
STEMPEL
100
AcDbCircle
 10
94.45257403878214
 20
411.9515324718998
 30
0.0
 40
6.0
100
AcDbArc
 50
3.016961309999483
 51
90.0
  0
ARC
  5
239E
330
1E
100
AcDbEntity
  8
STEMPEL
100
AcDbCircle
 10
94.45257403878214
 20
426.9515324718997
 30
0.0
 40
3.0
100
AcDbArc
 50
270.0
 51
356.9830386899997
  0
ARC
  5
239F
330
1E
100
AcDbEntity
  8
STEMPEL
100
AcDbCircle
 10
236.7555740387821
 20
419.4515324718997
 30
0.0
 40
139.5
100
AcDbArc
 50
3.016961309999483
 51
176.9830386900005
  0
ARC
  5
23A0
330
1E
100
AcDbEntity
  8
STEMPEL
100
AcDbCircle
 10
379.0575740387822
 20
426.9515324718997
 30
0.0
 40
3.0
100
AcDbArc
 50
183.0169613099995
 51
270.0
  0
LINE
  5
23A1
330
1E
100
AcDbEntity
  8
STEMPEL
100
AcDbLine
 10
401.2465740387822
 20
423.9515324718998
 30
0.0
 11
379.0575740387822
 21
423.9515324718998
 31
0.0
  0
LINE
  5
23A2
330
1E
100
AcDbEntity
  8
STEMPEL
100
AcDbLine
 10
401.2465740387822
 20
420.9515324718998
 30
0.0
 11
401.2465740387822
 21
423.9515324718998
 31
0.0
  0
LINE
  5
23A3
330
1E
100
AcDbEntity
  8
STEMPEL
100
AcDbLine
 10
379.0575740387822
 20
420.9515324718998
 30
0.0
 11
401.2465740387822
 21
420.9515324718998
 31
0.0
  0
ARC
  5
23A4
330
1E
100
AcDbEntity
  8
STEMPEL
100
AcDbCircle
 10
379.0575740387822
 20
426.9515324718997
 30
0.0
 40
6.0
100
AcDbArc
 50
183.0169613099995
 51
270.0
  0
ARC
  5
23A5
330
1E
100
AcDbEntity
  8
STEMPEL
100
AcDbCircle
 10
236.7555740387821
 20
419.4515324718997
 30
0.0
 40
136.5
100
AcDbArc
 50
3.016961309999483
 51
176.9830386900005
  0
ARC
  5
23A6
330
1E
100
AcDbEntity
  8
STEMPEL
100
AcDbCircle
 10
94.45257403878214
 20
426.9515324718997
 30
0.0
 40
6.0
100
AcDbArc
 50
270.0
 51
356.9830386899997
  0
LINE
  5
23A7
330
1E
100
AcDbEntity
  8
STEMPEL
100
AcDbLine
 10
72.26457403878214
 20
420.9515324718998
 30
0.0
 11
94.45257403878214
 21
420.9515324718998
 31
0.0
  0
LINE
  5
23A8
330
1E
100
AcDbEntity
  8
STEMPEL
100
AcDbLine
 10
72.26457403878214
 20
423.9515324718998
 30
0.0
 11
72.26457403878214
 21
420.9515324718998
 31
0.0
  0
LINE
  5
23A9
330
1E
100
AcDbEntity
  8
STEMPEL
100
AcDbLine
 10
94.45257403878214
 20
423.9515324718998
 30
0.0
 11
72.26457403878214
 21
423.9515324718998
 31
0.0
  0
LINE
  5
23AC
330
1E
100
AcDbEntity
  8
MITTEL
100
AcDbLine
 10
83.26457403878213
 20
388.9515324718998
 30
0.0
 11
83.26457403878213
 21
434.2515324718998
 31
0.0
  0
LINE
  5
23AD
330
1E
100
AcDbEntity
  8
MITTEL
100
AcDbLine
 10
390.2465740387822
 20
388.9515324718998
 30
0.0
 11
390.2465740387823
 21
434.2515324718998
 31
0.0
  0
LINE
  5
23AE
330
1E
100
AcDbEntity
  8
MITTEL
100
AcDbLine
 10
67.26457403878214
 20
419.4515324718998
 30
0.0
 11
406.2465740387821
 21
419.4515324718997
 31
0.0
  0
LINE
  5
23AF
330
1E
100
AcDbEntity
  8
MITTEL
100
AcDbLine
 10
236.7555740387821
 20
260.9515324718997
 30
0.0
 11
236.7555740387821
 21
563.9515324718997
 31
0.0
  0
LINE
  5
23B1
330
1E
100
AcDbEntity
  8
STEMPEL
100
AcDbLine
 10
389.1145740387822
 20
206.4884270191144
 30
0.0
 11
389.1145740387822
 21
219.4884270191144
 31
0.0
  0
LINE
  5
23B2
330
1E
100
AcDbEntity
  8
STEMPEL
100
AcDbLine
 10
391.4145740387821
 20
206.4884270191144
 30
0.0
 11
391.4145740387821
 21
219.4884270191144
 31
0.0
  0
ARC
  5
23B3
330
1E
100
AcDbEntity
  8
STEMPEL
100
AcDbCircle
 10
390.2645740387821
 20
212.9884270191144
 30
0.0
 40
6.5
100
AcDbArc
 50
280.1905887679998
 51
79.80941123200023
  0
ARC
  5
23B4
330
1E
100
AcDbEntity
  8
STEMPEL
100
AcDbCircle
 10
390.2645740387821
 20
212.9884270191144
 30
0.0
 40
6.5
100
AcDbArc
 50
100.1905887679997
 51
259.8094112320002
  0
LINE
  5
23B5
330
1E
100
AcDbEntity
  8
STEMPEL
100
AcDbLine
 10
386.5115740387821
 20
206.4884270191144
 30
0.0
 11
382.7585740387822
 21
212.9884270191144
 31
0.0
  0
LINE
  5
23B6
330
1E
100
AcDbEntity
  8
STEMPEL
100
AcDbLine
 10
394.0165740387822
 20
206.4884270191144
 30
0.0
 11
386.5115740387821
 21
206.4884270191144
 31
0.0
  0
LINE
  5
23B7
330
1E
100
AcDbEntity
  8
STEMPEL
100
AcDbLine
 10
397.7695740387821
 20
212.9884270191144
 30
0.0
 11
394.0165740387822
 21
206.4884270191144
 31
0.0
  0
LINE
  5
23B8
330
1E
100
AcDbEntity
  8
STEMPEL
100
AcDbLine
 10
394.0165740387822
 20
219.4884270191144
 30
0.0
 11
397.7695740387821
 21
212.9884270191144
 31
0.0
  0
LINE
  5
23B9
330
1E
100
AcDbEntity
  8
STEMPEL
100
AcDbLine
 10
386.5115740387821
 20
219.4884270191144
 30
0.0
 11
394.0165740387822
 21
219.4884270191144
 31
0.0
  0
LINE
  5
23BA
330
1E
100
AcDbEntity
  8
STEMPEL
100
AcDbLine
 10
382.7585740387822
 20
212.9884270191144
 30
0.0
 11
386.5115740387821
 21
219.4884270191144
 31
0.0
  0
LINE
  5
23BB
330
1E
100
AcDbEntity
  8
STEMPEL
100
AcDbLine
 10
82.11457403878217
 20
206.4884270191144
 30
0.0
 11
82.11457403878217
 21
219.4884270191144
 31
0.0
  0
LINE
  5
23BC
330
1E
100
AcDbEntity
  8
STEMPEL
100
AcDbLine
 10
84.41457403878217
 20
206.4884270191144
 30
0.0
 11
84.41457403878217
 21
219.4884270191144
 31
0.0
  0
ARC
  5
23BD
330
1E
100
AcDbEntity
  8
STEMPEL
100
AcDbCircle
 10
83.26457403878213
 20
212.9884270191144
 30
0.0
 40
6.5
100
AcDbArc
 50
280.1905887679998
 51
79.80941123200023
  0
ARC
  5
23BE
330
1E
100
AcDbEntity
  8
STEMPEL
100
AcDbCircle
 10
83.26457403878213
 20
212.9884270191144
 30
0.0
 40
6.5
100
AcDbArc
 50
100.1905887679997
 51
259.8094112320002
  0
LINE
  5
23BF
330
1E
100
AcDbEntity
  8
STEMPEL
100
AcDbLine
 10
79.51157403878216
 20
206.4884270191144
 30
0.0
 11
75.75857403878217
 21
212.9884270191144
 31
0.0
  0
LINE
  5
23C0
330
1E
100
AcDbEntity
  8
STEMPEL
100
AcDbLine
 10
87.01657403878215
 20
206.4884270191144
 30
0.0
 11
79.51157403878216
 21
206.4884270191144
 31
0.0
  0
LINE
  5
23C1
330
1E
100
AcDbEntity
  8
STEMPEL
100
AcDbLine
 10
90.76957403878214
 20
212.9884270191144
 30
0.0
 11
87.01657403878215
 21
206.4884270191144
 31
0.0
  0
LINE
  5
23C2
330
1E
100
AcDbEntity
  8
STEMPEL
100
AcDbLine
 10
87.01657403878215
 20
219.4884270191144
 30
0.0
 11
90.76957403878214
 21
212.9884270191144
 31
0.0
  0
LINE
  5
23C3
330
1E
100
AcDbEntity
  8
STEMPEL
100
AcDbLine
 10
79.51157403878216
 20
219.4884270191144
 30
0.0
 11
87.01657403878215
 21
219.4884270191144
 31
0.0
  0
LINE
  5
23C4
330
1E
100
AcDbEntity
  8
STEMPEL
100
AcDbLine
 10
75.75857403878217
 20
212.9884270191144
 30
0.0
 11
79.51157403878216
 21
219.4884270191144
 31
0.0
  0
LINE
  5
23C8
330
1E
100
AcDbEntity
  8
HILF
100
AcDbLine
 10
97.32757403878213
 20
232.9884270191144
 30
0.0
 11
97.32757403878213
 21
192.9884270191144
 31
0.0
  0
LINE
  5
23C9
330
1E
100
AcDbEntity
  8
HILF
100
AcDbLine
 10
376.1425740387822
 20
232.9884270191144
 30
0.0
 11
376.1425740387822
 21
192.9884270191144
 31
0.0
  0
LINE
  5
23CA
330
1E
100
AcDbEntity
  8
MITTEL
100
AcDbLine
 10
390.2645740387823
 20
201.4884270191144
 30
0.0
 11
390.2645740387821
 21
224.4884270191144
 31
0.0
  0
LINE
  5
23CB
330
1E
100
AcDbEntity
  8
MITTEL
100
AcDbLine
 10
83.26457403878226
 20
201.4884270191144
 30
0.0
 11
83.26457403878213
 21
224.4884270191144
 31
0.0
  0
LINE
  5
23CC
330
1E
100
AcDbEntity
  8
MITTEL
100
AcDbLine
 10
236.7555740387821
 20
237.9884270191144
 30
0.0
 11
236.7555740387821
 21
187.9884270191144
 31
0.0
  0
LINE
  5
23CD
330
1E
100
AcDbEntity
  8
MITTEL
100
AcDbLine
 10
406.2645740387822
 20
212.9884270191144
 30
0.0
 11
67.26457403878209
 21
212.9884270191144
 31
0.0
  0
ARC
  5
23CE
330
1E
100
AcDbEntity
  8
STEMPEL
100
AcDbCircle
 10
361.2645740387821
 20
212.9884270191144
 30
0.0
 40
40.0
100
AcDbArc
 50
329.9999999999995
 51
30.00000000000055
  0
ARC
  5
23CF
330
1E
100
AcDbEntity
  8
STEMPEL
100
AcDbCircle
 10
112.2645740387821
 20
212.9884270191144
 30
0.0
 40
40.0
100
AcDbArc
 50
149.9999999999994
 51
210.0000000000005
  0
LINE
  5
23D0
330
1E
100
AcDbEntity
  8
STEMPEL
100
AcDbLine
 10
395.9055740387821
 20
232.9884270191144
 30
0.0
 11
77.62357403878218
 21
232.9884270191144
 31
0.0
  0
LINE
  5
23D1
330
1E
100
AcDbEntity
  8
STEMPEL
100
AcDbLine
 10
77.62357403878218
 20
192.9884270191144
 30
0.0
 11
395.9055740387821
 21
192.9884270191144
 31
0.0
  0
DIMENSION
  5
23E3
330
1E
100
AcDbEntity
  8
BEM
100
AcDbDimension
  2
*D1
 10
390.2645740387823
 20
171.8232796661766
 30
0.0
 11
236.7645740387823
 21
178.3232796661766
 31
0.0
 70
    32
 71
     5
 42
307.0
  3
Standard
100
AcDbAlignedDimension
 13
83.26457403878226
 23
201.4884270191144
 33
0.0
 14
390.2645740387823
 24
201.4884270191144
 34
0.0
100
AcDbRotatedDimension
1001
ACAD
1000
DSTYLE
1002
{
1070
    40
1040
2.0
1070
    41
1040
3.5
1070
    42
1040
1.0
1070
    43
1040
7.0
1070
    44
1040
1.0
1070
    73
1070
     0
1070
    74
1070
     0
1070
    77
1070
     1
1070
    78
1070
     8
1070
    79
1070
     2
1070
   140
1040
3.5
1070
   141
1040
1.5
1070
   146
1040
0.5142857142857144
1070
   147
1040
1.5
1070
   172
1070
     1
1070
   178
1070
     1
1070
   179
1070
     2
1070
   271
1070
     2
1070
   272
1070
     2
1070
   284
1070
     8
1070
   285
1070
     8
1070
   286
1070
     8
1002
}
  0
DIMENSION
  5
23F0
330
1E
100
AcDbEntity
  8
BEM
100
AcDbDimension
  2
*D2
 10
401.2645740387821
 20
155.2905044245221
 30
0.0
 11
236.7645740387821
 21
161.7905044245221
 31
0.0
 70
    32
 71
     5
 42
329.0
  3
Standard
100
AcDbAlignedDimension
 13
72.26457403878214
 23
212.9884270191144
 33
0.0
 14
401.2645740387821
 24
212.9884270191144
 34
0.0
100
AcDbRotatedDimension
1001
ACAD
1000
DSTYLE
1002
{
1070
    40
1040
2.0
1070
    41
1040
3.5
1070
    42
1040
1.0
1070
    43
1040
7.0
1070
    44
1040
1.0
1070
    73
1070
     0
1070
    74
1070
     0
1070
    77
1070
     1
1070
    78
1070
     8
1070
    79
1070
     2
1070
   140
1040
3.5
1070
   141
1040
1.5
1070
   146
1040
0.5142857142857144
1070
   147
1040
1.5
1070
   172
1070
     1
1070
   178
1070
     1
1070
   179
1070
     2
1070
   271
1070
     2
1070
   272
1070
     2
1070
   284
1070
     8
1070
   285
1070
     8
1070
   286
1070
     8
1002
}
  0
ARC
  5
2421
330
1E
100
AcDbEntity
  8
STEMPEL
100
AcDbCircle
 10
236.7555740387821
 20
263.0024124718994
 30
0.0
 40
15.44912000000033
100
AcDbArc
 50
70.34657509801133
 51
109.6534249019887
  0
ARC
  5
2423
330
1E
100
AcDbEntity
  8
STEMPEL
100
AcDbCircle
 10
228.9610740387822
 20
274.2503091385665
 30
0.0
 40
4.201223363086469
100
AcDbArc
 50
51.79256854695768
 51
128.2074314530429
  0
ARC
  5
2424
330
1E
100
AcDbEntity
  8
STEMPEL
100
AcDbCircle
 10
244.5500740387819
 20
274.2503091385666
 30
0.0
 40
4.201223363086469
100
AcDbArc
 50
51.79256854695731
 51
128.2074314530425
  0
ARC
  5
2425
330
1E
100
AcDbEntity
  8
STEMPEL
100
AcDbCircle
 10
236.7555740387821
 20
254.7488986386604
 30
0.0
 40
25.20263383323938
100
AcDbArc
 50
68.21395148549378
 51
111.7860485145065
  0
DIMENSION
  5
2426
330
1E
100
AcDbEntity
  8
BEM
100
AcDbDimension
  2
*D3
 10
65.18204764224219
 20
420.9515324718998
 30
0.0
 11
58.68204764224213
 21
439.8181991385664
 31
0.0
 70
    32
 71
     5
 42
3.0
  3
Standard
100
AcDbAlignedDimension
 13
72.26457403878214
 23
417.9515324718997
 33
0.0
 14
72.26457403878214
 24
420.9515324718998
 34
0.0
 50
90.0
100
AcDbRotatedDimension
1001
ACAD
1000
DSTYLE
1002
{
1070
    40
1040
2.0
1070
    41
1040
3.5
1070
    42
1040
1.0
1070
    43
1040
7.0
1070
    44
1040
1.0
1070
    73
1070
     0
1070
    74
1070
     0
1070
    77
1070
     1
1070
    78
1070
     8
1070
    79
1070
     2
1070
   140
1040
3.5
1070
   141
1040
1.5
1070
   146
1040
0.5142857142857144
1070
   147
1040
1.5
1070
   172
1070
     1
1070
   178
1070
     1
1070
   179
1070
     2
1070
   271
1070
     2
1070
   272
1070
     2
1070
   284
1070
     8
1070
   285
1070
     8
1070
   286
1070
     8
1002
}
  0
DIMENSION
  5
2435
330
1E
100
AcDbEntity
  8
BEM
100
AcDbDimension
  2
*D4
 10
53.30766824251394
 20
265.9515324718999
 30
0.0
 11
46.80766824251391
 21
412.4515324718998
 31
0.0
 70
    32
 71
     5
 42
292.9999999999999
  3
Standard
100
AcDbAlignedDimension
 13
236.7555740387821
 23
558.9515324718997
 33
0.0
 14
228.9605740387822
 24
265.9515324718998
 34
0.0
 50
90.0
100
AcDbRotatedDimension
1001
ACAD
1000
DSTYLE
1002
{
1070
    40
1040
2.0
1070
    41
1040
3.5
1070
    42
1040
1.0
1070
    43
1040
7.0
1070
    44
1040
1.0
1070
    73
1070
     0
1070
    74
1070
     0
1070
    77
1070
     1
1070
    78
1070
     8
1070
    79
1070
     2
1070
   140
1040
3.5
1070
   141
1040
1.5
1070
   146
1040
0.5142857142857144
1070
   147
1040
1.5
1070
   172
1070
     1
1070
   178
1070
     1
1070
   179
1070
     2
1070
   271
1070
     2
1070
   272
1070
     2
1070
   284
1070
     8
1070
   285
1070
     8
1070
   286
1070
     8
1002
}
  0
DIMENSION
  5
2469
330
1E
100
AcDbEntity
  8
BEM
100
AcDbDimension
  2
*D5
 10
328.8298856223813
 20
520.2214573208697
 30
0.0
 11
266.1270795943174
 21
451.724484830854
 31
0.0
 70
   161
 71
     5
 42
272.9999312083955
  3
Standard
100
AcDbAlignedDimension
 13
144.5164906427795
 23
318.8324413695385
 33
0.0
 14
328.8517041358026
 24
520.2014844379066
 34
0.0
1001
ACAD
1000
DSTYLE
1002
{
1070
    40
1040
2.0
1070
    41
1040
3.5
1070
    42
1040
1.0
1070
    43
1040
7.0
1070
    44
1040
1.0
1070
    73
1070
     0
1070
    74
1070
     0
1070
    77
1070
     1
1070
    78
1070
     8
1070
    79
1070
     2
1070
   140
1040
3.5
1070
   141
1040
1.5
1070
   146
1040
0.5142857142857144
1070
   147
1040
1.5
1070
   172
1070
     1
1070
   178
1070
     1
1070
   179
1070
     2
1070
   271
1070
     2
1070
   272
1070
     2
1070
   284
1070
     8
1070
   285
1070
     8
1070
   286
1070
     8
1002
}
  0
TEXT
  5
2668
330
1E
100
AcDbEntity
  8
TEXT
 62
     1
100
AcDbText
 10
227.8365522679116
 20
115.6405708316599
 30
0.0
 40
7.0
  1
Werkstoff: St37 Dickschichtpassiviert
 41
0.8
  7
GREEKS
100
AcDbText
  0
DIMENSION
  5
266E
330
1E
100
AcDbEntity
  8
BEM
100
AcDbDimension
  2
*D6
 10
58.16714051952613
 20
232.9884270191144
 30
0.0
 11
51.6671405195261
 21
212.9884270191144
 31
0.0
 70
    32
 71
     5
 42
40.0
  3
Standard
100
AcDbAlignedDimension
 13
77.62357403878218
 23
192.9884270191144
 33
0.0
 14
77.62357403878218
 24
232.9884270191144
 34
0.0
 50
90.0
100
AcDbRotatedDimension
1001
ACAD
1000
DSTYLE
1002
{
1070
    40
1040
2.0
1070
    41
1040
3.5
1070
    42
1040
1.0
1070
    43
1040
7.0
1070
    44
1040
1.0
1070
    73
1070
     0
1070
    74
1070
     0
1070
    77
1070
     1
1070
    78
1070
     8
1070
    79
1070
     2
1070
   140
1040
3.5
1070
   141
1040
1.5
1070
   146
1040
0.5142857142857144
1070
   147
1040
1.5
1070
   172
1070
     1
1070
   178
1070
     1
1070
   179
1070
     2
1070
   271
1070
     2
1070
   272
1070
     2
1070
   284
1070
     8
1070
   285
1070
     8
1070
   286
1070
     8
1002
}
  0
ENDSEC
  0
SECTION
  2
OBJECTS
  0
DICTIONARY
  5
C
330
0
100
AcDbDictionary
281
     1
  3
ACAD_COLOR
350
DF
  3
ACAD_GROUP
350
D
  3
ACAD_LAYOUT
350
19
  3
ACAD_MATERIAL
350
DE
  3
ACAD_MLINESTYLE
350
16
  3
ACAD_PLOTSETTINGS
350
18
  3
ACAD_PLOTSTYLENAME
350
E
  3
AcDbVariableDictionary
350
EA
  0
DICTIONARY
  5
A0
330
1E
100
AcDbDictionary
280
     1
281
     1
  3
ACAD_LAYOUTSELFREF
360
D4
  0
DICTIONARY
  5
A2
330
1A
100
AcDbDictionary
280
     1
281
     1
  3
ACAD_LAYOUTSELFREF
360
D3
  0
DICTIONARY
  5
DF
102
{ACAD_REACTORS
330
C
102
}
330
C
100
AcDbDictionary
281
     1
  0
DICTIONARY
  5
D
102
{ACAD_REACTORS
330
C
102
}
330
C
100
AcDbDictionary
281
     1
  0
DICTIONARY
  5
19
102
{ACAD_REACTORS
330
C
102
}
330
C
100
AcDbDictionary
281
     1
  3
Layout1
350
1D
  3
Model
350
21
  0
DICTIONARY
  5
DE
102
{ACAD_REACTORS
330
C
102
}
330
C
100
AcDbDictionary
281
     1
  0
DICTIONARY
  5
16
102
{ACAD_REACTORS
330
C
102
}
330
C
100
AcDbDictionary
281
     1
  3
Standard
350
17
  0
DICTIONARY
  5
18
102
{ACAD_REACTORS
330
C
102
}
330
C
100
AcDbDictionary
281
     1
  0
ACDBDICTIONARYWDFLT
  5
E
102
{ACAD_REACTORS
330
C
102
}
330
C
100
AcDbDictionary
281
     1
  3
Normal
350
F
100
AcDbDictionaryWithDefault
340
F
  0
DICTIONARY
  5
EA
102
{ACAD_REACTORS
330
C
102
}
330
C
100
AcDbDictionary
281
     1
  3
DIMASSOC
350
EB
  3
PROJECTNAME
350
EC
  0
XRECORD
  5
D4
102
{ACAD_REACTORS
330
A0
102
}
330
A0
100
AcDbXrecord
280
     1
340
1E
  0
XRECORD
  5
D3
102
{ACAD_REACTORS
330
A2
102
}
330
A2
100
AcDbXrecord
280
     1
340
1A
  0
LAYOUT
  5
1D
102
{ACAD_REACTORS
330
19
102
}
330
19
100
AcDbPlotSettings
  1

  2
\\NT_WORK01\HP LaserJet 5000 PCL 6
  4

  6

 40
0.0
 41
0.0
 42
0.0
 43
0.0
 44
0.0
 45
0.0
 46
0.0
 47
0.0
 48
0.0
 49
0.0
140
0.0
141
0.0
142
1.0
143
1.0
 70
   688
 72
     0
 73
     0
 74
     5
  7

 75
    16
147
1.0
 76
     0
 77
     2
 78
   300
148
0.0
149
0.0
100
AcDbLayout
  1
Layout1
 70
     0
 71
     1
 10
0.0
 20
0.0
 11
12.0
 21
9.0
 12
0.0
 22
0.0
 32
0.0
 14
1.000000000000000E+20
 24
1.000000000000000E+20
 34
1.000000000000000E+20
 15
-1.000000000000000E+20
 25
-1.000000000000000E+20
 35
-1.000000000000000E+20
146
0.0
 13
0.0
 23
0.0
 33
0.0
 16
1.0
 26
0.0
 36
0.0
 17
0.0
 27
1.0
 37
0.0
 76
     0
330
1A
  0
LAYOUT
  5
21
102
{ACAD_REACTORS
330
19
102
}
330
19
100
AcDbPlotSettings
  1

  2
none_device
  4
Letter_(8.50_x_11.00_Inches)
  6

 40
6.349999904632568
 41
6.349999904632568
 42
6.350006103515625
 43
6.350006103515625
 44
215.8999938964844
 45
279.3999938964844
 46
0.0
 47
0.0
 48
0.0
 49
0.0
140
0.0
141
0.0
142
1.0
143
1.0
 70
 11952
 72
     0
 73
     1
 74
     0
  7

 75
     0
147
1.0
 76
     0
 77
     2
 78
   300
148
-230.4417396561563
149
47.00486644638983
100
AcDbLayout
  1
Model
 70
     1
 71
     0
 10
0.0
 20
0.0
 11
12.0
 21
9.0
 12
0.0
 22
0.0
 32
0.0
 14
0.0
 24
0.0
 34
0.0
 15
0.0
 25
0.0
 35
0.0
146
0.0
 13
0.0
 23
0.0
 33
0.0
 16
1.0
 26
0.0
 36
0.0
 17
0.0
 27
1.0
 37
0.0
 76
     0
330
1E
  0
MLINESTYLE
  5
17
102
{ACAD_REACTORS
330
16
102
}
330
16
100
AcDbMlineStyle
  2
STANDARD
 70
     0
  3

 62
   256
 51
90.0
 52
90.0
 71
     2
 49
0.5
 62
   256
  6
BYLAYER
 49
-0.5
 62
   256
  6
BYLAYER
  0
ACDBPLACEHOLDER
  5
F
102
{ACAD_REACTORS
330
E
102
}
330
E
  0
DICTIONARYVAR
  5
EB
102
{ACAD_REACTORS
330
EA
102
}
330
EA
100
DictionaryVariables
280
     0
  1
1
  0
DICTIONARYVAR
  5
EC
102
{ACAD_REACTORS
330
EA
102
}
330
EA
100
DictionaryVariables
280
     0
  1

  0
ENDSEC
  0
EOF
