  0
SECTION
  2
HEADER
  9
$ACADVER
  1
AC1018
  9
$ACADMAINTVER
 70
     2
  9
$DWGCODEPAGE
  3
ANSI_1252
  9
$INSBASE
 10
0.0
 20
0.0
 30
0.0
  9
$EXTMIN
 10
-0.0127449277902088
 20
-0.0317004075857312
 30
-0.0000000000000129
  9
$EXTMAX
 10
420.0082719239349
 20
594.0317242670564
 30
0.0000000000000023
  9
$LIMMIN
 10
0.0
 20
0.0
  9
$LIMMAX
 10
419.9999999999999
 20
594.0
  9
$ORTHOMODE
 70
     1
  9
$REGENMODE
 70
     1
  9
$FILLMODE
 70
     1
  9
$QTEXTMODE
 70
     0
  9
$MIRRTEXT
 70
     1
  9
$LTSCALE
 40
20.0
  9
$ATTMODE
 70
     1
  9
$TEXTSIZE
 40
2.5
  9
$TRACEWID
 40
0.5
  9
$TEXTSTYLE
  7
GREEKS
  9
$CLAYER
  8
BEM
  9
$CELTYPE
  6
ByLayer
  9
$CECOLOR
 62
   256
  9
$CELTSCALE
 40
1.0
  9
$DISPSILH
 70
     0
  9
$DIMSCALE
 40
2.0
  9
$DIMASZ
 40
3.5
  9
$DIMEXO
 40
1.0
  9
$DIMDLI
 40
7.0
  9
$DIMRND
 40
0.0
  9
$DIMDLE
 40
0.0
  9
$DIMEXE
 40
1.0
  9
$DIMTP
 40
0.0
  9
$DIMTM
 40
0.0
  9
$DIMTXT
 40
3.5
  9
$DIMCEN
 40
1.5
  9
$DIMTSZ
 40
0.0
  9
$DIMTOL
 70
     0
  9
$DIMLIM
 70
     0
  9
$DIMTIH
 70
     0
  9
$DIMTOH
 70
     0
  9
$DIMSE1
 70
     0
  9
$DIMSE2
 70
     0
  9
$DIMTAD
 70
     1
  9
$DIMZIN
 70
     8
  9
$DIMBLK
  1

  9
$DIMASO
 70
     1
  9
$DIMSHO
 70
     0
  9
$DIMPOST
  1

  9
$DIMAPOST
  1

  9
$DIMALT
 70
     0
  9
$DIMALTD
 70
     2
  9
$DIMALTF
 40
25.4
  9
$DIMLFAC
 40
1.0
  9
$DIMTOFL
 70
     1
  9
$DIMTVP
 40
0.0
  9
$DIMTIX
 70
     0
  9
$DIMSOXD
 70
     0
  9
$DIMSAH
 70
     0
  9
$DIMBLK1
  1

  9
$DIMBLK2
  1

  9
$DIMSTYLE
  2
Standard
  9
$DIMCLRD
 70
     0
  9
$DIMCLRE
 70
     0
  9
$DIMCLRT
 70
     1
  9
$DIMTFAC
 40
0.5142857142857144
  9
$DIMGAP
 40
1.5
  9
$DIMJUST
 70
     0
  9
$DIMSD1
 70
     0
  9
$DIMSD2
 70
     0
  9
$DIMTOLJ
 70
     1
  9
$DIMTZIN
 70
     8
  9
$DIMALTZ
 70
     8
  9
$DIMALTTZ
 70
     8
  9
$DIMUPT
 70
     0
  9
$DIMDEC
 70
     2
  9
$DIMTDEC
 70
     2
  9
$DIMALTU
 70
     2
  9
$DIMALTTD
 70
     2
  9
$DIMTXSTY
  7
STANDARD
  9
$DIMAUNIT
 70
     0
  9
$DIMADEC
 70
     2
  9
$DIMALTRND
 40
0.0
  9
$DIMAZIN
 70
     2
  9
$DIMDSEP
 70
    46
  9
$DIMATFIT
 70
     3
  9
$DIMFRAC
 70
     0
  9
$DIMLDRBLK
  1

  9
$DIMLUNIT
 70
     2
  9
$DIMLWD
 70
    -2
  9
$DIMLWE
 70
    -2
  9
$DIMTMOVE
 70
     0
  9
$LUNITS
 70
     2
  9
$LUPREC
 70
     2
  9
$SKETCHINC
 40
1.0
  9
$FILLETRAD
 40
3.0
  9
$AUNITS
 70
     0
  9
$AUPREC
 70
     0
  9
$MENU
  1
ACAD
  9
$ELEVATION
 40
0.0
  9
$PELEVATION
 40
0.0
  9
$THICKNESS
 40
0.0
  9
$LIMCHECK
 70
     0
  9
$CHAMFERA
 40
0.0
  9
$CHAMFERB
 40
0.0
  9
$CHAMFERC
 40
0.0
  9
$CHAMFERD
 40
0.0
  9
$SKPOLY
 70
     0
  9
$TDCREATE
 40
2455397.823042361
  9
$TDUCREATE
 40
2455397.781375695
  9
$TDUPDATE
 40
2456230.318964710
  9
$TDUUPDATE
 40
2456230.277298044
  9
$TDINDWG
 40
0.3804466204
  9
$TDUSRTIMER
 40
0.3804466204
  9
$USRTIMER
 70
     1
  9
$ANGBASE
 50
0.0
  9
$ANGDIR
 70
     0
  9
$PDMODE
 70
     0
  9
$PDSIZE
 40
0.0
  9
$PLINEWID
 40
0.0
  9
$SPLFRAME
 70
     0
  9
$SPLINETYPE
 70
     6
  9
$SPLINESEGS
 70
     8
  9
$HANDSEED
  5
217B
  9
$SURFTAB1
 70
     6
  9
$SURFTAB2
 70
     6
  9
$SURFTYPE
 70
     6
  9
$SURFU
 70
     6
  9
$SURFV
 70
     6
  9
$UCSBASE
  2

  9
$UCSNAME
  2

  9
$UCSORG
 10
0.0
 20
0.0
 30
0.0
  9
$UCSXDIR
 10
1.0
 20
0.0
 30
0.0
  9
$UCSYDIR
 10
0.0
 20
1.0
 30
0.0
  9
$UCSORTHOREF
  2

  9
$UCSORTHOVIEW
 70
     0
  9
$UCSORGTOP
 10
0.0
 20
0.0
 30
0.0
  9
$UCSORGBOTTOM
 10
0.0
 20
0.0
 30
0.0
  9
$UCSORGLEFT
 10
0.0
 20
0.0
 30
0.0
  9
$UCSORGRIGHT
 10
0.0
 20
0.0
 30
0.0
  9
$UCSORGFRONT
 10
0.0
 20
0.0
 30
0.0
  9
$UCSORGBACK
 10
0.0
 20
0.0
 30
0.0
  9
$PUCSBASE
  2

  9
$PUCSNAME
  2

  9
$PUCSORG
 10
0.0
 20
0.0
 30
0.0
  9
$PUCSXDIR
 10
1.0
 20
0.0
 30
0.0
  9
$PUCSYDIR
 10
0.0
 20
1.0
 30
0.0
  9
$PUCSORTHOREF
  2

  9
$PUCSORTHOVIEW
 70
     0
  9
$PUCSORGTOP
 10
0.0
 20
0.0
 30
0.0
  9
$PUCSORGBOTTOM
 10
0.0
 20
0.0
 30
0.0
  9
$PUCSORGLEFT
 10
0.0
 20
0.0
 30
0.0
  9
$PUCSORGRIGHT
 10
0.0
 20
0.0
 30
0.0
  9
$PUCSORGFRONT
 10
0.0
 20
0.0
 30
0.0
  9
$PUCSORGBACK
 10
0.0
 20
0.0
 30
0.0
  9
$USERI1
 70
     0
  9
$USERI2
 70
     0
  9
$USERI3
 70
     0
  9
$USERI4
 70
     0
  9
$USERI5
 70
     0
  9
$USERR1
 40
0.0
  9
$USERR2
 40
0.0
  9
$USERR3
 40
0.0
  9
$USERR4
 40
0.0
  9
$USERR5
 40
0.0
  9
$WORLDVIEW
 70
     1
  9
$SHADEDGE
 70
     3
  9
$SHADEDIF
 70
    70
  9
$TILEMODE
 70
     1
  9
$MAXACTVP
 70
    16
  9
$PINSBASE
 10
0.0
 20
0.0
 30
0.0
  9
$PLIMCHECK
 70
     0
  9
$PEXTMIN
 10
1.000000000000000E+20
 20
1.000000000000000E+20
 30
1.000000000000000E+20
  9
$PEXTMAX
 10
-1.000000000000000E+20
 20
-1.000000000000000E+20
 30
-1.000000000000000E+20
  9
$PLIMMIN
 10
0.0
 20
0.0
  9
$PLIMMAX
 10
12.0
 20
9.0
  9
$UNITMODE
 70
     0
  9
$VISRETAIN
 70
     0
  9
$PLINEGEN
 70
     0
  9
$PSLTSCALE
 70
     0
  9
$TREEDEPTH
 70
  3020
  9
$CMLSTYLE
  2
Standard
  9
$CMLJUST
 70
     0
  9
$CMLSCALE
 40
1.0
  9
$PROXYGRAPHICS
 70
     1
  9
$MEASUREMENT
 70
     0
  9
$CELWEIGHT
370
    -1
  9
$ENDCAPS
280
     0
  9
$JOINSTYLE
280
     0
  9
$LWDISPLAY
290
     0
  9
$INSUNITS
 70
     0
  9
$HYPERLINKBASE
  1

  9
$STYLESHEET
  1
monochrome 1.ctb
  9
$XEDIT
290
     1
  9
$CEPSNTYPE
380
     0
  9
$PSTYLEMODE
290
     1
  9
$FINGERPRINTGUID
  2
{D68B0D02-A558-11D7-B632-000102183313}
  9
$VERSIONGUID
  2
{C7EAB891-46CC-4F38-A5D1-A252A5480C37}
  9
$EXTNAMES
290
     1
  9
$PSVPSCALE
 40
0.0
  9
$OLESTARTUP
290
     0
  9
$SORTENTS
280
   127
  9
$INDEXCTL
280
     0
  9
$HIDETEXT
280
     0
  9
$XCLIPFRAME
290
     0
  9
$HALOGAP
280
     0
  9
$OBSCOLOR
 70
   257
  9
$OBSLTYPE
280
     0
  9
$INTERSECTIONDISPLAY
280
     0
  9
$INTERSECTIONCOLOR
 70
   257
  9
$DIMASSOC
280
     1
  9
$PROJECTNAME
  1

  0
ENDSEC
  0
SECTION
  2
CLASSES
  0
CLASS
  1
ACDBDICTIONARYWDFLT
  2
AcDbDictionaryWithDefault
  3
ObjectDBX Classes
 90
        0
 91
        1
280
     0
281
     0
  0
CLASS
  1
DICTIONARYVAR
  2
AcDbDictionaryVar
  3
ObjectDBX Classes
 90
        0
 91
        2
280
     0
281
     0
  0
ENDSEC
  0
SECTION
  2
TABLES
  0
TABLE
  2
VPORT
  5
8
330
0
100
AcDbSymbolTable
 70
     3
  0
VPORT
  5
217A
330
8
100
AcDbSymbolTableRecord
100
AcDbViewportTableRecord
  2
*Active
 70
     0
 10
0.0
 20
0.0
 11
1.0
 21
1.0
 12
209.9999999999999
 22
297.0
 13
0.0
 23
0.0
 14
1.0
 24
1.0
 15
10.0
 25
10.0
 16
0.0
 26
0.0
 36
1.0
 17
0.0
 27
0.0
 37
0.0
 40
594.3836449329867
 41
1.404858299595141
 42
50.0
 43
0.0
 44
0.0
 50
0.0
 51
0.0
 71
     0
 72
  1500
 73
     1
 74
     0
 75
     0
 76
     0
 77
     0
 78
     0
281
     0
 65
     1
110
0.0
120
0.0
130
0.0
111
1.0
121
0.0
131
0.0
112
0.0
122
1.0
132
0.0
 79
     0
146
0.0
  0
ENDTAB
  0
TABLE
  2
LTYPE
  5
5
330
0
100
AcDbSymbolTable
 70
     2
  0
LTYPE
  5
13
330
5
100
AcDbSymbolTableRecord
100
AcDbLinetypeTableRecord
  2
ByBlock
 70
     0
  3

 72
    65
 73
     0
 40
0.0
  0
LTYPE
  5
14
330
5
100
AcDbSymbolTableRecord
100
AcDbLinetypeTableRecord
  2
ByLayer
 70
     0
  3

 72
    65
 73
     0
 40
0.0
  0
LTYPE
  5
15
330
5
100
AcDbSymbolTableRecord
100
AcDbLinetypeTableRecord
  2
Continuous
 70
     0
  3
Solid line
 72
    65
 73
     0
 40
0.0
  0
LTYPE
  5
25
330
5
100
AcDbSymbolTableRecord
100
AcDbLinetypeTableRecord
  2
STRICHPUNKT
 70
     0
  3
__ . __ . __ . __ . __ . __ . __ . __ . __ . __
 72
    65
 73
     4
 40
1.0
 49
0.5
 74
     0
 49
-0.25
 74
     0
 49
0.0
 74
     0
 49
-0.25
 74
     0
  0
ENDTAB
  0
TABLE
  2
LAYER
  5
2
330
0
100
AcDbSymbolTable
 70
     8
  0
LAYER
  5
10
330
2
100
AcDbSymbolTableRecord
100
AcDbLayerTableRecord
  2
0
 70
     0
 62
     7
  6
Continuous
370
    -3
390
F
  0
LAYER
  5
2A
330
2
100
AcDbSymbolTableRecord
100
AcDbLayerTableRecord
  2
VOLL
 70
     0
 62
     1
  6
Continuous
370
    -3
390
F
  0
LAYER
  5
2B
330
2
100
AcDbSymbolTableRecord
100
AcDbLayerTableRecord
  2
HILF
 70
     0
 62
     2
  6
Continuous
370
    -3
390
F
  0
LAYER
  5
2C
330
2
100
AcDbSymbolTableRecord
100
AcDbLayerTableRecord
  2
MITTEL
 70
     0
 62
     2
  6
STRICHPUNKT
370
    -3
390
F
  0
LAYER
  5
2F
330
2
100
AcDbSymbolTableRecord
100
AcDbLayerTableRecord
  2
BEM
 70
     0
 62
     7
  6
Continuous
370
    -3
390
F
  0
LAYER
  5
30
330
2
100
AcDbSymbolTableRecord
100
AcDbLayerTableRecord
  2
STEMPEL
 70
     0
 62
     3
  6
Continuous
370
    -3
390
F
  0
LAYER
  5
31
330
2
100
AcDbSymbolTableRecord
100
AcDbLayerTableRecord
  2
TEXT
 70
     0
 62
     7
  6
Continuous
370
    -3
390
F
  0
LAYER
  5
1A8
330
2
100
AcDbSymbolTableRecord
100
AcDbLayerTableRecord
  2
Defpoints
 70
     0
 62
     7
  6
Continuous
290
     0
370
    -3
390
F
  0
ENDTAB
  0
TABLE
  2
STYLE
  5
3
330
0
100
AcDbSymbolTable
 70
     2
  0
STYLE
  5
11
330
3
100
AcDbSymbolTableRecord
100
AcDbTextStyleTableRecord
  2
STANDARD
 70
     0
 40
0.0
 41
0.8
 50
0.0
 71
     0
 42
3.5
  3
simplex.shx
  4

  0
STYLE
  5
24
330
3
100
AcDbSymbolTableRecord
100
AcDbTextStyleTableRecord
  2
GREEKS
 70
     0
 40
0.0
 41
0.8
 50
0.0
 71
     0
 42
2.5
  3
SIMPLEX.shx
  4

  0
ENDTAB
  0
TABLE
  2
VIEW
  5
6
330
0
100
AcDbSymbolTable
 70
     0
  0
ENDTAB
  0
TABLE
  2
UCS
  5
7
330
0
100
AcDbSymbolTable
 70
     0
  0
ENDTAB
  0
TABLE
  2
APPID
  5
9
330
0
100
AcDbSymbolTable
 70
     1
  0
APPID
  5
12
330
9
100
AcDbSymbolTableRecord
100
AcDbRegAppTableRecord
  2
ACAD
 70
     0
  0
ENDTAB
  0
TABLE
  2
DIMSTYLE
  5
A
330
0
100
AcDbSymbolTable
 70
     1
100
AcDbDimStyleTable
 71
     1
340
9D
  0
DIMSTYLE
105
9D
102
{ACAD_REACTORS
330
20DC
330
20E9
330
2105
330
2114
330
212A
330
2168
102
}
330
A
100
AcDbSymbolTableRecord
100
AcDbDimStyleTableRecord
  2
Standard
 70
     0
340
11
  0
ENDTAB
  0
TABLE
  2
BLOCK_RECORD
  5
1
330
0
100
AcDbSymbolTable
 70
     7
  0
BLOCK_RECORD
  5
1E
102
{ACAD_XDICTIONARY
360
A0
102
}
330
1
100
AcDbSymbolTableRecord
100
AcDbBlockTableRecord
  2
*Model_Space
340
21
  0
BLOCK_RECORD
  5
1A
102
{ACAD_XDICTIONARY
360
A2
102
}
330
1
100
AcDbSymbolTableRecord
100
AcDbBlockTableRecord
  2
*Paper_Space
340
1D
  0
BLOCK_RECORD
  5
22
330
1
100
AcDbSymbolTableRecord
100
AcDbBlockTableRecord
  2
LOGO
340
0
102
{BLKREFS
331
9B
102
}
  0
BLOCK_RECORD
  5
20DD
330
1
100
AcDbSymbolTableRecord
100
AcDbBlockTableRecord
  2
*D1
340
0
  0
BLOCK_RECORD
  5
20EA
330
1
100
AcDbSymbolTableRecord
100
AcDbBlockTableRecord
  2
*D2
340
0
  0
BLOCK_RECORD
  5
2106
330
1
100
AcDbSymbolTableRecord
100
AcDbBlockTableRecord
  2
*D3
340
0
  0
BLOCK_RECORD
  5
2115
330
1
100
AcDbSymbolTableRecord
100
AcDbBlockTableRecord
  2
*D4
340
0
  0
BLOCK_RECORD
  5
212B
330
1
100
AcDbSymbolTableRecord
100
AcDbBlockTableRecord
  2
*D5
340
0
  0
BLOCK_RECORD
  5
2169
330
1
100
AcDbSymbolTableRecord
100
AcDbBlockTableRecord
  2
*D6
340
0
  0
ENDTAB
  0
ENDSEC
  0
SECTION
  2
BLOCKS
  0
BLOCK
  5
35
330
1E
100
AcDbEntity
  8
0
100
AcDbBlockBegin
  2
*Model_Space
 70
     0
 10
0.0
 20
0.0
 30
0.0
  3
*Model_Space
  1

  0
ENDBLK
  5
36
330
1E
100
AcDbEntity
  8
0
100
AcDbBlockEnd
  0
BLOCK
  5
33
330
1A
100
AcDbEntity
 67
     1
  8
0
100
AcDbBlockBegin
  2
*Paper_Space
 70
     0
 10
0.0
 20
0.0
 30
0.0
  3
*Paper_Space
  1

  0
ENDBLK
  5
34
330
1A
100
AcDbEntity
 67
     1
  8
0
100
AcDbBlockEnd
  0
BLOCK
  5
37
330
22
100
AcDbEntity
  8
0
100
AcDbBlockBegin
  2
LOGO
 70
     0
 10
0.0
 20
0.0
 30
0.0
  3
LOGO
  1

  0
ARC
  5
38
330
22
100
AcDbEntity
  8
0
100
AcDbCircle
 10
11.59973089678112
 20
-9.271599258481501
 30
0.0
 40
4.5
100
AcDbArc
 50
270.0
 51
231.0575587310159
  0
LINE
  5
39
330
22
100
AcDbEntity
  8
0
100
AcDbLine
 10
3.599730896781125
 20
-4.771599258481529
 30
0.0
 11
3.599730896781153
 21
-11.77159925848133
 31
0.0
  0
LINE
  5
3A
330
22
100
AcDbEntity
  8
0
100
AcDbLine
 10
2.599730896781125
 20
-4.771599258481529
 30
0.0
 11
2.599730896781153
 21
-11.77159925848133
 31
0.0
  0
CIRCLE
  5
3B
330
22
100
AcDbEntity
  8
0
100
AcDbCircle
 10
11.59973089678112
 20
-9.271599258481501
 30
0.0
 40
3.5
  0
ARC
  5
3C
330
22
100
AcDbEntity
  8
0
100
AcDbCircle
 10
31.59973089678115
 20
-9.271599258481472
 30
0.0
 40
4.5
100
AcDbArc
 50
270.0
 51
231.0575587310182
  0
LINE
  5
3D
330
22
100
AcDbEntity
  8
0
100
AcDbLine
 10
17.59973089678112
 20
-4.771599258481472
 30
0.0
 11
17.59973089678115
 21
-13.77159925848147
 31
0.0
  0
ARC
  5
3E
330
22
100
AcDbEntity
  8
0
100
AcDbCircle
 10
22.59973089678116
 20
-7.271599258481472
 30
0.0
 40
2.5
100
AcDbArc
 50
293.1161887722295
 51
90.0
  0
CIRCLE
  5
3F
330
22
100
AcDbEntity
  8
0
100
AcDbCircle
 10
31.59973089678115
 20
-9.271599258481472
 30
0.0
 40
3.5
  0
ARC
  5
40
330
22
100
AcDbEntity
  8
0
100
AcDbCircle
 10
4.599730896781153
 20
-11.77159925848133
 30
0.0
 40
1.0
100
AcDbArc
 50
180.0
 51
270.0
  0
ARC
  5
41
330
22
100
AcDbEntity
  8
0
100
AcDbCircle
 10
4.599730896781153
 20
-11.77159925848133
 30
0.0
 40
2.0
100
AcDbArc
 50
179.9999999999992
 51
270.0
  0
LINE
  5
42
330
22
100
AcDbEntity
  8
0
100
AcDbLine
 10
11.59973089678115
 20
-13.77159925848144
 30
0.0
 11
4.599730896781153
 21
-13.77159925848147
 31
0.0
  0
LINE
  5
43
330
22
100
AcDbEntity
  8
0
100
AcDbLine
 10
8.771303772034769
 20
-12.77159925848136
 30
0.0
 11
4.599730896781153
 21
-12.77159925848133
 31
0.0
  0
LINE
  5
44
330
22
100
AcDbEntity
  8
0
100
AcDbLine
 10
31.59973089678115
 20
-13.77159925848147
 30
0.0
 11
23.6715276665056
 21
-13.77159925848144
 31
0.0
  0
LINE
  5
45
330
22
100
AcDbEntity
  8
0
100
AcDbLine
 10
23.56565672307022
 20
-9.51278021337896
 30
0.0
 11
24.4388546544846
 21
-12.77159925848144
 31
0.0
  0
LINE
  5
46
330
22
100
AcDbEntity
  8
0
100
AcDbLine
 10
22.59973089678116
 20
-9.771599258481472
 30
0.0
 11
18.59973089678112
 21
-9.771599258481472
 31
0.0
  0
LINE
  5
47
330
22
100
AcDbEntity
  8
0
100
AcDbLine
 10
18.59973089678115
 20
-13.77159925848144
 30
0.0
 11
17.59973089678115
 21
-13.77159925848144
 31
0.0
  0
LINE
  5
48
330
22
100
AcDbEntity
  8
0
100
AcDbLine
 10
18.59973089678115
 20
-9.771599258481472
 30
0.0
 11
18.59973089678115
 21
-13.77159925848144
 31
0.0
  0
LINE
  5
49
330
22
100
AcDbEntity
  8
0
100
AcDbLine
 10
22.59973089678116
 20
-9.771599258481472
 30
0.0
 11
23.67152766650562
 21
-13.77159925848147
 31
0.0
  0
ARC
  5
4A
330
22
100
AcDbEntity
  8
0
100
AcDbCircle
 10
22.59973089678116
 20
-7.271599258481472
 30
0.0
 40
2.5
100
AcDbArc
 50
270.0
 51
270.0000000000007
  0
LINE
  5
4B
330
22
100
AcDbEntity
  8
0
100
AcDbLine
 10
28.77130377203494
 20
-12.77159925848147
 30
0.0
 11
24.43885465448463
 21
-12.77159925848144
 31
0.0
  0
LINE
  5
4C
330
22
100
AcDbEntity
  8
0
100
AcDbLine
 10
3.599730896781125
 20
-4.771599258481472
 30
0.0
 11
2.599730896781125
 21
-4.771599258481472
 31
0.0
  0
LINE
  5
4D
330
22
100
AcDbEntity
  8
0
100
AcDbLine
 10
22.59973089678116
 20
-8.771599258481472
 30
0.0
 11
18.59973089678115
 21
-8.771599258481472
 31
0.0
  0
LINE
  5
4E
330
22
100
AcDbEntity
  8
0
100
AcDbLine
 10
22.59973089678116
 20
-5.771599258481472
 30
0.0
 11
18.59973089678115
 21
-5.771599258481472
 31
0.0
  0
LINE
  5
4F
330
22
100
AcDbEntity
  8
0
100
AcDbLine
 10
22.59973089678116
 20
-4.771599258481472
 30
0.0
 11
17.59973089678115
 21
-4.771599258481472
 31
0.0
  0
LINE
  5
50
330
22
100
AcDbEntity
  8
0
100
AcDbLine
 10
18.59973089678115
 20
-5.771599258481472
 30
0.0
 11
18.59973089678115
 21
-8.771599258481472
 31
0.0
  0
ARC
  5
51
330
22
100
AcDbEntity
  8
0
100
AcDbCircle
 10
22.59973089678116
 20
-7.271599258481472
 30
0.0
 40
1.5
100
AcDbArc
 50
270.0
 51
90.0
  0
ENDBLK
  5
52
330
22
100
AcDbEntity
  8
0
100
AcDbBlockEnd
  0
BLOCK
  5
20E7
330
20DD
100
AcDbEntity
  8
0
100
AcDbBlockBegin
  2
*D1
 70
     1
 10
0.0
 20
0.0
 30
0.0
  3
*D1
  1

  0
LINE
  5
20DE
330
20DD
100
AcDbEntity
  8
BEM
 62
     0
370
    -2
100
AcDbLine
 10
108.268372849389
 20
216.505194274822
 30
0.0
 11
108.268372849389
 21
186.3679836584065
 31
0.0
  0
LINE
  5
20DF
330
20DD
100
AcDbEntity
  8
BEM
 62
     0
370
    -2
100
AcDbLine
 10
359.2683728493891
 20
217.460194274822
 30
0.0
 11
359.2683728493891
 21
186.3679836584065
 31
0.0
  0
LINE
  5
20E0
330
20DD
100
AcDbEntity
  8
BEM
 62
     0
370
    -2
100
AcDbLine
 10
115.268372849389
 20
188.3679836584065
 30
0.0
 11
352.2683728493892
 21
188.3679836584065
 31
0.0
  0
SOLID
  5
20E1
330
20DD
100
AcDbEntity
  8
BEM
 62
     0
100
AcDbTrace
 10
115.268372849389
 20
189.5346503250731
 30
0.0
 11
115.268372849389
 21
187.2013169917398
 31
0.0
 12
108.268372849389
 22
188.3679836584065
 32
0.0
 13
108.268372849389
 23
188.3679836584065
 33
0.0
  0
SOLID
  5
20E2
330
20DD
100
AcDbEntity
  8
BEM
 62
     0
100
AcDbTrace
 10
352.2683728493892
 20
189.5346503250731
 30
0.0
 11
352.2683728493892
 21
187.2013169917398
 31
0.0
 12
359.2683728493891
 22
188.3679836584065
 32
0.0
 13
359.2683728493891
 23
188.3679836584065
 33
0.0
  0
MTEXT
  5
20E3
330
20DD
100
AcDbEntity
  8
BEM
 62
     1
100
AcDbMText
 10
233.7683728493891
 20
194.8679836584065
 30
0.0
 40
7.0
 41
0.0
 71
     5
 72
     1
  1
\A1;251
 73
     1
 44
1.0
  0
POINT
  5
20E4
330
20DD
100
AcDbEntity
  8
Defpoints
 62
     0
100
AcDbPoint
 10
108.268372849389
 20
218.505194274822
 30
0.0
  0
POINT
  5
20E5
330
20DD
100
AcDbEntity
  8
Defpoints
 62
     0
100
AcDbPoint
 10
359.2683728493891
 20
219.460194274822
 30
0.0
  0
POINT
  5
20E6
330
20DD
100
AcDbEntity
  8
Defpoints
 62
     0
100
AcDbPoint
 10
359.2683728493891
 20
188.3679836584065
 30
0.0
  0
ENDBLK
  5
20E8
330
20DD
100
AcDbEntity
  8
0
100
AcDbBlockEnd
  0
BLOCK
  5
20F4
330
20EA
100
AcDbEntity
  8
0
100
AcDbBlockBegin
  2
*D2
 70
     1
 10
0.0
 20
0.0
 30
0.0
  3
*D2
  1

  0
LINE
  5
20EB
330
20EA
100
AcDbEntity
  8
BEM
 62
     0
370
    -2
100
AcDbLine
 10
97.26837284938904
 20
228.005194274822
 30
0.0
 11
97.26837284938904
 21
171.0041927762393
 31
0.0
  0
LINE
  5
20EC
330
20EA
100
AcDbEntity
  8
BEM
 62
     0
370
    -2
100
AcDbLine
 10
370.2683728493891
 20
228.005194274822
 30
0.0
 11
370.2683728493891
 21
171.0041927762393
 31
0.0
  0
LINE
  5
20ED
330
20EA
100
AcDbEntity
  8
BEM
 62
     0
370
    -2
100
AcDbLine
 10
104.268372849389
 20
173.0041927762393
 30
0.0
 11
363.2683728493891
 21
173.0041927762393
 31
0.0
  0
SOLID
  5
20EE
330
20EA
100
AcDbEntity
  8
BEM
 62
     0
100
AcDbTrace
 10
104.268372849389
 20
174.1708594429059
 30
0.0
 11
104.268372849389
 21
171.8375261095726
 31
0.0
 12
97.26837284938904
 22
173.0041927762393
 32
0.0
 13
97.26837284938904
 23
173.0041927762393
 33
0.0
  0
SOLID
  5
20EF
330
20EA
100
AcDbEntity
  8
BEM
 62
     0
100
AcDbTrace
 10
363.2683728493891
 20
174.1708594429059
 30
0.0
 11
363.2683728493891
 21
171.8375261095726
 31
0.0
 12
370.2683728493891
 22
173.0041927762393
 32
0.0
 13
370.2683728493891
 23
173.0041927762393
 33
0.0
  0
MTEXT
  5
20F0
330
20EA
100
AcDbEntity
  8
BEM
 62
     1
100
AcDbMText
 10
233.7683728493891
 20
179.5041927762393
 30
0.0
 40
7.0
 41
0.0
 71
     5
 72
     1
  1
\A1;273
 73
     1
 44
1.0
  0
POINT
  5
20F1
330
20EA
100
AcDbEntity
  8
Defpoints
 62
     0
100
AcDbPoint
 10
97.26837284938904
 20
230.005194274822
 30
0.0
  0
POINT
  5
20F2
330
20EA
100
AcDbEntity
  8
Defpoints
 62
     0
100
AcDbPoint
 10
370.2683728493891
 20
230.005194274822
 30
0.0
  0
POINT
  5
20F3
330
20EA
100
AcDbEntity
  8
Defpoints
 62
     0
100
AcDbPoint
 10
370.2683728493891
 20
173.0041927762393
 30
0.0
  0
ENDBLK
  5
20F5
330
20EA
100
AcDbEntity
  8
0
100
AcDbBlockEnd
  0
BLOCK
  5
2112
330
2106
100
AcDbEntity
  8
0
100
AcDbBlockBegin
  2
*D3
 70
     1
 10
0.0
 20
0.0
 30
0.0
  3
*D3
  1

  0
LINE
  5
2107
330
2106
100
AcDbEntity
  8
BEM
 62
     0
370
    -2
100
AcDbLine
 10
95.26837284938904
 20
432.7199230241729
 30
0.0
 11
85.15799667617512
 21
432.7199230241729
 31
0.0
  0
LINE
  5
2108
330
2106
100
AcDbEntity
  8
BEM
 62
     0
370
    -2
100
AcDbLine
 10
95.26837284938904
 20
435.7199230241729
 30
0.0
 11
85.15799667617512
 21
435.7199230241729
 31
0.0
  0
LINE
  5
2109
330
2106
100
AcDbEntity
  8
BEM
 62
     0
370
    -2
100
AcDbLine
 10
87.15799667617512
 20
425.7199230241729
 30
0.0
 11
87.15799667617512
 21
418.7199230241729
 31
0.0
  0
LINE
  5
210A
330
2106
100
AcDbEntity
  8
BEM
 62
     0
370
    -2
100
AcDbLine
 10
87.15799667617512
 20
442.7199230241729
 30
0.0
 11
87.15799667617512
 21
459.4532563575063
 31
0.0
  0
LINE
  5
210B
330
2106
100
AcDbEntity
  8
BEM
 62
     0
370
    -2
100
AcDbLine
 10
87.15799667617512
 20
432.7199230241729
 30
0.0
 11
87.15799667617512
 21
435.7199230241729
 31
0.0
  0
SOLID
  5
210C
330
2106
100
AcDbEntity
  8
BEM
 62
     0
100
AcDbTrace
 10
85.99133000950844
 20
425.7199230241729
 30
0.0
 11
88.32466334284179
 21
425.7199230241729
 31
0.0
 12
87.15799667617512
 22
432.7199230241729
 32
0.0
 13
87.15799667617512
 23
432.7199230241729
 33
0.0
  0
SOLID
  5
210D
330
2106
100
AcDbEntity
  8
BEM
 62
     0
100
AcDbTrace
 10
85.99133000950844
 20
442.7199230241729
 30
0.0
 11
88.32466334284179
 21
442.7199230241729
 31
0.0
 12
87.15799667617512
 22
435.7199230241729
 32
0.0
 13
87.15799667617512
 23
435.7199230241729
 33
0.0
  0
MTEXT
  5
210E
330
2106
100
AcDbEntity
  8
BEM
 62
     1
100
AcDbMText
 10
80.65799667617504
 20
454.5865896908396
 30
0.0
 40
7.0
 41
0.0
 71
     5
 72
     1
  1
\A1;3
 11
0.0000000000000001
 21
1.0
 31
0.0
 73
     1
 44
1.0
  0
POINT
  5
210F
330
2106
100
AcDbEntity
  8
Defpoints
 62
     0
100
AcDbPoint
 10
97.26837284938904
 20
432.7199230241729
 30
0.0
  0
POINT
  5
2110
330
2106
100
AcDbEntity
  8
Defpoints
 62
     0
100
AcDbPoint
 10
97.26837284938904
 20
435.7199230241729
 30
0.0
  0
POINT
  5
2111
330
2106
100
AcDbEntity
  8
Defpoints
 62
     0
100
AcDbPoint
 10
87.15799667617512
 20
435.7199230241729
 30
0.0
  0
ENDBLK
  5
2113
330
2106
100
AcDbEntity
  8
0
100
AcDbBlockEnd
  0
BLOCK
  5
211F
330
2115
100
AcDbEntity
  8
0
100
AcDbBlockBegin
  2
*D4
 70
     1
 10
0.0
 20
0.0
 30
0.0
  3
*D4
  1

  0
LINE
  5
2116
330
2115
100
AcDbEntity
  8
BEM
 62
     0
370
    -2
100
AcDbLine
 10
223.9733728493891
 20
307.7199230241729
 30
0.0
 11
66.90173472753572
 21
307.719923024173
 31
0.0
  0
LINE
  5
2117
330
2115
100
AcDbEntity
  8
BEM
 62
     0
370
    -2
100
AcDbLine
 10
231.768372849389
 20
546.7199230241728
 30
0.0
 11
66.90173472753578
 21
546.7199230241728
 31
0.0
  0
LINE
  5
2118
330
2115
100
AcDbEntity
  8
BEM
 62
     0
370
    -2
100
AcDbLine
 10
68.90173472753573
 20
314.719923024173
 30
0.0
 11
68.90173472753577
 21
539.7199230241729
 31
0.0
  0
SOLID
  5
2119
330
2115
100
AcDbEntity
  8
BEM
 62
     0
100
AcDbTrace
 10
67.73506806086905
 20
314.719923024173
 30
0.0
 11
70.0684013942024
 21
314.719923024173
 31
0.0
 12
68.90173472753573
 22
307.719923024173
 32
0.0
 13
68.90173472753573
 23
307.719923024173
 33
0.0
  0
SOLID
  5
211A
330
2115
100
AcDbEntity
  8
BEM
 62
     0
100
AcDbTrace
 10
67.7350680608691
 20
539.7199230241729
 30
0.0
 11
70.06840139420244
 21
539.7199230241729
 31
0.0
 12
68.90173472753578
 22
546.7199230241728
 32
0.0
 13
68.90173472753578
 23
546.7199230241728
 33
0.0
  0
MTEXT
  5
211B
330
2115
100
AcDbEntity
  8
BEM
 62
     1
100
AcDbMText
 10
62.40173472753568
 20
427.2199230241729
 30
0.0
 40
7.0
 41
0.0
 71
     5
 72
     1
  1
\A1;239
 11
0.0000000000000001
 21
1.0
 31
0.0
 73
     1
 44
1.0
  0
POINT
  5
211C
330
2115
100
AcDbEntity
  8
Defpoints
 62
     0
100
AcDbPoint
 10
225.9733728493891
 20
307.7199230241729
 30
0.0
  0
POINT
  5
211D
330
2115
100
AcDbEntity
  8
Defpoints
 62
     0
100
AcDbPoint
 10
233.768372849389
 20
546.7199230241728
 30
0.0
  0
POINT
  5
211E
330
2115
100
AcDbEntity
  8
Defpoints
 62
     0
100
AcDbPoint
 10
68.90173472753578
 20
546.7199230241728
 30
0.0
  0
ENDBLK
  5
2120
330
2115
100
AcDbEntity
  8
0
100
AcDbBlockEnd
  0
BLOCK
  5
2133
330
212B
100
AcDbEntity
  8
0
100
AcDbBlockBegin
  2
*D5
 70
     1
 10
0.0
 20
0.0
 30
0.0
  3
*D5
  1

  0
LINE
  5
213C
330
212B
100
AcDbEntity
  8
BEM
 62
     0
370
    -2
100
AcDbLine
 10
161.0894475485305
 20
352.2929708909137
 30
0.0
 11
161.0849583039741
 21
352.2968091660913
 31
0.0
  0
LINE
  5
213D
330
212B
100
AcDbEntity
  8
BEM
 62
     0
370
    -2
100
AcDbLine
 10
303.4064111373695
 20
518.7468139650733
 30
0.0
 11
303.401921892813
 21
518.7506522402509
 31
0.0
  0
LINE
  5
213E
330
212B
100
AcDbEntity
  8
BEM
 62
     0
370
    -2
100
AcDbLine
 10
167.1540287664391
 20
356.3175533411956
 30
0.0
 11
300.3731042719072
 21
512.1305114698978
 31
0.0
  0
SOLID
  5
213F
330
212B
100
AcDbEntity
  8
BEM
 62
     0
100
AcDbTrace
 10
166.2672883543176
 20
357.0757106814764
 30
0.0
 11
168.0407691785605
 21
355.5593960009147
 31
0.0
 12
162.6050847247537
 22
350.9971108684669
 32
0.0
 13
162.6050847247537
 23
350.9971108684669
 33
0.0
  0
SOLID
  5
2140
330
212B
100
AcDbEntity
  8
BEM
 62
     0
100
AcDbTrace
 10
299.4863638597857
 20
512.8886688101788
 30
0.0
 11
301.2598446840286
 21
511.3723541296169
 31
0.0
 12
304.9220483135925
 22
517.4509539426265
 32
0.0
 13
304.9220483135925
 23
517.4509539426265
 33
0.0
  0
MTEXT
  5
2141
330
212B
100
AcDbEntity
  8
BEM
 62
     1
100
AcDbMText
 10
251.6653221196259
 20
465.164237328558
 30
0.0
 40
7.0
 41
0.0
 71
     5
 72
     1
  1
\A1;219
 11
0.6498491488121997
 21
0.7600632103898067
 31
0.0
 73
     1
 44
1.0
  0
POINT
  5
2142
330
212B
100
AcDbEntity
  8
Defpoints
 62
     0
100
AcDbPoint
 10
162.6095739693102
 20
350.9932725932894
 30
0.0
  0
POINT
  5
2143
330
212B
100
AcDbEntity
  8
Defpoints
 62
     0
100
AcDbPoint
 10
304.926537558149
 20
517.4471156674489
 30
0.0
  0
POINT
  5
2144
330
212B
100
AcDbEntity
  8
Defpoints
 62
     0
100
AcDbPoint
 10
304.9220483135925
 20
517.4509539426265
 30
0.0
  0
ENDBLK
  5
2134
330
212B
100
AcDbEntity
  8
0
100
AcDbBlockEnd
  0
BLOCK
  5
2173
330
2169
100
AcDbEntity
  8
0
100
AcDbBlockBegin
  2
*D6
 70
     1
 10
0.0
 20
0.0
 30
0.0
  3
*D6
  1

  0
LINE
  5
216A
330
2169
100
AcDbEntity
  8
BEM
 62
     0
370
    -2
100
AcDbLine
 10
100.6273566980117
 20
250.0051942748224
 30
0.0
 11
77.81101570875398
 21
250.0051942748224
 31
0.0
  0
LINE
  5
216B
330
2169
100
AcDbEntity
  8
BEM
 62
     0
370
    -2
100
AcDbLine
 10
100.627372849389
 20
210.005194274822
 30
0.0
 11
77.81101570875397
 21
210.005194274822
 31
0.0
  0
LINE
  5
216C
330
2169
100
AcDbEntity
  8
BEM
 62
     0
370
    -2
100
AcDbLine
 10
79.81101570875399
 20
243.0051942748224
 30
0.0
 11
79.81101570875397
 21
217.005194274822
 31
0.0
  0
SOLID
  5
216D
330
2169
100
AcDbEntity
  8
BEM
 62
     0
100
AcDbTrace
 10
78.64434904208732
 20
243.0051942748224
 30
0.0
 11
80.97768237542066
 21
243.0051942748224
 31
0.0
 12
79.81101570875399
 22
250.0051942748224
 32
0.0
 13
79.81101570875399
 23
250.0051942748224
 33
0.0
  0
SOLID
  5
216E
330
2169
100
AcDbEntity
  8
BEM
 62
     0
100
AcDbTrace
 10
78.6443490420873
 20
217.005194274822
 30
0.0
 11
80.97768237542064
 21
217.005194274822
 31
0.0
 12
79.81101570875397
 22
210.005194274822
 32
0.0
 13
79.81101570875397
 23
210.005194274822
 33
0.0
  0
MTEXT
  5
216F
330
2169
100
AcDbEntity
  8
BEM
 62
     1
100
AcDbMText
 10
73.31101570875394
 20
230.0051942748222
 30
0.0
 40
7.0
 41
0.0
 71
     5
 72
     1
  1
\A1;40
 11
0.0000000000000001
 21
1.0
 31
0.0
 73
     1
 44
1.0
  0
POINT
  5
2170
330
2169
100
AcDbEntity
  8
Defpoints
 62
     0
100
AcDbPoint
 10
102.6273566980117
 20
250.0051942748224
 30
0.0
  0
POINT
  5
2171
330
2169
100
AcDbEntity
  8
Defpoints
 62
     0
100
AcDbPoint
 10
102.627372849389
 20
210.005194274822
 30
0.0
  0
POINT
  5
2172
330
2169
100
AcDbEntity
  8
Defpoints
 62
     0
100
AcDbPoint
 10
79.81101570875397
 20
210.005194274822
 30
0.0
  0
ENDBLK
  5
2174
330
2169
100
AcDbEntity
  8
0
100
AcDbBlockEnd
  0
ENDSEC
  0
SECTION
  2
ENTITIES
  0
LINE
  5
57
330
1E
100
AcDbEntity
  8
STEMPEL
100
AcDbLine
 10
410.0
 20
110.0
 30
0.0
 11
39.99999999999997
 21
110.0
 31
0.0
  0
LINE
  5
58
330
1E
100
AcDbEntity
  8
STEMPEL
100
AcDbLine
 10
136.0000000000001
 20
109.9999999999999
 30
0.0
 11
136.0
 21
9.999999999999971
 31
0.0
  0
LINE
  5
59
330
1E
100
AcDbEntity
  8
STEMPEL
100
AcDbLine
 10
220.0
 20
110.0
 30
0.0
 11
220.0
 21
9.999999999999971
 31
0.0
  0
LINE
  5
5A
330
1E
100
AcDbEntity
  8
STEMPEL
100
AcDbLine
 10
332.0
 20
109.9999999999997
 30
0.0
 11
332.0
 21
40.0
 31
0.0
  0
LINE
  5
5B
330
1E
100
AcDbEntity
  8
STEMPEL
100
AcDbLine
 10
135.9999999999999
 20
29.99999999999997
 30
0.0
 11
39.99999999999997
 21
29.99999999999997
 31
0.0
  0
LINE
  5
5C
330
1E
100
AcDbEntity
  8
STEMPEL
100
AcDbLine
 10
410.0
 20
40.0
 30
0.0
 11
136.0000000000001
 21
39.99999999999997
 31
0.0
  0
LINE
  5
5D
330
1E
100
AcDbEntity
  8
STEMPEL
100
AcDbLine
 10
410.0
 20
80.0
 30
0.0
 11
136.0000000000001
 21
79.99999999999994
 31
0.0
  0
LINE
  5
5E
330
1E
100
AcDbEntity
  8
VOLL
100
AcDbLine
 10
54.00000000000009
 20
110.0
 30
0.0
 11
53.99999999999997
 21
9.999999999999971
 31
0.0
  0
LINE
  5
5F
330
1E
100
AcDbEntity
  8
VOLL
100
AcDbLine
 10
94.00000000000011
 20
109.9999999999999
 30
0.0
 11
94.0
 21
9.999999999999971
 31
0.0
  0
LINE
  5
60
330
1E
100
AcDbEntity
  8
VOLL
100
AcDbLine
 10
114.0000000000001
 20
109.9999999999999
 30
0.0
 11
114.0
 21
9.999999999999971
 31
0.0
  0
LINE
  5
61
330
1E
100
AcDbEntity
  8
VOLL
100
AcDbLine
 10
154.0000000000001
 20
79.99999999999994
 30
0.0
 11
154.0000000000001
 21
39.99999999999997
 31
0.0
  0
LINE
  5
62
330
1E
100
AcDbEntity
  8
VOLL
100
AcDbLine
 10
180.0000000000001
 20
109.9999999999998
 30
0.0
 11
180.0
 21
39.99999999999997
 31
0.0
  0
LINE
  5
63
330
1E
100
AcDbEntity
  8
HILF
100
AcDbLine
 10
40.00000000000008
 20
100.0
 30
0.0
 11
136.0000000000001
 21
100.0
 31
0.0
  0
LINE
  5
64
330
1E
100
AcDbEntity
  8
HILF
100
AcDbLine
 10
40.00000000000008
 20
90.00000000000005
 30
0.0
 11
136.0000000000001
 21
90.00000000000005
 31
0.0
  0
LINE
  5
65
330
1E
100
AcDbEntity
  8
HILF
100
AcDbLine
 10
40.00000000000008
 20
79.99999999999994
 30
0.0
 11
136.0000000000001
 21
79.99999999999994
 31
0.0
  0
LINE
  5
66
330
1E
100
AcDbEntity
  8
HILF
100
AcDbLine
 10
40.00000000000008
 20
69.99999999999994
 30
0.0
 11
136.0000000000001
 21
69.99999999999994
 31
0.0
  0
LINE
  5
67
330
1E
100
AcDbEntity
  8
HILF
100
AcDbLine
 10
40.00000000000008
 20
59.99999999999997
 30
0.0
 11
136.0000000000001
 21
59.99999999999997
 31
0.0
  0
LINE
  5
68
330
1E
100
AcDbEntity
  8
HILF
100
AcDbLine
 10
40.00000000000008
 20
49.99999999999997
 30
0.0
 11
136.0000000000001
 21
49.99999999999997
 31
0.0
  0
LINE
  5
69
330
1E
100
AcDbEntity
  8
HILF
100
AcDbLine
 10
40.00000000000008
 20
39.99999999999997
 30
0.0
 11
136.0000000000001
 21
39.99999999999997
 31
0.0
  0
LINE
  5
6A
330
1E
100
AcDbEntity
  8
HILF
100
AcDbLine
 10
136.0000000000001
 20
69.99999999999994
 30
0.0
 11
220.0
 21
69.99999999999994
 31
0.0
  0
LINE
  5
6B
330
1E
100
AcDbEntity
  8
HILF
100
AcDbLine
 10
136.0000000000001
 20
59.99999999999997
 30
0.0
 11
220.0
 21
59.99999999999997
 31
0.0
  0
LINE
  5
6C
330
1E
100
AcDbEntity
  8
HILF
100
AcDbLine
 10
136.0000000000001
 20
49.99999999999997
 30
0.0
 11
220.0
 21
49.99999999999997
 31
0.0
  0
LINE
  5
6D
330
1E
100
AcDbEntity
  8
HILF
100
AcDbLine
 10
224.7736801096948
 20
84.03758247564139
 30
0.0
 11
324.8353916556311
 21
84.03758247564139
 31
0.0
  0
LINE
  5
6E
330
1E
100
AcDbEntity
  8
HILF
100
AcDbLine
 10
224.7736801096948
 20
69.99999999999994
 30
0.0
 11
324.835391655631
 21
69.99999999999994
 31
0.0
  0
LINE
  5
6F
330
1E
100
AcDbEntity
  8
HILF
100
AcDbLine
 10
224.7736801096948
 20
59.99999999999997
 30
0.0
 11
324.835391655631
 21
59.99999999999997
 31
0.0
  0
LINE
  5
70
330
1E
100
AcDbEntity
  8
HILF
100
AcDbLine
 10
224.7736801096948
 20
49.99999999999997
 30
0.0
 11
324.835391655631
 21
49.99999999999997
 31
0.0
  0
LINE
  5
71
330
1E
100
AcDbEntity
  8
VOLL
100
AcDbLine
 10
332.0
 20
60.0
 30
0.0
 11
410.0
 21
60.0
 31
0.0
  0
LINE
  5
72
330
1E
100
AcDbEntity
  8
HILF
100
AcDbLine
 10
336.7238616296993
 20
83.77983636955827
 30
0.0
 11
404.8588839326728
 21
83.77983636955827
 31
0.0
  0
LINE
  5
73
330
1E
100
AcDbEntity
  8
HILF
100
AcDbLine
 10
223.4909699289885
 20
14.89398258028314
 30
0.0
 11
404.8588839326728
 21
14.89398258028314
 31
0.0
  0
TEXT
  5
74
330
1E
100
AcDbEntity
  8
TEXT
100
AcDbText
 10
63.86165979631819
 20
18.67381894984132
 30
0.0
 40
4.0
  1
Änderung
 41
0.8
  7
GREEKS
 72
     1
 11
74.60451693917534
 21
18.67381894984132
 31
0.0
100
AcDbText
  0
TEXT
  5
75
330
1E
100
AcDbEntity
  8
TEXT
100
AcDbText
 10
143.5163572150377
 20
102.4620895087088
 30
0.0
 40
5.0
  1
Maßstab
 41
0.8
  7
GREEKS
100
AcDbText
  0
TEXT
  5
76
330
1E
100
AcDbEntity
  8
TEXT
100
AcDbText
 10
184.2858954734051
 20
102.4184168434819
 30
0.0
 40
5.0
  1
Zul. Abw.
 41
0.8
  7
GREEKS
100
AcDbText
  0
TEXT
  5
77
330
1E
100
AcDbEntity
  8
TEXT
100
AcDbText
 10
224.877940380901
 20
102.5489328011779
 30
0.0
 40
5.0
  1
Benennung
 41
0.8
  7
GREEKS
100
AcDbText
  0
TEXT
  5
78
330
1E
100
AcDbEntity
  8
TEXT
100
AcDbText
 10
336.178754957634
 20
102.3132034537136
 30
0.0
 40
5.0
  1
Zeichnungs Nr.
 41
0.8
  7
GREEKS
100
AcDbText
  0
TEXT
  5
79
330
1E
100
AcDbEntity
  8
TEXT
100
AcDbText
 10
224.742238391136
 20
30.84560570193057
 30
0.0
 40
5.0
  1
Bauvorhaben
 41
0.8
  7
GREEKS
100
AcDbText
  0
TEXT
  5
7A
330
1E
100
AcDbEntity
  8
TEXT
100
AcDbText
 10
336.7238616296993
 20
73.1811823709997
 30
0.0
 40
5.0
  1
Ersatz für:
 41
0.8
  7
GREEKS
100
AcDbText
  0
TEXT
  5
7B
330
1E
100
AcDbEntity
  8
TEXT
100
AcDbText
 10
48.26641107045756
 20
13.65465846027192
 30
0.0
 40
4.0
  1
Index
 50
90.0
 41
0.8
  7
GREEKS
100
AcDbText
  0
TEXT
  5
7C
330
1E
100
AcDbEntity
  8
TEXT
100
AcDbText
 10
100.0934676075481
 20
18.6715626933981
 30
0.0
 40
4.0
  1
Tag
 41
0.8
  7
GREEKS
 72
     1
 11
103.8268009408814
 21
18.6715626933981
 31
0.0
100
AcDbText
  0
TEXT
  5
7D
330
1E
100
AcDbEntity
  8
TEXT
100
AcDbText
 10
119.0122744386592
 20
18.59324216966408
 30
0.0
 40
4.0
  1
Name
 41
0.8
  7
GREEKS
 72
     1
 11
125.3360839624688
 21
18.59324216966408
 31
0.0
100
AcDbText
  0
TEXT
  5
7E
330
1E
100
AcDbEntity
  8
TEXT
100
AcDbText
 10
162.3311673153651
 20
73.31880501229926
 30
0.0
 40
4.0
  1
Tag
 41
0.8
  7
GREEKS
100
AcDbText
  0
TEXT
  5
7F
330
1E
100
AcDbEntity
  8
TEXT
100
AcDbText
 10
192.4626584226295
 20
73.30961091915225
 30
0.0
 40
4.0
  1
Name
 41
0.8
  7
GREEKS
100
AcDbText
  0
TEXT
  5
80
330
1E
100
AcDbEntity
  8
TEXT
100
AcDbText
 10
137.5836127167615
 20
63.62990369617964
 30
0.0
 40
4.0
  1
Gez.
 41
0.8
  7
GREEKS
100
AcDbText
  0
TEXT
  5
81
330
1E
100
AcDbEntity
  8
TEXT
100
AcDbText
 10
137.5515086571672
 20
53.68926291428377
 30
0.0
 40
4.0
  1
Gepr.
 41
0.8
  7
GREEKS
100
AcDbText
  0
TEXT
  5
82
330
1E
100
AcDbEntity
  8
TEXT
100
AcDbText
 10
137.6006777387304
 20
43.52946389649807
 30
0.0
 40
4.0
  1
Norm.
 41
0.8
  7
GREEKS
100
AcDbText
  0
LINE
  5
83
330
1E
100
AcDbEntity
  8
STEMPEL
100
AcDbLine
 10
49.99999999999989
 20
10.0
 30
0.0
 11
410.0
 21
10.0
 31
0.0
  0
TEXT
  5
84
330
1E
100
AcDbEntity
  8
TEXT
100
AcDbText
 10
337.2400861497006
 20
52.07416177878602
 30
0.0
 40
5.0
  1
ersetzt durch:
 41
0.8
  7
GREEKS
100
AcDbText
  0
LINE
  5
85
330
1E
100
AcDbEntity
  8
STEMPEL
100
AcDbLine
 10
410.0
 20
10.0
 30
0.0
 11
39.99999999999989
 21
10.0
 31
0.0
  0
LINE
  5
86
330
1E
100
AcDbEntity
  8
STEMPEL
100
AcDbLine
 10
410.0
 20
10.0
 30
0.0
 11
410.0
 21
584.0
 31
0.0
  0
LINE
  5
87
330
1E
100
AcDbEntity
  8
STEMPEL
100
AcDbLine
 10
40.0
 20
10.0
 30
0.0
 11
39.99999999999989
 21
584.0
 31
0.0
  0
LINE
  5
88
330
1E
100
AcDbEntity
  8
STEMPEL
100
AcDbLine
 10
410.0
 20
584.0
 30
0.0
 11
39.99999999999989
 21
584.0
 31
0.0
  0
LINE
  5
89
330
1E
100
AcDbEntity
  8
HILF
100
AcDbLine
 10
0.0
 20
0.0
 30
0.0
 11
-0.0000000000001137
 21
594.0
 31
0.0
  0
LINE
  5
8A
330
1E
100
AcDbEntity
  8
HILF
100
AcDbLine
 10
419.9999999999999
 20
594.0000000000002
 30
0.0
 11
0.0
 21
594.0
 31
0.0
  0
LINE
  5
8B
330
1E
100
AcDbEntity
  8
HILF
100
AcDbLine
 10
420.0
 20
0.0
 30
0.0
 11
0.0
 21
0.0
 31
0.0
  0
LINE
  5
8C
330
1E
100
AcDbEntity
  8
HILF
100
AcDbLine
 10
31.08767135713856
 20
297.0
 30
0.0
 11
0.0000000000001137
 21
297.0
 31
0.0
  0
TEXT
  5
8D
330
1E
100
AcDbEntity
  8
TEXT
100
AcDbText
 10
138.622109822104
 20
73.14025471151666
 30
0.0
 40
4.0
  1
2012
 41
0.8
  7
GREEKS
100
AcDbText
  0
LINE
  5
8E
330
1E
100
AcDbEntity
  8
HILF
100
AcDbLine
 10
420.0
 20
-0.0000000000001137
 30
0.0
 11
419.9999999999999
 21
594.0
 31
0.0
  0
TEXT
  5
8F
330
1E
100
AcDbEntity
  8
VOLL
100
AcDbText
 10
78.07675471698113
 20
31.02594776470585
 30
0.0
 40
1.8
  1

  7
GREEKS
100
AcDbText
  0
TEXT
  5
90
330
1E
100
AcDbEntity
  8
TEXT
100
AcDbText
 10
41.85509950977674
 20
111.6719999999999
 30
0.0
 40
5.0
  1
Erstellt mit AUTOCAD 2004
 41
0.8
  7
GREEKS
100
AcDbText
  0
TEXT
  5
91
330
1E
100
AcDbEntity
  8
TEXT
100
AcDbText
 10
194.4216048581257
 20
63.0896391972351
 30
0.0
 40
4.0
  1
Koeh
 41
0.8
  7
GREEKS
 72
     1
 11
199.6787477152685
 21
63.0896391972351
 31
0.0
100
AcDbText
  0
TEXT
  5
92
330
1E
100
AcDbEntity
  8
TEXT
 62
     1
100
AcDbText
 10
345.7721576428681
 20
88.14901428913959
 30
0.0
 40
7.0
  1
00977200W
 41
0.8
  7
GREEKS
 72
     1
 11
369.7721576428681
 21
88.14901428913959
 31
0.0
100
AcDbText
  0
TEXT
  5
93
330
1E
100
AcDbEntity
  8
TEXT
 62
     1
100
AcDbText
 10
150.5006306481887
 20
88.14901428913959
 30
0.0
 40
7.0
  1
1:2
 41
0.8
  7
GREEKS
100
AcDbText
  0
TEXT
  5
94
330
1E
100
AcDbEntity
  8
TEXT
100
AcDbText
 10
160.7037590129979
 20
63.10765040825732
 30
0.0
 40
4.0
  1
29.10.
 41
0.8
  7
GREEKS
 72
     1
 11
167.4085209177598
 21
63.10765040825732
 31
0.0
100
AcDbText
  0
TEXT
  5
95
330
1E
100
AcDbEntity
  8
TEXT
 62
     1
100
AcDbText
 10
226.8935731057402
 20
87.41748789253779
 30
0.0
 40
7.0
  1
Rohrschelle DN200
 41
0.8
  7
GREEKS
100
AcDbText
  0
TEXT
  5
96
330
1E
100
AcDbEntity
  8
TEXT
100
AcDbText
 10
225.1296391125315
 20
71.50334417585288
 30
0.0
 40
5.0
  1
mit Anschlußgewinde M12
 41
0.8
  7
GREEKS
100
AcDbText
  0
TEXT
  5
98
330
1E
100
AcDbEntity
  8
TEXT
100
AcDbText
 10
225.1296391125315
 20
51.64011943042158
 30
0.0
 40
5.0
  1
EDV-Art.Nr. 00977.200X
 41
0.8
  7
GREEKS
100
AcDbText
  0
TEXT
  5
99
330
1E
100
AcDbEntity
  8
TEXT
100
AcDbText
 10
224.9837501577827
 20
42.62974153022632
 30
0.0
 40
4.0
  1
00977200W.DWG
 41
0.8
  7
GREEKS
100
AcDbText
  0
TEXT
  5
9A
330
1E
100
AcDbEntity
  8
TEXT
100
AcDbText
 10
182.626132208084
 20
90.76363841023022
 30
0.0
 40
4.0
  1
DIN EN1123-2
 41
0.8
  7
GREEKS
 72
     1
 11
199.6166083985602
 21
90.76363841023022
 31
0.0
100
AcDbText
  0
INSERT
  5
9B
330
1E
100
AcDbEntity
  8
STEMPEL
100
AcDbBlockReference
  2
LOGO
 10
140.9955485457794
 20
45.02105276448322
 30
0.0
 41
2.0
 42
2.0
 43
2.0
  0
TEXT
  5
118
330
1E
100
AcDbEntity
  8
BEM
100
AcDbText
 10
417.3022923857165
 20
10.16790107998849
 30
0.0
 40
4.0
  1
Diese Zeichnung ist urheberrechtlich geschützt und bleibt unser Eigentum. Sie darf weder ganz noch teilweise verfielfältigt und nicht an Dritte weitergegeben werden.
 50
90.0
 41
0.8
  7
GREEKS
100
AcDbText
  0
LINE
  5
7BC
330
1E
100
AcDbEntity
  8
TEXT
 62
     2
100
AcDbLine
 10
398.2543294799784
 20
521.7752260489267
 30
0.0
 11
361.7252084476245
 21
441.875606464104
 31
0.0
  0
LINE
  5
7BD
330
1E
100
AcDbEntity
  8
TEXT
 62
     2
100
AcDbLine
 10
323.252647662348
 20
521.7752260489267
 30
0.0
 11
398.2543294799784
 21
521.7752260489267
 31
0.0
  0
TEXT
  5
7BE
330
1E
100
AcDbEntity
  8
TEXT
 62
     1
100
AcDbText
 10
325.3725406583933
 20
525.1551314658231
 30
0.0
 40
7.0
  1
Schraube M8x30
 41
0.8
  7
GREEKS
100
AcDbText
  0
TEXT
  5
7BF
330
1E
100
AcDbEntity
  8
TEXT
 62
     1
100
AcDbText
 10
244.3455414695908
 20
289.0816269288547
 30
0.0
 40
7.0
  1
M12
 41
0.8
  7
GREEKS
100
AcDbText
  0
LINE
  5
7C0
330
1E
100
AcDbEntity
  8
TEXT
 62
     2
100
AcDbLine
 10
242.2256484735452
 20
285.7017215119584
 30
0.0
 11
260.1895615437432
 21
285.7017215119584
 31
0.0
  0
LINE
  5
7C1
330
1E
100
AcDbEntity
  8
TEXT
 62
     2
100
AcDbLine
 10
242.2256484735452
 20
285.7017215119584
 30
0.0
 11
233.768372849389
 21
307.7199230241729
 31
0.0
  0
LINE
  5
2004
330
1E
100
AcDbEntity
  8
HILF
100
AcDbLine
 10
356.0073728493891
 20
408.7199230241729
 30
0.0
 11
356.0073728493891
 21
426.7199230241729
 31
0.0
  0
LINE
  5
2005
330
1E
100
AcDbEntity
  8
HILF
100
AcDbLine
 10
362.5073728493891
 20
408.7199230241729
 30
0.0
 11
362.5073728493891
 21
426.7199230241729
 31
0.0
  0
LINE
  5
2006
330
1E
100
AcDbEntity
  8
STEMPEL
100
AcDbLine
 10
363.2573728493891
 20
409.4699230241729
 30
0.0
 11
355.2573728493891
 21
409.4699230241729
 31
0.0
  0
LINE
  5
2007
330
1E
100
AcDbEntity
  8
HILF
100
AcDbLine
 10
356.0073728493891
 20
434.4699230241729
 30
0.0
 11
356.0073728493891
 21
435.7199230241729
 31
0.0
  0
LINE
  5
2008
330
1E
100
AcDbEntity
  8
HILF
100
AcDbLine
 10
356.0073728493891
 20
432.7199230241729
 30
0.0
 11
356.0073728493891
 21
433.9699230241729
 31
0.0
  0
LINE
  5
2009
330
1E
100
AcDbEntity
  8
HILF
100
AcDbLine
 10
362.5073728493891
 20
434.4699230241729
 30
0.0
 11
362.5073728493891
 21
435.7199230241729
 31
0.0
  0
LINE
  5
200A
330
1E
100
AcDbEntity
  8
HILF
100
AcDbLine
 10
362.5073728493891
 20
432.7199230241729
 30
0.0
 11
362.5073728493891
 21
433.9699230241729
 31
0.0
  0
LINE
  5
200B
330
1E
100
AcDbEntity
  8
STEMPEL
100
AcDbLine
 10
355.2573728493891
 20
434.4699230241729
 30
0.0
 11
355.2573728493891
 21
435.7199230241729
 31
0.0
  0
LINE
  5
200C
330
1E
100
AcDbEntity
  8
STEMPEL
100
AcDbLine
 10
355.2573728493891
 20
432.7199230241729
 30
0.0
 11
355.2573728493891
 21
433.9699230241729
 31
0.0
  0
LINE
  5
200D
330
1E
100
AcDbEntity
  8
STEMPEL
100
AcDbLine
 10
363.2573728493891
 20
433.9699230241729
 30
0.0
 11
363.2573728493891
 21
432.7199230241729
 31
0.0
  0
LINE
  5
200E
330
1E
100
AcDbEntity
  8
STEMPEL
100
AcDbLine
 10
363.2573728493891
 20
435.7199230241729
 30
0.0
 11
363.2573728493891
 21
434.4699230241729
 31
0.0
  0
ARC
  5
200F
330
1E
100
AcDbEntity
  8
STEMPEL
100
AcDbCircle
 10
359.2573728493891
 20
432.861923024173
 30
0.0
 40
11.158
100
AcDbArc
 50
95.9155207670004
 51
109.652859632001
  0
ARC
  5
2010
330
1E
100
AcDbEntity
  8
STEMPEL
100
AcDbCircle
 10
359.2573728493891
 20
432.861923024173
 30
0.0
 40
11.158
100
AcDbArc
 50
70.34714036799893
 51
84.08447923299958
  0
LINE
  5
2011
330
1E
100
AcDbEntity
  8
STEMPEL
100
AcDbLine
 10
358.1073728493891
 20
444.0199230241729
 30
0.0
 11
353.6283728493891
 21
444.0199230241729
 31
0.0
  0
LINE
  5
2012
330
1E
100
AcDbEntity
  8
STEMPEL
100
AcDbLine
 10
358.1073728493891
 20
441.5199230241729
 30
0.0
 11
358.1073728493891
 21
444.0199230241729
 31
0.0
  0
LINE
  5
2013
330
1E
100
AcDbEntity
  8
STEMPEL
100
AcDbLine
 10
360.4073728493891
 20
441.5199230241729
 30
0.0
 11
358.1073728493891
 21
441.5199230241729
 31
0.0
  0
LINE
  5
2014
330
1E
100
AcDbEntity
  8
STEMPEL
100
AcDbLine
 10
360.4073728493891
 20
444.0199230241729
 30
0.0
 11
360.4073728493891
 21
441.5199230241729
 31
0.0
  0
LINE
  5
2015
330
1E
100
AcDbEntity
  8
STEMPEL
100
AcDbLine
 10
364.8873728493891
 20
444.0199230241729
 30
0.0
 11
360.4073728493891
 21
444.0199230241729
 31
0.0
  0
LINE
  5
2016
330
1E
100
AcDbEntity
  8
STEMPEL
100
AcDbLine
 10
355.2573728493891
 20
409.4699230241729
 30
0.0
 11
355.2573728493891
 21
426.7199230241729
 31
0.0
  0
LINE
  5
2017
330
1E
100
AcDbEntity
  8
STEMPEL
100
AcDbLine
 10
356.0073728493891
 20
408.7199230241729
 30
0.0
 11
355.2573728493891
 21
409.4699230241729
 31
0.0
  0
LINE
  5
2018
330
1E
100
AcDbEntity
  8
STEMPEL
100
AcDbLine
 10
362.5073728493891
 20
408.7199230241729
 30
0.0
 11
356.0073728493891
 21
408.7199230241729
 31
0.0
  0
LINE
  5
2019
330
1E
100
AcDbEntity
  8
STEMPEL
100
AcDbLine
 10
363.2573728493891
 20
409.4699230241729
 30
0.0
 11
362.5073728493891
 21
408.7199230241729
 31
0.0
  0
LINE
  5
201A
330
1E
100
AcDbEntity
  8
STEMPEL
100
AcDbLine
 10
363.2573728493891
 20
426.7199230241729
 30
0.0
 11
363.2573728493891
 21
409.4699230241729
 31
0.0
  0
LINE
  5
201B
330
1E
100
AcDbEntity
  8
STEMPEL
100
AcDbLine
 10
363.0103728493891
 20
443.3699230241729
 30
0.0
 11
363.0103728493891
 21
438.7199230241729
 31
0.0
  0
ARC
  5
201C
330
1E
100
AcDbEntity
  8
STEMPEL
100
AcDbCircle
 10
364.8873728493891
 20
440.9869230241729
 30
0.0
 40
3.032999999999999
100
AcDbArc
 50
90.0
 51
128.2132107020002
  0
ARC
  5
201D
330
1E
100
AcDbEntity
  8
STEMPEL
100
AcDbCircle
 10
364.8873728493891
 20
440.9869230241729
 30
0.0
 40
3.032999999999999
100
AcDbArc
 50
51.78678929799973
 51
90.0
  0
LINE
  5
201E
330
1E
100
AcDbEntity
  8
STEMPEL
100
AcDbLine
 10
366.763372849389
 20
438.7199230241729
 30
0.0
 11
366.763372849389
 21
443.3699230241729
 31
0.0
  0
LINE
  5
201F
330
1E
100
AcDbEntity
  8
STEMPEL
100
AcDbLine
 10
363.657372849389
 20
438.7199230241729
 30
0.0
 11
366.763372849389
 21
438.7199230241729
 31
0.0
  0
LINE
  5
2020
330
1E
100
AcDbEntity
  8
STEMPEL
100
AcDbLine
 10
354.8573728493891
 20
438.7199230241729
 30
0.0
 11
363.657372849389
 21
438.7199230241729
 31
0.0
  0
LINE
  5
2021
330
1E
100
AcDbEntity
  8
STEMPEL
100
AcDbLine
 10
351.7523728493891
 20
438.7199230241729
 30
0.0
 11
354.8573728493891
 21
438.7199230241729
 31
0.0
  0
LINE
  5
2022
330
1E
100
AcDbEntity
  8
STEMPEL
100
AcDbLine
 10
351.7523728493891
 20
443.3699230241729
 30
0.0
 11
351.7523728493891
 21
438.7199230241729
 31
0.0
  0
ARC
  5
2023
330
1E
100
AcDbEntity
  8
STEMPEL
100
AcDbCircle
 10
353.6283728493891
 20
440.9869230241729
 30
0.0
 40
3.032999999999999
100
AcDbArc
 50
90.0
 51
128.2132107020002
  0
ARC
  5
2024
330
1E
100
AcDbEntity
  8
STEMPEL
100
AcDbCircle
 10
353.6283728493891
 20
440.9869230241729
 30
0.0
 40
3.032999999999999
100
AcDbArc
 50
51.78678929799973
 51
90.0
  0
LINE
  5
2025
330
1E
100
AcDbEntity
  8
STEMPEL
100
AcDbLine
 10
355.505372849389
 20
438.7199230241729
 30
0.0
 11
355.505372849389
 21
443.3699230241729
 31
0.0
  0
LINE
  5
2026
330
1E
100
AcDbEntity
  8
HILF
100
AcDbLine
 10
105.0283728493891
 20
408.7199230241729
 30
0.0
 11
105.0283728493891
 21
426.7199230241729
 31
0.0
  0
LINE
  5
2027
330
1E
100
AcDbEntity
  8
HILF
100
AcDbLine
 10
111.5283728493891
 20
408.7199230241729
 30
0.0
 11
111.5283728493891
 21
426.7199230241729
 31
0.0
  0
LINE
  5
2028
330
1E
100
AcDbEntity
  8
STEMPEL
100
AcDbLine
 10
112.2783728493891
 20
409.4699230241729
 30
0.0
 11
104.2783728493891
 21
409.4699230241729
 31
0.0
  0
LINE
  5
2029
330
1E
100
AcDbEntity
  8
HILF
100
AcDbLine
 10
105.0283728493891
 20
434.4699230241729
 30
0.0
 11
105.0283728493891
 21
435.7199230241729
 31
0.0
  0
LINE
  5
202A
330
1E
100
AcDbEntity
  8
HILF
100
AcDbLine
 10
105.0283728493891
 20
432.7199230241729
 30
0.0
 11
105.0283728493891
 21
433.9699230241729
 31
0.0
  0
LINE
  5
202B
330
1E
100
AcDbEntity
  8
HILF
100
AcDbLine
 10
111.5283728493891
 20
434.4699230241729
 30
0.0
 11
111.5283728493891
 21
435.7199230241729
 31
0.0
  0
LINE
  5
202C
330
1E
100
AcDbEntity
  8
HILF
100
AcDbLine
 10
111.5283728493891
 20
432.7199230241729
 30
0.0
 11
111.5283728493891
 21
433.9699230241729
 31
0.0
  0
LINE
  5
202D
330
1E
100
AcDbEntity
  8
STEMPEL
100
AcDbLine
 10
104.2783728493891
 20
434.4699230241729
 30
0.0
 11
104.2783728493891
 21
435.7199230241729
 31
0.0
  0
LINE
  5
202E
330
1E
100
AcDbEntity
  8
STEMPEL
100
AcDbLine
 10
104.2783728493891
 20
432.7199230241729
 30
0.0
 11
104.2783728493891
 21
433.9699230241729
 31
0.0
  0
LINE
  5
202F
330
1E
100
AcDbEntity
  8
STEMPEL
100
AcDbLine
 10
112.2783728493891
 20
433.9699230241729
 30
0.0
 11
112.2783728493891
 21
432.7199230241729
 31
0.0
  0
LINE
  5
2030
330
1E
100
AcDbEntity
  8
STEMPEL
100
AcDbLine
 10
112.2783728493891
 20
435.7199230241729
 30
0.0
 11
112.2783728493891
 21
434.4699230241729
 31
0.0
  0
ARC
  5
2031
330
1E
100
AcDbEntity
  8
STEMPEL
100
AcDbCircle
 10
108.2783728493891
 20
432.861923024173
 30
0.0
 40
11.158
100
AcDbArc
 50
95.9155207670004
 51
109.652859632001
  0
ARC
  5
2032
330
1E
100
AcDbEntity
  8
STEMPEL
100
AcDbCircle
 10
108.2783728493891
 20
432.861923024173
 30
0.0
 40
11.158
100
AcDbArc
 50
70.34714036799893
 51
84.08447923299958
  0
LINE
  5
2033
330
1E
100
AcDbEntity
  8
STEMPEL
100
AcDbLine
 10
107.128372849389
 20
444.0199230241729
 30
0.0
 11
102.649372849389
 21
444.0199230241729
 31
0.0
  0
LINE
  5
2034
330
1E
100
AcDbEntity
  8
STEMPEL
100
AcDbLine
 10
107.128372849389
 20
441.5199230241729
 30
0.0
 11
107.128372849389
 21
444.0199230241729
 31
0.0
  0
LINE
  5
2035
330
1E
100
AcDbEntity
  8
STEMPEL
100
AcDbLine
 10
109.428372849389
 20
441.5199230241729
 30
0.0
 11
107.128372849389
 21
441.5199230241729
 31
0.0
  0
LINE
  5
2036
330
1E
100
AcDbEntity
  8
STEMPEL
100
AcDbLine
 10
109.428372849389
 20
444.0199230241729
 30
0.0
 11
109.428372849389
 21
441.5199230241729
 31
0.0
  0
LINE
  5
2037
330
1E
100
AcDbEntity
  8
STEMPEL
100
AcDbLine
 10
113.907372849389
 20
444.0199230241729
 30
0.0
 11
109.428372849389
 21
444.0199230241729
 31
0.0
  0
LINE
  5
2038
330
1E
100
AcDbEntity
  8
STEMPEL
100
AcDbLine
 10
104.2783728493891
 20
409.4699230241729
 30
0.0
 11
104.2783728493891
 21
426.7199230241729
 31
0.0
  0
LINE
  5
2039
330
1E
100
AcDbEntity
  8
STEMPEL
100
AcDbLine
 10
105.0283728493891
 20
408.7199230241729
 30
0.0
 11
104.2783728493891
 21
409.4699230241729
 31
0.0
  0
LINE
  5
203A
330
1E
100
AcDbEntity
  8
STEMPEL
100
AcDbLine
 10
111.5283728493891
 20
408.7199230241729
 30
0.0
 11
105.0283728493891
 21
408.7199230241729
 31
0.0
  0
LINE
  5
203B
330
1E
100
AcDbEntity
  8
STEMPEL
100
AcDbLine
 10
112.2783728493891
 20
409.4699230241729
 30
0.0
 11
111.5283728493891
 21
408.7199230241729
 31
0.0
  0
LINE
  5
203C
330
1E
100
AcDbEntity
  8
STEMPEL
100
AcDbLine
 10
112.2783728493891
 20
426.7199230241729
 30
0.0
 11
112.2783728493891
 21
409.4699230241729
 31
0.0
  0
LINE
  5
203D
330
1E
100
AcDbEntity
  8
STEMPEL
100
AcDbLine
 10
112.031372849389
 20
443.3699230241729
 30
0.0
 11
112.031372849389
 21
438.7199230241729
 31
0.0
  0
ARC
  5
203E
330
1E
100
AcDbEntity
  8
STEMPEL
100
AcDbCircle
 10
113.907372849389
 20
440.9869230241729
 30
0.0
 40
3.032999999999999
100
AcDbArc
 50
90.0
 51
128.2132107020002
  0
ARC
  5
203F
330
1E
100
AcDbEntity
  8
STEMPEL
100
AcDbCircle
 10
113.907372849389
 20
440.9869230241729
 30
0.0
 40
3.032999999999999
100
AcDbArc
 50
51.78678929799973
 51
90.0
  0
LINE
  5
2040
330
1E
100
AcDbEntity
  8
STEMPEL
100
AcDbLine
 10
115.784372849389
 20
438.7199230241729
 30
0.0
 11
115.784372849389
 21
443.3699230241729
 31
0.0
  0
LINE
  5
2041
330
1E
100
AcDbEntity
  8
STEMPEL
100
AcDbLine
 10
112.678372849389
 20
438.7199230241729
 30
0.0
 11
115.784372849389
 21
438.7199230241729
 31
0.0
  0
LINE
  5
2042
330
1E
100
AcDbEntity
  8
STEMPEL
100
AcDbLine
 10
103.878372849389
 20
438.7199230241729
 30
0.0
 11
112.678372849389
 21
438.7199230241729
 31
0.0
  0
LINE
  5
2043
330
1E
100
AcDbEntity
  8
STEMPEL
100
AcDbLine
 10
100.772372849389
 20
438.7199230241729
 30
0.0
 11
103.878372849389
 21
438.7199230241729
 31
0.0
  0
LINE
  5
2044
330
1E
100
AcDbEntity
  8
STEMPEL
100
AcDbLine
 10
100.772372849389
 20
443.3699230241729
 30
0.0
 11
100.772372849389
 21
438.7199230241729
 31
0.0
  0
ARC
  5
2045
330
1E
100
AcDbEntity
  8
STEMPEL
100
AcDbCircle
 10
102.649372849389
 20
440.9869230241729
 30
0.0
 40
3.032999999999999
100
AcDbArc
 50
90.0
 51
128.2132107020002
  0
ARC
  5
2046
330
1E
100
AcDbEntity
  8
STEMPEL
100
AcDbCircle
 10
102.649372849389
 20
440.9869230241729
 30
0.0
 40
3.032999999999999
100
AcDbArc
 50
51.78678929799973
 51
90.0
  0
LINE
  5
2047
330
1E
100
AcDbEntity
  8
STEMPEL
100
AcDbLine
 10
104.5253728493891
 20
438.7199230241729
 30
0.0
 11
104.5253728493891
 21
443.3699230241729
 31
0.0
  0
LINE
  5
2048
330
1E
100
AcDbEntity
  8
STEMPEL
100
AcDbLine
 10
358.1183728493891
 20
224.460194274822
 30
0.0
 11
358.1183728493891
 21
237.460194274822
 31
0.0
  0
LINE
  5
2049
330
1E
100
AcDbEntity
  8
STEMPEL
100
AcDbLine
 10
360.418372849389
 20
224.460194274822
 30
0.0
 11
360.418372849389
 21
237.460194274822
 31
0.0
  0
ARC
  5
204A
330
1E
100
AcDbEntity
  8
STEMPEL
100
AcDbCircle
 10
359.2683728493891
 20
230.960194274822
 30
0.0
 40
6.5
100
AcDbArc
 50
280.1905887679999
 51
79.80941123200008
  0
ARC
  5
204B
330
1E
100
AcDbEntity
  8
STEMPEL
100
AcDbCircle
 10
359.2683728493891
 20
230.960194274822
 30
0.0
 40
6.5
100
AcDbArc
 50
100.1905887679999
 51
259.8094112320001
  0
LINE
  5
204C
330
1E
100
AcDbEntity
  8
STEMPEL
100
AcDbLine
 10
355.515372849389
 20
224.460194274822
 30
0.0
 11
351.7623728493891
 21
230.960194274822
 31
0.0
  0
LINE
  5
204D
330
1E
100
AcDbEntity
  8
STEMPEL
100
AcDbLine
 10
363.0203728493891
 20
224.460194274822
 30
0.0
 11
355.515372849389
 21
224.460194274822
 31
0.0
  0
LINE
  5
204E
330
1E
100
AcDbEntity
  8
STEMPEL
100
AcDbLine
 10
366.773372849389
 20
230.960194274822
 30
0.0
 11
363.0203728493891
 21
224.460194274822
 31
0.0
  0
LINE
  5
204F
330
1E
100
AcDbEntity
  8
STEMPEL
100
AcDbLine
 10
363.0203728493891
 20
237.460194274822
 30
0.0
 11
366.773372849389
 21
230.960194274822
 31
0.0
  0
LINE
  5
2050
330
1E
100
AcDbEntity
  8
STEMPEL
100
AcDbLine
 10
355.515372849389
 20
237.460194274822
 30
0.0
 11
363.0203728493891
 21
237.460194274822
 31
0.0
  0
LINE
  5
2051
330
1E
100
AcDbEntity
  8
STEMPEL
100
AcDbLine
 10
351.7623728493891
 20
230.960194274822
 30
0.0
 11
355.515372849389
 21
237.460194274822
 31
0.0
  0
LINE
  5
2052
330
1E
100
AcDbEntity
  8
STEMPEL
100
AcDbLine
 10
107.118372849389
 20
223.505194274822
 30
0.0
 11
107.118372849389
 21
236.505194274822
 31
0.0
  0
LINE
  5
2053
330
1E
100
AcDbEntity
  8
STEMPEL
100
AcDbLine
 10
109.418372849389
 20
223.505194274822
 30
0.0
 11
109.418372849389
 21
236.505194274822
 31
0.0
  0
ARC
  5
2054
330
1E
100
AcDbEntity
  8
STEMPEL
100
AcDbCircle
 10
108.268372849389
 20
230.005194274822
 30
0.0
 40
6.5
100
AcDbArc
 50
280.1905887679999
 51
79.80941123200008
  0
ARC
  5
2055
330
1E
100
AcDbEntity
  8
STEMPEL
100
AcDbCircle
 10
108.268372849389
 20
230.005194274822
 30
0.0
 40
6.5
100
AcDbArc
 50
100.1905887679999
 51
259.8094112320001
  0
LINE
  5
2056
330
1E
100
AcDbEntity
  8
STEMPEL
100
AcDbLine
 10
104.515372849389
 20
223.505194274822
 30
0.0
 11
100.762372849389
 21
230.005194274822
 31
0.0
  0
LINE
  5
2057
330
1E
100
AcDbEntity
  8
STEMPEL
100
AcDbLine
 10
112.0203728493891
 20
223.505194274822
 30
0.0
 11
104.515372849389
 21
223.505194274822
 31
0.0
  0
LINE
  5
2058
330
1E
100
AcDbEntity
  8
STEMPEL
100
AcDbLine
 10
115.7733728493891
 20
230.005194274822
 30
0.0
 11
112.0203728493891
 21
223.505194274822
 31
0.0
  0
LINE
  5
2059
330
1E
100
AcDbEntity
  8
STEMPEL
100
AcDbLine
 10
112.0203728493891
 20
236.505194274822
 30
0.0
 11
115.7733728493891
 21
230.005194274822
 31
0.0
  0
LINE
  5
205A
330
1E
100
AcDbEntity
  8
STEMPEL
100
AcDbLine
 10
104.515372849389
 20
236.505194274822
 30
0.0
 11
112.0203728493891
 21
236.505194274822
 31
0.0
  0
LINE
  5
205B
330
1E
100
AcDbEntity
  8
STEMPEL
100
AcDbLine
 10
100.762372849389
 20
230.005194274822
 30
0.0
 11
104.515372849389
 21
236.505194274822
 31
0.0
  0
LINE
  5
205C
330
1E
100
AcDbEntity
  8
STEMPEL
100
AcDbLine
 10
101.0283728493891
 20
434.4699230241729
 30
0.0
 11
101.0283728493891
 21
433.9699230241729
 31
0.0
  0
LINE
  5
205D
330
1E
100
AcDbEntity
  8
STEMPEL
100
AcDbLine
 10
115.5283728493891
 20
434.4699230241729
 30
0.0
 11
101.0283728493891
 21
434.4699230241729
 31
0.0
  0
LINE
  5
205E
330
1E
100
AcDbEntity
  8
STEMPEL
100
AcDbLine
 10
115.5283728493891
 20
433.9699230241729
 30
0.0
 11
115.5283728493891
 21
434.4699230241729
 31
0.0
  0
LINE
  5
205F
330
1E
100
AcDbEntity
  8
STEMPEL
100
AcDbLine
 10
101.0283728493891
 20
433.9699230241729
 30
0.0
 11
115.5283728493891
 21
433.9699230241729
 31
0.0
  0
LINE
  5
2060
330
1E
100
AcDbEntity
  8
STEMPEL
100
AcDbLine
 10
352.0073728493891
 20
434.4699230241729
 30
0.0
 11
352.0073728493891
 21
433.9699230241729
 31
0.0
  0
LINE
  5
2061
330
1E
100
AcDbEntity
  8
STEMPEL
100
AcDbLine
 10
366.5073728493891
 20
434.4699230241729
 30
0.0
 11
352.0073728493891
 21
434.4699230241729
 31
0.0
  0
LINE
  5
2062
330
1E
100
AcDbEntity
  8
STEMPEL
100
AcDbLine
 10
366.5073728493891
 20
433.9699230241729
 30
0.0
 11
366.5073728493891
 21
434.4699230241729
 31
0.0
  0
LINE
  5
2063
330
1E
100
AcDbEntity
  8
STEMPEL
100
AcDbLine
 10
352.0073728493891
 20
433.9699230241729
 30
0.0
 11
366.5073728493891
 21
433.9699230241729
 31
0.0
  0
ARC
  5
2070
330
1E
100
AcDbEntity
  8
STEMPEL
100
AcDbCircle
 10
225.9733728493891
 20
311.919923024173
 30
0.0
 40
4.2
100
AcDbArc
 50
270.0
 51
308.2132107020003
  0
ARC
  5
2071
330
1E
100
AcDbEntity
  8
STEMPEL
100
AcDbCircle
 10
225.9733728493891
 20
311.919923024173
 30
0.0
 40
4.2
100
AcDbArc
 50
231.7867892979998
 51
270.0
  0
ARC
  5
2072
330
1E
100
AcDbEntity
  8
STEMPEL
100
AcDbCircle
 10
233.768372849389
 20
323.169923024173
 30
0.0
 40
15.45
100
AcDbArc
 50
250.3471403679989
 51
270.0
  0
LINE
  5
2074
330
1E
100
AcDbEntity
  8
STEMPEL
100
AcDbLine
 10
223.3753728493891
 20
319.319923024173
 30
0.0
 11
223.3753728493891
 21
308.619923024173
 31
0.0
  0
LINE
  5
2075
330
1E
100
AcDbEntity
  8
STEMPEL
100
AcDbLine
 10
228.572372849389
 20
319.319923024173
 30
0.0
 11
228.572372849389
 21
308.619923024173
 31
0.0
  0
LINE
  5
2076
330
1E
100
AcDbEntity
  8
STEMPEL
100
AcDbLine
 10
238.964372849389
 20
319.319923024173
 30
0.0
 11
238.964372849389
 21
308.619923024173
 31
0.0
  0
LINE
  5
2078
330
1E
100
AcDbEntity
  8
STEMPEL
100
AcDbLine
 10
244.1603728493891
 20
319.319923024173
 30
0.0
 11
244.1603728493891
 21
308.619923024173
 31
0.0
  0
ARC
  5
2079
330
1E
100
AcDbEntity
  8
STEMPEL
100
AcDbCircle
 10
241.562372849389
 20
311.919923024173
 30
0.0
 40
4.2
100
AcDbArc
 50
270.0
 51
308.2132107020003
  0
LINE
  5
207A
330
1E
100
AcDbEntity
  8
STEMPEL
100
AcDbLine
 10
225.9733728493891
 20
307.7199230241729
 30
0.0
 11
241.562372849389
 21
307.7199230241729
 31
0.0
  0
ARC
  5
207B
330
1E
100
AcDbEntity
  8
STEMPEL
100
AcDbCircle
 10
233.768372849389
 20
323.169923024173
 30
0.0
 40
15.45
100
AcDbArc
 50
270.0
 51
289.6528596320011
  0
ARC
  5
207C
330
1E
100
AcDbEntity
  8
STEMPEL
100
AcDbCircle
 10
241.562372849389
 20
311.919923024173
 30
0.0
 40
4.2
100
AcDbArc
 50
231.7867892979998
 51
270.0
  0
ARC
  5
207E
330
1E
100
AcDbEntity
  8
STEMPEL
100
AcDbCircle
 10
118.5113728493891
 20
426.7199230241729
 30
0.0
 40
6.0
100
AcDbArc
 50
3.723124760999245
 51
90.0
  0
ARC
  5
207F
330
1E
100
AcDbEntity
  8
STEMPEL
100
AcDbCircle
 10
349.024372849389
 20
426.7199230241729
 30
0.0
 40
3.0
100
AcDbArc
 50
90.0
 51
176.2768752389991
  0
ARC
  5
2080
330
1E
100
AcDbEntity
  8
STEMPEL
100
AcDbCircle
 10
349.024372849389
 20
426.7199230241729
 30
0.0
 40
6.0
100
AcDbArc
 50
90.0
 51
176.2768752389991
  0
ARC
  5
2081
330
1E
100
AcDbEntity
  8
STEMPEL
100
AcDbCircle
 10
233.768372849389
 20
434.2199230241729
 30
0.0
 40
109.5
100
AcDbArc
 50
183.7231247610008
 51
356.2768752389991
  0
ARC
  5
2082
330
1E
100
AcDbEntity
  8
STEMPEL
100
AcDbCircle
 10
233.768372849389
 20
434.2199230241729
 30
0.0
 40
112.5
100
AcDbArc
 50
183.7231247606579
 51
356.2768752389991
  0
ARC
  5
2084
330
1E
100
AcDbEntity
  8
STEMPEL
100
AcDbCircle
 10
352.7573728493891
 20
428.2199230241729
 30
0.0
 40
1.5
100
AcDbArc
 50
0.0
 51
90.0
  0
LINE
  5
2085
330
1E
100
AcDbEntity
  8
STEMPEL
100
AcDbLine
 10
354.2573728493891
 20
428.2199230241729
 30
0.0
 11
354.2573728493891
 21
426.7199230241729
 31
0.0
  0
LINE
  5
2086
330
1E
100
AcDbEntity
  8
STEMPEL
100
AcDbLine
 10
354.2573728493891
 20
426.7199230241729
 30
0.0
 11
364.2573728493891
 21
426.7199230241729
 31
0.0
  0
LINE
  5
2087
330
1E
100
AcDbEntity
  8
STEMPEL
100
AcDbLine
 10
364.2573728493891
 20
426.7199230241729
 30
0.0
 11
364.2573728493891
 21
428.2199230241729
 31
0.0
  0
ARC
  5
2088
330
1E
100
AcDbEntity
  8
STEMPEL
100
AcDbCircle
 10
365.7573728493891
 20
428.2199230241729
 30
0.0
 40
1.5
100
AcDbArc
 50
90.0
 51
180.0
  0
LINE
  5
2089
330
1E
100
AcDbEntity
  8
STEMPEL
100
AcDbLine
 10
364.9153728493891
 20
432.7199230241729
 30
0.0
 11
364.9153728493891
 21
429.7199230241729
 31
0.0
  0
LINE
  5
208A
330
1E
100
AcDbEntity
  8
STEMPEL
100
AcDbLine
 10
103.278372849389
 20
428.2199230241729
 30
0.0
 11
103.278372849389
 21
426.7199230241729
 31
0.0
  0
LINE
  5
208B
330
1E
100
AcDbEntity
  8
STEMPEL
100
AcDbLine
 10
113.2783728493891
 20
426.7199230241729
 30
0.0
 11
113.2783728493891
 21
428.2199230241729
 31
0.0
  0
LINE
  5
208C
330
1E
100
AcDbEntity
  8
STEMPEL
100
AcDbLine
 10
103.278372849389
 20
426.7199230241729
 30
0.0
 11
113.2783728493891
 21
426.7199230241729
 31
0.0
  0
ARC
  5
208D
330
1E
100
AcDbEntity
  8
STEMPEL
100
AcDbCircle
 10
101.7783728493891
 20
428.2199230241729
 30
0.0
 40
1.5
100
AcDbArc
 50
0.0
 51
90.0
  0
LINE
  5
208E
330
1E
100
AcDbEntity
  8
STEMPEL
100
AcDbLine
 10
102.620372849389
 20
432.7199230241729
 30
0.0
 11
102.620372849389
 21
429.7199230241729
 31
0.0
  0
ARC
  5
208F
330
1E
100
AcDbEntity
  8
STEMPEL
100
AcDbCircle
 10
114.7783728493891
 20
428.2199230241729
 30
0.0
 40
1.5
100
AcDbArc
 50
90.0
 51
180.0
  0
LINE
  5
2090
330
1E
100
AcDbEntity
  8
STEMPEL
100
AcDbLine
 10
370.2573728493891
 20
432.7199230241729
 30
0.0
 11
349.024372849389
 21
432.7199230241729
 31
0.0
  0
LINE
  5
2091
330
1E
100
AcDbEntity
  8
STEMPEL
100
AcDbLine
 10
370.2573728493891
 20
429.7199230241729
 30
0.0
 11
370.2573728493891
 21
432.7199230241729
 31
0.0
  0
LINE
  5
2092
330
1E
100
AcDbEntity
  8
STEMPEL
100
AcDbLine
 10
349.024372849389
 20
429.7199230241729
 30
0.0
 11
370.2573728493891
 21
429.7199230241729
 31
0.0
  0
LINE
  5
2093
330
1E
100
AcDbEntity
  8
STEMPEL
100
AcDbLine
 10
97.26837284938904
 20
429.7199230241729
 30
0.0
 11
118.5121365755978
 21
429.7199230241729
 31
0.0
  0
LINE
  5
2094
330
1E
100
AcDbEntity
  8
STEMPEL
100
AcDbLine
 10
97.26837284938904
 20
432.7199230241729
 30
0.0
 11
97.26837284938904
 21
429.7199230241729
 31
0.0
  0
LINE
  5
2095
330
1E
100
AcDbEntity
  8
STEMPEL
100
AcDbLine
 10
118.5113728493891
 20
432.7199230241729
 30
0.0
 11
97.26837284938904
 21
432.7199230241729
 31
0.0
  0
LINE
  5
2096
330
1E
100
AcDbEntity
  8
STEMPEL
100
AcDbLine
 10
102.620372849389
 20
435.7199230241729
 30
0.0
 11
102.620372849389
 21
438.7199230241729
 31
0.0
  0
LINE
  5
2097
330
1E
100
AcDbEntity
  8
STEMPEL
100
AcDbLine
 10
364.9153728493891
 20
435.7199230241729
 30
0.0
 11
364.9153728493891
 21
438.7199230241729
 31
0.0
  0
ARC
  5
2098
330
1E
100
AcDbEntity
  8
STEMPEL
100
AcDbCircle
 10
349.024372849389
 20
441.7199230241729
 30
0.0
 40
3.0
100
AcDbArc
 50
183.7231247610008
 51
270.0
  0
LINE
  5
2099
330
1E
100
AcDbEntity
  8
STEMPEL
100
AcDbLine
 10
370.2573728493891
 20
438.7199230241729
 30
0.0
 11
349.024372849389
 21
438.7199230241729
 31
0.0
  0
LINE
  5
209A
330
1E
100
AcDbEntity
  8
STEMPEL
100
AcDbLine
 10
370.2573728493891
 20
435.7199230241729
 30
0.0
 11
370.2573728493891
 21
438.7199230241729
 31
0.0
  0
LINE
  5
209B
330
1E
100
AcDbEntity
  8
STEMPEL
100
AcDbLine
 10
349.024372849389
 20
435.7199230241729
 30
0.0
 11
370.2573728493891
 21
435.7199230241729
 31
0.0
  0
ARC
  5
209C
330
1E
100
AcDbEntity
  8
STEMPEL
100
AcDbCircle
 10
349.024372849389
 20
441.7199230241729
 30
0.0
 40
6.0
100
AcDbArc
 50
183.7231247610008
 51
270.0
  0
ARC
  5
209D
330
1E
100
AcDbEntity
  8
STEMPEL
100
AcDbCircle
 10
233.768372849389
 20
434.2199230241729
 30
0.0
 40
109.5
100
AcDbArc
 50
3.723124760999245
 51
176.2768752389991
  0
ARC
  5
209E
330
1E
100
AcDbEntity
  8
STEMPEL
100
AcDbCircle
 10
118.5113728493891
 20
441.7199230241729
 30
0.0
 40
6.0
100
AcDbArc
 50
270.0
 51
356.2768752389991
  0
LINE
  5
209F
330
1E
100
AcDbEntity
  8
STEMPEL
100
AcDbLine
 10
97.26837284938904
 20
435.7199230241729
 30
0.0
 11
118.5113728493891
 21
435.7199230241729
 31
0.0
  0
LINE
  5
20A0
330
1E
100
AcDbEntity
  8
STEMPEL
100
AcDbLine
 10
97.26837284938904
 20
438.7199230241729
 30
0.0
 11
97.26837284938904
 21
435.7199230241729
 31
0.0
  0
LINE
  5
20A1
330
1E
100
AcDbEntity
  8
STEMPEL
100
AcDbLine
 10
118.5113728493891
 20
438.7199230241729
 30
0.0
 11
97.26837284938904
 21
438.7199230241729
 31
0.0
  0
ARC
  5
20A2
330
1E
100
AcDbEntity
  8
STEMPEL
100
AcDbCircle
 10
118.5113728493891
 20
441.7199230241729
 30
0.0
 40
3.0
100
AcDbArc
 50
270.0
 51
356.2768752389991
  0
ARC
  5
20A3
330
1E
100
AcDbEntity
  8
STEMPEL
100
AcDbCircle
 10
233.768372849389
 20
434.2199230241729
 30
0.0
 40
112.5
100
AcDbArc
 50
3.723124760999245
 51
176.2768752389991
  0
LINE
  5
20A4
330
1E
100
AcDbEntity
  8
MITTEL
100
AcDbLine
 10
108.278372849389
 20
449.0199230241729
 30
0.0
 11
108.2783728493891
 21
403.7199230241729
 31
0.0
  0
LINE
  5
20A5
330
1E
100
AcDbEntity
  8
MITTEL
100
AcDbLine
 10
359.2573728493891
 20
449.0199230241729
 30
0.0
 11
359.2573728493891
 21
403.7199230241729
 31
0.0
  0
LINE
  5
20A6
330
1E
100
AcDbEntity
  8
MITTEL
100
AcDbLine
 10
92.26837284938902
 20
434.2199230241729
 30
0.0
 11
375.2573728493891
 21
434.2199230241729
 31
0.0
  0
LINE
  5
20A7
330
1E
100
AcDbEntity
  8
MITTEL
100
AcDbLine
 10
233.768372849389
 20
298.323923024173
 30
0.0
 11
233.768372849389
 21
554.348923024173
 31
0.0
  0
LINE
  5
20A8
330
1E
100
AcDbEntity
  8
HILF
100
AcDbLine
 10
121.4143728493891
 20
250.005194274822
 30
0.0
 11
121.4143728493891
 21
210.005194274822
 31
0.0
  0
LINE
  5
20A9
330
1E
100
AcDbEntity
  8
HILF
100
AcDbLine
 10
346.1223728493891
 20
250.005194274822
 30
0.0
 11
346.1223728493891
 21
210.005194274822
 31
0.0
  0
LINE
  5
20AA
330
1E
100
AcDbEntity
  8
MITTEL
100
AcDbLine
 10
359.2683728493891
 20
219.460194274822
 30
0.0
 11
359.2683728493891
 21
242.4601942748219
 31
0.0
  0
LINE
  5
20AB
330
1E
100
AcDbEntity
  8
MITTEL
100
AcDbLine
 10
108.268372849389
 20
218.505194274822
 30
0.0
 11
108.268372849389
 21
241.5051942748221
 31
0.0
  0
LINE
  5
20AC
330
1E
100
AcDbEntity
  8
MITTEL
100
AcDbLine
 10
233.768372849389
 20
255.005194274822
 30
0.0
 11
233.768372849389
 21
205.005194274822
 31
0.0
  0
LINE
  5
20AD
330
1E
100
AcDbEntity
  8
MITTEL
100
AcDbLine
 10
375.2683728493892
 20
230.005194274822
 30
0.0
 11
92.26837284938905
 21
230.0051942748221
 31
0.0
  0
ARC
  5
20AE
330
1E
100
AcDbEntity
  8
STEMPEL
100
AcDbCircle
 10
330.2683728493891
 20
230.005194274822
 30
0.0
 40
40.0
100
AcDbArc
 50
329.9999999999995
 51
30.00000000000055
  0
ARC
  5
20AF
330
1E
100
AcDbEntity
  8
STEMPEL
100
AcDbCircle
 10
137.268372849389
 20
230.005194274822
 30
0.0
 40
40.0
100
AcDbArc
 50
149.9999999999994
 51
210.0000000000005
  0
LINE
  5
20B0
330
1E
100
AcDbEntity
  8
STEMPEL
100
AcDbLine
 10
364.909372849389
 20
250.005194274822
 30
0.0
 11
102.627372849389
 21
250.005194274822
 31
0.0
  0
LINE
  5
20B1
330
1E
100
AcDbEntity
  8
STEMPEL
100
AcDbLine
 10
102.627372849389
 20
210.005194274822
 30
0.0
 11
364.909372849389
 21
210.005194274822
 31
0.0
  0
DIMENSION
  5
20DC
330
1E
100
AcDbEntity
  8
BEM
100
AcDbDimension
  2
*D1
 10
359.2683728493891
 20
188.3679836584065
 30
0.0
 11
233.7683728493891
 21
194.8679836584065
 31
0.0
 70
    32
 71
     5
 42
251.0000000000001
  3
Standard
100
AcDbAlignedDimension
 13
108.268372849389
 23
218.505194274822
 33
0.0
 14
359.2683728493891
 24
219.460194274822
 34
0.0
100
AcDbRotatedDimension
1001
ACAD
1000
DSTYLE
1002
{
1070
    40
1040
2.0
1070
    41
1040
3.5
1070
    42
1040
1.0
1070
    43
1040
7.0
1070
    44
1040
1.0
1070
    73
1070
     0
1070
    74
1070
     0
1070
    77
1070
     1
1070
    78
1070
     8
1070
    79
1070
     2
1070
   140
1040
3.5
1070
   141
1040
1.5
1070
   146
1040
0.5142857142857144
1070
   147
1040
1.5
1070
   172
1070
     1
1070
   178
1070
     1
1070
   179
1070
     2
1070
   271
1070
     2
1070
   272
1070
     2
1070
   284
1070
     8
1070
   285
1070
     8
1070
   286
1070
     8
1002
}
  0
DIMENSION
  5
20E9
330
1E
100
AcDbEntity
  8
BEM
100
AcDbDimension
  2
*D2
 10
370.2683728493891
 20
173.0041927762393
 30
0.0
 11
233.7683728493891
 21
179.5041927762393
 31
0.0
 70
    32
 71
     5
 42
273.0000000000001
  3
Standard
100
AcDbAlignedDimension
 13
97.26837284938904
 23
230.005194274822
 33
0.0
 14
370.2683728493891
 24
230.005194274822
 34
0.0
100
AcDbRotatedDimension
1001
ACAD
1000
DSTYLE
1002
{
1070
    40
1040
2.0
1070
    41
1040
3.5
1070
    42
1040
1.0
1070
    43
1040
7.0
1070
    44
1040
1.0
1070
    73
1070
     0
1070
    74
1070
     0
1070
    77
1070
     1
1070
    78
1070
     8
1070
    79
1070
     2
1070
   140
1040
3.5
1070
   141
1040
1.5
1070
   146
1040
0.5142857142857144
1070
   147
1040
1.5
1070
   172
1070
     1
1070
   178
1070
     1
1070
   179
1070
     2
1070
   271
1070
     2
1070
   272
1070
     2
1070
   284
1070
     8
1070
   285
1070
     8
1070
   286
1070
     8
1002
}
  0
ARC
  5
20FD
330
1E
100
AcDbEntity
  8
STEMPEL
100
AcDbCircle
 10
118.5121365755977
 20
426.7199230241729
 30
0.0
 40
3.0
100
AcDbArc
 50
3.723124760657126
 51
89.99999999999973
  0
ARC
  5
2100
330
1E
100
AcDbEntity
  8
STEMPEL
100
AcDbCircle
 10
233.7683728493891
 20
304.7708030241726
 30
0.0
 40
15.44912000000027
100
AcDbArc
 50
70.34657509801135
 51
109.6534249019889
  0
ARC
  5
2102
330
1E
100
AcDbEntity
  8
STEMPEL
100
AcDbCircle
 10
225.9738728493891
 20
316.0186996908397
 30
0.0
 40
4.201223363086477
100
AcDbArc
 50
51.7925685469563
 51
128.2074314530423
  0
ARC
  5
2103
330
1E
100
AcDbEntity
  8
STEMPEL
100
AcDbCircle
 10
241.562872849389
 20
316.0186996908397
 30
0.0
 40
4.201223363086477
100
AcDbArc
 50
51.79256854695769
 51
128.2074314530436
  0
ARC
  5
2104
330
1E
100
AcDbEntity
  8
STEMPEL
100
AcDbCircle
 10
233.768372849389
 20
296.5172891909332
 30
0.0
 40
25.20263383323978
100
AcDbArc
 50
68.2139514854937
 51
111.7860485145063
  0
DIMENSION
  5
2105
330
1E
100
AcDbEntity
  8
BEM
100
AcDbDimension
  2
*D3
 10
87.15799667617512
 20
435.7199230241729
 30
0.0
 11
80.65799667617504
 21
454.5865896908396
 31
0.0
 70
    32
 71
     5
 42
3.0
  3
Standard
100
AcDbAlignedDimension
 13
97.26837284938904
 23
432.7199230241729
 33
0.0
 14
97.26837284938904
 24
435.7199230241729
 34
0.0
 50
90.0
100
AcDbRotatedDimension
1001
ACAD
1000
DSTYLE
1002
{
1070
    40
1040
2.0
1070
    41
1040
3.5
1070
    42
1040
1.0
1070
    43
1040
7.0
1070
    44
1040
1.0
1070
    73
1070
     0
1070
    74
1070
     0
1070
    77
1070
     1
1070
    78
1070
     8
1070
    79
1070
     2
1070
   140
1040
3.5
1070
   141
1040
1.5
1070
   146
1040
0.5142857142857144
1070
   147
1040
1.5
1070
   172
1070
     1
1070
   178
1070
     1
1070
   179
1070
     2
1070
   271
1070
     2
1070
   272
1070
     2
1070
   284
1070
     8
1070
   285
1070
     8
1070
   286
1070
     8
1002
}
  0
DIMENSION
  5
2114
330
1E
100
AcDbEntity
  8
BEM
100
AcDbDimension
  2
*D4
 10
68.90173472753578
 20
546.7199230241728
 30
0.0
 11
62.40173472753568
 21
427.2199230241729
 31
0.0
 70
    32
 71
     5
 42
238.9999999999999
  3
Standard
100
AcDbAlignedDimension
 13
225.9733728493891
 23
307.7199230241729
 33
0.0
 14
233.768372849389
 24
546.7199230241728
 34
0.0
 50
90.0
100
AcDbRotatedDimension
1001
ACAD
1000
DSTYLE
1002
{
1070
    40
1040
2.0
1070
    41
1040
3.5
1070
    42
1040
1.0
1070
    43
1040
7.0
1070
    44
1040
1.0
1070
    73
1070
     0
1070
    74
1070
     0
1070
    77
1070
     1
1070
    78
1070
     8
1070
    79
1070
     2
1070
   140
1040
3.5
1070
   141
1040
1.5
1070
   146
1040
0.5142857142857144
1070
   147
1040
1.5
1070
   172
1070
     1
1070
   178
1070
     1
1070
   179
1070
     2
1070
   271
1070
     2
1070
   272
1070
     2
1070
   284
1070
     8
1070
   285
1070
     8
1070
   286
1070
     8
1002
}
  0
DIMENSION
  5
212A
330
1E
100
AcDbEntity
  8
BEM
100
AcDbDimension
  2
*D5
 10
304.9220483135925
 20
517.4509539426265
 30
0.0
 11
256.6057329871596
 21
460.9402178612787
 31
0.0
 70
   161
 71
     5
 42
218.9999999984106
  3
Standard
100
AcDbAlignedDimension
 13
162.6095739693101
 23
350.9932725932894
 33
0.0
 14
304.926537558149
 24
517.4471156674489
 34
0.0
1001
ACAD
1000
DSTYLE
1002
{
1070
    40
1040
2.0
1070
    41
1040
3.5
1070
    42
1040
1.0
1070
    43
1040
7.0
1070
    44
1040
1.0
1070
    73
1070
     0
1070
    74
1070
     0
1070
    77
1070
     1
1070
    78
1070
     8
1070
    79
1070
     2
1070
   140
1040
3.5
1070
   141
1040
1.5
1070
   146
1040
0.5142857142857144
1070
   147
1040
1.5
1070
   172
1070
     1
1070
   178
1070
     1
1070
   179
1070
     2
1070
   271
1070
     2
1070
   272
1070
     2
1070
   284
1070
     8
1070
   285
1070
     8
1070
   286
1070
     8
1002
}
  0
TEXT
  5
2161
330
1E
100
AcDbEntity
  8
TEXT
 62
     1
100
AcDbText
 10
227.8365522679116
 20
115.6405708316599
 30
0.0
 40
7.0
  1
Werkstoff: St37 Dickschichtpassiviert
 41
0.8
  7
GREEKS
100
AcDbText
  0
DIMENSION
  5
2168
330
1E
100
AcDbEntity
  8
BEM
100
AcDbDimension
  2
*D6
 10
79.81101570875397
 20
210.005194274822
 30
0.0
 11
73.31101570875394
 21
230.0051942748222
 31
0.0
 70
    32
 71
     5
 42
40.00000000000034
  3
Standard
100
AcDbAlignedDimension
 13
102.6273566980117
 23
250.0051942748224
 33
0.0
 14
102.627372849389
 24
210.005194274822
 34
0.0
 50
90.0
100
AcDbRotatedDimension
1001
ACAD
1000
DSTYLE
1002
{
1070
    40
1040
2.0
1070
    41
1040
3.5
1070
    42
1040
1.0
1070
    43
1040
7.0
1070
    44
1040
1.0
1070
    73
1070
     0
1070
    74
1070
     0
1070
    77
1070
     1
1070
    78
1070
     8
1070
    79
1070
     2
1070
   140
1040
3.5
1070
   141
1040
1.5
1070
   146
1040
0.5142857142857144
1070
   147
1040
1.5
1070
   172
1070
     1
1070
   178
1070
     1
1070
   179
1070
     2
1070
   271
1070
     2
1070
   272
1070
     2
1070
   284
1070
     8
1070
   285
1070
     8
1070
   286
1070
     8
1002
}
  0
ENDSEC
  0
SECTION
  2
OBJECTS
  0
DICTIONARY
  5
C
330
0
100
AcDbDictionary
281
     1
  3
ACAD_COLOR
350
DF
  3
ACAD_GROUP
350
D
  3
ACAD_LAYOUT
350
19
  3
ACAD_MATERIAL
350
DE
  3
ACAD_MLINESTYLE
350
16
  3
ACAD_PLOTSETTINGS
350
18
  3
ACAD_PLOTSTYLENAME
350
E
  3
AcDbVariableDictionary
350
EA
  0
DICTIONARY
  5
A0
330
1E
100
AcDbDictionary
280
     1
281
     1
  3
ACAD_LAYOUTSELFREF
360
D4
  0
DICTIONARY
  5
A2
330
1A
100
AcDbDictionary
280
     1
281
     1
  3
ACAD_LAYOUTSELFREF
360
D3
  0
DICTIONARY
  5
DF
102
{ACAD_REACTORS
330
C
102
}
330
C
100
AcDbDictionary
281
     1
  0
DICTIONARY
  5
D
102
{ACAD_REACTORS
330
C
102
}
330
C
100
AcDbDictionary
281
     1
  0
DICTIONARY
  5
19
102
{ACAD_REACTORS
330
C
102
}
330
C
100
AcDbDictionary
281
     1
  3
Layout1
350
1D
  3
Model
350
21
  0
DICTIONARY
  5
DE
102
{ACAD_REACTORS
330
C
102
}
330
C
100
AcDbDictionary
281
     1
  0
DICTIONARY
  5
16
102
{ACAD_REACTORS
330
C
102
}
330
C
100
AcDbDictionary
281
     1
  3
Standard
350
17
  0
DICTIONARY
  5
18
102
{ACAD_REACTORS
330
C
102
}
330
C
100
AcDbDictionary
281
     1
  0
ACDBDICTIONARYWDFLT
  5
E
102
{ACAD_REACTORS
330
C
102
}
330
C
100
AcDbDictionary
281
     1
  3
Normal
350
F
100
AcDbDictionaryWithDefault
340
F
  0
DICTIONARY
  5
EA
102
{ACAD_REACTORS
330
C
102
}
330
C
100
AcDbDictionary
281
     1
  3
DIMASSOC
350
EB
  3
PROJECTNAME
350
EC
  0
XRECORD
  5
D4
102
{ACAD_REACTORS
330
A0
102
}
330
A0
100
AcDbXrecord
280
     1
340
1E
  0
XRECORD
  5
D3
102
{ACAD_REACTORS
330
A2
102
}
330
A2
100
AcDbXrecord
280
     1
340
1A
  0
LAYOUT
  5
1D
102
{ACAD_REACTORS
330
19
102
}
330
19
100
AcDbPlotSettings
  1

  2
\\NT_WORK01\HP LaserJet 5000 PCL 6
  4

  6

 40
0.0
 41
0.0
 42
0.0
 43
0.0
 44
0.0
 45
0.0
 46
0.0
 47
0.0
 48
0.0
 49
0.0
140
0.0
141
0.0
142
1.0
143
1.0
 70
   688
 72
     0
 73
     0
 74
     5
  7

 75
    16
147
1.0
 76
     0
 77
     2
 78
   300
148
0.0
149
0.0
100
AcDbLayout
  1
Layout1
 70
     0
 71
     1
 10
0.0
 20
0.0
 11
12.0
 21
9.0
 12
0.0
 22
0.0
 32
0.0
 14
1.000000000000000E+20
 24
1.000000000000000E+20
 34
1.000000000000000E+20
 15
-1.000000000000000E+20
 25
-1.000000000000000E+20
 35
-1.000000000000000E+20
146
0.0
 13
0.0
 23
0.0
 33
0.0
 16
1.0
 26
0.0
 36
0.0
 17
0.0
 27
1.0
 37
0.0
 76
     0
330
1A
  0
LAYOUT
  5
21
102
{ACAD_REACTORS
330
19
102
}
330
19
100
AcDbPlotSettings
  1

  2
none_device
  4
Letter_(8.50_x_11.00_Inches)
  6

 40
6.349999904632568
 41
6.349999904632568
 42
6.350006103515625
 43
6.350006103515625
 44
215.8999938964844
 45
279.3999938964844
 46
0.0
 47
0.0
 48
0.0
 49
0.0
140
0.0
141
0.0
142
1.0
143
1.0
 70
 11952
 72
     0
 73
     1
 74
     0
  7

 75
     0
147
1.0
 76
     0
 77
     2
 78
   300
148
-230.4417396561563
149
47.00486644638983
100
AcDbLayout
  1
Model
 70
     1
 71
     0
 10
0.0
 20
0.0
 11
12.0
 21
9.0
 12
0.0
 22
0.0
 32
0.0
 14
0.0
 24
0.0
 34
0.0
 15
0.0
 25
0.0
 35
0.0
146
0.0
 13
0.0
 23
0.0
 33
0.0
 16
1.0
 26
0.0
 36
0.0
 17
0.0
 27
1.0
 37
0.0
 76
     0
330
1E
  0
MLINESTYLE
  5
17
102
{ACAD_REACTORS
330
16
102
}
330
16
100
AcDbMlineStyle
  2
STANDARD
 70
     0
  3

 62
   256
 51
90.0
 52
90.0
 71
     2
 49
0.5
 62
   256
  6
BYLAYER
 49
-0.5
 62
   256
  6
BYLAYER
  0
ACDBPLACEHOLDER
  5
F
102
{ACAD_REACTORS
330
E
102
}
330
E
  0
DICTIONARYVAR
  5
EB
102
{ACAD_REACTORS
330
EA
102
}
330
EA
100
DictionaryVariables
280
     0
  1
1
  0
DICTIONARYVAR
  5
EC
102
{ACAD_REACTORS
330
EA
102
}
330
EA
100
DictionaryVariables
280
     0
  1

  0
ENDSEC
  0
EOF
