  0
SECTION
  2
HEADER
  9
$ACADVER
  1
AC1018
  9
$ACADMAINTVER
 70
     2
  9
$DWGCODEPAGE
  3
ANSI_1252
  9
$INSBASE
 10
0.0
 20
0.0
 30
0.0
  9
$EXTMIN
 10
-0.0127449277902088
 20
-0.0317004075857312
 30
-0.0000000000000129
  9
$EXTMAX
 10
420.0082719239349
 20
594.0317242670564
 30
0.0000000000000023
  9
$LIMMIN
 10
0.0
 20
0.0
  9
$LIMMAX
 10
419.9999999999999
 20
594.0
  9
$ORTHOMODE
 70
     1
  9
$REGENMODE
 70
     1
  9
$FILLMODE
 70
     1
  9
$QTEXTMODE
 70
     0
  9
$MIRRTEXT
 70
     1
  9
$LTSCALE
 40
20.0
  9
$ATTMODE
 70
     1
  9
$TEXTSIZE
 40
2.5
  9
$TRACEWID
 40
0.5
  9
$TEXTSTYLE
  7
GREEKS
  9
$CLAYER
  8
BEM
  9
$CELTYPE
  6
ByLayer
  9
$CECOLOR
 62
   256
  9
$CELTSCALE
 40
1.0
  9
$DISPSILH
 70
     0
  9
$DIMSCALE
 40
2.0
  9
$DIMASZ
 40
3.5
  9
$DIMEXO
 40
1.0
  9
$DIMDLI
 40
7.0
  9
$DIMRND
 40
0.0
  9
$DIMDLE
 40
0.0
  9
$DIMEXE
 40
1.0
  9
$DIMTP
 40
0.0
  9
$DIMTM
 40
0.0
  9
$DIMTXT
 40
3.5
  9
$DIMCEN
 40
1.5
  9
$DIMTSZ
 40
0.0
  9
$DIMTOL
 70
     0
  9
$DIMLIM
 70
     0
  9
$DIMTIH
 70
     0
  9
$DIMTOH
 70
     0
  9
$DIMSE1
 70
     0
  9
$DIMSE2
 70
     0
  9
$DIMTAD
 70
     1
  9
$DIMZIN
 70
     8
  9
$DIMBLK
  1

  9
$DIMASO
 70
     1
  9
$DIMSHO
 70
     0
  9
$DIMPOST
  1

  9
$DIMAPOST
  1

  9
$DIMALT
 70
     0
  9
$DIMALTD
 70
     2
  9
$DIMALTF
 40
25.4
  9
$DIMLFAC
 40
1.0
  9
$DIMTOFL
 70
     1
  9
$DIMTVP
 40
0.0
  9
$DIMTIX
 70
     0
  9
$DIMSOXD
 70
     0
  9
$DIMSAH
 70
     0
  9
$DIMBLK1
  1

  9
$DIMBLK2
  1

  9
$DIMSTYLE
  2
Standard
  9
$DIMCLRD
 70
     0
  9
$DIMCLRE
 70
     0
  9
$DIMCLRT
 70
     1
  9
$DIMTFAC
 40
0.5142857142857144
  9
$DIMGAP
 40
1.5
  9
$DIMJUST
 70
     0
  9
$DIMSD1
 70
     0
  9
$DIMSD2
 70
     0
  9
$DIMTOLJ
 70
     1
  9
$DIMTZIN
 70
     8
  9
$DIMALTZ
 70
     8
  9
$DIMALTTZ
 70
     8
  9
$DIMUPT
 70
     0
  9
$DIMDEC
 70
     2
  9
$DIMTDEC
 70
     2
  9
$DIMALTU
 70
     2
  9
$DIMALTTD
 70
     2
  9
$DIMTXSTY
  7
STANDARD
  9
$DIMAUNIT
 70
     0
  9
$DIMADEC
 70
     2
  9
$DIMALTRND
 40
0.0
  9
$DIMAZIN
 70
     2
  9
$DIMDSEP
 70
    46
  9
$DIMATFIT
 70
     3
  9
$DIMFRAC
 70
     0
  9
$DIMLDRBLK
  1

  9
$DIMLUNIT
 70
     2
  9
$DIMLWD
 70
    -2
  9
$DIMLWE
 70
    -2
  9
$DIMTMOVE
 70
     0
  9
$LUNITS
 70
     2
  9
$LUPREC
 70
     2
  9
$SKETCHINC
 40
1.0
  9
$FILLETRAD
 40
0.0
  9
$AUNITS
 70
     0
  9
$AUPREC
 70
     0
  9
$MENU
  1
ACAD
  9
$ELEVATION
 40
0.0
  9
$PELEVATION
 40
0.0
  9
$THICKNESS
 40
0.0
  9
$LIMCHECK
 70
     0
  9
$CHAMFERA
 40
0.0
  9
$CHAMFERB
 40
0.0
  9
$CHAMFERC
 40
0.0
  9
$CHAMFERD
 40
0.0
  9
$SKPOLY
 70
     0
  9
$TDCREATE
 40
2455397.823042361
  9
$TDUCREATE
 40
2455397.781375695
  9
$TDUPDATE
 40
2456230.320706863
  9
$TDUUPDATE
 40
2456230.279040197
  9
$TDINDWG
 40
0.3511682523
  9
$TDUSRTIMER
 40
0.3511682523
  9
$USRTIMER
 70
     1
  9
$ANGBASE
 50
0.0
  9
$ANGDIR
 70
     0
  9
$PDMODE
 70
     0
  9
$PDSIZE
 40
0.0
  9
$PLINEWID
 40
0.0
  9
$SPLFRAME
 70
     0
  9
$SPLINETYPE
 70
     6
  9
$SPLINESEGS
 70
     8
  9
$HANDSEED
  5
1BC5
  9
$SURFTAB1
 70
     6
  9
$SURFTAB2
 70
     6
  9
$SURFTYPE
 70
     6
  9
$SURFU
 70
     6
  9
$SURFV
 70
     6
  9
$UCSBASE
  2

  9
$UCSNAME
  2

  9
$UCSORG
 10
0.0
 20
0.0
 30
0.0
  9
$UCSXDIR
 10
1.0
 20
0.0
 30
0.0
  9
$UCSYDIR
 10
0.0
 20
1.0
 30
0.0
  9
$UCSORTHOREF
  2

  9
$UCSORTHOVIEW
 70
     0
  9
$UCSORGTOP
 10
0.0
 20
0.0
 30
0.0
  9
$UCSORGBOTTOM
 10
0.0
 20
0.0
 30
0.0
  9
$UCSORGLEFT
 10
0.0
 20
0.0
 30
0.0
  9
$UCSORGRIGHT
 10
0.0
 20
0.0
 30
0.0
  9
$UCSORGFRONT
 10
0.0
 20
0.0
 30
0.0
  9
$UCSORGBACK
 10
0.0
 20
0.0
 30
0.0
  9
$PUCSBASE
  2

  9
$PUCSNAME
  2

  9
$PUCSORG
 10
0.0
 20
0.0
 30
0.0
  9
$PUCSXDIR
 10
1.0
 20
0.0
 30
0.0
  9
$PUCSYDIR
 10
0.0
 20
1.0
 30
0.0
  9
$PUCSORTHOREF
  2

  9
$PUCSORTHOVIEW
 70
     0
  9
$PUCSORGTOP
 10
0.0
 20
0.0
 30
0.0
  9
$PUCSORGBOTTOM
 10
0.0
 20
0.0
 30
0.0
  9
$PUCSORGLEFT
 10
0.0
 20
0.0
 30
0.0
  9
$PUCSORGRIGHT
 10
0.0
 20
0.0
 30
0.0
  9
$PUCSORGFRONT
 10
0.0
 20
0.0
 30
0.0
  9
$PUCSORGBACK
 10
0.0
 20
0.0
 30
0.0
  9
$USERI1
 70
     0
  9
$USERI2
 70
     0
  9
$USERI3
 70
     0
  9
$USERI4
 70
     0
  9
$USERI5
 70
     0
  9
$USERR1
 40
0.0
  9
$USERR2
 40
0.0
  9
$USERR3
 40
0.0
  9
$USERR4
 40
0.0
  9
$USERR5
 40
0.0
  9
$WORLDVIEW
 70
     1
  9
$SHADEDGE
 70
     3
  9
$SHADEDIF
 70
    70
  9
$TILEMODE
 70
     1
  9
$MAXACTVP
 70
    16
  9
$PINSBASE
 10
0.0
 20
0.0
 30
0.0
  9
$PLIMCHECK
 70
     0
  9
$PEXTMIN
 10
1.000000000000000E+20
 20
1.000000000000000E+20
 30
1.000000000000000E+20
  9
$PEXTMAX
 10
-1.000000000000000E+20
 20
-1.000000000000000E+20
 30
-1.000000000000000E+20
  9
$PLIMMIN
 10
0.0
 20
0.0
  9
$PLIMMAX
 10
12.0
 20
9.0
  9
$UNITMODE
 70
     0
  9
$VISRETAIN
 70
     0
  9
$PLINEGEN
 70
     0
  9
$PSLTSCALE
 70
     0
  9
$TREEDEPTH
 70
  3020
  9
$CMLSTYLE
  2
Standard
  9
$CMLJUST
 70
     0
  9
$CMLSCALE
 40
1.0
  9
$PROXYGRAPHICS
 70
     1
  9
$MEASUREMENT
 70
     0
  9
$CELWEIGHT
370
    -1
  9
$ENDCAPS
280
     0
  9
$JOINSTYLE
280
     0
  9
$LWDISPLAY
290
     0
  9
$INSUNITS
 70
     0
  9
$HYPERLINKBASE
  1

  9
$STYLESHEET
  1
monochrome 1.ctb
  9
$XEDIT
290
     1
  9
$CEPSNTYPE
380
     0
  9
$PSTYLEMODE
290
     1
  9
$FINGERPRINTGUID
  2
{D68B0D02-A558-11D7-B632-000102183313}
  9
$VERSIONGUID
  2
{BB75EB47-1D6D-4974-AF2F-D101A3F8D99F}
  9
$EXTNAMES
290
     1
  9
$PSVPSCALE
 40
0.0
  9
$OLESTARTUP
290
     0
  9
$SORTENTS
280
   127
  9
$INDEXCTL
280
     0
  9
$HIDETEXT
280
     0
  9
$XCLIPFRAME
290
     0
  9
$HALOGAP
280
     0
  9
$OBSCOLOR
 70
   257
  9
$OBSLTYPE
280
     0
  9
$INTERSECTIONDISPLAY
280
     0
  9
$INTERSECTIONCOLOR
 70
   257
  9
$DIMASSOC
280
     1
  9
$PROJECTNAME
  1

  0
ENDSEC
  0
SECTION
  2
CLASSES
  0
CLASS
  1
ACDBDICTIONARYWDFLT
  2
AcDbDictionaryWithDefault
  3
ObjectDBX Classes
 90
        0
 91
        1
280
     0
281
     0
  0
CLASS
  1
DICTIONARYVAR
  2
AcDbDictionaryVar
  3
ObjectDBX Classes
 90
        0
 91
        2
280
     0
281
     0
  0
ENDSEC
  0
SECTION
  2
TABLES
  0
TABLE
  2
VPORT
  5
8
330
0
100
AcDbSymbolTable
 70
     3
  0
VPORT
  5
1BC4
330
8
100
AcDbSymbolTableRecord
100
AcDbViewportTableRecord
  2
*Active
 70
     0
 10
0.0
 20
0.0
 11
1.0
 21
1.0
 12
209.9999999999999
 22
297.0
 13
0.0
 23
0.0
 14
1.0
 24
1.0
 15
10.0
 25
10.0
 16
0.0
 26
0.0
 36
1.0
 17
0.0
 27
0.0
 37
0.0
 40
594.0
 41
1.404858299595141
 42
50.0
 43
0.0
 44
0.0
 50
0.0
 51
0.0
 71
     0
 72
  1500
 73
     1
 74
     0
 75
     0
 76
     0
 77
     0
 78
     0
281
     0
 65
     1
110
0.0
120
0.0
130
0.0
111
1.0
121
0.0
131
0.0
112
0.0
122
1.0
132
0.0
 79
     0
146
0.0
  0
ENDTAB
  0
TABLE
  2
LTYPE
  5
5
330
0
100
AcDbSymbolTable
 70
     2
  0
LTYPE
  5
13
330
5
100
AcDbSymbolTableRecord
100
AcDbLinetypeTableRecord
  2
ByBlock
 70
     0
  3

 72
    65
 73
     0
 40
0.0
  0
LTYPE
  5
14
330
5
100
AcDbSymbolTableRecord
100
AcDbLinetypeTableRecord
  2
ByLayer
 70
     0
  3

 72
    65
 73
     0
 40
0.0
  0
LTYPE
  5
15
330
5
100
AcDbSymbolTableRecord
100
AcDbLinetypeTableRecord
  2
Continuous
 70
     0
  3
Solid line
 72
    65
 73
     0
 40
0.0
  0
LTYPE
  5
25
330
5
100
AcDbSymbolTableRecord
100
AcDbLinetypeTableRecord
  2
STRICHPUNKT
 70
     0
  3
__ . __ . __ . __ . __ . __ . __ . __ . __ . __
 72
    65
 73
     4
 40
1.0
 49
0.5
 74
     0
 49
-0.25
 74
     0
 49
0.0
 74
     0
 49
-0.25
 74
     0
  0
ENDTAB
  0
TABLE
  2
LAYER
  5
2
330
0
100
AcDbSymbolTable
 70
     8
  0
LAYER
  5
10
330
2
100
AcDbSymbolTableRecord
100
AcDbLayerTableRecord
  2
0
 70
     0
 62
     7
  6
Continuous
370
    -3
390
F
  0
LAYER
  5
2A
330
2
100
AcDbSymbolTableRecord
100
AcDbLayerTableRecord
  2
VOLL
 70
     0
 62
     1
  6
Continuous
370
    -3
390
F
  0
LAYER
  5
2B
330
2
100
AcDbSymbolTableRecord
100
AcDbLayerTableRecord
  2
HILF
 70
     0
 62
     2
  6
Continuous
370
    -3
390
F
  0
LAYER
  5
2C
330
2
100
AcDbSymbolTableRecord
100
AcDbLayerTableRecord
  2
MITTEL
 70
     0
 62
     2
  6
STRICHPUNKT
370
    -3
390
F
  0
LAYER
  5
2F
330
2
100
AcDbSymbolTableRecord
100
AcDbLayerTableRecord
  2
BEM
 70
     0
 62
     7
  6
Continuous
370
    -3
390
F
  0
LAYER
  5
30
330
2
100
AcDbSymbolTableRecord
100
AcDbLayerTableRecord
  2
STEMPEL
 70
     0
 62
     3
  6
Continuous
370
    -3
390
F
  0
LAYER
  5
31
330
2
100
AcDbSymbolTableRecord
100
AcDbLayerTableRecord
  2
TEXT
 70
     0
 62
     7
  6
Continuous
370
    -3
390
F
  0
LAYER
  5
1A8
330
2
100
AcDbSymbolTableRecord
100
AcDbLayerTableRecord
  2
Defpoints
 70
     0
 62
     7
  6
Continuous
290
     0
370
    -3
390
F
  0
ENDTAB
  0
TABLE
  2
STYLE
  5
3
330
0
100
AcDbSymbolTable
 70
     2
  0
STYLE
  5
11
330
3
100
AcDbSymbolTableRecord
100
AcDbTextStyleTableRecord
  2
STANDARD
 70
     0
 40
0.0
 41
0.8
 50
0.0
 71
     0
 42
3.5
  3
simplex.shx
  4

  0
STYLE
  5
24
330
3
100
AcDbSymbolTableRecord
100
AcDbTextStyleTableRecord
  2
GREEKS
 70
     0
 40
0.0
 41
0.8
 50
0.0
 71
     0
 42
2.5
  3
SIMPLEX.shx
  4

  0
ENDTAB
  0
TABLE
  2
VIEW
  5
6
330
0
100
AcDbSymbolTable
 70
     0
  0
ENDTAB
  0
TABLE
  2
UCS
  5
7
330
0
100
AcDbSymbolTable
 70
     0
  0
ENDTAB
  0
TABLE
  2
APPID
  5
9
330
0
100
AcDbSymbolTable
 70
     1
  0
APPID
  5
12
330
9
100
AcDbSymbolTableRecord
100
AcDbRegAppTableRecord
  2
ACAD
 70
     0
  0
ENDTAB
  0
TABLE
  2
DIMSTYLE
  5
A
330
0
100
AcDbSymbolTable
 70
     1
100
AcDbDimStyleTable
 71
     1
340
9D
  0
DIMSTYLE
105
9D
102
{ACAD_REACTORS
330
1AF3
330
1B00
330
1B18
330
1B27
330
1B5B
330
1BB2
102
}
330
A
100
AcDbSymbolTableRecord
100
AcDbDimStyleTableRecord
  2
Standard
 70
     0
340
11
  0
ENDTAB
  0
TABLE
  2
BLOCK_RECORD
  5
1
330
0
100
AcDbSymbolTable
 70
     7
  0
BLOCK_RECORD
  5
1E
102
{ACAD_XDICTIONARY
360
A0
102
}
330
1
100
AcDbSymbolTableRecord
100
AcDbBlockTableRecord
  2
*Model_Space
340
21
  0
BLOCK_RECORD
  5
1A
102
{ACAD_XDICTIONARY
360
A2
102
}
330
1
100
AcDbSymbolTableRecord
100
AcDbBlockTableRecord
  2
*Paper_Space
340
1D
  0
BLOCK_RECORD
  5
22
330
1
100
AcDbSymbolTableRecord
100
AcDbBlockTableRecord
  2
LOGO
340
0
102
{BLKREFS
331
9B
102
}
  0
BLOCK_RECORD
  5
1AF4
330
1
100
AcDbSymbolTableRecord
100
AcDbBlockTableRecord
  2
*D1
340
0
  0
BLOCK_RECORD
  5
1B01
330
1
100
AcDbSymbolTableRecord
100
AcDbBlockTableRecord
  2
*D2
340
0
  0
BLOCK_RECORD
  5
1B19
330
1
100
AcDbSymbolTableRecord
100
AcDbBlockTableRecord
  2
*D3
340
0
  0
BLOCK_RECORD
  5
1B28
330
1
100
AcDbSymbolTableRecord
100
AcDbBlockTableRecord
  2
*D4
340
0
  0
BLOCK_RECORD
  5
1B5C
330
1
100
AcDbSymbolTableRecord
100
AcDbBlockTableRecord
  2
*D5
340
0
  0
BLOCK_RECORD
  5
1BB3
330
1
100
AcDbSymbolTableRecord
100
AcDbBlockTableRecord
  2
*D6
340
0
  0
ENDTAB
  0
ENDSEC
  0
SECTION
  2
BLOCKS
  0
BLOCK
  5
35
330
1E
100
AcDbEntity
  8
0
100
AcDbBlockBegin
  2
*Model_Space
 70
     0
 10
0.0
 20
0.0
 30
0.0
  3
*Model_Space
  1

  0
ENDBLK
  5
36
330
1E
100
AcDbEntity
  8
0
100
AcDbBlockEnd
  0
BLOCK
  5
33
330
1A
100
AcDbEntity
 67
     1
  8
0
100
AcDbBlockBegin
  2
*Paper_Space
 70
     0
 10
0.0
 20
0.0
 30
0.0
  3
*Paper_Space
  1

  0
ENDBLK
  5
34
330
1A
100
AcDbEntity
 67
     1
  8
0
100
AcDbBlockEnd
  0
BLOCK
  5
37
330
22
100
AcDbEntity
  8
0
100
AcDbBlockBegin
  2
LOGO
 70
     0
 10
0.0
 20
0.0
 30
0.0
  3
LOGO
  1

  0
ARC
  5
38
330
22
100
AcDbEntity
  8
0
100
AcDbCircle
 10
11.59973089678112
 20
-9.271599258481501
 30
0.0
 40
4.5
100
AcDbArc
 50
270.0
 51
231.0575587310159
  0
LINE
  5
39
330
22
100
AcDbEntity
  8
0
100
AcDbLine
 10
3.599730896781125
 20
-4.771599258481529
 30
0.0
 11
3.599730896781153
 21
-11.77159925848133
 31
0.0
  0
LINE
  5
3A
330
22
100
AcDbEntity
  8
0
100
AcDbLine
 10
2.599730896781125
 20
-4.771599258481529
 30
0.0
 11
2.599730896781153
 21
-11.77159925848133
 31
0.0
  0
CIRCLE
  5
3B
330
22
100
AcDbEntity
  8
0
100
AcDbCircle
 10
11.59973089678112
 20
-9.271599258481501
 30
0.0
 40
3.5
  0
ARC
  5
3C
330
22
100
AcDbEntity
  8
0
100
AcDbCircle
 10
31.59973089678115
 20
-9.271599258481472
 30
0.0
 40
4.5
100
AcDbArc
 50
270.0
 51
231.0575587310182
  0
LINE
  5
3D
330
22
100
AcDbEntity
  8
0
100
AcDbLine
 10
17.59973089678112
 20
-4.771599258481472
 30
0.0
 11
17.59973089678115
 21
-13.77159925848147
 31
0.0
  0
ARC
  5
3E
330
22
100
AcDbEntity
  8
0
100
AcDbCircle
 10
22.59973089678116
 20
-7.271599258481472
 30
0.0
 40
2.5
100
AcDbArc
 50
293.1161887722295
 51
90.0
  0
CIRCLE
  5
3F
330
22
100
AcDbEntity
  8
0
100
AcDbCircle
 10
31.59973089678115
 20
-9.271599258481472
 30
0.0
 40
3.5
  0
ARC
  5
40
330
22
100
AcDbEntity
  8
0
100
AcDbCircle
 10
4.599730896781153
 20
-11.77159925848133
 30
0.0
 40
1.0
100
AcDbArc
 50
180.0
 51
270.0
  0
ARC
  5
41
330
22
100
AcDbEntity
  8
0
100
AcDbCircle
 10
4.599730896781153
 20
-11.77159925848133
 30
0.0
 40
2.0
100
AcDbArc
 50
179.9999999999992
 51
270.0
  0
LINE
  5
42
330
22
100
AcDbEntity
  8
0
100
AcDbLine
 10
11.59973089678115
 20
-13.77159925848144
 30
0.0
 11
4.599730896781153
 21
-13.77159925848147
 31
0.0
  0
LINE
  5
43
330
22
100
AcDbEntity
  8
0
100
AcDbLine
 10
8.771303772034769
 20
-12.77159925848136
 30
0.0
 11
4.599730896781153
 21
-12.77159925848133
 31
0.0
  0
LINE
  5
44
330
22
100
AcDbEntity
  8
0
100
AcDbLine
 10
31.59973089678115
 20
-13.77159925848147
 30
0.0
 11
23.6715276665056
 21
-13.77159925848144
 31
0.0
  0
LINE
  5
45
330
22
100
AcDbEntity
  8
0
100
AcDbLine
 10
23.56565672307022
 20
-9.51278021337896
 30
0.0
 11
24.4388546544846
 21
-12.77159925848144
 31
0.0
  0
LINE
  5
46
330
22
100
AcDbEntity
  8
0
100
AcDbLine
 10
22.59973089678116
 20
-9.771599258481472
 30
0.0
 11
18.59973089678112
 21
-9.771599258481472
 31
0.0
  0
LINE
  5
47
330
22
100
AcDbEntity
  8
0
100
AcDbLine
 10
18.59973089678115
 20
-13.77159925848144
 30
0.0
 11
17.59973089678115
 21
-13.77159925848144
 31
0.0
  0
LINE
  5
48
330
22
100
AcDbEntity
  8
0
100
AcDbLine
 10
18.59973089678115
 20
-9.771599258481472
 30
0.0
 11
18.59973089678115
 21
-13.77159925848144
 31
0.0
  0
LINE
  5
49
330
22
100
AcDbEntity
  8
0
100
AcDbLine
 10
22.59973089678116
 20
-9.771599258481472
 30
0.0
 11
23.67152766650562
 21
-13.77159925848147
 31
0.0
  0
ARC
  5
4A
330
22
100
AcDbEntity
  8
0
100
AcDbCircle
 10
22.59973089678116
 20
-7.271599258481472
 30
0.0
 40
2.5
100
AcDbArc
 50
270.0
 51
270.0000000000007
  0
LINE
  5
4B
330
22
100
AcDbEntity
  8
0
100
AcDbLine
 10
28.77130377203494
 20
-12.77159925848147
 30
0.0
 11
24.43885465448463
 21
-12.77159925848144
 31
0.0
  0
LINE
  5
4C
330
22
100
AcDbEntity
  8
0
100
AcDbLine
 10
3.599730896781125
 20
-4.771599258481472
 30
0.0
 11
2.599730896781125
 21
-4.771599258481472
 31
0.0
  0
LINE
  5
4D
330
22
100
AcDbEntity
  8
0
100
AcDbLine
 10
22.59973089678116
 20
-8.771599258481472
 30
0.0
 11
18.59973089678115
 21
-8.771599258481472
 31
0.0
  0
LINE
  5
4E
330
22
100
AcDbEntity
  8
0
100
AcDbLine
 10
22.59973089678116
 20
-5.771599258481472
 30
0.0
 11
18.59973089678115
 21
-5.771599258481472
 31
0.0
  0
LINE
  5
4F
330
22
100
AcDbEntity
  8
0
100
AcDbLine
 10
22.59973089678116
 20
-4.771599258481472
 30
0.0
 11
17.59973089678115
 21
-4.771599258481472
 31
0.0
  0
LINE
  5
50
330
22
100
AcDbEntity
  8
0
100
AcDbLine
 10
18.59973089678115
 20
-5.771599258481472
 30
0.0
 11
18.59973089678115
 21
-8.771599258481472
 31
0.0
  0
ARC
  5
51
330
22
100
AcDbEntity
  8
0
100
AcDbCircle
 10
22.59973089678116
 20
-7.271599258481472
 30
0.0
 40
1.5
100
AcDbArc
 50
270.0
 51
90.0
  0
ENDBLK
  5
52
330
22
100
AcDbEntity
  8
0
100
AcDbBlockEnd
  0
BLOCK
  5
1AFE
330
1AF4
100
AcDbEntity
  8
0
100
AcDbBlockBegin
  2
*D1
 70
     1
 10
0.0
 20
0.0
 30
0.0
  3
*D1
  1

  0
LINE
  5
1B51
330
1AF4
100
AcDbEntity
  8
BEM
 62
     0
370
    -2
100
AcDbLine
 10
120.36130131942
 20
238.3032206520997
 30
0.0
 11
120.36130131942
 21
209.3570097996285
 31
0.0
  0
LINE
  5
1B52
330
1AF4
100
AcDbEntity
  8
BEM
 62
     0
370
    -2
100
AcDbLine
 10
311.3613013194199
 20
238.3032206520997
 30
0.0
 11
311.3613013194199
 21
209.3570097996285
 31
0.0
  0
LINE
  5
1B53
330
1AF4
100
AcDbEntity
  8
BEM
 62
     0
370
    -2
100
AcDbLine
 10
127.36130131942
 20
211.3570097996285
 30
0.0
 11
304.3613013194199
 21
211.3570097996285
 31
0.0
  0
SOLID
  5
1B54
330
1AF4
100
AcDbEntity
  8
BEM
 62
     0
100
AcDbTrace
 10
127.36130131942
 20
212.5236764662951
 30
0.0
 11
127.36130131942
 21
210.1903431329618
 31
0.0
 12
120.36130131942
 22
211.3570097996285
 32
0.0
 13
120.36130131942
 23
211.3570097996285
 33
0.0
  0
SOLID
  5
1B55
330
1AF4
100
AcDbEntity
  8
BEM
 62
     0
100
AcDbTrace
 10
304.3613013194199
 20
212.5236764662951
 30
0.0
 11
304.3613013194199
 21
210.1903431329618
 31
0.0
 12
311.3613013194199
 22
211.3570097996285
 32
0.0
 13
311.3613013194199
 23
211.3570097996285
 33
0.0
  0
MTEXT
  5
1B56
330
1AF4
100
AcDbEntity
  8
BEM
 62
     1
100
AcDbMText
 10
215.86130131942
 20
217.8570097996285
 30
0.0
 40
7.0
 41
0.0
 71
     5
 72
     1
  1
\A1;191
 73
     1
 44
1.0
  0
POINT
  5
1B57
330
1AF4
100
AcDbEntity
  8
Defpoints
 62
     0
100
AcDbPoint
 10
120.36130131942
 20
240.3032206520997
 30
0.0
  0
POINT
  5
1B58
330
1AF4
100
AcDbEntity
  8
Defpoints
 62
     0
100
AcDbPoint
 10
311.3613013194199
 20
240.3032206520997
 30
0.0
  0
POINT
  5
1B59
330
1AF4
100
AcDbEntity
  8
Defpoints
 62
     0
100
AcDbPoint
 10
311.3613013194199
 20
211.3570097996285
 30
0.0
  0
ENDBLK
  5
1AFF
330
1AF4
100
AcDbEntity
  8
0
100
AcDbBlockEnd
  0
BLOCK
  5
1B0B
330
1B01
100
AcDbEntity
  8
0
100
AcDbBlockBegin
  2
*D2
 70
     1
 10
0.0
 20
0.0
 30
0.0
  3
*D2
  1

  0
LINE
  5
1B48
330
1B01
100
AcDbEntity
  8
BEM
 62
     0
370
    -2
100
AcDbLine
 10
109.3613013194199
 20
249.8032206520997
 30
0.0
 11
109.3613013194199
 21
193.656241396136
 31
0.0
  0
LINE
  5
1B49
330
1B01
100
AcDbEntity
  8
BEM
 62
     0
370
    -2
100
AcDbLine
 10
322.3613013194199
 20
249.8032206520997
 30
0.0
 11
322.3613013194199
 21
193.656241396136
 31
0.0
  0
LINE
  5
1B4A
330
1B01
100
AcDbEntity
  8
BEM
 62
     0
370
    -2
100
AcDbLine
 10
116.3613013194199
 20
195.656241396136
 30
0.0
 11
315.3613013194199
 21
195.656241396136
 31
0.0
  0
SOLID
  5
1B4B
330
1B01
100
AcDbEntity
  8
BEM
 62
     0
100
AcDbTrace
 10
116.3613013194199
 20
196.8229080628026
 30
0.0
 11
116.3613013194199
 21
194.4895747294693
 31
0.0
 12
109.3613013194199
 22
195.656241396136
 32
0.0
 13
109.3613013194199
 23
195.656241396136
 33
0.0
  0
SOLID
  5
1B4C
330
1B01
100
AcDbEntity
  8
BEM
 62
     0
100
AcDbTrace
 10
315.3613013194199
 20
196.8229080628026
 30
0.0
 11
315.3613013194199
 21
194.4895747294693
 31
0.0
 12
322.3613013194199
 22
195.656241396136
 32
0.0
 13
322.3613013194199
 23
195.656241396136
 33
0.0
  0
MTEXT
  5
1B4D
330
1B01
100
AcDbEntity
  8
BEM
 62
     1
100
AcDbMText
 10
215.8613013194199
 20
202.156241396136
 30
0.0
 40
7.0
 41
0.0
 71
     5
 72
     1
  1
\A1;213
 73
     1
 44
1.0
  0
POINT
  5
1B4E
330
1B01
100
AcDbEntity
  8
Defpoints
 62
     0
100
AcDbPoint
 10
109.3613013194199
 20
251.8032206520997
 30
0.0
  0
POINT
  5
1B4F
330
1B01
100
AcDbEntity
  8
Defpoints
 62
     0
100
AcDbPoint
 10
322.3613013194199
 20
251.8032206520997
 30
0.0
  0
POINT
  5
1B50
330
1B01
100
AcDbEntity
  8
Defpoints
 62
     0
100
AcDbPoint
 10
322.3613013194199
 20
195.656241396136
 30
0.0
  0
ENDBLK
  5
1B0C
330
1B01
100
AcDbEntity
  8
0
100
AcDbBlockEnd
  0
BLOCK
  5
1B25
330
1B19
100
AcDbEntity
  8
0
100
AcDbBlockBegin
  2
*D3
 70
     1
 10
0.0
 20
0.0
 30
0.0
  3
*D3
  1

  0
LINE
  5
1B3D
330
1B19
100
AcDbEntity
  8
BEM
 62
     0
370
    -2
100
AcDbLine
 10
108.02130131942
 20
432.719923024173
 30
0.0
 11
99.06869293198907
 21
432.719923024173
 31
0.0
  0
LINE
  5
1B3E
330
1B19
100
AcDbEntity
  8
BEM
 62
     0
370
    -2
100
AcDbLine
 10
108.02130131942
 20
435.7199230241731
 30
0.0
 11
99.06869293198907
 21
435.7199230241731
 31
0.0
  0
LINE
  5
1B3F
330
1B19
100
AcDbEntity
  8
BEM
 62
     0
370
    -2
100
AcDbLine
 10
101.068692931989
 20
425.719923024173
 30
0.0
 11
101.068692931989
 21
418.719923024173
 31
0.0
  0
LINE
  5
1B40
330
1B19
100
AcDbEntity
  8
BEM
 62
     0
370
    -2
100
AcDbLine
 10
101.068692931989
 20
442.719923024173
 30
0.0
 11
101.068692931989
 21
459.4532563575064
 31
0.0
  0
LINE
  5
1B41
330
1B19
100
AcDbEntity
  8
BEM
 62
     0
370
    -2
100
AcDbLine
 10
101.068692931989
 20
432.719923024173
 30
0.0
 11
101.068692931989
 21
435.7199230241731
 31
0.0
  0
SOLID
  5
1B42
330
1B19
100
AcDbEntity
  8
BEM
 62
     0
100
AcDbTrace
 10
99.90202626532239
 20
425.719923024173
 30
0.0
 11
102.2353595986557
 21
425.719923024173
 31
0.0
 12
101.068692931989
 22
432.719923024173
 32
0.0
 13
101.068692931989
 23
432.719923024173
 33
0.0
  0
SOLID
  5
1B43
330
1B19
100
AcDbEntity
  8
BEM
 62
     0
100
AcDbTrace
 10
99.90202626532239
 20
442.719923024173
 30
0.0
 11
102.2353595986557
 21
442.719923024173
 31
0.0
 12
101.068692931989
 22
435.7199230241731
 32
0.0
 13
101.068692931989
 23
435.7199230241731
 33
0.0
  0
MTEXT
  5
1B44
330
1B19
100
AcDbEntity
  8
BEM
 62
     1
100
AcDbMText
 10
94.56869293198899
 20
454.5865896908397
 30
0.0
 40
7.0
 41
0.0
 71
     5
 72
     1
  1
\A1;3
 11
0.0000000000000001
 21
1.0
 31
0.0
 73
     1
 44
1.0
  0
POINT
  5
1B45
330
1B19
100
AcDbEntity
  8
Defpoints
 62
     0
100
AcDbPoint
 10
110.02130131942
 20
432.719923024173
 30
0.0
  0
POINT
  5
1B46
330
1B19
100
AcDbEntity
  8
Defpoints
 62
     0
100
AcDbPoint
 10
110.02130131942
 20
435.7199230241731
 30
0.0
  0
POINT
  5
1B47
330
1B19
100
AcDbEntity
  8
Defpoints
 62
     0
100
AcDbPoint
 10
101.068692931989
 20
435.7199230241731
 30
0.0
  0
ENDBLK
  5
1B26
330
1B19
100
AcDbEntity
  8
0
100
AcDbBlockEnd
  0
BLOCK
  5
1B32
330
1B28
100
AcDbEntity
  8
0
100
AcDbBlockBegin
  2
*D4
 70
     1
 10
0.0
 20
0.0
 30
0.0
  3
*D4
  1

  0
LINE
  5
1B34
330
1B28
100
AcDbEntity
  8
BEM
 62
     0
370
    -2
100
AcDbLine
 10
214.50730131942
 20
516.7199230241731
 30
0.0
 11
82.76110239211494
 21
516.7199230241731
 31
0.0
  0
LINE
  5
1B35
330
1B28
100
AcDbEntity
  8
BEM
 62
     0
370
    -2
100
AcDbLine
 10
206.71330131942
 20
337.7199230241731
 30
0.0
 11
82.76110239211488
 21
337.7199230241731
 31
0.0
  0
LINE
  5
1B36
330
1B28
100
AcDbEntity
  8
BEM
 62
     0
370
    -2
100
AcDbLine
 10
84.76110239211491
 20
509.7199230241731
 30
0.0
 11
84.76110239211488
 21
344.7199230241731
 31
0.0
  0
SOLID
  5
1B37
330
1B28
100
AcDbEntity
  8
BEM
 62
     0
100
AcDbTrace
 10
83.59443572544824
 20
509.7199230241731
 30
0.0
 11
85.92776905878158
 21
509.7199230241731
 31
0.0
 12
84.76110239211491
 22
516.7199230241731
 32
0.0
 13
84.76110239211491
 23
516.7199230241731
 33
0.0
  0
SOLID
  5
1B38
330
1B28
100
AcDbEntity
  8
BEM
 62
     0
100
AcDbTrace
 10
83.59443572544821
 20
344.7199230241731
 30
0.0
 11
85.92776905878155
 21
344.7199230241731
 31
0.0
 12
84.76110239211488
 22
337.7199230241731
 32
0.0
 13
84.76110239211488
 23
337.7199230241731
 33
0.0
  0
MTEXT
  5
1B39
330
1B28
100
AcDbEntity
  8
BEM
 62
     1
100
AcDbMText
 10
78.26110239211484
 20
427.2199230241731
 30
0.0
 40
7.0
 41
0.0
 71
     5
 72
     1
  1
\A1;179
 11
0.0000000000000001
 21
1.0
 31
0.0
 73
     1
 44
1.0
  0
POINT
  5
1B3A
330
1B28
100
AcDbEntity
  8
Defpoints
 62
     0
100
AcDbPoint
 10
216.50730131942
 20
516.7199230241731
 30
0.0
  0
POINT
  5
1B3B
330
1B28
100
AcDbEntity
  8
Defpoints
 62
     0
100
AcDbPoint
 10
208.71330131942
 20
337.7199230241731
 30
0.0
  0
POINT
  5
1B3C
330
1B28
100
AcDbEntity
  8
Defpoints
 62
     0
100
AcDbPoint
 10
84.76110239211488
 20
337.7199230241731
 30
0.0
  0
ENDBLK
  5
1B33
330
1B28
100
AcDbEntity
  8
0
100
AcDbBlockEnd
  0
BLOCK
  5
1B64
330
1B5C
100
AcDbEntity
  8
0
100
AcDbBlockBegin
  2
*D5
 70
     1
 10
0.0
 20
0.0
 30
0.0
  3
*D5
  1

  0
LINE
  5
1B6E
330
1B5C
100
AcDbEntity
  8
BEM
 62
     0
370
    -2
100
AcDbLine
 10
159.0049457461874
 20
379.2860481700551
 30
0.0
 11
158.9806827262404
 21
379.3101990276952
 31
0.0
  0
LINE
  5
1B6F
330
1B5C
100
AcDbEntity
  8
BEM
 62
     0
370
    -2
100
AcDbLine
 10
271.1741520435166
 20
491.9761948469605
 30
0.0
 11
271.1498890235696
 21
492.0003457046005
 31
0.0
  0
LINE
  5
1B70
330
1B5C
100
AcDbEntity
  8
BEM
 62
     0
370
    -2
100
AcDbLine
 10
165.336435791941
 20
382.8604670412171
 30
0.0
 11
267.6291082013448
 21
485.6282108659571
 31
0.0
  0
SOLID
  5
1B71
330
1B5C
100
AcDbEntity
  8
BEM
 62
     0
100
AcDbTrace
 10
164.5095688875939
 20
383.6835115318775
 30
0.0
 11
166.1633026962881
 21
382.0374225505566
 31
0.0
 12
160.3981688479783
 22
377.8992656151344
 32
0.0
 13
160.3981688479783
 23
377.8992656151344
 33
0.0
  0
SOLID
  5
1B72
330
1B5C
100
AcDbEntity
  8
BEM
 62
     0
100
AcDbTrace
 10
266.8022412969977
 20
486.4512553566175
 30
0.0
 11
268.4559751056919
 21
484.8051663752967
 31
0.0
 12
272.5673751453076
 22
490.5894122920398
 32
0.0
 13
272.5673751453076
 23
490.5894122920398
 33
0.0
  0
MTEXT
  5
1B73
330
1B5C
100
AcDbEntity
  8
BEM
 62
     1
100
AcDbMText
 10
232.4688271866168
 20
459.5183958691456
 30
0.0
 40
7.0
 41
0.0
 71
     5
 72
     1
  1
\A1;159
 11
0.7054667062803903
 21
0.7087430608689566
 31
0.0
 73
     1
 44
1.0
  0
POINT
  5
1B74
330
1B5C
100
AcDbEntity
  8
Defpoints
 62
     0
100
AcDbPoint
 10
160.4224318679253
 20
377.8751147574943
 30
0.0
  0
POINT
  5
1B75
330
1B5C
100
AcDbEntity
  8
Defpoints
 62
     0
100
AcDbPoint
 10
272.5916381652546
 20
490.5652614343997
 30
0.0
  0
POINT
  5
1B76
330
1B5C
100
AcDbEntity
  8
Defpoints
 62
     0
100
AcDbPoint
 10
272.5673751453076
 20
490.5894122920398
 30
0.0
  0
ENDBLK
  5
1B65
330
1B5C
100
AcDbEntity
  8
0
100
AcDbBlockEnd
  0
BLOCK
  5
1BBD
330
1BB3
100
AcDbEntity
  8
0
100
AcDbBlockBegin
  2
*D6
 70
     1
 10
0.0
 20
0.0
 30
0.0
  3
*D6
  1

  0
LINE
  5
1BB4
330
1BB3
100
AcDbEntity
  8
BEM
 62
     0
370
    -2
100
AcDbLine
 10
112.7203013194199
 20
271.8032206520996
 30
0.0
 11
88.24236346529506
 21
271.8032206520996
 31
0.0
  0
LINE
  5
1BB5
330
1BB3
100
AcDbEntity
  8
BEM
 62
     0
370
    -2
100
AcDbLine
 10
112.7203013194199
 20
231.8032206520996
 30
0.0
 11
88.24236346529506
 21
231.8032206520996
 31
0.0
  0
LINE
  5
1BB6
330
1BB3
100
AcDbEntity
  8
BEM
 62
     0
370
    -2
100
AcDbLine
 10
90.24236346529505
 20
264.8032206520996
 30
0.0
 11
90.24236346529505
 21
238.8032206520996
 31
0.0
  0
SOLID
  5
1BB7
330
1BB3
100
AcDbEntity
  8
BEM
 62
     0
100
AcDbTrace
 10
89.07569679862838
 20
264.8032206520996
 30
0.0
 11
91.40903013196172
 21
264.8032206520996
 31
0.0
 12
90.24236346529505
 22
271.8032206520996
 32
0.0
 13
90.24236346529505
 23
271.8032206520996
 33
0.0
  0
SOLID
  5
1BB8
330
1BB3
100
AcDbEntity
  8
BEM
 62
     0
100
AcDbTrace
 10
89.07569679862838
 20
238.8032206520996
 30
0.0
 11
91.40903013196172
 21
238.8032206520996
 31
0.0
 12
90.24236346529505
 22
231.8032206520996
 32
0.0
 13
90.24236346529505
 23
231.8032206520996
 33
0.0
  0
MTEXT
  5
1BB9
330
1BB3
100
AcDbEntity
  8
BEM
 62
     1
100
AcDbMText
 10
83.74236346529501
 20
251.8032206520997
 30
0.0
 40
7.0
 41
0.0
 71
     5
 72
     1
  1
\A1;40
 11
0.0000000000000001
 21
1.0
 31
0.0
 73
     1
 44
1.0
  0
POINT
  5
1BBA
330
1BB3
100
AcDbEntity
  8
Defpoints
 62
     0
100
AcDbPoint
 10
114.7203013194199
 20
271.8032206520996
 30
0.0
  0
POINT
  5
1BBB
330
1BB3
100
AcDbEntity
  8
Defpoints
 62
     0
100
AcDbPoint
 10
114.7203013194199
 20
231.8032206520996
 30
0.0
  0
POINT
  5
1BBC
330
1BB3
100
AcDbEntity
  8
Defpoints
 62
     0
100
AcDbPoint
 10
90.24236346529505
 20
231.8032206520996
 30
0.0
  0
ENDBLK
  5
1BBE
330
1BB3
100
AcDbEntity
  8
0
100
AcDbBlockEnd
  0
ENDSEC
  0
SECTION
  2
ENTITIES
  0
LINE
  5
57
330
1E
100
AcDbEntity
  8
STEMPEL
100
AcDbLine
 10
410.0
 20
110.0
 30
0.0
 11
39.99999999999997
 21
110.0
 31
0.0
  0
LINE
  5
58
330
1E
100
AcDbEntity
  8
STEMPEL
100
AcDbLine
 10
136.0000000000001
 20
109.9999999999999
 30
0.0
 11
136.0
 21
9.999999999999971
 31
0.0
  0
LINE
  5
59
330
1E
100
AcDbEntity
  8
STEMPEL
100
AcDbLine
 10
220.0
 20
110.0
 30
0.0
 11
220.0
 21
9.999999999999971
 31
0.0
  0
LINE
  5
5A
330
1E
100
AcDbEntity
  8
STEMPEL
100
AcDbLine
 10
332.0
 20
109.9999999999997
 30
0.0
 11
332.0
 21
40.0
 31
0.0
  0
LINE
  5
5B
330
1E
100
AcDbEntity
  8
STEMPEL
100
AcDbLine
 10
135.9999999999999
 20
29.99999999999997
 30
0.0
 11
39.99999999999997
 21
29.99999999999997
 31
0.0
  0
LINE
  5
5C
330
1E
100
AcDbEntity
  8
STEMPEL
100
AcDbLine
 10
410.0
 20
40.0
 30
0.0
 11
136.0000000000001
 21
39.99999999999997
 31
0.0
  0
LINE
  5
5D
330
1E
100
AcDbEntity
  8
STEMPEL
100
AcDbLine
 10
410.0
 20
80.0
 30
0.0
 11
136.0000000000001
 21
79.99999999999994
 31
0.0
  0
LINE
  5
5E
330
1E
100
AcDbEntity
  8
VOLL
100
AcDbLine
 10
54.00000000000009
 20
110.0
 30
0.0
 11
53.99999999999997
 21
9.999999999999971
 31
0.0
  0
LINE
  5
5F
330
1E
100
AcDbEntity
  8
VOLL
100
AcDbLine
 10
94.00000000000011
 20
109.9999999999999
 30
0.0
 11
94.0
 21
9.999999999999971
 31
0.0
  0
LINE
  5
60
330
1E
100
AcDbEntity
  8
VOLL
100
AcDbLine
 10
114.0000000000001
 20
109.9999999999999
 30
0.0
 11
114.0
 21
9.999999999999971
 31
0.0
  0
LINE
  5
61
330
1E
100
AcDbEntity
  8
VOLL
100
AcDbLine
 10
154.0000000000001
 20
79.99999999999994
 30
0.0
 11
154.0000000000001
 21
39.99999999999997
 31
0.0
  0
LINE
  5
62
330
1E
100
AcDbEntity
  8
VOLL
100
AcDbLine
 10
180.0000000000001
 20
109.9999999999998
 30
0.0
 11
180.0
 21
39.99999999999997
 31
0.0
  0
LINE
  5
63
330
1E
100
AcDbEntity
  8
HILF
100
AcDbLine
 10
40.00000000000008
 20
100.0
 30
0.0
 11
136.0000000000001
 21
100.0
 31
0.0
  0
LINE
  5
64
330
1E
100
AcDbEntity
  8
HILF
100
AcDbLine
 10
40.00000000000008
 20
90.00000000000005
 30
0.0
 11
136.0000000000001
 21
90.00000000000005
 31
0.0
  0
LINE
  5
65
330
1E
100
AcDbEntity
  8
HILF
100
AcDbLine
 10
40.00000000000008
 20
79.99999999999994
 30
0.0
 11
136.0000000000001
 21
79.99999999999994
 31
0.0
  0
LINE
  5
66
330
1E
100
AcDbEntity
  8
HILF
100
AcDbLine
 10
40.00000000000008
 20
69.99999999999994
 30
0.0
 11
136.0000000000001
 21
69.99999999999994
 31
0.0
  0
LINE
  5
67
330
1E
100
AcDbEntity
  8
HILF
100
AcDbLine
 10
40.00000000000008
 20
59.99999999999997
 30
0.0
 11
136.0000000000001
 21
59.99999999999997
 31
0.0
  0
LINE
  5
68
330
1E
100
AcDbEntity
  8
HILF
100
AcDbLine
 10
40.00000000000008
 20
49.99999999999997
 30
0.0
 11
136.0000000000001
 21
49.99999999999997
 31
0.0
  0
LINE
  5
69
330
1E
100
AcDbEntity
  8
HILF
100
AcDbLine
 10
40.00000000000008
 20
39.99999999999997
 30
0.0
 11
136.0000000000001
 21
39.99999999999997
 31
0.0
  0
LINE
  5
6A
330
1E
100
AcDbEntity
  8
HILF
100
AcDbLine
 10
136.0000000000001
 20
69.99999999999994
 30
0.0
 11
220.0
 21
69.99999999999994
 31
0.0
  0
LINE
  5
6B
330
1E
100
AcDbEntity
  8
HILF
100
AcDbLine
 10
136.0000000000001
 20
59.99999999999997
 30
0.0
 11
220.0
 21
59.99999999999997
 31
0.0
  0
LINE
  5
6C
330
1E
100
AcDbEntity
  8
HILF
100
AcDbLine
 10
136.0000000000001
 20
49.99999999999997
 30
0.0
 11
220.0
 21
49.99999999999997
 31
0.0
  0
LINE
  5
6D
330
1E
100
AcDbEntity
  8
HILF
100
AcDbLine
 10
224.7736801096948
 20
84.03758247564139
 30
0.0
 11
324.8353916556311
 21
84.03758247564139
 31
0.0
  0
LINE
  5
6E
330
1E
100
AcDbEntity
  8
HILF
100
AcDbLine
 10
224.7736801096948
 20
69.99999999999994
 30
0.0
 11
324.835391655631
 21
69.99999999999994
 31
0.0
  0
LINE
  5
6F
330
1E
100
AcDbEntity
  8
HILF
100
AcDbLine
 10
224.7736801096948
 20
59.99999999999997
 30
0.0
 11
324.835391655631
 21
59.99999999999997
 31
0.0
  0
LINE
  5
70
330
1E
100
AcDbEntity
  8
HILF
100
AcDbLine
 10
224.7736801096948
 20
49.99999999999997
 30
0.0
 11
324.835391655631
 21
49.99999999999997
 31
0.0
  0
LINE
  5
71
330
1E
100
AcDbEntity
  8
VOLL
100
AcDbLine
 10
332.0
 20
60.0
 30
0.0
 11
410.0
 21
60.0
 31
0.0
  0
LINE
  5
72
330
1E
100
AcDbEntity
  8
HILF
100
AcDbLine
 10
336.7238616296993
 20
83.77983636955827
 30
0.0
 11
404.8588839326728
 21
83.77983636955827
 31
0.0
  0
LINE
  5
73
330
1E
100
AcDbEntity
  8
HILF
100
AcDbLine
 10
223.4909699289885
 20
14.89398258028314
 30
0.0
 11
404.8588839326728
 21
14.89398258028314
 31
0.0
  0
TEXT
  5
74
330
1E
100
AcDbEntity
  8
TEXT
100
AcDbText
 10
63.86165979631819
 20
18.67381894984132
 30
0.0
 40
4.0
  1
Änderung
 41
0.8
  7
GREEKS
 72
     1
 11
74.60451693917534
 21
18.67381894984132
 31
0.0
100
AcDbText
  0
TEXT
  5
75
330
1E
100
AcDbEntity
  8
TEXT
100
AcDbText
 10
143.5163572150377
 20
102.4620895087088
 30
0.0
 40
5.0
  1
Maßstab
 41
0.8
  7
GREEKS
100
AcDbText
  0
TEXT
  5
76
330
1E
100
AcDbEntity
  8
TEXT
100
AcDbText
 10
184.2858954734051
 20
102.4184168434819
 30
0.0
 40
5.0
  1
Zul. Abw.
 41
0.8
  7
GREEKS
100
AcDbText
  0
TEXT
  5
77
330
1E
100
AcDbEntity
  8
TEXT
100
AcDbText
 10
224.877940380901
 20
102.5489328011779
 30
0.0
 40
5.0
  1
Benennung
 41
0.8
  7
GREEKS
100
AcDbText
  0
TEXT
  5
78
330
1E
100
AcDbEntity
  8
TEXT
100
AcDbText
 10
336.178754957634
 20
102.3132034537136
 30
0.0
 40
5.0
  1
Zeichnungs Nr.
 41
0.8
  7
GREEKS
100
AcDbText
  0
TEXT
  5
79
330
1E
100
AcDbEntity
  8
TEXT
100
AcDbText
 10
224.742238391136
 20
30.84560570193057
 30
0.0
 40
5.0
  1
Bauvorhaben
 41
0.8
  7
GREEKS
100
AcDbText
  0
TEXT
  5
7A
330
1E
100
AcDbEntity
  8
TEXT
100
AcDbText
 10
336.7238616296993
 20
73.1811823709997
 30
0.0
 40
5.0
  1
Ersatz für:
 41
0.8
  7
GREEKS
100
AcDbText
  0
TEXT
  5
7B
330
1E
100
AcDbEntity
  8
TEXT
100
AcDbText
 10
48.26641107045756
 20
13.65465846027192
 30
0.0
 40
4.0
  1
Index
 50
90.0
 41
0.8
  7
GREEKS
100
AcDbText
  0
TEXT
  5
7C
330
1E
100
AcDbEntity
  8
TEXT
100
AcDbText
 10
100.0934676075481
 20
18.6715626933981
 30
0.0
 40
4.0
  1
Tag
 41
0.8
  7
GREEKS
 72
     1
 11
103.8268009408814
 21
18.6715626933981
 31
0.0
100
AcDbText
  0
TEXT
  5
7D
330
1E
100
AcDbEntity
  8
TEXT
100
AcDbText
 10
119.0122744386592
 20
18.59324216966408
 30
0.0
 40
4.0
  1
Name
 41
0.8
  7
GREEKS
 72
     1
 11
125.3360839624688
 21
18.59324216966408
 31
0.0
100
AcDbText
  0
TEXT
  5
7E
330
1E
100
AcDbEntity
  8
TEXT
100
AcDbText
 10
162.3311673153651
 20
73.31880501229926
 30
0.0
 40
4.0
  1
Tag
 41
0.8
  7
GREEKS
100
AcDbText
  0
TEXT
  5
7F
330
1E
100
AcDbEntity
  8
TEXT
100
AcDbText
 10
192.4626584226295
 20
73.30961091915225
 30
0.0
 40
4.0
  1
Name
 41
0.8
  7
GREEKS
100
AcDbText
  0
TEXT
  5
80
330
1E
100
AcDbEntity
  8
TEXT
100
AcDbText
 10
137.5836127167615
 20
63.62990369617964
 30
0.0
 40
4.0
  1
Gez.
 41
0.8
  7
GREEKS
100
AcDbText
  0
TEXT
  5
81
330
1E
100
AcDbEntity
  8
TEXT
100
AcDbText
 10
137.5515086571672
 20
53.68926291428377
 30
0.0
 40
4.0
  1
Gepr.
 41
0.8
  7
GREEKS
100
AcDbText
  0
TEXT
  5
82
330
1E
100
AcDbEntity
  8
TEXT
100
AcDbText
 10
137.6006777387304
 20
43.52946389649807
 30
0.0
 40
4.0
  1
Norm.
 41
0.8
  7
GREEKS
100
AcDbText
  0
LINE
  5
83
330
1E
100
AcDbEntity
  8
STEMPEL
100
AcDbLine
 10
49.99999999999989
 20
10.0
 30
0.0
 11
410.0
 21
10.0
 31
0.0
  0
TEXT
  5
84
330
1E
100
AcDbEntity
  8
TEXT
100
AcDbText
 10
337.2400861497006
 20
52.07416177878602
 30
0.0
 40
5.0
  1
ersetzt durch:
 41
0.8
  7
GREEKS
100
AcDbText
  0
LINE
  5
85
330
1E
100
AcDbEntity
  8
STEMPEL
100
AcDbLine
 10
410.0
 20
10.0
 30
0.0
 11
39.99999999999989
 21
10.0
 31
0.0
  0
LINE
  5
86
330
1E
100
AcDbEntity
  8
STEMPEL
100
AcDbLine
 10
410.0
 20
10.0
 30
0.0
 11
410.0
 21
584.0
 31
0.0
  0
LINE
  5
87
330
1E
100
AcDbEntity
  8
STEMPEL
100
AcDbLine
 10
40.0
 20
10.0
 30
0.0
 11
39.99999999999989
 21
584.0
 31
0.0
  0
LINE
  5
88
330
1E
100
AcDbEntity
  8
STEMPEL
100
AcDbLine
 10
410.0
 20
584.0
 30
0.0
 11
39.99999999999989
 21
584.0
 31
0.0
  0
LINE
  5
89
330
1E
100
AcDbEntity
  8
HILF
100
AcDbLine
 10
0.0
 20
0.0
 30
0.0
 11
-0.0000000000001137
 21
594.0
 31
0.0
  0
LINE
  5
8A
330
1E
100
AcDbEntity
  8
HILF
100
AcDbLine
 10
419.9999999999999
 20
594.0000000000002
 30
0.0
 11
0.0
 21
594.0
 31
0.0
  0
LINE
  5
8B
330
1E
100
AcDbEntity
  8
HILF
100
AcDbLine
 10
420.0
 20
0.0
 30
0.0
 11
0.0
 21
0.0
 31
0.0
  0
LINE
  5
8C
330
1E
100
AcDbEntity
  8
HILF
100
AcDbLine
 10
31.08767135713856
 20
297.0
 30
0.0
 11
0.0000000000001137
 21
297.0
 31
0.0
  0
TEXT
  5
8D
330
1E
100
AcDbEntity
  8
TEXT
100
AcDbText
 10
138.622109822104
 20
73.14025471151666
 30
0.0
 40
4.0
  1
2012
 41
0.8
  7
GREEKS
100
AcDbText
  0
LINE
  5
8E
330
1E
100
AcDbEntity
  8
HILF
100
AcDbLine
 10
420.0
 20
-0.0000000000001137
 30
0.0
 11
419.9999999999999
 21
594.0
 31
0.0
  0
TEXT
  5
8F
330
1E
100
AcDbEntity
  8
VOLL
100
AcDbText
 10
78.07675471698113
 20
31.02594776470585
 30
0.0
 40
1.8
  1

  7
GREEKS
100
AcDbText
  0
TEXT
  5
90
330
1E
100
AcDbEntity
  8
TEXT
100
AcDbText
 10
41.85509950977674
 20
111.6719999999999
 30
0.0
 40
5.0
  1
Erstellt mit AUTOCAD 2004
 41
0.8
  7
GREEKS
100
AcDbText
  0
TEXT
  5
91
330
1E
100
AcDbEntity
  8
TEXT
100
AcDbText
 10
194.4216048581257
 20
63.0896391972351
 30
0.0
 40
4.0
  1
Koeh
 41
0.8
  7
GREEKS
 72
     1
 11
199.6787477152685
 21
63.0896391972351
 31
0.0
100
AcDbText
  0
TEXT
  5
92
330
1E
100
AcDbEntity
  8
TEXT
 62
     1
100
AcDbText
 10
346.3054909762015
 20
88.14901428913959
 30
0.0
 40
7.0
  1
00977150W
 41
0.8
  7
GREEKS
 72
     1
 11
369.7721576428681
 21
88.14901428913959
 31
0.0
100
AcDbText
  0
TEXT
  5
93
330
1E
100
AcDbEntity
  8
TEXT
 62
     1
100
AcDbText
 10
150.5006306481887
 20
88.14901428913959
 30
0.0
 40
7.0
  1
1:2
 41
0.8
  7
GREEKS
100
AcDbText
  0
TEXT
  5
94
330
1E
100
AcDbEntity
  8
TEXT
100
AcDbText
 10
160.7037590129979
 20
63.10765040825732
 30
0.0
 40
4.0
  1
29.10.
 41
0.8
  7
GREEKS
 72
     1
 11
167.4085209177598
 21
63.10765040825732
 31
0.0
100
AcDbText
  0
TEXT
  5
95
330
1E
100
AcDbEntity
  8
TEXT
 62
     1
100
AcDbText
 10
226.8935731057402
 20
87.41748789253779
 30
0.0
 40
7.0
  1
Rohrschelle DN150
 41
0.8
  7
GREEKS
100
AcDbText
  0
TEXT
  5
96
330
1E
100
AcDbEntity
  8
TEXT
100
AcDbText
 10
225.1296391125315
 20
71.50334417585288
 30
0.0
 40
5.0
  1
mit Anschlußgewinde M12
 41
0.8
  7
GREEKS
100
AcDbText
  0
TEXT
  5
98
330
1E
100
AcDbEntity
  8
TEXT
100
AcDbText
 10
225.1296391125315
 20
51.64011943042158
 30
0.0
 40
5.0
  1
EDV-Art.Nr. 00977.150X
 41
0.8
  7
GREEKS
100
AcDbText
  0
TEXT
  5
99
330
1E
100
AcDbEntity
  8
TEXT
100
AcDbText
 10
224.9837501577827
 20
42.62974153022632
 30
0.0
 40
4.0
  1
00977150W.DWG
 41
0.8
  7
GREEKS
100
AcDbText
  0
TEXT
  5
9A
330
1E
100
AcDbEntity
  8
TEXT
100
AcDbText
 10
182.626132208084
 20
90.76363841023022
 30
0.0
 40
4.0
  1
DIN EN1123-2
 41
0.8
  7
GREEKS
 72
     1
 11
199.6166083985602
 21
90.76363841023022
 31
0.0
100
AcDbText
  0
INSERT
  5
9B
330
1E
100
AcDbEntity
  8
STEMPEL
100
AcDbBlockReference
  2
LOGO
 10
140.9955485457794
 20
45.02105276448322
 30
0.0
 41
2.0
 42
2.0
 43
2.0
  0
TEXT
  5
118
330
1E
100
AcDbEntity
  8
BEM
100
AcDbText
 10
417.3022923857165
 20
10.16790107998849
 30
0.0
 40
4.0
  1
Diese Zeichnung ist urheberrechtlich geschützt und bleibt unser Eigentum. Sie darf weder ganz noch teilweise verfielfältigt und nicht an Dritte weitergegeben werden.
 50
90.0
 41
0.8
  7
GREEKS
100
AcDbText
  0
LINE
  5
7BC
330
1E
100
AcDbEntity
  8
TEXT
 62
     2
100
AcDbLine
 10
324.1567649565439
 20
484.148429246807
 30
0.0
 11
314.2707229603136
 21
441.8756064641041
 31
0.0
  0
LINE
  5
7BD
330
1E
100
AcDbEntity
  8
TEXT
 62
     2
100
AcDbLine
 10
324.1567649565439
 20
484.148429246807
 30
0.0
 11
399.1584467741743
 21
484.148429246807
 31
0.0
  0
TEXT
  5
7BE
330
1E
100
AcDbEntity
  8
TEXT
 62
     1
100
AcDbText
 10
326.2766579525892
 20
487.5283346637034
 30
0.0
 40
7.0
  1
Schraube M8x30
 41
0.8
  7
GREEKS
100
AcDbText
  0
TEXT
  5
7BF
330
1E
100
AcDbEntity
  8
TEXT
 62
     1
100
AcDbText
 10
227.0844699396217
 20
319.0816269288549
 30
0.0
 40
7.0
  1
M12
 41
0.8
  7
GREEKS
100
AcDbText
  0
LINE
  5
7C0
330
1E
100
AcDbEntity
  8
TEXT
 62
     2
100
AcDbLine
 10
224.9645769435762
 20
315.7017215119585
 30
0.0
 11
242.9284900137742
 21
315.7017215119585
 31
0.0
  0
LINE
  5
7C1
330
1E
100
AcDbEntity
  8
TEXT
 62
     2
100
AcDbLine
 10
224.9645769435762
 20
315.7017215119585
 30
0.0
 11
216.50730131942
 21
337.7199230241731
 31
0.0
  0
LINE
  5
1A23
330
1E
100
AcDbEntity
  8
HILF
100
AcDbLine
 10
308.6293013194199
 20
408.719923024173
 30
0.0
 11
308.6293013194199
 21
426.719923024173
 31
0.0
  0
LINE
  5
1A24
330
1E
100
AcDbEntity
  8
HILF
100
AcDbLine
 10
315.1293013194199
 20
408.719923024173
 30
0.0
 11
315.1293013194199
 21
426.719923024173
 31
0.0
  0
LINE
  5
1A25
330
1E
100
AcDbEntity
  8
STEMPEL
100
AcDbLine
 10
315.8793013194199
 20
409.469923024173
 30
0.0
 11
307.87930131942
 21
409.469923024173
 31
0.0
  0
LINE
  5
1A26
330
1E
100
AcDbEntity
  8
HILF
100
AcDbLine
 10
308.6293013194199
 20
434.469923024173
 30
0.0
 11
308.6293013194199
 21
435.7199230241731
 31
0.0
  0
LINE
  5
1A27
330
1E
100
AcDbEntity
  8
HILF
100
AcDbLine
 10
308.6293013194199
 20
432.719923024173
 30
0.0
 11
308.6293013194199
 21
433.969923024173
 31
0.0
  0
LINE
  5
1A28
330
1E
100
AcDbEntity
  8
HILF
100
AcDbLine
 10
315.1293013194199
 20
434.469923024173
 30
0.0
 11
315.1293013194199
 21
435.7199230241731
 31
0.0
  0
LINE
  5
1A29
330
1E
100
AcDbEntity
  8
HILF
100
AcDbLine
 10
315.1293013194199
 20
432.719923024173
 30
0.0
 11
315.1293013194199
 21
433.969923024173
 31
0.0
  0
LINE
  5
1A2A
330
1E
100
AcDbEntity
  8
STEMPEL
100
AcDbLine
 10
307.87930131942
 20
434.469923024173
 30
0.0
 11
307.87930131942
 21
435.7199230241731
 31
0.0
  0
LINE
  5
1A2B
330
1E
100
AcDbEntity
  8
STEMPEL
100
AcDbLine
 10
307.87930131942
 20
432.719923024173
 30
0.0
 11
307.87930131942
 21
433.969923024173
 31
0.0
  0
LINE
  5
1A2C
330
1E
100
AcDbEntity
  8
STEMPEL
100
AcDbLine
 10
315.8793013194199
 20
433.969923024173
 30
0.0
 11
315.8793013194199
 21
432.719923024173
 31
0.0
  0
LINE
  5
1A2D
330
1E
100
AcDbEntity
  8
STEMPEL
100
AcDbLine
 10
315.8793013194199
 20
435.7199230241731
 30
0.0
 11
315.8793013194199
 21
434.469923024173
 31
0.0
  0
ARC
  5
1A2E
330
1E
100
AcDbEntity
  8
STEMPEL
100
AcDbCircle
 10
311.87930131942
 20
432.861923024173
 30
0.0
 40
11.158
100
AcDbArc
 50
95.91552076700024
 51
109.652859632001
  0
ARC
  5
1A2F
330
1E
100
AcDbEntity
  8
STEMPEL
100
AcDbCircle
 10
311.87930131942
 20
432.861923024173
 30
0.0
 40
11.158
100
AcDbArc
 50
70.34714036799893
 51
84.08447923299975
  0
LINE
  5
1A30
330
1E
100
AcDbEntity
  8
STEMPEL
100
AcDbLine
 10
310.72930131942
 20
444.019923024173
 30
0.0
 11
306.25030131942
 21
444.019923024173
 31
0.0
  0
LINE
  5
1A31
330
1E
100
AcDbEntity
  8
STEMPEL
100
AcDbLine
 10
310.72930131942
 20
441.519923024173
 30
0.0
 11
310.72930131942
 21
444.019923024173
 31
0.0
  0
LINE
  5
1A32
330
1E
100
AcDbEntity
  8
STEMPEL
100
AcDbLine
 10
313.02930131942
 20
441.519923024173
 30
0.0
 11
310.72930131942
 21
441.519923024173
 31
0.0
  0
LINE
  5
1A33
330
1E
100
AcDbEntity
  8
STEMPEL
100
AcDbLine
 10
313.02930131942
 20
444.019923024173
 30
0.0
 11
313.02930131942
 21
441.519923024173
 31
0.0
  0
LINE
  5
1A34
330
1E
100
AcDbEntity
  8
STEMPEL
100
AcDbLine
 10
317.50930131942
 20
444.019923024173
 30
0.0
 11
313.02930131942
 21
444.019923024173
 31
0.0
  0
LINE
  5
1A35
330
1E
100
AcDbEntity
  8
STEMPEL
100
AcDbLine
 10
307.87930131942
 20
409.469923024173
 30
0.0
 11
307.87930131942
 21
426.719923024173
 31
0.0
  0
LINE
  5
1A36
330
1E
100
AcDbEntity
  8
STEMPEL
100
AcDbLine
 10
308.6293013194199
 20
408.719923024173
 30
0.0
 11
307.87930131942
 21
409.469923024173
 31
0.0
  0
LINE
  5
1A37
330
1E
100
AcDbEntity
  8
STEMPEL
100
AcDbLine
 10
315.1293013194199
 20
408.719923024173
 30
0.0
 11
308.6293013194199
 21
408.719923024173
 31
0.0
  0
LINE
  5
1A38
330
1E
100
AcDbEntity
  8
STEMPEL
100
AcDbLine
 10
315.8793013194199
 20
409.469923024173
 30
0.0
 11
315.1293013194199
 21
408.719923024173
 31
0.0
  0
LINE
  5
1A39
330
1E
100
AcDbEntity
  8
STEMPEL
100
AcDbLine
 10
315.8793013194199
 20
426.719923024173
 30
0.0
 11
315.8793013194199
 21
409.469923024173
 31
0.0
  0
LINE
  5
1A3A
330
1E
100
AcDbEntity
  8
STEMPEL
100
AcDbLine
 10
315.63230131942
 20
443.3699230241731
 30
0.0
 11
315.63230131942
 21
438.719923024173
 31
0.0
  0
ARC
  5
1A3B
330
1E
100
AcDbEntity
  8
STEMPEL
100
AcDbCircle
 10
317.50930131942
 20
440.9869230241731
 30
0.0
 40
3.032999999999999
100
AcDbArc
 50
90.0
 51
128.2132107020002
  0
ARC
  5
1A3C
330
1E
100
AcDbEntity
  8
STEMPEL
100
AcDbCircle
 10
317.50930131942
 20
440.9869230241731
 30
0.0
 40
3.032999999999999
100
AcDbArc
 50
51.78678929799973
 51
90.0
  0
LINE
  5
1A3D
330
1E
100
AcDbEntity
  8
STEMPEL
100
AcDbLine
 10
319.38530131942
 20
438.719923024173
 30
0.0
 11
319.38530131942
 21
443.3699230241731
 31
0.0
  0
LINE
  5
1A3E
330
1E
100
AcDbEntity
  8
STEMPEL
100
AcDbLine
 10
316.27930131942
 20
438.719923024173
 30
0.0
 11
319.38530131942
 21
438.719923024173
 31
0.0
  0
LINE
  5
1A3F
330
1E
100
AcDbEntity
  8
STEMPEL
100
AcDbLine
 10
307.47930131942
 20
438.719923024173
 30
0.0
 11
316.27930131942
 21
438.719923024173
 31
0.0
  0
LINE
  5
1A40
330
1E
100
AcDbEntity
  8
STEMPEL
100
AcDbLine
 10
304.37430131942
 20
438.719923024173
 30
0.0
 11
307.47930131942
 21
438.719923024173
 31
0.0
  0
LINE
  5
1A41
330
1E
100
AcDbEntity
  8
STEMPEL
100
AcDbLine
 10
304.37430131942
 20
443.3699230241731
 30
0.0
 11
304.37430131942
 21
438.719923024173
 31
0.0
  0
ARC
  5
1A42
330
1E
100
AcDbEntity
  8
STEMPEL
100
AcDbCircle
 10
306.25030131942
 20
440.9869230241731
 30
0.0
 40
3.032999999999999
100
AcDbArc
 50
90.0
 51
128.2132107020002
  0
ARC
  5
1A43
330
1E
100
AcDbEntity
  8
STEMPEL
100
AcDbCircle
 10
306.25030131942
 20
440.9869230241731
 30
0.0
 40
3.032999999999999
100
AcDbArc
 50
51.78678929799973
 51
90.0
  0
LINE
  5
1A44
330
1E
100
AcDbEntity
  8
STEMPEL
100
AcDbLine
 10
308.12730131942
 20
438.719923024173
 30
0.0
 11
308.12730131942
 21
443.3699230241731
 31
0.0
  0
LINE
  5
1A45
330
1E
100
AcDbEntity
  8
HILF
100
AcDbLine
 10
117.77130131942
 20
408.719923024173
 30
0.0
 11
117.77130131942
 21
426.719923024173
 31
0.0
  0
LINE
  5
1A46
330
1E
100
AcDbEntity
  8
HILF
100
AcDbLine
 10
124.27130131942
 20
408.719923024173
 30
0.0
 11
124.27130131942
 21
426.719923024173
 31
0.0
  0
LINE
  5
1A47
330
1E
100
AcDbEntity
  8
STEMPEL
100
AcDbLine
 10
125.02130131942
 20
409.469923024173
 30
0.0
 11
117.02130131942
 21
409.469923024173
 31
0.0
  0
LINE
  5
1A48
330
1E
100
AcDbEntity
  8
HILF
100
AcDbLine
 10
117.77130131942
 20
434.469923024173
 30
0.0
 11
117.77130131942
 21
435.7199230241731
 31
0.0
  0
LINE
  5
1A49
330
1E
100
AcDbEntity
  8
HILF
100
AcDbLine
 10
117.77130131942
 20
432.719923024173
 30
0.0
 11
117.77130131942
 21
433.969923024173
 31
0.0
  0
LINE
  5
1A4A
330
1E
100
AcDbEntity
  8
HILF
100
AcDbLine
 10
124.27130131942
 20
434.469923024173
 30
0.0
 11
124.27130131942
 21
435.7199230241731
 31
0.0
  0
LINE
  5
1A4B
330
1E
100
AcDbEntity
  8
HILF
100
AcDbLine
 10
124.27130131942
 20
432.719923024173
 30
0.0
 11
124.27130131942
 21
433.969923024173
 31
0.0
  0
LINE
  5
1A4C
330
1E
100
AcDbEntity
  8
STEMPEL
100
AcDbLine
 10
117.02130131942
 20
434.469923024173
 30
0.0
 11
117.02130131942
 21
435.7199230241731
 31
0.0
  0
LINE
  5
1A4D
330
1E
100
AcDbEntity
  8
STEMPEL
100
AcDbLine
 10
117.02130131942
 20
432.719923024173
 30
0.0
 11
117.02130131942
 21
433.969923024173
 31
0.0
  0
LINE
  5
1A4E
330
1E
100
AcDbEntity
  8
STEMPEL
100
AcDbLine
 10
125.02130131942
 20
433.969923024173
 30
0.0
 11
125.02130131942
 21
432.719923024173
 31
0.0
  0
LINE
  5
1A4F
330
1E
100
AcDbEntity
  8
STEMPEL
100
AcDbLine
 10
125.02130131942
 20
435.7199230241731
 30
0.0
 11
125.02130131942
 21
434.469923024173
 31
0.0
  0
ARC
  5
1A50
330
1E
100
AcDbEntity
  8
STEMPEL
100
AcDbCircle
 10
121.02130131942
 20
432.861923024173
 30
0.0
 40
11.158
100
AcDbArc
 50
95.91552076700024
 51
109.652859632001
  0
ARC
  5
1A51
330
1E
100
AcDbEntity
  8
STEMPEL
100
AcDbCircle
 10
121.02130131942
 20
432.861923024173
 30
0.0
 40
11.158
100
AcDbArc
 50
70.34714036799893
 51
84.08447923299975
  0
LINE
  5
1A52
330
1E
100
AcDbEntity
  8
STEMPEL
100
AcDbLine
 10
119.8713013194199
 20
444.019923024173
 30
0.0
 11
115.3923013194199
 21
444.019923024173
 31
0.0
  0
LINE
  5
1A53
330
1E
100
AcDbEntity
  8
STEMPEL
100
AcDbLine
 10
119.8713013194199
 20
441.519923024173
 30
0.0
 11
119.8713013194199
 21
444.019923024173
 31
0.0
  0
LINE
  5
1A54
330
1E
100
AcDbEntity
  8
STEMPEL
100
AcDbLine
 10
122.17130131942
 20
441.519923024173
 30
0.0
 11
119.8713013194199
 21
441.519923024173
 31
0.0
  0
LINE
  5
1A55
330
1E
100
AcDbEntity
  8
STEMPEL
100
AcDbLine
 10
122.17130131942
 20
444.019923024173
 30
0.0
 11
122.17130131942
 21
441.519923024173
 31
0.0
  0
LINE
  5
1A56
330
1E
100
AcDbEntity
  8
STEMPEL
100
AcDbLine
 10
126.6503013194199
 20
444.019923024173
 30
0.0
 11
122.17130131942
 21
444.019923024173
 31
0.0
  0
LINE
  5
1A57
330
1E
100
AcDbEntity
  8
STEMPEL
100
AcDbLine
 10
117.02130131942
 20
409.469923024173
 30
0.0
 11
117.02130131942
 21
426.719923024173
 31
0.0
  0
LINE
  5
1A58
330
1E
100
AcDbEntity
  8
STEMPEL
100
AcDbLine
 10
117.77130131942
 20
408.719923024173
 30
0.0
 11
117.02130131942
 21
409.469923024173
 31
0.0
  0
LINE
  5
1A59
330
1E
100
AcDbEntity
  8
STEMPEL
100
AcDbLine
 10
124.27130131942
 20
408.719923024173
 30
0.0
 11
117.77130131942
 21
408.719923024173
 31
0.0
  0
LINE
  5
1A5A
330
1E
100
AcDbEntity
  8
STEMPEL
100
AcDbLine
 10
125.02130131942
 20
409.469923024173
 30
0.0
 11
124.27130131942
 21
408.719923024173
 31
0.0
  0
LINE
  5
1A5B
330
1E
100
AcDbEntity
  8
STEMPEL
100
AcDbLine
 10
125.02130131942
 20
426.719923024173
 30
0.0
 11
125.02130131942
 21
409.469923024173
 31
0.0
  0
LINE
  5
1A5C
330
1E
100
AcDbEntity
  8
STEMPEL
100
AcDbLine
 10
124.77430131942
 20
443.3699230241731
 30
0.0
 11
124.77430131942
 21
438.719923024173
 31
0.0
  0
ARC
  5
1A5D
330
1E
100
AcDbEntity
  8
STEMPEL
100
AcDbCircle
 10
126.6503013194199
 20
440.9869230241731
 30
0.0
 40
3.032999999999999
100
AcDbArc
 50
90.0
 51
128.2132107020002
  0
ARC
  5
1A5E
330
1E
100
AcDbEntity
  8
STEMPEL
100
AcDbCircle
 10
126.6503013194199
 20
440.9869230241731
 30
0.0
 40
3.032999999999999
100
AcDbArc
 50
51.78678929799973
 51
90.0
  0
LINE
  5
1A5F
330
1E
100
AcDbEntity
  8
STEMPEL
100
AcDbLine
 10
128.5273013194199
 20
438.719923024173
 30
0.0
 11
128.5273013194199
 21
443.3699230241731
 31
0.0
  0
LINE
  5
1A60
330
1E
100
AcDbEntity
  8
STEMPEL
100
AcDbLine
 10
125.4213013194199
 20
438.719923024173
 30
0.0
 11
128.5273013194199
 21
438.719923024173
 31
0.0
  0
LINE
  5
1A61
330
1E
100
AcDbEntity
  8
STEMPEL
100
AcDbLine
 10
116.6213013194199
 20
438.719923024173
 30
0.0
 11
125.4213013194199
 21
438.719923024173
 31
0.0
  0
LINE
  5
1A62
330
1E
100
AcDbEntity
  8
STEMPEL
100
AcDbLine
 10
113.51630131942
 20
438.719923024173
 30
0.0
 11
116.6213013194199
 21
438.719923024173
 31
0.0
  0
LINE
  5
1A63
330
1E
100
AcDbEntity
  8
STEMPEL
100
AcDbLine
 10
113.51630131942
 20
443.3699230241731
 30
0.0
 11
113.51630131942
 21
438.719923024173
 31
0.0
  0
ARC
  5
1A64
330
1E
100
AcDbEntity
  8
STEMPEL
100
AcDbCircle
 10
115.3923013194199
 20
440.9869230241731
 30
0.0
 40
3.032999999999999
100
AcDbArc
 50
90.0
 51
128.2132107020002
  0
ARC
  5
1A65
330
1E
100
AcDbEntity
  8
STEMPEL
100
AcDbCircle
 10
115.3923013194199
 20
440.9869230241731
 30
0.0
 40
3.032999999999999
100
AcDbArc
 50
51.78678929799973
 51
90.0
  0
LINE
  5
1A66
330
1E
100
AcDbEntity
  8
STEMPEL
100
AcDbLine
 10
117.2683013194199
 20
438.719923024173
 30
0.0
 11
117.2683013194199
 21
443.3699230241731
 31
0.0
  0
LINE
  5
1A67
330
1E
100
AcDbEntity
  8
STEMPEL
100
AcDbLine
 10
310.21130131942
 20
245.3032206520997
 30
0.0
 11
310.21130131942
 21
258.3032206520996
 31
0.0
  0
LINE
  5
1A68
330
1E
100
AcDbEntity
  8
STEMPEL
100
AcDbLine
 10
312.51130131942
 20
245.3032206520997
 30
0.0
 11
312.51130131942
 21
258.3032206520996
 31
0.0
  0
ARC
  5
1A69
330
1E
100
AcDbEntity
  8
STEMPEL
100
AcDbCircle
 10
311.3613013194199
 20
251.8032206520997
 30
0.0
 40
6.5
100
AcDbArc
 50
280.1905887679999
 51
79.80941123200008
  0
ARC
  5
1A6A
330
1E
100
AcDbEntity
  8
STEMPEL
100
AcDbCircle
 10
311.3613013194199
 20
251.8032206520997
 30
0.0
 40
6.5
100
AcDbArc
 50
100.1905887679999
 51
259.8094112320001
  0
LINE
  5
1A6B
330
1E
100
AcDbEntity
  8
STEMPEL
100
AcDbLine
 10
307.60830131942
 20
245.3032206520997
 30
0.0
 11
303.8553013194201
 21
251.8032206520997
 31
0.0
  0
LINE
  5
1A6C
330
1E
100
AcDbEntity
  8
STEMPEL
100
AcDbLine
 10
315.11430131942
 20
245.3032206520997
 30
0.0
 11
307.60830131942
 21
245.3032206520997
 31
0.0
  0
LINE
  5
1A6D
330
1E
100
AcDbEntity
  8
STEMPEL
100
AcDbLine
 10
318.86630131942
 20
251.8032206520997
 30
0.0
 11
315.11430131942
 21
245.3032206520997
 31
0.0
  0
LINE
  5
1A6E
330
1E
100
AcDbEntity
  8
STEMPEL
100
AcDbLine
 10
315.11430131942
 20
258.3032206520996
 30
0.0
 11
318.86630131942
 21
251.8032206520997
 31
0.0
  0
LINE
  5
1A6F
330
1E
100
AcDbEntity
  8
STEMPEL
100
AcDbLine
 10
307.60830131942
 20
258.3032206520996
 30
0.0
 11
315.11430131942
 21
258.3032206520996
 31
0.0
  0
LINE
  5
1A70
330
1E
100
AcDbEntity
  8
STEMPEL
100
AcDbLine
 10
303.8553013194201
 20
251.8032206520997
 30
0.0
 11
307.60830131942
 21
258.3032206520996
 31
0.0
  0
LINE
  5
1A71
330
1E
100
AcDbEntity
  8
STEMPEL
100
AcDbLine
 10
119.2113013194199
 20
245.3032206520997
 30
0.0
 11
119.2113013194199
 21
258.3032206520996
 31
0.0
  0
LINE
  5
1A72
330
1E
100
AcDbEntity
  8
STEMPEL
100
AcDbLine
 10
121.51130131942
 20
245.3032206520997
 30
0.0
 11
121.51130131942
 21
258.3032206520996
 31
0.0
  0
ARC
  5
1A73
330
1E
100
AcDbEntity
  8
STEMPEL
100
AcDbCircle
 10
120.3613013194199
 20
251.8032206520997
 30
0.0
 40
6.5
100
AcDbArc
 50
280.1905887679999
 51
79.80941123200008
  0
ARC
  5
1A74
330
1E
100
AcDbEntity
  8
STEMPEL
100
AcDbCircle
 10
120.3613013194199
 20
251.8032206520997
 30
0.0
 40
6.5
100
AcDbArc
 50
100.1905887679999
 51
259.8094112320001
  0
LINE
  5
1A75
330
1E
100
AcDbEntity
  8
STEMPEL
100
AcDbLine
 10
116.6083013194199
 20
245.3032206520997
 30
0.0
 11
112.8553013194199
 21
251.8032206520997
 31
0.0
  0
LINE
  5
1A76
330
1E
100
AcDbEntity
  8
STEMPEL
100
AcDbLine
 10
124.1143013194199
 20
245.3032206520997
 30
0.0
 11
116.6083013194199
 21
245.3032206520997
 31
0.0
  0
LINE
  5
1A77
330
1E
100
AcDbEntity
  8
STEMPEL
100
AcDbLine
 10
127.8663013194199
 20
251.8032206520997
 30
0.0
 11
124.1143013194199
 21
245.3032206520997
 31
0.0
  0
LINE
  5
1A78
330
1E
100
AcDbEntity
  8
STEMPEL
100
AcDbLine
 10
124.1143013194199
 20
258.3032206520996
 30
0.0
 11
127.8663013194199
 21
251.8032206520997
 31
0.0
  0
LINE
  5
1A79
330
1E
100
AcDbEntity
  8
STEMPEL
100
AcDbLine
 10
116.6083013194199
 20
258.3032206520996
 30
0.0
 11
124.1143013194199
 21
258.3032206520996
 31
0.0
  0
LINE
  5
1A7A
330
1E
100
AcDbEntity
  8
STEMPEL
100
AcDbLine
 10
112.8553013194199
 20
251.8032206520997
 30
0.0
 11
116.6083013194199
 21
258.3032206520996
 31
0.0
  0
LINE
  5
1A7B
330
1E
100
AcDbEntity
  8
STEMPEL
100
AcDbLine
 10
113.77130131942
 20
434.469923024173
 30
0.0
 11
113.77130131942
 21
433.969923024173
 31
0.0
  0
LINE
  5
1A7C
330
1E
100
AcDbEntity
  8
STEMPEL
100
AcDbLine
 10
128.27130131942
 20
434.469923024173
 30
0.0
 11
113.77130131942
 21
434.469923024173
 31
0.0
  0
LINE
  5
1A7D
330
1E
100
AcDbEntity
  8
STEMPEL
100
AcDbLine
 10
128.27130131942
 20
433.969923024173
 30
0.0
 11
128.27130131942
 21
434.469923024173
 31
0.0
  0
LINE
  5
1A7E
330
1E
100
AcDbEntity
  8
STEMPEL
100
AcDbLine
 10
113.77130131942
 20
433.969923024173
 30
0.0
 11
128.27130131942
 21
433.969923024173
 31
0.0
  0
LINE
  5
1A7F
330
1E
100
AcDbEntity
  8
STEMPEL
100
AcDbLine
 10
304.6293013194199
 20
434.469923024173
 30
0.0
 11
304.6293013194199
 21
433.969923024173
 31
0.0
  0
LINE
  5
1A80
330
1E
100
AcDbEntity
  8
STEMPEL
100
AcDbLine
 10
319.1293013194199
 20
434.469923024173
 30
0.0
 11
304.6293013194199
 21
434.469923024173
 31
0.0
  0
LINE
  5
1A81
330
1E
100
AcDbEntity
  8
STEMPEL
100
AcDbLine
 10
319.1293013194199
 20
433.969923024173
 30
0.0
 11
319.1293013194199
 21
434.469923024173
 31
0.0
  0
LINE
  5
1A82
330
1E
100
AcDbEntity
  8
STEMPEL
100
AcDbLine
 10
304.6293013194199
 20
433.969923024173
 30
0.0
 11
319.1293013194199
 21
433.969923024173
 31
0.0
  0
ARC
  5
1A8F
330
1E
100
AcDbEntity
  8
STEMPEL
100
AcDbCircle
 10
208.71330131942
 20
341.919923024173
 30
0.0
 40
4.2
100
AcDbArc
 50
270.0
 51
308.2132107020003
  0
ARC
  5
1A90
330
1E
100
AcDbEntity
  8
STEMPEL
100
AcDbCircle
 10
208.71330131942
 20
341.919923024173
 30
0.0
 40
4.2
100
AcDbArc
 50
231.7867892979998
 51
270.0
  0
ARC
  5
1A91
330
1E
100
AcDbEntity
  8
STEMPEL
100
AcDbCircle
 10
216.50730131942
 20
353.1699230241731
 30
0.0
 40
15.45
100
AcDbArc
 50
250.3471403679989
 51
270.0
  0
LINE
  5
1A92
330
1E
100
AcDbEntity
  8
STEMPEL
100
AcDbLine
 10
224.30130131942
 20
337.7199230241731
 30
0.0
 11
208.71330131942
 21
337.7199230241731
 31
0.0
  0
LINE
  5
1A93
330
1E
100
AcDbEntity
  8
STEMPEL
100
AcDbLine
 10
206.1153013194199
 20
349.3199774570609
 30
0.0
 11
206.1153013194199
 21
338.6199230241731
 31
0.0
  0
LINE
  5
1A94
330
1E
100
AcDbEntity
  8
STEMPEL
100
AcDbLine
 10
211.31130131942
 20
349.3199774570609
 30
0.0
 11
211.31130131942
 21
338.6199230241731
 31
0.0
  0
LINE
  5
1A95
330
1E
100
AcDbEntity
  8
STEMPEL
100
AcDbLine
 10
221.70330131942
 20
349.3199774570609
 30
0.0
 11
221.70330131942
 21
338.6199230241731
 31
0.0
  0
LINE
  5
1A97
330
1E
100
AcDbEntity
  8
STEMPEL
100
AcDbLine
 10
226.8993013194199
 20
349.3199774570608
 30
0.0
 11
226.8993013194199
 21
338.6199230241731
 31
0.0
  0
ARC
  5
1A98
330
1E
100
AcDbEntity
  8
STEMPEL
100
AcDbCircle
 10
224.30130131942
 20
341.919923024173
 30
0.0
 40
4.2
100
AcDbArc
 50
270.0
 51
308.2132107020003
  0
ARC
  5
1A9A
330
1E
100
AcDbEntity
  8
STEMPEL
100
AcDbCircle
 10
216.50730131942
 20
353.1699230241731
 30
0.0
 40
15.45
100
AcDbArc
 50
270.0
 51
289.6528596320011
  0
ARC
  5
1A9B
330
1E
100
AcDbEntity
  8
STEMPEL
100
AcDbCircle
 10
224.30130131942
 20
341.919923024173
 30
0.0
 40
4.2
100
AcDbArc
 50
231.7867892979998
 51
270.0
  0
ARC
  5
1A9C
330
1E
100
AcDbEntity
  8
STEMPEL
100
AcDbCircle
 10
131.3363013194199
 20
426.719923024173
 30
0.0
 40
3.0
100
AcDbArc
 50
5.032413496000554
 51
90.0
  0
ARC
  5
1A9D
330
1E
100
AcDbEntity
  8
STEMPEL
100
AcDbCircle
 10
131.3363013194199
 20
426.719923024173
 30
0.0
 40
6.0
100
AcDbArc
 50
5.032413496000554
 51
90.0
  0
ARC
  5
1A9E
330
1E
100
AcDbEntity
  8
STEMPEL
100
AcDbCircle
 10
216.50730131942
 20
434.219923024173
 30
0.0
 40
82.5
100
AcDbArc
 50
185.0324134960005
 51
355.001635057816
  0
ARC
  5
1A9F
330
1E
100
AcDbEntity
  8
STEMPEL
100
AcDbCircle
 10
216.50730131942
 20
434.219923024173
 30
0.0
 40
79.5
100
AcDbArc
 50
185.0324134960005
 51
354.9675865039994
  0
ARC
  5
1AA0
330
1E
100
AcDbEntity
  8
STEMPEL
100
AcDbCircle
 10
301.67730131942
 20
426.719923024173
 30
0.0
 40
3.0
100
AcDbArc
 50
90.0
 51
174.9675865039994
  0
ARC
  5
1AA1
330
1E
100
AcDbEntity
  8
STEMPEL
100
AcDbCircle
 10
301.67730131942
 20
426.719923024173
 30
0.0
 40
6.0
100
AcDbArc
 50
90.0
 51
174.9675865039994
  0
ARC
  5
1AA3
330
1E
100
AcDbEntity
  8
STEMPEL
100
AcDbCircle
 10
305.3793013194199
 20
428.219923024173
 30
0.0
 40
1.5
100
AcDbArc
 50
0.0
 51
90.0
  0
LINE
  5
1AA4
330
1E
100
AcDbEntity
  8
STEMPEL
100
AcDbLine
 10
306.8793013194199
 20
428.219923024173
 30
0.0
 11
306.8793013194199
 21
426.719923024173
 31
0.0
  0
LINE
  5
1AA5
330
1E
100
AcDbEntity
  8
STEMPEL
100
AcDbLine
 10
306.8793013194199
 20
426.719923024173
 30
0.0
 11
316.8793013194199
 21
426.719923024173
 31
0.0
  0
LINE
  5
1AA6
330
1E
100
AcDbEntity
  8
STEMPEL
100
AcDbLine
 10
316.8793013194199
 20
426.719923024173
 30
0.0
 11
316.8793013194199
 21
428.219923024173
 31
0.0
  0
ARC
  5
1AA7
330
1E
100
AcDbEntity
  8
STEMPEL
100
AcDbCircle
 10
318.37930131942
 20
428.219923024173
 30
0.0
 40
1.5
100
AcDbArc
 50
90.0
 51
180.0
  0
LINE
  5
1AA8
330
1E
100
AcDbEntity
  8
STEMPEL
100
AcDbLine
 10
317.5373013194199
 20
432.719923024173
 30
0.0
 11
317.5373013194199
 21
429.719923024173
 31
0.0
  0
LINE
  5
1AA9
330
1E
100
AcDbEntity
  8
STEMPEL
100
AcDbLine
 10
116.02130131942
 20
428.219923024173
 30
0.0
 11
116.02130131942
 21
426.719923024173
 31
0.0
  0
LINE
  5
1AAA
330
1E
100
AcDbEntity
  8
STEMPEL
100
AcDbLine
 10
126.02130131942
 20
426.719923024173
 30
0.0
 11
126.02130131942
 21
428.219923024173
 31
0.0
  0
LINE
  5
1AAB
330
1E
100
AcDbEntity
  8
STEMPEL
100
AcDbLine
 10
116.02130131942
 20
426.719923024173
 30
0.0
 11
126.02130131942
 21
426.719923024173
 31
0.0
  0
ARC
  5
1AAC
330
1E
100
AcDbEntity
  8
STEMPEL
100
AcDbCircle
 10
114.52130131942
 20
428.219923024173
 30
0.0
 40
1.5
100
AcDbArc
 50
0.0
 51
90.0
  0
LINE
  5
1AAD
330
1E
100
AcDbEntity
  8
STEMPEL
100
AcDbLine
 10
115.36330131942
 20
432.719923024173
 30
0.0
 11
115.36330131942
 21
429.719923024173
 31
0.0
  0
ARC
  5
1AAE
330
1E
100
AcDbEntity
  8
STEMPEL
100
AcDbCircle
 10
127.52130131942
 20
428.219923024173
 30
0.0
 40
1.5
100
AcDbArc
 50
90.0
 51
180.0
  0
LINE
  5
1AAF
330
1E
100
AcDbEntity
  8
STEMPEL
100
AcDbLine
 10
322.8793013194199
 20
429.719923024173
 30
0.0
 11
301.67730131942
 21
429.719923024173
 31
0.0
  0
LINE
  5
1AB0
330
1E
100
AcDbEntity
  8
STEMPEL
100
AcDbLine
 10
322.8793013194199
 20
432.719923024173
 30
0.0
 11
322.8793013194199
 21
429.719923024173
 31
0.0
  0
LINE
  5
1AB1
330
1E
100
AcDbEntity
  8
STEMPEL
100
AcDbLine
 10
301.67730131942
 20
432.719923024173
 30
0.0
 11
322.8793013194199
 21
432.719923024173
 31
0.0
  0
LINE
  5
1AB2
330
1E
100
AcDbEntity
  8
STEMPEL
100
AcDbLine
 10
110.02130131942
 20
429.719923024173
 30
0.0
 11
131.3363013194199
 21
429.719923024173
 31
0.0
  0
LINE
  5
1AB3
330
1E
100
AcDbEntity
  8
STEMPEL
100
AcDbLine
 10
110.02130131942
 20
432.719923024173
 30
0.0
 11
110.02130131942
 21
429.719923024173
 31
0.0
  0
LINE
  5
1AB4
330
1E
100
AcDbEntity
  8
STEMPEL
100
AcDbLine
 10
131.3363013194199
 20
432.719923024173
 30
0.0
 11
110.02130131942
 21
432.719923024173
 31
0.0
  0
ARC
  5
1AB5
330
1E
100
AcDbEntity
  8
STEMPEL
100
AcDbCircle
 10
131.3363013194199
 20
441.719923024173
 30
0.0
 40
3.0
100
AcDbArc
 50
270.0
 51
354.9675865039994
  0
ARC
  5
1AB6
330
1E
100
AcDbEntity
  8
STEMPEL
100
AcDbCircle
 10
131.3363013194199
 20
441.719923024173
 30
0.0
 40
6.0
100
AcDbArc
 50
270.0
 51
354.9675865039994
  0
ARC
  5
1AB7
330
1E
100
AcDbEntity
  8
STEMPEL
100
AcDbCircle
 10
216.50730131942
 20
434.219923024173
 30
0.0
 40
79.5
100
AcDbArc
 50
5.032413496000554
 51
174.9675865039994
  0
ARC
  5
1AB8
330
1E
100
AcDbEntity
  8
STEMPEL
100
AcDbCircle
 10
216.50730131942
 20
434.219923024173
 30
0.0
 40
82.5
100
AcDbArc
 50
5.032413496000554
 51
174.9675865039994
  0
ARC
  5
1AB9
330
1E
100
AcDbEntity
  8
STEMPEL
100
AcDbCircle
 10
301.67730131942
 20
441.719923024173
 30
0.0
 40
3.0
100
AcDbArc
 50
185.0324134960005
 51
270.0
  0
ARC
  5
1ABA
330
1E
100
AcDbEntity
  8
STEMPEL
100
AcDbCircle
 10
301.67730131942
 20
441.719923024173
 30
0.0
 40
6.0
100
AcDbArc
 50
185.0324134960005
 51
270.0
  0
LINE
  5
1ABB
330
1E
100
AcDbEntity
  8
STEMPEL
100
AcDbLine
 10
322.8793013194199
 20
438.719923024173
 30
0.0
 11
301.67730131942
 21
438.719923024173
 31
0.0
  0
LINE
  5
1ABC
330
1E
100
AcDbEntity
  8
STEMPEL
100
AcDbLine
 10
115.36330131942
 20
435.7199230241731
 30
0.0
 11
115.36330131942
 21
438.719923024173
 31
0.0
  0
LINE
  5
1ABD
330
1E
100
AcDbEntity
  8
STEMPEL
100
AcDbLine
 10
322.8793013194199
 20
438.719923024173
 30
0.0
 11
322.8793013194199
 21
435.7199230241731
 31
0.0
  0
LINE
  5
1ABE
330
1E
100
AcDbEntity
  8
STEMPEL
100
AcDbLine
 10
317.5373013194199
 20
435.7199230241731
 30
0.0
 11
317.5373013194199
 21
438.719923024173
 31
0.0
  0
LINE
  5
1ABF
330
1E
100
AcDbEntity
  8
STEMPEL
100
AcDbLine
 10
322.8793013194199
 20
435.7199230241731
 30
0.0
 11
301.67730131942
 21
435.7199230241731
 31
0.0
  0
LINE
  5
1AC0
330
1E
100
AcDbEntity
  8
STEMPEL
100
AcDbLine
 10
110.02130131942
 20
438.719923024173
 30
0.0
 11
131.3363013194199
 21
438.719923024173
 31
0.0
  0
LINE
  5
1AC1
330
1E
100
AcDbEntity
  8
STEMPEL
100
AcDbLine
 10
110.02130131942
 20
435.7199230241731
 30
0.0
 11
110.02130131942
 21
438.719923024173
 31
0.0
  0
LINE
  5
1AC2
330
1E
100
AcDbEntity
  8
STEMPEL
100
AcDbLine
 10
131.3363013194199
 20
435.7199230241731
 30
0.0
 11
110.02130131942
 21
435.7199230241731
 31
0.0
  0
LINE
  5
1AC3
330
1E
100
AcDbEntity
  8
MITTEL
100
AcDbLine
 10
121.0213013194199
 20
449.0199230241729
 30
0.0
 11
121.0213013194201
 21
403.719923024173
 31
0.0
  0
LINE
  5
1AC4
330
1E
100
AcDbEntity
  8
MITTEL
100
AcDbLine
 10
311.87930131942
 20
449.0199230241731
 30
0.0
 11
311.87930131942
 21
403.719923024173
 31
0.0
  0
LINE
  5
1AC5
330
1E
100
AcDbEntity
  8
MITTEL
100
AcDbLine
 10
105.02130131942
 20
434.2199230241731
 30
0.0
 11
327.8793013194199
 21
434.219923024173
 31
0.0
  0
LINE
  5
1AC6
330
1E
100
AcDbEntity
  8
MITTEL
100
AcDbLine
 10
216.50730131942
 20
332.7199230241731
 30
0.0
 11
216.50730131942
 21
521.7199230241731
 31
0.0
  0
LINE
  5
1AC7
330
1E
100
AcDbEntity
  8
HILF
100
AcDbLine
 10
133.50730131942
 20
271.8032206520996
 30
0.0
 11
133.50730131942
 21
231.8032206520996
 31
0.0
  0
LINE
  5
1AC8
330
1E
100
AcDbEntity
  8
HILF
100
AcDbLine
 10
298.2153013194199
 20
271.8032206520996
 30
0.0
 11
298.2153013194199
 21
231.8032206520996
 31
0.0
  0
LINE
  5
1AC9
330
1E
100
AcDbEntity
  8
MITTEL
100
AcDbLine
 10
311.3613013194199
 20
240.3032206520997
 30
0.0
 11
311.3613013194199
 21
263.3032206520996
 31
0.0
  0
LINE
  5
1ACA
330
1E
100
AcDbEntity
  8
MITTEL
100
AcDbLine
 10
120.36130131942
 20
240.3032206520997
 30
0.0
 11
120.36130131942
 21
263.3032206520996
 31
0.0
  0
LINE
  5
1ACB
330
1E
100
AcDbEntity
  8
MITTEL
100
AcDbLine
 10
215.8613013194199
 20
276.8032206520997
 30
0.0
 11
215.8613013194198
 21
226.8032206520996
 31
0.0
  0
LINE
  5
1ACC
330
1E
100
AcDbEntity
  8
MITTEL
100
AcDbLine
 10
327.3613013194199
 20
251.8032206520997
 30
0.0
 11
104.3613013194199
 21
251.8032206520997
 31
0.0
  0
ARC
  5
1ACD
330
1E
100
AcDbEntity
  8
STEMPEL
100
AcDbCircle
 10
282.3613013194199
 20
251.8032206520997
 30
0.0
 40
40.0
100
AcDbArc
 50
329.9999999999995
 51
30.00000000000055
  0
ARC
  5
1ACE
330
1E
100
AcDbEntity
  8
STEMPEL
100
AcDbCircle
 10
149.3613013194199
 20
251.8032206520997
 30
0.0
 40
40.0
100
AcDbArc
 50
149.9999999999994
 51
210.0000000000005
  0
LINE
  5
1ACF
330
1E
100
AcDbEntity
  8
STEMPEL
100
AcDbLine
 10
317.00230131942
 20
271.8032206520996
 30
0.0
 11
114.7203013194199
 21
271.8032206520996
 31
0.0
  0
LINE
  5
1AD0
330
1E
100
AcDbEntity
  8
STEMPEL
100
AcDbLine
 10
114.7203013194199
 20
231.8032206520996
 30
0.0
 11
317.00230131942
 21
231.8032206520996
 31
0.0
  0
DIMENSION
  5
1AF3
330
1E
100
AcDbEntity
  8
BEM
100
AcDbDimension
  2
*D1
 10
311.3613013194199
 20
211.3570097996285
 30
0.0
 11
215.86130131942
 21
217.8570097996285
 31
0.0
 70
    32
 71
     5
 42
190.9999999999999
  3
Standard
100
AcDbAlignedDimension
 13
120.36130131942
 23
240.3032206520997
 33
0.0
 14
311.3613013194199
 24
240.3032206520997
 34
0.0
100
AcDbRotatedDimension
1001
ACAD
1000
DSTYLE
1002
{
1070
    40
1040
2.0
1070
    41
1040
3.5
1070
    42
1040
1.0
1070
    43
1040
7.0
1070
    44
1040
1.0
1070
    73
1070
     0
1070
    74
1070
     0
1070
    77
1070
     1
1070
    78
1070
     8
1070
    79
1070
     2
1070
   140
1040
3.5
1070
   141
1040
1.5
1070
   146
1040
0.5142857142857144
1070
   147
1040
1.5
1070
   172
1070
     1
1070
   178
1070
     1
1070
   179
1070
     2
1070
   271
1070
     2
1070
   272
1070
     2
1070
   284
1070
     8
1070
   285
1070
     8
1070
   286
1070
     8
1002
}
  0
DIMENSION
  5
1B00
330
1E
100
AcDbEntity
  8
BEM
100
AcDbDimension
  2
*D2
 10
322.3613013194199
 20
195.656241396136
 30
0.0
 11
215.8613013194199
 21
202.156241396136
 31
0.0
 70
    32
 71
     5
 42
213.0
  3
Standard
100
AcDbAlignedDimension
 13
109.3613013194199
 23
251.8032206520997
 33
0.0
 14
322.3613013194199
 24
251.8032206520997
 34
0.0
100
AcDbRotatedDimension
1001
ACAD
1000
DSTYLE
1002
{
1070
    40
1040
2.0
1070
    41
1040
3.5
1070
    42
1040
1.0
1070
    43
1040
7.0
1070
    44
1040
1.0
1070
    73
1070
     0
1070
    74
1070
     0
1070
    77
1070
     1
1070
    78
1070
     8
1070
    79
1070
     2
1070
   140
1040
3.5
1070
   141
1040
1.5
1070
   146
1040
0.5142857142857144
1070
   147
1040
1.5
1070
   172
1070
     1
1070
   178
1070
     1
1070
   179
1070
     2
1070
   271
1070
     2
1070
   272
1070
     2
1070
   284
1070
     8
1070
   285
1070
     8
1070
   286
1070
     8
1002
}
  0
DIMENSION
  5
1B18
330
1E
100
AcDbEntity
  8
BEM
100
AcDbDimension
  2
*D3
 10
101.068692931989
 20
435.7199230241731
 30
0.0
 11
94.56869293198899
 21
454.5865896908397
 31
0.0
 70
    32
 71
     5
 42
3.0
  3
Standard
100
AcDbAlignedDimension
 13
110.02130131942
 23
432.719923024173
 33
0.0
 14
110.02130131942
 24
435.7199230241731
 34
0.0
 50
90.0
100
AcDbRotatedDimension
1001
ACAD
1000
DSTYLE
1002
{
1070
    40
1040
2.0
1070
    41
1040
3.5
1070
    42
1040
1.0
1070
    43
1040
7.0
1070
    44
1040
1.0
1070
    73
1070
     0
1070
    74
1070
     0
1070
    77
1070
     1
1070
    78
1070
     8
1070
    79
1070
     2
1070
   140
1040
3.5
1070
   141
1040
1.5
1070
   146
1040
0.5142857142857144
1070
   147
1040
1.5
1070
   172
1070
     1
1070
   178
1070
     1
1070
   179
1070
     2
1070
   271
1070
     2
1070
   272
1070
     2
1070
   284
1070
     8
1070
   285
1070
     8
1070
   286
1070
     8
1002
}
  0
DIMENSION
  5
1B27
330
1E
100
AcDbEntity
  8
BEM
100
AcDbDimension
  2
*D4
 10
84.76110239211488
 20
337.7199230241731
 30
0.0
 11
78.26110239211484
 21
427.2199230241731
 31
0.0
 70
    32
 71
     5
 42
179.0
  3
Standard
100
AcDbAlignedDimension
 13
216.50730131942
 23
516.7199230241731
 33
0.0
 14
208.71330131942
 24
337.7199230241731
 34
0.0
 50
90.0
100
AcDbRotatedDimension
1001
ACAD
1000
DSTYLE
1002
{
1070
    40
1040
2.0
1070
    41
1040
3.5
1070
    42
1040
1.0
1070
    43
1040
7.0
1070
    44
1040
1.0
1070
    73
1070
     0
1070
    74
1070
     0
1070
    77
1070
     1
1070
    78
1070
     8
1070
    79
1070
     2
1070
   140
1040
3.5
1070
   141
1040
1.5
1070
   146
1040
0.5142857142857144
1070
   147
1040
1.5
1070
   172
1070
     1
1070
   178
1070
     1
1070
   179
1070
     2
1070
   271
1070
     2
1070
   272
1070
     2
1070
   284
1070
     8
1070
   285
1070
     8
1070
   286
1070
     8
1002
}
  0
DIMENSION
  5
1B5B
330
1E
100
AcDbEntity
  8
BEM
100
AcDbDimension
  2
*D5
 10
272.5673751453076
 20
490.5894122920398
 30
0.0
 11
237.075657082265
 21
454.932862278323
 31
0.0
 70
   161
 71
     5
 42
158.9999999982241
  3
Standard
100
AcDbAlignedDimension
 13
160.4224318679253
 23
377.8751147574943
 33
0.0
 14
272.5916381652545
 24
490.5652614343996
 34
0.0
1001
ACAD
1000
DSTYLE
1002
{
1070
    40
1040
2.0
1070
    41
1040
3.5
1070
    42
1040
1.0
1070
    43
1040
7.0
1070
    44
1040
1.0
1070
    73
1070
     0
1070
    74
1070
     0
1070
    77
1070
     1
1070
    78
1070
     8
1070
    79
1070
     2
1070
   140
1040
3.5
1070
   141
1040
1.5
1070
   146
1040
0.5142857142857144
1070
   147
1040
1.5
1070
   172
1070
     1
1070
   178
1070
     1
1070
   179
1070
     2
1070
   271
1070
     2
1070
   272
1070
     2
1070
   284
1070
     8
1070
   285
1070
     8
1070
   286
1070
     8
1002
}
  0
ARC
  5
1B89
330
1E
100
AcDbEntity
  8
STEMPEL
100
AcDbCircle
 10
216.5073013194198
 20
334.7699230241738
 30
0.0
 40
15.4499999999992
100
AcDbArc
 50
70.34774058561587
 51
109.6522594143841
  0
ARC
  5
1B8C
330
1E
100
AcDbEntity
  8
STEMPEL
100
AcDbCircle
 10
208.71330131942
 20
346.019943436506
 30
0.0
 40
4.199979587667043
100
AcDbArc
 50
51.78789327201688
 51
128.2121067279839
  0
ARC
  5
1B8D
330
1E
100
AcDbEntity
  8
STEMPEL
100
AcDbCircle
 10
224.3013013194197
 20
346.0199434365062
 30
0.0
 40
4.199979587667043
100
AcDbArc
 50
51.78789327201792
 51
128.2121067279849
  0
ARC
  5
1B8E
330
1E
100
AcDbEntity
  8
STEMPEL
100
AcDbCircle
 10
216.5073013194201
 20
326.521131436505
 30
0.0
 40
25.19879158766802
100
AcDbArc
 50
68.21258688568149
 51
111.7874131143202
  0
TEXT
  5
1BAC
330
1E
100
AcDbEntity
  8
TEXT
 62
     1
100
AcDbText
 10
227.8365522679116
 20
115.6405708316599
 30
0.0
 40
7.0
  1
Werkstoff: St37 Dickschichtpassiviert
 41
0.8
  7
GREEKS
100
AcDbText
  0
DIMENSION
  5
1BB2
330
1E
100
AcDbEntity
  8
BEM
100
AcDbDimension
  2
*D6
 10
90.24236346529505
 20
231.8032206520996
 30
0.0
 11
83.74236346529501
 21
251.8032206520997
 31
0.0
 70
    32
 71
     5
 42
39.99999999999997
  3
Standard
100
AcDbAlignedDimension
 13
114.7203013194199
 23
271.8032206520996
 33
0.0
 14
114.7203013194199
 24
231.8032206520996
 34
0.0
 50
90.0
100
AcDbRotatedDimension
1001
ACAD
1000
DSTYLE
1002
{
1070
    40
1040
2.0
1070
    41
1040
3.5
1070
    42
1040
1.0
1070
    43
1040
7.0
1070
    44
1040
1.0
1070
    73
1070
     0
1070
    74
1070
     0
1070
    77
1070
     1
1070
    78
1070
     8
1070
    79
1070
     2
1070
   140
1040
3.5
1070
   141
1040
1.5
1070
   146
1040
0.5142857142857144
1070
   147
1040
1.5
1070
   172
1070
     1
1070
   178
1070
     1
1070
   179
1070
     2
1070
   271
1070
     2
1070
   272
1070
     2
1070
   284
1070
     8
1070
   285
1070
     8
1070
   286
1070
     8
1002
}
  0
ENDSEC
  0
SECTION
  2
OBJECTS
  0
DICTIONARY
  5
C
330
0
100
AcDbDictionary
281
     1
  3
ACAD_COLOR
350
DF
  3
ACAD_GROUP
350
D
  3
ACAD_LAYOUT
350
19
  3
ACAD_MATERIAL
350
DE
  3
ACAD_MLINESTYLE
350
16
  3
ACAD_PLOTSETTINGS
350
18
  3
ACAD_PLOTSTYLENAME
350
E
  3
AcDbVariableDictionary
350
EA
  0
DICTIONARY
  5
A0
330
1E
100
AcDbDictionary
280
     1
281
     1
  3
ACAD_LAYOUTSELFREF
360
D4
  0
DICTIONARY
  5
A2
330
1A
100
AcDbDictionary
280
     1
281
     1
  3
ACAD_LAYOUTSELFREF
360
D3
  0
DICTIONARY
  5
DF
102
{ACAD_REACTORS
330
C
102
}
330
C
100
AcDbDictionary
281
     1
  0
DICTIONARY
  5
D
102
{ACAD_REACTORS
330
C
102
}
330
C
100
AcDbDictionary
281
     1
  0
DICTIONARY
  5
19
102
{ACAD_REACTORS
330
C
102
}
330
C
100
AcDbDictionary
281
     1
  3
Layout1
350
1D
  3
Model
350
21
  0
DICTIONARY
  5
DE
102
{ACAD_REACTORS
330
C
102
}
330
C
100
AcDbDictionary
281
     1
  0
DICTIONARY
  5
16
102
{ACAD_REACTORS
330
C
102
}
330
C
100
AcDbDictionary
281
     1
  3
Standard
350
17
  0
DICTIONARY
  5
18
102
{ACAD_REACTORS
330
C
102
}
330
C
100
AcDbDictionary
281
     1
  0
ACDBDICTIONARYWDFLT
  5
E
102
{ACAD_REACTORS
330
C
102
}
330
C
100
AcDbDictionary
281
     1
  3
Normal
350
F
100
AcDbDictionaryWithDefault
340
F
  0
DICTIONARY
  5
EA
102
{ACAD_REACTORS
330
C
102
}
330
C
100
AcDbDictionary
281
     1
  3
DIMASSOC
350
EB
  3
PROJECTNAME
350
EC
  0
XRECORD
  5
D4
102
{ACAD_REACTORS
330
A0
102
}
330
A0
100
AcDbXrecord
280
     1
340
1E
  0
XRECORD
  5
D3
102
{ACAD_REACTORS
330
A2
102
}
330
A2
100
AcDbXrecord
280
     1
340
1A
  0
LAYOUT
  5
1D
102
{ACAD_REACTORS
330
19
102
}
330
19
100
AcDbPlotSettings
  1

  2
\\NT_WORK01\HP LaserJet 5000 PCL 6
  4

  6

 40
0.0
 41
0.0
 42
0.0
 43
0.0
 44
0.0
 45
0.0
 46
0.0
 47
0.0
 48
0.0
 49
0.0
140
0.0
141
0.0
142
1.0
143
1.0
 70
   688
 72
     0
 73
     0
 74
     5
  7

 75
    16
147
1.0
 76
     0
 77
     2
 78
   300
148
0.0
149
0.0
100
AcDbLayout
  1
Layout1
 70
     0
 71
     1
 10
0.0
 20
0.0
 11
12.0
 21
9.0
 12
0.0
 22
0.0
 32
0.0
 14
1.000000000000000E+20
 24
1.000000000000000E+20
 34
1.000000000000000E+20
 15
-1.000000000000000E+20
 25
-1.000000000000000E+20
 35
-1.000000000000000E+20
146
0.0
 13
0.0
 23
0.0
 33
0.0
 16
1.0
 26
0.0
 36
0.0
 17
0.0
 27
1.0
 37
0.0
 76
     0
330
1A
  0
LAYOUT
  5
21
102
{ACAD_REACTORS
330
19
102
}
330
19
100
AcDbPlotSettings
  1

  2
none_device
  4
Letter_(8.50_x_11.00_Inches)
  6

 40
6.349999904632568
 41
6.349999904632568
 42
6.350006103515625
 43
6.350006103515625
 44
215.8999938964844
 45
279.3999938964844
 46
0.0
 47
0.0
 48
0.0
 49
0.0
140
0.0
141
0.0
142
1.0
143
1.0
 70
 11952
 72
     0
 73
     1
 74
     0
  7

 75
     0
147
1.0
 76
     0
 77
     2
 78
   300
148
-230.4417396561563
149
47.00486644638983
100
AcDbLayout
  1
Model
 70
     1
 71
     0
 10
0.0
 20
0.0
 11
12.0
 21
9.0
 12
0.0
 22
0.0
 32
0.0
 14
0.0
 24
0.0
 34
0.0
 15
0.0
 25
0.0
 35
0.0
146
0.0
 13
0.0
 23
0.0
 33
0.0
 16
1.0
 26
0.0
 36
0.0
 17
0.0
 27
1.0
 37
0.0
 76
     0
330
1E
  0
MLINESTYLE
  5
17
102
{ACAD_REACTORS
330
16
102
}
330
16
100
AcDbMlineStyle
  2
STANDARD
 70
     0
  3

 62
   256
 51
90.0
 52
90.0
 71
     2
 49
0.5
 62
   256
  6
BYLAYER
 49
-0.5
 62
   256
  6
BYLAYER
  0
ACDBPLACEHOLDER
  5
F
102
{ACAD_REACTORS
330
E
102
}
330
E
  0
DICTIONARYVAR
  5
EB
102
{ACAD_REACTORS
330
EA
102
}
330
EA
100
DictionaryVariables
280
     0
  1
1
  0
DICTIONARYVAR
  5
EC
102
{ACAD_REACTORS
330
EA
102
}
330
EA
100
DictionaryVariables
280
     0
  1

  0
ENDSEC
  0
EOF
