  0
SECTION
  2
HEADER
  9
$ACADVER
  1
AC1018
  9
$ACADMAINTVER
 70
     2
  9
$DWGCODEPAGE
  3
ANSI_1252
  9
$INSBASE
 10
0.0
 20
0.0
 30
0.0
  9
$EXTMIN
 10
-0.0181260584133725
 20
-0.0256328098773793
 30
-0.0015258207003583
  9
$EXTMAX
 10
594.0181288244414
 20
840.0256367214323
 30
0.0000000349246037
  9
$LIMMIN
 10
0.0
 20
0.0
  9
$LIMMAX
 10
594.0
 20
840.0
  9
$ORTHOMODE
 70
     1
  9
$REGENMODE
 70
     1
  9
$FILLMODE
 70
     1
  9
$QTEXTMODE
 70
     0
  9
$MIRRTEXT
 70
     1
  9
$LTSCALE
 40
20.0
  9
$ATTMODE
 70
     1
  9
$TEXTSIZE
 40
2.5
  9
$TRACEWID
 40
0.5
  9
$TEXTSTYLE
  7
GREEKS
  9
$CLAYER
  8
BEM
  9
$CELTYPE
  6
ByLayer
  9
$CECOLOR
 62
   256
  9
$CELTSCALE
 40
1.0
  9
$DISPSILH
 70
     0
  9
$DIMSCALE
 40
2.0
  9
$DIMASZ
 40
3.5
  9
$DIMEXO
 40
1.0
  9
$DIMDLI
 40
7.0
  9
$DIMRND
 40
0.0
  9
$DIMDLE
 40
0.0
  9
$DIMEXE
 40
1.0
  9
$DIMTP
 40
0.0
  9
$DIMTM
 40
0.0
  9
$DIMTXT
 40
3.5
  9
$DIMCEN
 40
1.5
  9
$DIMTSZ
 40
0.0
  9
$DIMTOL
 70
     0
  9
$DIMLIM
 70
     0
  9
$DIMTIH
 70
     0
  9
$DIMTOH
 70
     0
  9
$DIMSE1
 70
     0
  9
$DIMSE2
 70
     0
  9
$DIMTAD
 70
     1
  9
$DIMZIN
 70
     8
  9
$DIMBLK
  1

  9
$DIMASO
 70
     1
  9
$DIMSHO
 70
     0
  9
$DIMPOST
  1

  9
$DIMAPOST
  1

  9
$DIMALT
 70
     0
  9
$DIMALTD
 70
     2
  9
$DIMALTF
 40
25.4
  9
$DIMLFAC
 40
1.0
  9
$DIMTOFL
 70
     1
  9
$DIMTVP
 40
0.0
  9
$DIMTIX
 70
     0
  9
$DIMSOXD
 70
     0
  9
$DIMSAH
 70
     0
  9
$DIMBLK1
  1

  9
$DIMBLK2
  1

  9
$DIMSTYLE
  2
Standard
  9
$DIMCLRD
 70
     0
  9
$DIMCLRE
 70
     0
  9
$DIMCLRT
 70
     1
  9
$DIMTFAC
 40
0.5142857142857144
  9
$DIMGAP
 40
1.5
  9
$DIMJUST
 70
     0
  9
$DIMSD1
 70
     0
  9
$DIMSD2
 70
     0
  9
$DIMTOLJ
 70
     1
  9
$DIMTZIN
 70
     8
  9
$DIMALTZ
 70
     8
  9
$DIMALTTZ
 70
     8
  9
$DIMUPT
 70
     0
  9
$DIMDEC
 70
     2
  9
$DIMTDEC
 70
     2
  9
$DIMALTU
 70
     2
  9
$DIMALTTD
 70
     2
  9
$DIMTXSTY
  7
STANDARD
  9
$DIMAUNIT
 70
     0
  9
$DIMADEC
 70
     2
  9
$DIMALTRND
 40
0.0
  9
$DIMAZIN
 70
     2
  9
$DIMDSEP
 70
    46
  9
$DIMATFIT
 70
     3
  9
$DIMFRAC
 70
     0
  9
$DIMLDRBLK
  1

  9
$DIMLUNIT
 70
     2
  9
$DIMLWD
 70
    -2
  9
$DIMLWE
 70
    -2
  9
$DIMTMOVE
 70
     0
  9
$LUNITS
 70
     2
  9
$LUPREC
 70
     2
  9
$SKETCHINC
 40
1.0
  9
$FILLETRAD
 40
0.0
  9
$AUNITS
 70
     0
  9
$AUPREC
 70
     0
  9
$MENU
  1
ACAD
  9
$ELEVATION
 40
0.0
  9
$PELEVATION
 40
0.0
  9
$THICKNESS
 40
0.0
  9
$LIMCHECK
 70
     0
  9
$CHAMFERA
 40
0.0
  9
$CHAMFERB
 40
0.0
  9
$CHAMFERC
 40
0.0
  9
$CHAMFERD
 40
0.0
  9
$SKPOLY
 70
     0
  9
$TDCREATE
 40
2455397.823042361
  9
$TDUCREATE
 40
2455397.781375695
  9
$TDUPDATE
 40
2456230.312717014
  9
$TDUUPDATE
 40
2456230.271050347
  9
$TDINDWG
 40
0.4551757176
  9
$TDUSRTIMER
 40
0.4551757176
  9
$USRTIMER
 70
     1
  9
$ANGBASE
 50
0.0
  9
$ANGDIR
 70
     0
  9
$PDMODE
 70
     0
  9
$PDSIZE
 40
0.0
  9
$PLINEWID
 40
0.0
  9
$SPLFRAME
 70
     0
  9
$SPLINETYPE
 70
     6
  9
$SPLINESEGS
 70
     8
  9
$HANDSEED
  5
2F83
  9
$SURFTAB1
 70
     6
  9
$SURFTAB2
 70
     6
  9
$SURFTYPE
 70
     6
  9
$SURFU
 70
     6
  9
$SURFV
 70
     6
  9
$UCSBASE
  2

  9
$UCSNAME
  2

  9
$UCSORG
 10
0.0
 20
0.0
 30
0.0
  9
$UCSXDIR
 10
1.0
 20
0.0
 30
0.0
  9
$UCSYDIR
 10
0.0
 20
1.0
 30
0.0
  9
$UCSORTHOREF
  2

  9
$UCSORTHOVIEW
 70
     0
  9
$UCSORGTOP
 10
0.0
 20
0.0
 30
0.0
  9
$UCSORGBOTTOM
 10
0.0
 20
0.0
 30
0.0
  9
$UCSORGLEFT
 10
0.0
 20
0.0
 30
0.0
  9
$UCSORGRIGHT
 10
0.0
 20
0.0
 30
0.0
  9
$UCSORGFRONT
 10
0.0
 20
0.0
 30
0.0
  9
$UCSORGBACK
 10
0.0
 20
0.0
 30
0.0
  9
$PUCSBASE
  2

  9
$PUCSNAME
  2

  9
$PUCSORG
 10
0.0
 20
0.0
 30
0.0
  9
$PUCSXDIR
 10
1.0
 20
0.0
 30
0.0
  9
$PUCSYDIR
 10
0.0
 20
1.0
 30
0.0
  9
$PUCSORTHOREF
  2

  9
$PUCSORTHOVIEW
 70
     0
  9
$PUCSORGTOP
 10
0.0
 20
0.0
 30
0.0
  9
$PUCSORGBOTTOM
 10
0.0
 20
0.0
 30
0.0
  9
$PUCSORGLEFT
 10
0.0
 20
0.0
 30
0.0
  9
$PUCSORGRIGHT
 10
0.0
 20
0.0
 30
0.0
  9
$PUCSORGFRONT
 10
0.0
 20
0.0
 30
0.0
  9
$PUCSORGBACK
 10
0.0
 20
0.0
 30
0.0
  9
$USERI1
 70
     0
  9
$USERI2
 70
     0
  9
$USERI3
 70
     0
  9
$USERI4
 70
     0
  9
$USERI5
 70
     0
  9
$USERR1
 40
0.0
  9
$USERR2
 40
0.0
  9
$USERR3
 40
0.0
  9
$USERR4
 40
0.0
  9
$USERR5
 40
0.0
  9
$WORLDVIEW
 70
     1
  9
$SHADEDGE
 70
     3
  9
$SHADEDIF
 70
    70
  9
$TILEMODE
 70
     1
  9
$MAXACTVP
 70
    16
  9
$PINSBASE
 10
0.0
 20
0.0
 30
0.0
  9
$PLIMCHECK
 70
     0
  9
$PEXTMIN
 10
1.000000000000000E+20
 20
1.000000000000000E+20
 30
1.000000000000000E+20
  9
$PEXTMAX
 10
-1.000000000000000E+20
 20
-1.000000000000000E+20
 30
-1.000000000000000E+20
  9
$PLIMMIN
 10
0.0
 20
0.0
  9
$PLIMMAX
 10
12.0
 20
9.0
  9
$UNITMODE
 70
     0
  9
$VISRETAIN
 70
     0
  9
$PLINEGEN
 70
     0
  9
$PSLTSCALE
 70
     0
  9
$TREEDEPTH
 70
  3020
  9
$CMLSTYLE
  2
Standard
  9
$CMLJUST
 70
     0
  9
$CMLSCALE
 40
1.0
  9
$PROXYGRAPHICS
 70
     1
  9
$MEASUREMENT
 70
     0
  9
$CELWEIGHT
370
    -1
  9
$ENDCAPS
280
     0
  9
$JOINSTYLE
280
     0
  9
$LWDISPLAY
290
     0
  9
$INSUNITS
 70
     0
  9
$HYPERLINKBASE
  1

  9
$STYLESHEET
  1
monochrome 1.ctb
  9
$XEDIT
290
     1
  9
$CEPSNTYPE
380
     0
  9
$PSTYLEMODE
290
     1
  9
$FINGERPRINTGUID
  2
{D68B0D02-A558-11D7-B632-000102183313}
  9
$VERSIONGUID
  2
{44853AD1-252A-44D7-8826-851F17F8CE5A}
  9
$EXTNAMES
290
     1
  9
$PSVPSCALE
 40
0.0
  9
$OLESTARTUP
290
     0
  9
$SORTENTS
280
   127
  9
$INDEXCTL
280
     0
  9
$HIDETEXT
280
     0
  9
$XCLIPFRAME
290
     0
  9
$HALOGAP
280
     0
  9
$OBSCOLOR
 70
   257
  9
$OBSLTYPE
280
     0
  9
$INTERSECTIONDISPLAY
280
     0
  9
$INTERSECTIONCOLOR
 70
   257
  9
$DIMASSOC
280
     1
  9
$PROJECTNAME
  1

  0
ENDSEC
  0
SECTION
  2
CLASSES
  0
CLASS
  1
ACDBDICTIONARYWDFLT
  2
AcDbDictionaryWithDefault
  3
ObjectDBX Classes
 90
        0
 91
        1
280
     0
281
     0
  0
CLASS
  1
DICTIONARYVAR
  2
AcDbDictionaryVar
  3
ObjectDBX Classes
 90
        0
 91
        2
280
     0
281
     0
  0
ENDSEC
  0
SECTION
  2
TABLES
  0
TABLE
  2
VPORT
  5
8
330
0
100
AcDbSymbolTable
 70
     3
  0
VPORT
  5
2F82
330
8
100
AcDbSymbolTableRecord
100
AcDbViewportTableRecord
  2
*Active
 70
     0
 10
0.0
 20
0.0
 11
1.0
 21
1.0
 12
297.0
 22
420.0
 13
0.0
 23
0.0
 14
1.0
 24
1.0
 15
10.0
 25
10.0
 16
0.0
 26
0.0
 36
1.0
 17
0.0
 27
0.0
 37
0.0
 40
840.4764686976179
 41
1.404858299595141
 42
50.0
 43
0.0
 44
0.0
 50
0.0
 51
0.0
 71
     0
 72
  1500
 73
     1
 74
     0
 75
     0
 76
     0
 77
     0
 78
     0
281
     0
 65
     1
110
0.0
120
0.0
130
0.0
111
1.0
121
0.0
131
0.0
112
0.0
122
1.0
132
0.0
 79
     0
146
0.0
  0
ENDTAB
  0
TABLE
  2
LTYPE
  5
5
330
0
100
AcDbSymbolTable
 70
     2
  0
LTYPE
  5
13
330
5
100
AcDbSymbolTableRecord
100
AcDbLinetypeTableRecord
  2
ByBlock
 70
     0
  3

 72
    65
 73
     0
 40
0.0
  0
LTYPE
  5
14
330
5
100
AcDbSymbolTableRecord
100
AcDbLinetypeTableRecord
  2
ByLayer
 70
     0
  3

 72
    65
 73
     0
 40
0.0
  0
LTYPE
  5
15
330
5
100
AcDbSymbolTableRecord
100
AcDbLinetypeTableRecord
  2
Continuous
 70
     0
  3
Solid line
 72
    65
 73
     0
 40
0.0
  0
LTYPE
  5
25
330
5
100
AcDbSymbolTableRecord
100
AcDbLinetypeTableRecord
  2
STRICHPUNKT
 70
     0
  3
__ . __ . __ . __ . __ . __ . __ . __ . __ . __
 72
    65
 73
     4
 40
1.0
 49
0.5
 74
     0
 49
-0.25
 74
     0
 49
0.0
 74
     0
 49
-0.25
 74
     0
  0
ENDTAB
  0
TABLE
  2
LAYER
  5
2
330
0
100
AcDbSymbolTable
 70
     8
  0
LAYER
  5
10
330
2
100
AcDbSymbolTableRecord
100
AcDbLayerTableRecord
  2
0
 70
     0
 62
     7
  6
Continuous
370
    -3
390
F
  0
LAYER
  5
2A
330
2
100
AcDbSymbolTableRecord
100
AcDbLayerTableRecord
  2
VOLL
 70
     0
 62
     1
  6
Continuous
370
    -3
390
F
  0
LAYER
  5
2B
330
2
100
AcDbSymbolTableRecord
100
AcDbLayerTableRecord
  2
HILF
 70
     0
 62
     2
  6
Continuous
370
    -3
390
F
  0
LAYER
  5
2C
330
2
100
AcDbSymbolTableRecord
100
AcDbLayerTableRecord
  2
MITTEL
 70
     0
 62
     2
  6
STRICHPUNKT
370
    -3
390
F
  0
LAYER
  5
2F
330
2
100
AcDbSymbolTableRecord
100
AcDbLayerTableRecord
  2
BEM
 70
     0
 62
     7
  6
Continuous
370
    -3
390
F
  0
LAYER
  5
30
330
2
100
AcDbSymbolTableRecord
100
AcDbLayerTableRecord
  2
STEMPEL
 70
     0
 62
     3
  6
Continuous
370
    -3
390
F
  0
LAYER
  5
31
330
2
100
AcDbSymbolTableRecord
100
AcDbLayerTableRecord
  2
TEXT
 70
     0
 62
     7
  6
Continuous
370
    -3
390
F
  0
LAYER
  5
1A8
330
2
100
AcDbSymbolTableRecord
100
AcDbLayerTableRecord
  2
Defpoints
 70
     0
 62
     7
  6
Continuous
290
     0
370
    -3
390
F
  0
ENDTAB
  0
TABLE
  2
STYLE
  5
3
330
0
100
AcDbSymbolTable
 70
     2
  0
STYLE
  5
11
330
3
100
AcDbSymbolTableRecord
100
AcDbTextStyleTableRecord
  2
STANDARD
 70
     0
 40
0.0
 41
0.8
 50
0.0
 71
     0
 42
3.5
  3
simplex.shx
  4

  0
STYLE
  5
24
330
3
100
AcDbSymbolTableRecord
100
AcDbTextStyleTableRecord
  2
GREEKS
 70
     0
 40
0.0
 41
0.8
 50
0.0
 71
     0
 42
2.5
  3
SIMPLEX.shx
  4

  0
ENDTAB
  0
TABLE
  2
VIEW
  5
6
330
0
100
AcDbSymbolTable
 70
     0
  0
ENDTAB
  0
TABLE
  2
UCS
  5
7
330
0
100
AcDbSymbolTable
 70
     0
  0
ENDTAB
  0
TABLE
  2
APPID
  5
9
330
0
100
AcDbSymbolTable
 70
     1
  0
APPID
  5
12
330
9
100
AcDbSymbolTableRecord
100
AcDbRegAppTableRecord
  2
ACAD
 70
     0
  0
ENDTAB
  0
TABLE
  2
DIMSTYLE
  5
A
330
0
100
AcDbSymbolTable
 70
     1
100
AcDbDimStyleTable
 71
     1
340
9D
  0
DIMSTYLE
105
9D
102
{ACAD_REACTORS
330
2E4F
330
2E5C
330
2EAC
330
2ECB
330
2EEF
330
2F70
102
}
330
A
100
AcDbSymbolTableRecord
100
AcDbDimStyleTableRecord
  2
Standard
 70
     0
340
11
  0
ENDTAB
  0
TABLE
  2
BLOCK_RECORD
  5
1
330
0
100
AcDbSymbolTable
 70
     7
  0
BLOCK_RECORD
  5
1E
102
{ACAD_XDICTIONARY
360
A0
102
}
330
1
100
AcDbSymbolTableRecord
100
AcDbBlockTableRecord
  2
*Model_Space
340
21
  0
BLOCK_RECORD
  5
1A
102
{ACAD_XDICTIONARY
360
A2
102
}
330
1
100
AcDbSymbolTableRecord
100
AcDbBlockTableRecord
  2
*Paper_Space
340
1D
  0
BLOCK_RECORD
  5
22
330
1
100
AcDbSymbolTableRecord
100
AcDbBlockTableRecord
  2
LOGO
340
0
102
{BLKREFS
331
9B
102
}
  0
BLOCK_RECORD
  5
2E50
330
1
100
AcDbSymbolTableRecord
100
AcDbBlockTableRecord
  2
*D1
340
0
  0
BLOCK_RECORD
  5
2E5D
330
1
100
AcDbSymbolTableRecord
100
AcDbBlockTableRecord
  2
*D2
340
0
  0
BLOCK_RECORD
  5
2EAD
330
1
100
AcDbSymbolTableRecord
100
AcDbBlockTableRecord
  2
*D3
340
0
  0
BLOCK_RECORD
  5
2ECC
330
1
100
AcDbSymbolTableRecord
100
AcDbBlockTableRecord
  2
*D4
340
0
  0
BLOCK_RECORD
  5
2EF0
330
1
100
AcDbSymbolTableRecord
100
AcDbBlockTableRecord
  2
*D5
340
0
  0
BLOCK_RECORD
  5
2F71
330
1
100
AcDbSymbolTableRecord
100
AcDbBlockTableRecord
  2
*D6
340
0
  0
ENDTAB
  0
ENDSEC
  0
SECTION
  2
BLOCKS
  0
BLOCK
  5
35
330
1E
100
AcDbEntity
  8
0
100
AcDbBlockBegin
  2
*Model_Space
 70
     0
 10
0.0
 20
0.0
 30
0.0
  3
*Model_Space
  1

  0
ENDBLK
  5
36
330
1E
100
AcDbEntity
  8
0
100
AcDbBlockEnd
  0
BLOCK
  5
33
330
1A
100
AcDbEntity
 67
     1
  8
0
100
AcDbBlockBegin
  2
*Paper_Space
 70
     0
 10
0.0
 20
0.0
 30
0.0
  3
*Paper_Space
  1

  0
ENDBLK
  5
34
330
1A
100
AcDbEntity
 67
     1
  8
0
100
AcDbBlockEnd
  0
BLOCK
  5
37
330
22
100
AcDbEntity
  8
0
100
AcDbBlockBegin
  2
LOGO
 70
     0
 10
0.0
 20
0.0
 30
0.0
  3
LOGO
  1

  0
ARC
  5
38
330
22
100
AcDbEntity
  8
0
100
AcDbCircle
 10
11.59973089678112
 20
-9.271599258481501
 30
0.0
 40
4.5
100
AcDbArc
 50
270.0
 51
231.0575587310159
  0
LINE
  5
39
330
22
100
AcDbEntity
  8
0
100
AcDbLine
 10
3.599730896781125
 20
-4.771599258481529
 30
0.0
 11
3.599730896781153
 21
-11.77159925848133
 31
0.0
  0
LINE
  5
3A
330
22
100
AcDbEntity
  8
0
100
AcDbLine
 10
2.599730896781125
 20
-4.771599258481529
 30
0.0
 11
2.599730896781153
 21
-11.77159925848133
 31
0.0
  0
CIRCLE
  5
3B
330
22
100
AcDbEntity
  8
0
100
AcDbCircle
 10
11.59973089678112
 20
-9.271599258481501
 30
0.0
 40
3.5
  0
ARC
  5
3C
330
22
100
AcDbEntity
  8
0
100
AcDbCircle
 10
31.59973089678115
 20
-9.271599258481472
 30
0.0
 40
4.5
100
AcDbArc
 50
270.0
 51
231.0575587310182
  0
LINE
  5
3D
330
22
100
AcDbEntity
  8
0
100
AcDbLine
 10
17.59973089678112
 20
-4.771599258481472
 30
0.0
 11
17.59973089678115
 21
-13.77159925848147
 31
0.0
  0
ARC
  5
3E
330
22
100
AcDbEntity
  8
0
100
AcDbCircle
 10
22.59973089678116
 20
-7.271599258481472
 30
0.0
 40
2.5
100
AcDbArc
 50
293.1161887722295
 51
90.0
  0
CIRCLE
  5
3F
330
22
100
AcDbEntity
  8
0
100
AcDbCircle
 10
31.59973089678115
 20
-9.271599258481472
 30
0.0
 40
3.5
  0
ARC
  5
40
330
22
100
AcDbEntity
  8
0
100
AcDbCircle
 10
4.599730896781153
 20
-11.77159925848133
 30
0.0
 40
1.0
100
AcDbArc
 50
180.0
 51
270.0
  0
ARC
  5
41
330
22
100
AcDbEntity
  8
0
100
AcDbCircle
 10
4.599730896781153
 20
-11.77159925848133
 30
0.0
 40
2.0
100
AcDbArc
 50
179.9999999999992
 51
270.0
  0
LINE
  5
42
330
22
100
AcDbEntity
  8
0
100
AcDbLine
 10
11.59973089678115
 20
-13.77159925848144
 30
0.0
 11
4.599730896781153
 21
-13.77159925848147
 31
0.0
  0
LINE
  5
43
330
22
100
AcDbEntity
  8
0
100
AcDbLine
 10
8.771303772034769
 20
-12.77159925848136
 30
0.0
 11
4.599730896781153
 21
-12.77159925848133
 31
0.0
  0
LINE
  5
44
330
22
100
AcDbEntity
  8
0
100
AcDbLine
 10
31.59973089678115
 20
-13.77159925848147
 30
0.0
 11
23.6715276665056
 21
-13.77159925848144
 31
0.0
  0
LINE
  5
45
330
22
100
AcDbEntity
  8
0
100
AcDbLine
 10
23.56565672307022
 20
-9.51278021337896
 30
0.0
 11
24.4388546544846
 21
-12.77159925848144
 31
0.0
  0
LINE
  5
46
330
22
100
AcDbEntity
  8
0
100
AcDbLine
 10
22.59973089678116
 20
-9.771599258481472
 30
0.0
 11
18.59973089678112
 21
-9.771599258481472
 31
0.0
  0
LINE
  5
47
330
22
100
AcDbEntity
  8
0
100
AcDbLine
 10
18.59973089678115
 20
-13.77159925848144
 30
0.0
 11
17.59973089678115
 21
-13.77159925848144
 31
0.0
  0
LINE
  5
48
330
22
100
AcDbEntity
  8
0
100
AcDbLine
 10
18.59973089678115
 20
-9.771599258481472
 30
0.0
 11
18.59973089678115
 21
-13.77159925848144
 31
0.0
  0
LINE
  5
49
330
22
100
AcDbEntity
  8
0
100
AcDbLine
 10
22.59973089678116
 20
-9.771599258481472
 30
0.0
 11
23.67152766650562
 21
-13.77159925848147
 31
0.0
  0
ARC
  5
4A
330
22
100
AcDbEntity
  8
0
100
AcDbCircle
 10
22.59973089678116
 20
-7.271599258481472
 30
0.0
 40
2.5
100
AcDbArc
 50
270.0
 51
270.0000000000007
  0
LINE
  5
4B
330
22
100
AcDbEntity
  8
0
100
AcDbLine
 10
28.77130377203494
 20
-12.77159925848147
 30
0.0
 11
24.43885465448463
 21
-12.77159925848144
 31
0.0
  0
LINE
  5
4C
330
22
100
AcDbEntity
  8
0
100
AcDbLine
 10
3.599730896781125
 20
-4.771599258481472
 30
0.0
 11
2.599730896781125
 21
-4.771599258481472
 31
0.0
  0
LINE
  5
4D
330
22
100
AcDbEntity
  8
0
100
AcDbLine
 10
22.59973089678116
 20
-8.771599258481472
 30
0.0
 11
18.59973089678115
 21
-8.771599258481472
 31
0.0
  0
LINE
  5
4E
330
22
100
AcDbEntity
  8
0
100
AcDbLine
 10
22.59973089678116
 20
-5.771599258481472
 30
0.0
 11
18.59973089678115
 21
-5.771599258481472
 31
0.0
  0
LINE
  5
4F
330
22
100
AcDbEntity
  8
0
100
AcDbLine
 10
22.59973089678116
 20
-4.771599258481472
 30
0.0
 11
17.59973089678115
 21
-4.771599258481472
 31
0.0
  0
LINE
  5
50
330
22
100
AcDbEntity
  8
0
100
AcDbLine
 10
18.59973089678115
 20
-5.771599258481472
 30
0.0
 11
18.59973089678115
 21
-8.771599258481472
 31
0.0
  0
ARC
  5
51
330
22
100
AcDbEntity
  8
0
100
AcDbCircle
 10
22.59973089678116
 20
-7.271599258481472
 30
0.0
 40
1.5
100
AcDbArc
 50
270.0
 51
90.0
  0
ENDBLK
  5
52
330
22
100
AcDbEntity
  8
0
100
AcDbBlockEnd
  0
BLOCK
  5
2E5A
330
2E50
100
AcDbEntity
  8
0
100
AcDbBlockBegin
  2
*D1
 70
     1
 10
0.0
 20
0.0
 30
0.0
  3
*D1
  1

  0
LINE
  5
2F49
330
2E50
100
AcDbEntity
  8
BEM
 62
     0
370
    -2
100
AcDbLine
 10
74.15778073881199
 20
218.979795645299
 30
0.0
 11
74.15778073881199
 21
181.730673606836
 31
0.0
  0
LINE
  5
2F4A
330
2E50
100
AcDbEntity
  8
BEM
 62
     0
370
    -2
100
AcDbLine
 10
448.1597807388127
 20
218.9797956452983
 30
0.0
 11
448.1597807388127
 21
181.730673606836
 31
0.0
  0
LINE
  5
2F4B
330
2E50
100
AcDbEntity
  8
BEM
 62
     0
370
    -2
100
AcDbLine
 10
81.157780738812
 20
183.730673606836
 30
0.0
 11
441.1597807388127
 21
183.730673606836
 31
0.0
  0
SOLID
  5
2F4C
330
2E50
100
AcDbEntity
  8
BEM
 62
     0
100
AcDbTrace
 10
81.157780738812
 20
184.8973402735026
 30
0.0
 11
81.157780738812
 21
182.5640069401694
 31
0.0
 12
74.15778073881199
 22
183.730673606836
 32
0.0
 13
74.15778073881199
 23
183.730673606836
 33
0.0
  0
SOLID
  5
2F4D
330
2E50
100
AcDbEntity
  8
BEM
 62
     0
100
AcDbTrace
 10
441.1597807388127
 20
184.8973402735026
 30
0.0
 11
441.1597807388127
 21
182.5640069401694
 31
0.0
 12
448.1597807388127
 22
183.730673606836
 32
0.0
 13
448.1597807388127
 23
183.730673606836
 33
0.0
  0
MTEXT
  5
2F4E
330
2E50
100
AcDbEntity
  8
BEM
 62
     1
100
AcDbMText
 10
261.1587807388124
 20
190.230673606836
 30
0.0
 40
7.0
 41
0.0
 71
     5
 72
     1
  1
\A1;374
 73
     1
 44
1.0
  0
POINT
  5
2F4F
330
2E50
100
AcDbEntity
  8
Defpoints
 62
     0
100
AcDbPoint
 10
74.15778073881199
 20
220.979795645299
 30
0.0
  0
POINT
  5
2F50
330
2E50
100
AcDbEntity
  8
Defpoints
 62
     0
100
AcDbPoint
 10
448.1597807388127
 20
220.9797956452983
 30
0.0
  0
POINT
  5
2F51
330
2E50
100
AcDbEntity
  8
Defpoints
 62
     0
100
AcDbPoint
 10
448.1597807388127
 20
183.730673606836
 30
0.0
  0
ENDBLK
  5
2E5B
330
2E50
100
AcDbEntity
  8
0
100
AcDbBlockEnd
  0
BLOCK
  5
2E67
330
2E5D
100
AcDbEntity
  8
0
100
AcDbBlockBegin
  2
*D2
 70
     1
 10
0.0
 20
0.0
 30
0.0
  3
*D2
  1

  0
LINE
  5
2F40
330
2E5D
100
AcDbEntity
  8
BEM
 62
     0
370
    -2
100
AcDbLine
 10
63.1447807388123
 20
230.4797956452983
 30
0.0
 11
63.14478073881229
 21
163.4030504514669
 31
0.0
  0
LINE
  5
2F41
330
2E5D
100
AcDbEntity
  8
BEM
 62
     0
370
    -2
100
AcDbLine
 10
459.1447807388123
 20
230.4797956452983
 30
0.0
 11
459.1447807388123
 21
163.4030504514669
 31
0.0
  0
LINE
  5
2F42
330
2E5D
100
AcDbEntity
  8
BEM
 62
     0
370
    -2
100
AcDbLine
 10
70.1447807388123
 20
165.4030504514669
 30
0.0
 11
452.1447807388124
 21
165.4030504514669
 31
0.0
  0
SOLID
  5
2F43
330
2E5D
100
AcDbEntity
  8
BEM
 62
     0
100
AcDbTrace
 10
70.1447807388123
 20
166.5697171181335
 30
0.0
 11
70.1447807388123
 21
164.2363837848002
 31
0.0
 12
63.14478073881229
 22
165.4030504514669
 32
0.0
 13
63.14478073881229
 23
165.4030504514669
 33
0.0
  0
SOLID
  5
2F44
330
2E5D
100
AcDbEntity
  8
BEM
 62
     0
100
AcDbTrace
 10
452.1447807388124
 20
166.5697171181335
 30
0.0
 11
452.1447807388124
 21
164.2363837848002
 31
0.0
 12
459.1447807388123
 22
165.4030504514669
 32
0.0
 13
459.1447807388123
 23
165.4030504514669
 33
0.0
  0
MTEXT
  5
2F45
330
2E5D
100
AcDbEntity
  8
BEM
 62
     1
100
AcDbMText
 10
261.1447807388123
 20
171.9030504514669
 30
0.0
 40
7.0
 41
0.0
 71
     5
 72
     1
  1
\A1;396
 73
     1
 44
1.0
  0
POINT
  5
2F46
330
2E5D
100
AcDbEntity
  8
Defpoints
 62
     0
100
AcDbPoint
 10
63.1447807388123
 20
232.4797956452983
 30
0.0
  0
POINT
  5
2F47
330
2E5D
100
AcDbEntity
  8
Defpoints
 62
     0
100
AcDbPoint
 10
459.1447807388123
 20
232.4797956452982
 30
0.0
  0
POINT
  5
2F48
330
2E5D
100
AcDbEntity
  8
Defpoints
 62
     0
100
AcDbPoint
 10
459.1447807388123
 20
165.4030504514669
 30
0.0
  0
ENDBLK
  5
2E68
330
2E5D
100
AcDbEntity
  8
0
100
AcDbBlockEnd
  0
BLOCK
  5
2EB9
330
2EAD
100
AcDbEntity
  8
0
100
AcDbBlockBegin
  2
*D3
 70
     1
 10
0.0
 20
0.0
 30
0.0
  3
*D3
  1

  0
LINE
  5
2F35
330
2EAD
100
AcDbEntity
  8
BEM
 62
     0
370
    -2
100
AcDbLine
 10
61.66578073881237
 20
538.9536604636401
 30
0.0
 11
50.50435284551577
 21
538.9536604636401
 31
0.0
  0
LINE
  5
2F36
330
2EAD
100
AcDbEntity
  8
BEM
 62
     0
370
    -2
100
AcDbLine
 10
61.66578073881237
 20
541.9536604636402
 30
0.0
 11
50.50435284551577
 21
541.9536604636402
 31
0.0
  0
LINE
  5
2F37
330
2EAD
100
AcDbEntity
  8
BEM
 62
     0
370
    -2
100
AcDbLine
 10
52.50435284551577
 20
531.9536604636401
 30
0.0
 11
52.50435284551576
 21
524.9536604636402
 31
0.0
  0
LINE
  5
2F38
330
2EAD
100
AcDbEntity
  8
BEM
 62
     0
370
    -2
100
AcDbLine
 10
52.50435284551577
 20
548.9536604636401
 30
0.0
 11
52.50435284551578
 21
565.6869937969735
 31
0.0
  0
LINE
  5
2F39
330
2EAD
100
AcDbEntity
  8
BEM
 62
     0
370
    -2
100
AcDbLine
 10
52.50435284551577
 20
538.9536604636401
 30
0.0
 11
52.50435284551577
 21
541.9536604636402
 31
0.0
  0
SOLID
  5
2F3A
330
2EAD
100
AcDbEntity
  8
BEM
 62
     0
100
AcDbTrace
 10
51.33768617884911
 20
531.9536604636401
 30
0.0
 11
53.67101951218243
 21
531.9536604636401
 31
0.0
 12
52.50435284551577
 22
538.9536604636401
 32
0.0
 13
52.50435284551577
 23
538.9536604636401
 33
0.0
  0
SOLID
  5
2F3B
330
2EAD
100
AcDbEntity
  8
BEM
 62
     0
100
AcDbTrace
 10
51.33768617884911
 20
548.9536604636401
 30
0.0
 11
53.67101951218243
 21
548.9536604636401
 31
0.0
 12
52.50435284551577
 22
541.9536604636402
 32
0.0
 13
52.50435284551577
 23
541.9536604636402
 33
0.0
  0
MTEXT
  5
2F3C
330
2EAD
100
AcDbEntity
  8
BEM
 62
     1
100
AcDbMText
 10
46.00435284551568
 20
560.8203271303068
 30
0.0
 40
7.0
 41
0.0
 71
     5
 72
     1
  1
\A1;3
 11
0.0000000000000001
 21
1.0
 31
0.0
 73
     1
 44
1.0
  0
POINT
  5
2F3D
330
2EAD
100
AcDbEntity
  8
Defpoints
 62
     0
100
AcDbPoint
 10
63.66578073881237
 20
538.9536604636401
 30
0.0
  0
POINT
  5
2F3E
330
2EAD
100
AcDbEntity
  8
Defpoints
 62
     0
100
AcDbPoint
 10
63.66578073881237
 20
541.9536604636402
 30
0.0
  0
POINT
  5
2F3F
330
2EAD
100
AcDbEntity
  8
Defpoints
 62
     0
100
AcDbPoint
 10
52.50435284551577
 20
541.9536604636402
 30
0.0
  0
ENDBLK
  5
2EBA
330
2EAD
100
AcDbEntity
  8
0
100
AcDbBlockEnd
  0
BLOCK
  5
2ED6
330
2ECC
100
AcDbEntity
  8
0
100
AcDbBlockBegin
  2
*D4
 70
     1
 10
0.0
 20
0.0
 30
0.0
  3
*D4
  1

  0
LINE
  5
2F2C
330
2ECC
100
AcDbEntity
  8
BEM
 62
     0
370
    -2
100
AcDbLine
 10
250.9317807388123
 20
350.4536604636402
 30
0.0
 11
32.40945628130651
 21
350.4536604636403
 31
0.0
  0
LINE
  5
2F2D
330
2ECC
100
AcDbEntity
  8
BEM
 62
     0
370
    -2
100
AcDbLine
 10
259.1587807388124
 20
717.4536604636402
 30
0.0
 11
32.40945628130656
 21
717.4536604636402
 31
0.0
  0
LINE
  5
2F2E
330
2ECC
100
AcDbEntity
  8
BEM
 62
     0
370
    -2
100
AcDbLine
 10
34.4094562813065
 20
357.4536604636402
 30
0.0
 11
34.40945628130658
 21
710.4536604636402
 31
0.0
  0
SOLID
  5
2F2F
330
2ECC
100
AcDbEntity
  8
BEM
 62
     0
100
AcDbTrace
 10
33.24278961463984
 20
357.4536604636402
 30
0.0
 11
35.57612294797316
 21
357.4536604636402
 31
0.0
 12
34.4094562813065
 22
350.4536604636403
 32
0.0
 13
34.4094562813065
 23
350.4536604636403
 33
0.0
  0
SOLID
  5
2F30
330
2ECC
100
AcDbEntity
  8
BEM
 62
     0
100
AcDbTrace
 10
33.24278961463991
 20
710.4536604636402
 30
0.0
 11
35.57612294797324
 21
710.4536604636402
 31
0.0
 12
34.40945628130658
 22
717.4536604636402
 32
0.0
 13
34.40945628130658
 23
717.4536604636402
 33
0.0
  0
MTEXT
  5
2F31
330
2ECC
100
AcDbEntity
  8
BEM
 62
     1
100
AcDbMText
 10
27.90945628130645
 20
533.9536604636403
 30
0.0
 40
7.0
 41
0.0
 71
     5
 72
     1
  1
\A1;367
 11
0.0000000000000001
 21
1.0
 31
0.0
 73
     1
 44
1.0
  0
POINT
  5
2F32
330
2ECC
100
AcDbEntity
  8
Defpoints
 62
     0
100
AcDbPoint
 10
252.9317807388123
 20
350.4536604636402
 30
0.0
  0
POINT
  5
2F33
330
2ECC
100
AcDbEntity
  8
Defpoints
 62
     0
100
AcDbPoint
 10
261.1587807388124
 20
717.4536604636402
 30
0.0
  0
POINT
  5
2F34
330
2ECC
100
AcDbEntity
  8
Defpoints
 62
     0
100
AcDbPoint
 10
34.40945628130658
 20
717.4536604636402
 30
0.0
  0
ENDBLK
  5
2ED7
330
2ECC
100
AcDbEntity
  8
0
100
AcDbBlockEnd
  0
BLOCK
  5
2EFA
330
2EF0
100
AcDbEntity
  8
0
100
AcDbBlockBegin
  2
*D5
 70
     1
 10
0.0
 20
0.0
 30
0.0
  3
*D5
  1

  0
LINE
  5
2F25
330
2EF0
100
AcDbEntity
  8
BEM
 62
     0
370
    -2
100
AcDbLine
 10
156.3844003598966
 20
415.5884162352549
 30
0.0
 11
365.9331611177236
 21
665.3189046920293
 31
0.0
  0
SOLID
  5
2F26
330
2EF0
100
AcDbEntity
  8
BEM
 62
     0
100
AcDbTrace
 10
155.4906818429246
 20
416.3383351132226
 30
0.0
 11
157.2781188768687
 21
414.8384973572873
 31
0.0
 12
151.8848870920905
 22
410.2261051334223
 32
0.0
 13
151.8848870920905
 23
410.2261051334223
 33
0.0
  0
SOLID
  5
2F27
330
2EF0
100
AcDbEntity
  8
BEM
 62
     0
100
AcDbTrace
 10
365.0394426007515
 20
666.068823569997
 30
0.0
 11
366.8268796346957
 21
664.5689858140616
 31
0.0
 12
370.4326743855297
 22
670.6812157938619
 32
0.0
 13
370.4326743855297
 23
670.6812157938619
 33
0.0
  0
MTEXT
  5
2F28
330
2EF0
100
AcDbEntity
  8
BEM
 62
     1
100
AcDbMText
 10
285.7062694195344
 20
579.8204231626495
 30
0.0
 40
7.0
 41
0.0
 71
     5
 72
     1
  1
\A1;%%c340
 11
0.6427876096865854
 21
0.7660444431189397
 31
0.0
 73
     1
 44
1.0
  0
POINT
  5
2F29
330
2EF0
100
AcDbEntity
  8
Defpoints
 62
     0
100
AcDbPoint
 10
151.8848870921005
 20
410.2261051334139
 30
0.0
  0
POINT
  5
2F2A
330
2EF0
100
AcDbEntity
  8
Defpoints
 62
     0
100
AcDbPoint
 10
370.432674385524
 20
670.6812157938667
 30
0.0
  0
POINT
  5
2F2B
330
2EF0
100
AcDbEntity
  8
Defpoints
 62
     0
100
AcDbPoint
 10
370.4326743855297
 20
670.6812157938619
 30
0.0
  0
ENDBLK
  5
2EFB
330
2EF0
100
AcDbEntity
  8
0
100
AcDbBlockEnd
  0
BLOCK
  5
2F7B
330
2F71
100
AcDbEntity
  8
0
100
AcDbBlockBegin
  2
*D6
 70
     1
 10
0.0
 20
0.0
 30
0.0
  3
*D6
  1

  0
LINE
  5
2F72
330
2F71
100
AcDbEntity
  8
BEM
 62
     0
370
    -2
100
AcDbLine
 10
66.50376458743494
 20
252.4797956452986
 30
0.0
 11
47.54539922978711
 21
252.4797956452986
 31
0.0
  0
LINE
  5
2F73
330
2F71
100
AcDbEntity
  8
BEM
 62
     0
370
    -2
100
AcDbLine
 10
66.50376458743494
 20
212.4797956452979
 30
0.0
 11
47.5453992297871
 21
212.479795645298
 31
0.0
  0
LINE
  5
2F74
330
2F71
100
AcDbEntity
  8
BEM
 62
     0
370
    -2
100
AcDbLine
 10
49.54539922978711
 20
245.4797956452987
 30
0.0
 11
49.5453992297871
 21
219.479795645298
 31
0.0
  0
SOLID
  5
2F75
330
2F71
100
AcDbEntity
  8
BEM
 62
     0
100
AcDbTrace
 10
48.37873256312045
 20
245.4797956452987
 30
0.0
 11
50.71206589645377
 21
245.4797956452987
 31
0.0
 12
49.54539922978711
 22
252.4797956452986
 32
0.0
 13
49.54539922978711
 23
252.4797956452986
 33
0.0
  0
SOLID
  5
2F76
330
2F71
100
AcDbEntity
  8
BEM
 62
     0
100
AcDbTrace
 10
48.37873256312044
 20
219.479795645298
 30
0.0
 11
50.71206589645377
 21
219.479795645298
 31
0.0
 12
49.5453992297871
 22
212.479795645298
 32
0.0
 13
49.5453992297871
 23
212.479795645298
 33
0.0
  0
MTEXT
  5
2F77
330
2F71
100
AcDbEntity
  8
BEM
 62
     1
100
AcDbMText
 10
43.04539922978707
 20
232.4797956452983
 30
0.0
 40
7.0
 41
0.0
 71
     5
 72
     1
  1
\A1;40
 11
0.0000000000000001
 21
1.0
 31
0.0
 73
     1
 44
1.0
  0
POINT
  5
2F78
330
2F71
100
AcDbEntity
  8
Defpoints
 62
     0
100
AcDbPoint
 10
68.50376458743494
 20
252.4797956452986
 30
0.0
  0
POINT
  5
2F79
330
2F71
100
AcDbEntity
  8
Defpoints
 62
     0
100
AcDbPoint
 10
68.50376458743494
 20
212.4797956452979
 30
0.0
  0
POINT
  5
2F7A
330
2F71
100
AcDbEntity
  8
Defpoints
 62
     0
100
AcDbPoint
 10
49.5453992297871
 20
212.479795645298
 30
0.0
  0
ENDBLK
  5
2F7C
330
2F71
100
AcDbEntity
  8
0
100
AcDbBlockEnd
  0
ENDSEC
  0
SECTION
  2
ENTITIES
  0
LINE
  5
57
330
1E
100
AcDbEntity
  8
STEMPEL
100
AcDbLine
 10
484.0
 20
830.0
 30
0.0
 11
484.0
 21
460.0
 31
0.0
  0
LINE
  5
58
330
1E
100
AcDbEntity
  8
STEMPEL
100
AcDbLine
 10
484.0
 20
556.0000000000001
 30
0.0
 11
584.0
 21
556.0
 31
0.0
  0
LINE
  5
59
330
1E
100
AcDbEntity
  8
STEMPEL
100
AcDbLine
 10
484.0
 20
640.0
 30
0.0
 11
584.0
 21
640.0
 31
0.0
  0
LINE
  5
5A
330
1E
100
AcDbEntity
  8
STEMPEL
100
AcDbLine
 10
484.0000000000002
 20
752.0
 30
0.0
 11
554.0
 21
752.0
 31
0.0
  0
LINE
  5
5B
330
1E
100
AcDbEntity
  8
STEMPEL
100
AcDbLine
 10
564.0
 20
555.9999999999998
 30
0.0
 11
564.0
 21
460.0
 31
0.0
  0
LINE
  5
5C
330
1E
100
AcDbEntity
  8
STEMPEL
100
AcDbLine
 10
554.0
 20
830.0
 30
0.0
 11
554.0
 21
556.0000000000001
 31
0.0
  0
LINE
  5
5D
330
1E
100
AcDbEntity
  8
STEMPEL
100
AcDbLine
 10
514.0
 20
830.0
 30
0.0
 11
514.0
 21
556.0000000000001
 31
0.0
  0
LINE
  5
5E
330
1E
100
AcDbEntity
  8
VOLL
100
AcDbLine
 10
484.0
 20
474.0000000000001
 30
0.0
 11
584.0
 21
474.0
 31
0.0
  0
LINE
  5
5F
330
1E
100
AcDbEntity
  8
VOLL
100
AcDbLine
 10
484.0
 20
514.0000000000001
 30
0.0
 11
584.0
 21
514.0
 31
0.0
  0
LINE
  5
60
330
1E
100
AcDbEntity
  8
VOLL
100
AcDbLine
 10
484.0
 20
534.0000000000001
 30
0.0
 11
584.0
 21
534.0
 31
0.0
  0
LINE
  5
61
330
1E
100
AcDbEntity
  8
VOLL
100
AcDbLine
 10
514.0
 20
574.0000000000001
 30
0.0
 11
554.0
 21
574.0000000000001
 31
0.0
  0
LINE
  5
62
330
1E
100
AcDbEntity
  8
VOLL
100
AcDbLine
 10
484.0000000000002
 20
600.0
 30
0.0
 11
554.0
 21
600.0
 31
0.0
  0
LINE
  5
63
330
1E
100
AcDbEntity
  8
HILF
100
AcDbLine
 10
494.0
 20
460.0000000000001
 30
0.0
 11
494.0
 21
556.0000000000001
 31
0.0
  0
LINE
  5
64
330
1E
100
AcDbEntity
  8
HILF
100
AcDbLine
 10
504.0
 20
460.0000000000001
 30
0.0
 11
504.0
 21
556.0000000000001
 31
0.0
  0
LINE
  5
65
330
1E
100
AcDbEntity
  8
HILF
100
AcDbLine
 10
514.0
 20
460.0000000000001
 30
0.0
 11
514.0
 21
556.0000000000001
 31
0.0
  0
LINE
  5
66
330
1E
100
AcDbEntity
  8
HILF
100
AcDbLine
 10
524.0
 20
460.0000000000001
 30
0.0
 11
524.0
 21
556.0000000000001
 31
0.0
  0
LINE
  5
67
330
1E
100
AcDbEntity
  8
HILF
100
AcDbLine
 10
534.0
 20
460.0000000000001
 30
0.0
 11
534.0
 21
556.0000000000001
 31
0.0
  0
LINE
  5
68
330
1E
100
AcDbEntity
  8
HILF
100
AcDbLine
 10
544.0
 20
460.0000000000001
 30
0.0
 11
544.0
 21
556.0000000000001
 31
0.0
  0
LINE
  5
69
330
1E
100
AcDbEntity
  8
HILF
100
AcDbLine
 10
554.0
 20
460.0000000000001
 30
0.0
 11
554.0
 21
556.0000000000001
 31
0.0
  0
LINE
  5
6A
330
1E
100
AcDbEntity
  8
HILF
100
AcDbLine
 10
524.0
 20
556.0000000000001
 30
0.0
 11
524.0
 21
640.0
 31
0.0
  0
LINE
  5
6B
330
1E
100
AcDbEntity
  8
HILF
100
AcDbLine
 10
534.0
 20
556.0000000000001
 30
0.0
 11
534.0
 21
640.0
 31
0.0
  0
LINE
  5
6C
330
1E
100
AcDbEntity
  8
HILF
100
AcDbLine
 10
544.0
 20
556.0000000000001
 30
0.0
 11
544.0
 21
640.0
 31
0.0
  0
LINE
  5
6D
330
1E
100
AcDbEntity
  8
HILF
100
AcDbLine
 10
509.9624175243587
 20
644.7736801096947
 30
0.0
 11
509.9624175243587
 21
744.835391655631
 31
0.0
  0
LINE
  5
6E
330
1E
100
AcDbEntity
  8
HILF
100
AcDbLine
 10
524.0
 20
644.7736801096947
 30
0.0
 11
524.0
 21
744.8353916556309
 31
0.0
  0
LINE
  5
6F
330
1E
100
AcDbEntity
  8
HILF
100
AcDbLine
 10
534.0
 20
644.7736801096947
 30
0.0
 11
534.0
 21
744.8353916556309
 31
0.0
  0
LINE
  5
70
330
1E
100
AcDbEntity
  8
HILF
100
AcDbLine
 10
544.0
 20
644.7736801096947
 30
0.0
 11
544.0
 21
744.8353916556309
 31
0.0
  0
LINE
  5
71
330
1E
100
AcDbEntity
  8
VOLL
100
AcDbLine
 10
534.0
 20
752.0
 30
0.0
 11
534.0
 21
830.0
 31
0.0
  0
LINE
  5
72
330
1E
100
AcDbEntity
  8
HILF
100
AcDbLine
 10
510.2201636304417
 20
756.7238616296992
 30
0.0
 11
510.2201636304417
 21
824.8588839326728
 31
0.0
  0
LINE
  5
73
330
1E
100
AcDbEntity
  8
HILF
100
AcDbLine
 10
579.1060174197168
 20
643.4909699289885
 30
0.0
 11
579.1060174197168
 21
824.8588839326728
 31
0.0
  0
TEXT
  5
74
330
1E
100
AcDbEntity
  8
TEXT
100
AcDbText
 10
575.3261810501585
 20
483.8616597963182
 30
0.0
 40
4.0
  1
Änderung
 50
90.0
 41
0.8
  7
GREEKS
 72
     1
 11
575.3261810501585
 21
494.6045169391753
 31
0.0
100
AcDbText
  0
TEXT
  5
75
330
1E
100
AcDbEntity
  8
TEXT
100
AcDbText
 10
491.537910491291
 20
563.5163572150377
 30
0.0
 40
5.0
  1
Maßstab
 50
90.0
 41
0.8
  7
GREEKS
100
AcDbText
  0
TEXT
  5
76
330
1E
100
AcDbEntity
  8
TEXT
100
AcDbText
 10
491.581583156518
 20
604.2858954734051
 30
0.0
 40
5.0
  1
Zul. Abw.
 50
90.0
 41
0.8
  7
GREEKS
100
AcDbText
  0
TEXT
  5
77
330
1E
100
AcDbEntity
  8
TEXT
100
AcDbText
 10
491.4510671988221
 20
644.877940380901
 30
0.0
 40
5.0
  1
Benennung
 50
90.0
 41
0.8
  7
GREEKS
100
AcDbText
  0
TEXT
  5
78
330
1E
100
AcDbEntity
  8
TEXT
100
AcDbText
 10
491.6867965462863
 20
756.178754957634
 30
0.0
 40
5.0
  1
Zeichnungs Nr.
 50
90.0
 41
0.8
  7
GREEKS
100
AcDbText
  0
TEXT
  5
79
330
1E
100
AcDbEntity
  8
TEXT
100
AcDbText
 10
563.1543942980693
 20
644.742238391136
 30
0.0
 40
5.0
  1
Bauvorhaben
 50
90.0
 41
0.8
  7
GREEKS
100
AcDbText
  0
TEXT
  5
7A
330
1E
100
AcDbEntity
  8
TEXT
100
AcDbText
 10
520.8188176290002
 20
756.7238616296992
 30
0.0
 40
5.0
  1
Ersatz für:
 50
90.0
 41
0.8
  7
GREEKS
100
AcDbText
  0
TEXT
  5
7B
330
1E
100
AcDbEntity
  8
TEXT
100
AcDbText
 10
580.345341539728
 20
468.2664110704576
 30
0.0
 40
4.0
  1
Index
 50
180.0
 41
0.8
  7
GREEKS
100
AcDbText
  0
TEXT
  5
7C
330
1E
100
AcDbEntity
  8
TEXT
100
AcDbText
 10
575.3284373066019
 20
520.0934676075481
 30
0.0
 40
4.0
  1
Tag
 50
90.0
 41
0.8
  7
GREEKS
 72
     1
 11
575.3284373066019
 21
523.8268009408813
 31
0.0
100
AcDbText
  0
TEXT
  5
7D
330
1E
100
AcDbEntity
  8
TEXT
100
AcDbText
 10
575.4067578303359
 20
539.0122744386594
 30
0.0
 40
4.0
  1
Name
 50
90.0
 41
0.8
  7
GREEKS
 72
     1
 11
575.4067578303359
 21
545.3360839624687
 31
0.0
100
AcDbText
  0
TEXT
  5
7E
330
1E
100
AcDbEntity
  8
TEXT
100
AcDbText
 10
520.6811949877008
 20
582.331167315365
 30
0.0
 40
4.0
  1
Tag
 50
90.0
 41
0.8
  7
GREEKS
100
AcDbText
  0
TEXT
  5
7F
330
1E
100
AcDbEntity
  8
TEXT
100
AcDbText
 10
520.6903890808478
 20
612.4626584226295
 30
0.0
 40
4.0
  1
Name
 50
90.0
 41
0.8
  7
GREEKS
100
AcDbText
  0
TEXT
  5
80
330
1E
100
AcDbEntity
  8
TEXT
100
AcDbText
 10
530.3700963038204
 20
557.5836127167615
 30
0.0
 40
4.0
  1
Gez.
 50
90.0
 41
0.8
  7
GREEKS
100
AcDbText
  0
TEXT
  5
81
330
1E
100
AcDbEntity
  8
TEXT
100
AcDbText
 10
540.3107370857163
 20
557.5515086571672
 30
0.0
 40
4.0
  1
Gepr.
 50
90.0
 41
0.8
  7
GREEKS
100
AcDbText
  0
TEXT
  5
82
330
1E
100
AcDbEntity
  8
TEXT
100
AcDbText
 10
550.4705361035019
 20
557.6006777387304
 30
0.0
 40
4.0
  1
Norm.
 50
90.0
 41
0.8
  7
GREEKS
100
AcDbText
  0
TEXT
  5
84
330
1E
100
AcDbEntity
  8
TEXT
100
AcDbText
 10
541.925838221214
 20
757.2400861497006
 30
0.0
 40
5.0
  1
ersetzt durch:
 50
90.0
 41
0.8
  7
GREEKS
100
AcDbText
  0
TEXT
  5
8D
330
1E
100
AcDbEntity
  8
TEXT
100
AcDbText
 10
520.8597452884832
 20
558.622109822104
 30
0.0
 40
4.0
  1
2012
 50
90.0
 41
0.8
  7
GREEKS
100
AcDbText
  0
TEXT
  5
8F
330
1E
100
AcDbEntity
  8
VOLL
100
AcDbText
 10
78.07675471698113
 20
31.02594776470585
 30
0.0
 40
1.8
  1

  7
GREEKS
100
AcDbText
  0
TEXT
  5
90
330
1E
100
AcDbEntity
  8
TEXT
100
AcDbText
 10
482.3279999999999
 20
461.8550995097767
 30
0.0
 40
5.0
  1
Erstellt mit AUTOCAD 2004
 50
90.0
 41
0.8
  7
GREEKS
100
AcDbText
  0
TEXT
  5
91
330
1E
100
AcDbEntity
  8
TEXT
100
AcDbText
 10
530.9103608027649
 20
614.4216048581257
 30
0.0
 40
4.0
  1
Koeh
 50
90.0
 41
0.8
  7
GREEKS
 72
     1
 11
530.9103608027649
 21
619.6787477152686
 31
0.0
100
AcDbText
  0
TEXT
  5
92
330
1E
100
AcDbEntity
  8
TEXT
 62
     1
100
AcDbText
 10
505.8509857108604
 20
765.7721576428681
 30
0.0
 40
7.0
  1
00976300W
 50
90.0
 41
0.8
  7
GREEKS
 72
     1
 11
505.8509857108604
 21
789.7721576428681
 31
0.0
100
AcDbText
  0
TEXT
  5
93
330
1E
100
AcDbEntity
  8
TEXT
 62
     1
100
AcDbText
 10
505.8509857108604
 20
570.5006306481887
 30
0.0
 40
7.0
  1
1:2
 50
90.0
 41
0.8
  7
GREEKS
100
AcDbText
  0
TEXT
  5
94
330
1E
100
AcDbEntity
  8
TEXT
100
AcDbText
 10
530.8923495917427
 20
580.703759012998
 30
0.0
 40
4.0
  1
29.10.
 50
90.0
 41
0.8
  7
GREEKS
 72
     1
 11
530.8923495917427
 21
587.4085209177599
 31
0.0
100
AcDbText
  0
TEXT
  5
95
330
1E
100
AcDbEntity
  8
TEXT
 62
     1
100
AcDbText
 10
506.5825121074622
 20
646.8935731057402
 30
0.0
 40
7.0
  1
Rohrschelle DN300
 50
90.0
 41
0.8
  7
GREEKS
100
AcDbText
  0
TEXT
  5
96
330
1E
100
AcDbEntity
  8
TEXT
100
AcDbText
 10
522.4966558241471
 20
645.1296391125315
 30
0.0
 40
5.0
  1
mit Anschlußgewinde M12
 50
90.0
 41
0.8
  7
GREEKS
100
AcDbText
  0
TEXT
  5
98
330
1E
100
AcDbEntity
  8
TEXT
100
AcDbText
 10
542.3598805695783
 20
645.1296391125315
 30
0.0
 40
5.0
  1
EDV-Art.Nr. 00976.300X
 50
90.0
 41
0.8
  7
GREEKS
100
AcDbText
  0
TEXT
  5
99
330
1E
100
AcDbEntity
  8
TEXT
100
AcDbText
 10
551.3702584697737
 20
644.9837501577826
 30
0.0
 40
4.0
  1
00976300W.DWG
 50
90.0
 41
0.8
  7
GREEKS
100
AcDbText
  0
TEXT
  5
9A
330
1E
100
AcDbEntity
  8
TEXT
100
AcDbText
 10
503.2363615897698
 20
602.626132208084
 30
0.0
 40
4.0
  1
DIN EN1123-2
 50
90.0
 41
0.8
  7
GREEKS
 72
     1
 11
503.2363615897698
 21
619.6166083985603
 31
0.0
100
AcDbText
  0
INSERT
  5
9B
330
1E
100
AcDbEntity
  8
STEMPEL
100
AcDbBlockReference
  2
LOGO
 10
548.9789472355169
 20
560.9955485457795
 30
0.0
 41
2.0
 42
2.0
 43
2.0
 50
90.0
  0
TEXT
  5
7BF
330
1E
100
AcDbEntity
  8
TEXT
 62
     1
100
AcDbText
 10
271.5350936894406
 20
332.3382846093163
 30
0.0
 40
7.0
  1
M12
 41
0.8
  7
GREEKS
100
AcDbText
  0
LINE
  5
7C0
330
1E
100
AcDbEntity
  8
TEXT
 62
     2
100
AcDbLine
 10
269.4152006933951
 20
328.9583791924199
 30
0.0
 11
286.5601208817638
 21
328.9583791924199
 31
0.0
  0
LINE
  5
7C1
330
1E
100
AcDbEntity
  8
TEXT
 62
     2
100
AcDbLine
 10
269.4152006933951
 20
328.9583791924199
 30
0.0
 11
260.9579250692389
 21
350.9765807046345
 31
0.0
  0
TEXT
  5
1137
330
1E
100
AcDbEntity
  8
TEXT
 62
     1
100
AcDbText
 10
384.1226558325788
 20
696.3365888361651
 30
0.0
 40
7.0
  1
Schraube M8x30
 41
0.8
  7
GREEKS
100
AcDbText
  0
LINE
  5
1138
330
1E
100
AcDbEntity
  8
TEXT
 62
     2
100
AcDbLine
 10
382.0027628365333
 20
692.9566834192688
 30
0.0
 11
457.0044446541637
 21
692.9566834192688
 31
0.0
  0
LINE
  5
1139
330
1E
100
AcDbEntity
  8
TEXT
 62
     2
100
AcDbLine
 10
457.0044446541637
 20
692.9566834192688
 30
0.0
 11
450.9574561091255
 21
547.6634115360649
 31
0.0
  0
LINE
  5
2B11
330
1E
100
AcDbEntity
  8
HILF
100
AcDbLine
 10
594.0
 20
-0.0000000000000568
 30
0.0
 11
594.0
 21
840.0
 31
0.0
  0
LINE
  5
2B12
330
1E
100
AcDbEntity
  8
HILF
100
AcDbLine
 10
594.0
 20
840.0
 30
0.0
 11
0.0
 21
840.0
 31
0.0
  0
LINE
  5
2B13
330
1E
100
AcDbEntity
  8
HILF
100
AcDbLine
 10
0.0
 20
840.0
 30
0.0
 11
0.0
 21
0.0
 31
0.0
  0
LINE
  5
2B14
330
1E
100
AcDbEntity
  8
STEMPEL
100
AcDbLine
 10
10.0
 20
830.0
 30
0.0
 11
10.0
 21
39.99999999999995
 31
0.0
  0
LINE
  5
2B15
330
1E
100
AcDbEntity
  8
STEMPEL
100
AcDbLine
 10
584.0
 20
39.99999999999995
 30
0.0
 11
584.0
 21
830.0
 31
0.0
  0
LINE
  5
2B16
330
1E
100
AcDbEntity
  8
STEMPEL
100
AcDbLine
 10
584.0
 20
830.0
 30
0.0
 11
10.0
 21
830.0
 31
0.0
  0
LINE
  5
2B23
330
1E
100
AcDbEntity
  8
BEM
100
AcDbLine
 10
594.0
 20
455.9999999999999
 30
0.0
 11
584.0
 21
455.9999999999999
 31
0.0
  0
LINE
  5
2B24
330
1E
100
AcDbEntity
  8
HILF
100
AcDbLine
 10
594.0
 20
-0.0000000000000568
 30
0.0
 11
0.0
 21
0.0
 31
0.0
  0
LINE
  5
2B25
330
1E
100
AcDbEntity
  8
STEMPEL
100
AcDbLine
 10
584.0
 20
39.99999999999995
 30
0.0
 11
10.0
 21
39.99999999999995
 31
0.0
  0
LINE
  5
2B26
330
1E
100
AcDbEntity
  8
HILF
100
AcDbLine
 10
297.0
 20
-0.0000000000000568
 30
0.0
 11
297.0
 21
39.99999999999995
 31
0.0
  0
TEXT
  5
2B27
330
1E
100
AcDbEntity
  8
BEM
100
AcDbText
 10
583.8320989200114
 20
837.3022923857165
 30
0.0
 40
4.0
  1
Diese Zeichnung ist urheberrechtlich geschützt und bleibt unser Eigentum. Sie darf weder ganz noch teilweise verfielfältigt und nicht an Dritte weitergegeben werden.
 50
180.0
 41
0.8
  7
GREEKS
100
AcDbText
  0
LINE
  5
2B28
330
1E
100
AcDbEntity
  8
STEMPEL
100
AcDbLine
 10
484.0
 20
460.0
 30
0.0
 11
584.0
 21
460.0
 31
0.0
  0
LINE
  5
2D65
330
1E
100
AcDbEntity
  8
HILF
100
AcDbLine
 10
444.4017807388122
 20
514.9536604636401
 30
0.0
 11
444.4017807388122
 21
532.9536604636401
 31
0.0
  0
LINE
  5
2D66
330
1E
100
AcDbEntity
  8
HILF
100
AcDbLine
 10
450.9017807388122
 20
514.9536604636401
 30
0.0
 11
450.9017807388122
 21
532.9536604636401
 31
0.0
  0
LINE
  5
2D67
330
1E
100
AcDbEntity
  8
STEMPEL
100
AcDbLine
 10
451.6517807388122
 20
515.7036604636402
 30
0.0
 11
443.6517807388122
 21
515.7036604636402
 31
0.0
  0
LINE
  5
2D68
330
1E
100
AcDbEntity
  8
HILF
100
AcDbLine
 10
444.4017807388122
 20
540.7036604636402
 30
0.0
 11
444.4017807388122
 21
541.9536604636402
 31
0.0
  0
LINE
  5
2D69
330
1E
100
AcDbEntity
  8
HILF
100
AcDbLine
 10
444.4017807388122
 20
538.9536604636401
 30
0.0
 11
444.4017807388122
 21
540.2036604636402
 31
0.0
  0
LINE
  5
2D6A
330
1E
100
AcDbEntity
  8
HILF
100
AcDbLine
 10
450.9017807388122
 20
540.7036604636402
 30
0.0
 11
450.9017807388122
 21
541.9536604636402
 31
0.0
  0
LINE
  5
2D6B
330
1E
100
AcDbEntity
  8
HILF
100
AcDbLine
 10
450.9017807388122
 20
538.9536604636401
 30
0.0
 11
450.9017807388122
 21
540.2036604636402
 31
0.0
  0
LINE
  5
2D6C
330
1E
100
AcDbEntity
  8
STEMPEL
100
AcDbLine
 10
443.6517807388122
 20
540.7036604636402
 30
0.0
 11
443.6517807388122
 21
541.9536604636402
 31
0.0
  0
LINE
  5
2D6D
330
1E
100
AcDbEntity
  8
STEMPEL
100
AcDbLine
 10
443.6517807388122
 20
538.9536604636401
 30
0.0
 11
443.6517807388122
 21
540.2036604636402
 31
0.0
  0
LINE
  5
2D6E
330
1E
100
AcDbEntity
  8
STEMPEL
100
AcDbLine
 10
451.6517807388122
 20
540.2036604636402
 30
0.0
 11
451.6517807388122
 21
538.9536604636401
 31
0.0
  0
LINE
  5
2D6F
330
1E
100
AcDbEntity
  8
STEMPEL
100
AcDbLine
 10
451.6517807388122
 20
541.9536604636402
 30
0.0
 11
451.6517807388122
 21
540.7036604636402
 31
0.0
  0
ARC
  5
2D70
330
1E
100
AcDbEntity
  8
STEMPEL
100
AcDbCircle
 10
447.6517807388122
 20
539.0956604636401
 30
0.0
 40
11.158
100
AcDbArc
 50
95.91552076699704
 51
109.652859632001
  0
ARC
  5
2D71
330
1E
100
AcDbEntity
  8
STEMPEL
100
AcDbCircle
 10
447.6517807388122
 20
539.0956604636401
 30
0.0
 40
11.158
100
AcDbArc
 50
70.34714036799893
 51
84.08447923300299
  0
LINE
  5
2D72
330
1E
100
AcDbEntity
  8
STEMPEL
100
AcDbLine
 10
446.5017807388123
 20
550.2536604636401
 30
0.0
 11
442.0227807388123
 21
550.2536604636401
 31
0.0
  0
LINE
  5
2D73
330
1E
100
AcDbEntity
  8
STEMPEL
100
AcDbLine
 10
446.5017807388123
 20
547.7536604636401
 30
0.0
 11
446.5017807388123
 21
550.2536604636401
 31
0.0
  0
LINE
  5
2D74
330
1E
100
AcDbEntity
  8
STEMPEL
100
AcDbLine
 10
448.8017807388123
 20
547.7536604636401
 30
0.0
 11
446.5017807388123
 21
547.7536604636401
 31
0.0
  0
LINE
  5
2D75
330
1E
100
AcDbEntity
  8
STEMPEL
100
AcDbLine
 10
448.8017807388123
 20
550.2536604636401
 30
0.0
 11
448.8017807388123
 21
547.7536604636401
 31
0.0
  0
LINE
  5
2D76
330
1E
100
AcDbEntity
  8
STEMPEL
100
AcDbLine
 10
453.2807807388123
 20
550.2536604636401
 30
0.0
 11
448.8017807388123
 21
550.2536604636401
 31
0.0
  0
LINE
  5
2D77
330
1E
100
AcDbEntity
  8
STEMPEL
100
AcDbLine
 10
443.6517807388122
 20
515.7036604636402
 30
0.0
 11
443.6517807388122
 21
532.9536604636401
 31
0.0
  0
LINE
  5
2D78
330
1E
100
AcDbEntity
  8
STEMPEL
100
AcDbLine
 10
444.4017807388122
 20
514.9536604636401
 30
0.0
 11
443.6517807388122
 21
515.7036604636402
 31
0.0
  0
LINE
  5
2D79
330
1E
100
AcDbEntity
  8
STEMPEL
100
AcDbLine
 10
450.9017807388122
 20
514.9536604636401
 30
0.0
 11
444.4017807388122
 21
514.9536604636401
 31
0.0
  0
LINE
  5
2D7A
330
1E
100
AcDbEntity
  8
STEMPEL
100
AcDbLine
 10
451.6517807388122
 20
515.7036604636402
 30
0.0
 11
450.9017807388122
 21
514.9536604636401
 31
0.0
  0
LINE
  5
2D7B
330
1E
100
AcDbEntity
  8
STEMPEL
100
AcDbLine
 10
451.6517807388122
 20
532.9536604636401
 30
0.0
 11
451.6517807388122
 21
515.7036604636402
 31
0.0
  0
LINE
  5
2D7C
330
1E
100
AcDbEntity
  8
STEMPEL
100
AcDbLine
 10
451.4047807388124
 20
549.6036604636401
 30
0.0
 11
451.4047807388124
 21
544.9536604636401
 31
0.0
  0
ARC
  5
2D7D
330
1E
100
AcDbEntity
  8
STEMPEL
100
AcDbCircle
 10
453.2807807388123
 20
547.2206604636401
 30
0.0
 40
3.032999999999999
100
AcDbArc
 50
90.0
 51
128.2132107019977
  0
ARC
  5
2D7E
330
1E
100
AcDbEntity
  8
STEMPEL
100
AcDbCircle
 10
453.2807807388123
 20
547.2206604636401
 30
0.0
 40
3.032999999999999
100
AcDbArc
 50
51.78678929800229
 51
90.0
  0
LINE
  5
2D7F
330
1E
100
AcDbEntity
  8
STEMPEL
100
AcDbLine
 10
455.1567807388123
 20
544.9536604636401
 30
0.0
 11
455.1567807388123
 21
549.6036604636401
 31
0.0
  0
LINE
  5
2D80
330
1E
100
AcDbEntity
  8
STEMPEL
100
AcDbLine
 10
452.0517807388123
 20
544.9536604636401
 30
0.0
 11
455.1567807388123
 21
544.9536604636401
 31
0.0
  0
LINE
  5
2D81
330
1E
100
AcDbEntity
  8
STEMPEL
100
AcDbLine
 10
443.2517807388124
 20
544.9536604636401
 30
0.0
 11
452.0517807388123
 21
544.9536604636401
 31
0.0
  0
LINE
  5
2D82
330
1E
100
AcDbEntity
  8
STEMPEL
100
AcDbLine
 10
440.1457807388124
 20
544.9536604636401
 30
0.0
 11
443.2517807388124
 21
544.9536604636401
 31
0.0
  0
LINE
  5
2D83
330
1E
100
AcDbEntity
  8
STEMPEL
100
AcDbLine
 10
440.1457807388124
 20
549.6036604636401
 30
0.0
 11
440.1457807388124
 21
544.9536604636401
 31
0.0
  0
ARC
  5
2D84
330
1E
100
AcDbEntity
  8
STEMPEL
100
AcDbCircle
 10
442.0227807388123
 20
547.2206604636401
 30
0.0
 40
3.032999999999999
100
AcDbArc
 50
90.0
 51
128.2132107019977
  0
ARC
  5
2D85
330
1E
100
AcDbEntity
  8
STEMPEL
100
AcDbCircle
 10
442.0227807388123
 20
547.2206604636401
 30
0.0
 40
3.032999999999999
100
AcDbArc
 50
51.78678929800229
 51
90.0
  0
LINE
  5
2D86
330
1E
100
AcDbEntity
  8
STEMPEL
100
AcDbLine
 10
443.8987807388123
 20
544.9536604636401
 30
0.0
 11
443.8987807388123
 21
549.6036604636401
 31
0.0
  0
LINE
  5
2D87
330
1E
100
AcDbEntity
  8
HILF
100
AcDbLine
 10
71.41578073881237
 20
514.9536604636401
 30
0.0
 11
71.41578073881237
 21
532.9536604636401
 31
0.0
  0
LINE
  5
2D88
330
1E
100
AcDbEntity
  8
HILF
100
AcDbLine
 10
77.91578073881237
 20
514.9536604636401
 30
0.0
 11
77.91578073881237
 21
532.9536604636401
 31
0.0
  0
LINE
  5
2D89
330
1E
100
AcDbEntity
  8
STEMPEL
100
AcDbLine
 10
78.66578073881237
 20
515.7036604636402
 30
0.0
 11
70.66578073881237
 21
515.7036604636402
 31
0.0
  0
LINE
  5
2D8A
330
1E
100
AcDbEntity
  8
HILF
100
AcDbLine
 10
71.41578073881237
 20
540.7036604636402
 30
0.0
 11
71.41578073881237
 21
541.9536604636402
 31
0.0
  0
LINE
  5
2D8B
330
1E
100
AcDbEntity
  8
HILF
100
AcDbLine
 10
71.41578073881237
 20
538.9536604636401
 30
0.0
 11
71.41578073881237
 21
540.2036604636402
 31
0.0
  0
LINE
  5
2D8C
330
1E
100
AcDbEntity
  8
HILF
100
AcDbLine
 10
77.91578073881237
 20
540.7036604636402
 30
0.0
 11
77.91578073881237
 21
541.9536604636402
 31
0.0
  0
LINE
  5
2D8D
330
1E
100
AcDbEntity
  8
HILF
100
AcDbLine
 10
77.91578073881237
 20
538.9536604636401
 30
0.0
 11
77.91578073881237
 21
540.2036604636402
 31
0.0
  0
LINE
  5
2D8E
330
1E
100
AcDbEntity
  8
STEMPEL
100
AcDbLine
 10
70.66578073881237
 20
540.7036604636402
 30
0.0
 11
70.66578073881237
 21
541.9536604636402
 31
0.0
  0
LINE
  5
2D8F
330
1E
100
AcDbEntity
  8
STEMPEL
100
AcDbLine
 10
70.66578073881237
 20
538.9536604636401
 30
0.0
 11
70.66578073881237
 21
540.2036604636402
 31
0.0
  0
LINE
  5
2D90
330
1E
100
AcDbEntity
  8
STEMPEL
100
AcDbLine
 10
78.66578073881237
 20
540.2036604636402
 30
0.0
 11
78.66578073881237
 21
538.9536604636401
 31
0.0
  0
LINE
  5
2D91
330
1E
100
AcDbEntity
  8
STEMPEL
100
AcDbLine
 10
78.66578073881237
 20
541.9536604636402
 30
0.0
 11
78.66578073881237
 21
540.7036604636402
 31
0.0
  0
ARC
  5
2D92
330
1E
100
AcDbEntity
  8
STEMPEL
100
AcDbCircle
 10
74.66578073881237
 20
539.0956604636401
 30
0.0
 40
11.158
100
AcDbArc
 50
95.91552076699704
 51
109.652859632001
  0
ARC
  5
2D93
330
1E
100
AcDbEntity
  8
STEMPEL
100
AcDbCircle
 10
74.66578073881237
 20
539.0956604636401
 30
0.0
 40
11.158
100
AcDbArc
 50
70.34714036799893
 51
84.08447923300299
  0
LINE
  5
2D94
330
1E
100
AcDbEntity
  8
STEMPEL
100
AcDbLine
 10
73.51578073881228
 20
550.2536604636401
 30
0.0
 11
69.03678073881235
 21
550.2536604636401
 31
0.0
  0
LINE
  5
2D95
330
1E
100
AcDbEntity
  8
STEMPEL
100
AcDbLine
 10
73.51578073881228
 20
547.7536604636401
 30
0.0
 11
73.51578073881228
 21
550.2536604636401
 31
0.0
  0
LINE
  5
2D96
330
1E
100
AcDbEntity
  8
STEMPEL
100
AcDbLine
 10
75.81578073881235
 20
547.7536604636401
 30
0.0
 11
73.51578073881228
 21
547.7536604636401
 31
0.0
  0
LINE
  5
2D97
330
1E
100
AcDbEntity
  8
STEMPEL
100
AcDbLine
 10
75.81578073881235
 20
550.2536604636401
 30
0.0
 11
75.81578073881235
 21
547.7536604636401
 31
0.0
  0
LINE
  5
2D98
330
1E
100
AcDbEntity
  8
STEMPEL
100
AcDbLine
 10
80.29478073881227
 20
550.2536604636401
 30
0.0
 11
75.81578073881235
 21
550.2536604636401
 31
0.0
  0
LINE
  5
2D99
330
1E
100
AcDbEntity
  8
STEMPEL
100
AcDbLine
 10
70.66578073881237
 20
515.7036604636402
 30
0.0
 11
70.66578073881237
 21
532.9536604636401
 31
0.0
  0
LINE
  5
2D9A
330
1E
100
AcDbEntity
  8
STEMPEL
100
AcDbLine
 10
71.41578073881237
 20
514.9536604636401
 30
0.0
 11
70.66578073881237
 21
515.7036604636402
 31
0.0
  0
LINE
  5
2D9B
330
1E
100
AcDbEntity
  8
STEMPEL
100
AcDbLine
 10
77.91578073881237
 20
514.9536604636401
 30
0.0
 11
71.41578073881237
 21
514.9536604636401
 31
0.0
  0
LINE
  5
2D9C
330
1E
100
AcDbEntity
  8
STEMPEL
100
AcDbLine
 10
78.66578073881237
 20
515.7036604636402
 30
0.0
 11
77.91578073881237
 21
514.9536604636401
 31
0.0
  0
LINE
  5
2D9D
330
1E
100
AcDbEntity
  8
STEMPEL
100
AcDbLine
 10
78.66578073881237
 20
532.9536604636401
 30
0.0
 11
78.66578073881237
 21
515.7036604636402
 31
0.0
  0
LINE
  5
2D9E
330
1E
100
AcDbEntity
  8
STEMPEL
100
AcDbLine
 10
78.4187807388123
 20
549.6036604636401
 30
0.0
 11
78.4187807388123
 21
544.9536604636401
 31
0.0
  0
ARC
  5
2D9F
330
1E
100
AcDbEntity
  8
STEMPEL
100
AcDbCircle
 10
80.29478073881227
 20
547.2206604636401
 30
0.0
 40
3.032999999999999
100
AcDbArc
 50
90.0
 51
128.2132107019977
  0
ARC
  5
2DA0
330
1E
100
AcDbEntity
  8
STEMPEL
100
AcDbCircle
 10
80.29478073881227
 20
547.2206604636401
 30
0.0
 40
3.032999999999999
100
AcDbArc
 50
51.78678929800229
 51
90.0
  0
LINE
  5
2DA1
330
1E
100
AcDbEntity
  8
STEMPEL
100
AcDbLine
 10
82.17178073881234
 20
544.9536604636401
 30
0.0
 11
82.17178073881234
 21
549.6036604636401
 31
0.0
  0
LINE
  5
2DA2
330
1E
100
AcDbEntity
  8
STEMPEL
100
AcDbLine
 10
79.06578073881235
 20
544.9536604636401
 30
0.0
 11
82.17178073881234
 21
544.9536604636401
 31
0.0
  0
LINE
  5
2DA3
330
1E
100
AcDbEntity
  8
STEMPEL
100
AcDbLine
 10
70.26578073881228
 20
544.9536604636401
 30
0.0
 11
79.06578073881235
 21
544.9536604636401
 31
0.0
  0
LINE
  5
2DA4
330
1E
100
AcDbEntity
  8
STEMPEL
100
AcDbLine
 10
67.16078073881238
 20
544.9536604636401
 30
0.0
 11
70.26578073881228
 21
544.9536604636401
 31
0.0
  0
LINE
  5
2DA5
330
1E
100
AcDbEntity
  8
STEMPEL
100
AcDbLine
 10
67.16078073881238
 20
549.6036604636401
 30
0.0
 11
67.16078073881238
 21
544.9536604636401
 31
0.0
  0
ARC
  5
2DA6
330
1E
100
AcDbEntity
  8
STEMPEL
100
AcDbCircle
 10
69.03678073881235
 20
547.2206604636401
 30
0.0
 40
3.032999999999999
100
AcDbArc
 50
90.0
 51
128.2132107019977
  0
ARC
  5
2DA7
330
1E
100
AcDbEntity
  8
STEMPEL
100
AcDbCircle
 10
69.03678073881235
 20
547.2206604636401
 30
0.0
 40
3.032999999999999
100
AcDbArc
 50
51.78678929800229
 51
90.0
  0
LINE
  5
2DA8
330
1E
100
AcDbEntity
  8
STEMPEL
100
AcDbLine
 10
70.9137807388123
 20
544.9536604636401
 30
0.0
 11
70.9137807388123
 21
549.6036604636401
 31
0.0
  0
LINE
  5
2DAC
330
1E
100
AcDbEntity
  8
STEMPEL
100
AcDbLine
 10
440.4017807388122
 20
540.7036604636402
 30
0.0
 11
440.4017807388122
 21
540.2036604636402
 31
0.0
  0
LINE
  5
2DAD
330
1E
100
AcDbEntity
  8
STEMPEL
100
AcDbLine
 10
454.9017807388122
 20
540.7036604636402
 30
0.0
 11
440.4017807388122
 21
540.7036604636402
 31
0.0
  0
LINE
  5
2DAE
330
1E
100
AcDbEntity
  8
STEMPEL
100
AcDbLine
 10
454.9017807388122
 20
540.2036604636402
 30
0.0
 11
454.9017807388122
 21
540.7036604636402
 31
0.0
  0
LINE
  5
2DAF
330
1E
100
AcDbEntity
  8
STEMPEL
100
AcDbLine
 10
440.4017807388122
 20
540.2036604636402
 30
0.0
 11
454.9017807388122
 21
540.2036604636402
 31
0.0
  0
LINE
  5
2DB0
330
1E
100
AcDbEntity
  8
STEMPEL
100
AcDbLine
 10
67.41578073881237
 20
540.7036604636402
 30
0.0
 11
67.41578073881237
 21
540.2036604636402
 31
0.0
  0
LINE
  5
2DB1
330
1E
100
AcDbEntity
  8
STEMPEL
100
AcDbLine
 10
81.91578073881236
 20
540.7036604636402
 30
0.0
 11
67.41578073881237
 21
540.7036604636402
 31
0.0
  0
LINE
  5
2DB2
330
1E
100
AcDbEntity
  8
STEMPEL
100
AcDbLine
 10
81.91578073881236
 20
540.2036604636402
 30
0.0
 11
81.91578073881236
 21
540.7036604636402
 31
0.0
  0
LINE
  5
2DB3
330
1E
100
AcDbEntity
  8
STEMPEL
100
AcDbLine
 10
67.41578073881237
 20
540.2036604636402
 30
0.0
 11
81.91578073881236
 21
540.2036604636402
 31
0.0
  0
LINE
  5
2DB4
330
1E
100
AcDbEntity
  8
HILF
100
AcDbLine
 10
88.29078073881237
 20
244.4797956452983
 30
0.0
 11
88.29078073881237
 21
220.4797956452983
 31
0.0
  0
LINE
  5
2DB5
330
1E
100
AcDbEntity
  8
HILF
100
AcDbLine
 10
433.9987807388125
 20
244.4797956452983
 30
0.0
 11
433.9987807388125
 21
220.4797956452983
 31
0.0
  0
LINE
  5
2DB6
330
1E
100
AcDbEntity
  8
STEMPEL
100
AcDbLine
 10
72.97978073881234
 20
225.9797956452983
 30
0.0
 11
72.97978073881234
 21
238.9797956452983
 31
0.0
  0
LINE
  5
2DB7
330
1E
100
AcDbEntity
  8
STEMPEL
100
AcDbLine
 10
75.27978073881229
 20
225.9797956452983
 30
0.0
 11
75.27978073881229
 21
238.9797956452983
 31
0.0
  0
ARC
  5
2DB8
330
1E
100
AcDbEntity
  8
STEMPEL
100
AcDbCircle
 10
74.12978073881231
 20
232.4797956452983
 30
0.0
 40
6.5
100
AcDbArc
 50
280.1905887679999
 51
79.80941123200008
  0
ARC
  5
2DB9
330
1E
100
AcDbEntity
  8
STEMPEL
100
AcDbCircle
 10
74.12978073881231
 20
232.4797956452983
 30
0.0
 40
6.5
100
AcDbArc
 50
100.1905887679999
 51
259.8094112320001
  0
LINE
  5
2DBA
330
1E
100
AcDbEntity
  8
STEMPEL
100
AcDbLine
 10
70.37678073881238
 20
225.9797956452983
 30
0.0
 11
66.62378073881234
 21
232.4797956452983
 31
0.0
  0
LINE
  5
2DBB
330
1E
100
AcDbEntity
  8
STEMPEL
100
AcDbLine
 10
77.88278073881236
 20
225.9797956452983
 30
0.0
 11
70.37678073881238
 21
225.9797956452983
 31
0.0
  0
LINE
  5
2DBC
330
1E
100
AcDbEntity
  8
STEMPEL
100
AcDbLine
 10
81.63478073881231
 20
232.4797956452983
 30
0.0
 11
77.88278073881236
 21
225.9797956452983
 31
0.0
  0
LINE
  5
2DBD
330
1E
100
AcDbEntity
  8
STEMPEL
100
AcDbLine
 10
77.88278073881236
 20
238.9797956452983
 30
0.0
 11
81.63478073881231
 21
232.4797956452983
 31
0.0
  0
LINE
  5
2DBE
330
1E
100
AcDbEntity
  8
STEMPEL
100
AcDbLine
 10
70.37678073881238
 20
238.9797956452983
 30
0.0
 11
77.88278073881236
 21
238.9797956452983
 31
0.0
  0
LINE
  5
2DBF
330
1E
100
AcDbEntity
  8
STEMPEL
100
AcDbLine
 10
66.62378073881234
 20
232.4797956452983
 30
0.0
 11
70.37678073881238
 21
238.9797956452983
 31
0.0
  0
LINE
  5
2DC0
330
1E
100
AcDbEntity
  8
STEMPEL
100
AcDbLine
 10
447.0097807388124
 20
225.9797956452983
 30
0.0
 11
447.0097807388124
 21
238.9797956452983
 31
0.0
  0
LINE
  5
2DC1
330
1E
100
AcDbEntity
  8
STEMPEL
100
AcDbLine
 10
449.3097807388124
 20
225.9797956452983
 30
0.0
 11
449.3097807388124
 21
238.9797956452983
 31
0.0
  0
ARC
  5
2DC2
330
1E
100
AcDbEntity
  8
STEMPEL
100
AcDbCircle
 10
448.1597807388125
 20
232.4797956452983
 30
0.0
 40
6.5
100
AcDbArc
 50
280.1905887679999
 51
79.80941123200008
  0
ARC
  5
2DC3
330
1E
100
AcDbEntity
  8
STEMPEL
100
AcDbCircle
 10
448.1597807388125
 20
232.4797956452983
 30
0.0
 40
6.5
100
AcDbArc
 50
100.1905887679999
 51
259.8094112320001
  0
LINE
  5
2DC4
330
1E
100
AcDbEntity
  8
STEMPEL
100
AcDbLine
 10
444.4067807388123
 20
225.9797956452983
 30
0.0
 11
440.6537807388124
 21
232.4797956452983
 31
0.0
  0
LINE
  5
2DC5
330
1E
100
AcDbEntity
  8
STEMPEL
100
AcDbLine
 10
451.9127807388124
 20
225.9797956452983
 30
0.0
 11
444.4067807388123
 21
225.9797956452983
 31
0.0
  0
LINE
  5
2DC6
330
1E
100
AcDbEntity
  8
STEMPEL
100
AcDbLine
 10
455.6647807388124
 20
232.4797956452983
 30
0.0
 11
451.9127807388124
 21
225.9797956452983
 31
0.0
  0
LINE
  5
2DC7
330
1E
100
AcDbEntity
  8
STEMPEL
100
AcDbLine
 10
451.9127807388124
 20
238.9797956452983
 30
0.0
 11
455.6647807388124
 21
232.4797956452983
 31
0.0
  0
LINE
  5
2DC8
330
1E
100
AcDbEntity
  8
STEMPEL
100
AcDbLine
 10
444.4067807388123
 20
238.9797956452983
 30
0.0
 11
451.9127807388124
 21
238.9797956452983
 31
0.0
  0
LINE
  5
2DC9
330
1E
100
AcDbEntity
  8
STEMPEL
100
AcDbLine
 10
440.6537807388124
 20
232.4797956452983
 30
0.0
 11
444.4067807388123
 21
238.9797956452983
 31
0.0
  0
LINE
  5
2DCB
330
1E
100
AcDbEntity
  8
STEMPEL
100
AcDbLine
 10
83.74578073881229
 20
256.2297956452983
 30
0.0
 11
83.74578073881229
 21
244.4797956452983
 31
0.0
  0
LINE
  5
2DCC
330
1E
100
AcDbEntity
  8
STEMPEL
100
AcDbLine
 10
438.5427807388123
 20
256.2297956452983
 30
0.0
 11
83.74578073881229
 21
256.2297956452983
 31
0.0
  0
LINE
  5
2DCD
330
1E
100
AcDbEntity
  8
STEMPEL
100
AcDbLine
 10
438.5427807388123
 20
244.4797956452983
 30
0.0
 11
438.5427807388123
 21
256.2297956452983
 31
0.0
  0
LINE
  5
2DCE
330
1E
100
AcDbEntity
  8
STEMPEL
100
AcDbLine
 10
83.74578073881229
 20
244.4797956452983
 30
0.0
 11
438.5427807388123
 21
244.4797956452983
 31
0.0
  0
LINE
  5
2DCF
330
1E
100
AcDbEntity
  8
STEMPEL
100
AcDbLine
 10
438.5427807388123
 20
208.7297956452983
 30
0.0
 11
438.5427807388123
 21
220.4797956452983
 31
0.0
  0
LINE
  5
2DD0
330
1E
100
AcDbEntity
  8
STEMPEL
100
AcDbLine
 10
83.74578073881229
 20
208.7297956452983
 30
0.0
 11
438.5427807388123
 21
208.7297956452983
 31
0.0
  0
LINE
  5
2DD1
330
1E
100
AcDbEntity
  8
STEMPEL
100
AcDbLine
 10
83.74578073881229
 20
220.4797956452983
 30
0.0
 11
83.74578073881229
 21
208.7297956452983
 31
0.0
  0
LINE
  5
2DD2
330
1E
100
AcDbEntity
  8
STEMPEL
100
AcDbLine
 10
438.5427807388123
 20
220.4797956452983
 30
0.0
 11
83.74578073881229
 21
220.4797956452983
 31
0.0
  0
LINE
  5
2DD5
330
1E
100
AcDbEntity
  8
MITTEL
100
AcDbLine
 10
448.1597807388127
 20
220.9797956452983
 30
0.0
 11
448.1597807388125
 21
243.9797956452983
 31
0.0
  0
LINE
  5
2DD7
330
1E
100
AcDbEntity
  8
MITTEL
100
AcDbLine
 10
261.1587807388124
 20
261.2297956452983
 30
0.0
 11
261.1587807388123
 21
203.7297956452983
 31
0.0
  0
LINE
  5
2DD8
330
1E
100
AcDbEntity
  8
MITTEL
100
AcDbLine
 10
464.1447807388124
 20
232.4797956452982
 30
0.0
 11
58.14478073881241
 21
232.4797956452983
 31
0.0
  0
LINE
  5
2DD9
330
1E
100
AcDbEntity
  8
STEMPEL
100
AcDbLine
 10
453.7857807388122
 20
252.4797956452983
 30
0.0
 11
438.5427807388123
 21
252.4797956452983
 31
0.0
  0
ARC
  5
2DDA
330
1E
100
AcDbEntity
  8
STEMPEL
100
AcDbCircle
 10
419.1447807388124
 20
232.4797956452983
 30
0.0
 40
40.0
100
AcDbArc
 50
329.9999999999995
 51
30.00000000000055
  0
LINE
  5
2DDB
330
1E
100
AcDbEntity
  8
STEMPEL
100
AcDbLine
 10
438.5427807388123
 20
212.4797956452983
 30
0.0
 11
453.7857807388122
 21
212.4797956452983
 31
0.0
  0
LINE
  5
2DDC
330
1E
100
AcDbEntity
  8
STEMPEL
100
AcDbLine
 10
68.50378073881234
 20
212.4797956452983
 30
0.0
 11
83.74578073881229
 21
212.4797956452983
 31
0.0
  0
ARC
  5
2DDD
330
1E
100
AcDbEntity
  8
STEMPEL
100
AcDbCircle
 10
103.1447807388123
 20
232.4797956452983
 30
0.0
 40
40.0
100
AcDbArc
 50
149.9999999999994
 51
210.0000000000005
  0
LINE
  5
2DDE
330
1E
100
AcDbEntity
  8
STEMPEL
100
AcDbLine
 10
83.74578073881229
 20
252.4797956452983
 30
0.0
 11
68.50378073881234
 21
252.4797956452983
 31
0.0
  0
ARC
  5
2DEB
330
1E
100
AcDbEntity
  8
STEMPEL
100
AcDbCircle
 10
441.1517807388122
 20
534.4536604636402
 30
0.0
 40
1.5
100
AcDbArc
 50
0.0
 51
90.0
  0
LINE
  5
2DEC
330
1E
100
AcDbEntity
  8
STEMPEL
100
AcDbLine
 10
442.6517807388122
 20
534.4536604636402
 30
0.0
 11
442.6517807388122
 21
532.9536604636401
 31
0.0
  0
LINE
  5
2DED
330
1E
100
AcDbEntity
  8
STEMPEL
100
AcDbLine
 10
442.6517807388122
 20
532.9536604636401
 30
0.0
 11
452.6517807388122
 21
532.9536604636401
 31
0.0
  0
LINE
  5
2DEE
330
1E
100
AcDbEntity
  8
STEMPEL
100
AcDbLine
 10
452.6517807388122
 20
532.9536604636401
 30
0.0
 11
452.6517807388122
 21
534.4536604636402
 31
0.0
  0
ARC
  5
2DEF
330
1E
100
AcDbEntity
  8
STEMPEL
100
AcDbCircle
 10
454.1517807388122
 20
534.4536604636402
 30
0.0
 40
1.5
100
AcDbArc
 50
90.0
 51
180.0
  0
LINE
  5
2DF0
330
1E
100
AcDbEntity
  8
STEMPEL
100
AcDbLine
 10
453.3097807388124
 20
538.9536604636401
 30
0.0
 11
453.3097807388124
 21
535.9536604636401
 31
0.0
  0
LINE
  5
2DF1
330
1E
100
AcDbEntity
  8
STEMPEL
100
AcDbLine
 10
69.66578073881237
 20
534.4536604636402
 30
0.0
 11
69.66578073881237
 21
532.9536604636401
 31
0.0
  0
LINE
  5
2DF2
330
1E
100
AcDbEntity
  8
STEMPEL
100
AcDbLine
 10
79.66578073881237
 20
532.9536604636401
 30
0.0
 11
79.66578073881237
 21
534.4536604636402
 31
0.0
  0
LINE
  5
2DF3
330
1E
100
AcDbEntity
  8
STEMPEL
100
AcDbLine
 10
69.66578073881237
 20
532.9536604636401
 30
0.0
 11
79.66578073881237
 21
532.9536604636401
 31
0.0
  0
ARC
  5
2DF4
330
1E
100
AcDbEntity
  8
STEMPEL
100
AcDbCircle
 10
68.16578073881237
 20
534.4536604636402
 30
0.0
 40
1.5
100
AcDbArc
 50
0.0
 51
90.0
  0
LINE
  5
2DF5
330
1E
100
AcDbEntity
  8
STEMPEL
100
AcDbLine
 10
69.00778073881236
 20
538.9536604636401
 30
0.0
 11
69.00778073881236
 21
535.9536604636401
 31
0.0
  0
ARC
  5
2DF6
330
1E
100
AcDbEntity
  8
STEMPEL
100
AcDbCircle
 10
81.16578073881237
 20
534.4536604636402
 30
0.0
 40
1.5
100
AcDbArc
 50
90.0
 51
180.0
  0
LINE
  5
2DF7
330
1E
100
AcDbEntity
  8
STEMPEL
100
AcDbLine
 10
458.6517807388122
 20
538.9536604636401
 30
0.0
 11
436.9987807388124
 21
538.9536604636401
 31
0.0
  0
LINE
  5
2DF8
330
1E
100
AcDbEntity
  8
STEMPEL
100
AcDbLine
 10
458.6517807388122
 20
535.9536604636401
 30
0.0
 11
458.6517807388122
 21
538.9536604636401
 31
0.0
  0
LINE
  5
2DF9
330
1E
100
AcDbEntity
  8
STEMPEL
100
AcDbLine
 10
436.9987807388124
 20
535.9536604636401
 30
0.0
 11
458.6517807388122
 21
535.9536604636401
 31
0.0
  0
ARC
  5
2DFA
330
1E
100
AcDbEntity
  8
STEMPEL
100
AcDbCircle
 10
85.31878073881239
 20
532.9536604636401
 30
0.0
 40
3.0
100
AcDbArc
 50
2.44232107100048
 51
90.0
  0
LINE
  5
2DFB
330
1E
100
AcDbEntity
  8
STEMPEL
100
AcDbLine
 10
63.66578073881237
 20
535.9536604636401
 30
0.0
 11
85.31878073881239
 21
535.9536604636401
 31
0.0
  0
LINE
  5
2DFC
330
1E
100
AcDbEntity
  8
STEMPEL
100
AcDbLine
 10
63.66578073881237
 20
538.9536604636401
 30
0.0
 11
63.66578073881237
 21
535.9536604636401
 31
0.0
  0
LINE
  5
2DFD
330
1E
100
AcDbEntity
  8
STEMPEL
100
AcDbLine
 10
85.31878073881239
 20
538.9536604636401
 30
0.0
 11
63.66578073881237
 21
538.9536604636401
 31
0.0
  0
LINE
  5
2DFE
330
1E
100
AcDbEntity
  8
STEMPEL
100
AcDbLine
 10
69.00778073881236
 20
541.9536604636402
 30
0.0
 11
69.00778073881236
 21
544.9536604636401
 31
0.0
  0
LINE
  5
2DFF
330
1E
100
AcDbEntity
  8
STEMPEL
100
AcDbLine
 10
453.3097807388124
 20
541.9536604636402
 30
0.0
 11
453.3097807388124
 21
544.9536604636401
 31
0.0
  0
LINE
  5
2E00
330
1E
100
AcDbEntity
  8
STEMPEL
100
AcDbLine
 10
63.66578073881237
 20
544.9536604636401
 30
0.0
 11
85.31878073881239
 21
544.9536604636401
 31
0.0
  0
LINE
  5
2E01
330
1E
100
AcDbEntity
  8
STEMPEL
100
AcDbLine
 10
63.66578073881237
 20
541.9536604636402
 30
0.0
 11
63.66578073881237
 21
544.9536604636401
 31
0.0
  0
LINE
  5
2E02
330
1E
100
AcDbEntity
  8
STEMPEL
100
AcDbLine
 10
85.31878073881239
 20
541.9536604636402
 30
0.0
 11
63.66578073881237
 21
541.9536604636402
 31
0.0
  0
ARC
  5
2E03
330
1E
100
AcDbEntity
  8
STEMPEL
100
AcDbCircle
 10
436.9987807388124
 20
547.9536604636401
 30
0.0
 40
3.0
100
AcDbArc
 50
182.4423210710005
 51
270.0
  0
LINE
  5
2E04
330
1E
100
AcDbEntity
  8
STEMPEL
100
AcDbLine
 10
458.6517807388122
 20
544.9536604636401
 30
0.0
 11
436.9987807388124
 21
544.9536604636401
 31
0.0
  0
LINE
  5
2E05
330
1E
100
AcDbEntity
  8
STEMPEL
100
AcDbLine
 10
458.6517807388122
 20
541.9536604636402
 30
0.0
 11
458.6517807388122
 21
544.9536604636401
 31
0.0
  0
LINE
  5
2E06
330
1E
100
AcDbEntity
  8
STEMPEL
100
AcDbLine
 10
436.9987807388124
 20
541.9536604636402
 30
0.0
 11
458.6517807388122
 21
541.9536604636402
 31
0.0
  0
LINE
  5
2E09
330
1E
100
AcDbEntity
  8
HILF
100
AcDbLine
 10
150.5777807388124
 20
415.5516604636401
 30
0.0
 11
153.5657807388123
 21
419.3436604636401
 31
0.0
  0
LINE
  5
2E0A
330
1E
100
AcDbEntity
  8
HILF
100
AcDbLine
 10
144.5357807388123
 20
410.6126604636401
 30
0.0
 11
150.5777807388124
 21
415.5516604636401
 31
0.0
  0
LINE
  5
2E0B
330
1E
100
AcDbEntity
  8
HILF
100
AcDbLine
 10
143.0357807388124
 20
408.6356604636401
 30
0.0
 11
144.5357807388123
 21
410.6126604636401
 31
0.0
  0
LINE
  5
2E0C
330
1E
100
AcDbEntity
  8
HILF
100
AcDbLine
 10
152.4307807388123
 20
403.1626604636401
 30
0.0
 11
151.9907807388123
 21
401.1296604636402
 31
0.0
  0
LINE
  5
2E0D
330
1E
100
AcDbEntity
  8
HILF
100
AcDbLine
 10
159.3517807388123
 20
409.2466604636402
 30
0.0
 11
152.4307807388123
 21
403.1626604636401
 31
0.0
  0
LINE
  5
2E0E
330
1E
100
AcDbEntity
  8
HILF
100
AcDbLine
 10
161.0697807388123
 20
413.0726604636401
 30
0.0
 11
159.3517807388123
 21
409.2466604636402
 31
0.0
  0
LINE
  5
2E0F
330
1E
100
AcDbEntity
  8
HILF
100
AcDbLine
 10
374.6157807388124
 20
673.2366604636402
 30
0.0
 11
376.4907807388124
 21
674.7206604636401
 31
0.0
  0
LINE
  5
2E10
330
1E
100
AcDbEntity
  8
HILF
100
AcDbLine
 10
372.9307807388124
 20
664.7596604636401
 30
0.0
 11
374.6157807388124
 21
673.2366604636402
 31
0.0
  0
LINE
  5
2E11
330
1E
100
AcDbEntity
  8
HILF
100
AcDbLine
 10
368.0267807388124
 20
662.2046604636401
 30
0.0
 11
372.9307807388124
 21
664.7596604636401
 31
0.0
  0
LINE
  5
2E12
330
1E
100
AcDbEntity
  8
HILF
100
AcDbLine
 10
367.5647807388123
 20
678.1166604636401
 30
0.0
 11
371.0437807388123
 21
679.2136604636401
 31
0.0
  0
LINE
  5
2E13
330
1E
100
AcDbEntity
  8
HILF
100
AcDbLine
 10
365.2257807388123
 20
670.7256604636402
 30
0.0
 11
367.5647807388123
 21
678.1166604636401
 31
0.0
  0
LINE
  5
2E14
330
1E
100
AcDbEntity
  8
HILF
100
AcDbLine
 10
361.1637807388124
 20
667.9026604636401
 30
0.0
 11
365.2257807388123
 21
670.7256604636402
 31
0.0
  0
LINE
  5
2E15
330
1E
100
AcDbEntity
  8
STEMPEL
100
AcDbLine
 10
84.31978073881237
 20
532.9116604636401
 30
0.0
 11
99.30578073881235
 21
533.5506604636401
 31
0.0
  0
LINE
  5
2E16
330
1E
100
AcDbEntity
  8
STEMPEL
100
AcDbLine
 10
99.30578073881235
 20
547.3576604636401
 30
0.0
 11
84.31978073881237
 21
547.9966604636401
 31
0.0
  0
LINE
  5
2E17
330
1E
100
AcDbEntity
  8
STEMPEL
100
AcDbLine
 10
423.0117807388124
 20
533.5506604636401
 30
0.0
 11
437.9977807388122
 21
532.9116604636401
 31
0.0
  0
LINE
  5
2E18
330
1E
100
AcDbEntity
  8
STEMPEL
100
AcDbLine
 10
437.9977807388122
 20
547.9966604636401
 30
0.0
 11
423.0117807388124
 21
547.3576604636401
 31
0.0
  0
ARC
  5
2E19
330
1E
100
AcDbEntity
  8
STEMPEL
100
AcDbCircle
 10
261.1587807388123
 20
540.4536604636401
 30
0.0
 40
177.0
100
AcDbArc
 50
182.4423210710005
 51
228.136363239998
  0
ARC
  5
2E1A
330
1E
100
AcDbEntity
  8
STEMPEL
100
AcDbCircle
 10
261.1587807388123
 20
540.4536604636401
 30
0.0
 40
177.0
100
AcDbArc
 50
231.9196138230013
 51
357.5576789289996
  0
ARC
  5
2E1B
330
1E
100
AcDbEntity
  8
STEMPEL
100
AcDbCircle
 10
261.1587807388123
 20
540.4536604636401
 30
0.0
 40
177.0
100
AcDbArc
 50
2.44232107100048
 51
49.3381710729978
  0
ARC
  5
2E1C
330
1E
100
AcDbEntity
  8
STEMPEL
100
AcDbCircle
 10
261.1587807388123
 20
540.4536604636401
 30
0.0
 40
177.0
100
AcDbArc
 50
51.62412032399948
 51
177.5576789289995
  0
ARC
  5
2E1D
330
1E
100
AcDbEntity
  8
STEMPEL
100
AcDbCircle
 10
261.1587807388123
 20
540.4536604636401
 30
0.0
 40
162.0
100
AcDbArc
 50
231.8417741379997
 51
357.5576789289996
  0
ARC
  5
2E1E
330
1E
100
AcDbEntity
  8
STEMPEL
100
AcDbCircle
 10
261.1587807388123
 20
540.4536604636401
 30
0.0
 40
162.0
100
AcDbArc
 50
182.4423210710005
 51
228.3824218360009
  0
ARC
  5
2E1F
330
1E
100
AcDbEntity
  8
STEMPEL
100
AcDbCircle
 10
261.1587807388123
 20
540.4536604636401
 30
0.0
 40
162.0
100
AcDbArc
 50
51.8798653359998
 51
177.5576789289995
  0
ARC
  5
2E20
330
1E
100
AcDbEntity
  8
STEMPEL
100
AcDbCircle
 10
261.1587807388123
 20
540.4536604636401
 30
0.0
 40
162.0
100
AcDbArc
 50
2.44232107100048
 51
48.72476559899882
  0
LINE
  5
2E22
330
1E
100
AcDbEntity
  8
MITTEL
100
AcDbLine
 10
74.66578073881237
 20
509.9536604636402
 30
0.0
 11
74.66578073881226
 21
555.2536604636401
 31
0.0
  0
LINE
  5
2E23
330
1E
100
AcDbEntity
  8
MITTEL
100
AcDbLine
 10
447.6517807388122
 20
509.9536604636402
 30
0.0
 11
447.6517807388122
 21
555.2536604636401
 31
0.0
  0
LINE
  5
2E24
330
1E
100
AcDbEntity
  8
MITTEL
100
AcDbLine
 10
261.1587807388124
 20
345.4536604636402
 30
0.0
 11
261.1587807388123
 21
722.4536604636401
 31
0.0
  0
ARC
  5
2E25
330
1E
100
AcDbEntity
  8
STEMPEL
100
AcDbCircle
 10
261.1587807388123
 20
540.4536604636401
 30
0.0
 40
173.0
100
AcDbArc
 50
49.18018813400177
 51
52.17732311500171
  0
ARC
  5
2E26
330
1E
100
AcDbEntity
  8
STEMPEL
100
AcDbCircle
 10
85.31878073881239
 20
547.9536604636401
 30
0.0
 40
3.0
100
AcDbArc
 50
270.0
 51
357.5576789289996
  0
ARC
  5
2E27
330
1E
100
AcDbEntity
  8
STEMPEL
100
AcDbCircle
 10
436.9987807388124
 20
532.9536604636401
 30
0.0
 40
6.0
100
AcDbArc
 50
90.0
 51
177.5576789289995
  0
ARC
  5
2E28
330
1E
100
AcDbEntity
  8
STEMPEL
100
AcDbCircle
 10
261.1587807388123
 20
540.4536604636401
 30
0.0
 40
170.0
100
AcDbArc
 50
228.3064335649982
 51
231.937169037002
  0
ARC
  5
2E29
330
1E
100
AcDbEntity
  8
STEMPEL
100
AcDbCircle
 10
85.31878073881239
 20
532.9536604636401
 30
0.0
 40
6.0
100
AcDbArc
 50
2.44232107100048
 51
90.0
  0
LINE
  5
2E2A
330
1E
100
AcDbEntity
  8
MITTEL
100
AcDbLine
 10
58.66578073881226
 20
540.4536604636401
 30
0.0
 11
463.6517807388123
 21
540.45366046364
 31
0.0
  0
ARC
  5
2E2B
330
1E
100
AcDbEntity
  8
STEMPEL
100
AcDbCircle
 10
85.31878073881239
 20
547.9536604636401
 30
0.0
 40
6.0
100
AcDbArc
 50
270.0
 51
357.5576789289996
  0
ARC
  5
2E2C
330
1E
100
AcDbEntity
  8
STEMPEL
100
AcDbCircle
 10
261.1587807388123
 20
540.4536604636401
 30
0.0
 40
170.0
100
AcDbArc
 50
48.6047477909994
 51
51.80363065900031
  0
ARC
  5
2E2D
330
1E
100
AcDbEntity
  8
STEMPEL
100
AcDbCircle
 10
436.9987807388124
 20
547.9536604636401
 30
0.0
 40
6.0
100
AcDbArc
 50
182.4423210710005
 51
270.0
  0
ARC
  5
2E2E
330
1E
100
AcDbEntity
  8
STEMPEL
100
AcDbCircle
 10
261.1587807388123
 20
540.4536604636401
 30
0.0
 40
173.0
100
AcDbArc
 50
228.1483176720008
 51
231.7509198319972
  0
ARC
  5
2E2F
330
1E
100
AcDbEntity
  8
STEMPEL
100
AcDbCircle
 10
436.9987807388124
 20
532.9536604636401
 30
0.0
 40
3.0
100
AcDbArc
 50
90.0
 51
177.5576789289995
  0
POINT
  5
2E30
330
1E
100
AcDbEntity
  8
STEMPEL
100
AcDbPoint
 10
261.1587807388123
 20
350.4536604636402
 30
0.0
  0
ARC
  5
2E36
330
1E
100
AcDbEntity
  8
STEMPEL
100
AcDbCircle
 10
252.9317807388123
 20
355.7816604636402
 30
0.0
 40
5.328
100
AcDbArc
 50
270.0
 51
300.9790988619991
  0
ARC
  5
2E37
330
1E
100
AcDbEntity
  8
STEMPEL
100
AcDbCircle
 10
252.9317807388123
 20
355.7816604636402
 30
0.0
 40
5.328
100
AcDbArc
 50
239.0209011380008
 51
270.0
  0
ARC
  5
2E38
330
1E
100
AcDbEntity
  8
STEMPEL
100
AcDbCircle
 10
261.1587807388123
 20
370.6256604636402
 30
0.0
 40
20.172
100
AcDbArc
 50
254.2221938999997
 51
285.7778061000002
  0
ARC
  5
2E39
330
1E
100
AcDbEntity
  8
STEMPEL
100
AcDbCircle
 10
269.3857807388124
 20
355.7816604636402
 30
0.0
 40
5.328
100
AcDbArc
 50
270.0
 51
300.9790988619991
  0
ARC
  5
2E3A
330
1E
100
AcDbEntity
  8
STEMPEL
100
AcDbCircle
 10
269.3857807388124
 20
355.7816604636402
 30
0.0
 40
5.328
100
AcDbArc
 50
239.0209011380008
 51
270.0
  0
LINE
  5
2E3B
330
1E
100
AcDbEntity
  8
STEMPEL
100
AcDbLine
 10
269.3857807388124
 20
350.4536604636402
 30
0.0
 11
252.9317807388123
 21
350.4536604636402
 31
0.0
  0
LINE
  5
2E3C
330
1E
100
AcDbEntity
  8
STEMPEL
100
AcDbLine
 10
250.1887807388123
 20
363.7946604636401
 30
0.0
 11
250.1887807388123
 21
351.2136604636402
 31
0.0
  0
LINE
  5
2E3D
330
1E
100
AcDbEntity
  8
STEMPEL
100
AcDbLine
 10
255.6737807388124
 20
363.5386604636402
 30
0.0
 11
255.6737807388124
 21
351.2136604636402
 31
0.0
  0
LINE
  5
2E3E
330
1E
100
AcDbEntity
  8
STEMPEL
100
AcDbLine
 10
266.6437807388123
 20
363.5386604636402
 30
0.0
 11
266.6437807388123
 21
351.2136604636402
 31
0.0
  0
LINE
  5
2E3F
330
1E
100
AcDbEntity
  8
STEMPEL
100
AcDbLine
 10
272.1287807388123
 20
363.7946604636401
 30
0.0
 11
272.1287807388123
 21
351.2136604636402
 31
0.0
  0
LINE
  5
2E4E
330
1E
100
AcDbEntity
  8
MITTEL
100
AcDbLine
 10
74.15778073881199
 20
220.979795645299
 30
0.0
 11
74.15778073881222
 21
243.979795645299
 31
0.0
  0
DIMENSION
  5
2E4F
330
1E
100
AcDbEntity
  8
BEM
100
AcDbDimension
  2
*D1
 10
448.1597807388127
 20
183.730673606836
 30
0.0
 11
261.1587807388124
 21
190.230673606836
 31
0.0
 70
    32
 71
     5
 42
374.0020000000007
  3
Standard
100
AcDbAlignedDimension
 13
74.15778073881199
 23
220.979795645299
 33
0.0
 14
448.1597807388127
 24
220.9797956452983
 34
0.0
100
AcDbRotatedDimension
1001
ACAD
1000
DSTYLE
1002
{
1070
    40
1040
2.0
1070
    41
1040
3.5
1070
    42
1040
1.0
1070
    43
1040
7.0
1070
    44
1040
1.0
1070
    73
1070
     0
1070
    74
1070
     0
1070
    77
1070
     1
1070
    78
1070
     8
1070
    79
1070
     2
1070
   140
1040
3.5
1070
   141
1040
1.5
1070
   146
1040
0.5142857142857144
1070
   147
1040
1.5
1070
   172
1070
     1
1070
   178
1070
     1
1070
   179
1070
     2
1070
   271
1070
     2
1070
   272
1070
     2
1070
   284
1070
     8
1070
   285
1070
     8
1070
   286
1070
     8
1002
}
  0
DIMENSION
  5
2E5C
330
1E
100
AcDbEntity
  8
BEM
100
AcDbDimension
  2
*D2
 10
459.1447807388123
 20
165.4030504514669
 30
0.0
 11
261.1447807388123
 21
171.9030504514669
 31
0.0
 70
    32
 71
     5
 42
396.0000000000001
  3
Standard
100
AcDbAlignedDimension
 13
63.1447807388123
 23
232.4797956452983
 33
0.0
 14
459.1447807388123
 24
232.4797956452982
 34
0.0
100
AcDbRotatedDimension
1001
ACAD
1000
DSTYLE
1002
{
1070
    40
1040
2.0
1070
    41
1040
3.5
1070
    42
1040
1.0
1070
    43
1040
7.0
1070
    44
1040
1.0
1070
    73
1070
     0
1070
    74
1070
     0
1070
    77
1070
     1
1070
    78
1070
     8
1070
    79
1070
     2
1070
   140
1040
3.5
1070
   141
1040
1.5
1070
   146
1040
0.5142857142857144
1070
   147
1040
1.5
1070
   172
1070
     1
1070
   178
1070
     1
1070
   179
1070
     2
1070
   271
1070
     2
1070
   272
1070
     2
1070
   284
1070
     8
1070
   285
1070
     8
1070
   286
1070
     8
1002
}
  0
DIMENSION
  5
2EAC
330
1E
100
AcDbEntity
  8
BEM
100
AcDbDimension
  2
*D3
 10
52.50435284551577
 20
541.9536604636402
 30
0.0
 11
46.00435284551568
 21
560.8203271303068
 31
0.0
 70
    32
 71
     5
 42
3.0
  3
Standard
100
AcDbAlignedDimension
 13
63.66578073881237
 23
538.9536604636401
 33
0.0
 14
63.66578073881237
 24
541.9536604636402
 34
0.0
 50
90.0
100
AcDbRotatedDimension
1001
ACAD
1000
DSTYLE
1002
{
1070
    40
1040
2.0
1070
    41
1040
3.5
1070
    42
1040
1.0
1070
    43
1040
7.0
1070
    44
1040
1.0
1070
    73
1070
     0
1070
    74
1070
     0
1070
    77
1070
     1
1070
    78
1070
     8
1070
    79
1070
     2
1070
   140
1040
3.5
1070
   141
1040
1.5
1070
   146
1040
0.5142857142857144
1070
   147
1040
1.5
1070
   172
1070
     1
1070
   178
1070
     1
1070
   179
1070
     2
1070
   271
1070
     2
1070
   272
1070
     2
1070
   284
1070
     8
1070
   285
1070
     8
1070
   286
1070
     8
1002
}
  0
DIMENSION
  5
2ECB
330
1E
100
AcDbEntity
  8
BEM
100
AcDbDimension
  2
*D4
 10
34.40945628130658
 20
717.4536604636402
 30
0.0
 11
27.90945628130645
 21
533.9536604636403
 31
0.0
 70
    32
 71
     5
 42
367.0000000000001
  3
Standard
100
AcDbAlignedDimension
 13
252.9317807388123
 23
350.4536604636402
 33
0.0
 14
261.1587807388124
 24
717.4536604636402
 34
0.0
 50
90.0
100
AcDbRotatedDimension
1001
ACAD
1000
DSTYLE
1002
{
1070
    40
1040
2.0
1070
    41
1040
3.5
1070
    42
1040
1.0
1070
    43
1040
7.0
1070
    44
1040
1.0
1070
    73
1070
     0
1070
    74
1070
     0
1070
    77
1070
     1
1070
    78
1070
     8
1070
    79
1070
     2
1070
   140
1040
3.5
1070
   141
1040
1.5
1070
   146
1040
0.5142857142857144
1070
   147
1040
1.5
1070
   172
1070
     1
1070
   178
1070
     1
1070
   179
1070
     2
1070
   271
1070
     2
1070
   272
1070
     2
1070
   284
1070
     8
1070
   285
1070
     8
1070
   286
1070
     8
1002
}
  0
DIMENSION
  5
2EEF
330
1E
100
AcDbEntity
  8
BEM
100
AcDbDimension
  2
*D5
 10
370.4326743855297
 20
670.6812157938619
 30
0.0
 11
290.6855582998075
 21
575.6423036996867
 31
0.0
 70
   160
  1
%%c<>
 71
     5
 42
340.0000000000001
  3
Standard
100
AcDbAlignedDimension
 13
151.8848870921006
 23
410.226105133414
 33
0.0
 14
370.432674385524
 24
670.6812157938667
 34
0.0
 50
49.99999999999657
100
AcDbRotatedDimension
1001
ACAD
1000
DSTYLE
1002
{
1070
    40
1040
2.0
1070
    41
1040
3.5
1070
    42
1040
1.0
1070
    43
1040
7.0
1070
    44
1040
1.0
1070
    73
1070
     0
1070
    74
1070
     0
1070
    77
1070
     1
1070
    78
1070
     8
1070
    79
1070
     2
1070
   140
1040
3.5
1070
   141
1040
1.5
1070
   146
1040
0.5142857142857144
1070
   147
1040
1.5
1070
   172
1070
     1
1070
   178
1070
     1
1070
   179
1070
     2
1070
   271
1070
     2
1070
   272
1070
     2
1070
   284
1070
     8
1070
   285
1070
     8
1070
   286
1070
     8
1002
}
  0
TEXT
  5
2F66
330
1E
100
AcDbEntity
  8
TEXT
 62
     1
100
AcDbText
 10
478.35942916834
 20
647.8365522679117
 30
0.0
 40
7.0
  1
Werkstoff: St37 Dickschichtpassiviert
 50
90.0
 41
0.8
  7
GREEKS
100
AcDbText
  0
DIMENSION
  5
2F70
330
1E
100
AcDbEntity
  8
BEM
100
AcDbDimension
  2
*D6
 10
49.5453992297871
 20
212.479795645298
 30
0.0
 11
43.04539922978707
 21
232.4797956452983
 31
0.0
 70
    32
 71
     5
 42
40.00000000000065
  3
Standard
100
AcDbAlignedDimension
 13
68.50376458743494
 23
252.4797956452986
 33
0.0
 14
68.50376458743494
 24
212.4797956452979
 34
0.0
 50
90.0
100
AcDbRotatedDimension
1001
ACAD
1000
DSTYLE
1002
{
1070
    40
1040
2.0
1070
    41
1040
3.5
1070
    42
1040
1.0
1070
    43
1040
7.0
1070
    44
1040
1.0
1070
    73
1070
     0
1070
    74
1070
     0
1070
    77
1070
     1
1070
    78
1070
     8
1070
    79
1070
     2
1070
   140
1040
3.5
1070
   141
1040
1.5
1070
   146
1040
0.5142857142857144
1070
   147
1040
1.5
1070
   172
1070
     1
1070
   178
1070
     1
1070
   179
1070
     2
1070
   271
1070
     2
1070
   272
1070
     2
1070
   284
1070
     8
1070
   285
1070
     8
1070
   286
1070
     8
1002
}
  0
ENDSEC
  0
SECTION
  2
OBJECTS
  0
DICTIONARY
  5
C
330
0
100
AcDbDictionary
281
     1
  3
ACAD_COLOR
350
DF
  3
ACAD_GROUP
350
D
  3
ACAD_LAYOUT
350
19
  3
ACAD_MATERIAL
350
DE
  3
ACAD_MLINESTYLE
350
16
  3
ACAD_PLOTSETTINGS
350
18
  3
ACAD_PLOTSTYLENAME
350
E
  3
AcDbVariableDictionary
350
EA
  0
DICTIONARY
  5
A0
330
1E
100
AcDbDictionary
280
     1
281
     1
  3
ACAD_LAYOUTSELFREF
360
D4
  0
DICTIONARY
  5
A2
330
1A
100
AcDbDictionary
280
     1
281
     1
  3
ACAD_LAYOUTSELFREF
360
D3
  0
DICTIONARY
  5
DF
102
{ACAD_REACTORS
330
C
102
}
330
C
100
AcDbDictionary
281
     1
  0
DICTIONARY
  5
D
102
{ACAD_REACTORS
330
C
102
}
330
C
100
AcDbDictionary
281
     1
  0
DICTIONARY
  5
19
102
{ACAD_REACTORS
330
C
102
}
330
C
100
AcDbDictionary
281
     1
  3
Layout1
350
1D
  3
Model
350
21
  0
DICTIONARY
  5
DE
102
{ACAD_REACTORS
330
C
102
}
330
C
100
AcDbDictionary
281
     1
  0
DICTIONARY
  5
16
102
{ACAD_REACTORS
330
C
102
}
330
C
100
AcDbDictionary
281
     1
  3
Standard
350
17
  0
DICTIONARY
  5
18
102
{ACAD_REACTORS
330
C
102
}
330
C
100
AcDbDictionary
281
     1
  0
ACDBDICTIONARYWDFLT
  5
E
102
{ACAD_REACTORS
330
C
102
}
330
C
100
AcDbDictionary
281
     1
  3
Normal
350
F
100
AcDbDictionaryWithDefault
340
F
  0
DICTIONARY
  5
EA
102
{ACAD_REACTORS
330
C
102
}
330
C
100
AcDbDictionary
281
     1
  3
DIMASSOC
350
EB
  3
PROJECTNAME
350
EC
  0
XRECORD
  5
D4
102
{ACAD_REACTORS
330
A0
102
}
330
A0
100
AcDbXrecord
280
     1
340
1E
  0
XRECORD
  5
D3
102
{ACAD_REACTORS
330
A2
102
}
330
A2
100
AcDbXrecord
280
     1
340
1A
  0
LAYOUT
  5
1D
102
{ACAD_REACTORS
330
19
102
}
330
19
100
AcDbPlotSettings
  1

  2
\\NT_WORK01\HP LaserJet 5000 PCL 6
  4

  6

 40
0.0
 41
0.0
 42
0.0
 43
0.0
 44
0.0
 45
0.0
 46
0.0
 47
0.0
 48
0.0
 49
0.0
140
0.0
141
0.0
142
1.0
143
1.0
 70
   688
 72
     0
 73
     0
 74
     5
  7

 75
    16
147
1.0
 76
     0
 77
     2
 78
   300
148
0.0
149
0.0
100
AcDbLayout
  1
Layout1
 70
     0
 71
     1
 10
0.0
 20
0.0
 11
12.0
 21
9.0
 12
0.0
 22
0.0
 32
0.0
 14
1.000000000000000E+20
 24
1.000000000000000E+20
 34
1.000000000000000E+20
 15
-1.000000000000000E+20
 25
-1.000000000000000E+20
 35
-1.000000000000000E+20
146
0.0
 13
0.0
 23
0.0
 33
0.0
 16
1.0
 26
0.0
 36
0.0
 17
0.0
 27
1.0
 37
0.0
 76
     0
330
1A
  0
LAYOUT
  5
21
102
{ACAD_REACTORS
330
19
102
}
330
19
100
AcDbPlotSettings
  1

  2
none_device
  4
Letter_(8.50_x_11.00_Inches)
  6

 40
6.349999904632568
 41
6.349999904632568
 42
6.350006103515625
 43
6.350006103515625
 44
215.8999938964844
 45
279.3999938964844
 46
0.0
 47
0.0
 48
0.0
 49
0.0
140
0.0
141
0.0
142
1.0
143
1.0
 70
 11952
 72
     0
 73
     1
 74
     0
  7

 75
     0
147
1.0
 76
     0
 77
     2
 78
   300
148
-230.4417396561563
149
47.00486644638983
100
AcDbLayout
  1
Model
 70
     1
 71
     0
 10
0.0
 20
0.0
 11
12.0
 21
9.0
 12
0.0
 22
0.0
 32
0.0
 14
0.0
 24
0.0
 34
0.0
 15
0.0
 25
0.0
 35
0.0
146
0.0
 13
0.0
 23
0.0
 33
0.0
 16
1.0
 26
0.0
 36
0.0
 17
0.0
 27
1.0
 37
0.0
 76
     0
330
1E
  0
MLINESTYLE
  5
17
102
{ACAD_REACTORS
330
16
102
}
330
16
100
AcDbMlineStyle
  2
STANDARD
 70
     0
  3

 62
   256
 51
90.0
 52
90.0
 71
     2
 49
0.5
 62
   256
  6
BYLAYER
 49
-0.5
 62
   256
  6
BYLAYER
  0
ACDBPLACEHOLDER
  5
F
102
{ACAD_REACTORS
330
E
102
}
330
E
  0
DICTIONARYVAR
  5
EB
102
{ACAD_REACTORS
330
EA
102
}
330
EA
100
DictionaryVariables
280
     0
  1
1
  0
DICTIONARYVAR
  5
EC
102
{ACAD_REACTORS
330
EA
102
}
330
EA
100
DictionaryVariables
280
     0
  1

  0
ENDSEC
  0
EOF
