  0
SECTION
  2
HEADER
  9
$ACADVER
  1
AC1018
  9
$ACADMAINTVER
 70
     2
  9
$DWGCODEPAGE
  3
ANSI_1252
  9
$INSBASE
 10
0.0
 20
0.0
 30
0.0
  9
$EXTMIN
 10
-0.0128164049388033
 20
-0.0181260584133725
 30
-0.0015258207003583
  9
$EXTMAX
 10
420.012818360716
 20
594.0181288244416
 30
0.0000000349246037
  9
$LIMMIN
 10
0.0
 20
0.0
  9
$LIMMAX
 10
419.9999999999999
 20
594.0
  9
$ORTHOMODE
 70
     1
  9
$REGENMODE
 70
     1
  9
$FILLMODE
 70
     1
  9
$QTEXTMODE
 70
     0
  9
$MIRRTEXT
 70
     1
  9
$LTSCALE
 40
20.0
  9
$ATTMODE
 70
     1
  9
$TEXTSIZE
 40
2.5
  9
$TRACEWID
 40
0.5
  9
$TEXTSTYLE
  7
GREEKS
  9
$CLAYER
  8
BEM
  9
$CELTYPE
  6
ByLayer
  9
$CECOLOR
 62
   256
  9
$CELTSCALE
 40
1.0
  9
$DISPSILH
 70
     0
  9
$DIMSCALE
 40
2.0
  9
$DIMASZ
 40
3.5
  9
$DIMEXO
 40
1.0
  9
$DIMDLI
 40
7.0
  9
$DIMRND
 40
0.0
  9
$DIMDLE
 40
0.0
  9
$DIMEXE
 40
1.0
  9
$DIMTP
 40
0.0
  9
$DIMTM
 40
0.0
  9
$DIMTXT
 40
3.5
  9
$DIMCEN
 40
1.5
  9
$DIMTSZ
 40
0.0
  9
$DIMTOL
 70
     0
  9
$DIMLIM
 70
     0
  9
$DIMTIH
 70
     0
  9
$DIMTOH
 70
     0
  9
$DIMSE1
 70
     0
  9
$DIMSE2
 70
     0
  9
$DIMTAD
 70
     1
  9
$DIMZIN
 70
     8
  9
$DIMBLK
  1

  9
$DIMASO
 70
     1
  9
$DIMSHO
 70
     0
  9
$DIMPOST
  1

  9
$DIMAPOST
  1

  9
$DIMALT
 70
     0
  9
$DIMALTD
 70
     2
  9
$DIMALTF
 40
25.4
  9
$DIMLFAC
 40
1.0
  9
$DIMTOFL
 70
     1
  9
$DIMTVP
 40
0.0
  9
$DIMTIX
 70
     0
  9
$DIMSOXD
 70
     0
  9
$DIMSAH
 70
     0
  9
$DIMBLK1
  1

  9
$DIMBLK2
  1

  9
$DIMSTYLE
  2
Standard
  9
$DIMCLRD
 70
     0
  9
$DIMCLRE
 70
     0
  9
$DIMCLRT
 70
     1
  9
$DIMTFAC
 40
0.5142857142857144
  9
$DIMGAP
 40
1.5
  9
$DIMJUST
 70
     0
  9
$DIMSD1
 70
     0
  9
$DIMSD2
 70
     0
  9
$DIMTOLJ
 70
     1
  9
$DIMTZIN
 70
     8
  9
$DIMALTZ
 70
     8
  9
$DIMALTTZ
 70
     8
  9
$DIMUPT
 70
     0
  9
$DIMDEC
 70
     2
  9
$DIMTDEC
 70
     2
  9
$DIMALTU
 70
     2
  9
$DIMALTTD
 70
     2
  9
$DIMTXSTY
  7
STANDARD
  9
$DIMAUNIT
 70
     0
  9
$DIMADEC
 70
     2
  9
$DIMALTRND
 40
0.0
  9
$DIMAZIN
 70
     2
  9
$DIMDSEP
 70
    46
  9
$DIMATFIT
 70
     3
  9
$DIMFRAC
 70
     0
  9
$DIMLDRBLK
  1

  9
$DIMLUNIT
 70
     2
  9
$DIMLWD
 70
    -2
  9
$DIMLWE
 70
    -2
  9
$DIMTMOVE
 70
     0
  9
$LUNITS
 70
     2
  9
$LUPREC
 70
     2
  9
$SKETCHINC
 40
1.0
  9
$FILLETRAD
 40
0.0
  9
$AUNITS
 70
     0
  9
$AUPREC
 70
     0
  9
$MENU
  1
ACAD
  9
$ELEVATION
 40
0.0
  9
$PELEVATION
 40
0.0
  9
$THICKNESS
 40
0.0
  9
$LIMCHECK
 70
     0
  9
$CHAMFERA
 40
0.0
  9
$CHAMFERB
 40
0.0
  9
$CHAMFERC
 40
0.0
  9
$CHAMFERD
 40
0.0
  9
$SKPOLY
 70
     0
  9
$TDCREATE
 40
2455397.823042361
  9
$TDUCREATE
 40
2455397.781375695
  9
$TDUPDATE
 40
2456230.311121644
  9
$TDUUPDATE
 40
2456230.269454977
  9
$TDINDWG
 40
0.3213661343
  9
$TDUSRTIMER
 40
0.3213661343
  9
$USRTIMER
 70
     1
  9
$ANGBASE
 50
0.0
  9
$ANGDIR
 70
     0
  9
$PDMODE
 70
     0
  9
$PDSIZE
 40
0.0
  9
$PLINEWID
 40
0.0
  9
$SPLFRAME
 70
     0
  9
$SPLINETYPE
 70
     6
  9
$SPLINESEGS
 70
     8
  9
$HANDSEED
  5
2119
  9
$SURFTAB1
 70
     6
  9
$SURFTAB2
 70
     6
  9
$SURFTYPE
 70
     6
  9
$SURFU
 70
     6
  9
$SURFV
 70
     6
  9
$UCSBASE
  2

  9
$UCSNAME
  2

  9
$UCSORG
 10
0.0
 20
0.0
 30
0.0
  9
$UCSXDIR
 10
1.0
 20
0.0
 30
0.0
  9
$UCSYDIR
 10
0.0
 20
1.0
 30
0.0
  9
$UCSORTHOREF
  2

  9
$UCSORTHOVIEW
 70
     0
  9
$UCSORGTOP
 10
0.0
 20
0.0
 30
0.0
  9
$UCSORGBOTTOM
 10
0.0
 20
0.0
 30
0.0
  9
$UCSORGLEFT
 10
0.0
 20
0.0
 30
0.0
  9
$UCSORGRIGHT
 10
0.0
 20
0.0
 30
0.0
  9
$UCSORGFRONT
 10
0.0
 20
0.0
 30
0.0
  9
$UCSORGBACK
 10
0.0
 20
0.0
 30
0.0
  9
$PUCSBASE
  2

  9
$PUCSNAME
  2

  9
$PUCSORG
 10
0.0
 20
0.0
 30
0.0
  9
$PUCSXDIR
 10
1.0
 20
0.0
 30
0.0
  9
$PUCSYDIR
 10
0.0
 20
1.0
 30
0.0
  9
$PUCSORTHOREF
  2

  9
$PUCSORTHOVIEW
 70
     0
  9
$PUCSORGTOP
 10
0.0
 20
0.0
 30
0.0
  9
$PUCSORGBOTTOM
 10
0.0
 20
0.0
 30
0.0
  9
$PUCSORGLEFT
 10
0.0
 20
0.0
 30
0.0
  9
$PUCSORGRIGHT
 10
0.0
 20
0.0
 30
0.0
  9
$PUCSORGFRONT
 10
0.0
 20
0.0
 30
0.0
  9
$PUCSORGBACK
 10
0.0
 20
0.0
 30
0.0
  9
$USERI1
 70
     0
  9
$USERI2
 70
     0
  9
$USERI3
 70
     0
  9
$USERI4
 70
     0
  9
$USERI5
 70
     0
  9
$USERR1
 40
0.0
  9
$USERR2
 40
0.0
  9
$USERR3
 40
0.0
  9
$USERR4
 40
0.0
  9
$USERR5
 40
0.0
  9
$WORLDVIEW
 70
     1
  9
$SHADEDGE
 70
     3
  9
$SHADEDIF
 70
    70
  9
$TILEMODE
 70
     1
  9
$MAXACTVP
 70
    16
  9
$PINSBASE
 10
0.0
 20
0.0
 30
0.0
  9
$PLIMCHECK
 70
     0
  9
$PEXTMIN
 10
1.000000000000000E+20
 20
1.000000000000000E+20
 30
1.000000000000000E+20
  9
$PEXTMAX
 10
-1.000000000000000E+20
 20
-1.000000000000000E+20
 30
-1.000000000000000E+20
  9
$PLIMMIN
 10
0.0
 20
0.0
  9
$PLIMMAX
 10
12.0
 20
9.0
  9
$UNITMODE
 70
     0
  9
$VISRETAIN
 70
     0
  9
$PLINEGEN
 70
     0
  9
$PSLTSCALE
 70
     0
  9
$TREEDEPTH
 70
  3020
  9
$CMLSTYLE
  2
Standard
  9
$CMLJUST
 70
     0
  9
$CMLSCALE
 40
1.0
  9
$PROXYGRAPHICS
 70
     1
  9
$MEASUREMENT
 70
     0
  9
$CELWEIGHT
370
    -1
  9
$ENDCAPS
280
     0
  9
$JOINSTYLE
280
     0
  9
$LWDISPLAY
290
     0
  9
$INSUNITS
 70
     0
  9
$HYPERLINKBASE
  1

  9
$STYLESHEET
  1
monochrome 1.ctb
  9
$XEDIT
290
     1
  9
$CEPSNTYPE
380
     0
  9
$PSTYLEMODE
290
     1
  9
$FINGERPRINTGUID
  2
{D68B0D02-A558-11D7-B632-000102183313}
  9
$VERSIONGUID
  2
{F5861FA7-EAC3-4E7D-A9B9-2D710F80B6A4}
  9
$EXTNAMES
290
     1
  9
$PSVPSCALE
 40
0.0
  9
$OLESTARTUP
290
     0
  9
$SORTENTS
280
   127
  9
$INDEXCTL
280
     0
  9
$HIDETEXT
280
     0
  9
$XCLIPFRAME
290
     0
  9
$HALOGAP
280
     0
  9
$OBSCOLOR
 70
   257
  9
$OBSLTYPE
280
     0
  9
$INTERSECTIONDISPLAY
280
     0
  9
$INTERSECTIONCOLOR
 70
   257
  9
$DIMASSOC
280
     1
  9
$PROJECTNAME
  1

  0
ENDSEC
  0
SECTION
  2
CLASSES
  0
CLASS
  1
ACDBDICTIONARYWDFLT
  2
AcDbDictionaryWithDefault
  3
ObjectDBX Classes
 90
        0
 91
        1
280
     0
281
     0
  0
CLASS
  1
DICTIONARYVAR
  2
AcDbDictionaryVar
  3
ObjectDBX Classes
 90
        0
 91
        2
280
     0
281
     0
  0
ENDSEC
  0
SECTION
  2
TABLES
  0
TABLE
  2
VPORT
  5
8
330
0
100
AcDbSymbolTable
 70
     3
  0
VPORT
  5
2118
330
8
100
AcDbSymbolTableRecord
100
AcDbViewportTableRecord
  2
*Active
 70
     0
 10
0.0
 20
0.0
 11
1.0
 21
1.0
 12
209.9999999999999
 22
297.0
 13
0.0
 23
0.0
 14
1.0
 24
1.0
 15
10.0
 25
10.0
 16
0.0
 26
0.0
 36
1.0
 17
0.0
 27
0.0
 37
0.0
 40
594.1181190144972
 41
1.404858299595141
 42
50.0
 43
0.0
 44
0.0
 50
0.0
 51
0.0
 71
     0
 72
  1500
 73
     1
 74
     0
 75
     0
 76
     0
 77
     0
 78
     0
281
     0
 65
     1
110
0.0
120
0.0
130
0.0
111
1.0
121
0.0
131
0.0
112
0.0
122
1.0
132
0.0
 79
     0
146
0.0
  0
ENDTAB
  0
TABLE
  2
LTYPE
  5
5
330
0
100
AcDbSymbolTable
 70
     2
  0
LTYPE
  5
13
330
5
100
AcDbSymbolTableRecord
100
AcDbLinetypeTableRecord
  2
ByBlock
 70
     0
  3

 72
    65
 73
     0
 40
0.0
  0
LTYPE
  5
14
330
5
100
AcDbSymbolTableRecord
100
AcDbLinetypeTableRecord
  2
ByLayer
 70
     0
  3

 72
    65
 73
     0
 40
0.0
  0
LTYPE
  5
15
330
5
100
AcDbSymbolTableRecord
100
AcDbLinetypeTableRecord
  2
Continuous
 70
     0
  3
Solid line
 72
    65
 73
     0
 40
0.0
  0
LTYPE
  5
25
330
5
100
AcDbSymbolTableRecord
100
AcDbLinetypeTableRecord
  2
STRICHPUNKT
 70
     0
  3
__ . __ . __ . __ . __ . __ . __ . __ . __ . __
 72
    65
 73
     4
 40
1.0
 49
0.5
 74
     0
 49
-0.25
 74
     0
 49
0.0
 74
     0
 49
-0.25
 74
     0
  0
ENDTAB
  0
TABLE
  2
LAYER
  5
2
330
0
100
AcDbSymbolTable
 70
     8
  0
LAYER
  5
10
330
2
100
AcDbSymbolTableRecord
100
AcDbLayerTableRecord
  2
0
 70
     0
 62
     7
  6
Continuous
370
    -3
390
F
  0
LAYER
  5
2A
330
2
100
AcDbSymbolTableRecord
100
AcDbLayerTableRecord
  2
VOLL
 70
     0
 62
     1
  6
Continuous
370
    -3
390
F
  0
LAYER
  5
2B
330
2
100
AcDbSymbolTableRecord
100
AcDbLayerTableRecord
  2
HILF
 70
     0
 62
     2
  6
Continuous
370
    -3
390
F
  0
LAYER
  5
2C
330
2
100
AcDbSymbolTableRecord
100
AcDbLayerTableRecord
  2
MITTEL
 70
     0
 62
     2
  6
STRICHPUNKT
370
    -3
390
F
  0
LAYER
  5
2F
330
2
100
AcDbSymbolTableRecord
100
AcDbLayerTableRecord
  2
BEM
 70
     0
 62
     7
  6
Continuous
370
    -3
390
F
  0
LAYER
  5
30
330
2
100
AcDbSymbolTableRecord
100
AcDbLayerTableRecord
  2
STEMPEL
 70
     0
 62
     3
  6
Continuous
370
    -3
390
F
  0
LAYER
  5
31
330
2
100
AcDbSymbolTableRecord
100
AcDbLayerTableRecord
  2
TEXT
 70
     0
 62
     7
  6
Continuous
370
    -3
390
F
  0
LAYER
  5
1A8
330
2
100
AcDbSymbolTableRecord
100
AcDbLayerTableRecord
  2
Defpoints
 70
     0
 62
     7
  6
Continuous
290
     0
370
    -3
390
F
  0
ENDTAB
  0
TABLE
  2
STYLE
  5
3
330
0
100
AcDbSymbolTable
 70
     2
  0
STYLE
  5
11
330
3
100
AcDbSymbolTableRecord
100
AcDbTextStyleTableRecord
  2
STANDARD
 70
     0
 40
0.0
 41
0.8
 50
0.0
 71
     0
 42
3.5
  3
simplex.shx
  4

  0
STYLE
  5
24
330
3
100
AcDbSymbolTableRecord
100
AcDbTextStyleTableRecord
  2
GREEKS
 70
     0
 40
0.0
 41
0.8
 50
0.0
 71
     0
 42
2.5
  3
SIMPLEX.shx
  4

  0
ENDTAB
  0
TABLE
  2
VIEW
  5
6
330
0
100
AcDbSymbolTable
 70
     0
  0
ENDTAB
  0
TABLE
  2
UCS
  5
7
330
0
100
AcDbSymbolTable
 70
     0
  0
ENDTAB
  0
TABLE
  2
APPID
  5
9
330
0
100
AcDbSymbolTable
 70
     1
  0
APPID
  5
12
330
9
100
AcDbSymbolTableRecord
100
AcDbRegAppTableRecord
  2
ACAD
 70
     0
  0
ENDTAB
  0
TABLE
  2
DIMSTYLE
  5
A
330
0
100
AcDbSymbolTable
 70
     1
100
AcDbDimStyleTable
 71
     1
340
9D
  0
DIMSTYLE
105
9D
102
{ACAD_REACTORS
330
2000
330
200D
330
202A
330
2039
330
20AA
330
2106
102
}
330
A
100
AcDbSymbolTableRecord
100
AcDbDimStyleTableRecord
  2
Standard
 70
     0
340
11
  0
ENDTAB
  0
TABLE
  2
BLOCK_RECORD
  5
1
330
0
100
AcDbSymbolTable
 70
     7
  0
BLOCK_RECORD
  5
1E
102
{ACAD_XDICTIONARY
360
A0
102
}
330
1
100
AcDbSymbolTableRecord
100
AcDbBlockTableRecord
  2
*Model_Space
340
21
  0
BLOCK_RECORD
  5
1A
102
{ACAD_XDICTIONARY
360
A2
102
}
330
1
100
AcDbSymbolTableRecord
100
AcDbBlockTableRecord
  2
*Paper_Space
340
1D
  0
BLOCK_RECORD
  5
22
330
1
100
AcDbSymbolTableRecord
100
AcDbBlockTableRecord
  2
LOGO
340
0
102
{BLKREFS
331
9B
102
}
  0
BLOCK_RECORD
  5
2001
330
1
100
AcDbSymbolTableRecord
100
AcDbBlockTableRecord
  2
*D1
340
0
  0
BLOCK_RECORD
  5
200E
330
1
100
AcDbSymbolTableRecord
100
AcDbBlockTableRecord
  2
*D2
340
0
  0
BLOCK_RECORD
  5
202B
330
1
100
AcDbSymbolTableRecord
100
AcDbBlockTableRecord
  2
*D3
340
0
  0
BLOCK_RECORD
  5
203A
330
1
100
AcDbSymbolTableRecord
100
AcDbBlockTableRecord
  2
*D4
340
0
  0
BLOCK_RECORD
  5
20AB
330
1
100
AcDbSymbolTableRecord
100
AcDbBlockTableRecord
  2
*D5
340
0
  0
BLOCK_RECORD
  5
2107
330
1
100
AcDbSymbolTableRecord
100
AcDbBlockTableRecord
  2
*D6
340
0
  0
ENDTAB
  0
ENDSEC
  0
SECTION
  2
BLOCKS
  0
BLOCK
  5
35
330
1E
100
AcDbEntity
  8
0
100
AcDbBlockBegin
  2
*Model_Space
 70
     0
 10
0.0
 20
0.0
 30
0.0
  3
*Model_Space
  1

  0
ENDBLK
  5
36
330
1E
100
AcDbEntity
  8
0
100
AcDbBlockEnd
  0
BLOCK
  5
33
330
1A
100
AcDbEntity
 67
     1
  8
0
100
AcDbBlockBegin
  2
*Paper_Space
 70
     0
 10
0.0
 20
0.0
 30
0.0
  3
*Paper_Space
  1

  0
ENDBLK
  5
34
330
1A
100
AcDbEntity
 67
     1
  8
0
100
AcDbBlockEnd
  0
BLOCK
  5
37
330
22
100
AcDbEntity
  8
0
100
AcDbBlockBegin
  2
LOGO
 70
     0
 10
0.0
 20
0.0
 30
0.0
  3
LOGO
  1

  0
ARC
  5
38
330
22
100
AcDbEntity
  8
0
100
AcDbCircle
 10
11.59973089678112
 20
-9.271599258481501
 30
0.0
 40
4.5
100
AcDbArc
 50
270.0
 51
231.0575587310159
  0
LINE
  5
39
330
22
100
AcDbEntity
  8
0
100
AcDbLine
 10
3.599730896781125
 20
-4.771599258481529
 30
0.0
 11
3.599730896781153
 21
-11.77159925848133
 31
0.0
  0
LINE
  5
3A
330
22
100
AcDbEntity
  8
0
100
AcDbLine
 10
2.599730896781125
 20
-4.771599258481529
 30
0.0
 11
2.599730896781153
 21
-11.77159925848133
 31
0.0
  0
CIRCLE
  5
3B
330
22
100
AcDbEntity
  8
0
100
AcDbCircle
 10
11.59973089678112
 20
-9.271599258481501
 30
0.0
 40
3.5
  0
ARC
  5
3C
330
22
100
AcDbEntity
  8
0
100
AcDbCircle
 10
31.59973089678115
 20
-9.271599258481472
 30
0.0
 40
4.5
100
AcDbArc
 50
270.0
 51
231.0575587310182
  0
LINE
  5
3D
330
22
100
AcDbEntity
  8
0
100
AcDbLine
 10
17.59973089678112
 20
-4.771599258481472
 30
0.0
 11
17.59973089678115
 21
-13.77159925848147
 31
0.0
  0
ARC
  5
3E
330
22
100
AcDbEntity
  8
0
100
AcDbCircle
 10
22.59973089678116
 20
-7.271599258481472
 30
0.0
 40
2.5
100
AcDbArc
 50
293.1161887722295
 51
90.0
  0
CIRCLE
  5
3F
330
22
100
AcDbEntity
  8
0
100
AcDbCircle
 10
31.59973089678115
 20
-9.271599258481472
 30
0.0
 40
3.5
  0
ARC
  5
40
330
22
100
AcDbEntity
  8
0
100
AcDbCircle
 10
4.599730896781153
 20
-11.77159925848133
 30
0.0
 40
1.0
100
AcDbArc
 50
180.0
 51
270.0
  0
ARC
  5
41
330
22
100
AcDbEntity
  8
0
100
AcDbCircle
 10
4.599730896781153
 20
-11.77159925848133
 30
0.0
 40
2.0
100
AcDbArc
 50
179.9999999999992
 51
270.0
  0
LINE
  5
42
330
22
100
AcDbEntity
  8
0
100
AcDbLine
 10
11.59973089678115
 20
-13.77159925848144
 30
0.0
 11
4.599730896781153
 21
-13.77159925848147
 31
0.0
  0
LINE
  5
43
330
22
100
AcDbEntity
  8
0
100
AcDbLine
 10
8.771303772034769
 20
-12.77159925848136
 30
0.0
 11
4.599730896781153
 21
-12.77159925848133
 31
0.0
  0
LINE
  5
44
330
22
100
AcDbEntity
  8
0
100
AcDbLine
 10
31.59973089678115
 20
-13.77159925848147
 30
0.0
 11
23.6715276665056
 21
-13.77159925848144
 31
0.0
  0
LINE
  5
45
330
22
100
AcDbEntity
  8
0
100
AcDbLine
 10
23.56565672307022
 20
-9.51278021337896
 30
0.0
 11
24.4388546544846
 21
-12.77159925848144
 31
0.0
  0
LINE
  5
46
330
22
100
AcDbEntity
  8
0
100
AcDbLine
 10
22.59973089678116
 20
-9.771599258481472
 30
0.0
 11
18.59973089678112
 21
-9.771599258481472
 31
0.0
  0
LINE
  5
47
330
22
100
AcDbEntity
  8
0
100
AcDbLine
 10
18.59973089678115
 20
-13.77159925848144
 30
0.0
 11
17.59973089678115
 21
-13.77159925848144
 31
0.0
  0
LINE
  5
48
330
22
100
AcDbEntity
  8
0
100
AcDbLine
 10
18.59973089678115
 20
-9.771599258481472
 30
0.0
 11
18.59973089678115
 21
-13.77159925848144
 31
0.0
  0
LINE
  5
49
330
22
100
AcDbEntity
  8
0
100
AcDbLine
 10
22.59973089678116
 20
-9.771599258481472
 30
0.0
 11
23.67152766650562
 21
-13.77159925848147
 31
0.0
  0
ARC
  5
4A
330
22
100
AcDbEntity
  8
0
100
AcDbCircle
 10
22.59973089678116
 20
-7.271599258481472
 30
0.0
 40
2.5
100
AcDbArc
 50
270.0
 51
270.0000000000007
  0
LINE
  5
4B
330
22
100
AcDbEntity
  8
0
100
AcDbLine
 10
28.77130377203494
 20
-12.77159925848147
 30
0.0
 11
24.43885465448463
 21
-12.77159925848144
 31
0.0
  0
LINE
  5
4C
330
22
100
AcDbEntity
  8
0
100
AcDbLine
 10
3.599730896781125
 20
-4.771599258481472
 30
0.0
 11
2.599730896781125
 21
-4.771599258481472
 31
0.0
  0
LINE
  5
4D
330
22
100
AcDbEntity
  8
0
100
AcDbLine
 10
22.59973089678116
 20
-8.771599258481472
 30
0.0
 11
18.59973089678115
 21
-8.771599258481472
 31
0.0
  0
LINE
  5
4E
330
22
100
AcDbEntity
  8
0
100
AcDbLine
 10
22.59973089678116
 20
-5.771599258481472
 30
0.0
 11
18.59973089678115
 21
-5.771599258481472
 31
0.0
  0
LINE
  5
4F
330
22
100
AcDbEntity
  8
0
100
AcDbLine
 10
22.59973089678116
 20
-4.771599258481472
 30
0.0
 11
17.59973089678115
 21
-4.771599258481472
 31
0.0
  0
LINE
  5
50
330
22
100
AcDbEntity
  8
0
100
AcDbLine
 10
18.59973089678115
 20
-5.771599258481472
 30
0.0
 11
18.59973089678115
 21
-8.771599258481472
 31
0.0
  0
ARC
  5
51
330
22
100
AcDbEntity
  8
0
100
AcDbCircle
 10
22.59973089678116
 20
-7.271599258481472
 30
0.0
 40
1.5
100
AcDbArc
 50
270.0
 51
90.0
  0
ENDBLK
  5
52
330
22
100
AcDbEntity
  8
0
100
AcDbBlockEnd
  0
BLOCK
  5
200B
330
2001
100
AcDbEntity
  8
0
100
AcDbBlockBegin
  2
*D1
 70
     1
 10
0.0
 20
0.0
 30
0.0
  3
*D1
  1

  0
LINE
  5
2089
330
2001
100
AcDbEntity
  8
BEM
 62
     0
370
    -2
100
AcDbLine
 10
132.5645504145337
 20
228.2878779550945
 30
0.0
 11
132.5645504145337
 21
195.631866378284
 31
0.0
  0
LINE
  5
208A
330
2001
100
AcDbEntity
  8
BEM
 62
     0
370
    -2
100
AcDbLine
 10
332.5635504145335
 20
228.2878779550944
 30
0.0
 11
332.5635504145335
 21
195.631866378284
 31
0.0
  0
LINE
  5
208B
330
2001
100
AcDbEntity
  8
BEM
 62
     0
370
    -2
100
AcDbLine
 10
139.5645504145337
 20
197.631866378284
 30
0.0
 11
325.5635504145335
 21
197.631866378284
 31
0.0
  0
SOLID
  5
208C
330
2001
100
AcDbEntity
  8
BEM
 62
     0
100
AcDbTrace
 10
139.5645504145337
 20
198.7985330449507
 30
0.0
 11
139.5645504145337
 21
196.4651997116174
 31
0.0
 12
132.5645504145337
 22
197.631866378284
 32
0.0
 13
132.5645504145337
 23
197.631866378284
 33
0.0
  0
SOLID
  5
208D
330
2001
100
AcDbEntity
  8
BEM
 62
     0
100
AcDbTrace
 10
325.5635504145335
 20
198.7985330449507
 30
0.0
 11
325.5635504145335
 21
196.4651997116174
 31
0.0
 12
332.5635504145335
 22
197.631866378284
 32
0.0
 13
332.5635504145335
 23
197.631866378284
 33
0.0
  0
MTEXT
  5
208E
330
2001
100
AcDbEntity
  8
BEM
 62
     1
100
AcDbMText
 10
232.5640504145336
 20
204.131866378284
 30
0.0
 40
7.0
 41
0.0
 71
     5
 72
     1
  1
\A1;200
 73
     1
 44
1.0
  0
POINT
  5
208F
330
2001
100
AcDbEntity
  8
Defpoints
 62
     0
100
AcDbPoint
 10
132.5645504145337
 20
230.2878779550945
 30
0.0
  0
POINT
  5
2090
330
2001
100
AcDbEntity
  8
Defpoints
 62
     0
100
AcDbPoint
 10
332.5635504145335
 20
230.2878779550944
 30
0.0
  0
POINT
  5
2091
330
2001
100
AcDbEntity
  8
Defpoints
 62
     0
100
AcDbPoint
 10
332.5635504145335
 20
197.631866378284
 30
0.0
  0
ENDBLK
  5
200C
330
2001
100
AcDbEntity
  8
0
100
AcDbBlockEnd
  0
BLOCK
  5
2018
330
200E
100
AcDbEntity
  8
0
100
AcDbBlockBegin
  2
*D2
 70
     1
 10
0.0
 20
0.0
 30
0.0
  3
*D2
  1

  0
LINE
  5
2080
330
200E
100
AcDbEntity
  8
BEM
 62
     0
370
    -2
100
AcDbLine
 10
121.5645504145336
 20
239.7878779550945
 30
0.0
 11
121.5645504145336
 21
181.3987250881039
 31
0.0
  0
LINE
  5
2081
330
200E
100
AcDbEntity
  8
BEM
 62
     0
370
    -2
100
AcDbLine
 10
343.5635504145337
 20
239.7878779550945
 30
0.0
 11
343.5635504145337
 21
181.3987250881039
 31
0.0
  0
LINE
  5
2082
330
200E
100
AcDbEntity
  8
BEM
 62
     0
370
    -2
100
AcDbLine
 10
128.5645504145336
 20
183.3987250881039
 30
0.0
 11
336.5635504145337
 21
183.3987250881039
 31
0.0
  0
SOLID
  5
2083
330
200E
100
AcDbEntity
  8
BEM
 62
     0
100
AcDbTrace
 10
128.5645504145336
 20
184.5653917547705
 30
0.0
 11
128.5645504145336
 21
182.2320584214372
 31
0.0
 12
121.5645504145336
 22
183.3987250881039
 32
0.0
 13
121.5645504145336
 23
183.3987250881039
 33
0.0
  0
SOLID
  5
2084
330
200E
100
AcDbEntity
  8
BEM
 62
     0
100
AcDbTrace
 10
336.5635504145337
 20
184.5653917547705
 30
0.0
 11
336.5635504145337
 21
182.2320584214372
 31
0.0
 12
343.5635504145337
 22
183.3987250881039
 32
0.0
 13
343.5635504145337
 23
183.3987250881039
 33
0.0
  0
MTEXT
  5
2085
330
200E
100
AcDbEntity
  8
BEM
 62
     1
100
AcDbMText
 10
232.5640504145336
 20
189.8987250881039
 30
0.0
 40
7.0
 41
0.0
 71
     5
 72
     1
  1
\A1;222
 73
     1
 44
1.0
  0
POINT
  5
2086
330
200E
100
AcDbEntity
  8
Defpoints
 62
     0
100
AcDbPoint
 10
121.5645504145336
 20
241.7878779550945
 30
0.0
  0
POINT
  5
2087
330
200E
100
AcDbEntity
  8
Defpoints
 62
     0
100
AcDbPoint
 10
343.5635504145337
 20
241.7878779550945
 30
0.0
  0
POINT
  5
2088
330
200E
100
AcDbEntity
  8
Defpoints
 62
     0
100
AcDbPoint
 10
343.5635504145337
 20
183.3987250881039
 30
0.0
  0
ENDBLK
  5
2019
330
200E
100
AcDbEntity
  8
0
100
AcDbBlockEnd
  0
BLOCK
  5
2037
330
202B
100
AcDbEntity
  8
0
100
AcDbBlockBegin
  2
*D3
 70
     1
 10
0.0
 20
0.0
 30
0.0
  3
*D3
  1

  0
LINE
  5
2075
330
202B
100
AcDbEntity
  8
BEM
 62
     0
370
    -2
100
AcDbLine
 10
119.5925504145336
 20
426.5664397097786
 30
0.0
 11
109.8693246201587
 21
426.5664397097786
 31
0.0
  0
LINE
  5
2076
330
202B
100
AcDbEntity
  8
BEM
 62
     0
370
    -2
100
AcDbLine
 10
119.5785504145336
 20
429.5664397097787
 30
0.0
 11
109.8693246201587
 21
429.5664397097787
 31
0.0
  0
LINE
  5
2077
330
202B
100
AcDbEntity
  8
BEM
 62
     0
370
    -2
100
AcDbLine
 10
111.8693246201587
 20
419.5664397097786
 30
0.0
 11
111.8693246201587
 21
412.5664397097786
 31
0.0
  0
LINE
  5
2078
330
202B
100
AcDbEntity
  8
BEM
 62
     0
370
    -2
100
AcDbLine
 10
111.8693246201587
 20
436.5664397097786
 30
0.0
 11
111.8693246201587
 21
453.2997730431119
 31
0.0
  0
LINE
  5
2079
330
202B
100
AcDbEntity
  8
BEM
 62
     0
370
    -2
100
AcDbLine
 10
111.8693246201587
 20
426.5664397097786
 30
0.0
 11
111.8693246201587
 21
429.5664397097787
 31
0.0
  0
SOLID
  5
207A
330
202B
100
AcDbEntity
  8
BEM
 62
     0
100
AcDbTrace
 10
110.7026579534921
 20
419.5664397097786
 30
0.0
 11
113.0359912868254
 21
419.5664397097786
 31
0.0
 12
111.8693246201587
 22
426.5664397097786
 32
0.0
 13
111.8693246201587
 23
426.5664397097786
 33
0.0
  0
SOLID
  5
207B
330
202B
100
AcDbEntity
  8
BEM
 62
     0
100
AcDbTrace
 10
110.7026579534921
 20
436.5664397097786
 30
0.0
 11
113.0359912868254
 21
436.5664397097786
 31
0.0
 12
111.8693246201587
 22
429.5664397097787
 32
0.0
 13
111.8693246201587
 23
429.5664397097787
 33
0.0
  0
MTEXT
  5
207C
330
202B
100
AcDbEntity
  8
BEM
 62
     1
100
AcDbMText
 10
105.3693246201587
 20
448.4331063764453
 30
0.0
 40
7.0
 41
0.0
 71
     5
 72
     1
  1
\A1;3
 11
0.0000000000000001
 21
1.0
 31
0.0
 73
     1
 44
1.0
  0
POINT
  5
207D
330
202B
100
AcDbEntity
  8
Defpoints
 62
     0
100
AcDbPoint
 10
121.5925504145336
 20
426.5664397097786
 30
0.0
  0
POINT
  5
207E
330
202B
100
AcDbEntity
  8
Defpoints
 62
     0
100
AcDbPoint
 10
121.5785504145336
 20
429.5664397097787
 30
0.0
  0
POINT
  5
207F
330
202B
100
AcDbEntity
  8
Defpoints
 62
     0
100
AcDbPoint
 10
111.8693246201587
 20
429.5664397097787
 30
0.0
  0
ENDBLK
  5
2038
330
202B
100
AcDbEntity
  8
0
100
AcDbBlockEnd
  0
BLOCK
  5
2044
330
203A
100
AcDbEntity
  8
0
100
AcDbBlockBegin
  2
*D4
 70
     1
 10
0.0
 20
0.0
 30
0.0
  3
*D4
  1

  0
LINE
  5
206C
330
203A
100
AcDbEntity
  8
BEM
 62
     0
370
    -2
100
AcDbLine
 10
230.5785504145337
 20
519.0664397097787
 30
0.0
 11
92.52562351975672
 21
519.0664397097787
 31
0.0
  0
LINE
  5
206D
330
203A
100
AcDbEntity
  8
BEM
 62
     0
370
    -2
100
AcDbLine
 10
222.7845504145337
 20
327.0664397097787
 30
0.0
 11
92.52562351975665
 21
327.0664397097787
 31
0.0
  0
LINE
  5
206E
330
203A
100
AcDbEntity
  8
BEM
 62
     0
370
    -2
100
AcDbLine
 10
94.5256235197567
 20
512.0664397097787
 30
0.0
 11
94.52562351975666
 21
334.0664397097787
 31
0.0
  0
SOLID
  5
206F
330
203A
100
AcDbEntity
  8
BEM
 62
     0
100
AcDbTrace
 10
93.35895685309003
 20
512.0664397097787
 30
0.0
 11
95.69229018642337
 21
512.0664397097787
 31
0.0
 12
94.5256235197567
 22
519.0664397097787
 32
0.0
 13
94.5256235197567
 23
519.0664397097787
 33
0.0
  0
SOLID
  5
2070
330
203A
100
AcDbEntity
  8
BEM
 62
     0
100
AcDbTrace
 10
93.35895685308999
 20
334.0664397097787
 30
0.0
 11
95.69229018642333
 21
334.0664397097787
 31
0.0
 12
94.52562351975666
 22
327.0664397097787
 32
0.0
 13
94.52562351975666
 23
327.0664397097787
 33
0.0
  0
MTEXT
  5
2071
330
203A
100
AcDbEntity
  8
BEM
 62
     1
100
AcDbMText
 10
88.02562351975662
 20
423.0664397097787
 30
0.0
 40
7.0
 41
0.0
 71
     5
 72
     1
  1
\A1;192
 11
0.0000000000000001
 21
1.0
 31
0.0
 73
     1
 44
1.0
  0
POINT
  5
2072
330
203A
100
AcDbEntity
  8
Defpoints
 62
     0
100
AcDbPoint
 10
232.5785504145336
 20
519.0664397097787
 30
0.0
  0
POINT
  5
2073
330
203A
100
AcDbEntity
  8
Defpoints
 62
     0
100
AcDbPoint
 10
224.7845504145337
 20
327.0664397097787
 30
0.0
  0
POINT
  5
2074
330
203A
100
AcDbEntity
  8
Defpoints
 62
     0
100
AcDbPoint
 10
94.52562351975666
 20
327.0664397097787
 30
0.0
  0
ENDBLK
  5
2045
330
203A
100
AcDbEntity
  8
0
100
AcDbBlockEnd
  0
BLOCK
  5
20B3
330
20AB
100
AcDbEntity
  8
0
100
AcDbBlockBegin
  2
*D5
 70
     1
 10
0.0
 20
0.0
 30
0.0
  3
*D5
  1

  0
LINE
  5
20D5
330
20AB
100
AcDbEntity
  8
BEM
 62
     0
370
    -2
100
AcDbLine
 10
170.0033454007914
 20
371.9919917188431
 30
0.0
 11
170.1536747486151
 21
371.8159786671697
 31
0.0
  0
LINE
  5
20D6
330
20AB
100
AcDbEntity
  8
BEM
 62
     0
370
    -2
100
AcDbLine
 10
297.7515476215967
 20
481.099263838314
 30
0.0
 11
297.9018769694214
 21
480.9232507866395
 31
0.0
  0
LINE
  5
20D7
330
20AB
100
AcDbEntity
  8
BEM
 62
     0
370
    -2
100
AcDbLine
 10
174.177620411155
 20
377.8829269366811
 30
0.0
 11
291.2801391135608
 21
477.8979263795283
 31
0.0
  0
SOLID
  5
20D8
330
20AB
100
AcDbEntity
  8
BEM
 62
     0
100
AcDbTrace
 10
173.4199310214364
 20
378.7700672298811
 30
0.0
 11
174.9353098008735
 21
376.995786643481
 31
0.0
 12
168.8547786519547
 22
373.3367905983698
 32
0.0
 13
168.8547786519547
 23
373.3367905983698
 33
0.0
  0
SOLID
  5
20D9
330
20AB
100
AcDbEntity
  8
BEM
 62
     0
100
AcDbTrace
 10
290.5224497238423
 20
478.7850666727284
 30
0.0
 11
292.0378285032793
 21
477.0107860863283
 31
0.0
 12
296.602980872761
 22
482.4440627178396
 32
0.0
 13
296.602980872761
 23
482.4440627178396
 33
0.0
  0
MTEXT
  5
20DA
330
20AB
100
AcDbEntity
  8
BEM
 62
     1
100
AcDbMText
 10
252.5162478893751
 20
453.3385010908353
 30
0.0
 40
7.0
 41
0.0
 71
     5
 72
     1
  1
\A1;%%c168
 11
0.7604059656000369
 21
0.6494480483301768
 31
0.0
 73
     1
 44
1.0
  0
POINT
  5
20DB
330
20AB
100
AcDbEntity
  8
Defpoints
 62
     0
100
AcDbPoint
 10
168.704449304131
 20
373.5128036500432
 30
0.0
  0
POINT
  5
20DC
330
20AB
100
AcDbEntity
  8
Defpoints
 62
     0
100
AcDbPoint
 10
296.4526515249364
 20
482.6200757695141
 30
0.0
  0
POINT
  5
20DD
330
20AB
100
AcDbEntity
  8
Defpoints
 62
     0
100
AcDbPoint
 10
296.602980872761
 20
482.4440627178396
 30
0.0
  0
ENDBLK
  5
20B4
330
20AB
100
AcDbEntity
  8
0
100
AcDbBlockEnd
  0
BLOCK
  5
2111
330
2107
100
AcDbEntity
  8
0
100
AcDbBlockBegin
  2
*D6
 70
     1
 10
0.0
 20
0.0
 30
0.0
  3
*D6
  1

  0
LINE
  5
2108
330
2107
100
AcDbEntity
  8
BEM
 62
     0
370
    -2
100
AcDbLine
 10
124.9235342631562
 20
261.7878779550948
 30
0.0
 11
101.8662579553802
 21
261.7878779550948
 31
0.0
  0
LINE
  5
2109
330
2107
100
AcDbEntity
  8
BEM
 62
     0
370
    -2
100
AcDbLine
 10
124.9235342631562
 20
221.7878779550942
 30
0.0
 11
101.8662579553802
 21
221.7878779550942
 31
0.0
  0
LINE
  5
210A
330
2107
100
AcDbEntity
  8
BEM
 62
     0
370
    -2
100
AcDbLine
 10
103.8662579553802
 20
254.7878779550948
 30
0.0
 11
103.8662579553802
 21
228.7878779550942
 31
0.0
  0
SOLID
  5
210B
330
2107
100
AcDbEntity
  8
BEM
 62
     0
100
AcDbTrace
 10
102.6995912887135
 20
254.7878779550948
 30
0.0
 11
105.0329246220469
 21
254.7878779550948
 31
0.0
 12
103.8662579553802
 22
261.7878779550948
 32
0.0
 13
103.8662579553802
 23
261.7878779550948
 33
0.0
  0
SOLID
  5
210C
330
2107
100
AcDbEntity
  8
BEM
 62
     0
100
AcDbTrace
 10
102.6995912887135
 20
228.7878779550942
 30
0.0
 11
105.0329246220469
 21
228.7878779550942
 31
0.0
 12
103.8662579553802
 22
221.7878779550942
 32
0.0
 13
103.8662579553802
 23
221.7878779550942
 33
0.0
  0
MTEXT
  5
210D
330
2107
100
AcDbEntity
  8
BEM
 62
     1
100
AcDbMText
 10
97.36625795538017
 20
241.7878779550945
 30
0.0
 40
7.0
 41
0.0
 71
     5
 72
     1
  1
\A1;40
 11
0.0000000000000001
 21
1.0
 31
0.0
 73
     1
 44
1.0
  0
POINT
  5
210E
330
2107
100
AcDbEntity
  8
Defpoints
 62
     0
100
AcDbPoint
 10
126.9235342631563
 20
261.7878779550948
 30
0.0
  0
POINT
  5
210F
330
2107
100
AcDbEntity
  8
Defpoints
 62
     0
100
AcDbPoint
 10
126.9235342631563
 20
221.7878779550942
 30
0.0
  0
POINT
  5
2110
330
2107
100
AcDbEntity
  8
Defpoints
 62
     0
100
AcDbPoint
 10
103.8662579553802
 20
221.7878779550942
 30
0.0
  0
ENDBLK
  5
2112
330
2107
100
AcDbEntity
  8
0
100
AcDbBlockEnd
  0
ENDSEC
  0
SECTION
  2
ENTITIES
  0
LINE
  5
57
330
1E
100
AcDbEntity
  8
STEMPEL
100
AcDbLine
 10
410.0
 20
110.0
 30
0.0
 11
39.99999999999997
 21
110.0
 31
0.0
  0
LINE
  5
58
330
1E
100
AcDbEntity
  8
STEMPEL
100
AcDbLine
 10
136.0000000000001
 20
109.9999999999999
 30
0.0
 11
136.0
 21
9.999999999999971
 31
0.0
  0
LINE
  5
59
330
1E
100
AcDbEntity
  8
STEMPEL
100
AcDbLine
 10
220.0
 20
110.0
 30
0.0
 11
220.0
 21
9.999999999999971
 31
0.0
  0
LINE
  5
5A
330
1E
100
AcDbEntity
  8
STEMPEL
100
AcDbLine
 10
332.0
 20
109.9999999999997
 30
0.0
 11
332.0
 21
40.0
 31
0.0
  0
LINE
  5
5B
330
1E
100
AcDbEntity
  8
STEMPEL
100
AcDbLine
 10
135.9999999999999
 20
29.99999999999997
 30
0.0
 11
39.99999999999997
 21
29.99999999999997
 31
0.0
  0
LINE
  5
5C
330
1E
100
AcDbEntity
  8
STEMPEL
100
AcDbLine
 10
410.0
 20
40.0
 30
0.0
 11
136.0000000000001
 21
39.99999999999997
 31
0.0
  0
LINE
  5
5D
330
1E
100
AcDbEntity
  8
STEMPEL
100
AcDbLine
 10
410.0
 20
80.0
 30
0.0
 11
136.0000000000001
 21
79.99999999999994
 31
0.0
  0
LINE
  5
5E
330
1E
100
AcDbEntity
  8
VOLL
100
AcDbLine
 10
54.00000000000009
 20
110.0
 30
0.0
 11
53.99999999999997
 21
9.999999999999971
 31
0.0
  0
LINE
  5
5F
330
1E
100
AcDbEntity
  8
VOLL
100
AcDbLine
 10
94.00000000000011
 20
109.9999999999999
 30
0.0
 11
94.0
 21
9.999999999999971
 31
0.0
  0
LINE
  5
60
330
1E
100
AcDbEntity
  8
VOLL
100
AcDbLine
 10
114.0000000000001
 20
109.9999999999999
 30
0.0
 11
114.0
 21
9.999999999999971
 31
0.0
  0
LINE
  5
61
330
1E
100
AcDbEntity
  8
VOLL
100
AcDbLine
 10
154.0000000000001
 20
79.99999999999994
 30
0.0
 11
154.0000000000001
 21
39.99999999999997
 31
0.0
  0
LINE
  5
62
330
1E
100
AcDbEntity
  8
VOLL
100
AcDbLine
 10
180.0000000000001
 20
109.9999999999998
 30
0.0
 11
180.0
 21
39.99999999999997
 31
0.0
  0
LINE
  5
63
330
1E
100
AcDbEntity
  8
HILF
100
AcDbLine
 10
40.00000000000008
 20
100.0
 30
0.0
 11
136.0000000000001
 21
100.0
 31
0.0
  0
LINE
  5
64
330
1E
100
AcDbEntity
  8
HILF
100
AcDbLine
 10
40.00000000000008
 20
90.00000000000005
 30
0.0
 11
136.0000000000001
 21
90.00000000000005
 31
0.0
  0
LINE
  5
65
330
1E
100
AcDbEntity
  8
HILF
100
AcDbLine
 10
40.00000000000008
 20
79.99999999999994
 30
0.0
 11
136.0000000000001
 21
79.99999999999994
 31
0.0
  0
LINE
  5
66
330
1E
100
AcDbEntity
  8
HILF
100
AcDbLine
 10
40.00000000000008
 20
69.99999999999994
 30
0.0
 11
136.0000000000001
 21
69.99999999999994
 31
0.0
  0
LINE
  5
67
330
1E
100
AcDbEntity
  8
HILF
100
AcDbLine
 10
40.00000000000008
 20
59.99999999999997
 30
0.0
 11
136.0000000000001
 21
59.99999999999997
 31
0.0
  0
LINE
  5
68
330
1E
100
AcDbEntity
  8
HILF
100
AcDbLine
 10
40.00000000000008
 20
49.99999999999997
 30
0.0
 11
136.0000000000001
 21
49.99999999999997
 31
0.0
  0
LINE
  5
69
330
1E
100
AcDbEntity
  8
HILF
100
AcDbLine
 10
40.00000000000008
 20
39.99999999999997
 30
0.0
 11
136.0000000000001
 21
39.99999999999997
 31
0.0
  0
LINE
  5
6A
330
1E
100
AcDbEntity
  8
HILF
100
AcDbLine
 10
136.0000000000001
 20
69.99999999999994
 30
0.0
 11
220.0
 21
69.99999999999994
 31
0.0
  0
LINE
  5
6B
330
1E
100
AcDbEntity
  8
HILF
100
AcDbLine
 10
136.0000000000001
 20
59.99999999999997
 30
0.0
 11
220.0
 21
59.99999999999997
 31
0.0
  0
LINE
  5
6C
330
1E
100
AcDbEntity
  8
HILF
100
AcDbLine
 10
136.0000000000001
 20
49.99999999999997
 30
0.0
 11
220.0
 21
49.99999999999997
 31
0.0
  0
LINE
  5
6D
330
1E
100
AcDbEntity
  8
HILF
100
AcDbLine
 10
224.7736801096948
 20
84.03758247564139
 30
0.0
 11
324.8353916556311
 21
84.03758247564139
 31
0.0
  0
LINE
  5
6E
330
1E
100
AcDbEntity
  8
HILF
100
AcDbLine
 10
224.7736801096948
 20
69.99999999999994
 30
0.0
 11
324.835391655631
 21
69.99999999999994
 31
0.0
  0
LINE
  5
6F
330
1E
100
AcDbEntity
  8
HILF
100
AcDbLine
 10
224.7736801096948
 20
59.99999999999997
 30
0.0
 11
324.835391655631
 21
59.99999999999997
 31
0.0
  0
LINE
  5
70
330
1E
100
AcDbEntity
  8
HILF
100
AcDbLine
 10
224.7736801096948
 20
49.99999999999997
 30
0.0
 11
324.835391655631
 21
49.99999999999997
 31
0.0
  0
LINE
  5
71
330
1E
100
AcDbEntity
  8
VOLL
100
AcDbLine
 10
332.0
 20
60.0
 30
0.0
 11
410.0
 21
60.0
 31
0.0
  0
LINE
  5
72
330
1E
100
AcDbEntity
  8
HILF
100
AcDbLine
 10
336.7238616296993
 20
83.77983636955827
 30
0.0
 11
404.8588839326728
 21
83.77983636955827
 31
0.0
  0
LINE
  5
73
330
1E
100
AcDbEntity
  8
HILF
100
AcDbLine
 10
223.4909699289885
 20
14.89398258028314
 30
0.0
 11
404.8588839326728
 21
14.89398258028314
 31
0.0
  0
TEXT
  5
74
330
1E
100
AcDbEntity
  8
TEXT
100
AcDbText
 10
63.86165979631819
 20
18.67381894984132
 30
0.0
 40
4.0
  1
Änderung
 41
0.8
  7
GREEKS
 72
     1
 11
74.60451693917534
 21
18.67381894984132
 31
0.0
100
AcDbText
  0
TEXT
  5
75
330
1E
100
AcDbEntity
  8
TEXT
100
AcDbText
 10
143.5163572150377
 20
102.4620895087088
 30
0.0
 40
5.0
  1
Maßstab
 41
0.8
  7
GREEKS
100
AcDbText
  0
TEXT
  5
76
330
1E
100
AcDbEntity
  8
TEXT
100
AcDbText
 10
184.2858954734051
 20
102.4184168434819
 30
0.0
 40
5.0
  1
Zul. Abw.
 41
0.8
  7
GREEKS
100
AcDbText
  0
TEXT
  5
77
330
1E
100
AcDbEntity
  8
TEXT
100
AcDbText
 10
224.877940380901
 20
102.5489328011779
 30
0.0
 40
5.0
  1
Benennung
 41
0.8
  7
GREEKS
100
AcDbText
  0
TEXT
  5
78
330
1E
100
AcDbEntity
  8
TEXT
100
AcDbText
 10
336.178754957634
 20
102.3132034537136
 30
0.0
 40
5.0
  1
Zeichnungs Nr.
 41
0.8
  7
GREEKS
100
AcDbText
  0
TEXT
  5
79
330
1E
100
AcDbEntity
  8
TEXT
100
AcDbText
 10
224.742238391136
 20
30.84560570193057
 30
0.0
 40
5.0
  1
Bauvorhaben
 41
0.8
  7
GREEKS
100
AcDbText
  0
TEXT
  5
7A
330
1E
100
AcDbEntity
  8
TEXT
100
AcDbText
 10
336.7238616296993
 20
73.1811823709997
 30
0.0
 40
5.0
  1
Ersatz für:
 41
0.8
  7
GREEKS
100
AcDbText
  0
TEXT
  5
7B
330
1E
100
AcDbEntity
  8
TEXT
100
AcDbText
 10
48.26641107045756
 20
13.65465846027192
 30
0.0
 40
4.0
  1
Index
 50
90.0
 41
0.8
  7
GREEKS
100
AcDbText
  0
TEXT
  5
7C
330
1E
100
AcDbEntity
  8
TEXT
100
AcDbText
 10
100.0934676075481
 20
18.6715626933981
 30
0.0
 40
4.0
  1
Tag
 41
0.8
  7
GREEKS
 72
     1
 11
103.8268009408814
 21
18.6715626933981
 31
0.0
100
AcDbText
  0
TEXT
  5
7D
330
1E
100
AcDbEntity
  8
TEXT
100
AcDbText
 10
119.0122744386592
 20
18.59324216966408
 30
0.0
 40
4.0
  1
Name
 41
0.8
  7
GREEKS
 72
     1
 11
125.3360839624688
 21
18.59324216966408
 31
0.0
100
AcDbText
  0
TEXT
  5
7E
330
1E
100
AcDbEntity
  8
TEXT
100
AcDbText
 10
162.3311673153651
 20
73.31880501229926
 30
0.0
 40
4.0
  1
Tag
 41
0.8
  7
GREEKS
100
AcDbText
  0
TEXT
  5
7F
330
1E
100
AcDbEntity
  8
TEXT
100
AcDbText
 10
192.4626584226295
 20
73.30961091915225
 30
0.0
 40
4.0
  1
Name
 41
0.8
  7
GREEKS
100
AcDbText
  0
TEXT
  5
80
330
1E
100
AcDbEntity
  8
TEXT
100
AcDbText
 10
137.5836127167615
 20
63.62990369617964
 30
0.0
 40
4.0
  1
Gez.
 41
0.8
  7
GREEKS
100
AcDbText
  0
TEXT
  5
81
330
1E
100
AcDbEntity
  8
TEXT
100
AcDbText
 10
137.5515086571672
 20
53.68926291428377
 30
0.0
 40
4.0
  1
Gepr.
 41
0.8
  7
GREEKS
100
AcDbText
  0
TEXT
  5
82
330
1E
100
AcDbEntity
  8
TEXT
100
AcDbText
 10
137.6006777387304
 20
43.52946389649807
 30
0.0
 40
4.0
  1
Norm.
 41
0.8
  7
GREEKS
100
AcDbText
  0
LINE
  5
83
330
1E
100
AcDbEntity
  8
STEMPEL
100
AcDbLine
 10
49.99999999999989
 20
10.0
 30
0.0
 11
410.0
 21
10.0
 31
0.0
  0
TEXT
  5
84
330
1E
100
AcDbEntity
  8
TEXT
100
AcDbText
 10
337.2400861497006
 20
52.07416177878602
 30
0.0
 40
5.0
  1
ersetzt durch:
 41
0.8
  7
GREEKS
100
AcDbText
  0
LINE
  5
85
330
1E
100
AcDbEntity
  8
STEMPEL
100
AcDbLine
 10
410.0
 20
10.0
 30
0.0
 11
39.99999999999989
 21
10.0
 31
0.0
  0
LINE
  5
86
330
1E
100
AcDbEntity
  8
STEMPEL
100
AcDbLine
 10
410.0
 20
10.0
 30
0.0
 11
410.0
 21
584.0
 31
0.0
  0
LINE
  5
87
330
1E
100
AcDbEntity
  8
STEMPEL
100
AcDbLine
 10
40.0
 20
10.0
 30
0.0
 11
39.99999999999989
 21
584.0
 31
0.0
  0
LINE
  5
88
330
1E
100
AcDbEntity
  8
STEMPEL
100
AcDbLine
 10
410.0
 20
584.0
 30
0.0
 11
39.99999999999989
 21
584.0
 31
0.0
  0
LINE
  5
89
330
1E
100
AcDbEntity
  8
HILF
100
AcDbLine
 10
0.0
 20
0.0
 30
0.0
 11
-0.0000000000001137
 21
594.0
 31
0.0
  0
LINE
  5
8A
330
1E
100
AcDbEntity
  8
HILF
100
AcDbLine
 10
419.9999999999999
 20
594.0000000000002
 30
0.0
 11
0.0
 21
594.0
 31
0.0
  0
LINE
  5
8B
330
1E
100
AcDbEntity
  8
HILF
100
AcDbLine
 10
420.0
 20
0.0
 30
0.0
 11
0.0
 21
0.0
 31
0.0
  0
LINE
  5
8C
330
1E
100
AcDbEntity
  8
HILF
100
AcDbLine
 10
31.08767135713856
 20
297.0
 30
0.0
 11
0.0000000000001137
 21
297.0
 31
0.0
  0
TEXT
  5
8D
330
1E
100
AcDbEntity
  8
TEXT
100
AcDbText
 10
138.622109822104
 20
73.14025471151666
 30
0.0
 40
4.0
  1
2012
 41
0.8
  7
GREEKS
100
AcDbText
  0
LINE
  5
8E
330
1E
100
AcDbEntity
  8
HILF
100
AcDbLine
 10
420.0
 20
-0.0000000000001137
 30
0.0
 11
419.9999999999999
 21
594.0
 31
0.0
  0
TEXT
  5
8F
330
1E
100
AcDbEntity
  8
VOLL
100
AcDbText
 10
78.07675471698113
 20
31.02594776470585
 30
0.0
 40
1.8
  1

  7
GREEKS
100
AcDbText
  0
TEXT
  5
90
330
1E
100
AcDbEntity
  8
TEXT
100
AcDbText
 10
41.85509950977674
 20
111.6719999999999
 30
0.0
 40
5.0
  1
Erstellt mit AUTOCAD 2004
 41
0.8
  7
GREEKS
100
AcDbText
  0
TEXT
  5
91
330
1E
100
AcDbEntity
  8
TEXT
100
AcDbText
 10
194.4216048581257
 20
63.0896391972351
 30
0.0
 40
4.0
  1
Koeh
 41
0.8
  7
GREEKS
 72
     1
 11
199.6787477152685
 21
63.0896391972351
 31
0.0
100
AcDbText
  0
TEXT
  5
92
330
1E
100
AcDbEntity
  8
TEXT
 62
     1
100
AcDbText
 10
346.3054909762015
 20
88.14901428913959
 30
0.0
 40
7.0
  1
00976150W
 41
0.8
  7
GREEKS
 72
     1
 11
369.7721576428681
 21
88.14901428913959
 31
0.0
100
AcDbText
  0
TEXT
  5
93
330
1E
100
AcDbEntity
  8
TEXT
 62
     1
100
AcDbText
 10
150.5006306481887
 20
88.14901428913959
 30
0.0
 40
7.0
  1
1:2
 41
0.8
  7
GREEKS
100
AcDbText
  0
TEXT
  5
94
330
1E
100
AcDbEntity
  8
TEXT
100
AcDbText
 10
160.7037590129979
 20
63.10765040825732
 30
0.0
 40
4.0
  1
29.10.
 41
0.8
  7
GREEKS
 72
     1
 11
167.4085209177598
 21
63.10765040825732
 31
0.0
100
AcDbText
  0
TEXT
  5
95
330
1E
100
AcDbEntity
  8
TEXT
 62
     1
100
AcDbText
 10
226.8935731057402
 20
87.41748789253779
 30
0.0
 40
7.0
  1
Rohrschelle DN150
 41
0.8
  7
GREEKS
100
AcDbText
  0
TEXT
  5
96
330
1E
100
AcDbEntity
  8
TEXT
100
AcDbText
 10
225.1296391125315
 20
71.50334417585288
 30
0.0
 40
5.0
  1
mit Anschlußgewinde M12
 41
0.8
  7
GREEKS
100
AcDbText
  0
TEXT
  5
98
330
1E
100
AcDbEntity
  8
TEXT
100
AcDbText
 10
225.1296391125315
 20
51.64011943042158
 30
0.0
 40
5.0
  1
EDV-Art.Nr. 00976.150X
 41
0.8
  7
GREEKS
100
AcDbText
  0
TEXT
  5
99
330
1E
100
AcDbEntity
  8
TEXT
100
AcDbText
 10
224.9837501577827
 20
42.62974153022632
 30
0.0
 40
4.0
  1
00976150W.DWG
 41
0.8
  7
GREEKS
100
AcDbText
  0
TEXT
  5
9A
330
1E
100
AcDbEntity
  8
TEXT
100
AcDbText
 10
182.626132208084
 20
90.76363841023022
 30
0.0
 40
4.0
  1
DIN EN1123-2
 41
0.8
  7
GREEKS
 72
     1
 11
199.6166083985602
 21
90.76363841023022
 31
0.0
100
AcDbText
  0
INSERT
  5
9B
330
1E
100
AcDbEntity
  8
STEMPEL
100
AcDbBlockReference
  2
LOGO
 10
140.9955485457794
 20
45.02105276448322
 30
0.0
 41
2.0
 42
2.0
 43
2.0
  0
TEXT
  5
118
330
1E
100
AcDbEntity
  8
BEM
100
AcDbText
 10
417.3022923857165
 20
10.16790107998849
 30
0.0
 40
4.0
  1
Diese Zeichnung ist urheberrechtlich geschützt und bleibt unser Eigentum. Sie darf weder ganz noch teilweise verfielfältigt und nicht an Dritte weitergegeben werden.
 50
90.0
 41
0.8
  7
GREEKS
100
AcDbText
  0
TEXT
  5
7BF
330
1E
100
AcDbEntity
  8
TEXT
 62
     1
100
AcDbText
 10
243.1557190347354
 20
308.4281436144604
 30
0.0
 40
7.0
  1
M12
 41
0.8
  7
GREEKS
100
AcDbText
  0
LINE
  5
7C0
330
1E
100
AcDbEntity
  8
TEXT
 62
     2
100
AcDbLine
 10
241.0358260386898
 20
305.048238197564
 30
0.0
 11
258.1807462270587
 21
305.048238197564
 31
0.0
  0
LINE
  5
7C1
330
1E
100
AcDbEntity
  8
TEXT
 62
     2
100
AcDbLine
 10
241.0358260386898
 20
305.048238197564
 30
0.0
 11
232.5785504145336
 21
327.0664397097786
 31
0.0
  0
TEXT
  5
1137
330
1E
100
AcDbEntity
  8
TEXT
 62
     1
100
AcDbText
 10
316.1080633623893
 20
497.6643274656805
 30
0.0
 40
7.0
  1
Schraube M8x30
 41
0.8
  7
GREEKS
100
AcDbText
  0
LINE
  5
1138
330
1E
100
AcDbEntity
  8
TEXT
 62
     2
100
AcDbLine
 10
313.988170366344
 20
494.2844220487843
 30
0.0
 11
388.9898521839744
 21
494.2844220487843
 31
0.0
  0
LINE
  5
1139
330
1E
100
AcDbEntity
  8
TEXT
 62
     2
100
AcDbLine
 10
388.9898521839744
 20
494.2844220487843
 30
0.0
 11
335.871225784847
 21
435.2761907822034
 31
0.0
  0
LINE
  5
1F1F
330
1E
100
AcDbEntity
  8
HILF
100
AcDbLine
 10
329.6725504145337
 20
402.5664397097786
 30
0.0
 11
329.6725504145337
 21
420.5664397097786
 31
0.0
  0
LINE
  5
1F20
330
1E
100
AcDbEntity
  8
HILF
100
AcDbLine
 10
336.1725504145337
 20
402.5664397097786
 30
0.0
 11
336.1725504145337
 21
420.5664397097786
 31
0.0
  0
LINE
  5
1F21
330
1E
100
AcDbEntity
  8
STEMPEL
100
AcDbLine
 10
336.9225504145337
 20
403.3164397097786
 30
0.0
 11
328.9225504145337
 21
403.3164397097786
 31
0.0
  0
LINE
  5
1F22
330
1E
100
AcDbEntity
  8
HILF
100
AcDbLine
 10
329.6725504145337
 20
428.3164397097786
 30
0.0
 11
329.6725504145337
 21
429.5664397097787
 31
0.0
  0
LINE
  5
1F23
330
1E
100
AcDbEntity
  8
HILF
100
AcDbLine
 10
329.6725504145337
 20
426.5664397097786
 30
0.0
 11
329.6725504145337
 21
427.8164397097786
 31
0.0
  0
LINE
  5
1F24
330
1E
100
AcDbEntity
  8
HILF
100
AcDbLine
 10
336.1725504145337
 20
428.3164397097786
 30
0.0
 11
336.1725504145337
 21
429.5664397097787
 31
0.0
  0
LINE
  5
1F25
330
1E
100
AcDbEntity
  8
HILF
100
AcDbLine
 10
336.1725504145337
 20
426.5664397097786
 30
0.0
 11
336.1725504145337
 21
427.8164397097786
 31
0.0
  0
LINE
  5
1F26
330
1E
100
AcDbEntity
  8
STEMPEL
100
AcDbLine
 10
328.9225504145337
 20
428.3164397097786
 30
0.0
 11
328.9225504145337
 21
429.5664397097787
 31
0.0
  0
LINE
  5
1F27
330
1E
100
AcDbEntity
  8
STEMPEL
100
AcDbLine
 10
328.9225504145337
 20
426.5664397097786
 30
0.0
 11
328.9225504145337
 21
427.8164397097786
 31
0.0
  0
LINE
  5
1F28
330
1E
100
AcDbEntity
  8
STEMPEL
100
AcDbLine
 10
336.9225504145337
 20
427.8164397097786
 30
0.0
 11
336.9225504145337
 21
426.5664397097786
 31
0.0
  0
LINE
  5
1F29
330
1E
100
AcDbEntity
  8
STEMPEL
100
AcDbLine
 10
336.9225504145337
 20
429.5664397097787
 30
0.0
 11
336.9225504145337
 21
428.3164397097786
 31
0.0
  0
ARC
  5
1F2A
330
1E
100
AcDbEntity
  8
STEMPEL
100
AcDbCircle
 10
332.9225504145337
 20
426.7084397097786
 30
0.0
 40
11.158
100
AcDbArc
 50
95.9155207670004
 51
109.652859632001
  0
ARC
  5
1F2B
330
1E
100
AcDbEntity
  8
STEMPEL
100
AcDbCircle
 10
332.9225504145337
 20
426.7084397097786
 30
0.0
 40
11.158
100
AcDbArc
 50
70.34714036799893
 51
84.08447923299958
  0
LINE
  5
1F2C
330
1E
100
AcDbEntity
  8
STEMPEL
100
AcDbLine
 10
331.7725504145337
 20
437.8664397097786
 30
0.0
 11
327.2935504145337
 21
437.8664397097786
 31
0.0
  0
LINE
  5
1F2D
330
1E
100
AcDbEntity
  8
STEMPEL
100
AcDbLine
 10
331.7725504145337
 20
435.3664397097786
 30
0.0
 11
331.7725504145337
 21
437.8664397097786
 31
0.0
  0
LINE
  5
1F2E
330
1E
100
AcDbEntity
  8
STEMPEL
100
AcDbLine
 10
334.0725504145337
 20
435.3664397097786
 30
0.0
 11
331.7725504145337
 21
435.3664397097786
 31
0.0
  0
LINE
  5
1F2F
330
1E
100
AcDbEntity
  8
STEMPEL
100
AcDbLine
 10
334.0725504145337
 20
437.8664397097786
 30
0.0
 11
334.0725504145337
 21
435.3664397097786
 31
0.0
  0
LINE
  5
1F30
330
1E
100
AcDbEntity
  8
STEMPEL
100
AcDbLine
 10
338.5515504145337
 20
437.8664397097786
 30
0.0
 11
334.0725504145337
 21
437.8664397097786
 31
0.0
  0
LINE
  5
1F31
330
1E
100
AcDbEntity
  8
STEMPEL
100
AcDbLine
 10
328.9225504145337
 20
403.3164397097786
 30
0.0
 11
328.9225504145337
 21
420.5664397097786
 31
0.0
  0
LINE
  5
1F32
330
1E
100
AcDbEntity
  8
STEMPEL
100
AcDbLine
 10
329.6725504145337
 20
402.5664397097786
 30
0.0
 11
328.9225504145337
 21
403.3164397097786
 31
0.0
  0
LINE
  5
1F33
330
1E
100
AcDbEntity
  8
STEMPEL
100
AcDbLine
 10
336.1725504145337
 20
402.5664397097786
 30
0.0
 11
329.6725504145337
 21
402.5664397097786
 31
0.0
  0
LINE
  5
1F34
330
1E
100
AcDbEntity
  8
STEMPEL
100
AcDbLine
 10
336.9225504145337
 20
403.3164397097786
 30
0.0
 11
336.1725504145337
 21
402.5664397097786
 31
0.0
  0
LINE
  5
1F35
330
1E
100
AcDbEntity
  8
STEMPEL
100
AcDbLine
 10
336.9225504145337
 20
420.5664397097786
 30
0.0
 11
336.9225504145337
 21
403.3164397097786
 31
0.0
  0
LINE
  5
1F36
330
1E
100
AcDbEntity
  8
STEMPEL
100
AcDbLine
 10
336.6755504145337
 20
437.2164397097787
 30
0.0
 11
336.6755504145337
 21
432.5664397097786
 31
0.0
  0
ARC
  5
1F37
330
1E
100
AcDbEntity
  8
STEMPEL
100
AcDbCircle
 10
338.5515504145337
 20
434.8334397097786
 30
0.0
 40
3.032999999999999
100
AcDbArc
 50
90.0
 51
128.2132107020002
  0
ARC
  5
1F38
330
1E
100
AcDbEntity
  8
STEMPEL
100
AcDbCircle
 10
338.5515504145337
 20
434.8334397097786
 30
0.0
 40
3.032999999999999
100
AcDbArc
 50
51.78678929799973
 51
90.0
  0
LINE
  5
1F39
330
1E
100
AcDbEntity
  8
STEMPEL
100
AcDbLine
 10
340.4275504145337
 20
432.5664397097786
 30
0.0
 11
340.4275504145337
 21
437.2164397097787
 31
0.0
  0
LINE
  5
1F3A
330
1E
100
AcDbEntity
  8
STEMPEL
100
AcDbLine
 10
337.3225504145337
 20
432.5664397097786
 30
0.0
 11
340.4275504145337
 21
432.5664397097786
 31
0.0
  0
LINE
  5
1F3B
330
1E
100
AcDbEntity
  8
STEMPEL
100
AcDbLine
 10
328.5225504145337
 20
432.5664397097786
 30
0.0
 11
337.3225504145337
 21
432.5664397097786
 31
0.0
  0
LINE
  5
1F3C
330
1E
100
AcDbEntity
  8
STEMPEL
100
AcDbLine
 10
325.4165504145337
 20
432.5664397097786
 30
0.0
 11
328.5225504145337
 21
432.5664397097786
 31
0.0
  0
LINE
  5
1F3D
330
1E
100
AcDbEntity
  8
STEMPEL
100
AcDbLine
 10
325.4165504145337
 20
437.2164397097787
 30
0.0
 11
325.4165504145337
 21
432.5664397097786
 31
0.0
  0
ARC
  5
1F3E
330
1E
100
AcDbEntity
  8
STEMPEL
100
AcDbCircle
 10
327.2935504145337
 20
434.8334397097786
 30
0.0
 40
3.032999999999999
100
AcDbArc
 50
90.0
 51
128.2132107020002
  0
ARC
  5
1F3F
330
1E
100
AcDbEntity
  8
STEMPEL
100
AcDbCircle
 10
327.2935504145337
 20
434.8334397097786
 30
0.0
 40
3.032999999999999
100
AcDbArc
 50
51.78678929799973
 51
90.0
  0
LINE
  5
1F40
330
1E
100
AcDbEntity
  8
STEMPEL
100
AcDbLine
 10
329.1695504145337
 20
432.5664397097786
 30
0.0
 11
329.1695504145337
 21
437.2164397097787
 31
0.0
  0
LINE
  5
1F41
330
1E
100
AcDbEntity
  8
HILF
100
AcDbLine
 10
129.3425504145336
 20
402.5664397097786
 30
0.0
 11
129.3425504145336
 21
420.5664397097786
 31
0.0
  0
LINE
  5
1F42
330
1E
100
AcDbEntity
  8
HILF
100
AcDbLine
 10
135.8425504145336
 20
402.5664397097786
 30
0.0
 11
135.8425504145336
 21
420.5664397097786
 31
0.0
  0
LINE
  5
1F43
330
1E
100
AcDbEntity
  8
STEMPEL
100
AcDbLine
 10
136.5925504145336
 20
403.3164397097786
 30
0.0
 11
128.5925504145336
 21
403.3164397097786
 31
0.0
  0
LINE
  5
1F44
330
1E
100
AcDbEntity
  8
HILF
100
AcDbLine
 10
129.3425504145336
 20
428.3164397097786
 30
0.0
 11
129.3425504145336
 21
429.5664397097787
 31
0.0
  0
LINE
  5
1F45
330
1E
100
AcDbEntity
  8
HILF
100
AcDbLine
 10
129.3425504145336
 20
426.5664397097786
 30
0.0
 11
129.3425504145336
 21
427.8164397097786
 31
0.0
  0
LINE
  5
1F46
330
1E
100
AcDbEntity
  8
HILF
100
AcDbLine
 10
135.8425504145336
 20
428.3164397097786
 30
0.0
 11
135.8425504145336
 21
429.5664397097787
 31
0.0
  0
LINE
  5
1F47
330
1E
100
AcDbEntity
  8
HILF
100
AcDbLine
 10
135.8425504145336
 20
426.5664397097786
 30
0.0
 11
135.8425504145336
 21
427.8164397097786
 31
0.0
  0
LINE
  5
1F48
330
1E
100
AcDbEntity
  8
STEMPEL
100
AcDbLine
 10
128.5925504145336
 20
428.3164397097786
 30
0.0
 11
128.5925504145336
 21
429.5664397097787
 31
0.0
  0
LINE
  5
1F49
330
1E
100
AcDbEntity
  8
STEMPEL
100
AcDbLine
 10
128.5925504145336
 20
426.5664397097786
 30
0.0
 11
128.5925504145336
 21
427.8164397097786
 31
0.0
  0
LINE
  5
1F4A
330
1E
100
AcDbEntity
  8
STEMPEL
100
AcDbLine
 10
136.5925504145336
 20
427.8164397097786
 30
0.0
 11
136.5925504145336
 21
426.5664397097786
 31
0.0
  0
LINE
  5
1F4B
330
1E
100
AcDbEntity
  8
STEMPEL
100
AcDbLine
 10
136.5925504145336
 20
429.5664397097787
 30
0.0
 11
136.5925504145336
 21
428.3164397097786
 31
0.0
  0
ARC
  5
1F4C
330
1E
100
AcDbEntity
  8
STEMPEL
100
AcDbCircle
 10
132.5925504145336
 20
426.7084397097786
 30
0.0
 40
11.158
100
AcDbArc
 50
95.9155207670004
 51
109.652859632001
  0
ARC
  5
1F4D
330
1E
100
AcDbEntity
  8
STEMPEL
100
AcDbCircle
 10
132.5925504145336
 20
426.7084397097786
 30
0.0
 40
11.158
100
AcDbArc
 50
70.34714036799893
 51
84.08447923299958
  0
LINE
  5
1F4E
330
1E
100
AcDbEntity
  8
STEMPEL
100
AcDbLine
 10
131.4425504145336
 20
437.8664397097786
 30
0.0
 11
126.9635504145336
 21
437.8664397097786
 31
0.0
  0
LINE
  5
1F4F
330
1E
100
AcDbEntity
  8
STEMPEL
100
AcDbLine
 10
131.4425504145336
 20
435.3664397097786
 30
0.0
 11
131.4425504145336
 21
437.8664397097786
 31
0.0
  0
LINE
  5
1F50
330
1E
100
AcDbEntity
  8
STEMPEL
100
AcDbLine
 10
133.7425504145336
 20
435.3664397097786
 30
0.0
 11
131.4425504145336
 21
435.3664397097786
 31
0.0
  0
LINE
  5
1F51
330
1E
100
AcDbEntity
  8
STEMPEL
100
AcDbLine
 10
133.7425504145336
 20
437.8664397097786
 30
0.0
 11
133.7425504145336
 21
435.3664397097786
 31
0.0
  0
LINE
  5
1F52
330
1E
100
AcDbEntity
  8
STEMPEL
100
AcDbLine
 10
138.2215504145337
 20
437.8664397097786
 30
0.0
 11
133.7425504145336
 21
437.8664397097786
 31
0.0
  0
LINE
  5
1F53
330
1E
100
AcDbEntity
  8
STEMPEL
100
AcDbLine
 10
128.5925504145336
 20
403.3164397097786
 30
0.0
 11
128.5925504145336
 21
420.5664397097786
 31
0.0
  0
LINE
  5
1F54
330
1E
100
AcDbEntity
  8
STEMPEL
100
AcDbLine
 10
129.3425504145336
 20
402.5664397097786
 30
0.0
 11
128.5925504145336
 21
403.3164397097786
 31
0.0
  0
LINE
  5
1F55
330
1E
100
AcDbEntity
  8
STEMPEL
100
AcDbLine
 10
135.8425504145336
 20
402.5664397097786
 30
0.0
 11
129.3425504145336
 21
402.5664397097786
 31
0.0
  0
LINE
  5
1F56
330
1E
100
AcDbEntity
  8
STEMPEL
100
AcDbLine
 10
136.5925504145336
 20
403.3164397097786
 30
0.0
 11
135.8425504145336
 21
402.5664397097786
 31
0.0
  0
LINE
  5
1F57
330
1E
100
AcDbEntity
  8
STEMPEL
100
AcDbLine
 10
136.5925504145336
 20
420.5664397097786
 30
0.0
 11
136.5925504145336
 21
403.3164397097786
 31
0.0
  0
LINE
  5
1F58
330
1E
100
AcDbEntity
  8
STEMPEL
100
AcDbLine
 10
136.3455504145337
 20
437.2164397097787
 30
0.0
 11
136.3455504145337
 21
432.5664397097786
 31
0.0
  0
ARC
  5
1F59
330
1E
100
AcDbEntity
  8
STEMPEL
100
AcDbCircle
 10
138.2215504145337
 20
434.8334397097786
 30
0.0
 40
3.032999999999999
100
AcDbArc
 50
90.0
 51
128.2132107020002
  0
ARC
  5
1F5A
330
1E
100
AcDbEntity
  8
STEMPEL
100
AcDbCircle
 10
138.2215504145337
 20
434.8334397097786
 30
0.0
 40
3.032999999999999
100
AcDbArc
 50
51.78678929799973
 51
90.0
  0
LINE
  5
1F5B
330
1E
100
AcDbEntity
  8
STEMPEL
100
AcDbLine
 10
140.0975504145336
 20
432.5664397097786
 30
0.0
 11
140.0975504145336
 21
437.2164397097787
 31
0.0
  0
LINE
  5
1F5C
330
1E
100
AcDbEntity
  8
STEMPEL
100
AcDbLine
 10
136.9925504145336
 20
432.5664397097786
 30
0.0
 11
140.0975504145336
 21
432.5664397097786
 31
0.0
  0
LINE
  5
1F5D
330
1E
100
AcDbEntity
  8
STEMPEL
100
AcDbLine
 10
128.1925504145337
 20
432.5664397097786
 30
0.0
 11
136.9925504145336
 21
432.5664397097786
 31
0.0
  0
LINE
  5
1F5E
330
1E
100
AcDbEntity
  8
STEMPEL
100
AcDbLine
 10
125.0865504145337
 20
432.5664397097786
 30
0.0
 11
128.1925504145337
 21
432.5664397097786
 31
0.0
  0
LINE
  5
1F5F
330
1E
100
AcDbEntity
  8
STEMPEL
100
AcDbLine
 10
125.0865504145337
 20
437.2164397097787
 30
0.0
 11
125.0865504145337
 21
432.5664397097786
 31
0.0
  0
ARC
  5
1F60
330
1E
100
AcDbEntity
  8
STEMPEL
100
AcDbCircle
 10
126.9635504145336
 20
434.8334397097786
 30
0.0
 40
3.032999999999999
100
AcDbArc
 50
90.0
 51
128.2132107020002
  0
ARC
  5
1F61
330
1E
100
AcDbEntity
  8
STEMPEL
100
AcDbCircle
 10
126.9635504145336
 20
434.8334397097786
 30
0.0
 40
3.032999999999999
100
AcDbArc
 50
51.78678929799973
 51
90.0
  0
LINE
  5
1F62
330
1E
100
AcDbEntity
  8
STEMPEL
100
AcDbLine
 10
128.8395504145336
 20
432.5664397097786
 30
0.0
 11
128.8395504145336
 21
437.2164397097787
 31
0.0
  0
LINE
  5
1F63
330
1E
100
AcDbEntity
  8
STEMPEL
100
AcDbLine
 10
331.4135504145337
 20
235.2878779550945
 30
0.0
 11
331.4135504145337
 21
248.2878779550945
 31
0.0
  0
LINE
  5
1F64
330
1E
100
AcDbEntity
  8
STEMPEL
100
AcDbLine
 10
333.7135504145337
 20
235.2878779550945
 30
0.0
 11
333.7135504145337
 21
248.2878779550945
 31
0.0
  0
ARC
  5
1F65
330
1E
100
AcDbEntity
  8
STEMPEL
100
AcDbCircle
 10
332.5635504145337
 20
241.7878779550945
 30
0.0
 40
6.5
100
AcDbArc
 50
280.1905887679999
 51
79.80941123200008
  0
ARC
  5
1F66
330
1E
100
AcDbEntity
  8
STEMPEL
100
AcDbCircle
 10
332.5635504145337
 20
241.7878779550945
 30
0.0
 40
6.5
100
AcDbArc
 50
100.1905887679999
 51
259.8094112320001
  0
LINE
  5
1F67
330
1E
100
AcDbEntity
  8
STEMPEL
100
AcDbLine
 10
328.8105504145337
 20
235.2878779550945
 30
0.0
 11
325.0585504145337
 21
241.7878779550945
 31
0.0
  0
LINE
  5
1F68
330
1E
100
AcDbEntity
  8
STEMPEL
100
AcDbLine
 10
336.3165504145336
 20
235.2878779550945
 30
0.0
 11
328.8105504145337
 21
235.2878779550945
 31
0.0
  0
LINE
  5
1F69
330
1E
100
AcDbEntity
  8
STEMPEL
100
AcDbLine
 10
340.0695504145338
 20
241.7878779550945
 30
0.0
 11
336.3165504145336
 21
235.2878779550945
 31
0.0
  0
LINE
  5
1F6A
330
1E
100
AcDbEntity
  8
STEMPEL
100
AcDbLine
 10
336.3165504145336
 20
248.2878779550945
 30
0.0
 11
340.0695504145338
 21
241.7878779550945
 31
0.0
  0
LINE
  5
1F6B
330
1E
100
AcDbEntity
  8
STEMPEL
100
AcDbLine
 10
328.8105504145337
 20
248.2878779550945
 30
0.0
 11
336.3165504145336
 21
248.2878779550945
 31
0.0
  0
LINE
  5
1F6C
330
1E
100
AcDbEntity
  8
STEMPEL
100
AcDbLine
 10
325.0585504145337
 20
241.7878779550945
 30
0.0
 11
328.8105504145337
 21
248.2878779550945
 31
0.0
  0
LINE
  5
1F6D
330
1E
100
AcDbEntity
  8
STEMPEL
100
AcDbLine
 10
131.4145504145336
 20
235.2878779550945
 30
0.0
 11
131.4145504145336
 21
248.2878779550945
 31
0.0
  0
LINE
  5
1F6E
330
1E
100
AcDbEntity
  8
STEMPEL
100
AcDbLine
 10
133.7145504145337
 20
235.2878779550945
 30
0.0
 11
133.7145504145337
 21
248.2878779550945
 31
0.0
  0
ARC
  5
1F6F
330
1E
100
AcDbEntity
  8
STEMPEL
100
AcDbCircle
 10
132.5645504145336
 20
241.7878779550945
 30
0.0
 40
6.5
100
AcDbArc
 50
280.1905887679999
 51
79.80941123200008
  0
ARC
  5
1F70
330
1E
100
AcDbEntity
  8
STEMPEL
100
AcDbCircle
 10
132.5645504145336
 20
241.7878779550945
 30
0.0
 40
6.5
100
AcDbArc
 50
100.1905887679999
 51
259.8094112320001
  0
LINE
  5
1F71
330
1E
100
AcDbEntity
  8
STEMPEL
100
AcDbLine
 10
128.8115504145337
 20
235.2878779550945
 30
0.0
 11
125.0595504145336
 21
241.7878779550945
 31
0.0
  0
LINE
  5
1F72
330
1E
100
AcDbEntity
  8
STEMPEL
100
AcDbLine
 10
136.3175504145337
 20
235.2878779550945
 30
0.0
 11
128.8115504145337
 21
235.2878779550945
 31
0.0
  0
LINE
  5
1F73
330
1E
100
AcDbEntity
  8
STEMPEL
100
AcDbLine
 10
140.0705504145336
 20
241.7878779550945
 30
0.0
 11
136.3175504145337
 21
235.2878779550945
 31
0.0
  0
LINE
  5
1F74
330
1E
100
AcDbEntity
  8
STEMPEL
100
AcDbLine
 10
136.3175504145337
 20
248.2878779550945
 30
0.0
 11
140.0705504145336
 21
241.7878779550945
 31
0.0
  0
LINE
  5
1F75
330
1E
100
AcDbEntity
  8
STEMPEL
100
AcDbLine
 10
128.8115504145337
 20
248.2878779550945
 30
0.0
 11
136.3175504145337
 21
248.2878779550945
 31
0.0
  0
LINE
  5
1F76
330
1E
100
AcDbEntity
  8
STEMPEL
100
AcDbLine
 10
125.0595504145336
 20
241.7878779550945
 30
0.0
 11
128.8115504145337
 21
248.2878779550945
 31
0.0
  0
LINE
  5
1F77
330
1E
100
AcDbEntity
  8
STEMPEL
100
AcDbLine
 10
325.3155504145336
 20
428.3164397097786
 30
0.0
 11
325.3155504145336
 21
427.8164397097786
 31
0.0
  0
LINE
  5
1F78
330
1E
100
AcDbEntity
  8
STEMPEL
100
AcDbLine
 10
339.8155504145336
 20
428.3164397097786
 30
0.0
 11
325.3155504145336
 21
428.3164397097786
 31
0.0
  0
LINE
  5
1F79
330
1E
100
AcDbEntity
  8
STEMPEL
100
AcDbLine
 10
339.8155504145336
 20
427.8164397097786
 30
0.0
 11
339.8155504145336
 21
428.3164397097786
 31
0.0
  0
LINE
  5
1F7A
330
1E
100
AcDbEntity
  8
STEMPEL
100
AcDbLine
 10
325.3155504145336
 20
427.8164397097786
 30
0.0
 11
339.8155504145336
 21
427.8164397097786
 31
0.0
  0
LINE
  5
1F7B
330
1E
100
AcDbEntity
  8
STEMPEL
100
AcDbLine
 10
125.3425504145336
 20
428.3164397097786
 30
0.0
 11
125.3425504145336
 21
427.8164397097786
 31
0.0
  0
LINE
  5
1F7C
330
1E
100
AcDbEntity
  8
STEMPEL
100
AcDbLine
 10
139.8425504145336
 20
428.3164397097786
 30
0.0
 11
125.3425504145336
 21
428.3164397097786
 31
0.0
  0
LINE
  5
1F7D
330
1E
100
AcDbEntity
  8
STEMPEL
100
AcDbLine
 10
139.8425504145336
 20
427.8164397097786
 30
0.0
 11
139.8425504145336
 21
428.3164397097786
 31
0.0
  0
LINE
  5
1F7E
330
1E
100
AcDbEntity
  8
STEMPEL
100
AcDbLine
 10
125.3425504145336
 20
427.8164397097786
 30
0.0
 11
139.8425504145336
 21
427.8164397097786
 31
0.0
  0
ARC
  5
1F7F
330
1E
100
AcDbEntity
  8
STEMPEL
100
AcDbCircle
 10
232.5785504145336
 20
428.0664397097786
 30
0.0
 40
91.0
100
AcDbArc
 50
4.780191847000275
 51
38.26026927400004
  0
LINE
  5
1F80
330
1E
100
AcDbEntity
  8
STEMPEL
100
AcDbLine
 10
308.3145504145337
 20
434.4004397097786
 30
0.0
 11
323.2625504145338
 21
435.6504397097786
 31
0.0
  0
ARC
  5
1F81
330
1E
100
AcDbEntity
  8
STEMPEL
100
AcDbCircle
 10
232.5785504145336
 20
428.0664397097786
 30
0.0
 40
76.0
100
AcDbArc
 50
4.780191847000275
 51
37.42153840299879
  0
LINE
  5
1F82
330
1E
100
AcDbEntity
  8
HILF
100
AcDbLine
 10
296.9805504145337
 20
475.5764397097786
 30
0.0
 11
292.9375504145337
 21
474.2504397097786
 31
0.0
  0
LINE
  5
1F83
330
1E
100
AcDbEntity
  8
HILF
100
AcDbLine
 10
301.3975504145337
 20
483.3504397097786
 30
0.0
 11
296.9805504145337
 21
475.5764397097786
 31
0.0
  0
LINE
  5
1F84
330
1E
100
AcDbEntity
  8
HILF
100
AcDbLine
 10
304.0325504145337
 20
484.4174397097786
 30
0.0
 11
301.3975504145337
 21
483.3504397097786
 31
0.0
  0
LINE
  5
1F85
330
1E
100
AcDbEntity
  8
HILF
100
AcDbLine
 10
296.7595504145337
 20
489.4444397097786
 30
0.0
 11
298.8665504145337
 21
490.4124397097787
 31
0.0
  0
LINE
  5
1F86
330
1E
100
AcDbEntity
  8
HILF
100
AcDbLine
 10
290.5305504145336
 20
481.5844397097786
 30
0.0
 11
296.7595504145337
 21
489.4444397097786
 31
0.0
  0
LINE
  5
1F87
330
1E
100
AcDbEntity
  8
HILF
100
AcDbLine
 10
287.4075504145337
 20
480.6964397097786
 30
0.0
 11
290.5305504145336
 21
481.5844397097786
 31
0.0
  0
ARC
  5
1F88
330
1E
100
AcDbEntity
  8
STEMPEL
100
AcDbCircle
 10
232.5785504145336
 20
428.0664397097786
 30
0.0
 40
76.0
100
AcDbArc
 50
43.82765244699923
 51
175.2198081529997
  0
LINE
  5
1F89
330
1E
100
AcDbEntity
  8
STEMPEL
100
AcDbLine
 10
141.8955504145336
 20
435.6504397097786
 30
0.0
 11
156.8435504145336
 21
434.4004397097786
 31
0.0
  0
ARC
  5
1F8A
330
1E
100
AcDbEntity
  8
STEMPEL
100
AcDbCircle
 10
232.5785504145336
 20
428.0664397097786
 30
0.0
 40
91.0
100
AcDbArc
 50
43.2447217450001
 51
175.2198081529997
  0
ARC
  5
1F8B
330
1E
100
AcDbEntity
  8
STEMPEL
100
AcDbCircle
 10
232.5785504145336
 20
428.0664397097786
 30
0.0
 40
91.0
100
AcDbArc
 50
223.3939681529995
 51
355.2198081529998
  0
LINE
  5
1F8C
330
1E
100
AcDbEntity
  8
STEMPEL
100
AcDbLine
 10
308.3145504145337
 20
421.7334397097785
 30
0.0
 11
323.2625504145338
 21
420.4834397097786
 31
0.0
  0
ARC
  5
1F8D
330
1E
100
AcDbEntity
  8
STEMPEL
100
AcDbCircle
 10
232.5785504145336
 20
428.0664397097786
 30
0.0
 40
76.0
100
AcDbArc
 50
223.7622117779986
 51
355.2198081529998
  0
LINE
  5
1F8E
330
1E
100
AcDbEntity
  8
HILF
100
AcDbLine
 10
175.3415504145337
 20
371.2094397097786
 30
0.0
 11
177.6905504145336
 21
375.5004397097787
 31
0.0
  0
LINE
  5
1F8F
330
1E
100
AcDbEntity
  8
HILF
100
AcDbLine
 10
167.7475504145336
 20
366.7734397097786
 30
0.0
 11
175.3415504145337
 21
371.2094397097786
 31
0.0
  0
LINE
  5
1F90
330
1E
100
AcDbEntity
  8
HILF
100
AcDbLine
 10
166.4545504145337
 20
365.5484397097787
 30
0.0
 11
167.7475504145336
 21
366.7734397097786
 31
0.0
  0
LINE
  5
1F91
330
1E
100
AcDbEntity
  8
HILF
100
AcDbLine
 10
160.4115504145336
 20
375.3044397097787
 30
0.0
 11
159.4615504145337
 21
373.8924397097786
 31
0.0
  0
LINE
  5
1F92
330
1E
100
AcDbEntity
  8
HILF
100
AcDbLine
 10
169.4135504145337
 20
379.4424397097787
 30
0.0
 11
160.4115504145336
 21
375.3044397097787
 31
0.0
  0
LINE
  5
1F93
330
1E
100
AcDbEntity
  8
HILF
100
AcDbLine
 10
171.5355504145336
 20
382.7924397097786
 30
0.0
 11
169.4135504145337
 21
379.4424397097787
 31
0.0
  0
ARC
  5
1F94
330
1E
100
AcDbEntity
  8
STEMPEL
100
AcDbCircle
 10
232.5785504145336
 20
428.0664397097786
 30
0.0
 40
76.0
100
AcDbArc
 50
184.7801918470003
 51
216.5632837800004
  0
LINE
  5
1F95
330
1E
100
AcDbEntity
  8
STEMPEL
100
AcDbLine
 10
141.8955504145336
 20
420.4834397097786
 30
0.0
 11
156.8435504145336
 21
421.7334397097785
 31
0.0
  0
ARC
  5
1F96
330
1E
100
AcDbEntity
  8
STEMPEL
100
AcDbCircle
 10
232.5785504145336
 20
428.0664397097786
 30
0.0
 40
91.0
100
AcDbArc
 50
184.7801918470003
 51
216.5352748889997
  0
LINE
  5
1F97
330
1E
100
AcDbEntity
  8
STEMPEL
100
AcDbLine
 10
126.9205504145336
 20
429.5664397097787
 30
0.0
 11
126.9205504145336
 21
432.5664397097786
 31
0.0
  0
LINE
  5
1F98
330
1E
100
AcDbEntity
  8
STEMPEL
100
AcDbLine
 10
338.2365504145337
 20
429.5664397097787
 30
0.0
 11
338.2365504145337
 21
432.5664397097786
 31
0.0
  0
ARC
  5
1F99
330
1E
100
AcDbEntity
  8
STEMPEL
100
AcDbCircle
 10
232.5785504145336
 20
428.0664397097786
 30
0.0
 40
87.0
100
AcDbArc
 50
38.4427026939995
 51
43.55663438199957
  0
ARC
  5
1F9A
330
1E
100
AcDbEntity
  8
STEMPEL
100
AcDbCircle
 10
232.5785504145336
 20
428.0664397097786
 30
0.0
 40
84.0
100
AcDbArc
 50
37.61546939900027
 51
43.26711413500052
  0
ARC
  5
1F9B
330
1E
100
AcDbEntity
  8
STEMPEL
100
AcDbCircle
 10
322.2655504145337
 20
435.5664397097786
 30
0.0
 40
3.0
100
AcDbArc
 50
184.7801918470003
 51
270.0
  0
LINE
  5
1F9C
330
1E
100
AcDbEntity
  8
STEMPEL
100
AcDbLine
 10
343.5785504145337
 20
432.5664397097786
 30
0.0
 11
322.2655504145337
 21
432.5664397097786
 31
0.0
  0
LINE
  5
1F9D
330
1E
100
AcDbEntity
  8
STEMPEL
100
AcDbLine
 10
343.5785504145337
 20
429.5664397097787
 30
0.0
 11
343.5785504145337
 21
432.5664397097786
 31
0.0
  0
LINE
  5
1F9E
330
1E
100
AcDbEntity
  8
STEMPEL
100
AcDbLine
 10
322.2655504145337
 20
429.5664397097787
 30
0.0
 11
343.5785504145337
 21
429.5664397097787
 31
0.0
  0
ARC
  5
1F9F
330
1E
100
AcDbEntity
  8
STEMPEL
100
AcDbCircle
 10
322.2655504145337
 20
435.5664397097786
 30
0.0
 40
6.0
100
AcDbArc
 50
184.7801918470003
 51
270.0
  0
ARC
  5
1FA0
330
1E
100
AcDbEntity
  8
STEMPEL
100
AcDbCircle
 10
142.8915504145336
 20
435.5664397097786
 30
0.0
 40
6.0
100
AcDbArc
 50
270.0
 51
355.2198081529998
  0
LINE
  5
1FA1
330
1E
100
AcDbEntity
  8
STEMPEL
100
AcDbLine
 10
121.5785504145336
 20
429.5664397097787
 30
0.0
 11
142.8915504145336
 21
429.5664397097787
 31
0.0
  0
LINE
  5
1FA2
330
1E
100
AcDbEntity
  8
STEMPEL
100
AcDbLine
 10
121.5785504145336
 20
432.5664397097786
 30
0.0
 11
121.5785504145336
 21
429.5664397097787
 31
0.0
  0
LINE
  5
1FA3
330
1E
100
AcDbEntity
  8
STEMPEL
100
AcDbLine
 10
142.8915504145336
 20
432.5664397097786
 30
0.0
 11
121.5785504145336
 21
432.5664397097786
 31
0.0
  0
ARC
  5
1FA4
330
1E
100
AcDbEntity
  8
STEMPEL
100
AcDbCircle
 10
142.8915504145336
 20
435.5664397097786
 30
0.0
 40
3.0
100
AcDbArc
 50
270.0
 51
355.2198081529998
  0
LINE
  5
1FA8
330
1E
100
AcDbEntity
  8
STEMPEL
100
AcDbLine
 10
237.7755504145337
 20
337.2154397097787
 30
0.0
 11
237.7755504145337
 21
327.9664397097787
 31
0.0
  0
LINE
  5
1FA9
330
1E
100
AcDbEntity
  8
STEMPEL
100
AcDbLine
 10
240.3735504145336
 20
327.0664397097786
 30
0.0
 11
224.7845504145337
 21
327.0664397097787
 31
0.0
  0
ARC
  5
1FAA
330
1E
100
AcDbEntity
  8
STEMPEL
100
AcDbCircle
 10
232.5785504145336
 20
342.5164397097786
 30
0.0
 40
15.45
100
AcDbArc
 50
250.3471403679989
 51
270.0
  0
ARC
  5
1FAB
330
1E
100
AcDbEntity
  8
STEMPEL
100
AcDbCircle
 10
240.3735504145336
 20
331.2664397097786
 30
0.0
 40
4.2
100
AcDbArc
 50
270.0
 51
308.2132107020003
  0
LINE
  5
1FAC
330
1E
100
AcDbEntity
  8
STEMPEL
100
AcDbLine
 10
242.9715504145337
 20
337.6624397097787
 30
0.0
 11
242.9715504145337
 21
327.9664397097787
 31
0.0
  0
LINE
  5
1FAD
330
1E
100
AcDbEntity
  8
STEMPEL
100
AcDbLine
 10
227.3825504145336
 20
327.9664397097787
 30
0.0
 11
227.3825504145336
 21
337.2154397097787
 31
0.0
  0
ARC
  5
1FAE
330
1E
100
AcDbEntity
  8
STEMPEL
100
AcDbCircle
 10
224.7845504145337
 20
331.2664397097786
 30
0.0
 40
4.2
100
AcDbArc
 50
270.0
 51
308.2132107020003
  0
ARC
  5
1FAF
330
1E
100
AcDbEntity
  8
STEMPEL
100
AcDbCircle
 10
224.7845504145337
 20
331.2664397097786
 30
0.0
 40
4.2
100
AcDbArc
 50
231.7867892979998
 51
270.0
  0
LINE
  5
1FB0
330
1E
100
AcDbEntity
  8
STEMPEL
100
AcDbLine
 10
222.1865504145337
 20
337.6624397097787
 30
0.0
 11
222.1865504145337
 21
327.9664397097787
 31
0.0
  0
ARC
  5
1FB2
330
1E
100
AcDbEntity
  8
STEMPEL
100
AcDbCircle
 10
232.5785504145336
 20
342.5164397097786
 30
0.0
 40
15.45
100
AcDbArc
 50
270.0
 51
289.6528596320011
  0
ARC
  5
1FB3
330
1E
100
AcDbEntity
  8
STEMPEL
100
AcDbCircle
 10
240.3735504145336
 20
331.2664397097786
 30
0.0
 40
4.2
100
AcDbArc
 50
231.7867892979998
 51
270.0
  0
LINE
  5
1FB4
330
1E
100
AcDbEntity
  8
STEMPEL
100
AcDbLine
 10
338.2235504145338
 20
426.5664397097786
 30
0.0
 11
338.2235504145338
 21
423.5664397097786
 31
0.0
  0
LINE
  5
1FB5
330
1E
100
AcDbEntity
  8
STEMPEL
100
AcDbLine
 10
126.9345504145336
 20
426.5664397097786
 30
0.0
 11
126.9345504145336
 21
423.5664397097786
 31
0.0
  0
ARC
  5
1FB6
330
1E
100
AcDbEntity
  8
STEMPEL
100
AcDbCircle
 10
339.0655504145336
 20
422.0664397097786
 30
0.0
 40
1.5
100
AcDbArc
 50
90.0
 51
180.0
  0
LINE
  5
1FB7
330
1E
100
AcDbEntity
  8
STEMPEL
100
AcDbLine
 10
337.5655504145336
 20
420.5664397097786
 30
0.0
 11
337.5655504145336
 21
422.0664397097786
 31
0.0
  0
LINE
  5
1FB8
330
1E
100
AcDbEntity
  8
STEMPEL
100
AcDbLine
 10
327.5655504145336
 20
420.5664397097786
 30
0.0
 11
337.5655504145336
 21
420.5664397097786
 31
0.0
  0
LINE
  5
1FB9
330
1E
100
AcDbEntity
  8
STEMPEL
100
AcDbLine
 10
327.5655504145336
 20
422.0664397097786
 30
0.0
 11
327.5655504145336
 21
420.5664397097786
 31
0.0
  0
ARC
  5
1FBA
330
1E
100
AcDbEntity
  8
STEMPEL
100
AcDbCircle
 10
326.0655504145336
 20
422.0664397097786
 30
0.0
 40
1.5
100
AcDbArc
 50
0.0
 51
90.0
  0
ARC
  5
1FBB
330
1E
100
AcDbEntity
  8
STEMPEL
100
AcDbCircle
 10
139.0925504145336
 20
422.0664397097786
 30
0.0
 40
1.5
100
AcDbArc
 50
90.0
 51
180.0
  0
LINE
  5
1FBC
330
1E
100
AcDbEntity
  8
STEMPEL
100
AcDbLine
 10
137.5925504145336
 20
420.5664397097786
 30
0.0
 11
137.5925504145336
 21
422.0664397097786
 31
0.0
  0
LINE
  5
1FBD
330
1E
100
AcDbEntity
  8
STEMPEL
100
AcDbLine
 10
127.5925504145336
 20
420.5664397097786
 30
0.0
 11
137.5925504145336
 21
420.5664397097786
 31
0.0
  0
LINE
  5
1FBE
330
1E
100
AcDbEntity
  8
STEMPEL
100
AcDbLine
 10
127.5925504145336
 20
422.0664397097786
 30
0.0
 11
127.5925504145336
 21
420.5664397097786
 31
0.0
  0
ARC
  5
1FBF
330
1E
100
AcDbEntity
  8
STEMPEL
100
AcDbCircle
 10
126.0925504145336
 20
422.0664397097786
 30
0.0
 40
1.5
100
AcDbArc
 50
0.0
 51
90.0
  0
ARC
  5
1FC0
330
1E
100
AcDbEntity
  8
STEMPEL
100
AcDbCircle
 10
232.5785504145336
 20
428.0664397097786
 30
0.0
 40
84.0
100
AcDbArc
 50
216.9202355589999
 51
224.223109402
  0
ARC
  5
1FC1
330
1E
100
AcDbEntity
  8
STEMPEL
100
AcDbCircle
 10
232.5785504145336
 20
428.0664397097786
 30
0.0
 40
87.0
100
AcDbArc
 50
216.4922126710011
 51
223.7334980749996
  0
ARC
  5
1FC2
330
1E
100
AcDbEntity
  8
STEMPEL
100
AcDbCircle
 10
322.2655504145337
 20
420.5664397097786
 30
0.0
 40
3.0
100
AcDbArc
 50
90.0
 51
175.2198081529997
  0
LINE
  5
1FC3
330
1E
100
AcDbEntity
  8
STEMPEL
100
AcDbLine
 10
343.5655504145336
 20
423.5664397097786
 30
0.0
 11
322.2655504145337
 21
423.5664397097786
 31
0.0
  0
LINE
  5
1FC4
330
1E
100
AcDbEntity
  8
STEMPEL
100
AcDbLine
 10
343.5655504145336
 20
426.5664397097786
 30
0.0
 11
343.5655504145336
 21
423.5664397097786
 31
0.0
  0
LINE
  5
1FC5
330
1E
100
AcDbEntity
  8
STEMPEL
100
AcDbLine
 10
322.2655504145337
 20
426.5664397097786
 30
0.0
 11
343.5655504145336
 21
426.5664397097786
 31
0.0
  0
ARC
  5
1FC6
330
1E
100
AcDbEntity
  8
STEMPEL
100
AcDbCircle
 10
322.2655504145337
 20
420.5664397097786
 30
0.0
 40
6.0
100
AcDbArc
 50
90.0
 51
175.2198081529997
  0
ARC
  5
1FC7
330
1E
100
AcDbEntity
  8
STEMPEL
100
AcDbCircle
 10
142.8915504145336
 20
420.5664397097786
 30
0.0
 40
6.0
100
AcDbArc
 50
4.780191847000275
 51
90.0
  0
LINE
  5
1FC8
330
1E
100
AcDbEntity
  8
STEMPEL
100
AcDbLine
 10
121.5925504145336
 20
426.5664397097786
 30
0.0
 11
142.8915504145336
 21
426.5664397097786
 31
0.0
  0
LINE
  5
1FC9
330
1E
100
AcDbEntity
  8
STEMPEL
100
AcDbLine
 10
121.5925504145336
 20
423.5664397097786
 30
0.0
 11
121.5925504145336
 21
426.5664397097786
 31
0.0
  0
LINE
  5
1FCA
330
1E
100
AcDbEntity
  8
STEMPEL
100
AcDbLine
 10
142.8915504145336
 20
423.5664397097786
 30
0.0
 11
121.5925504145336
 21
423.5664397097786
 31
0.0
  0
ARC
  5
1FCB
330
1E
100
AcDbEntity
  8
STEMPEL
100
AcDbCircle
 10
142.8915504145336
 20
420.5664397097786
 30
0.0
 40
3.0
100
AcDbArc
 50
4.780191847000275
 51
90.0
  0
LINE
  5
1FCC
330
1E
100
AcDbEntity
  8
MITTEL
100
AcDbLine
 10
132.5925504145337
 20
442.8664397097787
 30
0.0
 11
132.5925504145336
 21
397.5664397097787
 31
0.0
  0
LINE
  5
1FCD
330
1E
100
AcDbEntity
  8
MITTEL
100
AcDbLine
 10
332.5655504145335
 20
397.5664397097787
 30
0.0
 11
332.5655504145336
 21
442.8664397097787
 31
0.0
  0
LINE
  5
1FCE
330
1E
100
AcDbEntity
  8
MITTEL
100
AcDbLine
 10
116.5785504145336
 20
428.0664397097786
 30
0.0
 11
348.5785504145336
 21
428.0664397097786
 31
0.0
  0
LINE
  5
1FCF
330
1E
100
AcDbEntity
  8
MITTEL
100
AcDbLine
 10
232.5785504145336
 20
322.0664397097786
 30
0.0
 11
232.5785504145336
 21
524.0664397097787
 31
0.0
  0
LINE
  5
1FE4
330
1E
100
AcDbEntity
  8
STEMPEL
100
AcDbLine
 10
142.1665504145336
 20
265.5378779550945
 30
0.0
 11
142.1665504145336
 21
253.7878779550945
 31
0.0
  0
LINE
  5
1FE5
330
1E
100
AcDbEntity
  8
STEMPEL
100
AcDbLine
 10
322.9625504145337
 20
265.5378779550945
 30
0.0
 11
142.1665504145336
 21
265.5378779550945
 31
0.0
  0
LINE
  5
1FE6
330
1E
100
AcDbEntity
  8
STEMPEL
100
AcDbLine
 10
322.9625504145337
 20
253.7878779550945
 30
0.0
 11
322.9625504145337
 21
265.5378779550945
 31
0.0
  0
LINE
  5
1FE7
330
1E
100
AcDbEntity
  8
STEMPEL
100
AcDbLine
 10
142.1665504145336
 20
253.7878779550945
 30
0.0
 11
322.9625504145337
 21
253.7878779550945
 31
0.0
  0
LINE
  5
1FE8
330
1E
100
AcDbEntity
  8
STEMPEL
100
AcDbLine
 10
322.9625504145337
 20
218.0378779550945
 30
0.0
 11
322.9625504145337
 21
229.7878779550945
 31
0.0
  0
LINE
  5
1FE9
330
1E
100
AcDbEntity
  8
STEMPEL
100
AcDbLine
 10
142.1665504145336
 20
218.0378779550945
 30
0.0
 11
322.9625504145337
 21
218.0378779550945
 31
0.0
  0
LINE
  5
1FEA
330
1E
100
AcDbEntity
  8
STEMPEL
100
AcDbLine
 10
142.1665504145336
 20
229.7878779550945
 30
0.0
 11
142.1665504145336
 21
218.0378779550945
 31
0.0
  0
LINE
  5
1FEB
330
1E
100
AcDbEntity
  8
STEMPEL
100
AcDbLine
 10
322.9625504145337
 20
229.7878779550945
 30
0.0
 11
142.1665504145336
 21
229.7878779550945
 31
0.0
  0
LINE
  5
1FEC
330
1E
100
AcDbEntity
  8
HILF
100
AcDbLine
 10
145.7105504145337
 20
253.7878779550945
 30
0.0
 11
145.7105504145337
 21
229.7878779550945
 31
0.0
  0
LINE
  5
1FED
330
1E
100
AcDbEntity
  8
HILF
100
AcDbLine
 10
319.4175504145337
 20
253.7878779550945
 30
0.0
 11
319.4175504145337
 21
229.7878779550945
 31
0.0
  0
LINE
  5
1FEE
330
1E
100
AcDbEntity
  8
MITTEL
100
AcDbLine
 10
332.5635504145335
 20
230.2878779550944
 30
0.0
 11
332.5635504145335
 21
253.2878779550945
 31
0.0
  0
LINE
  5
1FEF
330
1E
100
AcDbEntity
  8
MITTEL
100
AcDbLine
 10
132.5645504145337
 20
230.2878779550945
 30
0.0
 11
132.5645504145337
 21
253.2878779550945
 31
0.0
  0
LINE
  5
1FF0
330
1E
100
AcDbEntity
  8
MITTEL
100
AcDbLine
 10
232.5785504145335
 20
270.5378779550945
 30
0.0
 11
232.5785504145338
 21
213.0378779550945
 31
0.0
  0
LINE
  5
1FF1
330
1E
100
AcDbEntity
  8
MITTEL
100
AcDbLine
 10
348.5635504145335
 20
241.7878779550945
 30
0.0
 11
116.5645504145337
 21
241.7878779550945
 31
0.0
  0
LINE
  5
1FF2
330
1E
100
AcDbEntity
  8
STEMPEL
100
AcDbLine
 10
338.2045504145338
 20
261.7878779550945
 30
0.0
 11
322.9625504145337
 21
261.7878779550945
 31
0.0
  0
ARC
  5
1FF3
330
1E
100
AcDbEntity
  8
STEMPEL
100
AcDbCircle
 10
303.5635504145337
 20
241.7878779550945
 30
0.0
 40
40.0
100
AcDbArc
 50
329.9999999999995
 51
30.00000000000055
  0
LINE
  5
1FF4
330
1E
100
AcDbEntity
  8
STEMPEL
100
AcDbLine
 10
322.9625504145337
 20
221.7878779550945
 30
0.0
 11
338.2045504145338
 21
221.7878779550945
 31
0.0
  0
LINE
  5
1FF5
330
1E
100
AcDbEntity
  8
STEMPEL
100
AcDbLine
 10
126.9235504145337
 20
221.7878779550945
 30
0.0
 11
142.1665504145336
 21
221.7878779550945
 31
0.0
  0
ARC
  5
1FF6
330
1E
100
AcDbEntity
  8
STEMPEL
100
AcDbCircle
 10
161.5645504145336
 20
241.7878779550945
 30
0.0
 40
40.0
100
AcDbArc
 50
149.9999999999994
 51
210.0000000000005
  0
LINE
  5
1FF7
330
1E
100
AcDbEntity
  8
STEMPEL
100
AcDbLine
 10
142.1665504145336
 20
261.7878779550945
 30
0.0
 11
126.9235504145337
 21
261.7878779550945
 31
0.0
  0
DIMENSION
  5
2000
330
1E
100
AcDbEntity
  8
BEM
100
AcDbDimension
  2
*D1
 10
332.5635504145335
 20
197.631866378284
 30
0.0
 11
232.5640504145336
 21
204.131866378284
 31
0.0
 70
    32
 71
     5
 42
199.9989999999998
  3
Standard
100
AcDbAlignedDimension
 13
132.5645504145337
 23
230.2878779550945
 33
0.0
 14
332.5635504145335
 24
230.2878779550944
 34
0.0
100
AcDbRotatedDimension
1001
ACAD
1000
DSTYLE
1002
{
1070
    40
1040
2.0
1070
    41
1040
3.5
1070
    42
1040
1.0
1070
    43
1040
7.0
1070
    44
1040
1.0
1070
    73
1070
     0
1070
    74
1070
     0
1070
    77
1070
     1
1070
    78
1070
     8
1070
    79
1070
     2
1070
   140
1040
3.5
1070
   141
1040
1.5
1070
   146
1040
0.5142857142857144
1070
   147
1040
1.5
1070
   172
1070
     1
1070
   178
1070
     1
1070
   179
1070
     2
1070
   271
1070
     2
1070
   272
1070
     2
1070
   284
1070
     8
1070
   285
1070
     8
1070
   286
1070
     8
1002
}
  0
DIMENSION
  5
200D
330
1E
100
AcDbEntity
  8
BEM
100
AcDbDimension
  2
*D2
 10
343.5635504145337
 20
183.3987250881039
 30
0.0
 11
232.5640504145336
 21
189.8987250881039
 31
0.0
 70
    32
 71
     5
 42
221.999
  3
Standard
100
AcDbAlignedDimension
 13
121.5645504145336
 23
241.7878779550945
 33
0.0
 14
343.5635504145337
 24
241.7878779550945
 34
0.0
100
AcDbRotatedDimension
1001
ACAD
1000
DSTYLE
1002
{
1070
    40
1040
2.0
1070
    41
1040
3.5
1070
    42
1040
1.0
1070
    43
1040
7.0
1070
    44
1040
1.0
1070
    73
1070
     0
1070
    74
1070
     0
1070
    77
1070
     1
1070
    78
1070
     8
1070
    79
1070
     2
1070
   140
1040
3.5
1070
   141
1040
1.5
1070
   146
1040
0.5142857142857144
1070
   147
1040
1.5
1070
   172
1070
     1
1070
   178
1070
     1
1070
   179
1070
     2
1070
   271
1070
     2
1070
   272
1070
     2
1070
   284
1070
     8
1070
   285
1070
     8
1070
   286
1070
     8
1002
}
  0
DIMENSION
  5
202A
330
1E
100
AcDbEntity
  8
BEM
100
AcDbDimension
  2
*D3
 10
111.8693246201587
 20
429.5664397097787
 30
0.0
 11
105.3693246201587
 21
448.4331063764453
 31
0.0
 70
    32
 71
     5
 42
3.0
  3
Standard
100
AcDbAlignedDimension
 13
121.5925504145336
 23
426.5664397097786
 33
0.0
 14
121.5785504145336
 24
429.5664397097787
 34
0.0
 50
90.0
100
AcDbRotatedDimension
1001
ACAD
1000
DSTYLE
1002
{
1070
    40
1040
2.0
1070
    41
1040
3.5
1070
    42
1040
1.0
1070
    43
1040
7.0
1070
    44
1040
1.0
1070
    73
1070
     0
1070
    74
1070
     0
1070
    77
1070
     1
1070
    78
1070
     8
1070
    79
1070
     2
1070
   140
1040
3.5
1070
   141
1040
1.5
1070
   146
1040
0.5142857142857144
1070
   147
1040
1.5
1070
   172
1070
     1
1070
   178
1070
     1
1070
   179
1070
     2
1070
   271
1070
     2
1070
   272
1070
     2
1070
   284
1070
     8
1070
   285
1070
     8
1070
   286
1070
     8
1002
}
  0
DIMENSION
  5
2039
330
1E
100
AcDbEntity
  8
BEM
100
AcDbDimension
  2
*D4
 10
94.52562351975666
 20
327.0664397097787
 30
0.0
 11
88.02562351975662
 21
423.0664397097787
 31
0.0
 70
    32
 71
     5
 42
192.0
  3
Standard
100
AcDbAlignedDimension
 13
232.5785504145336
 23
519.0664397097787
 33
0.0
 14
224.7845504145337
 24
327.0664397097787
 34
0.0
 50
90.0
100
AcDbRotatedDimension
1001
ACAD
1000
DSTYLE
1002
{
1070
    40
1040
2.0
1070
    41
1040
3.5
1070
    42
1040
1.0
1070
    43
1040
7.0
1070
    44
1040
1.0
1070
    73
1070
     0
1070
    74
1070
     0
1070
    77
1070
     1
1070
    78
1070
     8
1070
    79
1070
     2
1070
   140
1040
3.5
1070
   141
1040
1.5
1070
   146
1040
0.5142857142857144
1070
   147
1040
1.5
1070
   172
1070
     1
1070
   178
1070
     1
1070
   179
1070
     2
1070
   271
1070
     2
1070
   272
1070
     2
1070
   284
1070
     8
1070
   285
1070
     8
1070
   286
1070
     8
1002
}
  0
DIMENSION
  5
20AA
330
1E
100
AcDbEntity
  8
BEM
100
AcDbDimension
  2
*D5
 10
296.602980872761
 20
482.4440627178396
 30
0.0
 11
256.7376602035213
 21
448.395862314435
 31
0.0
 70
   160
  1
%%c<>
 71
     5
 42
168.0000000000001
  3
Standard
100
AcDbAlignedDimension
 13
168.704449304131
 23
373.5128036500432
 33
0.0
 14
296.4526515249363
 24
482.620075769514
 34
0.0
 50
40.49999999999948
100
AcDbRotatedDimension
1001
ACAD
1000
DSTYLE
1002
{
1070
    40
1040
2.0
1070
    41
1040
3.5
1070
    42
1040
1.0
1070
    43
1040
7.0
1070
    44
1040
1.0
1070
    73
1070
     0
1070
    74
1070
     0
1070
    77
1070
     1
1070
    78
1070
     8
1070
    79
1070
     2
1070
   140
1040
3.5
1070
   141
1040
1.5
1070
   146
1040
0.5142857142857144
1070
   147
1040
1.5
1070
   172
1070
     1
1070
   178
1070
     1
1070
   179
1070
     2
1070
   271
1070
     2
1070
   272
1070
     2
1070
   284
1070
     8
1070
   285
1070
     8
1070
   286
1070
     8
1002
}
  0
TEXT
  5
20FC
330
1E
100
AcDbEntity
  8
TEXT
 62
     1
100
AcDbText
 10
227.8365522679116
 20
115.6405708316599
 30
0.0
 40
7.0
  1
Werkstoff: St37 Dickschichtpassiviert
 41
0.8
  7
GREEKS
100
AcDbText
  0
DIMENSION
  5
2106
330
1E
100
AcDbEntity
  8
BEM
100
AcDbDimension
  2
*D6
 10
103.8662579553802
 20
221.7878779550942
 30
0.0
 11
97.36625795538017
 21
241.7878779550945
 31
0.0
 70
    32
 71
     5
 42
40.00000000000063
  3
Standard
100
AcDbAlignedDimension
 13
126.9235342631563
 23
261.7878779550948
 33
0.0
 14
126.9235342631563
 24
221.7878779550942
 34
0.0
 50
90.0
100
AcDbRotatedDimension
1001
ACAD
1000
DSTYLE
1002
{
1070
    40
1040
2.0
1070
    41
1040
3.5
1070
    42
1040
1.0
1070
    43
1040
7.0
1070
    44
1040
1.0
1070
    73
1070
     0
1070
    74
1070
     0
1070
    77
1070
     1
1070
    78
1070
     8
1070
    79
1070
     2
1070
   140
1040
3.5
1070
   141
1040
1.5
1070
   146
1040
0.5142857142857144
1070
   147
1040
1.5
1070
   172
1070
     1
1070
   178
1070
     1
1070
   179
1070
     2
1070
   271
1070
     2
1070
   272
1070
     2
1070
   284
1070
     8
1070
   285
1070
     8
1070
   286
1070
     8
1002
}
  0
ENDSEC
  0
SECTION
  2
OBJECTS
  0
DICTIONARY
  5
C
330
0
100
AcDbDictionary
281
     1
  3
ACAD_COLOR
350
DF
  3
ACAD_GROUP
350
D
  3
ACAD_LAYOUT
350
19
  3
ACAD_MATERIAL
350
DE
  3
ACAD_MLINESTYLE
350
16
  3
ACAD_PLOTSETTINGS
350
18
  3
ACAD_PLOTSTYLENAME
350
E
  3
AcDbVariableDictionary
350
EA
  0
DICTIONARY
  5
A0
330
1E
100
AcDbDictionary
280
     1
281
     1
  3
ACAD_LAYOUTSELFREF
360
D4
  0
DICTIONARY
  5
A2
330
1A
100
AcDbDictionary
280
     1
281
     1
  3
ACAD_LAYOUTSELFREF
360
D3
  0
DICTIONARY
  5
DF
102
{ACAD_REACTORS
330
C
102
}
330
C
100
AcDbDictionary
281
     1
  0
DICTIONARY
  5
D
102
{ACAD_REACTORS
330
C
102
}
330
C
100
AcDbDictionary
281
     1
  0
DICTIONARY
  5
19
102
{ACAD_REACTORS
330
C
102
}
330
C
100
AcDbDictionary
281
     1
  3
Layout1
350
1D
  3
Model
350
21
  0
DICTIONARY
  5
DE
102
{ACAD_REACTORS
330
C
102
}
330
C
100
AcDbDictionary
281
     1
  0
DICTIONARY
  5
16
102
{ACAD_REACTORS
330
C
102
}
330
C
100
AcDbDictionary
281
     1
  3
Standard
350
17
  0
DICTIONARY
  5
18
102
{ACAD_REACTORS
330
C
102
}
330
C
100
AcDbDictionary
281
     1
  0
ACDBDICTIONARYWDFLT
  5
E
102
{ACAD_REACTORS
330
C
102
}
330
C
100
AcDbDictionary
281
     1
  3
Normal
350
F
100
AcDbDictionaryWithDefault
340
F
  0
DICTIONARY
  5
EA
102
{ACAD_REACTORS
330
C
102
}
330
C
100
AcDbDictionary
281
     1
  3
DIMASSOC
350
EB
  3
PROJECTNAME
350
EC
  0
XRECORD
  5
D4
102
{ACAD_REACTORS
330
A0
102
}
330
A0
100
AcDbXrecord
280
     1
340
1E
  0
XRECORD
  5
D3
102
{ACAD_REACTORS
330
A2
102
}
330
A2
100
AcDbXrecord
280
     1
340
1A
  0
LAYOUT
  5
1D
102
{ACAD_REACTORS
330
19
102
}
330
19
100
AcDbPlotSettings
  1

  2
\\NT_WORK01\HP LaserJet 5000 PCL 6
  4

  6

 40
0.0
 41
0.0
 42
0.0
 43
0.0
 44
0.0
 45
0.0
 46
0.0
 47
0.0
 48
0.0
 49
0.0
140
0.0
141
0.0
142
1.0
143
1.0
 70
   688
 72
     0
 73
     0
 74
     5
  7

 75
    16
147
1.0
 76
     0
 77
     2
 78
   300
148
0.0
149
0.0
100
AcDbLayout
  1
Layout1
 70
     0
 71
     1
 10
0.0
 20
0.0
 11
12.0
 21
9.0
 12
0.0
 22
0.0
 32
0.0
 14
1.000000000000000E+20
 24
1.000000000000000E+20
 34
1.000000000000000E+20
 15
-1.000000000000000E+20
 25
-1.000000000000000E+20
 35
-1.000000000000000E+20
146
0.0
 13
0.0
 23
0.0
 33
0.0
 16
1.0
 26
0.0
 36
0.0
 17
0.0
 27
1.0
 37
0.0
 76
     0
330
1A
  0
LAYOUT
  5
21
102
{ACAD_REACTORS
330
19
102
}
330
19
100
AcDbPlotSettings
  1

  2
none_device
  4
Letter_(8.50_x_11.00_Inches)
  6

 40
6.349999904632568
 41
6.349999904632568
 42
6.350006103515625
 43
6.350006103515625
 44
215.8999938964844
 45
279.3999938964844
 46
0.0
 47
0.0
 48
0.0
 49
0.0
140
0.0
141
0.0
142
1.0
143
1.0
 70
 11952
 72
     0
 73
     1
 74
     0
  7

 75
     0
147
1.0
 76
     0
 77
     2
 78
   300
148
-230.4417396561563
149
47.00486644638983
100
AcDbLayout
  1
Model
 70
     1
 71
     0
 10
0.0
 20
0.0
 11
12.0
 21
9.0
 12
0.0
 22
0.0
 32
0.0
 14
0.0
 24
0.0
 34
0.0
 15
0.0
 25
0.0
 35
0.0
146
0.0
 13
0.0
 23
0.0
 33
0.0
 16
1.0
 26
0.0
 36
0.0
 17
0.0
 27
1.0
 37
0.0
 76
     0
330
1E
  0
MLINESTYLE
  5
17
102
{ACAD_REACTORS
330
16
102
}
330
16
100
AcDbMlineStyle
  2
STANDARD
 70
     0
  3

 62
   256
 51
90.0
 52
90.0
 71
     2
 49
0.5
 62
   256
  6
BYLAYER
 49
-0.5
 62
   256
  6
BYLAYER
  0
ACDBPLACEHOLDER
  5
F
102
{ACAD_REACTORS
330
E
102
}
330
E
  0
DICTIONARYVAR
  5
EB
102
{ACAD_REACTORS
330
EA
102
}
330
EA
100
DictionaryVariables
280
     0
  1
1
  0
DICTIONARYVAR
  5
EC
102
{ACAD_REACTORS
330
EA
102
}
330
EA
100
DictionaryVariables
280
     0
  1

  0
ENDSEC
  0
EOF
