  0
SECTION
  2
HEADER
  9
$ACADVER
  1
AC1018
  9
$ACADMAINTVER
 70
     2
  9
$DWGCODEPAGE
  3
ANSI_1252
  9
$INSBASE
 10
0.0
 20
0.0
 30
0.0
  9
$EXTMIN
 10
-0.0128164049388033
 20
-0.0181260584133725
 30
-0.0015258207003583
  9
$EXTMAX
 10
420.012818360716
 20
594.0181288244416
 30
0.0000000349246037
  9
$LIMMIN
 10
0.0
 20
0.0
  9
$LIMMAX
 10
419.9999999999999
 20
594.0
  9
$ORTHOMODE
 70
     1
  9
$REGENMODE
 70
     1
  9
$FILLMODE
 70
     1
  9
$QTEXTMODE
 70
     0
  9
$MIRRTEXT
 70
     1
  9
$LTSCALE
 40
20.0
  9
$ATTMODE
 70
     1
  9
$TEXTSIZE
 40
2.5
  9
$TRACEWID
 40
0.5
  9
$TEXTSTYLE
  7
GREEKS
  9
$CLAYER
  8
BEM
  9
$CELTYPE
  6
ByLayer
  9
$CECOLOR
 62
   256
  9
$CELTSCALE
 40
1.0
  9
$DISPSILH
 70
     0
  9
$DIMSCALE
 40
2.0
  9
$DIMASZ
 40
3.5
  9
$DIMEXO
 40
1.0
  9
$DIMDLI
 40
7.0
  9
$DIMRND
 40
0.0
  9
$DIMDLE
 40
0.0
  9
$DIMEXE
 40
1.0
  9
$DIMTP
 40
0.0
  9
$DIMTM
 40
0.0
  9
$DIMTXT
 40
3.5
  9
$DIMCEN
 40
1.5
  9
$DIMTSZ
 40
0.0
  9
$DIMTOL
 70
     0
  9
$DIMLIM
 70
     0
  9
$DIMTIH
 70
     0
  9
$DIMTOH
 70
     0
  9
$DIMSE1
 70
     0
  9
$DIMSE2
 70
     0
  9
$DIMTAD
 70
     1
  9
$DIMZIN
 70
     8
  9
$DIMBLK
  1

  9
$DIMASO
 70
     1
  9
$DIMSHO
 70
     0
  9
$DIMPOST
  1

  9
$DIMAPOST
  1

  9
$DIMALT
 70
     0
  9
$DIMALTD
 70
     2
  9
$DIMALTF
 40
25.4
  9
$DIMLFAC
 40
1.0
  9
$DIMTOFL
 70
     1
  9
$DIMTVP
 40
0.0
  9
$DIMTIX
 70
     0
  9
$DIMSOXD
 70
     0
  9
$DIMSAH
 70
     0
  9
$DIMBLK1
  1

  9
$DIMBLK2
  1

  9
$DIMSTYLE
  2
Standard
  9
$DIMCLRD
 70
     0
  9
$DIMCLRE
 70
     0
  9
$DIMCLRT
 70
     1
  9
$DIMTFAC
 40
0.5142857142857144
  9
$DIMGAP
 40
1.5
  9
$DIMJUST
 70
     0
  9
$DIMSD1
 70
     0
  9
$DIMSD2
 70
     0
  9
$DIMTOLJ
 70
     1
  9
$DIMTZIN
 70
     8
  9
$DIMALTZ
 70
     8
  9
$DIMALTTZ
 70
     8
  9
$DIMUPT
 70
     0
  9
$DIMDEC
 70
     2
  9
$DIMTDEC
 70
     2
  9
$DIMALTU
 70
     2
  9
$DIMALTTD
 70
     2
  9
$DIMTXSTY
  7
STANDARD
  9
$DIMAUNIT
 70
     0
  9
$DIMADEC
 70
     2
  9
$DIMALTRND
 40
0.0
  9
$DIMAZIN
 70
     2
  9
$DIMDSEP
 70
    46
  9
$DIMATFIT
 70
     3
  9
$DIMFRAC
 70
     0
  9
$DIMLDRBLK
  1

  9
$DIMLUNIT
 70
     2
  9
$DIMLWD
 70
    -2
  9
$DIMLWE
 70
    -2
  9
$DIMTMOVE
 70
     0
  9
$LUNITS
 70
     2
  9
$LUPREC
 70
     2
  9
$SKETCHINC
 40
1.0
  9
$FILLETRAD
 40
0.0
  9
$AUNITS
 70
     0
  9
$AUPREC
 70
     0
  9
$MENU
  1
ACAD
  9
$ELEVATION
 40
0.0
  9
$PELEVATION
 40
0.0
  9
$THICKNESS
 40
0.0
  9
$LIMCHECK
 70
     0
  9
$CHAMFERA
 40
0.0
  9
$CHAMFERB
 40
0.0
  9
$CHAMFERC
 40
0.0
  9
$CHAMFERD
 40
0.0
  9
$SKPOLY
 70
     0
  9
$TDCREATE
 40
2455397.823042361
  9
$TDUCREATE
 40
2455397.781375695
  9
$TDUPDATE
 40
2456230.311897466
  9
$TDUUPDATE
 40
2456230.270230799
  9
$TDINDWG
 40
0.3126034375
  9
$TDUSRTIMER
 40
0.3126034375
  9
$USRTIMER
 70
     1
  9
$ANGBASE
 50
0.0
  9
$ANGDIR
 70
     0
  9
$PDMODE
 70
     0
  9
$PDSIZE
 40
0.0
  9
$PLINEWID
 40
0.0
  9
$SPLFRAME
 70
     0
  9
$SPLINETYPE
 70
     6
  9
$SPLINESEGS
 70
     8
  9
$HANDSEED
  5
1DE0
  9
$SURFTAB1
 70
     6
  9
$SURFTAB2
 70
     6
  9
$SURFTYPE
 70
     6
  9
$SURFU
 70
     6
  9
$SURFV
 70
     6
  9
$UCSBASE
  2

  9
$UCSNAME
  2

  9
$UCSORG
 10
0.0
 20
0.0
 30
0.0
  9
$UCSXDIR
 10
1.0
 20
0.0
 30
0.0
  9
$UCSYDIR
 10
0.0
 20
1.0
 30
0.0
  9
$UCSORTHOREF
  2

  9
$UCSORTHOVIEW
 70
     0
  9
$UCSORGTOP
 10
0.0
 20
0.0
 30
0.0
  9
$UCSORGBOTTOM
 10
0.0
 20
0.0
 30
0.0
  9
$UCSORGLEFT
 10
0.0
 20
0.0
 30
0.0
  9
$UCSORGRIGHT
 10
0.0
 20
0.0
 30
0.0
  9
$UCSORGFRONT
 10
0.0
 20
0.0
 30
0.0
  9
$UCSORGBACK
 10
0.0
 20
0.0
 30
0.0
  9
$PUCSBASE
  2

  9
$PUCSNAME
  2

  9
$PUCSORG
 10
0.0
 20
0.0
 30
0.0
  9
$PUCSXDIR
 10
1.0
 20
0.0
 30
0.0
  9
$PUCSYDIR
 10
0.0
 20
1.0
 30
0.0
  9
$PUCSORTHOREF
  2

  9
$PUCSORTHOVIEW
 70
     0
  9
$PUCSORGTOP
 10
0.0
 20
0.0
 30
0.0
  9
$PUCSORGBOTTOM
 10
0.0
 20
0.0
 30
0.0
  9
$PUCSORGLEFT
 10
0.0
 20
0.0
 30
0.0
  9
$PUCSORGRIGHT
 10
0.0
 20
0.0
 30
0.0
  9
$PUCSORGFRONT
 10
0.0
 20
0.0
 30
0.0
  9
$PUCSORGBACK
 10
0.0
 20
0.0
 30
0.0
  9
$USERI1
 70
     0
  9
$USERI2
 70
     0
  9
$USERI3
 70
     0
  9
$USERI4
 70
     0
  9
$USERI5
 70
     0
  9
$USERR1
 40
0.0
  9
$USERR2
 40
0.0
  9
$USERR3
 40
0.0
  9
$USERR4
 40
0.0
  9
$USERR5
 40
0.0
  9
$WORLDVIEW
 70
     1
  9
$SHADEDGE
 70
     3
  9
$SHADEDIF
 70
    70
  9
$TILEMODE
 70
     1
  9
$MAXACTVP
 70
    16
  9
$PINSBASE
 10
0.0
 20
0.0
 30
0.0
  9
$PLIMCHECK
 70
     0
  9
$PEXTMIN
 10
1.000000000000000E+20
 20
1.000000000000000E+20
 30
1.000000000000000E+20
  9
$PEXTMAX
 10
-1.000000000000000E+20
 20
-1.000000000000000E+20
 30
-1.000000000000000E+20
  9
$PLIMMIN
 10
0.0
 20
0.0
  9
$PLIMMAX
 10
12.0
 20
9.0
  9
$UNITMODE
 70
     0
  9
$VISRETAIN
 70
     0
  9
$PLINEGEN
 70
     0
  9
$PSLTSCALE
 70
     0
  9
$TREEDEPTH
 70
  3020
  9
$CMLSTYLE
  2
Standard
  9
$CMLJUST
 70
     0
  9
$CMLSCALE
 40
1.0
  9
$PROXYGRAPHICS
 70
     1
  9
$MEASUREMENT
 70
     0
  9
$CELWEIGHT
370
    -1
  9
$ENDCAPS
280
     0
  9
$JOINSTYLE
280
     0
  9
$LWDISPLAY
290
     0
  9
$INSUNITS
 70
     0
  9
$HYPERLINKBASE
  1

  9
$STYLESHEET
  1
monochrome 1.ctb
  9
$XEDIT
290
     1
  9
$CEPSNTYPE
380
     0
  9
$PSTYLEMODE
290
     1
  9
$FINGERPRINTGUID
  2
{D68B0D02-A558-11D7-B632-000102183313}
  9
$VERSIONGUID
  2
{25925223-4638-4977-9835-C46C282F376B}
  9
$EXTNAMES
290
     1
  9
$PSVPSCALE
 40
0.0
  9
$OLESTARTUP
290
     0
  9
$SORTENTS
280
   127
  9
$INDEXCTL
280
     0
  9
$HIDETEXT
280
     0
  9
$XCLIPFRAME
290
     0
  9
$HALOGAP
280
     0
  9
$OBSCOLOR
 70
   257
  9
$OBSLTYPE
280
     0
  9
$INTERSECTIONDISPLAY
280
     0
  9
$INTERSECTIONCOLOR
 70
   257
  9
$DIMASSOC
280
     1
  9
$PROJECTNAME
  1

  0
ENDSEC
  0
SECTION
  2
CLASSES
  0
CLASS
  1
ACDBDICTIONARYWDFLT
  2
AcDbDictionaryWithDefault
  3
ObjectDBX Classes
 90
        0
 91
        1
280
     0
281
     0
  0
CLASS
  1
DICTIONARYVAR
  2
AcDbDictionaryVar
  3
ObjectDBX Classes
 90
        0
 91
        2
280
     0
281
     0
  0
ENDSEC
  0
SECTION
  2
TABLES
  0
TABLE
  2
VPORT
  5
8
330
0
100
AcDbSymbolTable
 70
     3
  0
VPORT
  5
1DDF
330
8
100
AcDbSymbolTableRecord
100
AcDbViewportTableRecord
  2
*Active
 70
     0
 10
0.0
 20
0.0
 11
1.0
 21
1.0
 12
209.9999999999999
 22
297.0
 13
0.0
 23
0.0
 14
1.0
 24
1.0
 15
10.0
 25
10.0
 16
0.0
 26
0.0
 36
1.0
 17
0.0
 27
0.0
 37
0.0
 40
594.1275783272467
 41
1.404858299595141
 42
50.0
 43
0.0
 44
0.0
 50
0.0
 51
0.0
 71
     0
 72
  1500
 73
     1
 74
     0
 75
     0
 76
     0
 77
     0
 78
     0
281
     0
 65
     1
110
0.0
120
0.0
130
0.0
111
1.0
121
0.0
131
0.0
112
0.0
122
1.0
132
0.0
 79
     0
146
0.0
  0
ENDTAB
  0
TABLE
  2
LTYPE
  5
5
330
0
100
AcDbSymbolTable
 70
     2
  0
LTYPE
  5
13
330
5
100
AcDbSymbolTableRecord
100
AcDbLinetypeTableRecord
  2
ByBlock
 70
     0
  3

 72
    65
 73
     0
 40
0.0
  0
LTYPE
  5
14
330
5
100
AcDbSymbolTableRecord
100
AcDbLinetypeTableRecord
  2
ByLayer
 70
     0
  3

 72
    65
 73
     0
 40
0.0
  0
LTYPE
  5
15
330
5
100
AcDbSymbolTableRecord
100
AcDbLinetypeTableRecord
  2
Continuous
 70
     0
  3
Solid line
 72
    65
 73
     0
 40
0.0
  0
LTYPE
  5
25
330
5
100
AcDbSymbolTableRecord
100
AcDbLinetypeTableRecord
  2
STRICHPUNKT
 70
     0
  3
__ . __ . __ . __ . __ . __ . __ . __ . __ . __
 72
    65
 73
     4
 40
1.0
 49
0.5
 74
     0
 49
-0.25
 74
     0
 49
0.0
 74
     0
 49
-0.25
 74
     0
  0
ENDTAB
  0
TABLE
  2
LAYER
  5
2
330
0
100
AcDbSymbolTable
 70
     8
  0
LAYER
  5
10
330
2
100
AcDbSymbolTableRecord
100
AcDbLayerTableRecord
  2
0
 70
     0
 62
     7
  6
Continuous
370
    -3
390
F
  0
LAYER
  5
2A
330
2
100
AcDbSymbolTableRecord
100
AcDbLayerTableRecord
  2
VOLL
 70
     0
 62
     1
  6
Continuous
370
    -3
390
F
  0
LAYER
  5
2B
330
2
100
AcDbSymbolTableRecord
100
AcDbLayerTableRecord
  2
HILF
 70
     0
 62
     2
  6
Continuous
370
    -3
390
F
  0
LAYER
  5
2C
330
2
100
AcDbSymbolTableRecord
100
AcDbLayerTableRecord
  2
MITTEL
 70
     0
 62
     2
  6
STRICHPUNKT
370
    -3
390
F
  0
LAYER
  5
2F
330
2
100
AcDbSymbolTableRecord
100
AcDbLayerTableRecord
  2
BEM
 70
     0
 62
     7
  6
Continuous
370
    -3
390
F
  0
LAYER
  5
30
330
2
100
AcDbSymbolTableRecord
100
AcDbLayerTableRecord
  2
STEMPEL
 70
     0
 62
     3
  6
Continuous
370
    -3
390
F
  0
LAYER
  5
31
330
2
100
AcDbSymbolTableRecord
100
AcDbLayerTableRecord
  2
TEXT
 70
     0
 62
     7
  6
Continuous
370
    -3
390
F
  0
LAYER
  5
1A8
330
2
100
AcDbSymbolTableRecord
100
AcDbLayerTableRecord
  2
Defpoints
 70
     0
 62
     7
  6
Continuous
290
     0
370
    -3
390
F
  0
ENDTAB
  0
TABLE
  2
STYLE
  5
3
330
0
100
AcDbSymbolTable
 70
     2
  0
STYLE
  5
11
330
3
100
AcDbSymbolTableRecord
100
AcDbTextStyleTableRecord
  2
STANDARD
 70
     0
 40
0.0
 41
0.8
 50
0.0
 71
     0
 42
3.5
  3
simplex.shx
  4

  0
STYLE
  5
24
330
3
100
AcDbSymbolTableRecord
100
AcDbTextStyleTableRecord
  2
GREEKS
 70
     0
 40
0.0
 41
0.8
 50
0.0
 71
     0
 42
2.5
  3
SIMPLEX.shx
  4

  0
ENDTAB
  0
TABLE
  2
VIEW
  5
6
330
0
100
AcDbSymbolTable
 70
     0
  0
ENDTAB
  0
TABLE
  2
UCS
  5
7
330
0
100
AcDbSymbolTable
 70
     0
  0
ENDTAB
  0
TABLE
  2
APPID
  5
9
330
0
100
AcDbSymbolTable
 70
     1
  0
APPID
  5
12
330
9
100
AcDbSymbolTableRecord
100
AcDbRegAppTableRecord
  2
ACAD
 70
     0
  0
ENDTAB
  0
TABLE
  2
DIMSTYLE
  5
A
330
0
100
AcDbSymbolTable
 70
     1
100
AcDbDimStyleTable
 71
     1
340
9D
  0
DIMSTYLE
105
9D
102
{ACAD_REACTORS
330
1CF0
330
1CFD
330
1D2F
330
1D3E
330
1D83
330
1DCD
102
}
330
A
100
AcDbSymbolTableRecord
100
AcDbDimStyleTableRecord
  2
Standard
 70
     0
340
11
  0
ENDTAB
  0
TABLE
  2
BLOCK_RECORD
  5
1
330
0
100
AcDbSymbolTable
 70
     7
  0
BLOCK_RECORD
  5
1E
102
{ACAD_XDICTIONARY
360
A0
102
}
330
1
100
AcDbSymbolTableRecord
100
AcDbBlockTableRecord
  2
*Model_Space
340
21
  0
BLOCK_RECORD
  5
1A
102
{ACAD_XDICTIONARY
360
A2
102
}
330
1
100
AcDbSymbolTableRecord
100
AcDbBlockTableRecord
  2
*Paper_Space
340
1D
  0
BLOCK_RECORD
  5
22
330
1
100
AcDbSymbolTableRecord
100
AcDbBlockTableRecord
  2
LOGO
340
0
102
{BLKREFS
331
9B
102
}
  0
BLOCK_RECORD
  5
1CF1
330
1
100
AcDbSymbolTableRecord
100
AcDbBlockTableRecord
  2
*D1
340
0
  0
BLOCK_RECORD
  5
1CFE
330
1
100
AcDbSymbolTableRecord
100
AcDbBlockTableRecord
  2
*D2
340
0
  0
BLOCK_RECORD
  5
1D30
330
1
100
AcDbSymbolTableRecord
100
AcDbBlockTableRecord
  2
*D3
340
0
  0
BLOCK_RECORD
  5
1D3F
330
1
100
AcDbSymbolTableRecord
100
AcDbBlockTableRecord
  2
*D4
340
0
  0
BLOCK_RECORD
  5
1D84
330
1
100
AcDbSymbolTableRecord
100
AcDbBlockTableRecord
  2
*D5
340
0
  0
BLOCK_RECORD
  5
1DCE
330
1
100
AcDbSymbolTableRecord
100
AcDbBlockTableRecord
  2
*D6
340
0
  0
ENDTAB
  0
ENDSEC
  0
SECTION
  2
BLOCKS
  0
BLOCK
  5
35
330
1E
100
AcDbEntity
  8
0
100
AcDbBlockBegin
  2
*Model_Space
 70
     0
 10
0.0
 20
0.0
 30
0.0
  3
*Model_Space
  1

  0
ENDBLK
  5
36
330
1E
100
AcDbEntity
  8
0
100
AcDbBlockEnd
  0
BLOCK
  5
33
330
1A
100
AcDbEntity
 67
     1
  8
0
100
AcDbBlockBegin
  2
*Paper_Space
 70
     0
 10
0.0
 20
0.0
 30
0.0
  3
*Paper_Space
  1

  0
ENDBLK
  5
34
330
1A
100
AcDbEntity
 67
     1
  8
0
100
AcDbBlockEnd
  0
BLOCK
  5
37
330
22
100
AcDbEntity
  8
0
100
AcDbBlockBegin
  2
LOGO
 70
     0
 10
0.0
 20
0.0
 30
0.0
  3
LOGO
  1

  0
ARC
  5
38
330
22
100
AcDbEntity
  8
0
100
AcDbCircle
 10
11.59973089678112
 20
-9.271599258481501
 30
0.0
 40
4.5
100
AcDbArc
 50
270.0
 51
231.0575587310159
  0
LINE
  5
39
330
22
100
AcDbEntity
  8
0
100
AcDbLine
 10
3.599730896781125
 20
-4.771599258481529
 30
0.0
 11
3.599730896781153
 21
-11.77159925848133
 31
0.0
  0
LINE
  5
3A
330
22
100
AcDbEntity
  8
0
100
AcDbLine
 10
2.599730896781125
 20
-4.771599258481529
 30
0.0
 11
2.599730896781153
 21
-11.77159925848133
 31
0.0
  0
CIRCLE
  5
3B
330
22
100
AcDbEntity
  8
0
100
AcDbCircle
 10
11.59973089678112
 20
-9.271599258481501
 30
0.0
 40
3.5
  0
ARC
  5
3C
330
22
100
AcDbEntity
  8
0
100
AcDbCircle
 10
31.59973089678115
 20
-9.271599258481472
 30
0.0
 40
4.5
100
AcDbArc
 50
270.0
 51
231.0575587310182
  0
LINE
  5
3D
330
22
100
AcDbEntity
  8
0
100
AcDbLine
 10
17.59973089678112
 20
-4.771599258481472
 30
0.0
 11
17.59973089678115
 21
-13.77159925848147
 31
0.0
  0
ARC
  5
3E
330
22
100
AcDbEntity
  8
0
100
AcDbCircle
 10
22.59973089678116
 20
-7.271599258481472
 30
0.0
 40
2.5
100
AcDbArc
 50
293.1161887722295
 51
90.0
  0
CIRCLE
  5
3F
330
22
100
AcDbEntity
  8
0
100
AcDbCircle
 10
31.59973089678115
 20
-9.271599258481472
 30
0.0
 40
3.5
  0
ARC
  5
40
330
22
100
AcDbEntity
  8
0
100
AcDbCircle
 10
4.599730896781153
 20
-11.77159925848133
 30
0.0
 40
1.0
100
AcDbArc
 50
180.0
 51
270.0
  0
ARC
  5
41
330
22
100
AcDbEntity
  8
0
100
AcDbCircle
 10
4.599730896781153
 20
-11.77159925848133
 30
0.0
 40
2.0
100
AcDbArc
 50
179.9999999999992
 51
270.0
  0
LINE
  5
42
330
22
100
AcDbEntity
  8
0
100
AcDbLine
 10
11.59973089678115
 20
-13.77159925848144
 30
0.0
 11
4.599730896781153
 21
-13.77159925848147
 31
0.0
  0
LINE
  5
43
330
22
100
AcDbEntity
  8
0
100
AcDbLine
 10
8.771303772034769
 20
-12.77159925848136
 30
0.0
 11
4.599730896781153
 21
-12.77159925848133
 31
0.0
  0
LINE
  5
44
330
22
100
AcDbEntity
  8
0
100
AcDbLine
 10
31.59973089678115
 20
-13.77159925848147
 30
0.0
 11
23.6715276665056
 21
-13.77159925848144
 31
0.0
  0
LINE
  5
45
330
22
100
AcDbEntity
  8
0
100
AcDbLine
 10
23.56565672307022
 20
-9.51278021337896
 30
0.0
 11
24.4388546544846
 21
-12.77159925848144
 31
0.0
  0
LINE
  5
46
330
22
100
AcDbEntity
  8
0
100
AcDbLine
 10
22.59973089678116
 20
-9.771599258481472
 30
0.0
 11
18.59973089678112
 21
-9.771599258481472
 31
0.0
  0
LINE
  5
47
330
22
100
AcDbEntity
  8
0
100
AcDbLine
 10
18.59973089678115
 20
-13.77159925848144
 30
0.0
 11
17.59973089678115
 21
-13.77159925848144
 31
0.0
  0
LINE
  5
48
330
22
100
AcDbEntity
  8
0
100
AcDbLine
 10
18.59973089678115
 20
-9.771599258481472
 30
0.0
 11
18.59973089678115
 21
-13.77159925848144
 31
0.0
  0
LINE
  5
49
330
22
100
AcDbEntity
  8
0
100
AcDbLine
 10
22.59973089678116
 20
-9.771599258481472
 30
0.0
 11
23.67152766650562
 21
-13.77159925848147
 31
0.0
  0
ARC
  5
4A
330
22
100
AcDbEntity
  8
0
100
AcDbCircle
 10
22.59973089678116
 20
-7.271599258481472
 30
0.0
 40
2.5
100
AcDbArc
 50
270.0
 51
270.0000000000007
  0
LINE
  5
4B
330
22
100
AcDbEntity
  8
0
100
AcDbLine
 10
28.77130377203494
 20
-12.77159925848147
 30
0.0
 11
24.43885465448463
 21
-12.77159925848144
 31
0.0
  0
LINE
  5
4C
330
22
100
AcDbEntity
  8
0
100
AcDbLine
 10
3.599730896781125
 20
-4.771599258481472
 30
0.0
 11
2.599730896781125
 21
-4.771599258481472
 31
0.0
  0
LINE
  5
4D
330
22
100
AcDbEntity
  8
0
100
AcDbLine
 10
22.59973089678116
 20
-8.771599258481472
 30
0.0
 11
18.59973089678115
 21
-8.771599258481472
 31
0.0
  0
LINE
  5
4E
330
22
100
AcDbEntity
  8
0
100
AcDbLine
 10
22.59973089678116
 20
-5.771599258481472
 30
0.0
 11
18.59973089678115
 21
-5.771599258481472
 31
0.0
  0
LINE
  5
4F
330
22
100
AcDbEntity
  8
0
100
AcDbLine
 10
22.59973089678116
 20
-4.771599258481472
 30
0.0
 11
17.59973089678115
 21
-4.771599258481472
 31
0.0
  0
LINE
  5
50
330
22
100
AcDbEntity
  8
0
100
AcDbLine
 10
18.59973089678115
 20
-5.771599258481472
 30
0.0
 11
18.59973089678115
 21
-8.771599258481472
 31
0.0
  0
ARC
  5
51
330
22
100
AcDbEntity
  8
0
100
AcDbCircle
 10
22.59973089678116
 20
-7.271599258481472
 30
0.0
 40
1.5
100
AcDbArc
 50
270.0
 51
90.0
  0
ENDBLK
  5
52
330
22
100
AcDbEntity
  8
0
100
AcDbBlockEnd
  0
BLOCK
  5
1CFB
330
1CF1
100
AcDbEntity
  8
0
100
AcDbBlockBegin
  2
*D1
 70
     1
 10
0.0
 20
0.0
 30
0.0
  3
*D1
  1

  0
LINE
  5
1D71
330
1CF1
100
AcDbEntity
  8
BEM
 62
     0
370
    -2
100
AcDbLine
 10
123.786355748721
 20
239.5188968757311
 30
0.0
 11
123.786355748721
 21
204.5510633935264
 31
0.0
  0
LINE
  5
1D72
330
1CF1
100
AcDbEntity
  8
BEM
 62
     0
370
    -2
100
AcDbLine
 10
298.7843557487209
 20
239.5188968757311
 30
0.0
 11
298.7843557487209
 21
204.5510633935264
 31
0.0
  0
LINE
  5
1D73
330
1CF1
100
AcDbEntity
  8
BEM
 62
     0
370
    -2
100
AcDbLine
 10
130.786355748721
 20
206.5510633935264
 30
0.0
 11
291.7843557487209
 21
206.5510633935264
 31
0.0
  0
SOLID
  5
1D74
330
1CF1
100
AcDbEntity
  8
BEM
 62
     0
100
AcDbTrace
 10
130.786355748721
 20
207.7177300601931
 30
0.0
 11
130.786355748721
 21
205.3843967268598
 31
0.0
 12
123.786355748721
 22
206.5510633935264
 32
0.0
 13
123.786355748721
 23
206.5510633935264
 33
0.0
  0
SOLID
  5
1D75
330
1CF1
100
AcDbEntity
  8
BEM
 62
     0
100
AcDbTrace
 10
291.7843557487209
 20
207.7177300601931
 30
0.0
 11
291.7843557487209
 21
205.3843967268598
 31
0.0
 12
298.7843557487209
 22
206.5510633935264
 32
0.0
 13
298.7843557487209
 23
206.5510633935264
 33
0.0
  0
MTEXT
  5
1D76
330
1CF1
100
AcDbEntity
  8
BEM
 62
     1
100
AcDbMText
 10
211.285355748721
 20
213.0510633935264
 30
0.0
 40
7.0
 41
0.0
 71
     5
 72
     1
  1
\A1;175
 73
     1
 44
1.0
  0
POINT
  5
1D77
330
1CF1
100
AcDbEntity
  8
Defpoints
 62
     0
100
AcDbPoint
 10
123.786355748721
 20
241.5188968757311
 30
0.0
  0
POINT
  5
1D78
330
1CF1
100
AcDbEntity
  8
Defpoints
 62
     0
100
AcDbPoint
 10
298.7843557487209
 20
241.5188968757311
 30
0.0
  0
POINT
  5
1D79
330
1CF1
100
AcDbEntity
  8
Defpoints
 62
     0
100
AcDbPoint
 10
298.7843557487209
 20
206.5510633935264
 30
0.0
  0
ENDBLK
  5
1CFC
330
1CF1
100
AcDbEntity
  8
0
100
AcDbBlockEnd
  0
BLOCK
  5
1D08
330
1CFE
100
AcDbEntity
  8
0
100
AcDbBlockBegin
  2
*D2
 70
     1
 10
0.0
 20
0.0
 30
0.0
  3
*D2
  1

  0
LINE
  5
1D68
330
1CFE
100
AcDbEntity
  8
BEM
 62
     0
370
    -2
100
AcDbLine
 10
112.786355748721
 20
251.0188968757311
 30
0.0
 11
112.786355748721
 21
189.54856353072
 31
0.0
  0
LINE
  5
1D69
330
1CFE
100
AcDbEntity
  8
BEM
 62
     0
370
    -2
100
AcDbLine
 10
309.7843557487209
 20
251.0188968757311
 30
0.0
 11
309.7843557487209
 21
189.54856353072
 31
0.0
  0
LINE
  5
1D6A
330
1CFE
100
AcDbEntity
  8
BEM
 62
     0
370
    -2
100
AcDbLine
 10
119.786355748721
 20
191.54856353072
 30
0.0
 11
302.784355748721
 21
191.54856353072
 31
0.0
  0
SOLID
  5
1D6B
330
1CFE
100
AcDbEntity
  8
BEM
 62
     0
100
AcDbTrace
 10
119.786355748721
 20
192.7152301973866
 30
0.0
 11
119.786355748721
 21
190.3818968640533
 31
0.0
 12
112.786355748721
 22
191.54856353072
 32
0.0
 13
112.786355748721
 23
191.54856353072
 33
0.0
  0
SOLID
  5
1D6C
330
1CFE
100
AcDbEntity
  8
BEM
 62
     0
100
AcDbTrace
 10
302.784355748721
 20
192.7152301973866
 30
0.0
 11
302.784355748721
 21
190.3818968640533
 31
0.0
 12
309.7843557487209
 22
191.54856353072
 32
0.0
 13
309.7843557487209
 23
191.54856353072
 33
0.0
  0
MTEXT
  5
1D6D
330
1CFE
100
AcDbEntity
  8
BEM
 62
     1
100
AcDbMText
 10
211.285355748721
 20
198.04856353072
 30
0.0
 40
7.0
 41
0.0
 71
     5
 72
     1
  1
\A1;197
 73
     1
 44
1.0
  0
POINT
  5
1D6E
330
1CFE
100
AcDbEntity
  8
Defpoints
 62
     0
100
AcDbPoint
 10
112.786355748721
 20
253.0188968757311
 30
0.0
  0
POINT
  5
1D6F
330
1CFE
100
AcDbEntity
  8
Defpoints
 62
     0
100
AcDbPoint
 10
309.7843557487209
 20
253.0188968757311
 30
0.0
  0
POINT
  5
1D70
330
1CFE
100
AcDbEntity
  8
Defpoints
 62
     0
100
AcDbPoint
 10
309.7843557487209
 20
191.54856353072
 30
0.0
  0
ENDBLK
  5
1D09
330
1CFE
100
AcDbEntity
  8
0
100
AcDbBlockEnd
  0
BLOCK
  5
1D3C
330
1D30
100
AcDbEntity
  8
0
100
AcDbBlockBegin
  2
*D3
 70
     1
 10
0.0
 20
0.0
 30
0.0
  3
*D3
  1

  0
LINE
  5
1D5D
330
1D30
100
AcDbEntity
  8
BEM
 62
     0
370
    -2
100
AcDbLine
 10
110.8163557487209
 20
429.3081553660009
 30
0.0
 11
101.4562600901304
 21
429.3081553660009
 31
0.0
  0
LINE
  5
1D5E
330
1D30
100
AcDbEntity
  8
BEM
 62
     0
370
    -2
100
AcDbLine
 10
110.8163557487209
 20
432.3081553660009
 30
0.0
 11
101.4562600901304
 21
432.3081553660009
 31
0.0
  0
LINE
  5
1D5F
330
1D30
100
AcDbEntity
  8
BEM
 62
     0
370
    -2
100
AcDbLine
 10
103.4562600901304
 20
422.3081553660009
 30
0.0
 11
103.4562600901304
 21
415.3081553660009
 31
0.0
  0
LINE
  5
1D60
330
1D30
100
AcDbEntity
  8
BEM
 62
     0
370
    -2
100
AcDbLine
 10
103.4562600901304
 20
439.3081553660009
 30
0.0
 11
103.4562600901304
 21
456.0414886993343
 31
0.0
  0
LINE
  5
1D61
330
1D30
100
AcDbEntity
  8
BEM
 62
     0
370
    -2
100
AcDbLine
 10
103.4562600901304
 20
429.3081553660009
 30
0.0
 11
103.4562600901304
 21
432.3081553660009
 31
0.0
  0
SOLID
  5
1D62
330
1D30
100
AcDbEntity
  8
BEM
 62
     0
100
AcDbTrace
 10
102.2895934234637
 20
422.3081553660009
 30
0.0
 11
104.622926756797
 21
422.3081553660009
 31
0.0
 12
103.4562600901304
 22
429.3081553660009
 32
0.0
 13
103.4562600901304
 23
429.3081553660009
 33
0.0
  0
SOLID
  5
1D63
330
1D30
100
AcDbEntity
  8
BEM
 62
     0
100
AcDbTrace
 10
102.2895934234637
 20
439.3081553660009
 30
0.0
 11
104.622926756797
 21
439.3081553660009
 31
0.0
 12
103.4562600901304
 22
432.3081553660009
 32
0.0
 13
103.4562600901304
 23
432.3081553660009
 33
0.0
  0
MTEXT
  5
1D64
330
1D30
100
AcDbEntity
  8
BEM
 62
     1
100
AcDbMText
 10
96.95626009013032
 20
451.1748220326676
 30
0.0
 40
7.0
 41
0.0
 71
     5
 72
     1
  1
\A1;3
 11
0.0000000000000001
 21
1.0
 31
0.0
 73
     1
 44
1.0
  0
POINT
  5
1D65
330
1D30
100
AcDbEntity
  8
Defpoints
 62
     0
100
AcDbPoint
 10
112.8163557487209
 20
429.3081553660009
 30
0.0
  0
POINT
  5
1D66
330
1D30
100
AcDbEntity
  8
Defpoints
 62
     0
100
AcDbPoint
 10
112.8163557487209
 20
432.3081553660009
 30
0.0
  0
POINT
  5
1D67
330
1D30
100
AcDbEntity
  8
Defpoints
 62
     0
100
AcDbPoint
 10
103.4562600901304
 20
432.3081553660009
 30
0.0
  0
ENDBLK
  5
1D3D
330
1D30
100
AcDbEntity
  8
0
100
AcDbBlockEnd
  0
BLOCK
  5
1D49
330
1D3F
100
AcDbEntity
  8
0
100
AcDbBlockBegin
  2
*D4
 70
     1
 10
0.0
 20
0.0
 30
0.0
  3
*D4
  1

  0
LINE
  5
1D54
330
1D3F
100
AcDbEntity
  8
BEM
 62
     0
370
    -2
100
AcDbLine
 10
209.285355748721
 20
509.0581553660009
 30
0.0
 11
85.92690684892248
 21
509.058155366001
 31
0.0
  0
LINE
  5
1D55
330
1D3F
100
AcDbEntity
  8
BEM
 62
     0
370
    -2
100
AcDbLine
 10
201.4913557487211
 20
342.058155366001
 30
0.0
 11
85.92690684892245
 21
342.058155366001
 31
0.0
  0
LINE
  5
1D56
330
1D3F
100
AcDbEntity
  8
BEM
 62
     0
370
    -2
100
AcDbLine
 10
87.92690684892248
 20
502.058155366001
 30
0.0
 11
87.92690684892244
 21
349.058155366001
 31
0.0
  0
SOLID
  5
1D57
330
1D3F
100
AcDbEntity
  8
BEM
 62
     0
100
AcDbTrace
 10
86.76024018225581
 20
502.058155366001
 30
0.0
 11
89.09357351558915
 21
502.058155366001
 31
0.0
 12
87.92690684892248
 22
509.058155366001
 32
0.0
 13
87.92690684892248
 23
509.058155366001
 33
0.0
  0
SOLID
  5
1D58
330
1D3F
100
AcDbEntity
  8
BEM
 62
     0
100
AcDbTrace
 10
86.76024018225577
 20
349.058155366001
 30
0.0
 11
89.09357351558911
 21
349.058155366001
 31
0.0
 12
87.92690684892244
 22
342.058155366001
 32
0.0
 13
87.92690684892244
 23
342.058155366001
 33
0.0
  0
MTEXT
  5
1D59
330
1D3F
100
AcDbEntity
  8
BEM
 62
     1
100
AcDbMText
 10
81.4269068489224
 20
425.558155366001
 30
0.0
 40
7.0
 41
0.0
 71
     5
 72
     1
  1
\A1;167
 11
0.0000000000000001
 21
1.0
 31
0.0
 73
     1
 44
1.0
  0
POINT
  5
1D5A
330
1D3F
100
AcDbEntity
  8
Defpoints
 62
     0
100
AcDbPoint
 10
211.285355748721
 20
509.0581553660009
 30
0.0
  0
POINT
  5
1D5B
330
1D3F
100
AcDbEntity
  8
Defpoints
 62
     0
100
AcDbPoint
 10
203.4913557487211
 20
342.058155366001
 30
0.0
  0
POINT
  5
1D5C
330
1D3F
100
AcDbEntity
  8
Defpoints
 62
     0
100
AcDbPoint
 10
87.92690684892244
 20
342.058155366001
 30
0.0
  0
ENDBLK
  5
1D4A
330
1D3F
100
AcDbEntity
  8
0
100
AcDbBlockEnd
  0
BLOCK
  5
1D8C
330
1D84
100
AcDbEntity
  8
0
100
AcDbBlockBegin
  2
*D5
 70
     1
 10
0.0
 20
0.0
 30
0.0
  3
*D5
  1

  0
LINE
  5
1D9E
330
1D84
100
AcDbEntity
  8
BEM
 62
     0
370
    -2
100
AcDbLine
 10
156.4097816158759
 20
384.9287333601537
 30
0.0
 11
156.4071180457658
 21
384.9317439784969
 31
0.0
  0
LINE
  5
1D9F
330
1D84
100
AcDbEntity
  8
BEM
 62
     0
370
    -2
100
AcDbLine
 10
263.5104496887032
 20
479.6834002550042
 30
0.0
 11
263.507786118594
 21
479.6864108733465
 31
0.0
  0
LINE
  5
1DA0
330
1D84
100
AcDbEntity
  8
BEM
 62
     0
370
    -2
100
AcDbLine
 10
162.9750481877203
 20
388.072172874429
 30
0.0
 11
259.5903361695024
 21
473.5501590942583
 31
0.0
  0
SOLID
  5
1DA1
330
1D84
100
AcDbEntity
  8
BEM
 62
     0
100
AcDbTrace
 10
162.201991464802
 20
388.9459545486829
 30
0.0
 11
163.7481049106387
 21
387.1983912001752
 31
0.0
 12
157.7323581421973
 22
383.4338325369189
 32
0.0
 13
157.7323581421973
 23
383.4338325369189
 33
0.0
  0
SOLID
  5
1DA2
330
1D84
100
AcDbEntity
  8
BEM
 62
     0
100
AcDbTrace
 10
258.817279446584
 20
474.4239407685121
 30
0.0
 11
260.3633928924207
 21
472.6763774200044
 31
0.0
 12
264.8330262150254
 22
478.1884994317684
 32
0.0
 13
264.8330262150254
 23
478.1884994317684
 33
0.0
  0
MTEXT
  5
1DA3
330
1D84
100
AcDbEntity
  8
BEM
 62
     1
100
AcDbMText
 10
228.2758931127953
 20
454.5242308950953
 30
0.0
 40
7.0
 41
0.0
 71
     5
 72
     1
  1
\A1;%%c143
 11
0.7489557207890077
 21
0.6626200482157313
 31
0.0
 73
     1
 44
1.0
  0
POINT
  5
1DA4
330
1D84
100
AcDbEntity
  8
Defpoints
 62
     0
100
AcDbPoint
 10
157.7350217123074
 20
383.4308219185757
 30
0.0
  0
POINT
  5
1DA5
330
1D84
100
AcDbEntity
  8
Defpoints
 62
     0
100
AcDbPoint
 10
264.8356897851347
 20
478.1854888134262
 30
0.0
  0
POINT
  5
1DA6
330
1D84
100
AcDbEntity
  8
Defpoints
 62
     0
100
AcDbPoint
 10
264.8330262150254
 20
478.1884994317684
 30
0.0
  0
ENDBLK
  5
1D8D
330
1D84
100
AcDbEntity
  8
0
100
AcDbBlockEnd
  0
BLOCK
  5
1DD8
330
1DCE
100
AcDbEntity
  8
0
100
AcDbBlockBegin
  2
*D6
 70
     1
 10
0.0
 20
0.0
 30
0.0
  3
*D6
  1

  0
LINE
  5
1DCF
330
1DCE
100
AcDbEntity
  8
BEM
 62
     0
370
    -2
100
AcDbLine
 10
116.1453395973436
 20
233.0188968757308
 30
0.0
 11
96.26478666419325
 21
233.0188968757308
 31
0.0
  0
LINE
  5
1DD0
330
1DCE
100
AcDbEntity
  8
BEM
 62
     0
370
    -2
100
AcDbLine
 10
116.145355748721
 20
273.0188968757311
 30
0.0
 11
96.26478666419325
 21
273.0188968757311
 31
0.0
  0
LINE
  5
1DD1
330
1DCE
100
AcDbEntity
  8
BEM
 62
     0
370
    -2
100
AcDbLine
 10
98.26478666419326
 20
240.0188968757308
 30
0.0
 11
98.26478666419326
 21
266.0188968757311
 31
0.0
  0
SOLID
  5
1DD2
330
1DCE
100
AcDbEntity
  8
BEM
 62
     0
100
AcDbTrace
 10
97.09811999752659
 20
240.0188968757308
 30
0.0
 11
99.43145333085993
 21
240.0188968757308
 31
0.0
 12
98.26478666419326
 22
233.0188968757308
 32
0.0
 13
98.26478666419326
 23
233.0188968757308
 33
0.0
  0
SOLID
  5
1DD3
330
1DCE
100
AcDbEntity
  8
BEM
 62
     0
100
AcDbTrace
 10
97.09811999752659
 20
266.0188968757311
 30
0.0
 11
99.43145333085993
 21
266.0188968757311
 31
0.0
 12
98.26478666419326
 22
273.0188968757311
 32
0.0
 13
98.26478666419326
 23
273.0188968757311
 33
0.0
  0
MTEXT
  5
1DD4
330
1DCE
100
AcDbEntity
  8
BEM
 62
     1
100
AcDbMText
 10
91.7647866641932
 20
253.018896875731
 30
0.0
 40
7.0
 41
0.0
 71
     5
 72
     1
  1
\A1;40
 11
0.0000000000000001
 21
1.0
 31
0.0
 73
     1
 44
1.0
  0
POINT
  5
1DD5
330
1DCE
100
AcDbEntity
  8
Defpoints
 62
     0
100
AcDbPoint
 10
118.1453395973436
 20
233.0188968757308
 30
0.0
  0
POINT
  5
1DD6
330
1DCE
100
AcDbEntity
  8
Defpoints
 62
     0
100
AcDbPoint
 10
118.145355748721
 20
273.0188968757311
 30
0.0
  0
POINT
  5
1DD7
330
1DCE
100
AcDbEntity
  8
Defpoints
 62
     0
100
AcDbPoint
 10
98.26478666419326
 20
273.0188968757311
 30
0.0
  0
ENDBLK
  5
1DD9
330
1DCE
100
AcDbEntity
  8
0
100
AcDbBlockEnd
  0
ENDSEC
  0
SECTION
  2
ENTITIES
  0
LINE
  5
57
330
1E
100
AcDbEntity
  8
STEMPEL
100
AcDbLine
 10
410.0
 20
110.0
 30
0.0
 11
39.99999999999997
 21
110.0
 31
0.0
  0
LINE
  5
58
330
1E
100
AcDbEntity
  8
STEMPEL
100
AcDbLine
 10
136.0000000000001
 20
109.9999999999999
 30
0.0
 11
136.0
 21
9.999999999999971
 31
0.0
  0
LINE
  5
59
330
1E
100
AcDbEntity
  8
STEMPEL
100
AcDbLine
 10
220.0
 20
110.0
 30
0.0
 11
220.0
 21
9.999999999999971
 31
0.0
  0
LINE
  5
5A
330
1E
100
AcDbEntity
  8
STEMPEL
100
AcDbLine
 10
332.0
 20
109.9999999999997
 30
0.0
 11
332.0
 21
40.0
 31
0.0
  0
LINE
  5
5B
330
1E
100
AcDbEntity
  8
STEMPEL
100
AcDbLine
 10
135.9999999999999
 20
29.99999999999997
 30
0.0
 11
39.99999999999997
 21
29.99999999999997
 31
0.0
  0
LINE
  5
5C
330
1E
100
AcDbEntity
  8
STEMPEL
100
AcDbLine
 10
410.0
 20
40.0
 30
0.0
 11
136.0000000000001
 21
39.99999999999997
 31
0.0
  0
LINE
  5
5D
330
1E
100
AcDbEntity
  8
STEMPEL
100
AcDbLine
 10
410.0
 20
80.0
 30
0.0
 11
136.0000000000001
 21
79.99999999999994
 31
0.0
  0
LINE
  5
5E
330
1E
100
AcDbEntity
  8
VOLL
100
AcDbLine
 10
54.00000000000009
 20
110.0
 30
0.0
 11
53.99999999999997
 21
9.999999999999971
 31
0.0
  0
LINE
  5
5F
330
1E
100
AcDbEntity
  8
VOLL
100
AcDbLine
 10
94.00000000000011
 20
109.9999999999999
 30
0.0
 11
94.0
 21
9.999999999999971
 31
0.0
  0
LINE
  5
60
330
1E
100
AcDbEntity
  8
VOLL
100
AcDbLine
 10
114.0000000000001
 20
109.9999999999999
 30
0.0
 11
114.0
 21
9.999999999999971
 31
0.0
  0
LINE
  5
61
330
1E
100
AcDbEntity
  8
VOLL
100
AcDbLine
 10
154.0000000000001
 20
79.99999999999994
 30
0.0
 11
154.0000000000001
 21
39.99999999999997
 31
0.0
  0
LINE
  5
62
330
1E
100
AcDbEntity
  8
VOLL
100
AcDbLine
 10
180.0000000000001
 20
109.9999999999998
 30
0.0
 11
180.0
 21
39.99999999999997
 31
0.0
  0
LINE
  5
63
330
1E
100
AcDbEntity
  8
HILF
100
AcDbLine
 10
40.00000000000008
 20
100.0
 30
0.0
 11
136.0000000000001
 21
100.0
 31
0.0
  0
LINE
  5
64
330
1E
100
AcDbEntity
  8
HILF
100
AcDbLine
 10
40.00000000000008
 20
90.00000000000005
 30
0.0
 11
136.0000000000001
 21
90.00000000000005
 31
0.0
  0
LINE
  5
65
330
1E
100
AcDbEntity
  8
HILF
100
AcDbLine
 10
40.00000000000008
 20
79.99999999999994
 30
0.0
 11
136.0000000000001
 21
79.99999999999994
 31
0.0
  0
LINE
  5
66
330
1E
100
AcDbEntity
  8
HILF
100
AcDbLine
 10
40.00000000000008
 20
69.99999999999994
 30
0.0
 11
136.0000000000001
 21
69.99999999999994
 31
0.0
  0
LINE
  5
67
330
1E
100
AcDbEntity
  8
HILF
100
AcDbLine
 10
40.00000000000008
 20
59.99999999999997
 30
0.0
 11
136.0000000000001
 21
59.99999999999997
 31
0.0
  0
LINE
  5
68
330
1E
100
AcDbEntity
  8
HILF
100
AcDbLine
 10
40.00000000000008
 20
49.99999999999997
 30
0.0
 11
136.0000000000001
 21
49.99999999999997
 31
0.0
  0
LINE
  5
69
330
1E
100
AcDbEntity
  8
HILF
100
AcDbLine
 10
40.00000000000008
 20
39.99999999999997
 30
0.0
 11
136.0000000000001
 21
39.99999999999997
 31
0.0
  0
LINE
  5
6A
330
1E
100
AcDbEntity
  8
HILF
100
AcDbLine
 10
136.0000000000001
 20
69.99999999999994
 30
0.0
 11
220.0
 21
69.99999999999994
 31
0.0
  0
LINE
  5
6B
330
1E
100
AcDbEntity
  8
HILF
100
AcDbLine
 10
136.0000000000001
 20
59.99999999999997
 30
0.0
 11
220.0
 21
59.99999999999997
 31
0.0
  0
LINE
  5
6C
330
1E
100
AcDbEntity
  8
HILF
100
AcDbLine
 10
136.0000000000001
 20
49.99999999999997
 30
0.0
 11
220.0
 21
49.99999999999997
 31
0.0
  0
LINE
  5
6D
330
1E
100
AcDbEntity
  8
HILF
100
AcDbLine
 10
224.7736801096948
 20
84.03758247564139
 30
0.0
 11
324.8353916556311
 21
84.03758247564139
 31
0.0
  0
LINE
  5
6E
330
1E
100
AcDbEntity
  8
HILF
100
AcDbLine
 10
224.7736801096948
 20
69.99999999999994
 30
0.0
 11
324.835391655631
 21
69.99999999999994
 31
0.0
  0
LINE
  5
6F
330
1E
100
AcDbEntity
  8
HILF
100
AcDbLine
 10
224.7736801096948
 20
59.99999999999997
 30
0.0
 11
324.835391655631
 21
59.99999999999997
 31
0.0
  0
LINE
  5
70
330
1E
100
AcDbEntity
  8
HILF
100
AcDbLine
 10
224.7736801096948
 20
49.99999999999997
 30
0.0
 11
324.835391655631
 21
49.99999999999997
 31
0.0
  0
LINE
  5
71
330
1E
100
AcDbEntity
  8
VOLL
100
AcDbLine
 10
332.0
 20
60.0
 30
0.0
 11
410.0
 21
60.0
 31
0.0
  0
LINE
  5
72
330
1E
100
AcDbEntity
  8
HILF
100
AcDbLine
 10
336.7238616296993
 20
83.77983636955827
 30
0.0
 11
404.8588839326728
 21
83.77983636955827
 31
0.0
  0
LINE
  5
73
330
1E
100
AcDbEntity
  8
HILF
100
AcDbLine
 10
223.4909699289885
 20
14.89398258028314
 30
0.0
 11
404.8588839326728
 21
14.89398258028314
 31
0.0
  0
TEXT
  5
74
330
1E
100
AcDbEntity
  8
TEXT
100
AcDbText
 10
63.86165979631819
 20
18.67381894984132
 30
0.0
 40
4.0
  1
Änderung
 41
0.8
  7
GREEKS
 72
     1
 11
74.60451693917534
 21
18.67381894984132
 31
0.0
100
AcDbText
  0
TEXT
  5
75
330
1E
100
AcDbEntity
  8
TEXT
100
AcDbText
 10
143.5163572150377
 20
102.4620895087088
 30
0.0
 40
5.0
  1
Maßstab
 41
0.8
  7
GREEKS
100
AcDbText
  0
TEXT
  5
76
330
1E
100
AcDbEntity
  8
TEXT
100
AcDbText
 10
184.2858954734051
 20
102.4184168434819
 30
0.0
 40
5.0
  1
Zul. Abw.
 41
0.8
  7
GREEKS
100
AcDbText
  0
TEXT
  5
77
330
1E
100
AcDbEntity
  8
TEXT
100
AcDbText
 10
224.877940380901
 20
102.5489328011779
 30
0.0
 40
5.0
  1
Benennung
 41
0.8
  7
GREEKS
100
AcDbText
  0
TEXT
  5
78
330
1E
100
AcDbEntity
  8
TEXT
100
AcDbText
 10
336.178754957634
 20
102.3132034537136
 30
0.0
 40
5.0
  1
Zeichnungs Nr.
 41
0.8
  7
GREEKS
100
AcDbText
  0
TEXT
  5
79
330
1E
100
AcDbEntity
  8
TEXT
100
AcDbText
 10
224.742238391136
 20
30.84560570193057
 30
0.0
 40
5.0
  1
Bauvorhaben
 41
0.8
  7
GREEKS
100
AcDbText
  0
TEXT
  5
7A
330
1E
100
AcDbEntity
  8
TEXT
100
AcDbText
 10
336.7238616296993
 20
73.1811823709997
 30
0.0
 40
5.0
  1
Ersatz für:
 41
0.8
  7
GREEKS
100
AcDbText
  0
TEXT
  5
7B
330
1E
100
AcDbEntity
  8
TEXT
100
AcDbText
 10
48.26641107045756
 20
13.65465846027192
 30
0.0
 40
4.0
  1
Index
 50
90.0
 41
0.8
  7
GREEKS
100
AcDbText
  0
TEXT
  5
7C
330
1E
100
AcDbEntity
  8
TEXT
100
AcDbText
 10
100.0934676075481
 20
18.6715626933981
 30
0.0
 40
4.0
  1
Tag
 41
0.8
  7
GREEKS
 72
     1
 11
103.8268009408814
 21
18.6715626933981
 31
0.0
100
AcDbText
  0
TEXT
  5
7D
330
1E
100
AcDbEntity
  8
TEXT
100
AcDbText
 10
119.0122744386592
 20
18.59324216966408
 30
0.0
 40
4.0
  1
Name
 41
0.8
  7
GREEKS
 72
     1
 11
125.3360839624688
 21
18.59324216966408
 31
0.0
100
AcDbText
  0
TEXT
  5
7E
330
1E
100
AcDbEntity
  8
TEXT
100
AcDbText
 10
162.3311673153651
 20
73.31880501229926
 30
0.0
 40
4.0
  1
Tag
 41
0.8
  7
GREEKS
100
AcDbText
  0
TEXT
  5
7F
330
1E
100
AcDbEntity
  8
TEXT
100
AcDbText
 10
192.4626584226295
 20
73.30961091915225
 30
0.0
 40
4.0
  1
Name
 41
0.8
  7
GREEKS
100
AcDbText
  0
TEXT
  5
80
330
1E
100
AcDbEntity
  8
TEXT
100
AcDbText
 10
137.5836127167615
 20
63.62990369617964
 30
0.0
 40
4.0
  1
Gez.
 41
0.8
  7
GREEKS
100
AcDbText
  0
TEXT
  5
81
330
1E
100
AcDbEntity
  8
TEXT
100
AcDbText
 10
137.5515086571672
 20
53.68926291428377
 30
0.0
 40
4.0
  1
Gepr.
 41
0.8
  7
GREEKS
100
AcDbText
  0
TEXT
  5
82
330
1E
100
AcDbEntity
  8
TEXT
100
AcDbText
 10
137.6006777387304
 20
43.52946389649807
 30
0.0
 40
4.0
  1
Norm.
 41
0.8
  7
GREEKS
100
AcDbText
  0
LINE
  5
83
330
1E
100
AcDbEntity
  8
STEMPEL
100
AcDbLine
 10
49.99999999999989
 20
10.0
 30
0.0
 11
410.0
 21
10.0
 31
0.0
  0
TEXT
  5
84
330
1E
100
AcDbEntity
  8
TEXT
100
AcDbText
 10
337.2400861497006
 20
52.07416177878602
 30
0.0
 40
5.0
  1
ersetzt durch:
 41
0.8
  7
GREEKS
100
AcDbText
  0
LINE
  5
85
330
1E
100
AcDbEntity
  8
STEMPEL
100
AcDbLine
 10
410.0
 20
10.0
 30
0.0
 11
39.99999999999989
 21
10.0
 31
0.0
  0
LINE
  5
86
330
1E
100
AcDbEntity
  8
STEMPEL
100
AcDbLine
 10
410.0
 20
10.0
 30
0.0
 11
410.0
 21
584.0
 31
0.0
  0
LINE
  5
87
330
1E
100
AcDbEntity
  8
STEMPEL
100
AcDbLine
 10
40.0
 20
10.0
 30
0.0
 11
39.99999999999989
 21
584.0
 31
0.0
  0
LINE
  5
88
330
1E
100
AcDbEntity
  8
STEMPEL
100
AcDbLine
 10
410.0
 20
584.0
 30
0.0
 11
39.99999999999989
 21
584.0
 31
0.0
  0
LINE
  5
89
330
1E
100
AcDbEntity
  8
HILF
100
AcDbLine
 10
0.0
 20
0.0
 30
0.0
 11
-0.0000000000001137
 21
594.0
 31
0.0
  0
LINE
  5
8A
330
1E
100
AcDbEntity
  8
HILF
100
AcDbLine
 10
419.9999999999999
 20
594.0000000000002
 30
0.0
 11
0.0
 21
594.0
 31
0.0
  0
LINE
  5
8B
330
1E
100
AcDbEntity
  8
HILF
100
AcDbLine
 10
420.0
 20
0.0
 30
0.0
 11
0.0
 21
0.0
 31
0.0
  0
LINE
  5
8C
330
1E
100
AcDbEntity
  8
HILF
100
AcDbLine
 10
31.08767135713856
 20
297.0
 30
0.0
 11
0.0000000000001137
 21
297.0
 31
0.0
  0
TEXT
  5
8D
330
1E
100
AcDbEntity
  8
TEXT
100
AcDbText
 10
138.622109822104
 20
73.14025471151666
 30
0.0
 40
4.0
  1
2006
 41
0.8
  7
GREEKS
100
AcDbText
  0
LINE
  5
8E
330
1E
100
AcDbEntity
  8
HILF
100
AcDbLine
 10
420.0
 20
-0.0000000000001137
 30
0.0
 11
419.9999999999999
 21
594.0
 31
0.0
  0
TEXT
  5
8F
330
1E
100
AcDbEntity
  8
VOLL
100
AcDbText
 10
78.07675471698113
 20
31.02594776470585
 30
0.0
 40
1.8
  1

  7
GREEKS
100
AcDbText
  0
TEXT
  5
90
330
1E
100
AcDbEntity
  8
TEXT
100
AcDbText
 10
41.85509950977674
 20
111.6719999999999
 30
0.0
 40
5.0
  1
Erstellt mit AUTOCAD 2004
 41
0.8
  7
GREEKS
100
AcDbText
  0
TEXT
  5
91
330
1E
100
AcDbEntity
  8
TEXT
100
AcDbText
 10
194.4216048581257
 20
63.0896391972351
 30
0.0
 40
4.0
  1
Koeh
 41
0.8
  7
GREEKS
 72
     1
 11
199.6787477152685
 21
63.0896391972351
 31
0.0
100
AcDbText
  0
TEXT
  5
92
330
1E
100
AcDbEntity
  8
TEXT
 62
     1
100
AcDbText
 10
346.3054909762015
 20
88.14901428913959
 30
0.0
 40
7.0
  1
00976125W
 41
0.8
  7
GREEKS
 72
     1
 11
369.7721576428681
 21
88.14901428913959
 31
0.0
100
AcDbText
  0
TEXT
  5
93
330
1E
100
AcDbEntity
  8
TEXT
 62
     1
100
AcDbText
 10
150.5006306481887
 20
88.14901428913959
 30
0.0
 40
7.0
  1
1:2
 41
0.8
  7
GREEKS
100
AcDbText
  0
TEXT
  5
94
330
1E
100
AcDbEntity
  8
TEXT
100
AcDbText
 10
161.0085209177598
 20
63.10765040825732
 30
0.0
 40
4.0
  1
12.10.
 41
0.8
  7
GREEKS
 72
     1
 11
167.4085209177598
 21
63.10765040825732
 31
0.0
100
AcDbText
  0
TEXT
  5
95
330
1E
100
AcDbEntity
  8
TEXT
 62
     1
100
AcDbText
 10
226.8935731057402
 20
87.41748789253779
 30
0.0
 40
7.0
  1
Rohrschelle DN125
 41
0.8
  7
GREEKS
100
AcDbText
  0
TEXT
  5
96
330
1E
100
AcDbEntity
  8
TEXT
100
AcDbText
 10
225.1296391125315
 20
71.50334417585288
 30
0.0
 40
5.0
  1
mit Anschlußgewinde M12
 41
0.8
  7
GREEKS
100
AcDbText
  0
TEXT
  5
98
330
1E
100
AcDbEntity
  8
TEXT
100
AcDbText
 10
225.1296391125315
 20
51.64011943042158
 30
0.0
 40
5.0
  1
EDV-Art.Nr. 00976.125X
 41
0.8
  7
GREEKS
100
AcDbText
  0
TEXT
  5
99
330
1E
100
AcDbEntity
  8
TEXT
100
AcDbText
 10
224.9837501577827
 20
42.62974153022632
 30
0.0
 40
4.0
  1
00976125W.DWG
 41
0.8
  7
GREEKS
100
AcDbText
  0
TEXT
  5
9A
330
1E
100
AcDbEntity
  8
TEXT
100
AcDbText
 10
182.626132208084
 20
90.76363841023022
 30
0.0
 40
4.0
  1
DIN EN1123-2
 41
0.8
  7
GREEKS
 72
     1
 11
199.6166083985602
 21
90.76363841023022
 31
0.0
100
AcDbText
  0
INSERT
  5
9B
330
1E
100
AcDbEntity
  8
STEMPEL
100
AcDbBlockReference
  2
LOGO
 10
140.9955485457794
 20
45.02105276448322
 30
0.0
 41
2.0
 42
2.0
 43
2.0
  0
TEXT
  5
118
330
1E
100
AcDbEntity
  8
BEM
100
AcDbText
 10
417.3022923857165
 20
10.16790107998849
 30
0.0
 40
4.0
  1
Diese Zeichnung ist urheberrechtlich geschützt und bleibt unser Eigentum. Sie darf weder ganz noch teilweise verfielfältigt und nicht an Dritte weitergegeben werden.
 50
90.0
 41
0.8
  7
GREEKS
100
AcDbText
  0
TEXT
  5
7BF
330
1E
100
AcDbEntity
  8
TEXT
 62
     1
100
AcDbText
 10
221.8625243689229
 20
323.4198592706828
 30
0.0
 40
7.0
  1
M12
 41
0.8
  7
GREEKS
100
AcDbText
  0
LINE
  5
7C0
330
1E
100
AcDbEntity
  8
TEXT
 62
     2
100
AcDbLine
 10
219.7426313728773
 20
320.0399538537864
 30
0.0
 11
236.8875515612462
 21
320.0399538537864
 31
0.0
  0
LINE
  5
7C1
330
1E
100
AcDbEntity
  8
TEXT
 62
     2
100
AcDbLine
 10
219.7426313728773
 20
320.0399538537864
 30
0.0
 11
211.2853557487211
 21
342.058155366001
 31
0.0
  0
TEXT
  5
1137
330
1E
100
AcDbEntity
  8
TEXT
 62
     1
100
AcDbText
 10
327.5003102429068
 20
505.4650258127701
 30
0.0
 40
7.0
  1
Schraube M8x30
 41
0.8
  7
GREEKS
100
AcDbText
  0
LINE
  5
1138
330
1E
100
AcDbEntity
  8
TEXT
 62
     2
100
AcDbLine
 10
325.3804172468615
 20
502.0851203958738
 30
0.0
 11
400.382099064492
 21
502.0851203958738
 31
0.0
  0
LINE
  5
1139
330
1E
100
AcDbEntity
  8
TEXT
 62
     2
100
AcDbLine
 10
325.3804172468615
 20
502.0851203958738
 30
0.0
 11
302.0900311190343
 21
438.0179064384257
 31
0.0
  0
LINE
  5
1BFD
330
1E
100
AcDbEntity
  8
HILF
100
AcDbLine
 10
295.5343557487209
 20
405.3081553660009
 30
0.0
 11
295.5343557487209
 21
423.3081553660009
 31
0.0
  0
LINE
  5
1BFE
330
1E
100
AcDbEntity
  8
HILF
100
AcDbLine
 10
302.0343557487209
 20
405.3081553660009
 30
0.0
 11
302.0343557487209
 21
423.3081553660009
 31
0.0
  0
LINE
  5
1BFF
330
1E
100
AcDbEntity
  8
STEMPEL
100
AcDbLine
 10
302.784355748721
 20
406.0581553660009
 30
0.0
 11
294.7843557487209
 21
406.0581553660009
 31
0.0
  0
LINE
  5
1C00
330
1E
100
AcDbEntity
  8
HILF
100
AcDbLine
 10
295.5343557487209
 20
431.0581553660009
 30
0.0
 11
295.5343557487209
 21
432.3081553660009
 31
0.0
  0
LINE
  5
1C01
330
1E
100
AcDbEntity
  8
HILF
100
AcDbLine
 10
295.5343557487209
 20
429.3081553660009
 30
0.0
 11
295.5343557487209
 21
430.5581553660009
 31
0.0
  0
LINE
  5
1C02
330
1E
100
AcDbEntity
  8
HILF
100
AcDbLine
 10
302.0343557487209
 20
431.0581553660009
 30
0.0
 11
302.0343557487209
 21
432.3081553660009
 31
0.0
  0
LINE
  5
1C03
330
1E
100
AcDbEntity
  8
HILF
100
AcDbLine
 10
302.0343557487209
 20
429.3081553660009
 30
0.0
 11
302.0343557487209
 21
430.5581553660009
 31
0.0
  0
LINE
  5
1C04
330
1E
100
AcDbEntity
  8
STEMPEL
100
AcDbLine
 10
294.7843557487209
 20
431.0581553660009
 30
0.0
 11
294.7843557487209
 21
432.3081553660009
 31
0.0
  0
LINE
  5
1C05
330
1E
100
AcDbEntity
  8
STEMPEL
100
AcDbLine
 10
294.7843557487209
 20
429.3081553660009
 30
0.0
 11
294.7843557487209
 21
430.5581553660009
 31
0.0
  0
LINE
  5
1C06
330
1E
100
AcDbEntity
  8
STEMPEL
100
AcDbLine
 10
302.784355748721
 20
430.5581553660009
 30
0.0
 11
302.784355748721
 21
429.3081553660009
 31
0.0
  0
LINE
  5
1C07
330
1E
100
AcDbEntity
  8
STEMPEL
100
AcDbLine
 10
302.784355748721
 20
432.3081553660009
 30
0.0
 11
302.784355748721
 21
431.0581553660009
 31
0.0
  0
ARC
  5
1C08
330
1E
100
AcDbEntity
  8
STEMPEL
100
AcDbCircle
 10
298.7843557487209
 20
429.4501553660009
 30
0.0
 40
11.158
100
AcDbArc
 50
95.91552076700024
 51
109.652859632001
  0
ARC
  5
1C09
330
1E
100
AcDbEntity
  8
STEMPEL
100
AcDbCircle
 10
298.7843557487209
 20
429.4501553660009
 30
0.0
 40
11.158
100
AcDbArc
 50
70.34714036799893
 51
84.08447923299975
  0
LINE
  5
1C0A
330
1E
100
AcDbEntity
  8
STEMPEL
100
AcDbLine
 10
297.6343557487211
 20
440.6081553660009
 30
0.0
 11
293.155355748721
 21
440.6081553660009
 31
0.0
  0
LINE
  5
1C0B
330
1E
100
AcDbEntity
  8
STEMPEL
100
AcDbLine
 10
297.6343557487211
 20
438.1081553660009
 30
0.0
 11
297.6343557487211
 21
440.6081553660009
 31
0.0
  0
LINE
  5
1C0C
330
1E
100
AcDbEntity
  8
STEMPEL
100
AcDbLine
 10
299.934355748721
 20
438.1081553660009
 30
0.0
 11
297.6343557487211
 21
438.1081553660009
 31
0.0
  0
LINE
  5
1C0D
330
1E
100
AcDbEntity
  8
STEMPEL
100
AcDbLine
 10
299.934355748721
 20
440.6081553660009
 30
0.0
 11
299.934355748721
 21
438.1081553660009
 31
0.0
  0
LINE
  5
1C0E
330
1E
100
AcDbEntity
  8
STEMPEL
100
AcDbLine
 10
304.4133557487211
 20
440.6081553660009
 30
0.0
 11
299.934355748721
 21
440.6081553660009
 31
0.0
  0
LINE
  5
1C0F
330
1E
100
AcDbEntity
  8
STEMPEL
100
AcDbLine
 10
294.7843557487209
 20
406.0581553660009
 30
0.0
 11
294.7843557487209
 21
423.3081553660009
 31
0.0
  0
LINE
  5
1C10
330
1E
100
AcDbEntity
  8
STEMPEL
100
AcDbLine
 10
295.5343557487209
 20
405.3081553660009
 30
0.0
 11
294.7843557487209
 21
406.0581553660009
 31
0.0
  0
LINE
  5
1C11
330
1E
100
AcDbEntity
  8
STEMPEL
100
AcDbLine
 10
302.0343557487209
 20
405.3081553660009
 30
0.0
 11
295.5343557487209
 21
405.3081553660009
 31
0.0
  0
LINE
  5
1C12
330
1E
100
AcDbEntity
  8
STEMPEL
100
AcDbLine
 10
302.784355748721
 20
406.0581553660009
 30
0.0
 11
302.0343557487209
 21
405.3081553660009
 31
0.0
  0
LINE
  5
1C13
330
1E
100
AcDbEntity
  8
STEMPEL
100
AcDbLine
 10
302.784355748721
 20
423.3081553660009
 30
0.0
 11
302.784355748721
 21
406.0581553660009
 31
0.0
  0
LINE
  5
1C14
330
1E
100
AcDbEntity
  8
STEMPEL
100
AcDbLine
 10
302.537355748721
 20
439.9581553660009
 30
0.0
 11
302.537355748721
 21
435.3081553660009
 31
0.0
  0
ARC
  5
1C15
330
1E
100
AcDbEntity
  8
STEMPEL
100
AcDbCircle
 10
304.4133557487211
 20
437.5751553660009
 30
0.0
 40
3.032999999999999
100
AcDbArc
 50
90.0
 51
128.2132107020002
  0
ARC
  5
1C16
330
1E
100
AcDbEntity
  8
STEMPEL
100
AcDbCircle
 10
304.4133557487211
 20
437.5751553660009
 30
0.0
 40
3.032999999999999
100
AcDbArc
 50
51.78678929799973
 51
90.0
  0
LINE
  5
1C17
330
1E
100
AcDbEntity
  8
STEMPEL
100
AcDbLine
 10
306.290355748721
 20
435.3081553660009
 30
0.0
 11
306.290355748721
 21
439.9581553660009
 31
0.0
  0
LINE
  5
1C18
330
1E
100
AcDbEntity
  8
STEMPEL
100
AcDbLine
 10
303.184355748721
 20
435.3081553660009
 30
0.0
 11
306.290355748721
 21
435.3081553660009
 31
0.0
  0
LINE
  5
1C19
330
1E
100
AcDbEntity
  8
STEMPEL
100
AcDbLine
 10
294.3843557487211
 20
435.3081553660009
 30
0.0
 11
303.184355748721
 21
435.3081553660009
 31
0.0
  0
LINE
  5
1C1A
330
1E
100
AcDbEntity
  8
STEMPEL
100
AcDbLine
 10
291.2793557487211
 20
435.3081553660009
 30
0.0
 11
294.3843557487211
 21
435.3081553660009
 31
0.0
  0
LINE
  5
1C1B
330
1E
100
AcDbEntity
  8
STEMPEL
100
AcDbLine
 10
291.2793557487211
 20
439.9581553660009
 30
0.0
 11
291.2793557487211
 21
435.3081553660009
 31
0.0
  0
ARC
  5
1C1C
330
1E
100
AcDbEntity
  8
STEMPEL
100
AcDbCircle
 10
293.155355748721
 20
437.5751553660009
 30
0.0
 40
3.032999999999999
100
AcDbArc
 50
90.0
 51
128.2132107020002
  0
ARC
  5
1C1D
330
1E
100
AcDbEntity
  8
STEMPEL
100
AcDbCircle
 10
293.155355748721
 20
437.5751553660009
 30
0.0
 40
3.032999999999999
100
AcDbArc
 50
51.78678929799973
 51
90.0
  0
LINE
  5
1C1E
330
1E
100
AcDbEntity
  8
STEMPEL
100
AcDbLine
 10
295.032355748721
 20
435.3081553660009
 30
0.0
 11
295.032355748721
 21
439.9581553660009
 31
0.0
  0
LINE
  5
1C1F
330
1E
100
AcDbEntity
  8
HILF
100
AcDbLine
 10
120.566355748721
 20
405.3081553660009
 30
0.0
 11
120.566355748721
 21
423.3081553660009
 31
0.0
  0
LINE
  5
1C20
330
1E
100
AcDbEntity
  8
HILF
100
AcDbLine
 10
127.066355748721
 20
405.3081553660009
 30
0.0
 11
127.066355748721
 21
423.3081553660009
 31
0.0
  0
LINE
  5
1C21
330
1E
100
AcDbEntity
  8
STEMPEL
100
AcDbLine
 10
127.816355748721
 20
406.0581553660009
 30
0.0
 11
119.816355748721
 21
406.0581553660009
 31
0.0
  0
LINE
  5
1C22
330
1E
100
AcDbEntity
  8
HILF
100
AcDbLine
 10
120.566355748721
 20
431.0581553660009
 30
0.0
 11
120.566355748721
 21
432.3081553660009
 31
0.0
  0
LINE
  5
1C23
330
1E
100
AcDbEntity
  8
HILF
100
AcDbLine
 10
120.566355748721
 20
429.3081553660009
 30
0.0
 11
120.566355748721
 21
430.5581553660009
 31
0.0
  0
LINE
  5
1C24
330
1E
100
AcDbEntity
  8
HILF
100
AcDbLine
 10
127.066355748721
 20
431.0581553660009
 30
0.0
 11
127.066355748721
 21
432.3081553660009
 31
0.0
  0
LINE
  5
1C25
330
1E
100
AcDbEntity
  8
HILF
100
AcDbLine
 10
127.066355748721
 20
429.3081553660009
 30
0.0
 11
127.066355748721
 21
430.5581553660009
 31
0.0
  0
LINE
  5
1C26
330
1E
100
AcDbEntity
  8
STEMPEL
100
AcDbLine
 10
119.816355748721
 20
431.0581553660009
 30
0.0
 11
119.816355748721
 21
432.3081553660009
 31
0.0
  0
LINE
  5
1C27
330
1E
100
AcDbEntity
  8
STEMPEL
100
AcDbLine
 10
119.816355748721
 20
429.3081553660009
 30
0.0
 11
119.816355748721
 21
430.5581553660009
 31
0.0
  0
LINE
  5
1C28
330
1E
100
AcDbEntity
  8
STEMPEL
100
AcDbLine
 10
127.816355748721
 20
430.5581553660009
 30
0.0
 11
127.816355748721
 21
429.3081553660009
 31
0.0
  0
LINE
  5
1C29
330
1E
100
AcDbEntity
  8
STEMPEL
100
AcDbLine
 10
127.816355748721
 20
432.3081553660009
 30
0.0
 11
127.816355748721
 21
431.0581553660009
 31
0.0
  0
ARC
  5
1C2A
330
1E
100
AcDbEntity
  8
STEMPEL
100
AcDbCircle
 10
123.816355748721
 20
429.4501553660009
 30
0.0
 40
11.158
100
AcDbArc
 50
95.91552076700024
 51
109.652859632001
  0
ARC
  5
1C2B
330
1E
100
AcDbEntity
  8
STEMPEL
100
AcDbCircle
 10
123.816355748721
 20
429.4501553660009
 30
0.0
 40
11.158
100
AcDbArc
 50
70.34714036799893
 51
84.08447923299975
  0
LINE
  5
1C2C
330
1E
100
AcDbEntity
  8
STEMPEL
100
AcDbLine
 10
122.666355748721
 20
440.6081553660009
 30
0.0
 11
118.1873557487209
 21
440.6081553660009
 31
0.0
  0
LINE
  5
1C2D
330
1E
100
AcDbEntity
  8
STEMPEL
100
AcDbLine
 10
122.666355748721
 20
438.1081553660009
 30
0.0
 11
122.666355748721
 21
440.6081553660009
 31
0.0
  0
LINE
  5
1C2E
330
1E
100
AcDbEntity
  8
STEMPEL
100
AcDbLine
 10
124.9663557487209
 20
438.1081553660009
 30
0.0
 11
122.666355748721
 21
438.1081553660009
 31
0.0
  0
LINE
  5
1C2F
330
1E
100
AcDbEntity
  8
STEMPEL
100
AcDbLine
 10
124.9663557487209
 20
440.6081553660009
 30
0.0
 11
124.9663557487209
 21
438.1081553660009
 31
0.0
  0
LINE
  5
1C30
330
1E
100
AcDbEntity
  8
STEMPEL
100
AcDbLine
 10
129.445355748721
 20
440.6081553660009
 30
0.0
 11
124.9663557487209
 21
440.6081553660009
 31
0.0
  0
LINE
  5
1C31
330
1E
100
AcDbEntity
  8
STEMPEL
100
AcDbLine
 10
119.816355748721
 20
406.0581553660009
 30
0.0
 11
119.816355748721
 21
423.3081553660009
 31
0.0
  0
LINE
  5
1C32
330
1E
100
AcDbEntity
  8
STEMPEL
100
AcDbLine
 10
120.566355748721
 20
405.3081553660009
 30
0.0
 11
119.816355748721
 21
406.0581553660009
 31
0.0
  0
LINE
  5
1C33
330
1E
100
AcDbEntity
  8
STEMPEL
100
AcDbLine
 10
127.066355748721
 20
405.3081553660009
 30
0.0
 11
120.566355748721
 21
405.3081553660009
 31
0.0
  0
LINE
  5
1C34
330
1E
100
AcDbEntity
  8
STEMPEL
100
AcDbLine
 10
127.816355748721
 20
406.0581553660009
 30
0.0
 11
127.066355748721
 21
405.3081553660009
 31
0.0
  0
LINE
  5
1C35
330
1E
100
AcDbEntity
  8
STEMPEL
100
AcDbLine
 10
127.816355748721
 20
423.3081553660009
 30
0.0
 11
127.816355748721
 21
406.0581553660009
 31
0.0
  0
LINE
  5
1C36
330
1E
100
AcDbEntity
  8
STEMPEL
100
AcDbLine
 10
127.569355748721
 20
439.9581553660009
 30
0.0
 11
127.569355748721
 21
435.3081553660009
 31
0.0
  0
ARC
  5
1C37
330
1E
100
AcDbEntity
  8
STEMPEL
100
AcDbCircle
 10
129.445355748721
 20
437.5751553660009
 30
0.0
 40
3.032999999999999
100
AcDbArc
 50
90.0
 51
128.2132107020002
  0
ARC
  5
1C38
330
1E
100
AcDbEntity
  8
STEMPEL
100
AcDbCircle
 10
129.445355748721
 20
437.5751553660009
 30
0.0
 40
3.032999999999999
100
AcDbArc
 50
51.78678929799973
 51
90.0
  0
LINE
  5
1C39
330
1E
100
AcDbEntity
  8
STEMPEL
100
AcDbLine
 10
131.3213557487209
 20
435.3081553660009
 30
0.0
 11
131.3213557487209
 21
439.9581553660009
 31
0.0
  0
LINE
  5
1C3A
330
1E
100
AcDbEntity
  8
STEMPEL
100
AcDbLine
 10
128.2163557487209
 20
435.3081553660009
 30
0.0
 11
131.3213557487209
 21
435.3081553660009
 31
0.0
  0
LINE
  5
1C3B
330
1E
100
AcDbEntity
  8
STEMPEL
100
AcDbLine
 10
119.416355748721
 20
435.3081553660009
 30
0.0
 11
128.2163557487209
 21
435.3081553660009
 31
0.0
  0
LINE
  5
1C3C
330
1E
100
AcDbEntity
  8
STEMPEL
100
AcDbLine
 10
116.310355748721
 20
435.3081553660009
 30
0.0
 11
119.416355748721
 21
435.3081553660009
 31
0.0
  0
LINE
  5
1C3D
330
1E
100
AcDbEntity
  8
STEMPEL
100
AcDbLine
 10
116.310355748721
 20
439.9581553660009
 30
0.0
 11
116.310355748721
 21
435.3081553660009
 31
0.0
  0
ARC
  5
1C3E
330
1E
100
AcDbEntity
  8
STEMPEL
100
AcDbCircle
 10
118.1873557487209
 20
437.5751553660009
 30
0.0
 40
3.032999999999999
100
AcDbArc
 50
90.0
 51
128.2132107020002
  0
ARC
  5
1C3F
330
1E
100
AcDbEntity
  8
STEMPEL
100
AcDbCircle
 10
118.1873557487209
 20
437.5751553660009
 30
0.0
 40
3.032999999999999
100
AcDbArc
 50
51.78678929799973
 51
90.0
  0
LINE
  5
1C40
330
1E
100
AcDbEntity
  8
STEMPEL
100
AcDbLine
 10
120.063355748721
 20
435.3081553660009
 30
0.0
 11
120.063355748721
 21
439.9581553660009
 31
0.0
  0
LINE
  5
1C41
330
1E
100
AcDbEntity
  8
STEMPEL
100
AcDbLine
 10
297.6343557487211
 20
246.5188968757311
 30
0.0
 11
297.6343557487211
 21
259.5188968757311
 31
0.0
  0
LINE
  5
1C42
330
1E
100
AcDbEntity
  8
STEMPEL
100
AcDbLine
 10
299.934355748721
 20
246.5188968757311
 30
0.0
 11
299.934355748721
 21
259.5188968757311
 31
0.0
  0
ARC
  5
1C43
330
1E
100
AcDbEntity
  8
STEMPEL
100
AcDbCircle
 10
298.7843557487209
 20
253.0188968757311
 30
0.0
 40
6.5
100
AcDbArc
 50
280.1905887679999
 51
79.80941123200008
  0
ARC
  5
1C44
330
1E
100
AcDbEntity
  8
STEMPEL
100
AcDbCircle
 10
298.7843557487209
 20
253.0188968757311
 30
0.0
 40
6.5
100
AcDbArc
 50
100.1905887679999
 51
259.8094112320001
  0
LINE
  5
1C45
330
1E
100
AcDbEntity
  8
STEMPEL
100
AcDbLine
 10
295.032355748721
 20
246.5188968757311
 30
0.0
 11
291.2793557487211
 21
253.0188968757311
 31
0.0
  0
LINE
  5
1C46
330
1E
100
AcDbEntity
  8
STEMPEL
100
AcDbLine
 10
302.537355748721
 20
246.5188968757311
 30
0.0
 11
295.032355748721
 21
246.5188968757311
 31
0.0
  0
LINE
  5
1C47
330
1E
100
AcDbEntity
  8
STEMPEL
100
AcDbLine
 10
306.290355748721
 20
253.0188968757311
 30
0.0
 11
302.537355748721
 21
246.5188968757311
 31
0.0
  0
LINE
  5
1C48
330
1E
100
AcDbEntity
  8
STEMPEL
100
AcDbLine
 10
302.537355748721
 20
259.5188968757311
 30
0.0
 11
306.290355748721
 21
253.0188968757311
 31
0.0
  0
LINE
  5
1C49
330
1E
100
AcDbEntity
  8
STEMPEL
100
AcDbLine
 10
295.032355748721
 20
259.5188968757311
 30
0.0
 11
302.537355748721
 21
259.5188968757311
 31
0.0
  0
LINE
  5
1C4A
330
1E
100
AcDbEntity
  8
STEMPEL
100
AcDbLine
 10
291.2793557487211
 20
253.0188968757311
 30
0.0
 11
295.032355748721
 21
259.5188968757311
 31
0.0
  0
LINE
  5
1C4B
330
1E
100
AcDbEntity
  8
STEMPEL
100
AcDbLine
 10
122.636355748721
 20
246.5188968757311
 30
0.0
 11
122.636355748721
 21
259.5188968757311
 31
0.0
  0
LINE
  5
1C4C
330
1E
100
AcDbEntity
  8
STEMPEL
100
AcDbLine
 10
124.936355748721
 20
246.5188968757311
 30
0.0
 11
124.936355748721
 21
259.5188968757311
 31
0.0
  0
ARC
  5
1C4D
330
1E
100
AcDbEntity
  8
STEMPEL
100
AcDbCircle
 10
123.786355748721
 20
253.0188968757311
 30
0.0
 40
6.5
100
AcDbArc
 50
280.1905887679999
 51
79.80941123200008
  0
ARC
  5
1C4E
330
1E
100
AcDbEntity
  8
STEMPEL
100
AcDbCircle
 10
123.786355748721
 20
253.0188968757311
 30
0.0
 40
6.5
100
AcDbArc
 50
100.1905887679999
 51
259.8094112320001
  0
LINE
  5
1C4F
330
1E
100
AcDbEntity
  8
STEMPEL
100
AcDbLine
 10
120.033355748721
 20
246.5188968757311
 30
0.0
 11
116.280355748721
 21
253.0188968757311
 31
0.0
  0
LINE
  5
1C50
330
1E
100
AcDbEntity
  8
STEMPEL
100
AcDbLine
 10
127.539355748721
 20
246.5188968757311
 30
0.0
 11
120.033355748721
 21
246.5188968757311
 31
0.0
  0
LINE
  5
1C51
330
1E
100
AcDbEntity
  8
STEMPEL
100
AcDbLine
 10
131.291355748721
 20
253.0188968757311
 30
0.0
 11
127.539355748721
 21
246.5188968757311
 31
0.0
  0
LINE
  5
1C52
330
1E
100
AcDbEntity
  8
STEMPEL
100
AcDbLine
 10
127.539355748721
 20
259.5188968757311
 30
0.0
 11
131.291355748721
 21
253.0188968757311
 31
0.0
  0
LINE
  5
1C53
330
1E
100
AcDbEntity
  8
STEMPEL
100
AcDbLine
 10
120.033355748721
 20
259.5188968757311
 30
0.0
 11
127.539355748721
 21
259.5188968757311
 31
0.0
  0
LINE
  5
1C54
330
1E
100
AcDbEntity
  8
STEMPEL
100
AcDbLine
 10
116.280355748721
 20
253.0188968757311
 30
0.0
 11
120.033355748721
 21
259.5188968757311
 31
0.0
  0
LINE
  5
1C55
330
1E
100
AcDbEntity
  8
STEMPEL
100
AcDbLine
 10
116.566355748721
 20
431.0581553660009
 30
0.0
 11
116.566355748721
 21
430.5581553660009
 31
0.0
  0
LINE
  5
1C56
330
1E
100
AcDbEntity
  8
STEMPEL
100
AcDbLine
 10
131.066355748721
 20
431.0581553660009
 30
0.0
 11
116.566355748721
 21
431.0581553660009
 31
0.0
  0
LINE
  5
1C57
330
1E
100
AcDbEntity
  8
STEMPEL
100
AcDbLine
 10
131.066355748721
 20
430.5581553660009
 30
0.0
 11
131.066355748721
 21
431.0581553660009
 31
0.0
  0
LINE
  5
1C58
330
1E
100
AcDbEntity
  8
STEMPEL
100
AcDbLine
 10
116.566355748721
 20
430.5581553660009
 30
0.0
 11
131.066355748721
 21
430.5581553660009
 31
0.0
  0
LINE
  5
1C59
330
1E
100
AcDbEntity
  8
STEMPEL
100
AcDbLine
 10
291.5343557487209
 20
431.0581553660009
 30
0.0
 11
291.5343557487209
 21
430.5581553660009
 31
0.0
  0
LINE
  5
1C5A
330
1E
100
AcDbEntity
  8
STEMPEL
100
AcDbLine
 10
306.0343557487209
 20
431.0581553660009
 30
0.0
 11
291.5343557487209
 21
431.0581553660009
 31
0.0
  0
LINE
  5
1C5B
330
1E
100
AcDbEntity
  8
STEMPEL
100
AcDbLine
 10
306.0343557487209
 20
430.5581553660009
 30
0.0
 11
306.0343557487209
 21
431.0581553660009
 31
0.0
  0
LINE
  5
1C5C
330
1E
100
AcDbEntity
  8
STEMPEL
100
AcDbLine
 10
291.5343557487209
 20
430.5581553660009
 30
0.0
 11
306.0343557487209
 21
430.5581553660009
 31
0.0
  0
LINE
  5
1C71
330
1E
100
AcDbEntity
  8
HILF
100
AcDbLine
 10
149.4853557487211
 20
385.221155366001
 30
0.0
 11
148.5293557487209
 21
384.0681553660009
 31
0.0
  0
LINE
  5
1C72
330
1E
100
AcDbEntity
  8
HILF
100
AcDbLine
 10
157.4333557487209
 20
389.5271553660009
 30
0.0
 11
149.4853557487211
 21
385.221155366001
 31
0.0
  0
LINE
  5
1C73
330
1E
100
AcDbEntity
  8
HILF
100
AcDbLine
 10
159.946355748721
 20
392.595155366001
 30
0.0
 11
157.4333557487209
 21
389.5271553660009
 31
0.0
  0
LINE
  5
1C74
330
1E
100
AcDbEntity
  8
HILF
100
AcDbLine
 10
156.0673557487209
 20
378.078155366001
 30
0.0
 11
155.268355748721
 21
376.171155366001
 31
0.0
  0
LINE
  5
1C75
330
1E
100
AcDbEntity
  8
HILF
100
AcDbLine
 10
164.881355748721
 20
381.928155366001
 30
0.0
 11
156.0673557487209
 21
378.078155366001
 31
0.0
  0
LINE
  5
1C76
330
1E
100
AcDbEntity
  8
HILF
100
AcDbLine
 10
166.710355748721
 20
384.884155366001
 30
0.0
 11
164.881355748721
 21
381.928155366001
 31
0.0
  0
LINE
  5
1C77
330
1E
100
AcDbEntity
  8
HILF
100
AcDbLine
 10
269.268355748721
 20
480.115155366001
 30
0.0
 11
271.415355748721
 21
480.8831553660009
 31
0.0
  0
LINE
  5
1C78
330
1E
100
AcDbEntity
  8
HILF
100
AcDbLine
 10
266.2023557487209
 20
471.6821553660009
 30
0.0
 11
269.268355748721
 21
480.115155366001
 31
0.0
  0
LINE
  5
1C79
330
1E
100
AcDbEntity
  8
HILF
100
AcDbLine
 10
262.011355748721
 20
469.8321553660009
 30
0.0
 11
266.2023557487209
 21
471.6821553660009
 31
0.0
  0
LINE
  5
1C7A
330
1E
100
AcDbEntity
  8
HILF
100
AcDbLine
 10
264.723355748721
 20
485.2261553660009
 30
0.0
 11
266.6263557487209
 21
486.1291553660008
 31
0.0
  0
LINE
  5
1C7B
330
1E
100
AcDbEntity
  8
HILF
100
AcDbLine
 10
260.939355748721
 20
478.1711553660009
 30
0.0
 11
264.723355748721
 21
485.2261553660009
 31
0.0
  0
LINE
  5
1C7C
330
1E
100
AcDbEntity
  8
HILF
100
AcDbLine
 10
256.394355748721
 20
476.2081553660009
 30
0.0
 11
260.939355748721
 21
478.1711553660009
 31
0.0
  0
LINE
  5
1C7D
330
1E
100
AcDbEntity
  8
STEMPEL
100
AcDbLine
 10
274.9853557487211
 20
424.6151553660009
 30
0.0
 11
289.168355748721
 21
423.2361553660009
 31
0.0
  0
LINE
  5
1C7E
330
1E
100
AcDbEntity
  8
STEMPEL
100
AcDbLine
 10
147.585355748721
 20
424.6151553660009
 30
0.0
 11
133.402355748721
 21
423.2361553660009
 31
0.0
  0
LINE
  5
1C7F
330
1E
100
AcDbEntity
  8
STEMPEL
100
AcDbLine
 10
147.585355748721
 20
437.0021553660009
 30
0.0
 11
133.402355748721
 21
438.3811553660009
 31
0.0
  0
LINE
  5
1C80
330
1E
100
AcDbEntity
  8
STEMPEL
100
AcDbLine
 10
274.9853557487211
 20
437.0021553660009
 30
0.0
 11
289.168355748721
 21
438.3811553660009
 31
0.0
  0
ARC
  5
1C81
330
1E
100
AcDbEntity
  8
STEMPEL
100
AcDbCircle
 10
211.285355748721
 20
430.8081553660009
 30
0.0
 40
78.25
100
AcDbArc
 50
224.2856731390004
 51
270.0
  0
ARC
  5
1C82
330
1E
100
AcDbEntity
  8
STEMPEL
100
AcDbCircle
 10
211.285355748721
 20
430.8081553660009
 30
0.0
 40
78.25
100
AcDbArc
 50
185.5534441960003
 51
216.6787225080003
  0
ARC
  5
1C83
330
1E
100
AcDbEntity
  8
STEMPEL
100
AcDbCircle
 10
211.285355748721
 20
430.8081553660009
 30
0.0
 40
78.25
100
AcDbArc
 50
270.0
 51
354.4465558039997
  0
ARC
  5
1C84
330
1E
100
AcDbEntity
  8
STEMPEL
100
AcDbCircle
 10
211.285355748721
 20
430.8081553660009
 30
0.0
 40
78.25
100
AcDbArc
 50
44.98945077000092
 51
174.4465558039997
  0
ARC
  5
1C85
330
1E
100
AcDbEntity
  8
STEMPEL
100
AcDbCircle
 10
211.285355748721
 20
430.8081553660009
 30
0.0
 40
78.25
100
AcDbArc
 50
5.553444196000326
 51
39.78662310199911
  0
ARC
  5
1C86
330
1E
100
AcDbEntity
  8
STEMPEL
100
AcDbCircle
 10
211.285355748721
 20
430.8081553660009
 30
0.0
 40
64.0
100
AcDbArc
 50
185.5534441960003
 51
216.6618448449999
  0
ARC
  5
1C87
330
1E
100
AcDbEntity
  8
STEMPEL
100
AcDbCircle
 10
211.285355748721
 20
430.8081553660009
 30
0.0
 40
64.0
100
AcDbArc
 50
225.854625146
 51
354.4465558039997
  0
ARC
  5
1C88
330
1E
100
AcDbEntity
  8
STEMPEL
100
AcDbCircle
 10
211.285355748721
 20
430.8081553660009
 30
0.0
 40
64.0
100
AcDbArc
 50
5.553444196000326
 51
37.57091307100131
  0
ARC
  5
1C89
330
1E
100
AcDbEntity
  8
STEMPEL
100
AcDbCircle
 10
211.285355748721
 20
430.8081553660009
 30
0.0
 40
64.0
100
AcDbArc
 50
45.18386166099967
 51
174.4465558039997
  0
ARC
  5
1C8D
330
1E
100
AcDbEntity
  8
STEMPEL
100
AcDbCircle
 10
203.4913557487211
 20
346.2581553660009
 30
0.0
 40
4.2
100
AcDbArc
 50
270.0
 51
308.2132107020003
  0
ARC
  5
1C8E
330
1E
100
AcDbEntity
  8
STEMPEL
100
AcDbCircle
 10
203.4913557487211
 20
346.2581553660009
 30
0.0
 40
4.2
100
AcDbArc
 50
231.7867892979998
 51
270.0
  0
ARC
  5
1C8F
330
1E
100
AcDbEntity
  8
STEMPEL
100
AcDbCircle
 10
211.285355748721
 20
357.5081553660009
 30
0.0
 40
15.45
100
AcDbArc
 50
250.3471403679989
 51
270.0
  0
LINE
  5
1C90
330
1E
100
AcDbEntity
  8
STEMPEL
100
AcDbLine
 10
211.285355748721
 20
342.058155366001
 30
0.0
 11
203.4913557487211
 21
342.058155366001
 31
0.0
  0
LINE
  5
1C91
330
1E
100
AcDbEntity
  8
STEMPEL
100
AcDbLine
 10
200.893355748721
 20
353.2521553660009
 30
0.0
 11
200.893355748721
 21
342.958155366001
 31
0.0
  0
LINE
  5
1C92
330
1E
100
AcDbEntity
  8
STEMPEL
100
AcDbLine
 10
206.089355748721
 20
352.7311553660009
 30
0.0
 11
206.089355748721
 21
342.958155366001
 31
0.0
  0
LINE
  5
1C93
330
1E
100
AcDbEntity
  8
STEMPEL
100
AcDbLine
 10
216.4813557487209
 20
352.7311553660009
 30
0.0
 11
216.4813557487209
 21
342.958155366001
 31
0.0
  0
LINE
  5
1C94
330
1E
100
AcDbEntity
  8
STEMPEL
100
AcDbLine
 10
221.6773557487211
 20
353.2521553660009
 30
0.0
 11
221.6773557487211
 21
342.958155366001
 31
0.0
  0
ARC
  5
1C95
330
1E
100
AcDbEntity
  8
STEMPEL
100
AcDbCircle
 10
219.079355748721
 20
346.2581553660009
 30
0.0
 40
4.2
100
AcDbArc
 50
270.0
 51
308.2132107020003
  0
LINE
  5
1C96
330
1E
100
AcDbEntity
  8
STEMPEL
100
AcDbLine
 10
211.285355748721
 20
342.058155366001
 30
0.0
 11
219.079355748721
 21
342.058155366001
 31
0.0
  0
ARC
  5
1C97
330
1E
100
AcDbEntity
  8
STEMPEL
100
AcDbCircle
 10
211.285355748721
 20
357.5081553660009
 30
0.0
 40
15.45
100
AcDbArc
 50
270.0
 51
289.6528596320011
  0
ARC
  5
1C98
330
1E
100
AcDbEntity
  8
STEMPEL
100
AcDbCircle
 10
219.079355748721
 20
346.2581553660009
 30
0.0
 40
4.2
100
AcDbArc
 50
231.7867892979998
 51
270.0
  0
ARC
  5
1C99
330
1E
100
AcDbEntity
  8
STEMPEL
100
AcDbCircle
 10
288.421355748721
 20
423.3081553660009
 30
0.0
 40
3.0
100
AcDbArc
 50
90.0
 51
174.4465558039997
  0
ARC
  5
1C9A
330
1E
100
AcDbEntity
  8
STEMPEL
100
AcDbCircle
 10
288.421355748721
 20
423.3081553660009
 30
0.0
 40
6.0
100
AcDbArc
 50
90.0
 51
174.4465558039997
  0
ARC
  5
1C9B
330
1E
100
AcDbEntity
  8
STEMPEL
100
AcDbCircle
 10
134.149355748721
 20
423.3081553660009
 30
0.0
 40
3.0
100
AcDbArc
 50
5.553444196000326
 51
90.0
  0
ARC
  5
1C9C
330
1E
100
AcDbEntity
  8
STEMPEL
100
AcDbCircle
 10
211.285355748721
 20
430.8081553660009
 30
0.0
 40
71.5
100
AcDbArc
 50
217.0092419610014
 51
225.1079755719988
  0
ARC
  5
1C9D
330
1E
100
AcDbEntity
  8
STEMPEL
100
AcDbCircle
 10
211.285355748721
 20
430.8081553660009
 30
0.0
 40
74.5
100
AcDbArc
 50
216.6619787640005
 51
224.2011093650005
  0
ARC
  5
1C9E
330
1E
100
AcDbEntity
  8
STEMPEL
100
AcDbCircle
 10
134.149355748721
 20
423.3081553660009
 30
0.0
 40
6.0
100
AcDbArc
 50
5.553444196000326
 51
90.0
  0
ARC
  5
1C9F
330
1E
100
AcDbEntity
  8
STEMPEL
100
AcDbCircle
 10
292.284355748721
 20
424.8081553660009
 30
0.0
 40
1.5
100
AcDbArc
 50
0.0
 51
90.0
  0
LINE
  5
1CA0
330
1E
100
AcDbEntity
  8
STEMPEL
100
AcDbLine
 10
293.7843557487209
 20
424.8081553660009
 30
0.0
 11
293.7843557487209
 21
423.3081553660009
 31
0.0
  0
LINE
  5
1CA1
330
1E
100
AcDbEntity
  8
STEMPEL
100
AcDbLine
 10
288.421355748721
 20
426.3081553660009
 30
0.0
 11
309.7843557487209
 21
426.3081553660009
 31
0.0
  0
LINE
  5
1CA2
330
1E
100
AcDbEntity
  8
STEMPEL
100
AcDbLine
 10
293.7843557487209
 20
423.3081553660009
 30
0.0
 11
303.7843557487209
 21
423.3081553660009
 31
0.0
  0
LINE
  5
1CA3
330
1E
100
AcDbEntity
  8
STEMPEL
100
AcDbLine
 10
303.7843557487209
 20
423.3081553660009
 30
0.0
 11
303.7843557487209
 21
424.8081553660009
 31
0.0
  0
ARC
  5
1CA4
330
1E
100
AcDbEntity
  8
STEMPEL
100
AcDbCircle
 10
305.2843557487209
 20
424.8081553660009
 30
0.0
 40
1.5
100
AcDbArc
 50
90.0
 51
180.0
  0
LINE
  5
1CA5
330
1E
100
AcDbEntity
  8
STEMPEL
100
AcDbLine
 10
309.7843557487209
 20
429.3081553660009
 30
0.0
 11
288.421355748721
 21
429.3081553660009
 31
0.0
  0
LINE
  5
1CA6
330
1E
100
AcDbEntity
  8
STEMPEL
100
AcDbLine
 10
304.4423557487211
 20
429.3081553660009
 30
0.0
 11
304.4423557487211
 21
426.3081553660009
 31
0.0
  0
LINE
  5
1CA7
330
1E
100
AcDbEntity
  8
STEMPEL
100
AcDbLine
 10
309.7843557487209
 20
426.3081553660009
 30
0.0
 11
309.7843557487209
 21
429.3081553660009
 31
0.0
  0
LINE
  5
1CA8
330
1E
100
AcDbEntity
  8
STEMPEL
100
AcDbLine
 10
118.816355748721
 20
424.8081553660009
 30
0.0
 11
118.816355748721
 21
423.3081553660009
 31
0.0
  0
LINE
  5
1CA9
330
1E
100
AcDbEntity
  8
STEMPEL
100
AcDbLine
 10
128.816355748721
 20
423.3081553660009
 30
0.0
 11
128.816355748721
 21
424.8081553660009
 31
0.0
  0
LINE
  5
1CAA
330
1E
100
AcDbEntity
  8
STEMPEL
100
AcDbLine
 10
118.816355748721
 20
423.3081553660009
 30
0.0
 11
128.816355748721
 21
423.3081553660009
 31
0.0
  0
ARC
  5
1CAB
330
1E
100
AcDbEntity
  8
STEMPEL
100
AcDbCircle
 10
117.316355748721
 20
424.8081553660009
 30
0.0
 40
1.5
100
AcDbArc
 50
0.0
 51
90.0
  0
LINE
  5
1CAC
330
1E
100
AcDbEntity
  8
STEMPEL
100
AcDbLine
 10
118.175355748721
 20
429.3081553660009
 30
0.0
 11
118.175355748721
 21
426.3081553660009
 31
0.0
  0
ARC
  5
1CAD
330
1E
100
AcDbEntity
  8
STEMPEL
100
AcDbCircle
 10
130.316355748721
 20
424.8081553660009
 30
0.0
 40
1.5
100
AcDbArc
 50
90.0
 51
180.0
  0
LINE
  5
1CAE
330
1E
100
AcDbEntity
  8
STEMPEL
100
AcDbLine
 10
112.8163557487209
 20
429.3081553660009
 30
0.0
 11
134.149355748721
 21
429.3081553660009
 31
0.0
  0
LINE
  5
1CAF
330
1E
100
AcDbEntity
  8
STEMPEL
100
AcDbLine
 10
112.8163557487209
 20
426.3081553660009
 30
0.0
 11
112.8163557487209
 21
429.3081553660009
 31
0.0
  0
LINE
  5
1CB0
330
1E
100
AcDbEntity
  8
STEMPEL
100
AcDbLine
 10
134.149355748721
 20
426.3081553660009
 30
0.0
 11
112.8163557487209
 21
426.3081553660009
 31
0.0
  0
ARC
  5
1CB1
330
1E
100
AcDbEntity
  8
STEMPEL
100
AcDbCircle
 10
134.149355748721
 20
438.308155366001
 30
0.0
 40
3.0
100
AcDbArc
 50
270.0
 51
354.4465558039997
  0
ARC
  5
1CB2
330
1E
100
AcDbEntity
  8
STEMPEL
100
AcDbCircle
 10
134.149355748721
 20
438.308155366001
 30
0.0
 40
6.0
100
AcDbArc
 50
270.0
 51
354.4465558039997
  0
ARC
  5
1CB3
330
1E
100
AcDbEntity
  8
STEMPEL
100
AcDbCircle
 10
288.421355748721
 20
438.308155366001
 30
0.0
 40
3.0
100
AcDbArc
 50
185.5534441960003
 51
270.0
  0
ARC
  5
1CB4
330
1E
100
AcDbEntity
  8
STEMPEL
100
AcDbCircle
 10
288.421355748721
 20
438.308155366001
 30
0.0
 40
6.0
100
AcDbArc
 50
185.5534441960003
 51
270.0
  0
ARC
  5
1CB5
330
1E
100
AcDbEntity
  8
STEMPEL
100
AcDbCircle
 10
211.285355748721
 20
430.8081553660009
 30
0.0
 40
74.5
100
AcDbArc
 50
39.66851853899994
 51
45.12311374000012
  0
ARC
  5
1CB6
330
1E
100
AcDbEntity
  8
STEMPEL
100
AcDbCircle
 10
211.285355748721
 20
430.8081553660009
 30
0.0
 40
71.5
100
AcDbArc
 50
38.25045131599987
 51
44.40190719500107
  0
LINE
  5
1CB7
330
1E
100
AcDbEntity
  8
STEMPEL
100
AcDbLine
 10
118.175355748721
 20
432.3081553660009
 30
0.0
 11
118.175355748721
 21
435.3081553660009
 31
0.0
  0
LINE
  5
1CB8
330
1E
100
AcDbEntity
  8
STEMPEL
100
AcDbLine
 10
304.4423557487211
 20
432.3081553660009
 30
0.0
 11
304.4423557487211
 21
435.3081553660009
 31
0.0
  0
LINE
  5
1CB9
330
1E
100
AcDbEntity
  8
STEMPEL
100
AcDbLine
 10
309.7843557487209
 20
432.3081553660009
 30
0.0
 11
288.421355748721
 21
432.3081553660009
 31
0.0
  0
LINE
  5
1CBA
330
1E
100
AcDbEntity
  8
STEMPEL
100
AcDbLine
 10
309.7843557487209
 20
435.3081553660009
 30
0.0
 11
309.7843557487209
 21
432.3081553660009
 31
0.0
  0
LINE
  5
1CBB
330
1E
100
AcDbEntity
  8
STEMPEL
100
AcDbLine
 10
288.421355748721
 20
435.3081553660009
 30
0.0
 11
309.7843557487209
 21
435.3081553660009
 31
0.0
  0
LINE
  5
1CBC
330
1E
100
AcDbEntity
  8
STEMPEL
100
AcDbLine
 10
112.8163557487209
 20
435.3081553660009
 30
0.0
 11
134.149355748721
 21
435.3081553660009
 31
0.0
  0
LINE
  5
1CBD
330
1E
100
AcDbEntity
  8
STEMPEL
100
AcDbLine
 10
112.8163557487209
 20
432.3081553660009
 30
0.0
 11
112.8163557487209
 21
435.3081553660009
 31
0.0
  0
LINE
  5
1CBE
330
1E
100
AcDbEntity
  8
STEMPEL
100
AcDbLine
 10
134.149355748721
 20
432.3081553660009
 30
0.0
 11
112.8163557487209
 21
432.3081553660009
 31
0.0
  0
LINE
  5
1CBF
330
1E
100
AcDbEntity
  8
MITTEL
100
AcDbLine
 10
123.816355748721
 20
400.3081553660009
 30
0.0
 11
123.8163557487209
 21
445.6081553660009
 31
0.0
  0
LINE
  5
1CC0
330
1E
100
AcDbEntity
  8
MITTEL
100
AcDbLine
 10
298.7843557487209
 20
400.3081553660009
 30
0.0
 11
298.7843557487209
 21
445.6081553660009
 31
0.0
  0
LINE
  5
1CC1
330
1E
100
AcDbEntity
  8
MITTEL
100
AcDbLine
 10
314.784355748721
 20
430.8081553660009
 30
0.0
 11
107.8163557487209
 21
430.8081553660009
 31
0.0
  0
LINE
  5
1CC2
330
1E
100
AcDbEntity
  8
MITTEL
100
AcDbLine
 10
211.2853557487211
 20
337.058155366001
 30
0.0
 11
211.285355748721
 21
514.0581553660009
 31
0.0
  0
LINE
  5
1CC3
330
1E
100
AcDbEntity
  8
STEMPEL
100
AcDbLine
 10
133.402355748721
 20
240.5188968757311
 30
0.0
 11
133.402355748721
 21
229.2688968757311
 31
0.0
  0
LINE
  5
1CC4
330
1E
100
AcDbEntity
  8
STEMPEL
100
AcDbLine
 10
133.402355748721
 20
276.7688968757311
 30
0.0
 11
133.402355748721
 21
265.5188968757311
 31
0.0
  0
LINE
  5
1CC5
330
1E
100
AcDbEntity
  8
STEMPEL
100
AcDbLine
 10
289.168355748721
 20
240.5188968757311
 30
0.0
 11
289.168355748721
 21
229.2688968757311
 31
0.0
  0
LINE
  5
1CC6
330
1E
100
AcDbEntity
  8
STEMPEL
100
AcDbLine
 10
289.168355748721
 20
276.7688968757311
 30
0.0
 11
289.168355748721
 21
265.5188968757311
 31
0.0
  0
LINE
  5
1CC7
330
1E
100
AcDbEntity
  8
STEMPEL
100
AcDbLine
 10
289.168355748721
 20
276.7688968757311
 30
0.0
 11
133.402355748721
 21
276.7688968757311
 31
0.0
  0
LINE
  5
1CC8
330
1E
100
AcDbEntity
  8
STEMPEL
100
AcDbLine
 10
133.402355748721
 20
229.2688968757311
 30
0.0
 11
289.168355748721
 21
229.2688968757311
 31
0.0
  0
LINE
  5
1CC9
330
1E
100
AcDbEntity
  8
STEMPEL
100
AcDbLine
 10
133.402355748721
 20
240.5188968757311
 30
0.0
 11
289.168355748721
 21
240.5188968757311
 31
0.0
  0
LINE
  5
1CCA
330
1E
100
AcDbEntity
  8
STEMPEL
100
AcDbLine
 10
289.168355748721
 20
265.5188968757311
 30
0.0
 11
133.402355748721
 21
265.5188968757311
 31
0.0
  0
LINE
  5
1CCB
330
1E
100
AcDbEntity
  8
HILF
100
AcDbLine
 10
136.947355748721
 20
265.5188968757311
 30
0.0
 11
136.947355748721
 21
240.5188968757311
 31
0.0
  0
LINE
  5
1CCC
330
1E
100
AcDbEntity
  8
HILF
100
AcDbLine
 10
285.623355748721
 20
265.5188968757311
 30
0.0
 11
285.623355748721
 21
240.5188968757311
 31
0.0
  0
LINE
  5
1CCD
330
1E
100
AcDbEntity
  8
MITTEL
100
AcDbLine
 10
298.7843557487209
 20
241.5188968757311
 30
0.0
 11
298.7843557487208
 21
264.518896875731
 31
0.0
  0
LINE
  5
1CCE
330
1E
100
AcDbEntity
  8
MITTEL
100
AcDbLine
 10
123.786355748721
 20
241.5188968757311
 30
0.0
 11
123.786355748721
 21
264.5188968757312
 31
0.0
  0
LINE
  5
1CCF
330
1E
100
AcDbEntity
  8
MITTEL
100
AcDbLine
 10
211.2853557487211
 20
281.7688968757311
 30
0.0
 11
211.285355748721
 21
224.2688968757311
 31
0.0
  0
LINE
  5
1CD0
330
1E
100
AcDbEntity
  8
MITTEL
100
AcDbLine
 10
314.784355748721
 20
253.0188968757311
 30
0.0
 11
107.7863557487209
 21
253.0188968757312
 31
0.0
  0
ARC
  5
1CD1
330
1E
100
AcDbEntity
  8
STEMPEL
100
AcDbCircle
 10
269.7843557487209
 20
253.0188968757311
 30
0.0
 40
40.0
100
AcDbArc
 50
329.9999999999995
 51
30.00000000000055
  0
ARC
  5
1CD2
330
1E
100
AcDbEntity
  8
STEMPEL
100
AcDbCircle
 10
152.786355748721
 20
253.0188968757311
 30
0.0
 40
40.0
100
AcDbArc
 50
149.9999999999994
 51
210.0000000000005
  0
LINE
  5
1CD3
330
1E
100
AcDbEntity
  8
STEMPEL
100
AcDbLine
 10
133.402355748721
 20
273.0188968757311
 30
0.0
 11
118.145355748721
 21
273.0188968757311
 31
0.0
  0
LINE
  5
1CD4
330
1E
100
AcDbEntity
  8
STEMPEL
100
AcDbLine
 10
304.425355748721
 20
273.0188968757311
 30
0.0
 11
289.168355748721
 21
273.0188968757311
 31
0.0
  0
LINE
  5
1CD5
330
1E
100
AcDbEntity
  8
STEMPEL
100
AcDbLine
 10
289.168355748721
 20
233.0188968757311
 30
0.0
 11
304.425355748721
 21
233.0188968757311
 31
0.0
  0
LINE
  5
1CD6
330
1E
100
AcDbEntity
  8
STEMPEL
100
AcDbLine
 10
118.145355748721
 20
233.0188968757311
 30
0.0
 11
133.402355748721
 21
233.0188968757311
 31
0.0
  0
DIMENSION
  5
1CF0
330
1E
100
AcDbEntity
  8
BEM
100
AcDbDimension
  2
*D1
 10
298.7843557487209
 20
206.5510633935264
 30
0.0
 11
211.285355748721
 21
213.0510633935264
 31
0.0
 70
    32
 71
     5
 42
174.9979999999999
  3
Standard
100
AcDbAlignedDimension
 13
123.786355748721
 23
241.5188968757311
 33
0.0
 14
298.7843557487209
 24
241.5188968757311
 34
0.0
100
AcDbRotatedDimension
1001
ACAD
1000
DSTYLE
1002
{
1070
    40
1040
2.0
1070
    41
1040
3.5
1070
    42
1040
1.0
1070
    43
1040
7.0
1070
    44
1040
1.0
1070
    73
1070
     0
1070
    74
1070
     0
1070
    77
1070
     1
1070
    78
1070
     8
1070
    79
1070
     2
1070
   140
1040
3.5
1070
   141
1040
1.5
1070
   146
1040
0.5142857142857144
1070
   147
1040
1.5
1070
   172
1070
     1
1070
   178
1070
     1
1070
   179
1070
     2
1070
   271
1070
     2
1070
   272
1070
     2
1070
   284
1070
     8
1070
   285
1070
     8
1070
   286
1070
     8
1002
}
  0
DIMENSION
  5
1CFD
330
1E
100
AcDbEntity
  8
BEM
100
AcDbDimension
  2
*D2
 10
309.7843557487209
 20
191.54856353072
 30
0.0
 11
211.285355748721
 21
198.04856353072
 31
0.0
 70
    32
 71
     5
 42
196.9979999999999
  3
Standard
100
AcDbAlignedDimension
 13
112.786355748721
 23
253.0188968757311
 33
0.0
 14
309.7843557487209
 24
253.0188968757311
 34
0.0
100
AcDbRotatedDimension
1001
ACAD
1000
DSTYLE
1002
{
1070
    40
1040
2.0
1070
    41
1040
3.5
1070
    42
1040
1.0
1070
    43
1040
7.0
1070
    44
1040
1.0
1070
    73
1070
     0
1070
    74
1070
     0
1070
    77
1070
     1
1070
    78
1070
     8
1070
    79
1070
     2
1070
   140
1040
3.5
1070
   141
1040
1.5
1070
   146
1040
0.5142857142857144
1070
   147
1040
1.5
1070
   172
1070
     1
1070
   178
1070
     1
1070
   179
1070
     2
1070
   271
1070
     2
1070
   272
1070
     2
1070
   284
1070
     8
1070
   285
1070
     8
1070
   286
1070
     8
1002
}
  0
DIMENSION
  5
1D2F
330
1E
100
AcDbEntity
  8
BEM
100
AcDbDimension
  2
*D3
 10
103.4562600901304
 20
432.3081553660009
 30
0.0
 11
96.95626009013032
 21
451.1748220326676
 31
0.0
 70
    32
 71
     5
 42
3.0
  3
Standard
100
AcDbAlignedDimension
 13
112.8163557487209
 23
429.3081553660009
 33
0.0
 14
112.8163557487209
 24
432.3081553660009
 34
0.0
 50
90.0
100
AcDbRotatedDimension
1001
ACAD
1000
DSTYLE
1002
{
1070
    40
1040
2.0
1070
    41
1040
3.5
1070
    42
1040
1.0
1070
    43
1040
7.0
1070
    44
1040
1.0
1070
    73
1070
     0
1070
    74
1070
     0
1070
    77
1070
     1
1070
    78
1070
     8
1070
    79
1070
     2
1070
   140
1040
3.5
1070
   141
1040
1.5
1070
   146
1040
0.5142857142857144
1070
   147
1040
1.5
1070
   172
1070
     1
1070
   178
1070
     1
1070
   179
1070
     2
1070
   271
1070
     2
1070
   272
1070
     2
1070
   284
1070
     8
1070
   285
1070
     8
1070
   286
1070
     8
1002
}
  0
DIMENSION
  5
1D3E
330
1E
100
AcDbEntity
  8
BEM
100
AcDbDimension
  2
*D4
 10
87.92690684892244
 20
342.058155366001
 30
0.0
 11
81.4269068489224
 21
425.558155366001
 31
0.0
 70
    32
 71
     5
 42
167.0
  3
Standard
100
AcDbAlignedDimension
 13
211.285355748721
 23
509.0581553660009
 33
0.0
 14
203.4913557487211
 24
342.058155366001
 34
0.0
 50
90.0
100
AcDbRotatedDimension
1001
ACAD
1000
DSTYLE
1002
{
1070
    40
1040
2.0
1070
    41
1040
3.5
1070
    42
1040
1.0
1070
    43
1040
7.0
1070
    44
1040
1.0
1070
    73
1070
     0
1070
    74
1070
     0
1070
    77
1070
     1
1070
    78
1070
     8
1070
    79
1070
     2
1070
   140
1040
3.5
1070
   141
1040
1.5
1070
   146
1040
0.5142857142857144
1070
   147
1040
1.5
1070
   172
1070
     1
1070
   178
1070
     1
1070
   179
1070
     2
1070
   271
1070
     2
1070
   272
1070
     2
1070
   284
1070
     8
1070
   285
1070
     8
1070
   286
1070
     8
1002
}
  0
DIMENSION
  5
1D83
330
1E
100
AcDbEntity
  8
BEM
100
AcDbDimension
  2
*D5
 10
264.8330262150254
 20
478.1884994317684
 30
0.0
 11
232.5829234261976
 21
449.6560187099667
 31
0.0
 70
   160
  1
%%c<>
 71
     5
 42
143.0
  3
Standard
100
AcDbAlignedDimension
 13
157.7350217123074
 23
383.4308219185757
 33
0.0
 14
264.8356897851347
 24
478.1854888134262
 34
0.0
 50
41.49999999999951
100
AcDbRotatedDimension
1001
ACAD
1000
DSTYLE
1002
{
1070
    40
1040
2.0
1070
    41
1040
3.5
1070
    42
1040
1.0
1070
    43
1040
7.0
1070
    44
1040
1.0
1070
    73
1070
     0
1070
    74
1070
     0
1070
    77
1070
     1
1070
    78
1070
     8
1070
    79
1070
     2
1070
   140
1040
3.5
1070
   141
1040
1.5
1070
   146
1040
0.5142857142857144
1070
   147
1040
1.5
1070
   172
1070
     1
1070
   178
1070
     1
1070
   179
1070
     2
1070
   271
1070
     2
1070
   272
1070
     2
1070
   284
1070
     8
1070
   285
1070
     8
1070
   286
1070
     8
1002
}
  0
TEXT
  5
1DC3
330
1E
100
AcDbEntity
  8
TEXT
 62
     1
100
AcDbText
 10
227.8365522679116
 20
115.6405708316599
 30
0.0
 40
7.0
  1
Werkstoff: St37 Dickschichtpassiviert
 41
0.8
  7
GREEKS
100
AcDbText
  0
DIMENSION
  5
1DCD
330
1E
100
AcDbEntity
  8
BEM
100
AcDbDimension
  2
*D6
 10
98.26478666419326
 20
273.0188968757311
 30
0.0
 11
91.7647866641932
 21
253.018896875731
 31
0.0
 70
    32
 71
     5
 42
40.00000000000028
  3
Standard
100
AcDbAlignedDimension
 13
118.1453395973436
 23
233.0188968757308
 33
0.0
 14
118.145355748721
 24
273.0188968757311
 34
0.0
 50
90.0
100
AcDbRotatedDimension
1001
ACAD
1000
DSTYLE
1002
{
1070
    40
1040
2.0
1070
    41
1040
3.5
1070
    42
1040
1.0
1070
    43
1040
7.0
1070
    44
1040
1.0
1070
    73
1070
     0
1070
    74
1070
     0
1070
    77
1070
     1
1070
    78
1070
     8
1070
    79
1070
     2
1070
   140
1040
3.5
1070
   141
1040
1.5
1070
   146
1040
0.5142857142857144
1070
   147
1040
1.5
1070
   172
1070
     1
1070
   178
1070
     1
1070
   179
1070
     2
1070
   271
1070
     2
1070
   272
1070
     2
1070
   284
1070
     8
1070
   285
1070
     8
1070
   286
1070
     8
1002
}
  0
ENDSEC
  0
SECTION
  2
OBJECTS
  0
DICTIONARY
  5
C
330
0
100
AcDbDictionary
281
     1
  3
ACAD_COLOR
350
DF
  3
ACAD_GROUP
350
D
  3
ACAD_LAYOUT
350
19
  3
ACAD_MATERIAL
350
DE
  3
ACAD_MLINESTYLE
350
16
  3
ACAD_PLOTSETTINGS
350
18
  3
ACAD_PLOTSTYLENAME
350
E
  3
AcDbVariableDictionary
350
EA
  0
DICTIONARY
  5
A0
330
1E
100
AcDbDictionary
280
     1
281
     1
  3
ACAD_LAYOUTSELFREF
360
D4
  0
DICTIONARY
  5
A2
330
1A
100
AcDbDictionary
280
     1
281
     1
  3
ACAD_LAYOUTSELFREF
360
D3
  0
DICTIONARY
  5
DF
102
{ACAD_REACTORS
330
C
102
}
330
C
100
AcDbDictionary
281
     1
  0
DICTIONARY
  5
D
102
{ACAD_REACTORS
330
C
102
}
330
C
100
AcDbDictionary
281
     1
  0
DICTIONARY
  5
19
102
{ACAD_REACTORS
330
C
102
}
330
C
100
AcDbDictionary
281
     1
  3
Layout1
350
1D
  3
Model
350
21
  0
DICTIONARY
  5
DE
102
{ACAD_REACTORS
330
C
102
}
330
C
100
AcDbDictionary
281
     1
  0
DICTIONARY
  5
16
102
{ACAD_REACTORS
330
C
102
}
330
C
100
AcDbDictionary
281
     1
  3
Standard
350
17
  0
DICTIONARY
  5
18
102
{ACAD_REACTORS
330
C
102
}
330
C
100
AcDbDictionary
281
     1
  0
ACDBDICTIONARYWDFLT
  5
E
102
{ACAD_REACTORS
330
C
102
}
330
C
100
AcDbDictionary
281
     1
  3
Normal
350
F
100
AcDbDictionaryWithDefault
340
F
  0
DICTIONARY
  5
EA
102
{ACAD_REACTORS
330
C
102
}
330
C
100
AcDbDictionary
281
     1
  3
DIMASSOC
350
EB
  3
PROJECTNAME
350
EC
  0
XRECORD
  5
D4
102
{ACAD_REACTORS
330
A0
102
}
330
A0
100
AcDbXrecord
280
     1
340
1E
  0
XRECORD
  5
D3
102
{ACAD_REACTORS
330
A2
102
}
330
A2
100
AcDbXrecord
280
     1
340
1A
  0
LAYOUT
  5
1D
102
{ACAD_REACTORS
330
19
102
}
330
19
100
AcDbPlotSettings
  1

  2
\\NT_WORK01\HP LaserJet 5000 PCL 6
  4

  6

 40
0.0
 41
0.0
 42
0.0
 43
0.0
 44
0.0
 45
0.0
 46
0.0
 47
0.0
 48
0.0
 49
0.0
140
0.0
141
0.0
142
1.0
143
1.0
 70
   688
 72
     0
 73
     0
 74
     5
  7

 75
    16
147
1.0
 76
     0
 77
     2
 78
   300
148
0.0
149
0.0
100
AcDbLayout
  1
Layout1
 70
     0
 71
     1
 10
0.0
 20
0.0
 11
12.0
 21
9.0
 12
0.0
 22
0.0
 32
0.0
 14
1.000000000000000E+20
 24
1.000000000000000E+20
 34
1.000000000000000E+20
 15
-1.000000000000000E+20
 25
-1.000000000000000E+20
 35
-1.000000000000000E+20
146
0.0
 13
0.0
 23
0.0
 33
0.0
 16
1.0
 26
0.0
 36
0.0
 17
0.0
 27
1.0
 37
0.0
 76
     0
330
1A
  0
LAYOUT
  5
21
102
{ACAD_REACTORS
330
19
102
}
330
19
100
AcDbPlotSettings
  1

  2
none_device
  4
Letter_(8.50_x_11.00_Inches)
  6

 40
6.349999904632568
 41
6.349999904632568
 42
6.350006103515625
 43
6.350006103515625
 44
215.8999938964844
 45
279.3999938964844
 46
0.0
 47
0.0
 48
0.0
 49
0.0
140
0.0
141
0.0
142
1.0
143
1.0
 70
 11952
 72
     0
 73
     1
 74
     0
  7

 75
     0
147
1.0
 76
     0
 77
     2
 78
   300
148
-230.4417396561563
149
47.00486644638983
100
AcDbLayout
  1
Model
 70
     1
 71
     0
 10
0.0
 20
0.0
 11
12.0
 21
9.0
 12
0.0
 22
0.0
 32
0.0
 14
0.0
 24
0.0
 34
0.0
 15
0.0
 25
0.0
 35
0.0
146
0.0
 13
0.0
 23
0.0
 33
0.0
 16
1.0
 26
0.0
 36
0.0
 17
0.0
 27
1.0
 37
0.0
 76
     0
330
1E
  0
MLINESTYLE
  5
17
102
{ACAD_REACTORS
330
16
102
}
330
16
100
AcDbMlineStyle
  2
STANDARD
 70
     0
  3

 62
   256
 51
90.0
 52
90.0
 71
     2
 49
0.5
 62
   256
  6
BYLAYER
 49
-0.5
 62
   256
  6
BYLAYER
  0
ACDBPLACEHOLDER
  5
F
102
{ACAD_REACTORS
330
E
102
}
330
E
  0
DICTIONARYVAR
  5
EB
102
{ACAD_REACTORS
330
EA
102
}
330
EA
100
DictionaryVariables
280
     0
  1
1
  0
DICTIONARYVAR
  5
EC
102
{ACAD_REACTORS
330
EA
102
}
330
EA
100
DictionaryVariables
280
     0
  1

  0
ENDSEC
  0
EOF
