  0
SECTION
  2
HEADER
  9
$ACADVER
  1
AC1018
  9
$ACADMAINTVER
 70
     2
  9
$DWGCODEPAGE
  3
ANSI_1252
  9
$INSBASE
 10
0.0
 20
0.0
 30
0.0
  9
$EXTMIN
 10
-0.0160161050886245
 20
-0.0226513486255726
 30
-0.0000000000000053
  9
$EXTMAX
 10
210.0000024450054
 20
297.000003457936
 30
0.0000000000000099
  9
$LIMMIN
 10
0.0
 20
0.0
  9
$LIMMAX
 10
210.0
 20
297.0
  9
$ORTHOMODE
 70
     0
  9
$REGENMODE
 70
     1
  9
$FILLMODE
 70
     1
  9
$QTEXTMODE
 70
     0
  9
$MIRRTEXT
 70
     1
  9
$LTSCALE
 40
10.0
  9
$ATTMODE
 70
     1
  9
$TEXTSIZE
 40
3.5
  9
$TRACEWID
 40
0.5
  9
$TEXTSTYLE
  7
STANDARD
  9
$CLAYER
  8
BEM
  9
$CELTYPE
  6
ByLayer
  9
$CECOLOR
 62
   256
  9
$CELTSCALE
 40
1.0
  9
$DISPSILH
 70
     0
  9
$DIMSCALE
 40
1.0
  9
$DIMASZ
 40
3.5
  9
$DIMEXO
 40
1.0
  9
$DIMDLI
 40
7.0
  9
$DIMRND
 40
0.0
  9
$DIMDLE
 40
0.0
  9
$DIMEXE
 40
1.0
  9
$DIMTP
 40
0.6
  9
$DIMTM
 40
0.6
  9
$DIMTXT
 40
3.5
  9
$DIMCEN
 40
1.5
  9
$DIMTSZ
 40
0.0
  9
$DIMTOL
 70
     0
  9
$DIMLIM
 70
     0
  9
$DIMTIH
 70
     0
  9
$DIMTOH
 70
     0
  9
$DIMSE1
 70
     0
  9
$DIMSE2
 70
     0
  9
$DIMTAD
 70
     1
  9
$DIMZIN
 70
     8
  9
$DIMBLK
  1

  9
$DIMASO
 70
     1
  9
$DIMSHO
 70
     0
  9
$DIMPOST
  1

  9
$DIMAPOST
  1

  9
$DIMALT
 70
     0
  9
$DIMALTD
 70
     2
  9
$DIMALTF
 40
25.4
  9
$DIMLFAC
 40
1.0
  9
$DIMTOFL
 70
     1
  9
$DIMTVP
 40
0.0
  9
$DIMTIX
 70
     0
  9
$DIMSOXD
 70
     0
  9
$DIMSAH
 70
     0
  9
$DIMBLK1
  1

  9
$DIMBLK2
  1

  9
$DIMSTYLE
  2
Standard
  9
$DIMCLRD
 70
     0
  9
$DIMCLRE
 70
     0
  9
$DIMCLRT
 70
     1
  9
$DIMTFAC
 40
0.5142857142857144
  9
$DIMGAP
 40
1.5
  9
$DIMJUST
 70
     0
  9
$DIMSD1
 70
     0
  9
$DIMSD2
 70
     0
  9
$DIMTOLJ
 70
     1
  9
$DIMTZIN
 70
     8
  9
$DIMALTZ
 70
     8
  9
$DIMALTTZ
 70
     8
  9
$DIMUPT
 70
     0
  9
$DIMDEC
 70
     2
  9
$DIMTDEC
 70
     2
  9
$DIMALTU
 70
     2
  9
$DIMALTTD
 70
     2
  9
$DIMTXSTY
  7
STANDARD
  9
$DIMAUNIT
 70
     0
  9
$DIMADEC
 70
     2
  9
$DIMALTRND
 40
0.0
  9
$DIMAZIN
 70
     2
  9
$DIMDSEP
 70
    46
  9
$DIMATFIT
 70
     3
  9
$DIMFRAC
 70
     0
  9
$DIMLDRBLK
  1

  9
$DIMLUNIT
 70
     2
  9
$DIMLWD
 70
    -2
  9
$DIMLWE
 70
    -2
  9
$DIMTMOVE
 70
     0
  9
$LUNITS
 70
     2
  9
$LUPREC
 70
     2
  9
$SKETCHINC
 40
1.0
  9
$FILLETRAD
 40
0.0
  9
$AUNITS
 70
     0
  9
$AUPREC
 70
     0
  9
$MENU
  1
ACAD
  9
$ELEVATION
 40
0.0
  9
$PELEVATION
 40
0.0
  9
$THICKNESS
 40
0.0
  9
$LIMCHECK
 70
     0
  9
$CHAMFERA
 40
0.0
  9
$CHAMFERB
 40
0.0
  9
$CHAMFERC
 40
0.0
  9
$CHAMFERD
 40
0.0
  9
$SKPOLY
 70
     0
  9
$TDCREATE
 40
2451729.335056250
  9
$TDUCREATE
 40
2451729.251722917
  9
$TDUPDATE
 40
2455450.563574931
  9
$TDUUPDATE
 40
2455450.480241597
  9
$TDINDWG
 40
0.1030411690
  9
$TDUSRTIMER
 40
0.1030411690
  9
$USRTIMER
 70
     1
  9
$ANGBASE
 50
0.0
  9
$ANGDIR
 70
     0
  9
$PDMODE
 70
     0
  9
$PDSIZE
 40
0.0
  9
$PLINEWID
 40
0.0
  9
$SPLFRAME
 70
     0
  9
$SPLINETYPE
 70
     6
  9
$SPLINESEGS
 70
     8
  9
$HANDSEED
  5
E93
  9
$SURFTAB1
 70
     6
  9
$SURFTAB2
 70
     6
  9
$SURFTYPE
 70
     6
  9
$SURFU
 70
     6
  9
$SURFV
 70
     6
  9
$UCSBASE
  2

  9
$UCSNAME
  2

  9
$UCSORG
 10
0.0
 20
0.0
 30
0.0
  9
$UCSXDIR
 10
1.0
 20
0.0
 30
0.0
  9
$UCSYDIR
 10
0.0
 20
1.0
 30
0.0
  9
$UCSORTHOREF
  2

  9
$UCSORTHOVIEW
 70
     0
  9
$UCSORGTOP
 10
0.0
 20
0.0
 30
0.0
  9
$UCSORGBOTTOM
 10
0.0
 20
0.0
 30
0.0
  9
$UCSORGLEFT
 10
0.0
 20
0.0
 30
0.0
  9
$UCSORGRIGHT
 10
0.0
 20
0.0
 30
0.0
  9
$UCSORGFRONT
 10
0.0
 20
0.0
 30
0.0
  9
$UCSORGBACK
 10
0.0
 20
0.0
 30
0.0
  9
$PUCSBASE
  2

  9
$PUCSNAME
  2

  9
$PUCSORG
 10
0.0
 20
0.0
 30
0.0
  9
$PUCSXDIR
 10
1.0
 20
0.0
 30
0.0
  9
$PUCSYDIR
 10
0.0
 20
1.0
 30
0.0
  9
$PUCSORTHOREF
  2

  9
$PUCSORTHOVIEW
 70
     0
  9
$PUCSORGTOP
 10
0.0
 20
0.0
 30
0.0
  9
$PUCSORGBOTTOM
 10
0.0
 20
0.0
 30
0.0
  9
$PUCSORGLEFT
 10
0.0
 20
0.0
 30
0.0
  9
$PUCSORGRIGHT
 10
0.0
 20
0.0
 30
0.0
  9
$PUCSORGFRONT
 10
0.0
 20
0.0
 30
0.0
  9
$PUCSORGBACK
 10
0.0
 20
0.0
 30
0.0
  9
$USERI1
 70
     0
  9
$USERI2
 70
     0
  9
$USERI3
 70
     0
  9
$USERI4
 70
     0
  9
$USERI5
 70
     0
  9
$USERR1
 40
0.0
  9
$USERR2
 40
0.0
  9
$USERR3
 40
0.0
  9
$USERR4
 40
0.0
  9
$USERR5
 40
0.0
  9
$WORLDVIEW
 70
     1
  9
$SHADEDGE
 70
     3
  9
$SHADEDIF
 70
    70
  9
$TILEMODE
 70
     1
  9
$MAXACTVP
 70
    16
  9
$PINSBASE
 10
94.77699787264981
 20
50.00000000000001
 30
160.541677480246
  9
$PLIMCHECK
 70
     0
  9
$PEXTMIN
 10
1.000000000000000E+20
 20
1.000000000000000E+20
 30
1.000000000000000E+20
  9
$PEXTMAX
 10
-1.000000000000000E+20
 20
-1.000000000000000E+20
 30
-1.000000000000000E+20
  9
$PLIMMIN
 10
0.0
 20
0.0
  9
$PLIMMAX
 10
12.0
 20
9.0
  9
$UNITMODE
 70
     0
  9
$VISRETAIN
 70
     0
  9
$PLINEGEN
 70
     0
  9
$PSLTSCALE
 70
     0
  9
$TREEDEPTH
 70
  3020
  9
$CMLSTYLE
  2
Standard
  9
$CMLJUST
 70
     0
  9
$CMLSCALE
 40
1.0
  9
$PROXYGRAPHICS
 70
     1
  9
$MEASUREMENT
 70
     0
  9
$CELWEIGHT
370
    -1
  9
$ENDCAPS
280
     0
  9
$JOINSTYLE
280
     0
  9
$LWDISPLAY
290
     0
  9
$INSUNITS
 70
     0
  9
$HYPERLINKBASE
  1

  9
$STYLESHEET
  1
monochrome 1.ctb
  9
$XEDIT
290
     1
  9
$CEPSNTYPE
380
     0
  9
$PSTYLEMODE
290
     1
  9
$FINGERPRINTGUID
  2
{5FB5DE59-4758-4550-9D6E-98D0683C8784}
  9
$VERSIONGUID
  2
{FF2025B4-7C2E-411A-ABA7-EFB7CFEB525E}
  9
$EXTNAMES
290
     1
  9
$PSVPSCALE
 40
0.0
  9
$OLESTARTUP
290
     0
  9
$SORTENTS
280
   127
  9
$INDEXCTL
280
     0
  9
$HIDETEXT
280
     1
  9
$XCLIPFRAME
290
     0
  9
$HALOGAP
280
     0
  9
$OBSCOLOR
 70
   257
  9
$OBSLTYPE
280
     0
  9
$INTERSECTIONDISPLAY
280
     0
  9
$INTERSECTIONCOLOR
 70
   257
  9
$DIMASSOC
280
     2
  9
$PROJECTNAME
  1

  0
ENDSEC
  0
SECTION
  2
CLASSES
  0
CLASS
  1
ACDBDICTIONARYWDFLT
  2
AcDbDictionaryWithDefault
  3
ObjectDBX Classes
 90
        0
 91
        1
280
     0
281
     0
  0
CLASS
  1
DICTIONARYVAR
  2
AcDbDictionaryVar
  3
ObjectDBX Classes
 90
        0
 91
        3
280
     0
281
     0
  0
CLASS
  1
DIMASSOC
  2
AcDbDimAssoc
  3
"AcDbDimAssoc|Product Desc:     AcDim ARX App For Dimension|Company:          Autodesk, Inc.|WEB Address:      www.autodesk.com"
 90
        0
 91
        5
280
     0
281
     0
  0
ENDSEC
  0
SECTION
  2
TABLES
  0
TABLE
  2
VPORT
  5
8
330
0
100
AcDbSymbolTable
 70
     2
  0
VPORT
  5
E92
330
8
100
AcDbSymbolTableRecord
100
AcDbViewportTableRecord
  2
*Active
 70
     0
 10
0.0
 20
0.0
 11
1.0
 21
1.0
 12
104.9919931699583
 22
148.4886760546552
 13
0.0
 23
0.0
 14
1.0
 24
1.0
 15
10.0
 25
10.0
 16
0.0
 26
0.0
 36
1.0
 17
0.0
 27
0.0
 37
0.0
 40
299.4212226784854
 41
1.336927223719676
 42
50.0
 43
0.0
 44
0.0
 50
0.0
 51
0.0
 71
     0
 72
  1500
 73
     1
 74
     0
 75
     0
 76
     0
 77
     0
 78
     0
281
     0
 65
     1
110
0.0
120
0.0
130
0.0
111
1.0
121
0.0
131
0.0
112
0.0
122
1.0
132
0.0
 79
     0
146
0.0
  0
ENDTAB
  0
TABLE
  2
LTYPE
  5
5
330
0
100
AcDbSymbolTable
 70
     2
  0
LTYPE
  5
13
330
5
100
AcDbSymbolTableRecord
100
AcDbLinetypeTableRecord
  2
ByBlock
 70
     0
  3

 72
    65
 73
     0
 40
0.0
  0
LTYPE
  5
14
330
5
100
AcDbSymbolTableRecord
100
AcDbLinetypeTableRecord
  2
ByLayer
 70
     0
  3

 72
    65
 73
     0
 40
0.0
  0
LTYPE
  5
15
330
5
100
AcDbSymbolTableRecord
100
AcDbLinetypeTableRecord
  2
Continuous
 70
     0
  3
Solid line
 72
    65
 73
     0
 40
0.0
  0
LTYPE
  5
38
330
5
100
AcDbSymbolTableRecord
100
AcDbLinetypeTableRecord
  2
STRICHPUNKT
 70
     0
  3
__ . __ . __ . __ . __ . __ . __ . __ . __ . __
 72
    65
 73
     4
 40
1.0
 49
0.5
 74
     0
 49
-0.25
 74
     0
 49
0.0
 74
     0
 49
-0.25
 74
     0
  0
ENDTAB
  0
TABLE
  2
LAYER
  5
2
330
0
100
AcDbSymbolTable
 70
     9
  0
LAYER
  5
10
330
2
100
AcDbSymbolTableRecord
100
AcDbLayerTableRecord
  2
0
 70
     0
 62
     7
  6
Continuous
370
    -3
390
F
  0
LAYER
  5
3B
330
2
100
AcDbSymbolTableRecord
100
AcDbLayerTableRecord
  2
VOLL
 70
     0
 62
     1
  6
Continuous
370
    -3
390
F
  0
LAYER
  5
3C
330
2
100
AcDbSymbolTableRecord
100
AcDbLayerTableRecord
  2
HILF
 70
     0
 62
     2
  6
Continuous
370
    -3
390
F
  0
LAYER
  5
3D
330
2
100
AcDbSymbolTableRecord
100
AcDbLayerTableRecord
  2
MITTEL
 70
     0
 62
     2
  6
STRICHPUNKT
370
    -3
390
F
  0
LAYER
  5
3E
330
2
100
AcDbSymbolTableRecord
100
AcDbLayerTableRecord
  2
BEM
 70
     0
 62
     7
  6
Continuous
370
    -3
390
F
  0
LAYER
  5
3F
330
2
100
AcDbSymbolTableRecord
100
AcDbLayerTableRecord
  2
SCHRAFF
 70
     0
 62
     7
  6
Continuous
370
    -3
390
F
  0
LAYER
  5
40
330
2
100
AcDbSymbolTableRecord
100
AcDbLayerTableRecord
  2
STEMPEL
 70
     0
 62
     3
  6
Continuous
370
    -3
390
F
  0
LAYER
  5
41
330
2
100
AcDbSymbolTableRecord
100
AcDbLayerTableRecord
  2
DEFPOINTS
 70
     0
 62
     7
  6
Continuous
290
     0
370
    -3
390
F
  0
LAYER
  5
42
330
2
100
AcDbSymbolTableRecord
100
AcDbLayerTableRecord
  2
TEXT
 70
     0
 62
     7
  6
Continuous
370
    -3
390
F
  0
ENDTAB
  0
TABLE
  2
STYLE
  5
3
330
0
100
AcDbSymbolTable
 70
     2
  0
STYLE
  5
11
330
3
100
AcDbSymbolTableRecord
100
AcDbTextStyleTableRecord
  2
STANDARD
 70
     0
 40
0.0
 41
0.8
 50
0.0
 71
     0
 42
3.5
  3
simplex.shx
  4

  0
STYLE
  5
37
330
3
100
AcDbSymbolTableRecord
100
AcDbTextStyleTableRecord
  2
GREEKS
 70
     0
 40
0.0
 41
0.8
 50
0.0
 71
     0
 42
3.5
  3
SIMPLEX.shx
  4

  0
ENDTAB
  0
TABLE
  2
VIEW
  5
6
330
0
100
AcDbSymbolTable
 70
     0
  0
ENDTAB
  0
TABLE
  2
UCS
  5
7
330
0
100
AcDbSymbolTable
 70
     0
  0
ENDTAB
  0
TABLE
  2
APPID
  5
9
330
0
100
AcDbSymbolTable
 70
     1
  0
APPID
  5
12
330
9
100
AcDbSymbolTableRecord
100
AcDbRegAppTableRecord
  2
ACAD
 70
     0
  0
ENDTAB
  0
TABLE
  2
DIMSTYLE
  5
A
330
0
100
AcDbSymbolTable
 70
     1
100
AcDbDimStyleTable
 71
     1
340
20F
  0
DIMSTYLE
105
20F
102
{ACAD_REACTORS
330
DF4
330
E0C
330
E24
330
E57
330
E6F
102
}
330
A
100
AcDbSymbolTableRecord
100
AcDbDimStyleTableRecord
  2
Standard
 70
     0
340
11
  0
ENDTAB
  0
TABLE
  2
BLOCK_RECORD
  5
1
330
0
100
AcDbSymbolTable
 70
     5
  0
BLOCK_RECORD
  5
20
330
1
100
AcDbSymbolTableRecord
100
AcDbBlockTableRecord
  2
*Model_Space
340
23
  0
BLOCK_RECORD
  5
1C
330
1
100
AcDbSymbolTableRecord
100
AcDbBlockTableRecord
  2
*Paper_Space
340
1F
  0
BLOCK_RECORD
  5
DF5
330
1
100
AcDbSymbolTableRecord
100
AcDbBlockTableRecord
  2
*D0
340
0
  0
BLOCK_RECORD
  5
E0D
330
1
100
AcDbSymbolTableRecord
100
AcDbBlockTableRecord
  2
*D1
340
0
  0
BLOCK_RECORD
  5
E25
330
1
100
AcDbSymbolTableRecord
100
AcDbBlockTableRecord
  2
*D2
340
0
  0
BLOCK_RECORD
  5
E58
330
1
100
AcDbSymbolTableRecord
100
AcDbBlockTableRecord
  2
*D3
340
0
  0
BLOCK_RECORD
  5
E70
330
1
100
AcDbSymbolTableRecord
100
AcDbBlockTableRecord
  2
*D4
340
0
  0
ENDTAB
  0
ENDSEC
  0
SECTION
  2
BLOCKS
  0
BLOCK
  5
46
330
20
100
AcDbEntity
  8
0
100
AcDbBlockBegin
  2
*Model_Space
 70
     0
 10
0.0
 20
0.0
 30
0.0
  3
*Model_Space
  1

  0
ENDBLK
  5
47
330
20
100
AcDbEntity
  8
0
100
AcDbBlockEnd
  0
BLOCK
  5
44
330
1C
100
AcDbEntity
 67
     1
  8
0
100
AcDbBlockBegin
  2
*Paper_Space
 70
     0
 10
0.0
 20
0.0
 30
0.0
  3
*Paper_Space
  1

  0
ENDBLK
  5
45
330
1C
100
AcDbEntity
 67
     1
  8
0
100
AcDbBlockEnd
  0
BLOCK
  5
DFF
330
DF5
100
AcDbEntity
  8
0
100
AcDbBlockBegin
  2
*D0
 70
     1
 10
0.0
 20
0.0
 30
0.0
  3
*D0
  1

  0
LINE
  5
E45
330
DF5
100
AcDbEntity
  8
BEM
 62
     0
370
    -2
100
AcDbLine
 10
58.66683284844464
 20
158.3103584053889
 30
0.0
 11
58.66683284844464
 21
171.1489113205251
 31
0.0
  0
LINE
  5
E46
330
DF5
100
AcDbEntity
  8
BEM
 62
     0
370
    -2
100
AcDbLine
 10
169.1668328484446
 20
158.3103584053889
 30
0.0
 11
169.1668328484446
 21
171.1489113205251
 31
0.0
  0
LINE
  5
E47
330
DF5
100
AcDbEntity
  8
BEM
 62
     0
370
    -2
100
AcDbLine
 10
62.16683284844464
 20
170.1489113205251
 30
0.0
 11
165.6668328484446
 21
170.1489113205251
 31
0.0
  0
SOLID
  5
E48
330
DF5
100
AcDbEntity
  8
BEM
 62
     0
100
AcDbTrace
 10
62.16683284844464
 20
170.7322446538585
 30
0.0
 11
62.16683284844464
 21
169.5655779871918
 31
0.0
 12
58.66683284844464
 22
170.1489113205251
 32
0.0
 13
58.66683284844464
 23
170.1489113205251
 33
0.0
  0
SOLID
  5
E49
330
DF5
100
AcDbEntity
  8
BEM
 62
     0
100
AcDbTrace
 10
165.6668328484446
 20
170.7322446538585
 30
0.0
 11
165.6668328484446
 21
169.5655779871918
 31
0.0
 12
169.1668328484446
 22
170.1489113205251
 32
0.0
 13
169.1668328484446
 23
170.1489113205251
 33
0.0
  0
MTEXT
  5
E4A
330
DF5
100
AcDbEntity
  8
BEM
 62
     1
100
AcDbMText
 10
113.9168328484446
 20
173.3989113205251
 30
0.0
 40
3.5
 41
0.0
 71
     5
 72
     1
  1
\A1;%%c110.5
 73
     1
 44
1.0
  0
POINT
  5
E4B
330
DF5
100
AcDbEntity
  8
DEFPOINTS
 62
     0
100
AcDbPoint
 10
58.66683284844464
 20
157.3103584053889
 30
0.0
  0
POINT
  5
E4C
330
DF5
100
AcDbEntity
  8
DEFPOINTS
 62
     0
100
AcDbPoint
 10
169.1668328484446
 20
157.3103584053889
 30
0.0
  0
POINT
  5
E4D
330
DF5
100
AcDbEntity
  8
DEFPOINTS
 62
     0
100
AcDbPoint
 10
169.1668328484446
 20
170.1489113205251
 30
0.0
  0
ENDBLK
  5
E00
330
DF5
100
AcDbEntity
  8
0
100
AcDbBlockEnd
  0
BLOCK
  5
E17
330
E0D
100
AcDbEntity
  8
0
100
AcDbBlockBegin
  2
*D1
 70
     1
 10
0.0
 20
0.0
 30
0.0
  3
*D1
  1

  0
LINE
  5
E3C
330
E0D
100
AcDbEntity
  8
BEM
 62
     0
370
    -2
100
AcDbLine
 10
51.66683284844464
 20
158.3103584053889
 30
0.0
 11
51.66683284844464
 21
178.7419903318536
 31
0.0
  0
LINE
  5
E3D
330
E0D
100
AcDbEntity
  8
BEM
 62
     0
370
    -2
100
AcDbLine
 10
176.1668328484446
 20
158.3103584053889
 30
0.0
 11
176.1668328484446
 21
178.7419903318536
 31
0.0
  0
LINE
  5
E3E
330
E0D
100
AcDbEntity
  8
BEM
 62
     0
370
    -2
100
AcDbLine
 10
55.16683284844464
 20
177.7419903318536
 30
0.0
 11
172.6668328484446
 21
177.7419903318536
 31
0.0
  0
SOLID
  5
E3F
330
E0D
100
AcDbEntity
  8
BEM
 62
     0
100
AcDbTrace
 10
55.16683284844464
 20
178.3253236651869
 30
0.0
 11
55.16683284844464
 21
177.1586569985202
 31
0.0
 12
51.66683284844464
 22
177.7419903318536
 32
0.0
 13
51.66683284844464
 23
177.7419903318536
 33
0.0
  0
SOLID
  5
E40
330
E0D
100
AcDbEntity
  8
BEM
 62
     0
100
AcDbTrace
 10
172.6668328484446
 20
178.3253236651869
 30
0.0
 11
172.6668328484446
 21
177.1586569985202
 31
0.0
 12
176.1668328484446
 22
177.7419903318536
 32
0.0
 13
176.1668328484446
 23
177.7419903318536
 33
0.0
  0
MTEXT
  5
E41
330
E0D
100
AcDbEntity
  8
BEM
 62
     1
100
AcDbMText
 10
113.9168328484446
 20
180.9919903318536
 30
0.0
 40
3.5
 41
0.0
 71
     5
 72
     1
  1
\A1;%%c124.5
 73
     1
 44
1.0
  0
POINT
  5
E42
330
E0D
100
AcDbEntity
  8
DEFPOINTS
 62
     0
100
AcDbPoint
 10
51.66683284844464
 20
157.3103584053889
 30
0.0
  0
POINT
  5
E43
330
E0D
100
AcDbEntity
  8
DEFPOINTS
 62
     0
100
AcDbPoint
 10
176.1668328484446
 20
157.3103584053889
 30
0.0
  0
POINT
  5
E44
330
E0D
100
AcDbEntity
  8
DEFPOINTS
 62
     0
100
AcDbPoint
 10
176.1668328484446
 20
177.7419903318536
 30
0.0
  0
ENDBLK
  5
E18
330
E0D
100
AcDbEntity
  8
0
100
AcDbBlockEnd
  0
BLOCK
  5
E2F
330
E25
100
AcDbEntity
  8
0
100
AcDbBlockBegin
  2
*D2
 70
     1
 10
0.0
 20
0.0
 30
0.0
  3
*D2
  1

  0
LINE
  5
E4E
330
E25
100
AcDbEntity
  8
BEM
 62
     0
370
    -2
100
AcDbLine
 10
52.16683284844464
 20
147.1103584053889
 30
0.0
 11
52.16683284844464
 21
126.4984256129812
 31
0.0
  0
LINE
  5
E4F
330
E25
100
AcDbEntity
  8
BEM
 62
     0
370
    -2
100
AcDbLine
 10
175.6668328484446
 20
147.1103584053889
 30
0.0
 11
175.6668328484446
 21
126.4984256129812
 31
0.0
  0
LINE
  5
E50
330
E25
100
AcDbEntity
  8
BEM
 62
     0
370
    -2
100
AcDbLine
 10
55.66683284844464
 20
127.4984256129812
 30
0.0
 11
172.1668328484446
 21
127.4984256129812
 31
0.0
  0
SOLID
  5
E51
330
E25
100
AcDbEntity
  8
BEM
 62
     0
100
AcDbTrace
 10
55.66683284844464
 20
128.0817589463145
 30
0.0
 11
55.66683284844464
 21
126.9150922796479
 31
0.0
 12
52.16683284844464
 22
127.4984256129812
 32
0.0
 13
52.16683284844464
 23
127.4984256129812
 33
0.0
  0
SOLID
  5
E52
330
E25
100
AcDbEntity
  8
BEM
 62
     0
100
AcDbTrace
 10
172.1668328484446
 20
128.0817589463145
 30
0.0
 11
172.1668328484446
 21
126.9150922796479
 31
0.0
 12
175.6668328484446
 22
127.4984256129812
 32
0.0
 13
175.6668328484446
 23
127.4984256129812
 33
0.0
  0
MTEXT
  5
E53
330
E25
100
AcDbEntity
  8
BEM
 62
     1
100
AcDbMText
 10
113.9168328484446
 20
130.7484256129812
 30
0.0
 40
3.5
 41
0.0
 71
     5
 72
     1
  1
\A1;%%c123.5
 73
     1
 44
1.0
  0
POINT
  5
E54
330
E25
100
AcDbEntity
  8
DEFPOINTS
 62
     0
100
AcDbPoint
 10
52.16683284844464
 20
148.1103584053889
 30
0.0
  0
POINT
  5
E55
330
E25
100
AcDbEntity
  8
DEFPOINTS
 62
     0
100
AcDbPoint
 10
175.6668328484446
 20
148.1103584053889
 30
0.0
  0
POINT
  5
E56
330
E25
100
AcDbEntity
  8
DEFPOINTS
 62
     0
100
AcDbPoint
 10
175.6668328484446
 20
127.4984256129812
 30
0.0
  0
ENDBLK
  5
E30
330
E25
100
AcDbEntity
  8
0
100
AcDbBlockEnd
  0
BLOCK
  5
E62
330
E58
100
AcDbEntity
  8
0
100
AcDbBlockBegin
  2
*D3
 70
     1
 10
0.0
 20
0.0
 30
0.0
  3
*D3
  1

  0
LINE
  5
E65
330
E58
100
AcDbEntity
  8
BEM
 62
     0
370
    -2
100
AcDbLine
 10
51.16683284844464
 20
141.3103584053889
 30
0.0
 11
45.04076257065957
 21
141.3103584053889
 31
0.0
  0
LINE
  5
E66
330
E58
100
AcDbEntity
  8
BEM
 62
     0
370
    -2
100
AcDbLine
 10
50.66683284844464
 20
157.3103584053889
 30
0.0
 11
45.04076257065958
 21
157.3103584053889
 31
0.0
  0
LINE
  5
E67
330
E58
100
AcDbEntity
  8
BEM
 62
     0
370
    -2
100
AcDbLine
 10
46.04076257065957
 20
144.8103584053889
 30
0.0
 11
46.04076257065957
 21
153.8103584053889
 31
0.0
  0
SOLID
  5
E68
330
E58
100
AcDbEntity
  8
BEM
 62
     0
100
AcDbTrace
 10
45.45742923732624
 20
144.8103584053889
 30
0.0
 11
46.62409590399291
 21
144.8103584053889
 31
0.0
 12
46.04076257065957
 22
141.3103584053889
 32
0.0
 13
46.04076257065957
 23
141.3103584053889
 33
0.0
  0
SOLID
  5
E69
330
E58
100
AcDbEntity
  8
BEM
 62
     0
100
AcDbTrace
 10
45.45742923732624
 20
153.8103584053889
 30
0.0
 11
46.62409590399291
 21
153.8103584053889
 31
0.0
 12
46.04076257065957
 22
157.3103584053889
 32
0.0
 13
46.04076257065957
 23
157.3103584053889
 33
0.0
  0
MTEXT
  5
E6A
330
E58
100
AcDbEntity
  8
BEM
 62
     1
100
AcDbMText
 10
42.79076257065955
 20
149.310358405389
 30
0.0
 40
3.5
 41
0.0
 71
     5
 72
     1
  1
\A1;16
 11
0.0000000000000001
 21
1.0
 31
0.0
 73
     1
 44
1.0
  0
POINT
  5
E6B
330
E58
100
AcDbEntity
  8
DEFPOINTS
 62
     0
100
AcDbPoint
 10
52.16683284844464
 20
141.3103584053889
 30
0.0
  0
POINT
  5
E6C
330
E58
100
AcDbEntity
  8
DEFPOINTS
 62
     0
100
AcDbPoint
 10
51.66683284844464
 20
157.3103584053889
 30
0.0
  0
POINT
  5
E6D
330
E58
100
AcDbEntity
  8
DEFPOINTS
 62
     0
100
AcDbPoint
 10
46.04076257065957
 20
157.3103584053889
 30
0.0
  0
ENDBLK
  5
E63
330
E58
100
AcDbEntity
  8
0
100
AcDbBlockEnd
  0
BLOCK
  5
E7A
330
E70
100
AcDbEntity
  8
0
100
AcDbBlockBegin
  2
*D4
 70
     1
 10
0.0
 20
0.0
 30
0.0
  3
*D4
  1

  0
LINE
  5
E7D
330
E70
100
AcDbEntity
  8
BEM
 62
     0
370
    -2
100
AcDbLine
 10
51.16683284844464
 20
141.3103584053889
 30
0.0
 11
38.04076257065958
 21
141.3103584053889
 31
0.0
  0
LINE
  5
E7E
330
E70
100
AcDbEntity
  8
BEM
 62
     0
370
    -2
100
AcDbLine
 10
53.54123278655817
 20
162.3103584053889
 30
0.0
 11
38.04076257065958
 21
162.3103584053889
 31
0.0
  0
LINE
  5
E7F
330
E70
100
AcDbEntity
  8
BEM
 62
     0
370
    -2
100
AcDbLine
 10
39.04076257065958
 20
144.8103584053889
 30
0.0
 11
39.04076257065958
 21
158.8103584053889
 31
0.0
  0
SOLID
  5
E80
330
E70
100
AcDbEntity
  8
BEM
 62
     0
100
AcDbTrace
 10
38.45742923732625
 20
144.8103584053889
 30
0.0
 11
39.62409590399292
 21
144.8103584053889
 31
0.0
 12
39.04076257065958
 22
141.3103584053889
 32
0.0
 13
39.04076257065958
 23
141.3103584053889
 33
0.0
  0
SOLID
  5
E81
330
E70
100
AcDbEntity
  8
BEM
 62
     0
100
AcDbTrace
 10
38.45742923732625
 20
158.8103584053889
 30
0.0
 11
39.62409590399292
 21
158.8103584053889
 31
0.0
 12
39.04076257065958
 22
162.3103584053889
 32
0.0
 13
39.04076257065958
 23
162.3103584053889
 33
0.0
  0
MTEXT
  5
E82
330
E70
100
AcDbEntity
  8
BEM
 62
     1
100
AcDbMText
 10
35.79076257065955
 20
151.8103584053889
 30
0.0
 40
3.5
 41
0.0
 71
     5
 72
     1
  1
\A1;21
 11
0.0000000000000001
 21
1.0
 31
0.0
 73
     1
 44
1.0
  0
POINT
  5
E83
330
E70
100
AcDbEntity
  8
DEFPOINTS
 62
     0
100
AcDbPoint
 10
52.16683284844464
 20
141.3103584053889
 30
0.0
  0
POINT
  5
E84
330
E70
100
AcDbEntity
  8
DEFPOINTS
 62
     0
100
AcDbPoint
 10
54.54123278655817
 20
162.3103584053889
 30
0.0
  0
POINT
  5
E85
330
E70
100
AcDbEntity
  8
DEFPOINTS
 62
     0
100
AcDbPoint
 10
39.04076257065958
 20
162.3103584053889
 30
0.0
  0
ENDBLK
  5
E7B
330
E70
100
AcDbEntity
  8
0
100
AcDbBlockEnd
  0
ENDSEC
  0
SECTION
  2
ENTITIES
  0
LINE
  5
144
330
20
100
AcDbEntity
  8
HILF
100
AcDbLine
 10
210.0
 20
0.0
 30
0.0
 11
0.0
 21
0.0
 31
0.0
  0
LINE
  5
145
330
20
100
AcDbEntity
  8
HILF
100
AcDbLine
 10
210.0
 20
297.0000000000001
 30
0.0
 11
0.0
 21
297.0
 31
0.0
  0
LINE
  5
146
330
20
100
AcDbEntity
  8
STEMPEL
100
AcDbLine
 10
205.0
 20
292.0
 30
0.0
 11
19.99999999999994
 21
292.0
 31
0.0
  0
LINE
  5
147
330
20
100
AcDbEntity
  8
STEMPEL
100
AcDbLine
 10
205.0
 20
5.0
 30
0.0
 11
19.99999999999994
 21
5.0
 31
0.0
  0
LINE
  5
148
330
20
100
AcDbEntity
  8
STEMPEL
100
AcDbLine
 10
24.99999999999995
 20
5.0
 30
0.0
 11
205.0
 21
5.0
 31
0.0
  0
LINE
  5
149
330
20
100
AcDbEntity
  8
HILF
100
AcDbLine
 10
111.7454849644942
 20
7.446991290141568
 30
0.0
 11
202.4294419663364
 21
7.446991290141568
 31
0.0
  0
LINE
  5
14A
330
20
100
AcDbEntity
  8
HILF
100
AcDbLine
 10
112.3868400548474
 20
24.99999999999999
 30
0.0
 11
162.4176958278155
 21
24.99999999999999
 31
0.0
  0
LINE
  5
14B
330
20
100
AcDbEntity
  8
HILF
100
AcDbLine
 10
112.3868400548474
 20
29.99999999999999
 30
0.0
 11
162.4176958278155
 21
29.99999999999999
 31
0.0
  0
LINE
  5
14C
330
20
100
AcDbEntity
  8
HILF
100
AcDbLine
 10
112.3868400548474
 20
34.99999999999997
 30
0.0
 11
162.4176958278155
 21
34.99999999999997
 31
0.0
  0
LINE
  5
14D
330
20
100
AcDbEntity
  8
HILF
100
AcDbLine
 10
112.3868400548474
 20
42.01879123782069
 30
0.0
 11
162.4176958278155
 21
42.01879123782069
 31
0.0
  0
LINE
  5
14E
330
20
100
AcDbEntity
  8
STEMPEL
100
AcDbLine
 10
205.0
 20
40.0
 30
0.0
 11
68.00000000000006
 21
39.99999999999997
 31
0.0
  0
LINE
  5
14F
330
20
100
AcDbEntity
  8
STEMPEL
100
AcDbLine
 10
205.0
 20
20.0
 30
0.0
 11
68.00000000000006
 21
19.99999999999998
 31
0.0
  0
LINE
  5
150
330
20
100
AcDbEntity
  8
STEMPEL
100
AcDbLine
 10
205.0
 20
55.00000000000003
 30
0.0
 11
19.99999999999998
 21
55.0
 31
0.0
  0
LINE
  5
154
330
20
100
AcDbEntity
  8
HILF
100
AcDbLine
 10
0.0
 20
0.0
 30
0.0
 11
-0.0000000000000568
 21
297.0
 31
0.0
  0
LINE
  5
155
330
20
100
AcDbEntity
  8
STEMPEL
100
AcDbLine
 10
20.0
 20
5.0
 30
0.0
 11
19.99999999999994
 21
292.0
 31
0.0
  0
TEXT
  5
15C
330
20
100
AcDbEntity
  8
TEXT
100
AcDbText
 10
21.16299821803051
 20
55.83599999999997
 30
0.0
 40
2.5
  1
Erstellt mit AUTOCAD 2004
 41
0.8
  7
GREEKS
100
AcDbText
  0
LINE
  5
15D
330
20
100
AcDbEntity
  8
HILF
100
AcDbLine
 10
20.00000000000004
 20
19.99999999999998
 30
0.0
 11
68.00000000000006
 21
19.99999999999998
 31
0.0
  0
LINE
  5
15E
330
20
100
AcDbEntity
  8
HILF
100
AcDbLine
 10
20.00000000000004
 20
24.99999999999999
 30
0.0
 11
68.00000000000006
 21
24.99999999999999
 31
0.0
  0
LINE
  5
15F
330
20
100
AcDbEntity
  8
HILF
100
AcDbLine
 10
20.00000000000004
 20
29.99999999999999
 30
0.0
 11
68.00000000000006
 21
29.99999999999999
 31
0.0
  0
LINE
  5
160
330
20
100
AcDbEntity
  8
HILF
100
AcDbLine
 10
20.00000000000004
 20
34.99999999999997
 30
0.0
 11
68.00000000000006
 21
34.99999999999997
 31
0.0
  0
LINE
  5
161
330
20
100
AcDbEntity
  8
HILF
100
AcDbLine
 10
20.00000000000004
 20
39.99999999999997
 30
0.0
 11
68.00000000000006
 21
39.99999999999997
 31
0.0
  0
LINE
  5
162
330
20
100
AcDbEntity
  8
HILF
100
AcDbLine
 10
20.00000000000004
 20
45.00000000000002
 30
0.0
 11
68.00000000000006
 21
45.00000000000002
 31
0.0
  0
LINE
  5
163
330
20
100
AcDbEntity
  8
HILF
100
AcDbLine
 10
20.00000000000004
 20
50.00000000000003
 30
0.0
 11
68.00000000000006
 21
50.00000000000003
 31
0.0
  0
LINE
  5
164
330
20
100
AcDbEntity
  8
STEMPEL
100
AcDbLine
 10
67.99999999999994
 20
14.99999999999998
 30
0.0
 11
19.99999999999998
 21
14.99999999999998
 31
0.0
  0
TEXT
  5
165
330
20
100
AcDbEntity
  8
TEXT
100
AcDbText
 10
49.79273626936724
 20
9.33578134669905
 30
0.0
 40
2.0
  1
Tag
 41
0.8
  7
GREEKS
 72
     1
 11
51.65940293603391
 21
9.33578134669905
 31
0.0
100
AcDbText
  0
TEXT
  5
166
330
20
100
AcDbEntity
  8
TEXT
100
AcDbText
 10
31.1234419470788
 20
9.336909474920659
 30
0.0
 40
2.0
  1
Änderung
 41
0.8
  7
GREEKS
 72
     1
 11
36.49487051850737
 21
9.336909474920659
 31
0.0
100
AcDbText
  0
TEXT
  5
167
330
20
100
AcDbEntity
  8
TEXT
100
AcDbText
 10
24.13320553522878
 20
6.827329230135958
 30
0.0
 40
1.8
  1
Index
 50
90.0
 41
0.8
  7
GREEKS
100
AcDbText
  0
LINE
  5
168
330
20
100
AcDbEntity
  8
VOLL
100
AcDbLine
 10
57.00000000000006
 20
54.99999999999997
 30
0.0
 11
57.0
 21
4.999999999999985
 31
0.0
  0
LINE
  5
169
330
20
100
AcDbEntity
  8
VOLL
100
AcDbLine
 10
47.00000000000005
 20
54.99999999999997
 30
0.0
 11
47.0
 21
4.999999999999985
 31
0.0
  0
LINE
  5
16A
330
20
100
AcDbEntity
  8
VOLL
100
AcDbLine
 10
27.00000000000005
 20
55.00000000000003
 30
0.0
 11
26.99999999999999
 21
4.999999999999985
 31
0.0
  0
LINE
  5
16E
330
20
100
AcDbEntity
  8
HILF
100
AcDbLine
 10
15.54383567856928
 20
148.5
 30
0.0
 11
0.0000000000000568
 21
148.5
 31
0.0
  0
TEXT
  5
17F
330
20
100
AcDbEntity
  8
TEXT
100
AcDbText
 10
92.14294773670257
 20
51.20920842174095
 30
0.0
 40
2.5
  1
Zul. Abw.
 41
0.8
  7
GREEKS
100
AcDbText
  0
LINE
  5
180
330
20
100
AcDbEntity
  8
HILF
100
AcDbLine
 10
68.00000000000006
 20
24.99999999999999
 30
0.0
 11
110.0
 21
24.99999999999999
 31
0.0
  0
LINE
  5
181
330
20
100
AcDbEntity
  8
HILF
100
AcDbLine
 10
68.00000000000006
 20
29.99999999999999
 30
0.0
 11
110.0
 21
29.99999999999999
 31
0.0
  0
LINE
  5
182
330
20
100
AcDbEntity
  8
HILF
100
AcDbLine
 10
68.00000000000006
 20
34.99999999999997
 30
0.0
 11
110.0
 21
34.99999999999997
 31
0.0
  0
ARC
  5
183
330
20
100
AcDbEntity
  8
TEXT
 62
     3
100
AcDbCircle
 10
82.09750516967082
 20
13.23892712376011
 30
0.0
 40
4.5
100
AcDbArc
 50
270.0
 51
231.0575587310159
  0
ARC
  5
184
330
20
100
AcDbEntity
  8
TEXT
 62
     3
100
AcDbCircle
 10
102.0975051696708
 20
13.23892712376014
 30
0.0
 40
4.5
100
AcDbArc
 50
270.0
 51
231.0575587310182
  0
LINE
  5
185
330
20
100
AcDbEntity
  8
TEXT
 62
     3
100
AcDbLine
 10
88.09750516967083
 20
17.73892712376014
 30
0.0
 11
88.09750516967085
 21
8.738927123760138
 31
0.0
  0
ARC
  5
186
330
20
100
AcDbEntity
  8
TEXT
 62
     3
100
AcDbCircle
 10
75.09750516967085
 20
10.73892712376028
 30
0.0
 40
2.0
100
AcDbArc
 50
179.9999999999992
 51
270.0
  0
LINE
  5
187
330
20
100
AcDbEntity
  8
TEXT
 62
     3
100
AcDbLine
 10
89.09750516967084
 20
12.73892712376014
 30
0.0
 11
89.09750516967084
 21
8.738927123760166
 31
0.0
  0
LINE
  5
188
330
20
100
AcDbEntity
  8
TEXT
 62
     3
100
AcDbLine
 10
93.09750516967085
 20
12.73892712376014
 30
0.0
 11
94.16930193939533
 21
8.738927123760138
 31
0.0
  0
LINE
  5
189
330
20
100
AcDbEntity
  8
STEMPEL
100
AcDbLine
 10
68.00000000000006
 20
54.99999999999997
 30
0.0
 11
68.0
 21
4.999999999999985
 31
0.0
  0
LINE
  5
18A
330
20
100
AcDbEntity
  8
TEXT
 62
     3
100
AcDbLine
 10
82.09750516967085
 20
8.738927123760166
 30
0.0
 11
75.09750516967085
 21
8.738927123760138
 31
0.0
  0
LINE
  5
18B
330
20
100
AcDbEntity
  8
TEXT
 62
     3
100
AcDbLine
 10
102.0975051696708
 20
8.738927123760138
 30
0.0
 11
94.1693019393953
 21
8.738927123760166
 31
0.0
  0
LINE
  5
18C
330
20
100
AcDbEntity
  8
TEXT
 62
     3
100
AcDbLine
 10
89.09750516967084
 20
8.738927123760166
 30
0.0
 11
88.09750516967085
 21
8.738927123760166
 31
0.0
  0
CIRCLE
  5
18D
330
20
100
AcDbEntity
  8
TEXT
 62
     3
100
AcDbCircle
 10
82.09750516967082
 20
13.23892712376011
 30
0.0
 40
3.5
  0
TEXT
  5
18E
330
20
100
AcDbEntity
  8
TEXT
100
AcDbText
 10
80.16366688624525
 20
31.6381230352273
 30
0.0
 40
2.0
  1
24.06.
 41
0.8
  7
GREEKS
 72
     1
 11
83.66842879100715
 21
31.6381230352273
 31
0.0
100
AcDbText
  0
TEXT
  5
18F
330
20
100
AcDbEntity
  8
TEXT
100
AcDbText
 10
81.16558365768254
 20
36.65940250614963
 30
0.0
 40
1.8
  1
Tag
 41
0.8
  7
GREEKS
100
AcDbText
  0
TEXT
  5
190
330
20
100
AcDbEntity
  8
TEXT
100
AcDbText
 10
71.75817860751886
 20
51.23104475435443
 30
0.0
 40
2.5
  1
Maßstab
 41
0.8
  7
GREEKS
100
AcDbText
  0
TEXT
  5
191
330
20
100
AcDbEntity
  8
TEXT
100
AcDbText
 10
68.79180635838077
 20
31.81495184808982
 30
0.0
 40
1.8
  1
Gez.
 41
0.8
  7
GREEKS
100
AcDbText
  0
LINE
  5
192
330
20
100
AcDbEntity
  8
VOLL
100
AcDbLine
 10
77.00000000000006
 20
39.99999999999997
 30
0.0
 11
77.00000000000006
 21
19.99999999999998
 31
0.0
  0
TEXT
  5
193
330
20
100
AcDbEntity
  8
TEXT
100
AcDbText
 10
68.80033886936519
 20
21.76473194824904
 30
0.0
 40
1.8
  1
Norm.
 41
0.8
  7
GREEKS
100
AcDbText
  0
TEXT
  5
194
330
20
100
AcDbEntity
  8
TEXT
100
AcDbText
 10
68.77575432858361
 20
26.84463145714189
 30
0.0
 40
1.8
  1
Gepr.
 41
0.8
  7
GREEKS
100
AcDbText
  0
TEXT
  5
195
330
20
100
AcDbEntity
  8
TEXT
100
AcDbText
 10
59.44494414379217
 20
9.29662108483204
 30
0.0
 40
2.0
  1
Name
 41
0.8
  7
GREEKS
 72
     1
 11
62.60684890569694
 21
9.29662108483204
 31
0.0
100
AcDbText
  0
LINE
  5
197
330
20
100
AcDbEntity
  8
TEXT
 62
     3
100
AcDbLine
 10
79.26907804492447
 20
9.738927123760252
 30
0.0
 11
75.09750516967085
 21
9.73892712376028
 31
0.0
  0
LINE
  5
198
330
20
100
AcDbEntity
  8
TEXT
 62
     3
100
AcDbLine
 10
74.09750516967083
 20
17.73892712376008
 30
0.0
 11
74.09750516967085
 21
10.73892712376028
 31
0.0
  0
LINE
  5
199
330
20
100
AcDbEntity
  8
TEXT
 62
     3
100
AcDbLine
 10
73.09750516967082
 20
17.73892712376008
 30
0.0
 11
73.09750516967085
 21
10.73892712376028
 31
0.0
  0
ARC
  5
19A
330
20
100
AcDbEntity
  8
TEXT
 62
     3
100
AcDbCircle
 10
75.09750516967085
 20
10.73892712376028
 30
0.0
 40
1.0
100
AcDbArc
 50
180.0
 51
270.0
  0
LINE
  5
19B
330
20
100
AcDbEntity
  8
TEXT
 62
     3
100
AcDbLine
 10
74.09750516967083
 20
17.73892712376014
 30
0.0
 11
73.09750516967082
 21
17.73892712376014
 31
0.0
  0
TEXT
  5
19C
330
20
100
AcDbEntity
  8
TEXT
100
AcDbText
 10
69.31105491105199
 20
36.57012735575833
 30
0.0
 40
1.8
  1
2008
 41
0.8
  7
GREEKS
100
AcDbText
  0
TEXT
  5
19E
330
20
100
AcDbEntity
  8
TEXT
 62
     1
100
AcDbText
 10
75.62939046306187
 20
43.47879250756998
 30
0.0
 40
3.5
  1
1:1
 41
0.8
  7
GREEKS
100
AcDbText
  0
TEXT
  5
19F
330
20
100
AcDbEntity
  8
TEXT
100
AcDbText
 10
97.42845740347638
 20
31.54481959861755
 30
0.0
 40
2.0
  1
Koeh
 41
0.8
  7
GREEKS
 72
     1
 11
100.0570288320478
 21
31.54481959861755
 31
0.0
100
AcDbText
  0
LINE
  5
1A0
330
20
100
AcDbEntity
  8
VOLL
100
AcDbLine
 10
90.00000000000005
 20
54.99999999999992
 30
0.0
 11
90.0
 21
19.99999999999998
 31
0.0
  0
LINE
  5
1A1
330
20
100
AcDbEntity
  8
TEXT
 62
     3
100
AcDbLine
 10
99.26907804492465
 20
9.738927123760138
 30
0.0
 11
94.93662892737432
 21
9.738927123760166
 31
0.0
  0
LINE
  5
1A2
330
20
100
AcDbEntity
  8
TEXT
 62
     3
100
AcDbLine
 10
93.09750516967085
 20
12.73892712376014
 30
0.0
 11
89.09750516967083
 21
12.73892712376014
 31
0.0
  0
LINE
  5
1A3
330
20
100
AcDbEntity
  8
TEXT
 62
     3
100
AcDbLine
 10
93.09750516967085
 20
13.73892712376014
 30
0.0
 11
89.09750516967084
 21
13.73892712376014
 31
0.0
  0
LINE
  5
1A4
330
20
100
AcDbEntity
  8
TEXT
 62
     3
100
AcDbLine
 10
93.09750516967085
 20
16.73892712376014
 30
0.0
 11
89.09750516967084
 21
16.73892712376014
 31
0.0
  0
LINE
  5
1A5
330
20
100
AcDbEntity
  8
TEXT
 62
     3
100
AcDbLine
 10
93.09750516967085
 20
17.73892712376014
 30
0.0
 11
88.09750516967085
 21
17.73892712376014
 31
0.0
  0
LINE
  5
1A6
330
20
100
AcDbEntity
  8
TEXT
 62
     3
100
AcDbLine
 10
89.09750516967084
 20
16.73892712376014
 30
0.0
 11
89.09750516967084
 21
13.73892712376014
 31
0.0
  0
ARC
  5
1A7
330
20
100
AcDbEntity
  8
TEXT
 62
     3
100
AcDbCircle
 10
93.09750516967085
 20
15.23892712376014
 30
0.0
 40
2.5
100
AcDbArc
 50
293.1161887722295
 51
90.0
  0
ARC
  5
1A8
330
20
100
AcDbEntity
  8
TEXT
 62
     3
100
AcDbCircle
 10
93.09750516967085
 20
15.23892712376014
 30
0.0
 40
1.5
100
AcDbArc
 50
270.0
 51
90.0
  0
ARC
  5
1A9
330
20
100
AcDbEntity
  8
TEXT
 62
     3
100
AcDbCircle
 10
93.09750516967085
 20
15.23892712376014
 30
0.0
 40
2.5
100
AcDbArc
 50
270.0
 51
270.0000000000007
  0
LINE
  5
1AA
330
20
100
AcDbEntity
  8
TEXT
 62
     3
100
AcDbLine
 10
94.06343099595991
 20
12.99774616886265
 30
0.0
 11
94.93662892737431
 21
9.738927123760166
 31
0.0
  0
CIRCLE
  5
1AB
330
20
100
AcDbEntity
  8
TEXT
 62
     3
100
AcDbCircle
 10
102.0975051696708
 20
13.23892712376014
 30
0.0
 40
3.5
  0
TEXT
  5
1AC
330
20
100
AcDbEntity
  8
TEXT
100
AcDbText
 10
91.3473965120978
 20
44.64562352614806
 30
0.0
 40
2.0
  1
DIN EN1123-2
 41
0.8
  7
GREEKS
 72
     1
 11
99.8426346073359
 21
44.64562352614806
 31
0.0
100
AcDbText
  0
TEXT
  5
1AD
330
20
100
AcDbEntity
  8
TEXT
100
AcDbText
 10
96.23132921131475
 20
36.65480545957612
 30
0.0
 40
1.8
  1
Name
 41
0.8
  7
GREEKS
100
AcDbText
  0
LINE
  5
1AE
330
20
100
AcDbEntity
  8
STEMPEL
100
AcDbLine
 10
110.0
 20
55.00000000000003
 30
0.0
 11
110.0
 21
4.999999999999985
 31
0.0
  0
TEXT
  5
1AF
330
20
100
AcDbEntity
  8
TEXT
100
AcDbText
 10
112.5648195562657
 20
25.82005971521079
 30
0.0
 40
2.5
  1
EDV-Art.Nr. 00933.100X
 41
0.8
  7
GREEKS
100
AcDbText
  0
TEXT
  5
1B0
330
20
100
AcDbEntity
  8
TEXT
100
AcDbText
 10
112.371119195568
 20
15.42280285096528
 30
0.0
 40
2.5
  1
Bauvorhaben
 41
0.8
  7
GREEKS
100
AcDbText
  0
TEXT
  5
1B1
330
20
100
AcDbEntity
  8
TEXT
 62
     1
100
AcDbText
 10
113.4467865528701
 20
43.70874394626889
 30
0.0
 40
3.5
  1
Dichtelement DN100
 41
0.8
  7
GREEKS
100
AcDbText
  0
TEXT
  5
1B2
330
20
100
AcDbEntity
  8
TEXT
100
AcDbText
 10
112.4918750788913
 20
21.31487076511316
 30
0.0
 40
1.8
  1
00933100W.DWG
 41
0.8
  7
GREEKS
100
AcDbText
  0
TEXT
  5
1B3
330
20
100
AcDbEntity
  8
TEXT
100
AcDbText
 10
112.4389701904505
 20
51.27446640058898
 30
0.0
 40
2.5
  1
Benennung
 41
0.8
  7
GREEKS
100
AcDbText
  0
LINE
  5
1EF
330
20
100
AcDbEntity
  8
HILF
100
AcDbLine
 10
210.0
 20
-0.0000000000000568
 30
0.0
 11
210.0
 21
297.0
 31
0.0
  0
LINE
  5
1F0
330
20
100
AcDbEntity
  8
STEMPEL
100
AcDbLine
 10
205.0
 20
55.00000000000003
 30
0.0
 11
205.0
 21
292.0
 31
0.0
  0
LINE
  5
1F1
330
20
100
AcDbEntity
  8
STEMPEL
100
AcDbLine
 10
205.0
 20
55.00000000000003
 30
0.0
 11
205.0
 21
5.0
 31
0.0
  0
TEXT
  5
1F2
330
20
100
AcDbEntity
  8
TEXT
 62
     1
100
AcDbText
 10
171.8905253938001
 20
44.07450714456979
 30
0.0
 40
3.5
  1
00933100W
 41
0.8
  7
GREEKS
 72
     1
 11
183.6238587271335
 21
44.07450714456979
 31
0.0
100
AcDbText
  0
TEXT
  5
1F4
330
20
100
AcDbEntity
  8
TEXT
100
AcDbText
 10
168.6200430748503
 20
26.03708088939301
 30
0.0
 40
2.5
  1
ersetzt durch:
 41
0.8
  7
GREEKS
100
AcDbText
  0
TEXT
  5
1F5
330
20
100
AcDbEntity
  8
TEXT
100
AcDbText
 10
168.3619308148496
 20
36.59059118549985
 30
0.0
 40
2.5
  1
Ersatz für:
 41
0.8
  7
GREEKS
100
AcDbText
  0
TEXT
  5
1F6
330
20
100
AcDbEntity
  8
TEXT
100
AcDbText
 10
168.089377478817
 20
51.15660172685682
 30
0.0
 40
2.5
  1
Zeichnungs Nr.
 41
0.8
  7
GREEKS
100
AcDbText
  0
LINE
  5
1F7
330
20
100
AcDbEntity
  8
HILF
100
AcDbLine
 10
168.3619308148496
 20
41.88991818477913
 30
0.0
 11
202.4294419663364
 21
41.88991818477913
 31
0.0
  0
LINE
  5
1F8
330
20
100
AcDbEntity
  8
VOLL
100
AcDbLine
 10
166.0
 20
30.0
 30
0.0
 11
205.0
 21
30.0
 31
0.0
  0
LINE
  5
1F9
330
20
100
AcDbEntity
  8
STEMPEL
100
AcDbLine
 10
166.0
 20
54.99999999999989
 30
0.0
 11
166.0
 21
20.0
 31
0.0
  0
TEXT
  5
208
330
20
100
AcDbEntity
  8
TEXT
100
AcDbText
 10
99.8426346073359
 20
42.01939489256613
 30
0.0
 40
2.0
  1

 41
0.8
  7
GREEKS
 72
     1
 11
99.8426346073359
 21
42.01939489256613
 31
0.0
100
AcDbText
  0
TEXT
  5
249
330
20
100
AcDbEntity
  8
BEM
100
AcDbText
 10
208.2905770718719
 20
6.074024076691515
 30
0.0
 40
2.0
  1
Diese Zeichnung ist urheberrechtlich geschützt und bleibt unser Eigentum. Sie darf weder ganz noch teilweise vervielfältigt und nicht an Dritte weitergegeben werden.
 50
90.0
 41
0.8
  7
GREEKS
100
AcDbText
  0
LINE
  5
C6D
330
20
100
AcDbEntity
  8
TEXT
 62
     2
100
AcDbLine
 10
28.28880607473508
 20
200.8414909311952
 30
0.0
 11
52.13810699121234
 21
159.0691774504914
 31
0.0
  0
TEXT
  5
C74
330
20
100
AcDbEntity
  8
TEXT
 62
     1
100
AcDbText
 10
79.92076801469238
 20
63.17904385584265
 30
0.0
 40
3.5
  1
Farbe: schwarz
 41
0.8
  7
GREEKS
100
AcDbText
  0
TEXT
  5
C75
330
20
100
AcDbEntity
  8
TEXT
 62
     1
100
AcDbText
 10
72.09387902890256
 20
69.17904385584265
 30
0.0
 40
3.5
  1
Werkstoff: Styrol-Butadien-Kautschuk (SBR) 50%%P5 IRHD
 41
0.8
  7
GREEKS
100
AcDbText
  0
HATCH
  5
D9A
330
20
100
AcDbEntity
  8
SCHRAFF
100
AcDbHatch
 10
0.0
 20
0.0
 30
0.0
210
0.0
220
0.0
230
1.0
  2
NET
 70
     0
 71
     1
 91
        2
 92
        7
 72
     1
 73
     1
 93
       24
 10
171.6668328484446
 20
156.3103584053889
 42
0.0
 10
171.6668328484446
 20
157.3103584053889
 42
0.0
 10
176.1668328484446
 20
157.3103584053889
 42
0.0
 10
175.2242845629092
 20
160.8279964955939
 42
0.3394542588635248
 10
173.292432910331
 20
162.3103584053902
 42
0.0
 10
172.0412327865581
 20
162.3103584053902
 42
0.3394542588635057
 10
170.10938113398
 20
160.827996495594
 42
0.0
 10
169.1668328484446
 20
157.310358405389
 42
0.0
 10
169.1668328484446
 20
148.3103584053889
 42
-0.4142135623730951
 10
164.1668328484446
 20
143.3103584053889
 42
0.0
 10
164.1668328484446
 20
141.3103584053889
 42
0.0
 10
166.1668328484446
 20
141.3103584053889
 42
0.3563939586925995
 10
171.065812334011
 20
145.3103584053889
 42
0.0
 10
172.3016022158246
 20
145.3103584053889
 42
0.0
 10
174.1668328484446
 20
141.3103584053889
 42
0.0
 10
175.6668328484446
 20
141.3103584053889
 42
0.0
 10
174.6668328484446
 20
145.060358405389
 42
0.0
 10
174.6668328484446
 20
147.1103584053889
 42
0.0
 10
175.6668328484446
 20
148.1103584053889
 42
0.0
 10
174.6668328484446
 20
149.1103584053889
 42
0.0
 10
174.6668328484446
 20
151.1142059826823
 42
0.0
 10
173.662281115635
 20
152.8541406227398
 42
0.0
 10
173.9184988982841
 20
153.8103584053889
 42
0.0
 10
172.9622811156351
 20
154.066576188038
 42
0.0
 97
       24
330
D9F
330
D9E
330
DA0
330
DA7
330
D9B
330
DC7
330
D9C
330
DA6
330
DA4
330
DAF
330
DAD
330
DC9
330
DAE
330
DA9
330
DAB
330
DAA
330
DAC
330
DA8
330
DB0
330
DA2
330
DA1
330
DA3
330
DA5
330
D9D
 92
        7
 72
     1
 73
     1
 93
       24
 10
58.66683284844464
 20
157.310358405389
 42
0.0
 10
57.72428456290919
 20
160.827996495594
 42
0.3394542588633769
 10
55.79243291033104
 20
162.3103584053889
 42
0.0
 10
54.54123278655817
 20
162.3103584053889
 42
0.3394542588633768
 10
52.60938113398004
 20
160.8279964955939
 42
0.0
 10
51.66683284844464
 20
157.3103584053889
 42
0.0
 10
56.16683284844464
 20
157.3103584053889
 42
0.0
 10
56.16683284844463
 20
156.3103584053889
 42
0.0
 10
54.87138458125409
 20
154.066576188038
 42
0.0
 10
53.91516679860508
 20
153.8103584053889
 42
0.0
 10
54.17138458125418
 20
152.8541406227398
 42
0.0
 10
53.16683284844458
 20
151.1142059826823
 42
0.0
 10
53.16683284844458
 20
149.1103584053889
 42
0.0
 10
52.16683284844464
 20
148.1103584053889
 42
0.0
 10
53.16683284844458
 20
147.1103584053889
 42
0.0
 10
53.16683284844463
 20
145.0603584053888
 42
0.0
 10
52.16683284844464
 20
141.3103584053889
 42
0.0
 10
53.66683284844463
 20
141.3103584053889
 42
0.0
 10
55.5320634810646
 20
145.3103584053889
 42
0.0
 10
56.76785336287821
 20
145.3103584053889
 42
0.3563939586926004
 10
61.66683284844457
 20
141.3103584053889
 42
0.0
 10
63.66683284844463
 20
141.3103584053889
 42
0.0
 10
63.66683284844464
 20
143.3103584053889
 42
-0.4142135623730951
 10
58.66683284844464
 20
148.3103584053889
 42
0.0
 97
       23
330
DBF
330
DB4
330
DC7
330
DB5
330
DC0
330
DBE
330
DB6
330
DB7
330
DBB
330
DBC
330
DBD
330
DB9
330
DBA
330
DC6
330
DC3
330
DC4
330
DC9
330
DC5
330
DC1
330
DC2
330
DB2
330
DCA
330
DB8
 75
     0
 76
     1
 52
45.0
 41
10.0
 77
     0
 78
     2
 53
45.0
 43
-16.57508265169258
 44
114.7822803212332
 45
-0.8838834764831842
 46
0.8838834764831844
 79
     0
 53
135.0
 43
-16.57508265169258
 44
114.7822803212332
 45
-0.8838834764831844
 46
-0.8838834764831842
 79
     0
 47
0.1820647287392387
 98
        2
 10
171.1747188595363
 20
153.8439863209826
 10
57.11586846391378
 20
152.2054040796139
  0
ARC
  5
D9B
102
{ACAD_REACTORS
330
D9A
102
}
330
20
100
AcDbEntity
  8
STEMPEL
100
AcDbCircle
 10
173.292432910331
 20
160.3103584053889
 30
0.0
 40
2.0
100
AcDbArc
 50
14.99999999999959
 51
90.0
  0
ARC
  5
D9C
102
{ACAD_REACTORS
330
D9A
102
}
330
20
100
AcDbEntity
  8
STEMPEL
100
AcDbCircle
 10
172.0412327865581
 20
160.3103584053889
 30
0.0
 40
2.0
100
AcDbArc
 50
90.0
 51
165.0000000000004
  0
LINE
  5
D9D
102
{ACAD_REACTORS
330
D9A
102
}
330
20
100
AcDbEntity
  8
STEMPEL
100
AcDbLine
 10
172.962281115635
 20
154.066576188038
 30
0.0
 11
173.9184988982841
 21
153.8103584053889
 31
0.0
  0
LINE
  5
D9E
102
{ACAD_REACTORS
330
D9A
102
}
330
20
100
AcDbEntity
  8
STEMPEL
100
AcDbLine
 10
171.6668328484446
 20
156.3103584053889
 30
0.0
 11
171.6668328484446
 21
157.3103584053889
 31
0.0
  0
LINE
  5
D9F
102
{ACAD_REACTORS
330
D9A
102
}
330
20
100
AcDbEntity
  8
STEMPEL
100
AcDbLine
 10
171.6668328484446
 20
156.3103584053889
 30
0.0
 11
172.962281115635
 21
154.066576188038
 31
0.0
  0
LINE
  5
DA0
102
{ACAD_REACTORS
330
D9A
102
}
330
20
100
AcDbEntity
  8
STEMPEL
100
AcDbLine
 10
171.6668328484446
 20
157.3103584053889
 30
0.0
 11
176.1668328484446
 21
157.3103584053889
 31
0.0
  0
LINE
  5
DA1
102
{ACAD_REACTORS
330
D9A
102
}
330
20
100
AcDbEntity
  8
STEMPEL
100
AcDbLine
 10
174.6668328484446
 20
149.1103584053889
 30
0.0
 11
174.6668328484446
 21
151.1142059826823
 31
0.0
  0
LINE
  5
DA2
102
{ACAD_REACTORS
330
D9A
330
E3B
102
}
330
20
100
AcDbEntity
  8
STEMPEL
100
AcDbLine
 10
175.6668328484446
 20
148.1103584053889
 30
0.0
 11
174.6668328484446
 21
149.1103584053889
 31
0.0
  0
LINE
  5
DA3
102
{ACAD_REACTORS
330
D9A
102
}
330
20
100
AcDbEntity
  8
STEMPEL
100
AcDbLine
 10
173.662281115635
 20
152.8541406227398
 30
0.0
 11
174.6668328484446
 21
151.1142059826823
 31
0.0
  0
LINE
  5
DA4
102
{ACAD_REACTORS
330
D9A
102
}
330
20
100
AcDbEntity
  8
STEMPEL
100
AcDbLine
 10
169.1668328484446
 20
148.3103584053889
 30
0.0
 11
169.1668328484446
 21
157.3103584053889
 31
0.0
  0
LINE
  5
DA5
102
{ACAD_REACTORS
330
D9A
102
}
330
20
100
AcDbEntity
  8
STEMPEL
100
AcDbLine
 10
173.9184988982841
 20
153.8103584053889
 30
0.0
 11
173.6622811156351
 21
152.8541406227398
 31
0.0
  0
LINE
  5
DA6
102
{ACAD_REACTORS
330
D9A
102
}
330
20
100
AcDbEntity
  8
STEMPEL
100
AcDbLine
 10
169.1668328484446
 20
157.3103584053889
 30
0.0
 11
170.10938113398
 21
160.827996495594
 31
0.0
  0
LINE
  5
DA7
102
{ACAD_REACTORS
330
D9A
330
E23
102
}
330
20
100
AcDbEntity
  8
STEMPEL
100
AcDbLine
 10
176.1668328484446
 20
157.3103584053889
 30
0.0
 11
175.2242845629092
 21
160.8279964955939
 31
0.0
  0
LINE
  5
DA8
102
{ACAD_REACTORS
330
D9A
102
}
330
20
100
AcDbEntity
  8
STEMPEL
100
AcDbLine
 10
174.6668328484446
 20
145.0603584053889
 30
0.0
 11
174.6668328484446
 21
147.1103584053889
 31
0.0
  0
LINE
  5
DA9
102
{ACAD_REACTORS
330
D9A
102
}
330
20
100
AcDbEntity
  8
STEMPEL
100
AcDbLine
 10
171.0658123340109
 20
145.3103584053889
 30
0.0
 11
172.3016022158246
 21
145.3103584053889
 31
0.0
  0
LINE
  5
DAA
102
{ACAD_REACTORS
330
D9A
102
}
330
20
100
AcDbEntity
  8
STEMPEL
100
AcDbLine
 10
175.6668328484446
 20
141.3103584053889
 30
0.0
 11
174.1668328484446
 21
141.3103584053889
 31
0.0
  0
LINE
  5
DAB
102
{ACAD_REACTORS
330
D9A
102
}
330
20
100
AcDbEntity
  8
STEMPEL
100
AcDbLine
 10
174.1668328484446
 20
141.3103584053889
 30
0.0
 11
172.3016022158246
 21
145.3103584053889
 31
0.0
  0
LINE
  5
DAC
102
{ACAD_REACTORS
330
D9A
102
}
330
20
100
AcDbEntity
  8
STEMPEL
100
AcDbLine
 10
175.6668328484446
 20
141.3103584053889
 30
0.0
 11
174.6668328484446
 21
145.0603584053889
 31
0.0
  0
LINE
  5
DAD
102
{ACAD_REACTORS
330
D9A
102
}
330
20
100
AcDbEntity
  8
STEMPEL
100
AcDbLine
 10
164.1668328484446
 20
141.3103584053889
 30
0.0
 11
164.1668328484446
 21
143.3103584053889
 31
0.0
  0
ARC
  5
DAE
102
{ACAD_REACTORS
330
D9A
102
}
330
20
100
AcDbEntity
  8
STEMPEL
100
AcDbCircle
 10
166.1668328484446
 20
146.3103584053889
 30
0.0
 40
5.0
100
AcDbArc
 50
270.0
 51
348.4630409671851
  0
ARC
  5
DAF
102
{ACAD_REACTORS
330
D9A
102
}
330
20
100
AcDbEntity
  8
STEMPEL
100
AcDbCircle
 10
164.1668328484446
 20
148.3103584053889
 30
0.0
 40
5.0
100
AcDbArc
 50
270.0
 51
0.0
  0
LINE
  5
DB0
102
{ACAD_REACTORS
330
D9A
330
E3B
102
}
330
20
100
AcDbEntity
  8
STEMPEL
100
AcDbLine
 10
175.6668328484446
 20
148.1103584053889
 30
0.0
 11
174.6668328484446
 21
147.1103584053889
 31
0.0
  0
LINE
  5
DB1
330
20
100
AcDbEntity
  8
MITTEL
100
AcDbLine
 10
113.9168328484446
 20
136.3103584053889
 30
0.0
 11
113.9168328484446
 21
167.3103584053889
 31
0.0
  0
LINE
  5
DB2
102
{ACAD_REACTORS
330
D9A
102
}
330
20
100
AcDbEntity
  8
STEMPEL
100
AcDbLine
 10
63.66683284844464
 20
141.3103584053889
 30
0.0
 11
63.66683284844464
 21
143.3103584053889
 31
0.0
  0
LINE
  5
DB3
330
20
100
AcDbEntity
  8
STEMPEL
100
AcDbLine
 10
164.1668328484446
 20
143.3103584053889
 30
0.0
 11
63.66683284844464
 21
143.3103584053889
 31
0.0
  0
ARC
  5
DB4
102
{ACAD_REACTORS
330
D9A
102
}
330
20
100
AcDbEntity
  8
STEMPEL
100
AcDbCircle
 10
55.79243291033106
 20
160.3103584053889
 30
0.0
 40
2.0
100
AcDbArc
 50
14.99999999999959
 51
90.0
  0
ARC
  5
DB5
102
{ACAD_REACTORS
330
D9A
102
}
330
20
100
AcDbEntity
  8
STEMPEL
100
AcDbCircle
 10
54.54123278655817
 20
160.3103584053889
 30
0.0
 40
2.0
100
AcDbArc
 50
90.0
 51
165.0000000000004
  0
LINE
  5
DB6
102
{ACAD_REACTORS
330
D9A
102
}
330
20
100
AcDbEntity
  8
STEMPEL
100
AcDbLine
 10
56.16683284844464
 20
156.3103584053889
 30
0.0
 11
56.16683284844464
 21
157.3103584053889
 31
0.0
  0
LINE
  5
DB7
102
{ACAD_REACTORS
330
D9A
102
}
330
20
100
AcDbEntity
  8
STEMPEL
100
AcDbLine
 10
56.16683284844464
 20
156.3103584053889
 30
0.0
 11
54.87138458125412
 21
154.066576188038
 31
0.0
  0
LINE
  5
DB8
102
{ACAD_REACTORS
330
D9A
102
}
330
20
100
AcDbEntity
  8
STEMPEL
100
AcDbLine
 10
58.66683284844464
 20
148.3103584053889
 30
0.0
 11
58.66683284844464
 21
157.3103584053889
 31
0.0
  0
LINE
  5
DB9
102
{ACAD_REACTORS
330
D9A
102
}
330
20
100
AcDbEntity
  8
STEMPEL
100
AcDbLine
 10
53.16683284844458
 20
149.1103584053889
 30
0.0
 11
53.16683284844458
 21
151.1142059826823
 31
0.0
  0
LINE
  5
DBA
102
{ACAD_REACTORS
330
D9A
330
E3B
102
}
330
20
100
AcDbEntity
  8
STEMPEL
100
AcDbLine
 10
52.16683284844464
 20
148.1103584053889
 30
0.0
 11
53.16683284844458
 21
149.1103584053889
 31
0.0
  0
LINE
  5
DBB
102
{ACAD_REACTORS
330
D9A
102
}
330
20
100
AcDbEntity
  8
STEMPEL
100
AcDbLine
 10
54.87138458125418
 20
154.066576188038
 30
0.0
 11
53.91516679860507
 21
153.8103584053889
 31
0.0
  0
LINE
  5
DBC
102
{ACAD_REACTORS
330
D9A
102
}
330
20
100
AcDbEntity
  8
STEMPEL
100
AcDbLine
 10
53.91516679860507
 20
153.8103584053889
 30
0.0
 11
54.17138458125418
 21
152.8541406227398
 31
0.0
  0
LINE
  5
DBD
102
{ACAD_REACTORS
330
D9A
102
}
330
20
100
AcDbEntity
  8
STEMPEL
100
AcDbLine
 10
54.17138458125418
 20
152.8541406227398
 30
0.0
 11
53.16683284844458
 21
151.1142059826823
 31
0.0
  0
LINE
  5
DBE
102
{ACAD_REACTORS
330
D9A
330
E6E
102
}
330
20
100
AcDbEntity
  8
STEMPEL
100
AcDbLine
 10
56.16683284844464
 20
157.3103584053889
 30
0.0
 11
51.66683284844464
 21
157.3103584053889
 31
0.0
  0
LINE
  5
DBF
102
{ACAD_REACTORS
330
D9A
102
}
330
20
100
AcDbEntity
  8
STEMPEL
100
AcDbLine
 10
58.66683284844464
 20
157.3103584053889
 30
0.0
 11
57.72428456290919
 21
160.827996495594
 31
0.0
  0
LINE
  5
DC0
102
{ACAD_REACTORS
330
D9A
330
E23
330
E6E
102
}
330
20
100
AcDbEntity
  8
STEMPEL
100
AcDbLine
 10
51.66683284844464
 20
157.3103584053889
 30
0.0
 11
52.60938113398004
 21
160.8279964955939
 31
0.0
  0
LINE
  5
DC1
102
{ACAD_REACTORS
330
D9A
102
}
330
20
100
AcDbEntity
  8
STEMPEL
100
AcDbLine
 10
56.76785336287821
 20
145.3103584053889
 30
0.0
 11
55.5320634810646
 21
145.3103584053889
 31
0.0
  0
ARC
  5
DC2
102
{ACAD_REACTORS
330
D9A
102
}
330
20
100
AcDbEntity
  8
STEMPEL
100
AcDbCircle
 10
61.66683284844464
 20
146.3103584053889
 30
0.0
 40
5.0
100
AcDbArc
 50
191.5369590328148
 51
270.0
  0
LINE
  5
DC3
102
{ACAD_REACTORS
330
D9A
102
}
330
20
100
AcDbEntity
  8
STEMPEL
100
AcDbLine
 10
53.16683284844464
 20
145.0603584053889
 30
0.0
 11
53.16683284844458
 21
147.1103584053889
 31
0.0
  0
LINE
  5
DC4
102
{ACAD_REACTORS
330
D9A
102
}
330
20
100
AcDbEntity
  8
STEMPEL
100
AcDbLine
 10
52.16683284844464
 20
141.3103584053889
 30
0.0
 11
53.16683284844464
 21
145.0603584053889
 31
0.0
  0
LINE
  5
DC5
102
{ACAD_REACTORS
330
D9A
102
}
330
20
100
AcDbEntity
  8
STEMPEL
100
AcDbLine
 10
53.66683284844464
 20
141.3103584053889
 30
0.0
 11
55.5320634810646
 21
145.3103584053889
 31
0.0
  0
LINE
  5
DC6
102
{ACAD_REACTORS
330
D9A
330
E3B
102
}
330
20
100
AcDbEntity
  8
STEMPEL
100
AcDbLine
 10
52.16683284844464
 20
148.1103584053889
 30
0.0
 11
53.16683284844458
 21
147.1103584053889
 31
0.0
  0
LINE
  5
DC7
102
{ACAD_REACTORS
330
D9A
330
E86
102
}
330
20
100
AcDbEntity
  8
STEMPEL
100
AcDbLine
 10
173.292432910331
 20
162.3103584053902
 30
0.0
 11
54.54123278655817
 21
162.3103584053889
 31
0.0
  0
LINE
  5
DC8
102
{ACAD_REACTORS
330
E0B
102
}
330
20
100
AcDbEntity
  8
STEMPEL
100
AcDbLine
 10
169.1668328484446
 20
157.3103584053889
 30
0.0
 11
58.66683284844464
 21
157.3103584053889
 31
0.0
  0
LINE
  5
DC9
102
{ACAD_REACTORS
330
D9A
330
E6E
330
E86
102
}
330
20
100
AcDbEntity
  8
STEMPEL
100
AcDbLine
 10
166.1668328484446
 20
141.3103584053889
 30
0.0
 11
52.16683284844464
 21
141.3103584053889
 31
0.0
  0
ARC
  5
DCA
102
{ACAD_REACTORS
330
D9A
102
}
330
20
100
AcDbEntity
  8
STEMPEL
100
AcDbCircle
 10
63.66683284844464
 20
148.3103584053889
 30
0.0
 40
5.0
100
AcDbArc
 50
180.0
 51
270.0
  0
LINE
  5
DE1
330
20
100
AcDbEntity
  8
TEXT
 62
     2
100
AcDbLine
 10
42.00204521528767
 20
200.8414909311952
 30
0.0
 11
28.28880607473508
 21
200.8414909311952
 31
0.0
  0
TEXT
  5
DE2
330
20
100
AcDbEntity
  8
TEXT
 62
     1
100
AcDbText
 10
28.28880607473508
 20
202.7658969775686
 30
0.0
 40
3.5
  1
Gravur: EN 1123 LORO DN100/110KA TG Nest.Nr. WC Jahreszahl
 41
0.8
  7
GREEKS
100
AcDbText
  0
ARC
  5
DE3
330
20
100
AcDbEntity
  8
TEXT
 62
     2
100
AcDbCircle
 10
182.6490647245149
 20
213.391090421821
 30
0.0
 40
1.873481366226997
100
AcDbArc
 50
268.4391661543622
 51
0.9693128199328132
  0
ARC
  5
DE4
330
20
100
AcDbEntity
  8
TEXT
 62
     2
100
AcDbCircle
 10
186.3954912633167
 20
213.391090421821
 30
0.0
 40
1.873481366226997
100
AcDbArc
 50
179.0306871800672
 51
271.5608338456491
  0
ARC
  5
DE5
330
20
100
AcDbEntity
  8
TEXT
 62
     2
100
AcDbCircle
 10
196.4162871380693
 20
209.6455179320078
 30
0.0
 40
1.873481366226997
100
AcDbArc
 50
359.0306871800672
 51
91.56083384564263
  0
ARC
  5
DE6
330
20
100
AcDbEntity
  8
TEXT
 62
     2
100
AcDbCircle
 10
172.4511619999838
 20
209.6455179320078
 30
0.0
 40
1.873481366226997
100
AcDbArc
 50
88.43916615436063
 51
180.9693128199328
  0
LINE
  5
DE7
330
20
100
AcDbEntity
  8
TEXT
 62
     2
100
AcDbLine
 10
186.4465217490733
 20
211.5183041769144
 30
0.0
 11
196.365256652313
 21
211.5183041769145
 31
0.0
  0
LINE
  5
DE8
330
20
100
AcDbEntity
  8
TEXT
 62
     2
100
AcDbLine
 10
172.50219248574
 20
211.5183041769143
 30
0.0
 11
182.5980342387587
 21
211.5183041769144
 31
0.0
  0
TEXT
  5
DE9
330
20
100
AcDbEntity
  8
TEXT
 62
     2
100
AcDbText
 10
169.9563863468487
 20
215.5335337462994
 30
0.0
 40
2.0
  1
Raster für weitere Jahre
 41
0.8
  7
GREEKS
100
AcDbText
  0
LINE
  5
DEA
330
20
100
AcDbEntity
  8
TEXT
 62
     1
100
AcDbLine
 10
170.4237637104689
 20
204.5367275575236
 30
0.0
 11
198.4237637104689
 21
204.5367275575236
 31
0.0
  0
LINE
  5
DEB
330
20
100
AcDbEntity
  8
TEXT
 62
     1
100
AcDbLine
 10
198.4237637104689
 20
206.6209279975362
 30
0.0
 11
198.4237637104689
 21
202.452527117511
 31
0.0
  0
LINE
  5
DEC
330
20
100
AcDbEntity
  8
TEXT
 62
     1
100
AcDbLine
 10
194.4237637104689
 20
206.6209279975362
 30
0.0
 11
194.4237637104689
 21
202.452527117511
 31
0.0
  0
LINE
  5
DED
330
20
100
AcDbEntity
  8
TEXT
 62
     1
100
AcDbLine
 10
190.4237637104689
 20
206.6209279975362
 30
0.0
 11
190.4237637104689
 21
202.452527117511
 31
0.0
  0
LINE
  5
DEE
330
20
100
AcDbEntity
  8
TEXT
 62
     1
100
AcDbLine
 10
186.4237637104689
 20
206.6209279975362
 30
0.0
 11
186.4237637104689
 21
202.452527117511
 31
0.0
  0
LINE
  5
DEF
330
20
100
AcDbEntity
  8
TEXT
 62
     1
100
AcDbLine
 10
182.4237637104689
 20
206.6209279975362
 30
0.0
 11
182.4237637104689
 21
202.452527117511
 31
0.0
  0
LINE
  5
DF0
330
20
100
AcDbEntity
  8
TEXT
 62
     1
100
AcDbLine
 10
178.4237637104689
 20
206.6209279975362
 30
0.0
 11
178.4237637104689
 21
202.452527117511
 31
0.0
  0
LINE
  5
DF1
330
20
100
AcDbEntity
  8
TEXT
 62
     1
100
AcDbLine
 10
174.4237637104689
 20
206.6209279975362
 30
0.0
 11
174.4237637104689
 21
202.452527117511
 31
0.0
  0
LINE
  5
DF2
330
20
100
AcDbEntity
  8
TEXT
 62
     1
100
AcDbLine
 10
170.4237637104689
 20
206.6209279975362
 30
0.0
 11
170.4237637104689
 21
202.452527117511
 31
0.0
  0
DIMENSION
  5
DF4
102
{ACAD_XDICTIONARY
360
E01
102
}
102
{ACAD_REACTORS
330
E0B
102
}
330
20
100
AcDbEntity
  8
BEM
100
AcDbDimension
  2
*D0
 10
169.1668328484446
 20
170.1489113205251
 30
0.0
 11
113.9168328484446
 21
173.3989113205251
 31
0.0
 70
    32
  1
%%c<>
 71
     5
 42
110.5
  3
Standard
100
AcDbAlignedDimension
 13
58.66683284844464
 23
157.3103584053889
 33
0.0
 14
169.1668328484446
 24
157.3103584053889
 34
0.0
100
AcDbRotatedDimension
1001
ACAD
1000
DSTYLE
1002
{
1070
    41
1040
3.5
1070
    42
1040
1.0
1070
    43
1040
7.0
1070
    44
1040
1.0
1070
    47
1040
0.6
1070
    48
1040
0.6
1070
    73
1070
     0
1070
    74
1070
     0
1070
    77
1070
     1
1070
    78
1070
     8
1070
    79
1070
     2
1070
   140
1040
3.5
1070
   141
1040
1.5
1070
   146
1040
0.5142857142857144
1070
   147
1040
1.5
1070
   172
1070
     1
1070
   178
1070
     1
1070
   179
1070
     2
1070
   271
1070
     2
1070
   272
1070
     2
1070
   284
1070
     8
1070
   285
1070
     8
1070
   286
1070
     8
1002
}
  0
DIMENSION
  5
E0C
102
{ACAD_XDICTIONARY
360
E19
102
}
102
{ACAD_REACTORS
330
E23
102
}
330
20
100
AcDbEntity
  8
BEM
100
AcDbDimension
  2
*D1
 10
176.1668328484446
 20
177.7419903318536
 30
0.0
 11
113.9168328484446
 21
180.9919903318536
 31
0.0
 70
    32
  1
%%c<>
 71
     5
 42
124.5
  3
Standard
100
AcDbAlignedDimension
 13
51.66683284844464
 23
157.3103584053889
 33
0.0
 14
176.1668328484446
 24
157.3103584053889
 34
0.0
100
AcDbRotatedDimension
1001
ACAD
1000
DSTYLE
1002
{
1070
    41
1040
3.5
1070
    42
1040
1.0
1070
    43
1040
7.0
1070
    44
1040
1.0
1070
    47
1040
0.6
1070
    48
1040
0.6
1070
    73
1070
     0
1070
    74
1070
     0
1070
    77
1070
     1
1070
    78
1070
     8
1070
    79
1070
     2
1070
   140
1040
3.5
1070
   141
1040
1.5
1070
   146
1040
0.5142857142857144
1070
   147
1040
1.5
1070
   172
1070
     1
1070
   178
1070
     1
1070
   179
1070
     2
1070
   271
1070
     2
1070
   272
1070
     2
1070
   284
1070
     8
1070
   285
1070
     8
1070
   286
1070
     8
1002
}
  0
DIMENSION
  5
E24
102
{ACAD_XDICTIONARY
360
E31
102
}
102
{ACAD_REACTORS
330
E3B
102
}
330
20
100
AcDbEntity
  8
BEM
100
AcDbDimension
  2
*D2
 10
175.6668328484446
 20
127.4984256129812
 30
0.0
 11
113.9168328484446
 21
130.7484256129812
 31
0.0
 70
    32
  1
%%c<>
 71
     5
 42
123.5
  3
Standard
100
AcDbAlignedDimension
 13
52.16683284844464
 23
148.1103584053889
 33
0.0
 14
175.6668328484446
 24
148.1103584053889
 34
0.0
100
AcDbRotatedDimension
1001
ACAD
1000
DSTYLE
1002
{
1070
    41
1040
3.5
1070
    42
1040
1.0
1070
    43
1040
7.0
1070
    44
1040
1.0
1070
    47
1040
0.6
1070
    48
1040
0.6
1070
    73
1070
     0
1070
    74
1070
     0
1070
    77
1070
     1
1070
    78
1070
     8
1070
    79
1070
     2
1070
   140
1040
3.5
1070
   141
1040
1.5
1070
   146
1040
0.5142857142857144
1070
   147
1040
1.5
1070
   172
1070
     1
1070
   178
1070
     1
1070
   179
1070
     2
1070
   271
1070
     2
1070
   272
1070
     2
1070
   284
1070
     8
1070
   285
1070
     8
1070
   286
1070
     8
1002
}
  0
DIMENSION
  5
E57
102
{ACAD_XDICTIONARY
360
E64
102
}
102
{ACAD_REACTORS
330
E6E
102
}
330
20
100
AcDbEntity
  8
BEM
100
AcDbDimension
  2
*D3
 10
46.04076257065957
 20
157.3103584053889
 30
0.0
 11
42.79076257065955
 21
149.310358405389
 31
0.0
 70
    32
 71
     5
 42
16.00000000000003
  3
Standard
100
AcDbAlignedDimension
 13
52.16683284844464
 23
141.3103584053889
 33
0.0
 14
51.66683284844464
 24
157.3103584053889
 34
0.0
 50
90.0
100
AcDbRotatedDimension
1001
ACAD
1000
DSTYLE
1002
{
1070
    41
1040
3.5
1070
    42
1040
1.0
1070
    43
1040
7.0
1070
    44
1040
1.0
1070
    47
1040
0.6
1070
    48
1040
0.6
1070
    73
1070
     0
1070
    74
1070
     0
1070
    77
1070
     1
1070
    78
1070
     8
1070
    79
1070
     2
1070
   140
1040
3.5
1070
   141
1040
1.5
1070
   146
1040
0.5142857142857144
1070
   147
1040
1.5
1070
   172
1070
     1
1070
   178
1070
     1
1070
   179
1070
     2
1070
   271
1070
     2
1070
   272
1070
     2
1070
   284
1070
     8
1070
   285
1070
     8
1070
   286
1070
     8
1002
}
  0
DIMENSION
  5
E6F
102
{ACAD_XDICTIONARY
360
E7C
102
}
102
{ACAD_REACTORS
330
E86
102
}
330
20
100
AcDbEntity
  8
BEM
100
AcDbDimension
  2
*D4
 10
39.04076257065958
 20
162.3103584053889
 30
0.0
 11
35.79076257065955
 21
151.8103584053889
 31
0.0
 70
    32
 71
     5
 42
21.0
  3
Standard
100
AcDbAlignedDimension
 13
52.16683284844464
 23
141.3103584053889
 33
0.0
 14
54.54123278655817
 24
162.3103584053889
 34
0.0
 50
90.0
100
AcDbRotatedDimension
1001
ACAD
1000
DSTYLE
1002
{
1070
    41
1040
3.5
1070
    42
1040
1.0
1070
    43
1040
7.0
1070
    44
1040
1.0
1070
    47
1040
0.6
1070
    48
1040
0.6
1070
    73
1070
     0
1070
    74
1070
     0
1070
    77
1070
     1
1070
    78
1070
     8
1070
    79
1070
     2
1070
   140
1040
3.5
1070
   141
1040
1.5
1070
   146
1040
0.5142857142857144
1070
   147
1040
1.5
1070
   172
1070
     1
1070
   178
1070
     1
1070
   179
1070
     2
1070
   271
1070
     2
1070
   272
1070
     2
1070
   284
1070
     8
1070
   285
1070
     8
1070
   286
1070
     8
1002
}
  0
TEXT
  5
E87
330
20
100
AcDbEntity
  8
TEXT
100
AcDbText
 10
112.5648195562657
 20
35.82005971521077
 30
0.0
 40
2.5
  1
für KA-Rohr DN100
 41
0.8
  7
GREEKS
100
AcDbText
  0
ENDSEC
  0
SECTION
  2
OBJECTS
  0
DICTIONARY
  5
C
330
0
100
AcDbDictionary
281
     1
  3
ACAD_COLOR
350
1B
  3
ACAD_GROUP
350
D
  3
ACAD_LAYOUT
350
19
  3
ACAD_MATERIAL
350
1A
  3
ACAD_MLINESTYLE
350
16
  3
ACAD_PLOTSETTINGS
350
18
  3
ACAD_PLOTSTYLENAME
350
E
  3
AcDbVariableDictionary
350
25E
  0
DICTIONARY
  5
E01
330
DF4
100
AcDbDictionary
280
     1
281
     1
  3
ACAD_DIMASSOC
360
E0B
  0
DICTIONARY
  5
E19
330
E0C
100
AcDbDictionary
280
     1
281
     1
  3
ACAD_DIMASSOC
360
E23
  0
DICTIONARY
  5
E31
330
E24
100
AcDbDictionary
280
     1
281
     1
  3
ACAD_DIMASSOC
360
E3B
  0
DICTIONARY
  5
E64
330
E57
100
AcDbDictionary
280
     1
281
     1
  3
ACAD_DIMASSOC
360
E6E
  0
DICTIONARY
  5
E7C
330
E6F
100
AcDbDictionary
280
     1
281
     1
  3
ACAD_DIMASSOC
360
E86
  0
DICTIONARY
  5
1B
102
{ACAD_REACTORS
330
C
102
}
330
C
100
AcDbDictionary
281
     1
  0
DICTIONARY
  5
D
102
{ACAD_REACTORS
330
C
102
}
330
C
100
AcDbDictionary
281
     1
  0
DICTIONARY
  5
19
102
{ACAD_REACTORS
330
C
102
}
330
C
100
AcDbDictionary
281
     1
  3
Layout1
350
1F
  3
Model
350
23
  0
DICTIONARY
  5
1A
102
{ACAD_REACTORS
330
C
102
}
330
C
100
AcDbDictionary
281
     1
  0
DICTIONARY
  5
16
102
{ACAD_REACTORS
330
C
102
}
330
C
100
AcDbDictionary
281
     1
  3
Standard
350
17
  0
DICTIONARY
  5
18
102
{ACAD_REACTORS
330
C
102
}
330
C
100
AcDbDictionary
281
     1
  0
ACDBDICTIONARYWDFLT
  5
E
102
{ACAD_REACTORS
330
C
102
}
330
C
100
AcDbDictionary
281
     1
  3
Normal
350
F
100
AcDbDictionaryWithDefault
340
F
  0
DICTIONARY
  5
25E
102
{ACAD_REACTORS
330
C
102
}
330
C
100
AcDbDictionary
281
     1
  3
DIMASSOC
350
260
  3
HIDETEXT
350
25F
  3
PROJECTNAME
350
261
  0
DIMASSOC
  5
E0B
102
{ACAD_REACTORS
330
E01
102
}
330
E01
100
AcDbDimAssoc
330
DF4
 90
        3
 70
     0
 71
     0
  1
AcDbOsnapPointRef
 72
     1
331
DC8
 73
     2
 91
        0
 40
1.0
 10
0.0
 20
0.0
 30
2.000000000000000E+50
 75
     0
  1
AcDbOsnapPointRef
 72
    13
331
DC8
 73
     2
 91
        0
 40
0.0
 10
0.0
 20
0.0
 30
2.000000000000000E+50
 75
     0
  0
DIMASSOC
  5
E23
102
{ACAD_REACTORS
330
E19
102
}
330
E19
100
AcDbDimAssoc
330
E0C
 90
        3
 70
     0
 71
     0
  1
AcDbOsnapPointRef
 72
    13
331
DC0
 73
     2
 91
        0
 40
0.0
 10
0.0
 20
0.0
 30
2.000000000000000E+50
 75
     0
  1
AcDbOsnapPointRef
 72
    13
331
DA7
 73
     2
 91
        0
 40
0.0
 10
0.0
 20
0.0
 30
2.000000000000000E+50
 75
     0
  0
DIMASSOC
  5
E3B
102
{ACAD_REACTORS
330
E31
102
}
330
E31
100
AcDbDimAssoc
330
E24
 90
        3
 70
     0
 71
     0
  1
AcDbOsnapPointRef
 72
     6
331
DC6
 73
     2
 91
        0
 40
0.0
 10
0.0
 20
0.0
 30
0.0
332
DBA
 74
     2
 92
        0
 75
     0
  1
AcDbOsnapPointRef
 72
     6
331
DB0
 73
     2
 91
        0
 40
0.0
 10
0.0
 20
0.0
 30
0.0
332
DA2
 74
     2
 92
        0
 75
     0
  0
DIMASSOC
  5
E6E
102
{ACAD_REACTORS
330
E64
102
}
330
E64
100
AcDbDimAssoc
330
E57
 90
        3
 70
     0
 71
     0
  1
AcDbOsnapPointRef
 72
     1
331
DC9
 73
     2
 91
        0
 40
1.0
 10
0.0
 20
0.0
 30
2.000000000000000E+50
 75
     0
  1
AcDbOsnapPointRef
 72
     6
331
DC0
 73
     2
 91
        0
 40
0.0
 10
0.0
 20
0.0
 30
0.0
332
DBE
 74
     2
 92
        0
 75
     0
  0
DIMASSOC
  5
E86
102
{ACAD_REACTORS
330
E7C
102
}
330
E7C
100
AcDbDimAssoc
330
E6F
 90
        3
 70
     0
 71
     0
  1
AcDbOsnapPointRef
 72
     1
331
DC9
 73
     2
 91
        0
 40
1.0
 10
0.0
 20
0.0
 30
2.000000000000000E+50
 75
     0
  1
AcDbOsnapPointRef
 72
     1
331
DC7
 73
     2
 91
        0
 40
0.9999999999999998
 10
0.0
 20
0.0
 30
2.000000000000000E+50
 75
     0
  0
LAYOUT
  5
1F
102
{ACAD_REACTORS
330
19
102
}
330
19
100
AcDbPlotSettings
  1

  2
RICOH Aficio 2027 PCL 6
  4

  6

 40
0.0
 41
0.0
 42
0.0
 43
0.0
 44
0.0
 45
0.0
 46
0.0
 47
0.0
 48
0.0
 49
0.0
140
0.0
141
0.0
142
1.0
143
1.0
 70
   688
 72
     0
 73
     0
 74
     5
  7
monochrome1.ctb
 75
    16
147
1.0
 76
     0
 77
     2
 78
   300
148
0.0
149
0.0
100
AcDbLayout
  1
Layout1
 70
     0
 71
     1
 10
0.0
 20
0.0
 11
12.0
 21
9.0
 12
94.77699787264981
 22
50.00000000000001
 32
160.541677480246
 14
1.000000000000000E+20
 24
1.000000000000000E+20
 34
1.000000000000000E+20
 15
-1.000000000000000E+20
 25
-1.000000000000000E+20
 35
-1.000000000000000E+20
146
0.0
 13
0.0
 23
0.0
 33
0.0
 16
1.0
 26
0.0
 36
0.0
 17
0.0
 27
1.0
 37
0.0
 76
     0
330
1C
  0
LAYOUT
  5
23
102
{ACAD_REACTORS
330
19
102
}
330
19
100
AcDbPlotSettings
  1

  2
RICOH Aficio 2027 PCL 6
  4
A4
  6

 40
5.027083396911621
 41
5.027085304260253
 42
5.027084350585937
 43
5.027069091796875
 44
209.9733276367187
 45
296.9259948730469
 46
0.0
 47
0.0
 48
0.0
 49
0.0
140
0.0
141
0.0
142
1.0
143
1.0
 70
 11952
 72
     0
 73
     1
 74
     0
  7
monochrome1.ctb
 75
     0
147
1.0
 76
     0
 77
     2
 78
   300
148
1149.94759482167
149
45.04758967657628
100
AcDbLayout
  1
Model
 70
     1
 71
     0
 10
0.0
 20
0.0
 11
12.0
 21
9.0
 12
0.0
 22
0.0
 32
0.0
 14
0.0
 24
0.0
 34
0.0
 15
0.0
 25
0.0
 35
0.0
146
0.0
 13
0.0
 23
0.0
 33
0.0
 16
1.0
 26
0.0
 36
0.0
 17
0.0
 27
1.0
 37
0.0
 76
     0
330
20
  0
MLINESTYLE
  5
17
102
{ACAD_REACTORS
330
16
102
}
330
16
100
AcDbMlineStyle
  2
STANDARD
 70
     0
  3

 62
   256
 51
90.0
 52
90.0
 71
     2
 49
0.5
 62
   256
  6
BYLAYER
 49
-0.5
 62
   256
  6
BYLAYER
  0
ACDBPLACEHOLDER
  5
F
102
{ACAD_REACTORS
330
E
102
}
330
E
  0
DICTIONARYVAR
  5
260
102
{ACAD_REACTORS
330
25E
102
}
330
25E
100
DictionaryVariables
280
     0
  1
2
  0
DICTIONARYVAR
  5
25F
102
{ACAD_REACTORS
330
25E
102
}
330
25E
100
DictionaryVariables
280
     0
  1
1
  0
DICTIONARYVAR
  5
261
102
{ACAD_REACTORS
330
25E
102
}
330
25E
100
DictionaryVariables
280
     0
  1

  0
ENDSEC
  0
EOF
