  0
SECTION
  2
HEADER
  9
$ACADVER
  1
AC1018
  9
$ACADMAINTVER
 70
     2
  9
$DWGCODEPAGE
  3
ANSI_1252
  9
$INSBASE
 10
0.0
 20
0.0
 30
0.0
  9
$EXTMIN
 10
-0.0096104944218496
 20
-0.0135919849681159
 30
-0.0000000000000058
  9
$EXTMAX
 10
210.0096144061857
 20
297.0135975173199
 30
0.0000000000000104
  9
$LIMMIN
 10
0.0
 20
0.0
  9
$LIMMAX
 10
210.0
 20
297.0
  9
$ORTHOMODE
 70
     0
  9
$REGENMODE
 70
     1
  9
$FILLMODE
 70
     1
  9
$QTEXTMODE
 70
     0
  9
$MIRRTEXT
 70
     1
  9
$LTSCALE
 40
10.0
  9
$ATTMODE
 70
     1
  9
$TEXTSIZE
 40
3.5
  9
$TRACEWID
 40
0.5
  9
$TEXTSTYLE
  7
STANDARD
  9
$CLAYER
  8
SCHRAFF
  9
$CELTYPE
  6
ByLayer
  9
$CECOLOR
 62
   256
  9
$CELTSCALE
 40
1.0
  9
$DISPSILH
 70
     0
  9
$DIMSCALE
 40
1.0
  9
$DIMASZ
 40
3.5
  9
$DIMEXO
 40
1.0
  9
$DIMDLI
 40
7.0
  9
$DIMRND
 40
0.0
  9
$DIMDLE
 40
0.0
  9
$DIMEXE
 40
1.0
  9
$DIMTP
 40
0.6
  9
$DIMTM
 40
0.6
  9
$DIMTXT
 40
3.5
  9
$DIMCEN
 40
1.5
  9
$DIMTSZ
 40
0.0
  9
$DIMTOL
 70
     0
  9
$DIMLIM
 70
     0
  9
$DIMTIH
 70
     0
  9
$DIMTOH
 70
     0
  9
$DIMSE1
 70
     0
  9
$DIMSE2
 70
     0
  9
$DIMTAD
 70
     1
  9
$DIMZIN
 70
     8
  9
$DIMBLK
  1

  9
$DIMASO
 70
     1
  9
$DIMSHO
 70
     0
  9
$DIMPOST
  1

  9
$DIMAPOST
  1

  9
$DIMALT
 70
     0
  9
$DIMALTD
 70
     2
  9
$DIMALTF
 40
25.4
  9
$DIMLFAC
 40
1.0
  9
$DIMTOFL
 70
     1
  9
$DIMTVP
 40
0.0
  9
$DIMTIX
 70
     0
  9
$DIMSOXD
 70
     0
  9
$DIMSAH
 70
     0
  9
$DIMBLK1
  1

  9
$DIMBLK2
  1

  9
$DIMSTYLE
  2
Standard
  9
$DIMCLRD
 70
     0
  9
$DIMCLRE
 70
     0
  9
$DIMCLRT
 70
     1
  9
$DIMTFAC
 40
0.5142857142857144
  9
$DIMGAP
 40
1.5
  9
$DIMJUST
 70
     0
  9
$DIMSD1
 70
     0
  9
$DIMSD2
 70
     0
  9
$DIMTOLJ
 70
     1
  9
$DIMTZIN
 70
     8
  9
$DIMALTZ
 70
     8
  9
$DIMALTTZ
 70
     8
  9
$DIMUPT
 70
     0
  9
$DIMDEC
 70
     2
  9
$DIMTDEC
 70
     2
  9
$DIMALTU
 70
     2
  9
$DIMALTTD
 70
     2
  9
$DIMTXSTY
  7
STANDARD
  9
$DIMAUNIT
 70
     0
  9
$DIMADEC
 70
     2
  9
$DIMALTRND
 40
0.0
  9
$DIMAZIN
 70
     2
  9
$DIMDSEP
 70
    46
  9
$DIMATFIT
 70
     3
  9
$DIMFRAC
 70
     0
  9
$DIMLDRBLK
  1

  9
$DIMLUNIT
 70
     2
  9
$DIMLWD
 70
    -2
  9
$DIMLWE
 70
    -2
  9
$DIMTMOVE
 70
     0
  9
$LUNITS
 70
     2
  9
$LUPREC
 70
     2
  9
$SKETCHINC
 40
1.0
  9
$FILLETRAD
 40
0.0
  9
$AUNITS
 70
     0
  9
$AUPREC
 70
     0
  9
$MENU
  1
ACAD
  9
$ELEVATION
 40
0.0
  9
$PELEVATION
 40
0.0
  9
$THICKNESS
 40
0.0
  9
$LIMCHECK
 70
     0
  9
$CHAMFERA
 40
0.0
  9
$CHAMFERB
 40
0.0
  9
$CHAMFERC
 40
0.0
  9
$CHAMFERD
 40
0.0
  9
$SKPOLY
 70
     0
  9
$TDCREATE
 40
2451729.335056250
  9
$TDUCREATE
 40
2451729.251722917
  9
$TDUPDATE
 40
2455450.561203021
  9
$TDUUPDATE
 40
2455450.477869688
  9
$TDINDWG
 40
0.0923359838
  9
$TDUSRTIMER
 40
0.0923359838
  9
$USRTIMER
 70
     1
  9
$ANGBASE
 50
0.0
  9
$ANGDIR
 70
     0
  9
$PDMODE
 70
     0
  9
$PDSIZE
 40
0.0
  9
$PLINEWID
 40
0.0
  9
$SPLFRAME
 70
     0
  9
$SPLINETYPE
 70
     6
  9
$SPLINESEGS
 70
     8
  9
$HANDSEED
  5
9EC
  9
$SURFTAB1
 70
     6
  9
$SURFTAB2
 70
     6
  9
$SURFTYPE
 70
     6
  9
$SURFU
 70
     6
  9
$SURFV
 70
     6
  9
$UCSBASE
  2

  9
$UCSNAME
  2

  9
$UCSORG
 10
0.0
 20
0.0
 30
0.0
  9
$UCSXDIR
 10
1.0
 20
0.0
 30
0.0
  9
$UCSYDIR
 10
0.0
 20
1.0
 30
0.0
  9
$UCSORTHOREF
  2

  9
$UCSORTHOVIEW
 70
     0
  9
$UCSORGTOP
 10
0.0
 20
0.0
 30
0.0
  9
$UCSORGBOTTOM
 10
0.0
 20
0.0
 30
0.0
  9
$UCSORGLEFT
 10
0.0
 20
0.0
 30
0.0
  9
$UCSORGRIGHT
 10
0.0
 20
0.0
 30
0.0
  9
$UCSORGFRONT
 10
0.0
 20
0.0
 30
0.0
  9
$UCSORGBACK
 10
0.0
 20
0.0
 30
0.0
  9
$PUCSBASE
  2

  9
$PUCSNAME
  2

  9
$PUCSORG
 10
0.0
 20
0.0
 30
0.0
  9
$PUCSXDIR
 10
1.0
 20
0.0
 30
0.0
  9
$PUCSYDIR
 10
0.0
 20
1.0
 30
0.0
  9
$PUCSORTHOREF
  2

  9
$PUCSORTHOVIEW
 70
     0
  9
$PUCSORGTOP
 10
0.0
 20
0.0
 30
0.0
  9
$PUCSORGBOTTOM
 10
0.0
 20
0.0
 30
0.0
  9
$PUCSORGLEFT
 10
0.0
 20
0.0
 30
0.0
  9
$PUCSORGRIGHT
 10
0.0
 20
0.0
 30
0.0
  9
$PUCSORGFRONT
 10
0.0
 20
0.0
 30
0.0
  9
$PUCSORGBACK
 10
0.0
 20
0.0
 30
0.0
  9
$USERI1
 70
     0
  9
$USERI2
 70
     0
  9
$USERI3
 70
     0
  9
$USERI4
 70
     0
  9
$USERI5
 70
     0
  9
$USERR1
 40
0.0
  9
$USERR2
 40
0.0
  9
$USERR3
 40
0.0
  9
$USERR4
 40
0.0
  9
$USERR5
 40
0.0
  9
$WORLDVIEW
 70
     1
  9
$SHADEDGE
 70
     3
  9
$SHADEDIF
 70
    70
  9
$TILEMODE
 70
     1
  9
$MAXACTVP
 70
    16
  9
$PINSBASE
 10
94.77699787264981
 20
50.00000000000001
 30
160.541677480246
  9
$PLIMCHECK
 70
     0
  9
$PEXTMIN
 10
1.000000000000000E+20
 20
1.000000000000000E+20
 30
1.000000000000000E+20
  9
$PEXTMAX
 10
-1.000000000000000E+20
 20
-1.000000000000000E+20
 30
-1.000000000000000E+20
  9
$PLIMMIN
 10
0.0
 20
0.0
  9
$PLIMMAX
 10
12.0
 20
9.0
  9
$UNITMODE
 70
     0
  9
$VISRETAIN
 70
     0
  9
$PLINEGEN
 70
     0
  9
$PSLTSCALE
 70
     0
  9
$TREEDEPTH
 70
  3020
  9
$CMLSTYLE
  2
Standard
  9
$CMLJUST
 70
     0
  9
$CMLSCALE
 40
1.0
  9
$PROXYGRAPHICS
 70
     1
  9
$MEASUREMENT
 70
     0
  9
$CELWEIGHT
370
    -1
  9
$ENDCAPS
280
     0
  9
$JOINSTYLE
280
     0
  9
$LWDISPLAY
290
     0
  9
$INSUNITS
 70
     0
  9
$HYPERLINKBASE
  1

  9
$STYLESHEET
  1
monochrome 1.ctb
  9
$XEDIT
290
     1
  9
$CEPSNTYPE
380
     0
  9
$PSTYLEMODE
290
     1
  9
$FINGERPRINTGUID
  2
{5FB5DE59-4758-4550-9D6E-98D0683C8784}
  9
$VERSIONGUID
  2
{3535CBF8-7DE4-4FF2-AB94-7FB9E26E16E9}
  9
$EXTNAMES
290
     1
  9
$PSVPSCALE
 40
0.0
  9
$OLESTARTUP
290
     0
  9
$SORTENTS
280
   127
  9
$INDEXCTL
280
     0
  9
$HIDETEXT
280
     1
  9
$XCLIPFRAME
290
     0
  9
$HALOGAP
280
     0
  9
$OBSCOLOR
 70
   257
  9
$OBSLTYPE
280
     0
  9
$INTERSECTIONDISPLAY
280
     0
  9
$INTERSECTIONCOLOR
 70
   257
  9
$DIMASSOC
280
     2
  9
$PROJECTNAME
  1

  0
ENDSEC
  0
SECTION
  2
CLASSES
  0
CLASS
  1
ACDBDICTIONARYWDFLT
  2
AcDbDictionaryWithDefault
  3
ObjectDBX Classes
 90
        0
 91
        1
280
     0
281
     0
  0
CLASS
  1
DICTIONARYVAR
  2
AcDbDictionaryVar
  3
ObjectDBX Classes
 90
        0
 91
        3
280
     0
281
     0
  0
CLASS
  1
DIMASSOC
  2
AcDbDimAssoc
  3
"AcDbDimAssoc|Product Desc:     AcDim ARX App For Dimension|Company:          Autodesk, Inc.|WEB Address:      www.autodesk.com"
 90
        0
 91
        7
280
     0
281
     0
  0
ENDSEC
  0
SECTION
  2
TABLES
  0
TABLE
  2
VPORT
  5
8
330
0
100
AcDbSymbolTable
 70
     2
  0
VPORT
  5
9EB
330
8
100
AcDbSymbolTableRecord
100
AcDbViewportTableRecord
  2
*Active
 70
     0
 10
0.0
 20
0.0
 11
1.0
 21
1.0
 12
105.0000019558819
 22
148.5000027661759
 13
0.0
 23
0.0
 14
1.0
 24
1.0
 15
10.0
 25
10.0
 16
0.0
 26
0.0
 36
1.0
 17
0.0
 27
0.0
 37
0.0
 40
299.4257939935581
 41
1.336927223719676
 42
50.0
 43
0.0
 44
0.0
 50
0.0
 51
0.0
 71
     0
 72
  1500
 73
     1
 74
     0
 75
     0
 76
     0
 77
     0
 78
     0
281
     0
 65
     1
110
0.0
120
0.0
130
0.0
111
1.0
121
0.0
131
0.0
112
0.0
122
1.0
132
0.0
 79
     0
146
0.0
  0
ENDTAB
  0
TABLE
  2
LTYPE
  5
5
330
0
100
AcDbSymbolTable
 70
     2
  0
LTYPE
  5
13
330
5
100
AcDbSymbolTableRecord
100
AcDbLinetypeTableRecord
  2
ByBlock
 70
     0
  3

 72
    65
 73
     0
 40
0.0
  0
LTYPE
  5
14
330
5
100
AcDbSymbolTableRecord
100
AcDbLinetypeTableRecord
  2
ByLayer
 70
     0
  3

 72
    65
 73
     0
 40
0.0
  0
LTYPE
  5
15
330
5
100
AcDbSymbolTableRecord
100
AcDbLinetypeTableRecord
  2
Continuous
 70
     0
  3
Solid line
 72
    65
 73
     0
 40
0.0
  0
LTYPE
  5
38
330
5
100
AcDbSymbolTableRecord
100
AcDbLinetypeTableRecord
  2
STRICHPUNKT
 70
     0
  3
__ . __ . __ . __ . __ . __ . __ . __ . __ . __
 72
    65
 73
     4
 40
1.0
 49
0.5
 74
     0
 49
-0.25
 74
     0
 49
0.0
 74
     0
 49
-0.25
 74
     0
  0
ENDTAB
  0
TABLE
  2
LAYER
  5
2
330
0
100
AcDbSymbolTable
 70
     9
  0
LAYER
  5
10
330
2
100
AcDbSymbolTableRecord
100
AcDbLayerTableRecord
  2
0
 70
     0
 62
     7
  6
Continuous
370
    -3
390
F
  0
LAYER
  5
3B
330
2
100
AcDbSymbolTableRecord
100
AcDbLayerTableRecord
  2
VOLL
 70
     0
 62
     1
  6
Continuous
370
    -3
390
F
  0
LAYER
  5
3C
330
2
100
AcDbSymbolTableRecord
100
AcDbLayerTableRecord
  2
HILF
 70
     0
 62
     2
  6
Continuous
370
    -3
390
F
  0
LAYER
  5
3D
330
2
100
AcDbSymbolTableRecord
100
AcDbLayerTableRecord
  2
MITTEL
 70
     0
 62
     2
  6
STRICHPUNKT
370
    -3
390
F
  0
LAYER
  5
3E
330
2
100
AcDbSymbolTableRecord
100
AcDbLayerTableRecord
  2
BEM
 70
     0
 62
     7
  6
Continuous
370
    -3
390
F
  0
LAYER
  5
3F
330
2
100
AcDbSymbolTableRecord
100
AcDbLayerTableRecord
  2
SCHRAFF
 70
     0
 62
     7
  6
Continuous
370
    -3
390
F
  0
LAYER
  5
40
330
2
100
AcDbSymbolTableRecord
100
AcDbLayerTableRecord
  2
STEMPEL
 70
     0
 62
     3
  6
Continuous
370
    -3
390
F
  0
LAYER
  5
41
330
2
100
AcDbSymbolTableRecord
100
AcDbLayerTableRecord
  2
DEFPOINTS
 70
     0
 62
     7
  6
Continuous
290
     0
370
    -3
390
F
  0
LAYER
  5
42
330
2
100
AcDbSymbolTableRecord
100
AcDbLayerTableRecord
  2
TEXT
 70
     0
 62
     7
  6
Continuous
370
    -3
390
F
  0
ENDTAB
  0
TABLE
  2
STYLE
  5
3
330
0
100
AcDbSymbolTable
 70
     2
  0
STYLE
  5
11
330
3
100
AcDbSymbolTableRecord
100
AcDbTextStyleTableRecord
  2
STANDARD
 70
     0
 40
0.0
 41
0.8
 50
0.0
 71
     0
 42
3.5
  3
simplex.shx
  4

  0
STYLE
  5
37
330
3
100
AcDbSymbolTableRecord
100
AcDbTextStyleTableRecord
  2
GREEKS
 70
     0
 40
0.0
 41
0.8
 50
0.0
 71
     0
 42
3.5
  3
SIMPLEX.shx
  4

  0
ENDTAB
  0
TABLE
  2
VIEW
  5
6
330
0
100
AcDbSymbolTable
 70
     0
  0
ENDTAB
  0
TABLE
  2
UCS
  5
7
330
0
100
AcDbSymbolTable
 70
     0
  0
ENDTAB
  0
TABLE
  2
APPID
  5
9
330
0
100
AcDbSymbolTable
 70
     1
  0
APPID
  5
12
330
9
100
AcDbSymbolTableRecord
100
AcDbRegAppTableRecord
  2
ACAD
 70
     0
  0
ENDTAB
  0
TABLE
  2
DIMSTYLE
  5
A
330
0
100
AcDbSymbolTable
 70
     1
100
AcDbDimStyleTable
 71
     1
340
20F
  0
DIMSTYLE
105
20F
102
{ACAD_REACTORS
330
8DA
330
8F2
330
90A
330
922
330
95E
330
976
330
98E
102
}
330
A
100
AcDbSymbolTableRecord
100
AcDbDimStyleTableRecord
  2
Standard
 70
     0
340
11
  0
ENDTAB
  0
TABLE
  2
BLOCK_RECORD
  5
1
330
0
100
AcDbSymbolTable
 70
     7
  0
BLOCK_RECORD
  5
20
330
1
100
AcDbSymbolTableRecord
100
AcDbBlockTableRecord
  2
*Model_Space
340
23
  0
BLOCK_RECORD
  5
1C
330
1
100
AcDbSymbolTableRecord
100
AcDbBlockTableRecord
  2
*Paper_Space
340
1F
  0
BLOCK_RECORD
  5
8DB
330
1
100
AcDbSymbolTableRecord
100
AcDbBlockTableRecord
  2
*D0
340
0
  0
BLOCK_RECORD
  5
8F3
330
1
100
AcDbSymbolTableRecord
100
AcDbBlockTableRecord
  2
*D1
340
0
  0
BLOCK_RECORD
  5
90B
330
1
100
AcDbSymbolTableRecord
100
AcDbBlockTableRecord
  2
*D2
340
0
  0
BLOCK_RECORD
  5
923
330
1
100
AcDbSymbolTableRecord
100
AcDbBlockTableRecord
  2
*D3
340
0
  0
BLOCK_RECORD
  5
95F
330
1
100
AcDbSymbolTableRecord
100
AcDbBlockTableRecord
  2
*D4
340
0
  0
BLOCK_RECORD
  5
977
330
1
100
AcDbSymbolTableRecord
100
AcDbBlockTableRecord
  2
*D5
340
0
  0
BLOCK_RECORD
  5
98F
330
1
100
AcDbSymbolTableRecord
100
AcDbBlockTableRecord
  2
*D6
340
0
  0
ENDTAB
  0
ENDSEC
  0
SECTION
  2
BLOCKS
  0
BLOCK
  5
46
330
20
100
AcDbEntity
  8
0
100
AcDbBlockBegin
  2
*Model_Space
 70
     0
 10
0.0
 20
0.0
 30
0.0
  3
*Model_Space
  1

  0
ENDBLK
  5
47
330
20
100
AcDbEntity
  8
0
100
AcDbBlockEnd
  0
BLOCK
  5
44
330
1C
100
AcDbEntity
 67
     1
  8
0
100
AcDbBlockBegin
  2
*Paper_Space
 70
     0
 10
0.0
 20
0.0
 30
0.0
  3
*Paper_Space
  1

  0
ENDBLK
  5
45
330
1C
100
AcDbEntity
 67
     1
  8
0
100
AcDbBlockEnd
  0
BLOCK
  5
8E5
330
8DB
100
AcDbEntity
  8
0
100
AcDbBlockBegin
  2
*D0
 70
     1
 10
0.0
 20
0.0
 30
0.0
  3
*D0
  1

  0
LINE
  5
943
330
8DB
100
AcDbEntity
  8
BEM
 62
     0
370
    -2
100
AcDbLine
 10
86.6489995993904
 20
162.5946300696998
 30
0.0
 11
86.6489995993904
 21
176.0569977243549
 31
0.0
  0
LINE
  5
944
330
8DB
100
AcDbEntity
  8
BEM
 62
     0
370
    -2
100
AcDbLine
 10
140.6489995993904
 20
162.5946300696996
 30
0.0
 11
140.6489995993904
 21
176.0569977243549
 31
0.0
  0
LINE
  5
945
330
8DB
100
AcDbEntity
  8
BEM
 62
     0
370
    -2
100
AcDbLine
 10
90.14899959939041
 20
175.0569977243549
 30
0.0
 11
137.1489995993904
 21
175.0569977243549
 31
0.0
  0
SOLID
  5
946
330
8DB
100
AcDbEntity
  8
BEM
 62
     0
100
AcDbTrace
 10
90.14899959939041
 20
175.6403310576882
 30
0.0
 11
90.14899959939041
 21
174.4736643910215
 31
0.0
 12
86.6489995993904
 22
175.0569977243549
 32
0.0
 13
86.6489995993904
 23
175.0569977243549
 33
0.0
  0
SOLID
  5
947
330
8DB
100
AcDbEntity
  8
BEM
 62
     0
100
AcDbTrace
 10
137.1489995993904
 20
175.6403310576882
 30
0.0
 11
137.1489995993904
 21
174.4736643910215
 31
0.0
 12
140.6489995993904
 22
175.0569977243549
 32
0.0
 13
140.6489995993904
 23
175.0569977243549
 33
0.0
  0
MTEXT
  5
948
330
8DB
100
AcDbEntity
  8
BEM
 62
     1
100
AcDbMText
 10
113.6489995993904
 20
178.3069977243549
 30
0.0
 40
3.5
 41
0.0
 71
     5
 72
     1
  1
\A1;%%c54
 73
     1
 44
1.0
  0
POINT
  5
949
330
8DB
100
AcDbEntity
  8
DEFPOINTS
 62
     0
100
AcDbPoint
 10
86.6489995993904
 20
161.5946300696998
 30
0.0
  0
POINT
  5
94A
330
8DB
100
AcDbEntity
  8
DEFPOINTS
 62
     0
100
AcDbPoint
 10
140.6489995993904
 20
161.5946300696996
 30
0.0
  0
POINT
  5
94B
330
8DB
100
AcDbEntity
  8
DEFPOINTS
 62
     0
100
AcDbPoint
 10
140.6489995993904
 20
175.0569977243549
 30
0.0
  0
ENDBLK
  5
8E6
330
8DB
100
AcDbEntity
  8
0
100
AcDbBlockEnd
  0
BLOCK
  5
8FD
330
8F3
100
AcDbEntity
  8
0
100
AcDbBlockBegin
  2
*D1
 70
     1
 10
0.0
 20
0.0
 30
0.0
  3
*D1
  1

  0
LINE
  5
93A
330
8F3
100
AcDbEntity
  8
BEM
 62
     0
370
    -2
100
AcDbLine
 10
145.6489995993904
 20
167.0946300696997
 30
0.0
 11
145.6489995993904
 21
182.9545842527923
 31
0.0
  0
LINE
  5
93B
330
8F3
100
AcDbEntity
  8
BEM
 62
     0
370
    -2
100
AcDbLine
 10
81.6489995993904
 20
167.0946300696997
 30
0.0
 11
81.6489995993904
 21
182.9545842527923
 31
0.0
  0
LINE
  5
93C
330
8F3
100
AcDbEntity
  8
BEM
 62
     0
370
    -2
100
AcDbLine
 10
142.1489995993904
 20
181.9545842527923
 30
0.0
 11
85.14899959939041
 21
181.9545842527923
 31
0.0
  0
SOLID
  5
93D
330
8F3
100
AcDbEntity
  8
BEM
 62
     0
100
AcDbTrace
 10
142.1489995993904
 20
182.5379175861256
 30
0.0
 11
142.1489995993904
 21
181.3712509194589
 31
0.0
 12
145.6489995993904
 22
181.9545842527923
 32
0.0
 13
145.6489995993904
 23
181.9545842527923
 33
0.0
  0
SOLID
  5
93E
330
8F3
100
AcDbEntity
  8
BEM
 62
     0
100
AcDbTrace
 10
85.14899959939041
 20
182.5379175861256
 30
0.0
 11
85.14899959939041
 21
181.3712509194589
 31
0.0
 12
81.6489995993904
 22
181.9545842527923
 32
0.0
 13
81.6489995993904
 23
181.9545842527923
 33
0.0
  0
MTEXT
  5
93F
330
8F3
100
AcDbEntity
  8
BEM
 62
     1
100
AcDbMText
 10
113.6489995993904
 20
185.2045842527923
 30
0.0
 40
3.5
 41
0.0
 71
     5
 72
     1
  1
\A1;%%c64
 73
     1
 44
1.0
  0
POINT
  5
940
330
8F3
100
AcDbEntity
  8
DEFPOINTS
 62
     0
100
AcDbPoint
 10
145.6489995993904
 20
166.0946300696997
 30
0.0
  0
POINT
  5
941
330
8F3
100
AcDbEntity
  8
DEFPOINTS
 62
     0
100
AcDbPoint
 10
81.6489995993904
 20
166.0946300696997
 30
0.0
  0
POINT
  5
942
330
8F3
100
AcDbEntity
  8
DEFPOINTS
 62
     0
100
AcDbPoint
 10
81.6489995993904
 20
181.9545842527923
 30
0.0
  0
ENDBLK
  5
8FE
330
8F3
100
AcDbEntity
  8
0
100
AcDbBlockEnd
  0
BLOCK
  5
915
330
90B
100
AcDbEntity
  8
0
100
AcDbBlockBegin
  2
*D2
 70
     1
 10
0.0
 20
0.0
 30
0.0
  3
*D2
  1

  0
LINE
  5
94C
330
90B
100
AcDbEntity
  8
BEM
 62
     0
370
    -2
100
AcDbLine
 10
85.14899959939034
 20
132.5946300696996
 30
0.0
 11
85.14899959939034
 21
114.4869347283859
 31
0.0
  0
LINE
  5
94D
330
90B
100
AcDbEntity
  8
BEM
 62
     0
370
    -2
100
AcDbLine
 10
142.1489995993904
 20
132.5946300696996
 30
0.0
 11
142.1489995993904
 21
114.4869347283859
 31
0.0
  0
LINE
  5
94E
330
90B
100
AcDbEntity
  8
BEM
 62
     0
370
    -2
100
AcDbLine
 10
88.64899959939036
 20
115.4869347283859
 30
0.0
 11
138.6489995993904
 21
115.4869347283859
 31
0.0
  0
SOLID
  5
94F
330
90B
100
AcDbEntity
  8
BEM
 62
     0
100
AcDbTrace
 10
88.64899959939036
 20
116.0702680617192
 30
0.0
 11
88.64899959939036
 21
114.9036013950526
 31
0.0
 12
85.14899959939034
 22
115.4869347283859
 32
0.0
 13
85.14899959939034
 23
115.4869347283859
 33
0.0
  0
SOLID
  5
950
330
90B
100
AcDbEntity
  8
BEM
 62
     0
100
AcDbTrace
 10
138.6489995993904
 20
116.0702680617192
 30
0.0
 11
138.6489995993904
 21
114.9036013950526
 31
0.0
 12
142.1489995993904
 22
115.4869347283859
 32
0.0
 13
142.1489995993904
 23
115.4869347283859
 33
0.0
  0
MTEXT
  5
951
330
90B
100
AcDbEntity
  8
BEM
 62
     1
100
AcDbMText
 10
113.6489995993904
 20
118.7369347283859
 30
0.0
 40
3.5
 41
0.0
 71
     5
 72
     1
  1
\A1;%%c57
 73
     1
 44
1.0
  0
POINT
  5
952
330
90B
100
AcDbEntity
  8
DEFPOINTS
 62
     0
100
AcDbPoint
 10
85.14899959939034
 20
133.5946300696996
 30
0.0
  0
POINT
  5
953
330
90B
100
AcDbEntity
  8
DEFPOINTS
 62
     0
100
AcDbPoint
 10
142.1489995993904
 20
133.5946300696996
 30
0.0
  0
POINT
  5
954
330
90B
100
AcDbEntity
  8
DEFPOINTS
 62
     0
100
AcDbPoint
 10
142.1489995993904
 20
115.4869347283859
 30
0.0
  0
ENDBLK
  5
916
330
90B
100
AcDbEntity
  8
0
100
AcDbBlockEnd
  0
BLOCK
  5
92D
330
923
100
AcDbEntity
  8
0
100
AcDbBlockBegin
  2
*D3
 70
     1
 10
0.0
 20
0.0
 30
0.0
  3
*D3
  1

  0
LINE
  5
955
330
923
100
AcDbEntity
  8
BEM
 62
     0
370
    -2
100
AcDbLine
 10
144.4989995993904
 20
154.5946300696996
 30
0.0
 11
144.4989995993904
 21
106.6270882038718
 31
0.0
  0
LINE
  5
956
330
923
100
AcDbEntity
  8
BEM
 62
     0
370
    -2
100
AcDbLine
 10
82.79899959939038
 20
154.5946300696996
 30
0.0
 11
82.79899959939038
 21
106.6270882038718
 31
0.0
  0
LINE
  5
957
330
923
100
AcDbEntity
  8
BEM
 62
     0
370
    -2
100
AcDbLine
 10
140.9989995993904
 20
107.6270882038718
 30
0.0
 11
86.29899959939038
 21
107.6270882038718
 31
0.0
  0
SOLID
  5
958
330
923
100
AcDbEntity
  8
BEM
 62
     0
100
AcDbTrace
 10
140.9989995993904
 20
108.2104215372051
 30
0.0
 11
140.9989995993904
 21
107.0437548705385
 31
0.0
 12
144.4989995993904
 22
107.6270882038718
 32
0.0
 13
144.4989995993904
 23
107.6270882038718
 33
0.0
  0
SOLID
  5
959
330
923
100
AcDbEntity
  8
BEM
 62
     0
100
AcDbTrace
 10
86.29899959939038
 20
108.2104215372051
 30
0.0
 11
86.29899959939038
 21
107.0437548705385
 31
0.0
 12
82.79899959939038
 22
107.6270882038718
 32
0.0
 13
82.79899959939038
 23
107.6270882038718
 33
0.0
  0
MTEXT
  5
95A
330
923
100
AcDbEntity
  8
BEM
 62
     1
100
AcDbMText
 10
113.6489995993904
 20
110.8770882038718
 30
0.0
 40
3.5
 41
0.0
 71
     5
 72
     1
  1
\A1;%%c61.7
 73
     1
 44
1.0
  0
POINT
  5
95B
330
923
100
AcDbEntity
  8
DEFPOINTS
 62
     0
100
AcDbPoint
 10
144.4989995993904
 20
155.5946300696996
 30
0.0
  0
POINT
  5
95C
330
923
100
AcDbEntity
  8
DEFPOINTS
 62
     0
100
AcDbPoint
 10
82.79899959939038
 20
155.5946300696996
 30
0.0
  0
POINT
  5
95D
330
923
100
AcDbEntity
  8
DEFPOINTS
 62
     0
100
AcDbPoint
 10
82.79899959939038
 20
107.6270882038718
 30
0.0
  0
ENDBLK
  5
92E
330
923
100
AcDbEntity
  8
0
100
AcDbBlockEnd
  0
BLOCK
  5
969
330
95F
100
AcDbEntity
  8
0
100
AcDbBlockBegin
  2
*D4
 70
     1
 10
0.0
 20
0.0
 30
0.0
  3
*D4
  1

  0
LINE
  5
96C
330
95F
100
AcDbEntity
  8
BEM
 62
     0
370
    -2
100
AcDbLine
 10
84.64899959939041
 20
127.5946300696996
 30
0.0
 11
74.17243307007971
 21
127.5946300696996
 31
0.0
  0
LINE
  5
96D
330
95F
100
AcDbEntity
  8
BEM
 62
     0
370
    -2
100
AcDbLine
 10
80.6489995993904
 20
150.5946300696997
 30
0.0
 11
74.17243307007971
 21
150.5946300696997
 31
0.0
  0
LINE
  5
96E
330
95F
100
AcDbEntity
  8
BEM
 62
     0
370
    -2
100
AcDbLine
 10
75.1724330700797
 20
131.0946300696996
 30
0.0
 11
75.1724330700797
 21
147.0946300696997
 31
0.0
  0
SOLID
  5
96F
330
95F
100
AcDbEntity
  8
BEM
 62
     0
100
AcDbTrace
 10
74.58909973674638
 20
131.0946300696996
 30
0.0
 11
75.75576640341303
 21
131.0946300696996
 31
0.0
 12
75.1724330700797
 22
127.5946300696996
 32
0.0
 13
75.1724330700797
 23
127.5946300696996
 33
0.0
  0
SOLID
  5
970
330
95F
100
AcDbEntity
  8
BEM
 62
     0
100
AcDbTrace
 10
74.58909973674638
 20
147.0946300696997
 30
0.0
 11
75.75576640341303
 21
147.0946300696997
 31
0.0
 12
75.1724330700797
 22
150.5946300696997
 32
0.0
 13
75.1724330700797
 23
150.5946300696997
 33
0.0
  0
MTEXT
  5
971
330
95F
100
AcDbEntity
  8
BEM
 62
     1
100
AcDbMText
 10
71.92243307007969
 20
139.0946300696997
 30
0.0
 40
3.5
 41
0.0
 71
     5
 72
     1
  1
\A1;23
 11
0.0000000000000001
 21
1.0
 31
0.0
 73
     1
 44
1.0
  0
POINT
  5
972
330
95F
100
AcDbEntity
  8
DEFPOINTS
 62
     0
100
AcDbPoint
 10
85.6489995993904
 20
127.5946300696996
 30
0.0
  0
POINT
  5
973
330
95F
100
AcDbEntity
  8
DEFPOINTS
 62
     0
100
AcDbPoint
 10
81.6489995993904
 20
150.5946300696997
 30
0.0
  0
POINT
  5
974
330
95F
100
AcDbEntity
  8
DEFPOINTS
 62
     0
100
AcDbPoint
 10
75.1724330700797
 20
150.5946300696997
 30
0.0
  0
ENDBLK
  5
96A
330
95F
100
AcDbEntity
  8
0
100
AcDbBlockEnd
  0
BLOCK
  5
981
330
977
100
AcDbEntity
  8
0
100
AcDbBlockBegin
  2
*D5
 70
     1
 10
0.0
 20
0.0
 30
0.0
  3
*D5
  1

  0
LINE
  5
984
330
977
100
AcDbEntity
  8
BEM
 62
     0
370
    -2
100
AcDbLine
 10
84.64899959939041
 20
127.5946300696996
 30
0.0
 11
67.1724330700797
 21
127.5946300696996
 31
0.0
  0
LINE
  5
985
330
977
100
AcDbEntity
  8
BEM
 62
     0
370
    -2
100
AcDbLine
 10
80.6489995993904
 20
162.5946300696996
 30
0.0
 11
67.17243307007972
 21
162.5946300696996
 31
0.0
  0
LINE
  5
986
330
977
100
AcDbEntity
  8
BEM
 62
     0
370
    -2
100
AcDbLine
 10
68.1724330700797
 20
131.0946300696996
 30
0.0
 11
68.1724330700797
 21
159.0946300696996
 31
0.0
  0
SOLID
  5
987
330
977
100
AcDbEntity
  8
BEM
 62
     0
100
AcDbTrace
 10
67.58909973674637
 20
131.0946300696996
 30
0.0
 11
68.75576640341304
 21
131.0946300696996
 31
0.0
 12
68.1724330700797
 22
127.5946300696996
 32
0.0
 13
68.1724330700797
 23
127.5946300696996
 33
0.0
  0
SOLID
  5
988
330
977
100
AcDbEntity
  8
BEM
 62
     0
100
AcDbTrace
 10
67.58909973674637
 20
159.0946300696996
 30
0.0
 11
68.75576640341304
 21
159.0946300696996
 31
0.0
 12
68.17243307007972
 22
162.5946300696996
 32
0.0
 13
68.17243307007972
 23
162.5946300696996
 33
0.0
  0
MTEXT
  5
989
330
977
100
AcDbEntity
  8
BEM
 62
     1
100
AcDbMText
 10
64.92243307007969
 20
145.0946300696997
 30
0.0
 40
3.5
 41
0.0
 71
     5
 72
     1
  1
\A1;35
 11
0.0000000000000001
 21
1.0
 31
0.0
 73
     1
 44
1.0
  0
POINT
  5
98A
330
977
100
AcDbEntity
  8
DEFPOINTS
 62
     0
100
AcDbPoint
 10
85.6489995993904
 20
127.5946300696996
 30
0.0
  0
POINT
  5
98B
330
977
100
AcDbEntity
  8
DEFPOINTS
 62
     0
100
AcDbPoint
 10
81.6489995993904
 20
162.5946300696996
 30
0.0
  0
POINT
  5
98C
330
977
100
AcDbEntity
  8
DEFPOINTS
 62
     0
100
AcDbPoint
 10
68.17243307007972
 20
162.5946300696996
 30
0.0
  0
ENDBLK
  5
982
330
977
100
AcDbEntity
  8
0
100
AcDbBlockEnd
  0
BLOCK
  5
999
330
98F
100
AcDbEntity
  8
0
100
AcDbBlockBegin
  2
*D6
 70
     1
 10
0.0
 20
0.0
 30
0.0
  3
*D6
  1

  0
LINE
  5
99C
330
98F
100
AcDbEntity
  8
BEM
 62
     0
370
    -2
100
AcDbLine
 10
84.64899959939041
 20
127.5946300696996
 30
0.0
 11
60.17243307007971
 21
127.5946300696996
 31
0.0
  0
LINE
  5
99D
330
98F
100
AcDbEntity
  8
BEM
 62
     0
370
    -2
100
AcDbLine
 10
82.14899959939041
 20
167.5946300696997
 30
0.0
 11
60.17243307007972
 21
167.5946300696997
 31
0.0
  0
LINE
  5
99E
330
98F
100
AcDbEntity
  8
BEM
 62
     0
370
    -2
100
AcDbLine
 10
61.17243307007971
 20
131.0946300696997
 30
0.0
 11
61.17243307007972
 21
164.0946300696997
 31
0.0
  0
SOLID
  5
99F
330
98F
100
AcDbEntity
  8
BEM
 62
     0
100
AcDbTrace
 10
60.58909973674637
 20
131.0946300696997
 30
0.0
 11
61.75576640341304
 21
131.0946300696997
 31
0.0
 12
61.17243307007971
 22
127.5946300696996
 32
0.0
 13
61.17243307007971
 23
127.5946300696996
 33
0.0
  0
SOLID
  5
9A0
330
98F
100
AcDbEntity
  8
BEM
 62
     0
100
AcDbTrace
 10
60.58909973674638
 20
164.0946300696997
 30
0.0
 11
61.75576640341305
 21
164.0946300696997
 31
0.0
 12
61.17243307007972
 22
167.5946300696997
 32
0.0
 13
61.17243307007972
 23
167.5946300696997
 33
0.0
  0
MTEXT
  5
9A1
330
98F
100
AcDbEntity
  8
BEM
 62
     1
100
AcDbMText
 10
57.92243307007969
 20
147.5946300696997
 30
0.0
 40
3.5
 41
0.0
 71
     5
 72
     1
  1
\A1;40
 11
0.0000000000000001
 21
1.0
 31
0.0
 73
     1
 44
1.0
  0
POINT
  5
9A2
330
98F
100
AcDbEntity
  8
DEFPOINTS
 62
     0
100
AcDbPoint
 10
85.6489995993904
 20
127.5946300696996
 30
0.0
  0
POINT
  5
9A3
330
98F
100
AcDbEntity
  8
DEFPOINTS
 62
     0
100
AcDbPoint
 10
83.1489995993904
 20
167.5946300696997
 30
0.0
  0
POINT
  5
9A4
330
98F
100
AcDbEntity
  8
DEFPOINTS
 62
     0
100
AcDbPoint
 10
61.17243307007972
 20
167.5946300696997
 30
0.0
  0
ENDBLK
  5
99A
330
98F
100
AcDbEntity
  8
0
100
AcDbBlockEnd
  0
ENDSEC
  0
SECTION
  2
ENTITIES
  0
LINE
  5
144
330
20
100
AcDbEntity
  8
HILF
100
AcDbLine
 10
210.0
 20
0.0
 30
0.0
 11
0.0
 21
0.0
 31
0.0
  0
LINE
  5
145
330
20
100
AcDbEntity
  8
HILF
100
AcDbLine
 10
210.0
 20
297.0000000000001
 30
0.0
 11
0.0
 21
297.0
 31
0.0
  0
LINE
  5
146
330
20
100
AcDbEntity
  8
STEMPEL
100
AcDbLine
 10
205.0
 20
292.0
 30
0.0
 11
19.99999999999994
 21
292.0
 31
0.0
  0
LINE
  5
147
330
20
100
AcDbEntity
  8
STEMPEL
100
AcDbLine
 10
205.0
 20
5.0
 30
0.0
 11
19.99999999999994
 21
5.0
 31
0.0
  0
LINE
  5
148
330
20
100
AcDbEntity
  8
STEMPEL
100
AcDbLine
 10
24.99999999999995
 20
5.0
 30
0.0
 11
205.0
 21
5.0
 31
0.0
  0
LINE
  5
149
330
20
100
AcDbEntity
  8
HILF
100
AcDbLine
 10
111.7454849644942
 20
7.446991290141568
 30
0.0
 11
202.4294419663364
 21
7.446991290141568
 31
0.0
  0
LINE
  5
14A
330
20
100
AcDbEntity
  8
HILF
100
AcDbLine
 10
112.3868400548474
 20
24.99999999999999
 30
0.0
 11
162.4176958278155
 21
24.99999999999999
 31
0.0
  0
LINE
  5
14B
330
20
100
AcDbEntity
  8
HILF
100
AcDbLine
 10
112.3868400548474
 20
29.99999999999999
 30
0.0
 11
162.4176958278155
 21
29.99999999999999
 31
0.0
  0
LINE
  5
14C
330
20
100
AcDbEntity
  8
HILF
100
AcDbLine
 10
112.3868400548474
 20
34.99999999999997
 30
0.0
 11
162.4176958278155
 21
34.99999999999997
 31
0.0
  0
LINE
  5
14D
330
20
100
AcDbEntity
  8
HILF
100
AcDbLine
 10
112.3868400548474
 20
42.01879123782069
 30
0.0
 11
162.4176958278155
 21
42.01879123782069
 31
0.0
  0
LINE
  5
14E
330
20
100
AcDbEntity
  8
STEMPEL
100
AcDbLine
 10
205.0
 20
40.0
 30
0.0
 11
68.00000000000006
 21
39.99999999999997
 31
0.0
  0
LINE
  5
14F
330
20
100
AcDbEntity
  8
STEMPEL
100
AcDbLine
 10
205.0
 20
20.0
 30
0.0
 11
68.00000000000006
 21
19.99999999999998
 31
0.0
  0
LINE
  5
150
330
20
100
AcDbEntity
  8
STEMPEL
100
AcDbLine
 10
205.0
 20
55.00000000000003
 30
0.0
 11
19.99999999999998
 21
55.0
 31
0.0
  0
LINE
  5
154
330
20
100
AcDbEntity
  8
HILF
100
AcDbLine
 10
0.0
 20
0.0
 30
0.0
 11
-0.0000000000000568
 21
297.0
 31
0.0
  0
LINE
  5
155
330
20
100
AcDbEntity
  8
STEMPEL
100
AcDbLine
 10
20.0
 20
5.0
 30
0.0
 11
19.99999999999994
 21
292.0
 31
0.0
  0
TEXT
  5
15C
330
20
100
AcDbEntity
  8
TEXT
100
AcDbText
 10
21.16299821803051
 20
55.83599999999997
 30
0.0
 40
2.5
  1
Erstellt mit AUTOCAD 2004
 41
0.8
  7
GREEKS
100
AcDbText
  0
LINE
  5
15D
330
20
100
AcDbEntity
  8
HILF
100
AcDbLine
 10
20.00000000000004
 20
19.99999999999998
 30
0.0
 11
68.00000000000006
 21
19.99999999999998
 31
0.0
  0
LINE
  5
15E
330
20
100
AcDbEntity
  8
HILF
100
AcDbLine
 10
20.00000000000004
 20
24.99999999999999
 30
0.0
 11
68.00000000000006
 21
24.99999999999999
 31
0.0
  0
LINE
  5
15F
330
20
100
AcDbEntity
  8
HILF
100
AcDbLine
 10
20.00000000000004
 20
29.99999999999999
 30
0.0
 11
68.00000000000006
 21
29.99999999999999
 31
0.0
  0
LINE
  5
160
330
20
100
AcDbEntity
  8
HILF
100
AcDbLine
 10
20.00000000000004
 20
34.99999999999997
 30
0.0
 11
68.00000000000006
 21
34.99999999999997
 31
0.0
  0
LINE
  5
161
330
20
100
AcDbEntity
  8
HILF
100
AcDbLine
 10
20.00000000000004
 20
39.99999999999997
 30
0.0
 11
68.00000000000006
 21
39.99999999999997
 31
0.0
  0
LINE
  5
162
330
20
100
AcDbEntity
  8
HILF
100
AcDbLine
 10
20.00000000000004
 20
45.00000000000002
 30
0.0
 11
68.00000000000006
 21
45.00000000000002
 31
0.0
  0
LINE
  5
163
330
20
100
AcDbEntity
  8
HILF
100
AcDbLine
 10
20.00000000000004
 20
50.00000000000003
 30
0.0
 11
68.00000000000006
 21
50.00000000000003
 31
0.0
  0
LINE
  5
164
330
20
100
AcDbEntity
  8
STEMPEL
100
AcDbLine
 10
67.99999999999994
 20
14.99999999999998
 30
0.0
 11
19.99999999999998
 21
14.99999999999998
 31
0.0
  0
TEXT
  5
165
330
20
100
AcDbEntity
  8
TEXT
100
AcDbText
 10
49.79273626936724
 20
9.33578134669905
 30
0.0
 40
2.0
  1
Tag
 41
0.8
  7
GREEKS
 72
     1
 11
51.65940293603391
 21
9.33578134669905
 31
0.0
100
AcDbText
  0
TEXT
  5
166
330
20
100
AcDbEntity
  8
TEXT
100
AcDbText
 10
31.1234419470788
 20
9.336909474920659
 30
0.0
 40
2.0
  1
Änderung
 41
0.8
  7
GREEKS
 72
     1
 11
36.49487051850737
 21
9.336909474920659
 31
0.0
100
AcDbText
  0
TEXT
  5
167
330
20
100
AcDbEntity
  8
TEXT
100
AcDbText
 10
24.13320553522878
 20
6.827329230135958
 30
0.0
 40
1.8
  1
Index
 50
90.0
 41
0.8
  7
GREEKS
100
AcDbText
  0
LINE
  5
168
330
20
100
AcDbEntity
  8
VOLL
100
AcDbLine
 10
57.00000000000006
 20
54.99999999999997
 30
0.0
 11
57.0
 21
4.999999999999985
 31
0.0
  0
LINE
  5
169
330
20
100
AcDbEntity
  8
VOLL
100
AcDbLine
 10
47.00000000000005
 20
54.99999999999997
 30
0.0
 11
47.0
 21
4.999999999999985
 31
0.0
  0
LINE
  5
16A
330
20
100
AcDbEntity
  8
VOLL
100
AcDbLine
 10
27.00000000000005
 20
55.00000000000003
 30
0.0
 11
26.99999999999999
 21
4.999999999999985
 31
0.0
  0
LINE
  5
16E
330
20
100
AcDbEntity
  8
HILF
100
AcDbLine
 10
15.54383567856928
 20
148.5
 30
0.0
 11
0.0000000000000568
 21
148.5
 31
0.0
  0
TEXT
  5
17F
330
20
100
AcDbEntity
  8
TEXT
100
AcDbText
 10
92.14294773670257
 20
51.20920842174095
 30
0.0
 40
2.5
  1
Zul. Abw.
 41
0.8
  7
GREEKS
100
AcDbText
  0
LINE
  5
180
330
20
100
AcDbEntity
  8
HILF
100
AcDbLine
 10
68.00000000000006
 20
24.99999999999999
 30
0.0
 11
110.0
 21
24.99999999999999
 31
0.0
  0
LINE
  5
181
330
20
100
AcDbEntity
  8
HILF
100
AcDbLine
 10
68.00000000000006
 20
29.99999999999999
 30
0.0
 11
110.0
 21
29.99999999999999
 31
0.0
  0
LINE
  5
182
330
20
100
AcDbEntity
  8
HILF
100
AcDbLine
 10
68.00000000000006
 20
34.99999999999997
 30
0.0
 11
110.0
 21
34.99999999999997
 31
0.0
  0
ARC
  5
183
330
20
100
AcDbEntity
  8
TEXT
 62
     3
100
AcDbCircle
 10
82.09750516967082
 20
13.23892712376011
 30
0.0
 40
4.5
100
AcDbArc
 50
270.0
 51
231.0575587310159
  0
ARC
  5
184
330
20
100
AcDbEntity
  8
TEXT
 62
     3
100
AcDbCircle
 10
102.0975051696708
 20
13.23892712376014
 30
0.0
 40
4.5
100
AcDbArc
 50
270.0
 51
231.0575587310182
  0
LINE
  5
185
330
20
100
AcDbEntity
  8
TEXT
 62
     3
100
AcDbLine
 10
88.09750516967083
 20
17.73892712376014
 30
0.0
 11
88.09750516967085
 21
8.738927123760138
 31
0.0
  0
ARC
  5
186
330
20
100
AcDbEntity
  8
TEXT
 62
     3
100
AcDbCircle
 10
75.09750516967085
 20
10.73892712376028
 30
0.0
 40
2.0
100
AcDbArc
 50
179.9999999999992
 51
270.0
  0
LINE
  5
187
330
20
100
AcDbEntity
  8
TEXT
 62
     3
100
AcDbLine
 10
89.09750516967084
 20
12.73892712376014
 30
0.0
 11
89.09750516967084
 21
8.738927123760166
 31
0.0
  0
LINE
  5
188
330
20
100
AcDbEntity
  8
TEXT
 62
     3
100
AcDbLine
 10
93.09750516967085
 20
12.73892712376014
 30
0.0
 11
94.16930193939533
 21
8.738927123760138
 31
0.0
  0
LINE
  5
189
330
20
100
AcDbEntity
  8
STEMPEL
100
AcDbLine
 10
68.00000000000006
 20
54.99999999999997
 30
0.0
 11
68.0
 21
4.999999999999985
 31
0.0
  0
LINE
  5
18A
330
20
100
AcDbEntity
  8
TEXT
 62
     3
100
AcDbLine
 10
82.09750516967085
 20
8.738927123760166
 30
0.0
 11
75.09750516967085
 21
8.738927123760138
 31
0.0
  0
LINE
  5
18B
330
20
100
AcDbEntity
  8
TEXT
 62
     3
100
AcDbLine
 10
102.0975051696708
 20
8.738927123760138
 30
0.0
 11
94.1693019393953
 21
8.738927123760166
 31
0.0
  0
LINE
  5
18C
330
20
100
AcDbEntity
  8
TEXT
 62
     3
100
AcDbLine
 10
89.09750516967084
 20
8.738927123760166
 30
0.0
 11
88.09750516967085
 21
8.738927123760166
 31
0.0
  0
CIRCLE
  5
18D
330
20
100
AcDbEntity
  8
TEXT
 62
     3
100
AcDbCircle
 10
82.09750516967082
 20
13.23892712376011
 30
0.0
 40
3.5
  0
TEXT
  5
18E
330
20
100
AcDbEntity
  8
TEXT
100
AcDbText
 10
80.16366688624525
 20
31.6381230352273
 30
0.0
 40
2.0
  1
24.06.
 41
0.8
  7
GREEKS
 72
     1
 11
83.66842879100715
 21
31.6381230352273
 31
0.0
100
AcDbText
  0
TEXT
  5
18F
330
20
100
AcDbEntity
  8
TEXT
100
AcDbText
 10
81.16558365768254
 20
36.65940250614963
 30
0.0
 40
1.8
  1
Tag
 41
0.8
  7
GREEKS
100
AcDbText
  0
TEXT
  5
190
330
20
100
AcDbEntity
  8
TEXT
100
AcDbText
 10
71.75817860751886
 20
51.23104475435443
 30
0.0
 40
2.5
  1
Maßstab
 41
0.8
  7
GREEKS
100
AcDbText
  0
TEXT
  5
191
330
20
100
AcDbEntity
  8
TEXT
100
AcDbText
 10
68.79180635838077
 20
31.81495184808982
 30
0.0
 40
1.8
  1
Gez.
 41
0.8
  7
GREEKS
100
AcDbText
  0
LINE
  5
192
330
20
100
AcDbEntity
  8
VOLL
100
AcDbLine
 10
77.00000000000006
 20
39.99999999999997
 30
0.0
 11
77.00000000000006
 21
19.99999999999998
 31
0.0
  0
TEXT
  5
193
330
20
100
AcDbEntity
  8
TEXT
100
AcDbText
 10
68.80033886936519
 20
21.76473194824904
 30
0.0
 40
1.8
  1
Norm.
 41
0.8
  7
GREEKS
100
AcDbText
  0
TEXT
  5
194
330
20
100
AcDbEntity
  8
TEXT
100
AcDbText
 10
68.77575432858361
 20
26.84463145714189
 30
0.0
 40
1.8
  1
Gepr.
 41
0.8
  7
GREEKS
100
AcDbText
  0
TEXT
  5
195
330
20
100
AcDbEntity
  8
TEXT
100
AcDbText
 10
59.44494414379217
 20
9.29662108483204
 30
0.0
 40
2.0
  1
Name
 41
0.8
  7
GREEKS
 72
     1
 11
62.60684890569694
 21
9.29662108483204
 31
0.0
100
AcDbText
  0
LINE
  5
197
330
20
100
AcDbEntity
  8
TEXT
 62
     3
100
AcDbLine
 10
79.26907804492447
 20
9.738927123760252
 30
0.0
 11
75.09750516967085
 21
9.73892712376028
 31
0.0
  0
LINE
  5
198
330
20
100
AcDbEntity
  8
TEXT
 62
     3
100
AcDbLine
 10
74.09750516967083
 20
17.73892712376008
 30
0.0
 11
74.09750516967085
 21
10.73892712376028
 31
0.0
  0
LINE
  5
199
330
20
100
AcDbEntity
  8
TEXT
 62
     3
100
AcDbLine
 10
73.09750516967082
 20
17.73892712376008
 30
0.0
 11
73.09750516967085
 21
10.73892712376028
 31
0.0
  0
ARC
  5
19A
330
20
100
AcDbEntity
  8
TEXT
 62
     3
100
AcDbCircle
 10
75.09750516967085
 20
10.73892712376028
 30
0.0
 40
1.0
100
AcDbArc
 50
180.0
 51
270.0
  0
LINE
  5
19B
330
20
100
AcDbEntity
  8
TEXT
 62
     3
100
AcDbLine
 10
74.09750516967083
 20
17.73892712376014
 30
0.0
 11
73.09750516967082
 21
17.73892712376014
 31
0.0
  0
TEXT
  5
19C
330
20
100
AcDbEntity
  8
TEXT
100
AcDbText
 10
69.31105491105199
 20
36.57012735575833
 30
0.0
 40
1.8
  1
2008
 41
0.8
  7
GREEKS
100
AcDbText
  0
TEXT
  5
19E
330
20
100
AcDbEntity
  8
TEXT
 62
     1
100
AcDbText
 10
75.62939046306187
 20
43.47879250756998
 30
0.0
 40
3.5
  1
1:1
 41
0.8
  7
GREEKS
100
AcDbText
  0
TEXT
  5
19F
330
20
100
AcDbEntity
  8
TEXT
100
AcDbText
 10
97.42845740347638
 20
31.54481959861755
 30
0.0
 40
2.0
  1
Koeh
 41
0.8
  7
GREEKS
 72
     1
 11
100.0570288320478
 21
31.54481959861755
 31
0.0
100
AcDbText
  0
LINE
  5
1A0
330
20
100
AcDbEntity
  8
VOLL
100
AcDbLine
 10
90.00000000000005
 20
54.99999999999992
 30
0.0
 11
90.0
 21
19.99999999999998
 31
0.0
  0
LINE
  5
1A1
330
20
100
AcDbEntity
  8
TEXT
 62
     3
100
AcDbLine
 10
99.26907804492465
 20
9.738927123760138
 30
0.0
 11
94.93662892737432
 21
9.738927123760166
 31
0.0
  0
LINE
  5
1A2
330
20
100
AcDbEntity
  8
TEXT
 62
     3
100
AcDbLine
 10
93.09750516967085
 20
12.73892712376014
 30
0.0
 11
89.09750516967083
 21
12.73892712376014
 31
0.0
  0
LINE
  5
1A3
330
20
100
AcDbEntity
  8
TEXT
 62
     3
100
AcDbLine
 10
93.09750516967085
 20
13.73892712376014
 30
0.0
 11
89.09750516967084
 21
13.73892712376014
 31
0.0
  0
LINE
  5
1A4
330
20
100
AcDbEntity
  8
TEXT
 62
     3
100
AcDbLine
 10
93.09750516967085
 20
16.73892712376014
 30
0.0
 11
89.09750516967084
 21
16.73892712376014
 31
0.0
  0
LINE
  5
1A5
330
20
100
AcDbEntity
  8
TEXT
 62
     3
100
AcDbLine
 10
93.09750516967085
 20
17.73892712376014
 30
0.0
 11
88.09750516967085
 21
17.73892712376014
 31
0.0
  0
LINE
  5
1A6
330
20
100
AcDbEntity
  8
TEXT
 62
     3
100
AcDbLine
 10
89.09750516967084
 20
16.73892712376014
 30
0.0
 11
89.09750516967084
 21
13.73892712376014
 31
0.0
  0
ARC
  5
1A7
330
20
100
AcDbEntity
  8
TEXT
 62
     3
100
AcDbCircle
 10
93.09750516967085
 20
15.23892712376014
 30
0.0
 40
2.5
100
AcDbArc
 50
293.1161887722295
 51
90.0
  0
ARC
  5
1A8
330
20
100
AcDbEntity
  8
TEXT
 62
     3
100
AcDbCircle
 10
93.09750516967085
 20
15.23892712376014
 30
0.0
 40
1.5
100
AcDbArc
 50
270.0
 51
90.0
  0
ARC
  5
1A9
330
20
100
AcDbEntity
  8
TEXT
 62
     3
100
AcDbCircle
 10
93.09750516967085
 20
15.23892712376014
 30
0.0
 40
2.5
100
AcDbArc
 50
270.0
 51
270.0000000000007
  0
LINE
  5
1AA
330
20
100
AcDbEntity
  8
TEXT
 62
     3
100
AcDbLine
 10
94.06343099595991
 20
12.99774616886265
 30
0.0
 11
94.93662892737431
 21
9.738927123760166
 31
0.0
  0
CIRCLE
  5
1AB
330
20
100
AcDbEntity
  8
TEXT
 62
     3
100
AcDbCircle
 10
102.0975051696708
 20
13.23892712376014
 30
0.0
 40
3.5
  0
TEXT
  5
1AC
330
20
100
AcDbEntity
  8
TEXT
100
AcDbText
 10
91.3473965120978
 20
44.64562352614806
 30
0.0
 40
2.0
  1
DIN EN1123-2
 41
0.8
  7
GREEKS
 72
     1
 11
99.8426346073359
 21
44.64562352614806
 31
0.0
100
AcDbText
  0
TEXT
  5
1AD
330
20
100
AcDbEntity
  8
TEXT
100
AcDbText
 10
96.23132921131475
 20
36.65480545957612
 30
0.0
 40
1.8
  1
Name
 41
0.8
  7
GREEKS
100
AcDbText
  0
LINE
  5
1AE
330
20
100
AcDbEntity
  8
STEMPEL
100
AcDbLine
 10
110.0
 20
55.00000000000003
 30
0.0
 11
110.0
 21
4.999999999999985
 31
0.0
  0
TEXT
  5
1AF
330
20
100
AcDbEntity
  8
TEXT
100
AcDbText
 10
112.5648195562657
 20
25.82005971521079
 30
0.0
 40
2.5
  1
EDV-Art.Nr. 00918.050X
 41
0.8
  7
GREEKS
100
AcDbText
  0
TEXT
  5
1B0
330
20
100
AcDbEntity
  8
TEXT
100
AcDbText
 10
112.371119195568
 20
15.42280285096528
 30
0.0
 40
2.5
  1
Bauvorhaben
 41
0.8
  7
GREEKS
100
AcDbText
  0
TEXT
  5
1B1
330
20
100
AcDbEntity
  8
TEXT
 62
     1
100
AcDbText
 10
113.4467865528701
 20
43.70874394626889
 30
0.0
 40
3.5
  1
Dichtelement DN50
 41
0.8
  7
GREEKS
100
AcDbText
  0
TEXT
  5
1B2
330
20
100
AcDbEntity
  8
TEXT
100
AcDbText
 10
112.4918750788913
 20
21.31487076511316
 30
0.0
 40
1.8
  1
00918050W.DWG
 41
0.8
  7
GREEKS
100
AcDbText
  0
TEXT
  5
1B3
330
20
100
AcDbEntity
  8
TEXT
100
AcDbText
 10
112.4389701904505
 20
51.27446640058898
 30
0.0
 40
2.5
  1
Benennung
 41
0.8
  7
GREEKS
100
AcDbText
  0
LINE
  5
1EF
330
20
100
AcDbEntity
  8
HILF
100
AcDbLine
 10
210.0
 20
-0.0000000000000568
 30
0.0
 11
210.0
 21
297.0
 31
0.0
  0
LINE
  5
1F0
330
20
100
AcDbEntity
  8
STEMPEL
100
AcDbLine
 10
205.0
 20
55.00000000000003
 30
0.0
 11
205.0
 21
292.0
 31
0.0
  0
LINE
  5
1F1
330
20
100
AcDbEntity
  8
STEMPEL
100
AcDbLine
 10
205.0
 20
55.00000000000003
 30
0.0
 11
205.0
 21
5.0
 31
0.0
  0
TEXT
  5
1F2
330
20
100
AcDbEntity
  8
TEXT
 62
     1
100
AcDbText
 10
173.7505192313636
 20
44.07450714456979
 30
0.0
 40
3.5
  1
00918050W
 41
0.8
  7
GREEKS
 72
     1
 11
185.483852564697
 21
44.07450714456979
 31
0.0
100
AcDbText
  0
TEXT
  5
1F4
330
20
100
AcDbEntity
  8
TEXT
100
AcDbText
 10
168.6200430748503
 20
26.03708088939301
 30
0.0
 40
2.5
  1
ersetzt durch:
 41
0.8
  7
GREEKS
100
AcDbText
  0
TEXT
  5
1F5
330
20
100
AcDbEntity
  8
TEXT
100
AcDbText
 10
168.3619308148496
 20
36.59059118549985
 30
0.0
 40
2.5
  1
Ersatz für:
 41
0.8
  7
GREEKS
100
AcDbText
  0
TEXT
  5
1F6
330
20
100
AcDbEntity
  8
TEXT
100
AcDbText
 10
168.089377478817
 20
51.15660172685682
 30
0.0
 40
2.5
  1
Zeichnungs Nr.
 41
0.8
  7
GREEKS
100
AcDbText
  0
LINE
  5
1F7
330
20
100
AcDbEntity
  8
HILF
100
AcDbLine
 10
168.3619308148496
 20
41.88991818477913
 30
0.0
 11
202.4294419663364
 21
41.88991818477913
 31
0.0
  0
LINE
  5
1F8
330
20
100
AcDbEntity
  8
VOLL
100
AcDbLine
 10
166.0
 20
30.0
 30
0.0
 11
205.0
 21
30.0
 31
0.0
  0
LINE
  5
1F9
330
20
100
AcDbEntity
  8
STEMPEL
100
AcDbLine
 10
166.0
 20
54.99999999999989
 30
0.0
 11
166.0
 21
20.0
 31
0.0
  0
TEXT
  5
208
330
20
100
AcDbEntity
  8
TEXT
100
AcDbText
 10
99.8426346073359
 20
42.01939489256613
 30
0.0
 40
2.0
  1

 41
0.8
  7
GREEKS
 72
     1
 11
99.8426346073359
 21
42.01939489256613
 31
0.0
100
AcDbText
  0
TEXT
  5
249
330
20
100
AcDbEntity
  8
BEM
100
AcDbText
 10
208.2905770718719
 20
6.074024076691515
 30
0.0
 40
2.0
  1
Diese Zeichnung ist urheberrechtlich geschützt und bleibt unser Eigentum. Sie darf weder ganz noch teilweise vervielfältigt und nicht an Dritte weitergegeben werden.
 50
90.0
 41
0.8
  7
GREEKS
100
AcDbText
  0
TEXT
  5
6C8
330
20
100
AcDbEntity
  8
TEXT
 62
     1
100
AcDbText
 10
33.62922931407434
 20
214.9296284619235
 30
0.0
 40
3.5
  1
Gravur: EN 1123 LORO DN50 VAC TG Nest.Nr. WC Jahreszahl
 41
0.8
  7
GREEKS
100
AcDbText
  0
LINE
  5
6C9
330
20
100
AcDbEntity
  8
TEXT
 62
     2
100
AcDbLine
 10
47.34246845462692
 20
213.0052224155502
 30
0.0
 11
33.62922931407434
 21
213.0052224155502
 31
0.0
  0
ARC
  5
6CA
330
20
100
AcDbEntity
  8
TEXT
 62
     2
100
AcDbCircle
 10
181.9979087851111
 20
225.5548219061759
 30
0.0
 40
1.873481366226997
100
AcDbArc
 50
268.4391661543623
 51
0.9693128199328235
  0
ARC
  5
6CB
330
20
100
AcDbEntity
  8
TEXT
 62
     2
100
AcDbCircle
 10
185.744335323913
 20
225.5548219061759
 30
0.0
 40
1.873481366226997
100
AcDbArc
 50
179.0306871800672
 51
271.5608338456491
  0
ARC
  5
6CC
330
20
100
AcDbEntity
  8
TEXT
 62
     2
100
AcDbCircle
 10
195.7651311986657
 20
221.8092494163628
 30
0.0
 40
1.873481366226997
100
AcDbArc
 50
359.0306871800672
 51
91.56083384564263
  0
ARC
  5
6CD
330
20
100
AcDbEntity
  8
TEXT
 62
     2
100
AcDbCircle
 10
171.80000606058
 20
221.8092494163628
 30
0.0
 40
1.873481366226997
100
AcDbArc
 50
88.43916615436063
 51
180.9693128199328
  0
LINE
  5
6CE
330
20
100
AcDbEntity
  8
TEXT
 62
     2
100
AcDbLine
 10
185.7953658096696
 20
223.6820356612694
 30
0.0
 11
195.7141007129092
 21
223.6820356612694
 31
0.0
  0
LINE
  5
6CF
330
20
100
AcDbEntity
  8
TEXT
 62
     2
100
AcDbLine
 10
171.8510365463363
 20
223.6820356612693
 30
0.0
 11
181.9468782993549
 21
223.6820356612694
 31
0.0
  0
TEXT
  5
6D0
330
20
100
AcDbEntity
  8
TEXT
 62
     2
100
AcDbText
 10
169.3052304074449
 20
227.6972652306544
 30
0.0
 40
2.0
  1
Raster für weitere Jahre
 41
0.8
  7
GREEKS
100
AcDbText
  0
LINE
  5
6D1
330
20
100
AcDbEntity
  8
TEXT
 62
     1
100
AcDbLine
 10
169.7726077710651
 20
216.7004590418786
 30
0.0
 11
197.7726077710653
 21
216.7004590418786
 31
0.0
  0
LINE
  5
6D2
330
20
100
AcDbEntity
  8
TEXT
 62
     1
100
AcDbLine
 10
197.7726077710653
 20
218.7846594818912
 30
0.0
 11
197.7726077710653
 21
214.6162586018659
 31
0.0
  0
LINE
  5
6D3
330
20
100
AcDbEntity
  8
TEXT
 62
     1
100
AcDbLine
 10
193.7726077710653
 20
218.7846594818912
 30
0.0
 11
193.7726077710653
 21
214.6162586018659
 31
0.0
  0
LINE
  5
6D4
330
20
100
AcDbEntity
  8
TEXT
 62
     1
100
AcDbLine
 10
189.7726077710651
 20
218.7846594818912
 30
0.0
 11
189.7726077710651
 21
214.6162586018659
 31
0.0
  0
LINE
  5
6D5
330
20
100
AcDbEntity
  8
TEXT
 62
     1
100
AcDbLine
 10
185.7726077710651
 20
218.7846594818912
 30
0.0
 11
185.7726077710651
 21
214.6162586018659
 31
0.0
  0
LINE
  5
6D6
330
20
100
AcDbEntity
  8
TEXT
 62
     1
100
AcDbLine
 10
181.7726077710651
 20
218.7846594818912
 30
0.0
 11
181.7726077710651
 21
214.6162586018659
 31
0.0
  0
LINE
  5
6D7
330
20
100
AcDbEntity
  8
TEXT
 62
     1
100
AcDbLine
 10
177.7726077710651
 20
218.7846594818912
 30
0.0
 11
177.7726077710651
 21
214.6162586018659
 31
0.0
  0
LINE
  5
6D8
330
20
100
AcDbEntity
  8
TEXT
 62
     1
100
AcDbLine
 10
173.7726077710652
 20
218.7846594818912
 30
0.0
 11
173.7726077710652
 21
214.6162586018659
 31
0.0
  0
LINE
  5
6D9
330
20
100
AcDbEntity
  8
TEXT
 62
     1
100
AcDbLine
 10
169.7726077710651
 20
218.7846594818912
 30
0.0
 11
169.7726077710651
 21
214.6162586018659
 31
0.0
  0
LINE
  5
6DA
330
20
100
AcDbEntity
  8
TEXT
 62
     2
100
AcDbLine
 10
81.6489995993904
 20
164.3446300696997
 30
0.0
 11
33.62922931407434
 21
213.0052224155502
 31
0.0
  0
TEXT
  5
6E1
330
20
100
AcDbEntity
  8
TEXT
 62
     1
100
AcDbText
 10
61.52946099999957
 20
63.88889191869274
 30
0.0
 40
3.5
  1
Farbe: schwarz
 41
0.8
  7
GREEKS
100
AcDbText
  0
TEXT
  5
6E2
330
20
100
AcDbEntity
  8
TEXT
 62
     1
100
AcDbText
 10
53.73208176830274
 20
70.18630682328264
 30
0.0
 40
3.5
  1
Werkstoff: Äthylen-Propylen-Dien-Kautschuk (EPDM) 50%%p5 IRHD
 41
0.8
  7
GREEKS
100
AcDbText
  0
TEXT
  5
6E3
330
20
100
AcDbEntity
  8
TEXT
100
AcDbText
 10
112.5648195562657
 20
35.82005971521077
 30
0.0
 40
2.5
  1
für LORO-X-VAC
 41
0.8
  7
GREEKS
100
AcDbText
  0
LINE
  5
88A
330
20
100
AcDbEntity
  8
HILF
100
AcDbLine
 10
88.33263088831012
 20
148.7465538583462
 30
0.0
 11
138.9653683104707
 21
148.7465538583462
 31
0.0
  0
LINE
  5
88B
330
20
100
AcDbEntity
  8
HILF
100
AcDbLine
 10
88.06786076930624
 20
152.7239871645578
 30
0.0
 11
139.2301384294745
 21
152.7239871645578
 31
0.0
  0
LINE
  5
88C
102
{ACAD_REACTORS
330
9E0
102
}
330
20
100
AcDbEntity
  8
STEMPEL
100
AcDbLine
 10
145.6489995993904
 20
162.5946300696996
 30
0.0
 11
145.6489995993904
 21
166.0946300696997
 31
0.0
  0
ARC
  5
88D
102
{ACAD_REACTORS
330
909
330
9E0
102
}
330
20
100
AcDbEntity
  8
STEMPEL
100
AcDbCircle
 10
144.1489995993904
 20
166.0946300696997
 30
0.0
 40
1.5
100
AcDbArc
 50
0.0
 51
90.0
  0
ARC
  5
88E
102
{ACAD_REACTORS
330
9E0
102
}
330
20
100
AcDbEntity
  8
STEMPEL
100
AcDbCircle
 10
83.1489995993904
 20
166.0946300696997
 30
0.0
 40
1.5
100
AcDbArc
 50
90.0
 51
180.0
  0
LINE
  5
88F
102
{ACAD_REACTORS
330
909
330
9E0
102
}
330
20
100
AcDbEntity
  8
STEMPEL
100
AcDbLine
 10
81.6489995993904
 20
162.5946300696996
 30
0.0
 11
81.6489995993904
 21
166.0946300696997
 31
0.0
  0
LINE
  5
890
102
{ACAD_REACTORS
330
9E0
102
}
330
20
100
AcDbEntity
  8
STEMPEL
100
AcDbLine
 10
140.6489995993904
 20
161.5946300696997
 30
0.0
 11
140.6489995993904
 21
153.9487320359494
 31
0.0
  0
LINE
  5
891
102
{ACAD_REACTORS
330
9E0
102
}
330
20
100
AcDbEntity
  8
STEMPEL
100
AcDbLine
 10
140.6489995993904
 20
147.9965538583462
 30
0.0
 11
140.6489995993904
 21
130.7529424648773
 31
0.0
  0
ARC
  5
892
102
{ACAD_REACTORS
330
9E0
102
}
330
20
100
AcDbEntity
  8
STEMPEL
100
AcDbCircle
 10
140.6489995993904
 20
150.5946300696996
 30
0.0
 40
1.5
100
AcDbArc
 50
131.8103148957779
 51
240.0000000000016
  0
ARC
  5
893
102
{ACAD_REACTORS
330
9E0
102
}
330
20
100
AcDbEntity
  8
STEMPEL
100
AcDbCircle
 10
139.1489995993904
 20
147.9965538583462
 30
0.0
 40
1.5
100
AcDbArc
 50
0.0
 51
60.00000000000169
  0
ARC
  5
894
102
{ACAD_REACTORS
330
9E0
102
}
330
20
100
AcDbEntity
  8
STEMPEL
100
AcDbCircle
 10
137.6489995993904
 20
153.9487320359494
 30
0.0
 40
3.0
100
AcDbArc
 50
311.8103148957778
 51
0.0
  0
ARC
  5
895
102
{ACAD_REACTORS
330
9E0
102
}
330
20
100
AcDbEntity
  8
STEMPEL
100
AcDbCircle
 10
88.1489995993904
 20
147.9965538583462
 30
0.0
 40
1.5
100
AcDbArc
 50
119.9999999999983
 51
180.0
  0
ARC
  5
896
102
{ACAD_REACTORS
330
9E0
102
}
330
20
100
AcDbEntity
  8
STEMPEL
100
AcDbCircle
 10
89.64899959939041
 20
153.9487320359494
 30
0.0
 40
3.0
100
AcDbArc
 50
180.0
 51
228.1896851042222
  0
LINE
  5
897
102
{ACAD_REACTORS
330
9E0
102
}
330
20
100
AcDbEntity
  8
STEMPEL
100
AcDbLine
 10
86.6489995993904
 20
147.9965538583462
 30
0.0
 11
86.6489995993904
 21
130.7529424648773
 31
0.0
  0
ARC
  5
898
102
{ACAD_REACTORS
330
9E0
102
}
330
20
100
AcDbEntity
  8
STEMPEL
100
AcDbCircle
 10
86.6489995993904
 20
150.5946300696996
 30
0.0
 40
1.5
100
AcDbArc
 50
299.9999999999984
 51
48.18968510422213
  0
LINE
  5
899
330
20
100
AcDbEntity
  8
HILF
100
AcDbLine
 10
138.1489995993904
 20
150.5946300696996
 30
0.0
 11
89.1489995993904
 21
150.5946300696996
 31
0.0
  0
LINE
  5
89A
102
{ACAD_REACTORS
330
921
330
9E0
102
}
330
20
100
AcDbEntity
  8
STEMPEL
100
AcDbLine
 10
85.64899959939026
 20
127.5946300696997
 30
0.0
 11
85.14899959939034
 21
133.5946300696996
 31
0.0
  0
LINE
  5
89B
102
{ACAD_REACTORS
330
921
330
9E0
102
}
330
20
100
AcDbEntity
  8
STEMPEL
100
AcDbLine
 10
141.6489995993905
 20
127.5946300696997
 30
0.0
 11
142.1489995993904
 21
133.5946300696996
 31
0.0
  0
ARC
  5
89C
102
{ACAD_REACTORS
330
9E0
102
}
330
20
100
AcDbEntity
  8
STEMPEL
100
AcDbCircle
 10
139.1489995993905
 20
130.7529424648774
 30
0.0
 40
1.5
100
AcDbArc
 50
326.4426902380784
 51
0.0
  0
ARC
  5
89D
102
{ACAD_REACTORS
330
9E0
102
}
330
20
100
AcDbEntity
  8
STEMPEL
100
AcDbCircle
 10
141.6489995993905
 20
129.0946300696997
 30
0.0
 40
1.5
100
AcDbArc
 50
146.4426902380777
 51
270.0
  0
POINT
  5
89E
330
20
100
AcDbEntity
  8
DEFPOINTS
  6
ByBlock
 62
     0
100
AcDbPoint
 10
142.1489995993904
 20
133.5946300696999
 30
0.0
  0
POINT
  5
89F
330
20
100
AcDbEntity
  8
DEFPOINTS
  6
ByBlock
 62
     0
100
AcDbPoint
 10
85.14899959939041
 20
133.5946300696999
 30
0.0
  0
POINT
  5
8A0
330
20
100
AcDbEntity
  8
DEFPOINTS
  6
ByBlock
 62
     0
100
AcDbPoint
 10
143.6489995993904
 20
150.5946300696996
 30
0.0
  0
POINT
  5
8A1
330
20
100
AcDbEntity
  8
DEFPOINTS
  6
ByBlock
 62
     0
100
AcDbPoint
 10
83.64899959939041
 20
150.5946300696996
 30
0.0
  0
POINT
  5
8A2
330
20
100
AcDbEntity
  8
DEFPOINTS
  6
ByBlock
 62
     0
100
AcDbPoint
 10
145.6489995993904
 20
150.5946300696997
 30
0.0
  0
POINT
  5
8A3
330
20
100
AcDbEntity
  8
DEFPOINTS
  6
ByBlock
 62
     0
100
AcDbPoint
 10
81.6489995993904
 20
150.5946300696997
 30
0.0
  0
LINE
  5
8A4
102
{ACAD_REACTORS
330
975
330
98D
330
9A5
102
}
330
20
100
AcDbEntity
  8
STEMPEL
100
AcDbLine
 10
141.6489995993905
 20
127.5946300696996
 30
0.0
 11
85.6489995993904
 21
127.5946300696996
 31
0.0
  0
POINT
  5
8A5
330
20
100
AcDbEntity
  8
DEFPOINTS
  6
ByBlock
 62
     0
100
AcDbPoint
 10
86.6489995993904
 20
161.5946300696997
 30
0.0
  0
POINT
  5
8A6
330
20
100
AcDbEntity
  8
DEFPOINTS
  6
ByBlock
 62
     0
100
AcDbPoint
 10
140.6489995993904
 20
161.5946300696997
 30
0.0
  0
POINT
  5
8A7
330
20
100
AcDbEntity
  8
DEFPOINTS
  6
ByBlock
 62
     0
100
AcDbPoint
 10
83.39899959939041
 20
158.0612923275995
 30
0.0
  0
POINT
  5
8A8
330
20
100
AcDbEntity
  8
DEFPOINTS
  6
ByBlock
 62
     0
100
AcDbPoint
 10
143.8989995993904
 20
158.0612923275995
 30
0.0
  0
POINT
  5
8A9
330
20
100
AcDbEntity
  8
DEFPOINTS
  6
ByBlock
 62
     0
100
AcDbPoint
 10
145.6489995993904
 20
162.5946300696996
 30
0.0
  0
POINT
  5
8AA
330
20
100
AcDbEntity
  8
DEFPOINTS
  6
ByBlock
 62
     0
100
AcDbPoint
 10
81.6489995993904
 20
162.5946300696996
 30
0.0
  0
LINE
  5
8AB
102
{ACAD_REACTORS
330
9E0
102
}
330
20
100
AcDbEntity
  8
STEMPEL
100
AcDbLine
 10
84.80477190641236
 20
161.9236199980368
 30
0.0
 11
83.39899959939041
 21
158.0612923275995
 31
0.0
  0
LINE
  5
8AC
102
{ACAD_REACTORS
330
98D
330
9E0
102
}
330
20
100
AcDbEntity
  8
STEMPEL
100
AcDbLine
 10
84.33492559601935
 20
162.5946300696996
 30
0.0
 11
81.6489995993904
 21
162.5946300696996
 31
0.0
  0
ARC
  5
8AD
102
{ACAD_REACTORS
330
9E0
102
}
330
20
100
AcDbEntity
  8
STEMPEL
100
AcDbCircle
 10
88.1489995993904
 20
130.7529424648773
 30
0.0
 40
1.5
100
AcDbArc
 50
180.0
 51
213.5573097619207
  0
ARC
  5
8AE
102
{ACAD_REACTORS
330
9E0
102
}
330
20
100
AcDbEntity
  8
STEMPEL
100
AcDbCircle
 10
85.6489995993904
 20
129.0946300696996
 30
0.0
 40
1.5
100
AcDbArc
 50
270.0
 51
33.55730976192069
  0
ARC
  5
8AF
102
{ACAD_REACTORS
330
9E0
102
}
330
20
100
AcDbEntity
  8
STEMPEL
100
AcDbCircle
 10
142.9630736027615
 20
162.0946300696996
 30
0.0
 40
0.5
100
AcDbArc
 50
90.0
 51
200.0000000000001
  0
LINE
  5
8B0
102
{ACAD_REACTORS
330
9E0
102
}
330
20
100
AcDbEntity
  8
STEMPEL
100
AcDbLine
 10
142.9630736027615
 20
162.5946300696996
 30
0.0
 11
145.6489995993904
 21
162.5946300696996
 31
0.0
  0
LINE
  5
8B1
102
{ACAD_REACTORS
330
9E0
102
}
330
20
100
AcDbEntity
  8
STEMPEL
100
AcDbLine
 10
140.6489995993904
 20
161.5946300696997
 30
0.0
 11
141.7069614836412
 21
167.5946300696996
 31
0.0
  0
LINE
  5
8B2
102
{ACAD_REACTORS
330
9E0
102
}
330
20
100
AcDbEntity
  8
STEMPEL
100
AcDbLine
 10
144.4989995993904
 20
156.5946300696996
 30
0.0
 11
143.8989995993904
 21
157.1946300696996
 31
0.0
  0
LINE
  5
8B3
102
{ACAD_REACTORS
330
9E0
102
}
330
20
100
AcDbEntity
  8
STEMPEL
100
AcDbLine
 10
144.4989995993904
 20
155.5946300696996
 30
0.0
 11
143.8989995993904
 21
154.9946300696996
 31
0.0
  0
LINE
  5
8B4
102
{ACAD_REACTORS
330
939
330
9E0
102
}
330
20
100
AcDbEntity
  8
STEMPEL
100
AcDbLine
 10
144.4989995993904
 20
156.5946300696996
 30
0.0
 11
144.4989995993904
 21
155.5946300696996
 31
0.0
  0
LINE
  5
8B5
102
{ACAD_REACTORS
330
9E0
102
}
330
20
100
AcDbEntity
  8
STEMPEL
100
AcDbLine
 10
143.8989995993904
 20
158.0612923275995
 30
0.0
 11
143.8989995993904
 21
157.1946300696996
 31
0.0
  0
LINE
  5
8B6
102
{ACAD_REACTORS
330
9E0
102
}
330
20
100
AcDbEntity
  8
STEMPEL
100
AcDbLine
 10
143.6489995993904
 20
151.8446300696997
 30
0.0
 11
143.6489995993904
 21
150.5946300696996
 31
0.0
  0
LINE
  5
8B7
102
{ACAD_REACTORS
330
9E0
102
}
330
20
100
AcDbEntity
  8
STEMPEL
100
AcDbLine
 10
142.1489995993904
 20
150.5946300696997
 30
0.0
 11
145.6489995993904
 21
150.5946300696997
 31
0.0
  0
ARC
  5
8B8
102
{ACAD_REACTORS
330
9E0
102
}
330
20
100
AcDbEntity
  8
STEMPEL
100
AcDbCircle
 10
142.8989995993904
 20
151.8446300696997
 30
0.0
 40
0.75
100
AcDbArc
 50
0.0
 51
180.0
  0
LINE
  5
8B9
102
{ACAD_REACTORS
330
9E0
102
}
330
20
100
AcDbEntity
  8
STEMPEL
100
AcDbLine
 10
145.6489995993904
 20
150.5946300696997
 30
0.0
 11
143.8989995993904
 21
154.3475171805914
 31
0.0
  0
LINE
  5
8BA
102
{ACAD_REACTORS
330
9E0
102
}
330
20
100
AcDbEntity
  8
STEMPEL
100
AcDbLine
 10
143.8989995993904
 20
154.9946300696996
 30
0.0
 11
143.8989995993904
 21
154.3475171805914
 31
0.0
  0
LINE
  5
8BB
102
{ACAD_REACTORS
330
9E0
102
}
330
20
100
AcDbEntity
  8
STEMPEL
100
AcDbLine
 10
142.4932272923685
 20
161.9236199980368
 30
0.0
 11
143.8989995993904
 21
158.0612923275995
 31
0.0
  0
LINE
  5
8BC
102
{ACAD_REACTORS
330
9A5
330
9E0
102
}
330
20
100
AcDbEntity
  8
STEMPEL
100
AcDbLine
 10
83.1489995993904
 20
167.5946300696997
 30
0.0
 11
144.1489995993904
 21
167.5946300696996
 31
0.0
  0
LINE
  5
8BD
102
{ACAD_REACTORS
330
8F1
102
}
330
20
100
AcDbEntity
  8
STEMPEL
100
AcDbLine
 10
86.6489995993904
 20
161.5946300696998
 30
0.0
 11
140.6489995993904
 21
161.5946300696996
 31
0.0
  0
LINE
  5
8BE
330
20
100
AcDbEntity
  8
HILF
100
AcDbLine
 10
139.5656662660639
 20
130.4765570656811
 30
0.0
 11
87.73233293272374
 21
130.4765570656811
 31
0.0
  0
LINE
  5
8BF
102
{ACAD_REACTORS
330
9E0
102
}
330
20
100
AcDbEntity
  8
STEMPEL
100
AcDbLine
 10
142.1489995993904
 20
151.8446300696997
 30
0.0
 11
142.1489995993904
 21
133.5946300696992
 31
0.0
  0
LINE
  5
8C0
102
{ACAD_REACTORS
330
9E0
102
}
330
20
100
AcDbEntity
  8
STEMPEL
100
AcDbLine
 10
83.39899959939041
 20
158.0612923275995
 30
0.0
 11
83.39899959939041
 21
157.1946300696996
 31
0.0
  0
LINE
  5
8C1
102
{ACAD_REACTORS
330
9E0
102
}
330
20
100
AcDbEntity
  8
STEMPEL
100
AcDbLine
 10
82.79899959939038
 20
156.5946300696996
 30
0.0
 11
83.39899959939041
 21
157.1946300696996
 31
0.0
  0
LINE
  5
8C2
102
{ACAD_REACTORS
330
9E0
102
}
330
20
100
AcDbEntity
  8
STEMPEL
100
AcDbLine
 10
82.79899959939038
 20
156.5946300696996
 30
0.0
 11
82.79899959939038
 21
155.5946300696996
 31
0.0
  0
LINE
  5
8C3
102
{ACAD_REACTORS
330
939
330
9E0
102
}
330
20
100
AcDbEntity
  8
STEMPEL
100
AcDbLine
 10
82.79899959939038
 20
155.5946300696996
 30
0.0
 11
83.39899959939041
 21
154.9946300696996
 31
0.0
  0
LINE
  5
8C4
102
{ACAD_REACTORS
330
9E0
102
}
330
20
100
AcDbEntity
  8
STEMPEL
100
AcDbLine
 10
83.39899959939041
 20
154.9946300696996
 30
0.0
 11
83.39899959939041
 21
154.3475171805914
 31
0.0
  0
LINE
  5
8C5
102
{ACAD_REACTORS
330
9E0
102
}
330
20
100
AcDbEntity
  8
STEMPEL
100
AcDbLine
 10
81.6489995993904
 20
150.5946300696997
 30
0.0
 11
83.39899959939041
 21
154.3475171805914
 31
0.0
  0
LINE
  5
8C6
102
{ACAD_REACTORS
330
975
330
9E0
102
}
330
20
100
AcDbEntity
  8
STEMPEL
100
AcDbLine
 10
85.14899959939041
 20
150.5946300696997
 30
0.0
 11
81.6489995993904
 21
150.5946300696997
 31
0.0
  0
LINE
  5
8C7
102
{ACAD_REACTORS
330
9E0
102
}
330
20
100
AcDbEntity
  8
STEMPEL
100
AcDbLine
 10
85.14899959939041
 20
151.8446300696997
 30
0.0
 11
85.14899959939041
 21
133.5946300696999
 31
0.0
  0
LINE
  5
8C8
102
{ACAD_REACTORS
330
9E0
102
}
330
20
100
AcDbEntity
  8
STEMPEL
100
AcDbLine
 10
83.64899959939041
 20
151.8446300696997
 30
0.0
 11
83.64899959939041
 21
150.5946300696996
 31
0.0
  0
ARC
  5
8C9
102
{ACAD_REACTORS
330
9E0
102
}
330
20
100
AcDbEntity
  8
STEMPEL
100
AcDbCircle
 10
84.3989995993904
 20
151.8446300696997
 30
0.0
 40
0.75
100
AcDbArc
 50
0.0
 51
180.0
  0
LINE
  5
8CA
102
{ACAD_REACTORS
330
9E0
102
}
330
20
100
AcDbEntity
  8
STEMPEL
100
AcDbLine
 10
86.6489995993904
 20
161.5946300696997
 30
0.0
 11
86.6489995993904
 21
153.9487320359494
 31
0.0
  0
POINT
  5
8CB
330
20
100
AcDbEntity
  8
DEFPOINTS
  6
ByBlock
 62
     0
100
AcDbPoint
 10
85.59103771513965
 20
167.5946300696996
 30
0.0
  0
LINE
  5
8CC
102
{ACAD_REACTORS
330
9E0
102
}
330
20
100
AcDbEntity
  8
STEMPEL
100
AcDbLine
 10
85.59103771513965
 20
167.5946300696996
 30
0.0
 11
85.40177634912296
 21
167.5946300696996
 31
0.0
  0
LINE
  5
8CD
102
{ACAD_REACTORS
330
9E0
102
}
330
20
100
AcDbEntity
  8
STEMPEL
100
AcDbLine
 10
86.6489995993904
 20
161.5946300696997
 30
0.0
 11
85.59103771513965
 21
167.5946300696996
 31
0.0
  0
ARC
  5
8CE
102
{ACAD_REACTORS
330
9E0
102
}
330
20
100
AcDbEntity
  8
STEMPEL
100
AcDbCircle
 10
84.33492559601935
 20
162.0946300696996
 30
0.0
 40
0.5
100
AcDbArc
 50
339.9999999999999
 51
90.0
  0
LINE
  5
8CF
330
20
100
AcDbEntity
  8
MITTEL
100
AcDbLine
 10
113.6489995993904
 20
172.5946300696997
 30
0.0
 11
113.6489995993904
 21
122.5946300696996
 31
0.0
  0
DIMENSION
  5
8DA
102
{ACAD_XDICTIONARY
360
8E7
102
}
102
{ACAD_REACTORS
330
8F1
102
}
330
20
100
AcDbEntity
  8
BEM
100
AcDbDimension
  2
*D0
 10
140.6489995993904
 20
175.0569977243549
 30
0.0
 11
113.6489995993904
 21
178.3069977243549
 31
0.0
 70
    32
  1
%%c<>
 71
     5
 42
54.00000000000003
  3
Standard
100
AcDbAlignedDimension
 13
86.6489995993904
 23
161.5946300696998
 33
0.0
 14
140.6489995993904
 24
161.5946300696996
 34
0.0
100
AcDbRotatedDimension
1001
ACAD
1000
DSTYLE
1002
{
1070
    41
1040
3.5
1070
    42
1040
1.0
1070
    43
1040
7.0
1070
    44
1040
1.0
1070
    47
1040
0.6
1070
    48
1040
0.6
1070
    73
1070
     0
1070
    74
1070
     0
1070
    77
1070
     1
1070
    78
1070
     8
1070
    79
1070
     2
1070
   140
1040
3.5
1070
   141
1040
1.5
1070
   146
1040
0.5142857142857144
1070
   147
1040
1.5
1070
   172
1070
     1
1070
   178
1070
     1
1070
   179
1070
     2
1070
   271
1070
     2
1070
   272
1070
     2
1070
   284
1070
     8
1070
   285
1070
     8
1070
   286
1070
     8
1002
}
  0
DIMENSION
  5
8F2
102
{ACAD_XDICTIONARY
360
8FF
102
}
102
{ACAD_REACTORS
330
909
102
}
330
20
100
AcDbEntity
  8
BEM
100
AcDbDimension
  2
*D1
 10
81.6489995993904
 20
181.9545842527923
 30
0.0
 11
113.6489995993904
 21
185.2045842527923
 31
0.0
 70
    32
  1
%%c<>
 71
     5
 42
64.00000000000003
  3
Standard
100
AcDbAlignedDimension
 13
145.6489995993904
 23
166.0946300696997
 33
0.0
 14
81.6489995993904
 24
166.0946300696997
 34
0.0
100
AcDbRotatedDimension
1001
ACAD
1000
DSTYLE
1002
{
1070
    41
1040
3.5
1070
    42
1040
1.0
1070
    43
1040
7.0
1070
    44
1040
1.0
1070
    47
1040
0.6
1070
    48
1040
0.6
1070
    73
1070
     0
1070
    74
1070
     0
1070
    77
1070
     1
1070
    78
1070
     8
1070
    79
1070
     2
1070
   140
1040
3.5
1070
   141
1040
1.5
1070
   146
1040
0.5142857142857144
1070
   147
1040
1.5
1070
   172
1070
     1
1070
   178
1070
     1
1070
   179
1070
     2
1070
   271
1070
     2
1070
   272
1070
     2
1070
   284
1070
     8
1070
   285
1070
     8
1070
   286
1070
     8
1002
}
  0
DIMENSION
  5
90A
102
{ACAD_XDICTIONARY
360
917
102
}
102
{ACAD_REACTORS
330
921
102
}
330
20
100
AcDbEntity
  8
BEM
100
AcDbDimension
  2
*D2
 10
142.1489995993904
 20
115.4869347283859
 30
0.0
 11
113.6489995993904
 21
118.7369347283859
 31
0.0
 70
    32
  1
%%c<>
 71
     5
 42
57.00000000000009
  3
Standard
100
AcDbAlignedDimension
 13
85.14899959939034
 23
133.5946300696996
 33
0.0
 14
142.1489995993904
 24
133.5946300696996
 34
0.0
100
AcDbRotatedDimension
1001
ACAD
1000
DSTYLE
1002
{
1070
    41
1040
3.5
1070
    42
1040
1.0
1070
    43
1040
7.0
1070
    44
1040
1.0
1070
    47
1040
0.6
1070
    48
1040
0.6
1070
    73
1070
     0
1070
    74
1070
     0
1070
    77
1070
     1
1070
    78
1070
     8
1070
    79
1070
     2
1070
   140
1040
3.5
1070
   141
1040
1.5
1070
   146
1040
0.5142857142857144
1070
   147
1040
1.5
1070
   172
1070
     1
1070
   178
1070
     1
1070
   179
1070
     2
1070
   271
1070
     2
1070
   272
1070
     2
1070
   284
1070
     8
1070
   285
1070
     8
1070
   286
1070
     8
1002
}
  0
DIMENSION
  5
922
102
{ACAD_XDICTIONARY
360
92F
102
}
102
{ACAD_REACTORS
330
939
102
}
330
20
100
AcDbEntity
  8
BEM
100
AcDbDimension
  2
*D3
 10
82.79899959939038
 20
107.6270882038718
 30
0.0
 11
113.6489995993904
 21
110.8770882038718
 31
0.0
 70
    32
  1
%%c<>
 71
     5
 42
61.70000000000007
  3
Standard
100
AcDbAlignedDimension
 13
144.4989995993904
 23
155.5946300696996
 33
0.0
 14
82.79899959939038
 24
155.5946300696996
 34
0.0
100
AcDbRotatedDimension
1001
ACAD
1000
DSTYLE
1002
{
1070
    41
1040
3.5
1070
    42
1040
1.0
1070
    43
1040
7.0
1070
    44
1040
1.0
1070
    47
1040
0.6
1070
    48
1040
0.6
1070
    73
1070
     0
1070
    74
1070
     0
1070
    77
1070
     1
1070
    78
1070
     8
1070
    79
1070
     2
1070
   140
1040
3.5
1070
   141
1040
1.5
1070
   146
1040
0.5142857142857144
1070
   147
1040
1.5
1070
   172
1070
     1
1070
   178
1070
     1
1070
   179
1070
     2
1070
   271
1070
     2
1070
   272
1070
     2
1070
   284
1070
     8
1070
   285
1070
     8
1070
   286
1070
     8
1002
}
  0
DIMENSION
  5
95E
102
{ACAD_XDICTIONARY
360
96B
102
}
102
{ACAD_REACTORS
330
975
102
}
330
20
100
AcDbEntity
  8
BEM
100
AcDbDimension
  2
*D4
 10
75.1724330700797
 20
150.5946300696997
 30
0.0
 11
71.92243307007969
 21
139.0946300696997
 31
0.0
 70
    32
 71
     5
 42
23.00000000000004
  3
Standard
100
AcDbAlignedDimension
 13
85.6489995993904
 23
127.5946300696996
 33
0.0
 14
81.6489995993904
 24
150.5946300696997
 34
0.0
 50
90.0
100
AcDbRotatedDimension
1001
ACAD
1000
DSTYLE
1002
{
1070
    41
1040
3.5
1070
    42
1040
1.0
1070
    43
1040
7.0
1070
    44
1040
1.0
1070
    47
1040
0.6
1070
    48
1040
0.6
1070
    73
1070
     0
1070
    74
1070
     0
1070
    77
1070
     1
1070
    78
1070
     8
1070
    79
1070
     2
1070
   140
1040
3.5
1070
   141
1040
1.5
1070
   146
1040
0.5142857142857144
1070
   147
1040
1.5
1070
   172
1070
     1
1070
   178
1070
     1
1070
   179
1070
     2
1070
   271
1070
     2
1070
   272
1070
     2
1070
   284
1070
     8
1070
   285
1070
     8
1070
   286
1070
     8
1002
}
  0
DIMENSION
  5
976
102
{ACAD_XDICTIONARY
360
983
102
}
102
{ACAD_REACTORS
330
98D
102
}
330
20
100
AcDbEntity
  8
BEM
100
AcDbDimension
  2
*D5
 10
68.17243307007972
 20
162.5946300696996
 30
0.0
 11
64.92243307007969
 21
145.0946300696997
 31
0.0
 70
    32
 71
     5
 42
35.00000000000002
  3
Standard
100
AcDbAlignedDimension
 13
85.6489995993904
 23
127.5946300696996
 33
0.0
 14
81.6489995993904
 24
162.5946300696996
 34
0.0
 50
90.0
100
AcDbRotatedDimension
1001
ACAD
1000
DSTYLE
1002
{
1070
    41
1040
3.5
1070
    42
1040
1.0
1070
    43
1040
7.0
1070
    44
1040
1.0
1070
    47
1040
0.6
1070
    48
1040
0.6
1070
    73
1070
     0
1070
    74
1070
     0
1070
    77
1070
     1
1070
    78
1070
     8
1070
    79
1070
     2
1070
   140
1040
3.5
1070
   141
1040
1.5
1070
   146
1040
0.5142857142857144
1070
   147
1040
1.5
1070
   172
1070
     1
1070
   178
1070
     1
1070
   179
1070
     2
1070
   271
1070
     2
1070
   272
1070
     2
1070
   284
1070
     8
1070
   285
1070
     8
1070
   286
1070
     8
1002
}
  0
DIMENSION
  5
98E
102
{ACAD_XDICTIONARY
360
99B
102
}
102
{ACAD_REACTORS
330
9A5
102
}
330
20
100
AcDbEntity
  8
BEM
100
AcDbDimension
  2
*D6
 10
61.17243307007972
 20
167.5946300696997
 30
0.0
 11
57.92243307007969
 21
147.5946300696997
 31
0.0
 70
    32
 71
     5
 42
40.00000000000009
  3
Standard
100
AcDbAlignedDimension
 13
85.6489995993904
 23
127.5946300696996
 33
0.0
 14
83.1489995993904
 24
167.5946300696997
 34
0.0
 50
90.0
100
AcDbRotatedDimension
1001
ACAD
1000
DSTYLE
1002
{
1070
    41
1040
3.5
1070
    42
1040
1.0
1070
    43
1040
7.0
1070
    44
1040
1.0
1070
    47
1040
0.6
1070
    48
1040
0.6
1070
    73
1070
     0
1070
    74
1070
     0
1070
    77
1070
     1
1070
    78
1070
     8
1070
    79
1070
     2
1070
   140
1040
3.5
1070
   141
1040
1.5
1070
   146
1040
0.5142857142857144
1070
   147
1040
1.5
1070
   172
1070
     1
1070
   178
1070
     1
1070
   179
1070
     2
1070
   271
1070
     2
1070
   272
1070
     2
1070
   284
1070
     8
1070
   285
1070
     8
1070
   286
1070
     8
1002
}
  0
HATCH
  5
9E0
330
20
100
AcDbEntity
  8
SCHRAFF
100
AcDbHatch
 10
0.0
 20
0.0
 30
0.0
210
0.0
220
0.0
230
1.0
  2
NET
 70
     0
 71
     1
 91
        2
 92
        7
 72
     1
 73
     1
 93
       25
 10
145.6489995993904
 20
166.0946300696997
 42
0.4142135623730729
 10
144.1489995993904
 20
167.5946300696996
 42
0.0
 10
141.7069614836412
 20
167.5946300696996
 42
0.0
 10
140.6489995993904
 20
161.5946300696996
 42
0.0
 10
140.6489995993904
 20
153.9487320359494
 42
-0.2134217652833918
 10
139.6489995993904
 20
151.7126640584496
 42
0.5105684202253662
 10
139.8989995993904
 20
149.2955919640229
 42
-0.2679491924311306
 10
140.6489995993904
 20
147.9965538583462
 42
0.0
 10
140.6489995993904
 20
130.7529424648773
 42
-0.1474768247823383
 10
140.3989995993905
 20
129.9237862672885
 42
0.5982346904416516
 10
141.6489995993905
 20
127.5946300696997
 42
0.0
 10
142.1489995993904
 20
133.5946300696995
 42
0.0
 10
142.1489995993904
 20
151.8446300696997
 42
-1.0
 10
143.6489995993904
 20
151.8446300696997
 42
0.0
 10
143.6489995993904
 20
150.5946300696997
 42
0.0
 10
145.6489995993904
 20
150.5946300696997
 42
0.0
 10
143.8989995993904
 20
154.3475171805914
 42
0.0
 10
143.8989995993904
 20
154.9946300696996
 42
0.0
 10
144.4989995993904
 20
155.5946300696996
 42
0.0
 10
144.4989995993904
 20
156.5946300696996
 42
0.0
 10
143.8989995993904
 20
157.1946300696996
 42
0.0
 10
143.8989995993904
 20
158.0612923275995
 42
0.0
 10
142.4932272923685
 20
161.9236199980368
 42
-0.5205670505517467
 10
142.9630736027614
 20
162.5946300696996
 42
0.0
 10
145.6489995993904
 20
162.5946300696996
 42
0.0
 97
       25
330
88D
330
8BC
330
8B1
330
890
330
894
330
892
330
893
330
891
330
89C
330
89D
330
89B
330
8BF
330
8B8
330
8B6
330
8B7
330
8B9
330
8BA
330
8B3
330
8B4
330
8B2
330
8B5
330
8BB
330
8AF
330
8B0
330
88C
 92
        7
 72
     1
 73
     1
 93
       26
 10
85.59103771513967
 20
167.5946300696996
 42
0.0
 10
85.40177634912296
 20
167.5946300696996
 42
0.0
 10
83.1489995993904
 20
167.5946300696997
 42
0.4142135623730951
 10
81.6489995993904
 20
166.0946300696997
 42
0.0
 10
81.6489995993904
 20
162.5946300696996
 42
0.0
 10
84.33492559601935
 20
162.5946300696996
 42
-0.5205670505517995
 10
84.80477190641236
 20
161.9236199980368
 42
0.0
 10
83.39899959939042
 20
158.0612923275996
 42
0.0
 10
83.39899959939042
 20
157.1946300696997
 42
0.0
 10
82.79899959939038
 20
156.5946300696996
 42
0.0
 10
82.79899959939038
 20
155.5946300696996
 42
0.0
 10
83.39899959939041
 20
154.9946300696996
 42
0.0
 10
83.39899959939039
 20
154.3475171805914
 42
0.0
 10
81.6489995993904
 20
150.5946300696997
 42
0.0
 10
83.64899959939041
 20
150.5946300696997
 42
0.0
 10
83.64899959939041
 20
151.8446300696997
 42
-1.0
 10
85.14899959939041
 20
151.8446300696997
 42
0.0
 10
85.14899959939041
 20
133.5946300696993
 42
0.0
 10
85.64899959939026
 20
127.5946300696997
 42
0.5982346904416649
 10
86.89899959939038
 20
129.9237862672885
 42
-0.1474768247823491
 10
86.6489995993904
 20
130.7529424648773
 42
0.0
 10
86.6489995993904
 20
147.9965538583462
 42
-0.2679491924311306
 10
87.39899959939045
 20
149.2955919640229
 42
0.5105684202253573
 10
87.64899959939048
 20
151.7126640584495
 42
-0.2134217652834009
 10
86.6489995993904
 20
153.9487320359494
 42
0.0
 10
86.64899959939042
 20
161.5946300696997
 42
0.0
 97
       26
330
8CC
330
8BC
330
88E
330
88F
330
8AC
330
8CE
330
8AB
330
8C0
330
8C1
330
8C2
330
8C3
330
8C4
330
8C5
330
8C6
330
8C8
330
8C9
330
8C7
330
89A
330
8AE
330
8AD
330
897
330
895
330
898
330
896
330
8CA
330
8CD
 75
     0
 76
     1
 52
45.0
 41
15.0
 77
     0
 78
     2
 53
45.0
 43
0.0
 44
0.0
 45
-1.325825214724776
 46
1.325825214724776
 79
     0
 53
135.0
 43
0.0
 44
0.0
 45
-1.325825214724776
 46
-1.325825214724776
 79
     0
 47
0.2006570507644152
 98
        2
 10
143.4370206141013
 20
165.4163190651688
 10
84.00667308824699
 20
164.0117198883129
  0
ENDSEC
  0
SECTION
  2
OBJECTS
  0
DICTIONARY
  5
C
330
0
100
AcDbDictionary
281
     1
  3
ACAD_COLOR
350
1B
  3
ACAD_GROUP
350
D
  3
ACAD_LAYOUT
350
19
  3
ACAD_MATERIAL
350
1A
  3
ACAD_MLINESTYLE
350
16
  3
ACAD_PLOTSETTINGS
350
18
  3
ACAD_PLOTSTYLENAME
350
E
  3
AcDbVariableDictionary
350
25E
  0
DICTIONARY
  5
8E7
330
8DA
100
AcDbDictionary
280
     1
281
     1
  3
ACAD_DIMASSOC
360
8F1
  0
DICTIONARY
  5
8FF
330
8F2
100
AcDbDictionary
280
     1
281
     1
  3
ACAD_DIMASSOC
360
909
  0
DICTIONARY
  5
917
330
90A
100
AcDbDictionary
280
     1
281
     1
  3
ACAD_DIMASSOC
360
921
  0
DICTIONARY
  5
92F
330
922
100
AcDbDictionary
280
     1
281
     1
  3
ACAD_DIMASSOC
360
939
  0
DICTIONARY
  5
96B
330
95E
100
AcDbDictionary
280
     1
281
     1
  3
ACAD_DIMASSOC
360
975
  0
DICTIONARY
  5
983
330
976
100
AcDbDictionary
280
     1
281
     1
  3
ACAD_DIMASSOC
360
98D
  0
DICTIONARY
  5
99B
330
98E
100
AcDbDictionary
280
     1
281
     1
  3
ACAD_DIMASSOC
360
9A5
  0
DICTIONARY
  5
1B
102
{ACAD_REACTORS
330
C
102
}
330
C
100
AcDbDictionary
281
     1
  0
DICTIONARY
  5
D
102
{ACAD_REACTORS
330
C
102
}
330
C
100
AcDbDictionary
281
     1
  0
DICTIONARY
  5
19
102
{ACAD_REACTORS
330
C
102
}
330
C
100
AcDbDictionary
281
     1
  3
Layout1
350
1F
  3
Model
350
23
  0
DICTIONARY
  5
1A
102
{ACAD_REACTORS
330
C
102
}
330
C
100
AcDbDictionary
281
     1
  0
DICTIONARY
  5
16
102
{ACAD_REACTORS
330
C
102
}
330
C
100
AcDbDictionary
281
     1
  3
Standard
350
17
  0
DICTIONARY
  5
18
102
{ACAD_REACTORS
330
C
102
}
330
C
100
AcDbDictionary
281
     1
  0
ACDBDICTIONARYWDFLT
  5
E
102
{ACAD_REACTORS
330
C
102
}
330
C
100
AcDbDictionary
281
     1
  3
Normal
350
F
100
AcDbDictionaryWithDefault
340
F
  0
DICTIONARY
  5
25E
102
{ACAD_REACTORS
330
C
102
}
330
C
100
AcDbDictionary
281
     1
  3
DIMASSOC
350
260
  3
HIDETEXT
350
25F
  3
PROJECTNAME
350
261
  0
DIMASSOC
  5
8F1
102
{ACAD_REACTORS
330
8E7
102
}
330
8E7
100
AcDbDimAssoc
330
8DA
 90
        3
 70
     0
 71
     0
  1
AcDbOsnapPointRef
 72
    13
331
8BD
 73
     2
 91
        0
 40
0.0
 10
0.0
 20
0.0
 30
2.000000000000000E+50
 75
     0
  1
AcDbOsnapPointRef
 72
     1
331
8BD
 73
     2
 91
        0
 40
1.0
 10
0.0
 20
0.0
 30
2.000000000000000E+50
 75
     0
  0
DIMASSOC
  5
909
102
{ACAD_REACTORS
330
8FF
102
}
330
8FF
100
AcDbDimAssoc
330
8F2
 90
        3
 70
     0
 71
     0
  1
AcDbOsnapPointRef
 72
    13
331
88D
 73
     2
 91
        0
 40
0.0
 10
0.0
 20
0.0
 30
2.000000000000000E+50
 75
     0
  1
AcDbOsnapPointRef
 72
     1
331
88F
 73
     2
 91
        0
 40
1.0
 10
0.0
 20
0.0
 30
2.000000000000000E+50
 75
     0
  0
DIMASSOC
  5
921
102
{ACAD_REACTORS
330
917
102
}
330
917
100
AcDbDimAssoc
330
90A
 90
        3
 70
     0
 71
     0
  1
AcDbOsnapPointRef
 72
     1
331
89A
 73
     2
 91
        0
 40
1.0
 10
0.0
 20
0.0
 30
2.000000000000000E+50
 75
     0
  1
AcDbOsnapPointRef
 72
     1
331
89B
 73
     2
 91
        0
 40
1.0
 10
0.0
 20
0.0
 30
2.000000000000000E+50
 75
     0
  0
DIMASSOC
  5
939
102
{ACAD_REACTORS
330
92F
102
}
330
92F
100
AcDbDimAssoc
330
922
 90
        3
 70
     0
 71
     0
  1
AcDbOsnapPointRef
 72
     1
331
8B4
 73
     2
 91
        0
 40
1.0
 10
0.0
 20
0.0
 30
2.000000000000000E+50
 75
     0
  1
AcDbOsnapPointRef
 72
    13
331
8C3
 73
     2
 91
        0
 40
0.0
 10
0.0
 20
0.0
 30
2.000000000000000E+50
 75
     0
  0
DIMASSOC
  5
975
102
{ACAD_REACTORS
330
96B
102
}
330
96B
100
AcDbDimAssoc
330
95E
 90
        3
 70
     0
 71
     0
  1
AcDbOsnapPointRef
 72
     1
331
8A4
 73
     2
 91
        0
 40
1.0
 10
0.0
 20
0.0
 30
2.000000000000000E+50
 75
     0
  1
AcDbOsnapPointRef
 72
     1
331
8C6
 73
     2
 91
        0
 40
1.0
 10
0.0
 20
0.0
 30
2.000000000000000E+50
 75
     0
  0
DIMASSOC
  5
98D
102
{ACAD_REACTORS
330
983
102
}
330
983
100
AcDbDimAssoc
330
976
 90
        3
 70
     0
 71
     0
  1
AcDbOsnapPointRef
 72
     1
331
8A4
 73
     2
 91
        0
 40
1.0
 10
0.0
 20
0.0
 30
2.000000000000000E+50
 75
     0
  1
AcDbOsnapPointRef
 72
     1
331
8AC
 73
     2
 91
        0
 40
1.0
 10
0.0
 20
0.0
 30
2.000000000000000E+50
 75
     0
  0
DIMASSOC
  5
9A5
102
{ACAD_REACTORS
330
99B
102
}
330
99B
100
AcDbDimAssoc
330
98E
 90
        3
 70
     0
 71
     0
  1
AcDbOsnapPointRef
 72
     1
331
8A4
 73
     2
 91
        0
 40
1.0
 10
0.0
 20
0.0
 30
2.000000000000000E+50
 75
     0
  1
AcDbOsnapPointRef
 72
    13
331
8BC
 73
     2
 91
        0
 40
0.0
 10
0.0
 20
0.0
 30
2.000000000000000E+50
 75
     0
  0
LAYOUT
  5
1F
102
{ACAD_REACTORS
330
19
102
}
330
19
100
AcDbPlotSettings
  1

  2
RICOH Aficio 2027 PCL 6
  4

  6

 40
0.0
 41
0.0
 42
0.0
 43
0.0
 44
0.0
 45
0.0
 46
0.0
 47
0.0
 48
0.0
 49
0.0
140
0.0
141
0.0
142
1.0
143
1.0
 70
   688
 72
     0
 73
     0
 74
     5
  7
monochrome1.ctb
 75
    16
147
1.0
 76
     0
 77
     2
 78
   300
148
0.0
149
0.0
100
AcDbLayout
  1
Layout1
 70
     0
 71
     1
 10
0.0
 20
0.0
 11
12.0
 21
9.0
 12
94.77699787264981
 22
50.00000000000001
 32
160.541677480246
 14
1.000000000000000E+20
 24
1.000000000000000E+20
 34
1.000000000000000E+20
 15
-1.000000000000000E+20
 25
-1.000000000000000E+20
 35
-1.000000000000000E+20
146
0.0
 13
0.0
 23
0.0
 33
0.0
 16
1.0
 26
0.0
 36
0.0
 17
0.0
 27
1.0
 37
0.0
 76
     0
330
1C
  0
LAYOUT
  5
23
102
{ACAD_REACTORS
330
19
102
}
330
19
100
AcDbPlotSettings
  1

  2
RICOH Aficio 2027 PCL 6
  4
A4
  6

 40
5.027083396911621
 41
5.027085304260253
 42
5.027084350585937
 43
5.027069091796875
 44
209.9733276367187
 45
296.9259948730469
 46
0.0
 47
0.0
 48
0.0
 49
0.0
140
0.0
141
0.0
142
1.0
143
1.0
 70
 11952
 72
     0
 73
     1
 74
     0
  7
monochrome1.ctb
 75
     0
147
1.0
 76
     0
 77
     2
 78
   300
148
1149.94759482167
149
45.04758967657628
100
AcDbLayout
  1
Model
 70
     1
 71
     0
 10
0.0
 20
0.0
 11
12.0
 21
9.0
 12
0.0
 22
0.0
 32
0.0
 14
0.0
 24
0.0
 34
0.0
 15
0.0
 25
0.0
 35
0.0
146
0.0
 13
0.0
 23
0.0
 33
0.0
 16
1.0
 26
0.0
 36
0.0
 17
0.0
 27
1.0
 37
0.0
 76
     0
330
20
  0
MLINESTYLE
  5
17
102
{ACAD_REACTORS
330
16
102
}
330
16
100
AcDbMlineStyle
  2
STANDARD
 70
     0
  3

 62
   256
 51
90.0
 52
90.0
 71
     2
 49
0.5
 62
   256
  6
BYLAYER
 49
-0.5
 62
   256
  6
BYLAYER
  0
ACDBPLACEHOLDER
  5
F
102
{ACAD_REACTORS
330
E
102
}
330
E
  0
DICTIONARYVAR
  5
260
102
{ACAD_REACTORS
330
25E
102
}
330
25E
100
DictionaryVariables
280
     0
  1
2
  0
DICTIONARYVAR
  5
25F
102
{ACAD_REACTORS
330
25E
102
}
330
25E
100
DictionaryVariables
280
     0
  1
1
  0
DICTIONARYVAR
  5
261
102
{ACAD_REACTORS
330
25E
102
}
330
25E
100
DictionaryVariables
280
     0
  1

  0
ENDSEC
  0
EOF
