  0
SECTION
  2
HEADER
  9
$ACADVER
  1
AC1018
  9
$ACADMAINTVER
 70
     2
  9
$DWGCODEPAGE
  3
ANSI_1252
  9
$INSBASE
 10
0.0
 20
0.0
 30
0.0
  9
$EXTMIN
 10
-0.0032020964374624
 20
-0.0045286792473007
 30
-0.0000000000112498
  9
$EXTMAX
 10
210.0032050302827
 20
297.0045328285429
 30
0.0000000000002956
  9
$LIMMIN
 10
0.0
 20
0.0
  9
$LIMMAX
 10
210.0
 20
297.0
  9
$ORTHOMODE
 70
     0
  9
$REGENMODE
 70
     1
  9
$FILLMODE
 70
     1
  9
$QTEXTMODE
 70
     0
  9
$MIRRTEXT
 70
     1
  9
$LTSCALE
 40
10.0
  9
$ATTMODE
 70
     1
  9
$TEXTSIZE
 40
3.5
  9
$TRACEWID
 40
0.5
  9
$TEXTSTYLE
  7
STANDARD
  9
$CLAYER
  8
BEM
  9
$CELTYPE
  6
ByLayer
  9
$CECOLOR
 62
   256
  9
$CELTSCALE
 40
1.0
  9
$DISPSILH
 70
     0
  9
$DIMSCALE
 40
1.0
  9
$DIMASZ
 40
3.5
  9
$DIMEXO
 40
1.0
  9
$DIMDLI
 40
7.0
  9
$DIMRND
 40
0.0
  9
$DIMDLE
 40
0.0
  9
$DIMEXE
 40
1.0
  9
$DIMTP
 40
0.6
  9
$DIMTM
 40
0.6
  9
$DIMTXT
 40
3.5
  9
$DIMCEN
 40
1.5
  9
$DIMTSZ
 40
0.0
  9
$DIMTOL
 70
     0
  9
$DIMLIM
 70
     0
  9
$DIMTIH
 70
     0
  9
$DIMTOH
 70
     0
  9
$DIMSE1
 70
     0
  9
$DIMSE2
 70
     0
  9
$DIMTAD
 70
     1
  9
$DIMZIN
 70
     8
  9
$DIMBLK
  1

  9
$DIMASO
 70
     1
  9
$DIMSHO
 70
     0
  9
$DIMPOST
  1

  9
$DIMAPOST
  1

  9
$DIMALT
 70
     0
  9
$DIMALTD
 70
     2
  9
$DIMALTF
 40
25.4
  9
$DIMLFAC
 40
1.0
  9
$DIMTOFL
 70
     1
  9
$DIMTVP
 40
0.0
  9
$DIMTIX
 70
     0
  9
$DIMSOXD
 70
     0
  9
$DIMSAH
 70
     0
  9
$DIMBLK1
  1

  9
$DIMBLK2
  1

  9
$DIMSTYLE
  2
Standard
  9
$DIMCLRD
 70
     0
  9
$DIMCLRE
 70
     0
  9
$DIMCLRT
 70
     1
  9
$DIMTFAC
 40
0.5142857142857144
  9
$DIMGAP
 40
1.5
  9
$DIMJUST
 70
     0
  9
$DIMSD1
 70
     0
  9
$DIMSD2
 70
     0
  9
$DIMTOLJ
 70
     1
  9
$DIMTZIN
 70
     8
  9
$DIMALTZ
 70
     8
  9
$DIMALTTZ
 70
     8
  9
$DIMUPT
 70
     0
  9
$DIMDEC
 70
     2
  9
$DIMTDEC
 70
     2
  9
$DIMALTU
 70
     2
  9
$DIMALTTD
 70
     2
  9
$DIMTXSTY
  7
STANDARD
  9
$DIMAUNIT
 70
     0
  9
$DIMADEC
 70
     2
  9
$DIMALTRND
 40
0.0
  9
$DIMAZIN
 70
     2
  9
$DIMDSEP
 70
    46
  9
$DIMATFIT
 70
     3
  9
$DIMFRAC
 70
     0
  9
$DIMLDRBLK
  1

  9
$DIMLUNIT
 70
     2
  9
$DIMLWD
 70
    -2
  9
$DIMLWE
 70
    -2
  9
$DIMTMOVE
 70
     0
  9
$LUNITS
 70
     2
  9
$LUPREC
 70
     2
  9
$SKETCHINC
 40
1.0
  9
$FILLETRAD
 40
0.0
  9
$AUNITS
 70
     0
  9
$AUPREC
 70
     0
  9
$MENU
  1
ACAD
  9
$ELEVATION
 40
0.0
  9
$PELEVATION
 40
0.0
  9
$THICKNESS
 40
0.0
  9
$LIMCHECK
 70
     0
  9
$CHAMFERA
 40
0.0
  9
$CHAMFERB
 40
0.0
  9
$CHAMFERC
 40
0.0
  9
$CHAMFERD
 40
0.0
  9
$SKPOLY
 70
     0
  9
$TDCREATE
 40
2451729.335056250
  9
$TDUCREATE
 40
2451729.251722917
  9
$TDUPDATE
 40
2455450.561753993
  9
$TDUUPDATE
 40
2455450.478420660
  9
$TDINDWG
 40
0.0891744097
  9
$TDUSRTIMER
 40
0.0891744097
  9
$USRTIMER
 70
     1
  9
$ANGBASE
 50
0.0
  9
$ANGDIR
 70
     0
  9
$PDMODE
 70
     0
  9
$PDSIZE
 40
0.0
  9
$PLINEWID
 40
0.0
  9
$SPLFRAME
 70
     0
  9
$SPLINETYPE
 70
     6
  9
$SPLINESEGS
 70
     8
  9
$HANDSEED
  5
7D3
  9
$SURFTAB1
 70
     6
  9
$SURFTAB2
 70
     6
  9
$SURFTYPE
 70
     6
  9
$SURFU
 70
     6
  9
$SURFV
 70
     6
  9
$UCSBASE
  2

  9
$UCSNAME
  2

  9
$UCSORG
 10
0.0
 20
0.0
 30
0.0
  9
$UCSXDIR
 10
1.0
 20
0.0
 30
0.0
  9
$UCSYDIR
 10
0.0
 20
1.0
 30
0.0
  9
$UCSORTHOREF
  2

  9
$UCSORTHOVIEW
 70
     0
  9
$UCSORGTOP
 10
0.0
 20
0.0
 30
0.0
  9
$UCSORGBOTTOM
 10
0.0
 20
0.0
 30
0.0
  9
$UCSORGLEFT
 10
0.0
 20
0.0
 30
0.0
  9
$UCSORGRIGHT
 10
0.0
 20
0.0
 30
0.0
  9
$UCSORGFRONT
 10
0.0
 20
0.0
 30
0.0
  9
$UCSORGBACK
 10
0.0
 20
0.0
 30
0.0
  9
$PUCSBASE
  2

  9
$PUCSNAME
  2

  9
$PUCSORG
 10
0.0
 20
0.0
 30
0.0
  9
$PUCSXDIR
 10
1.0
 20
0.0
 30
0.0
  9
$PUCSYDIR
 10
0.0
 20
1.0
 30
0.0
  9
$PUCSORTHOREF
  2

  9
$PUCSORTHOVIEW
 70
     0
  9
$PUCSORGTOP
 10
0.0
 20
0.0
 30
0.0
  9
$PUCSORGBOTTOM
 10
0.0
 20
0.0
 30
0.0
  9
$PUCSORGLEFT
 10
0.0
 20
0.0
 30
0.0
  9
$PUCSORGRIGHT
 10
0.0
 20
0.0
 30
0.0
  9
$PUCSORGFRONT
 10
0.0
 20
0.0
 30
0.0
  9
$PUCSORGBACK
 10
0.0
 20
0.0
 30
0.0
  9
$USERI1
 70
     0
  9
$USERI2
 70
     0
  9
$USERI3
 70
     0
  9
$USERI4
 70
     0
  9
$USERI5
 70
     0
  9
$USERR1
 40
0.0
  9
$USERR2
 40
0.0
  9
$USERR3
 40
0.0
  9
$USERR4
 40
0.0
  9
$USERR5
 40
0.0
  9
$WORLDVIEW
 70
     1
  9
$SHADEDGE
 70
     3
  9
$SHADEDIF
 70
    70
  9
$TILEMODE
 70
     1
  9
$MAXACTVP
 70
    16
  9
$PINSBASE
 10
94.77699787264981
 20
50.00000000000001
 30
160.541677480246
  9
$PLIMCHECK
 70
     0
  9
$PEXTMIN
 10
1.000000000000000E+20
 20
1.000000000000000E+20
 30
1.000000000000000E+20
  9
$PEXTMAX
 10
-1.000000000000000E+20
 20
-1.000000000000000E+20
 30
-1.000000000000000E+20
  9
$PLIMMIN
 10
0.0
 20
0.0
  9
$PLIMMAX
 10
12.0
 20
9.0
  9
$UNITMODE
 70
     0
  9
$VISRETAIN
 70
     0
  9
$PLINEGEN
 70
     0
  9
$PSLTSCALE
 70
     0
  9
$TREEDEPTH
 70
  3020
  9
$CMLSTYLE
  2
Standard
  9
$CMLJUST
 70
     0
  9
$CMLSCALE
 40
1.0
  9
$PROXYGRAPHICS
 70
     1
  9
$MEASUREMENT
 70
     0
  9
$CELWEIGHT
370
    -1
  9
$ENDCAPS
280
     0
  9
$JOINSTYLE
280
     0
  9
$LWDISPLAY
290
     0
  9
$INSUNITS
 70
     0
  9
$HYPERLINKBASE
  1

  9
$STYLESHEET
  1
monochrome 1.ctb
  9
$XEDIT
290
     1
  9
$CEPSNTYPE
380
     0
  9
$PSTYLEMODE
290
     1
  9
$FINGERPRINTGUID
  2
{5FB5DE59-4758-4550-9D6E-98D0683C8784}
  9
$VERSIONGUID
  2
{EA0757AE-5BA4-4B4A-83DE-481FD533A001}
  9
$EXTNAMES
290
     1
  9
$PSVPSCALE
 40
0.0
  9
$OLESTARTUP
290
     0
  9
$SORTENTS
280
   127
  9
$INDEXCTL
280
     0
  9
$HIDETEXT
280
     1
  9
$XCLIPFRAME
290
     0
  9
$HALOGAP
280
     0
  9
$OBSCOLOR
 70
   257
  9
$OBSLTYPE
280
     0
  9
$INTERSECTIONDISPLAY
280
     0
  9
$INTERSECTIONCOLOR
 70
   257
  9
$DIMASSOC
280
     2
  9
$PROJECTNAME
  1

  0
ENDSEC
  0
SECTION
  2
CLASSES
  0
CLASS
  1
ACDBDICTIONARYWDFLT
  2
AcDbDictionaryWithDefault
  3
ObjectDBX Classes
 90
        0
 91
        1
280
     0
281
     0
  0
CLASS
  1
DICTIONARYVAR
  2
AcDbDictionaryVar
  3
ObjectDBX Classes
 90
        0
 91
        3
280
     0
281
     0
  0
CLASS
  1
DIMASSOC
  2
AcDbDimAssoc
  3
"AcDbDimAssoc|Product Desc:     AcDim ARX App For Dimension|Company:          Autodesk, Inc.|WEB Address:      www.autodesk.com"
 90
        0
 91
        7
280
     0
281
     0
  0
ENDSEC
  0
SECTION
  2
TABLES
  0
TABLE
  2
VPORT
  5
8
330
0
100
AcDbSymbolTable
 70
     2
  0
VPORT
  5
7D2
330
8
100
AcDbSymbolTableRecord
100
AcDbViewportTableRecord
  2
*Active
 70
     0
 10
0.0
 20
0.0
 11
1.0
 21
1.0
 12
105.0000014669226
 22
148.5000020746478
 13
0.0
 23
0.0
 14
1.0
 24
1.0
 15
10.0
 25
10.0
 16
0.0
 26
0.0
 36
1.0
 17
0.0
 27
0.0
 37
0.0
 40
299.4075196087953
 41
1.336927223719676
 42
50.0
 43
0.0
 44
0.0
 50
0.0
 51
0.0
 71
     0
 72
  1500
 73
     1
 74
     0
 75
     0
 76
     0
 77
     0
 78
     0
281
     0
 65
     1
110
0.0
120
0.0
130
0.0
111
1.0
121
0.0
131
0.0
112
0.0
122
1.0
132
0.0
 79
     0
146
0.0
  0
ENDTAB
  0
TABLE
  2
LTYPE
  5
5
330
0
100
AcDbSymbolTable
 70
     2
  0
LTYPE
  5
13
330
5
100
AcDbSymbolTableRecord
100
AcDbLinetypeTableRecord
  2
ByBlock
 70
     0
  3

 72
    65
 73
     0
 40
0.0
  0
LTYPE
  5
14
330
5
100
AcDbSymbolTableRecord
100
AcDbLinetypeTableRecord
  2
ByLayer
 70
     0
  3

 72
    65
 73
     0
 40
0.0
  0
LTYPE
  5
15
330
5
100
AcDbSymbolTableRecord
100
AcDbLinetypeTableRecord
  2
Continuous
 70
     0
  3
Solid line
 72
    65
 73
     0
 40
0.0
  0
LTYPE
  5
38
330
5
100
AcDbSymbolTableRecord
100
AcDbLinetypeTableRecord
  2
STRICHPUNKT
 70
     0
  3
__ . __ . __ . __ . __ . __ . __ . __ . __ . __
 72
    65
 73
     4
 40
1.0
 49
0.5
 74
     0
 49
-0.25
 74
     0
 49
0.0
 74
     0
 49
-0.25
 74
     0
  0
ENDTAB
  0
TABLE
  2
LAYER
  5
2
330
0
100
AcDbSymbolTable
 70
     9
  0
LAYER
  5
10
330
2
100
AcDbSymbolTableRecord
100
AcDbLayerTableRecord
  2
0
 70
     0
 62
     7
  6
Continuous
370
    -3
390
F
  0
LAYER
  5
3B
330
2
100
AcDbSymbolTableRecord
100
AcDbLayerTableRecord
  2
VOLL
 70
     0
 62
     1
  6
Continuous
370
    -3
390
F
  0
LAYER
  5
3C
330
2
100
AcDbSymbolTableRecord
100
AcDbLayerTableRecord
  2
HILF
 70
     0
 62
     2
  6
Continuous
370
    -3
390
F
  0
LAYER
  5
3D
330
2
100
AcDbSymbolTableRecord
100
AcDbLayerTableRecord
  2
MITTEL
 70
     0
 62
     2
  6
STRICHPUNKT
370
    -3
390
F
  0
LAYER
  5
3E
330
2
100
AcDbSymbolTableRecord
100
AcDbLayerTableRecord
  2
BEM
 70
     0
 62
     7
  6
Continuous
370
    -3
390
F
  0
LAYER
  5
3F
330
2
100
AcDbSymbolTableRecord
100
AcDbLayerTableRecord
  2
SCHRAFF
 70
     0
 62
     7
  6
Continuous
370
    -3
390
F
  0
LAYER
  5
40
330
2
100
AcDbSymbolTableRecord
100
AcDbLayerTableRecord
  2
STEMPEL
 70
     0
 62
     3
  6
Continuous
370
    -3
390
F
  0
LAYER
  5
41
330
2
100
AcDbSymbolTableRecord
100
AcDbLayerTableRecord
  2
DEFPOINTS
 70
     0
 62
     7
  6
Continuous
290
     0
370
    -3
390
F
  0
LAYER
  5
42
330
2
100
AcDbSymbolTableRecord
100
AcDbLayerTableRecord
  2
TEXT
 70
     0
 62
     7
  6
Continuous
370
    -3
390
F
  0
ENDTAB
  0
TABLE
  2
STYLE
  5
3
330
0
100
AcDbSymbolTable
 70
     2
  0
STYLE
  5
11
330
3
100
AcDbSymbolTableRecord
100
AcDbTextStyleTableRecord
  2
STANDARD
 70
     0
 40
0.0
 41
0.8
 50
0.0
 71
     0
 42
3.5
  3
simplex.shx
  4

  0
STYLE
  5
37
330
3
100
AcDbSymbolTableRecord
100
AcDbTextStyleTableRecord
  2
GREEKS
 70
     0
 40
0.0
 41
0.8
 50
0.0
 71
     0
 42
3.5
  3
SIMPLEX.shx
  4

  0
ENDTAB
  0
TABLE
  2
VIEW
  5
6
330
0
100
AcDbSymbolTable
 70
     0
  0
ENDTAB
  0
TABLE
  2
UCS
  5
7
330
0
100
AcDbSymbolTable
 70
     0
  0
ENDTAB
  0
TABLE
  2
APPID
  5
9
330
0
100
AcDbSymbolTable
 70
     1
  0
APPID
  5
12
330
9
100
AcDbSymbolTableRecord
100
AcDbRegAppTableRecord
  2
ACAD
 70
     0
  0
ENDTAB
  0
TABLE
  2
DIMSTYLE
  5
A
330
0
100
AcDbSymbolTable
 70
     1
100
AcDbDimStyleTable
 71
     1
340
20F
  0
DIMSTYLE
105
20F
102
{ACAD_REACTORS
330
6E6
330
6FE
330
716
330
72E
330
746
330
75E
330
776
102
}
330
A
100
AcDbSymbolTableRecord
100
AcDbDimStyleTableRecord
  2
Standard
 70
     0
340
11
  0
ENDTAB
  0
TABLE
  2
BLOCK_RECORD
  5
1
330
0
100
AcDbSymbolTable
 70
     7
  0
BLOCK_RECORD
  5
20
330
1
100
AcDbSymbolTableRecord
100
AcDbBlockTableRecord
  2
*Model_Space
340
23
  0
BLOCK_RECORD
  5
1C
330
1
100
AcDbSymbolTableRecord
100
AcDbBlockTableRecord
  2
*Paper_Space
340
1F
  0
BLOCK_RECORD
  5
6E7
330
1
100
AcDbSymbolTableRecord
100
AcDbBlockTableRecord
  2
*D0
340
0
  0
BLOCK_RECORD
  5
6FF
330
1
100
AcDbSymbolTableRecord
100
AcDbBlockTableRecord
  2
*D1
340
0
  0
BLOCK_RECORD
  5
717
330
1
100
AcDbSymbolTableRecord
100
AcDbBlockTableRecord
  2
*D2
340
0
  0
BLOCK_RECORD
  5
72F
330
1
100
AcDbSymbolTableRecord
100
AcDbBlockTableRecord
  2
*D3
340
0
  0
BLOCK_RECORD
  5
747
330
1
100
AcDbSymbolTableRecord
100
AcDbBlockTableRecord
  2
*D4
340
0
  0
BLOCK_RECORD
  5
75F
330
1
100
AcDbSymbolTableRecord
100
AcDbBlockTableRecord
  2
*D5
340
0
  0
BLOCK_RECORD
  5
777
330
1
100
AcDbSymbolTableRecord
100
AcDbBlockTableRecord
  2
*D6
340
0
  0
ENDTAB
  0
ENDSEC
  0
SECTION
  2
BLOCKS
  0
BLOCK
  5
46
330
20
100
AcDbEntity
  8
0
100
AcDbBlockBegin
  2
*Model_Space
 70
     0
 10
0.0
 20
0.0
 30
0.0
  3
*Model_Space
  1

  0
ENDBLK
  5
47
330
20
100
AcDbEntity
  8
0
100
AcDbBlockEnd
  0
BLOCK
  5
44
330
1C
100
AcDbEntity
 67
     1
  8
0
100
AcDbBlockBegin
  2
*Paper_Space
 70
     0
 10
0.0
 20
0.0
 30
0.0
  3
*Paper_Space
  1

  0
ENDBLK
  5
45
330
1C
100
AcDbEntity
 67
     1
  8
0
100
AcDbBlockEnd
  0
BLOCK
  5
6F1
330
6E7
100
AcDbEntity
  8
0
100
AcDbBlockBegin
  2
*D0
 70
     1
 10
0.0
 20
0.0
 30
0.0
  3
*D0
  1

  0
LINE
  5
6F4
330
6E7
100
AcDbEntity
  8
BEM
 62
     0
370
    -2
100
AcDbLine
 10
95.27264183449899
 20
166.1646787681403
 30
0.0
 11
95.27264183449899
 21
178.074343482667
 31
0.0
  0
LINE
  5
6F5
330
6E7
100
AcDbEntity
  8
BEM
 62
     0
370
    -2
100
AcDbLine
 10
137.7726418344989
 20
166.1646787681396
 30
0.0
 11
137.7726418344989
 21
178.074343482667
 31
0.0
  0
LINE
  5
6F6
330
6E7
100
AcDbEntity
  8
BEM
 62
     0
370
    -2
100
AcDbLine
 10
98.77264183449899
 20
177.074343482667
 30
0.0
 11
134.2726418344989
 21
177.074343482667
 31
0.0
  0
SOLID
  5
6F7
330
6E7
100
AcDbEntity
  8
BEM
 62
     0
100
AcDbTrace
 10
98.77264183449899
 20
177.6576768160003
 30
0.0
 11
98.77264183449899
 21
176.4910101493337
 31
0.0
 12
95.27264183449899
 22
177.074343482667
 32
0.0
 13
95.27264183449899
 23
177.074343482667
 33
0.0
  0
SOLID
  5
6F8
330
6E7
100
AcDbEntity
  8
BEM
 62
     0
100
AcDbTrace
 10
134.2726418344989
 20
177.6576768160003
 30
0.0
 11
134.2726418344989
 21
176.4910101493337
 31
0.0
 12
137.7726418344989
 22
177.074343482667
 32
0.0
 13
137.7726418344989
 23
177.074343482667
 33
0.0
  0
MTEXT
  5
6F9
330
6E7
100
AcDbEntity
  8
BEM
 62
     1
100
AcDbMText
 10
116.5226418344989
 20
180.324343482667
 30
0.0
 40
3.5
 41
0.0
 71
     5
 72
     1
  1
\A1;42.5
 73
     1
 44
1.0
  0
POINT
  5
6FA
330
6E7
100
AcDbEntity
  8
DEFPOINTS
 62
     0
100
AcDbPoint
 10
95.27264183449899
 20
165.1646787681403
 30
0.0
  0
POINT
  5
6FB
330
6E7
100
AcDbEntity
  8
DEFPOINTS
 62
     0
100
AcDbPoint
 10
137.7726418344989
 20
165.1646787681396
 30
0.0
  0
POINT
  5
6FC
330
6E7
100
AcDbEntity
  8
DEFPOINTS
 62
     0
100
AcDbPoint
 10
137.7726418344989
 20
177.074343482667
 30
0.0
  0
ENDBLK
  5
6F2
330
6E7
100
AcDbEntity
  8
0
100
AcDbBlockEnd
  0
BLOCK
  5
709
330
6FF
100
AcDbEntity
  8
0
100
AcDbBlockBegin
  2
*D1
 70
     1
 10
0.0
 20
0.0
 30
0.0
  3
*D1
  1

  0
LINE
  5
70C
330
6FF
100
AcDbEntity
  8
BEM
 62
     0
370
    -2
100
AcDbLine
 10
90.52264183449898
 20
169.2468583132358
 30
0.0
 11
90.52264183449898
 21
185.2646402002068
 31
0.0
  0
LINE
  5
70D
330
6FF
100
AcDbEntity
  8
BEM
 62
     0
370
    -2
100
AcDbLine
 10
142.522641834499
 20
169.2468583132358
 30
0.0
 11
142.522641834499
 21
185.2646402002068
 31
0.0
  0
LINE
  5
70E
330
6FF
100
AcDbEntity
  8
BEM
 62
     0
370
    -2
100
AcDbLine
 10
94.02264183449899
 20
184.2646402002068
 30
0.0
 11
139.022641834499
 21
184.2646402002068
 31
0.0
  0
SOLID
  5
70F
330
6FF
100
AcDbEntity
  8
BEM
 62
     0
100
AcDbTrace
 10
94.02264183449899
 20
184.8479735335401
 30
0.0
 11
94.02264183449899
 21
183.6813068668735
 31
0.0
 12
90.52264183449898
 22
184.2646402002068
 32
0.0
 13
90.52264183449898
 23
184.2646402002068
 33
0.0
  0
SOLID
  5
710
330
6FF
100
AcDbEntity
  8
BEM
 62
     0
100
AcDbTrace
 10
139.022641834499
 20
184.8479735335401
 30
0.0
 11
139.022641834499
 21
183.6813068668735
 31
0.0
 12
142.522641834499
 22
184.2646402002068
 32
0.0
 13
142.522641834499
 23
184.2646402002068
 33
0.0
  0
MTEXT
  5
711
330
6FF
100
AcDbEntity
  8
BEM
 62
     1
100
AcDbMText
 10
116.522641834499
 20
187.5146402002068
 30
0.0
 40
3.5
 41
0.0
 71
     5
 72
     1
  1
\A1;52
 73
     1
 44
1.0
  0
POINT
  5
712
330
6FF
100
AcDbEntity
  8
DEFPOINTS
 62
     0
100
AcDbPoint
 10
90.52264183449898
 20
168.2468583132358
 30
0.0
  0
POINT
  5
713
330
6FF
100
AcDbEntity
  8
DEFPOINTS
 62
     0
100
AcDbPoint
 10
142.522641834499
 20
168.2468583132358
 30
0.0
  0
POINT
  5
714
330
6FF
100
AcDbEntity
  8
DEFPOINTS
 62
     0
100
AcDbPoint
 10
142.522641834499
 20
184.2646402002068
 30
0.0
  0
ENDBLK
  5
70A
330
6FF
100
AcDbEntity
  8
0
100
AcDbBlockEnd
  0
BLOCK
  5
721
330
717
100
AcDbEntity
  8
0
100
AcDbBlockBegin
  2
*D2
 70
     1
 10
0.0
 20
0.0
 30
0.0
  3
*D2
  1

  0
LINE
  5
724
330
717
100
AcDbEntity
  8
BEM
 62
     0
370
    -2
100
AcDbLine
 10
94.02264183449904
 20
141.7468583132359
 30
0.0
 11
94.02264183449904
 21
123.4786550865618
 31
0.0
  0
LINE
  5
725
330
717
100
AcDbEntity
  8
BEM
 62
     0
370
    -2
100
AcDbLine
 10
139.0226418344988
 20
141.7468583132359
 30
0.0
 11
139.0226418344988
 21
123.4786550865618
 31
0.0
  0
LINE
  5
726
330
717
100
AcDbEntity
  8
BEM
 62
     0
370
    -2
100
AcDbLine
 10
97.52264183449904
 20
124.4786550865618
 30
0.0
 11
135.5226418344988
 21
124.4786550865618
 31
0.0
  0
SOLID
  5
727
330
717
100
AcDbEntity
  8
BEM
 62
     0
100
AcDbTrace
 10
97.52264183449904
 20
125.0619884198951
 30
0.0
 11
97.52264183449904
 21
123.8953217532285
 31
0.0
 12
94.02264183449904
 22
124.4786550865618
 32
0.0
 13
94.02264183449904
 23
124.4786550865618
 33
0.0
  0
SOLID
  5
728
330
717
100
AcDbEntity
  8
BEM
 62
     0
100
AcDbTrace
 10
135.5226418344988
 20
125.0619884198951
 30
0.0
 11
135.5226418344988
 21
123.8953217532285
 31
0.0
 12
139.0226418344988
 22
124.4786550865618
 32
0.0
 13
139.0226418344988
 23
124.4786550865618
 33
0.0
  0
MTEXT
  5
729
330
717
100
AcDbEntity
  8
BEM
 62
     1
100
AcDbMText
 10
116.5226418344989
 20
127.7286550865618
 30
0.0
 40
3.5
 41
0.0
 71
     5
 72
     1
  1
\A1;45
 73
     1
 44
1.0
  0
POINT
  5
72A
330
717
100
AcDbEntity
  8
DEFPOINTS
 62
     0
100
AcDbPoint
 10
94.02264183449904
 20
142.7468583132359
 30
0.0
  0
POINT
  5
72B
330
717
100
AcDbEntity
  8
DEFPOINTS
 62
     0
100
AcDbPoint
 10
139.0226418344988
 20
142.7468583132359
 30
0.0
  0
POINT
  5
72C
330
717
100
AcDbEntity
  8
DEFPOINTS
 62
     0
100
AcDbPoint
 10
139.0226418344988
 20
124.4786550865618
 30
0.0
  0
ENDBLK
  5
722
330
717
100
AcDbEntity
  8
0
100
AcDbBlockEnd
  0
BLOCK
  5
739
330
72F
100
AcDbEntity
  8
0
100
AcDbBlockBegin
  2
*D3
 70
     1
 10
0.0
 20
0.0
 30
0.0
  3
*D3
  1

  0
LINE
  5
73C
330
72F
100
AcDbEntity
  8
BEM
 62
     0
370
    -2
100
AcDbLine
 10
91.52264183449899
 20
158.2468583132358
 30
0.0
 11
91.52264183449899
 21
116.1552046355493
 31
0.0
  0
LINE
  5
73D
330
72F
100
AcDbEntity
  8
BEM
 62
     0
370
    -2
100
AcDbLine
 10
141.522641834499
 20
158.2468583132358
 30
0.0
 11
141.522641834499
 21
116.1552046355493
 31
0.0
  0
LINE
  5
73E
330
72F
100
AcDbEntity
  8
BEM
 62
     0
370
    -2
100
AcDbLine
 10
95.02264183449899
 20
117.1552046355493
 30
0.0
 11
138.022641834499
 21
117.1552046355493
 31
0.0
  0
SOLID
  5
73F
330
72F
100
AcDbEntity
  8
BEM
 62
     0
100
AcDbTrace
 10
95.02264183449899
 20
117.7385379688827
 30
0.0
 11
95.02264183449899
 21
116.571871302216
 31
0.0
 12
91.52264183449899
 22
117.1552046355493
 32
0.0
 13
91.52264183449899
 23
117.1552046355493
 33
0.0
  0
SOLID
  5
740
330
72F
100
AcDbEntity
  8
BEM
 62
     0
100
AcDbTrace
 10
138.022641834499
 20
117.7385379688827
 30
0.0
 11
138.022641834499
 21
116.571871302216
 31
0.0
 12
141.522641834499
 22
117.1552046355493
 32
0.0
 13
141.522641834499
 23
117.1552046355493
 33
0.0
  0
MTEXT
  5
741
330
72F
100
AcDbEntity
  8
BEM
 62
     1
100
AcDbMText
 10
116.522641834499
 20
120.4052046355493
 30
0.0
 40
3.5
 41
0.0
 71
     5
 72
     1
  1
\A1;50
 73
     1
 44
1.0
  0
POINT
  5
742
330
72F
100
AcDbEntity
  8
DEFPOINTS
 62
     0
100
AcDbPoint
 10
91.52264183449899
 20
159.2468583132358
 30
0.0
  0
POINT
  5
743
330
72F
100
AcDbEntity
  8
DEFPOINTS
 62
     0
100
AcDbPoint
 10
141.522641834499
 20
159.2468583132358
 30
0.0
  0
POINT
  5
744
330
72F
100
AcDbEntity
  8
DEFPOINTS
 62
     0
100
AcDbPoint
 10
141.522641834499
 20
117.1552046355493
 30
0.0
  0
ENDBLK
  5
73A
330
72F
100
AcDbEntity
  8
0
100
AcDbBlockEnd
  0
BLOCK
  5
751
330
747
100
AcDbEntity
  8
0
100
AcDbBlockBegin
  2
*D4
 70
     1
 10
0.0
 20
0.0
 30
0.0
  3
*D4
  1

  0
LINE
  5
754
330
747
100
AcDbEntity
  8
BEM
 62
     0
370
    -2
100
AcDbLine
 10
93.52264183449895
 20
136.746858313236
 30
0.0
 11
84.41201971424424
 21
136.746858313236
 31
0.0
  0
LINE
  5
755
330
747
100
AcDbEntity
  8
BEM
 62
     0
370
    -2
100
AcDbLine
 10
90.322641834499
 20
155.7468583132358
 30
0.0
 11
84.41201971424424
 21
155.7468583132358
 31
0.0
  0
LINE
  5
756
330
747
100
AcDbEntity
  8
BEM
 62
     0
370
    -2
100
AcDbLine
 10
85.41201971424426
 20
140.246858313236
 30
0.0
 11
85.41201971424426
 21
152.2468583132358
 31
0.0
  0
SOLID
  5
757
330
747
100
AcDbEntity
  8
BEM
 62
     0
100
AcDbTrace
 10
84.82868638091092
 20
140.246858313236
 30
0.0
 11
85.99535304757758
 21
140.246858313236
 31
0.0
 12
85.41201971424426
 22
136.746858313236
 32
0.0
 13
85.41201971424426
 23
136.746858313236
 33
0.0
  0
SOLID
  5
758
330
747
100
AcDbEntity
  8
BEM
 62
     0
100
AcDbTrace
 10
84.82868638091092
 20
152.2468583132358
 30
0.0
 11
85.99535304757758
 21
152.2468583132358
 31
0.0
 12
85.41201971424426
 22
155.7468583132358
 32
0.0
 13
85.41201971424426
 23
155.7468583132358
 33
0.0
  0
MTEXT
  5
759
330
747
100
AcDbEntity
  8
BEM
 62
     1
100
AcDbMText
 10
82.16201971424423
 20
146.2468583132359
 30
0.0
 40
3.5
 41
0.0
 71
     5
 72
     1
  1
\A1;19
 11
0.0000000000000001
 21
1.0
 31
0.0
 73
     1
 44
1.0
  0
POINT
  5
75A
330
747
100
AcDbEntity
  8
DEFPOINTS
 62
     0
100
AcDbPoint
 10
94.52264183449896
 20
136.746858313236
 30
0.0
  0
POINT
  5
75B
330
747
100
AcDbEntity
  8
DEFPOINTS
 62
     0
100
AcDbPoint
 10
91.32264183449899
 20
155.7468583132358
 30
0.0
  0
POINT
  5
75C
330
747
100
AcDbEntity
  8
DEFPOINTS
 62
     0
100
AcDbPoint
 10
85.41201971424426
 20
155.7468583132358
 30
0.0
  0
ENDBLK
  5
752
330
747
100
AcDbEntity
  8
0
100
AcDbBlockEnd
  0
BLOCK
  5
769
330
75F
100
AcDbEntity
  8
0
100
AcDbBlockBegin
  2
*D5
 70
     1
 10
0.0
 20
0.0
 30
0.0
  3
*D5
  1

  0
LINE
  5
76C
330
75F
100
AcDbEntity
  8
BEM
 62
     0
370
    -2
100
AcDbLine
 10
93.52264183449895
 20
136.746858313236
 30
0.0
 11
77.88355215538603
 21
136.746858313236
 31
0.0
  0
LINE
  5
76D
330
75F
100
AcDbEntity
  8
BEM
 62
     0
370
    -2
100
AcDbLine
 10
89.52264183449898
 20
164.7468583132358
 30
0.0
 11
77.88355215538604
 21
164.7468583132358
 31
0.0
  0
LINE
  5
76E
330
75F
100
AcDbEntity
  8
BEM
 62
     0
370
    -2
100
AcDbLine
 10
78.88355215538602
 20
140.246858313236
 30
0.0
 11
78.88355215538604
 21
161.2468583132358
 31
0.0
  0
SOLID
  5
76F
330
75F
100
AcDbEntity
  8
BEM
 62
     0
100
AcDbTrace
 10
78.3002188220527
 20
140.246858313236
 30
0.0
 11
79.46688548871936
 21
140.246858313236
 31
0.0
 12
78.88355215538602
 22
136.746858313236
 32
0.0
 13
78.88355215538602
 23
136.746858313236
 33
0.0
  0
SOLID
  5
770
330
75F
100
AcDbEntity
  8
BEM
 62
     0
100
AcDbTrace
 10
78.30021882205271
 20
161.2468583132358
 30
0.0
 11
79.46688548871937
 21
161.2468583132358
 31
0.0
 12
78.88355215538604
 22
164.7468583132358
 32
0.0
 13
78.88355215538604
 23
164.7468583132358
 33
0.0
  0
MTEXT
  5
771
330
75F
100
AcDbEntity
  8
BEM
 62
     1
100
AcDbMText
 10
75.63355215538601
 20
150.7468583132359
 30
0.0
 40
3.5
 41
0.0
 71
     5
 72
     1
  1
\A1;28
 11
0.0000000000000001
 21
1.0
 31
0.0
 73
     1
 44
1.0
  0
POINT
  5
772
330
75F
100
AcDbEntity
  8
DEFPOINTS
 62
     0
100
AcDbPoint
 10
94.52264183449896
 20
136.746858313236
 30
0.0
  0
POINT
  5
773
330
75F
100
AcDbEntity
  8
DEFPOINTS
 62
     0
100
AcDbPoint
 10
90.52264183449898
 20
164.7468583132358
 30
0.0
  0
POINT
  5
774
330
75F
100
AcDbEntity
  8
DEFPOINTS
 62
     0
100
AcDbPoint
 10
78.88355215538604
 20
164.7468583132358
 30
0.0
  0
ENDBLK
  5
76A
330
75F
100
AcDbEntity
  8
0
100
AcDbBlockEnd
  0
BLOCK
  5
781
330
777
100
AcDbEntity
  8
0
100
AcDbBlockBegin
  2
*D6
 70
     1
 10
0.0
 20
0.0
 30
0.0
  3
*D6
  1

  0
LINE
  5
784
330
777
100
AcDbEntity
  8
BEM
 62
     0
370
    -2
100
AcDbLine
 10
93.52264183449895
 20
136.746858313236
 30
0.0
 11
70.42244606362122
 21
136.746858313236
 31
0.0
  0
LINE
  5
785
330
777
100
AcDbEntity
  8
BEM
 62
     0
370
    -2
100
AcDbLine
 10
90.52264183449898
 20
169.2468583132358
 30
0.0
 11
70.42244606362124
 21
169.2468583132358
 31
0.0
  0
LINE
  5
786
330
777
100
AcDbEntity
  8
BEM
 62
     0
370
    -2
100
AcDbLine
 10
71.42244606362122
 20
140.246858313236
 30
0.0
 11
71.42244606362123
 21
165.7468583132358
 31
0.0
  0
SOLID
  5
787
330
777
100
AcDbEntity
  8
BEM
 62
     0
100
AcDbTrace
 10
70.83911273028789
 20
140.246858313236
 30
0.0
 11
72.00577939695455
 21
140.246858313236
 31
0.0
 12
71.42244606362122
 22
136.746858313236
 32
0.0
 13
71.42244606362122
 23
136.746858313236
 33
0.0
  0
SOLID
  5
788
330
777
100
AcDbEntity
  8
BEM
 62
     0
100
AcDbTrace
 10
70.83911273028791
 20
165.7468583132358
 30
0.0
 11
72.00577939695456
 21
165.7468583132358
 31
0.0
 12
71.42244606362123
 22
169.2468583132358
 32
0.0
 13
71.42244606362123
 23
169.2468583132358
 33
0.0
  0
MTEXT
  5
789
330
777
100
AcDbEntity
  8
BEM
 62
     1
100
AcDbMText
 10
68.17244606362121
 20
152.9968583132359
 30
0.0
 40
3.5
 41
0.0
 71
     5
 72
     1
  1
\A1;32.5
 11
0.0000000000000001
 21
1.0
 31
0.0
 73
     1
 44
1.0
  0
POINT
  5
78A
330
777
100
AcDbEntity
  8
DEFPOINTS
 62
     0
100
AcDbPoint
 10
94.52264183449896
 20
136.746858313236
 30
0.0
  0
POINT
  5
78B
330
777
100
AcDbEntity
  8
DEFPOINTS
 62
     0
100
AcDbPoint
 10
91.52264183449899
 20
169.2468583132358
 30
0.0
  0
POINT
  5
78C
330
777
100
AcDbEntity
  8
DEFPOINTS
 62
     0
100
AcDbPoint
 10
71.42244606362123
 20
169.2468583132358
 30
0.0
  0
ENDBLK
  5
782
330
777
100
AcDbEntity
  8
0
100
AcDbBlockEnd
  0
ENDSEC
  0
SECTION
  2
ENTITIES
  0
LINE
  5
144
330
20
100
AcDbEntity
  8
HILF
100
AcDbLine
 10
210.0
 20
0.0
 30
0.0
 11
0.0
 21
0.0
 31
0.0
  0
LINE
  5
145
330
20
100
AcDbEntity
  8
HILF
100
AcDbLine
 10
210.0
 20
297.0000000000001
 30
0.0
 11
0.0
 21
297.0
 31
0.0
  0
LINE
  5
146
330
20
100
AcDbEntity
  8
STEMPEL
100
AcDbLine
 10
205.0
 20
292.0
 30
0.0
 11
19.99999999999994
 21
292.0
 31
0.0
  0
LINE
  5
147
330
20
100
AcDbEntity
  8
STEMPEL
100
AcDbLine
 10
205.0
 20
5.0
 30
0.0
 11
19.99999999999994
 21
5.0
 31
0.0
  0
LINE
  5
148
330
20
100
AcDbEntity
  8
STEMPEL
100
AcDbLine
 10
24.99999999999995
 20
5.0
 30
0.0
 11
205.0
 21
5.0
 31
0.0
  0
LINE
  5
149
330
20
100
AcDbEntity
  8
HILF
100
AcDbLine
 10
111.7454849644942
 20
7.446991290141568
 30
0.0
 11
202.4294419663364
 21
7.446991290141568
 31
0.0
  0
LINE
  5
14A
330
20
100
AcDbEntity
  8
HILF
100
AcDbLine
 10
112.3868400548474
 20
24.99999999999999
 30
0.0
 11
162.4176958278155
 21
24.99999999999999
 31
0.0
  0
LINE
  5
14B
330
20
100
AcDbEntity
  8
HILF
100
AcDbLine
 10
112.3868400548474
 20
29.99999999999999
 30
0.0
 11
162.4176958278155
 21
29.99999999999999
 31
0.0
  0
LINE
  5
14C
330
20
100
AcDbEntity
  8
HILF
100
AcDbLine
 10
112.3868400548474
 20
34.99999999999997
 30
0.0
 11
162.4176958278155
 21
34.99999999999997
 31
0.0
  0
LINE
  5
14D
330
20
100
AcDbEntity
  8
HILF
100
AcDbLine
 10
112.3868400548474
 20
42.01879123782069
 30
0.0
 11
162.4176958278155
 21
42.01879123782069
 31
0.0
  0
LINE
  5
14E
330
20
100
AcDbEntity
  8
STEMPEL
100
AcDbLine
 10
205.0
 20
40.0
 30
0.0
 11
68.00000000000006
 21
39.99999999999997
 31
0.0
  0
LINE
  5
14F
330
20
100
AcDbEntity
  8
STEMPEL
100
AcDbLine
 10
205.0
 20
20.0
 30
0.0
 11
68.00000000000006
 21
19.99999999999998
 31
0.0
  0
LINE
  5
150
330
20
100
AcDbEntity
  8
STEMPEL
100
AcDbLine
 10
205.0
 20
55.00000000000003
 30
0.0
 11
19.99999999999998
 21
55.0
 31
0.0
  0
LINE
  5
154
330
20
100
AcDbEntity
  8
HILF
100
AcDbLine
 10
0.0
 20
0.0
 30
0.0
 11
-0.0000000000000568
 21
297.0
 31
0.0
  0
LINE
  5
155
330
20
100
AcDbEntity
  8
STEMPEL
100
AcDbLine
 10
20.0
 20
5.0
 30
0.0
 11
19.99999999999994
 21
292.0
 31
0.0
  0
TEXT
  5
15C
330
20
100
AcDbEntity
  8
TEXT
100
AcDbText
 10
21.16299821803051
 20
55.83599999999997
 30
0.0
 40
2.5
  1
Erstellt mit AUTOCAD 2004
 41
0.8
  7
GREEKS
100
AcDbText
  0
LINE
  5
15D
330
20
100
AcDbEntity
  8
HILF
100
AcDbLine
 10
20.00000000000004
 20
19.99999999999998
 30
0.0
 11
68.00000000000006
 21
19.99999999999998
 31
0.0
  0
LINE
  5
15E
330
20
100
AcDbEntity
  8
HILF
100
AcDbLine
 10
20.00000000000004
 20
24.99999999999999
 30
0.0
 11
68.00000000000006
 21
24.99999999999999
 31
0.0
  0
LINE
  5
15F
330
20
100
AcDbEntity
  8
HILF
100
AcDbLine
 10
20.00000000000004
 20
29.99999999999999
 30
0.0
 11
68.00000000000006
 21
29.99999999999999
 31
0.0
  0
LINE
  5
160
330
20
100
AcDbEntity
  8
HILF
100
AcDbLine
 10
20.00000000000004
 20
34.99999999999997
 30
0.0
 11
68.00000000000006
 21
34.99999999999997
 31
0.0
  0
LINE
  5
161
330
20
100
AcDbEntity
  8
HILF
100
AcDbLine
 10
20.00000000000004
 20
39.99999999999997
 30
0.0
 11
68.00000000000006
 21
39.99999999999997
 31
0.0
  0
LINE
  5
162
330
20
100
AcDbEntity
  8
HILF
100
AcDbLine
 10
20.00000000000004
 20
45.00000000000002
 30
0.0
 11
68.00000000000006
 21
45.00000000000002
 31
0.0
  0
LINE
  5
163
330
20
100
AcDbEntity
  8
HILF
100
AcDbLine
 10
20.00000000000004
 20
50.00000000000003
 30
0.0
 11
68.00000000000006
 21
50.00000000000003
 31
0.0
  0
LINE
  5
164
330
20
100
AcDbEntity
  8
STEMPEL
100
AcDbLine
 10
67.99999999999994
 20
14.99999999999998
 30
0.0
 11
19.99999999999998
 21
14.99999999999998
 31
0.0
  0
TEXT
  5
165
330
20
100
AcDbEntity
  8
TEXT
100
AcDbText
 10
49.79273626936724
 20
9.33578134669905
 30
0.0
 40
2.0
  1
Tag
 41
0.8
  7
GREEKS
 72
     1
 11
51.65940293603391
 21
9.33578134669905
 31
0.0
100
AcDbText
  0
TEXT
  5
166
330
20
100
AcDbEntity
  8
TEXT
100
AcDbText
 10
31.1234419470788
 20
9.336909474920659
 30
0.0
 40
2.0
  1
Änderung
 41
0.8
  7
GREEKS
 72
     1
 11
36.49487051850737
 21
9.336909474920659
 31
0.0
100
AcDbText
  0
TEXT
  5
167
330
20
100
AcDbEntity
  8
TEXT
100
AcDbText
 10
24.13320553522878
 20
6.827329230135958
 30
0.0
 40
1.8
  1
Index
 50
90.0
 41
0.8
  7
GREEKS
100
AcDbText
  0
LINE
  5
168
330
20
100
AcDbEntity
  8
VOLL
100
AcDbLine
 10
57.00000000000006
 20
54.99999999999997
 30
0.0
 11
57.0
 21
4.999999999999985
 31
0.0
  0
LINE
  5
169
330
20
100
AcDbEntity
  8
VOLL
100
AcDbLine
 10
47.00000000000005
 20
54.99999999999997
 30
0.0
 11
47.0
 21
4.999999999999985
 31
0.0
  0
LINE
  5
16A
330
20
100
AcDbEntity
  8
VOLL
100
AcDbLine
 10
27.00000000000005
 20
55.00000000000003
 30
0.0
 11
26.99999999999999
 21
4.999999999999985
 31
0.0
  0
LINE
  5
16E
330
20
100
AcDbEntity
  8
HILF
100
AcDbLine
 10
15.54383567856928
 20
148.5
 30
0.0
 11
0.0000000000000568
 21
148.5
 31
0.0
  0
TEXT
  5
17F
330
20
100
AcDbEntity
  8
TEXT
100
AcDbText
 10
92.14294773670257
 20
51.20920842174095
 30
0.0
 40
2.5
  1
Zul. Abw.
 41
0.8
  7
GREEKS
100
AcDbText
  0
LINE
  5
180
330
20
100
AcDbEntity
  8
HILF
100
AcDbLine
 10
68.00000000000006
 20
24.99999999999999
 30
0.0
 11
110.0
 21
24.99999999999999
 31
0.0
  0
LINE
  5
181
330
20
100
AcDbEntity
  8
HILF
100
AcDbLine
 10
68.00000000000006
 20
29.99999999999999
 30
0.0
 11
110.0
 21
29.99999999999999
 31
0.0
  0
LINE
  5
182
330
20
100
AcDbEntity
  8
HILF
100
AcDbLine
 10
68.00000000000006
 20
34.99999999999997
 30
0.0
 11
110.0
 21
34.99999999999997
 31
0.0
  0
ARC
  5
183
330
20
100
AcDbEntity
  8
TEXT
 62
     3
100
AcDbCircle
 10
82.09750516967082
 20
13.23892712376011
 30
0.0
 40
4.5
100
AcDbArc
 50
270.0
 51
231.0575587310159
  0
ARC
  5
184
330
20
100
AcDbEntity
  8
TEXT
 62
     3
100
AcDbCircle
 10
102.0975051696708
 20
13.23892712376014
 30
0.0
 40
4.5
100
AcDbArc
 50
270.0
 51
231.0575587310182
  0
LINE
  5
185
330
20
100
AcDbEntity
  8
TEXT
 62
     3
100
AcDbLine
 10
88.09750516967083
 20
17.73892712376014
 30
0.0
 11
88.09750516967085
 21
8.738927123760138
 31
0.0
  0
ARC
  5
186
330
20
100
AcDbEntity
  8
TEXT
 62
     3
100
AcDbCircle
 10
75.09750516967085
 20
10.73892712376028
 30
0.0
 40
2.0
100
AcDbArc
 50
179.9999999999992
 51
270.0
  0
LINE
  5
187
330
20
100
AcDbEntity
  8
TEXT
 62
     3
100
AcDbLine
 10
89.09750516967084
 20
12.73892712376014
 30
0.0
 11
89.09750516967084
 21
8.738927123760166
 31
0.0
  0
LINE
  5
188
330
20
100
AcDbEntity
  8
TEXT
 62
     3
100
AcDbLine
 10
93.09750516967085
 20
12.73892712376014
 30
0.0
 11
94.16930193939533
 21
8.738927123760138
 31
0.0
  0
LINE
  5
189
330
20
100
AcDbEntity
  8
STEMPEL
100
AcDbLine
 10
68.00000000000006
 20
54.99999999999997
 30
0.0
 11
68.0
 21
4.999999999999985
 31
0.0
  0
LINE
  5
18A
330
20
100
AcDbEntity
  8
TEXT
 62
     3
100
AcDbLine
 10
82.09750516967085
 20
8.738927123760166
 30
0.0
 11
75.09750516967085
 21
8.738927123760138
 31
0.0
  0
LINE
  5
18B
330
20
100
AcDbEntity
  8
TEXT
 62
     3
100
AcDbLine
 10
102.0975051696708
 20
8.738927123760138
 30
0.0
 11
94.1693019393953
 21
8.738927123760166
 31
0.0
  0
LINE
  5
18C
330
20
100
AcDbEntity
  8
TEXT
 62
     3
100
AcDbLine
 10
89.09750516967084
 20
8.738927123760166
 30
0.0
 11
88.09750516967085
 21
8.738927123760166
 31
0.0
  0
CIRCLE
  5
18D
330
20
100
AcDbEntity
  8
TEXT
 62
     3
100
AcDbCircle
 10
82.09750516967082
 20
13.23892712376011
 30
0.0
 40
3.5
  0
TEXT
  5
18E
330
20
100
AcDbEntity
  8
TEXT
100
AcDbText
 10
80.16366688624525
 20
31.6381230352273
 30
0.0
 40
2.0
  1
24.06.
 41
0.8
  7
GREEKS
 72
     1
 11
83.66842879100715
 21
31.6381230352273
 31
0.0
100
AcDbText
  0
TEXT
  5
18F
330
20
100
AcDbEntity
  8
TEXT
100
AcDbText
 10
81.16558365768254
 20
36.65940250614963
 30
0.0
 40
1.8
  1
Tag
 41
0.8
  7
GREEKS
100
AcDbText
  0
TEXT
  5
190
330
20
100
AcDbEntity
  8
TEXT
100
AcDbText
 10
71.75817860751886
 20
51.23104475435443
 30
0.0
 40
2.5
  1
Maßstab
 41
0.8
  7
GREEKS
100
AcDbText
  0
TEXT
  5
191
330
20
100
AcDbEntity
  8
TEXT
100
AcDbText
 10
68.79180635838077
 20
31.81495184808982
 30
0.0
 40
1.8
  1
Gez.
 41
0.8
  7
GREEKS
100
AcDbText
  0
LINE
  5
192
330
20
100
AcDbEntity
  8
VOLL
100
AcDbLine
 10
77.00000000000006
 20
39.99999999999997
 30
0.0
 11
77.00000000000006
 21
19.99999999999998
 31
0.0
  0
TEXT
  5
193
330
20
100
AcDbEntity
  8
TEXT
100
AcDbText
 10
68.80033886936519
 20
21.76473194824904
 30
0.0
 40
1.8
  1
Norm.
 41
0.8
  7
GREEKS
100
AcDbText
  0
TEXT
  5
194
330
20
100
AcDbEntity
  8
TEXT
100
AcDbText
 10
68.77575432858361
 20
26.84463145714189
 30
0.0
 40
1.8
  1
Gepr.
 41
0.8
  7
GREEKS
100
AcDbText
  0
TEXT
  5
195
330
20
100
AcDbEntity
  8
TEXT
100
AcDbText
 10
59.44494414379217
 20
9.29662108483204
 30
0.0
 40
2.0
  1
Name
 41
0.8
  7
GREEKS
 72
     1
 11
62.60684890569694
 21
9.29662108483204
 31
0.0
100
AcDbText
  0
LINE
  5
197
330
20
100
AcDbEntity
  8
TEXT
 62
     3
100
AcDbLine
 10
79.26907804492447
 20
9.738927123760252
 30
0.0
 11
75.09750516967085
 21
9.73892712376028
 31
0.0
  0
LINE
  5
198
330
20
100
AcDbEntity
  8
TEXT
 62
     3
100
AcDbLine
 10
74.09750516967083
 20
17.73892712376008
 30
0.0
 11
74.09750516967085
 21
10.73892712376028
 31
0.0
  0
LINE
  5
199
330
20
100
AcDbEntity
  8
TEXT
 62
     3
100
AcDbLine
 10
73.09750516967082
 20
17.73892712376008
 30
0.0
 11
73.09750516967085
 21
10.73892712376028
 31
0.0
  0
ARC
  5
19A
330
20
100
AcDbEntity
  8
TEXT
 62
     3
100
AcDbCircle
 10
75.09750516967085
 20
10.73892712376028
 30
0.0
 40
1.0
100
AcDbArc
 50
180.0
 51
270.0
  0
LINE
  5
19B
330
20
100
AcDbEntity
  8
TEXT
 62
     3
100
AcDbLine
 10
74.09750516967083
 20
17.73892712376014
 30
0.0
 11
73.09750516967082
 21
17.73892712376014
 31
0.0
  0
TEXT
  5
19C
330
20
100
AcDbEntity
  8
TEXT
100
AcDbText
 10
69.31105491105199
 20
36.57012735575833
 30
0.0
 40
1.8
  1
2008
 41
0.8
  7
GREEKS
100
AcDbText
  0
TEXT
  5
19E
330
20
100
AcDbEntity
  8
TEXT
 62
     1
100
AcDbText
 10
75.62939046306187
 20
43.47879250756998
 30
0.0
 40
3.5
  1
1:1
 41
0.8
  7
GREEKS
100
AcDbText
  0
TEXT
  5
19F
330
20
100
AcDbEntity
  8
TEXT
100
AcDbText
 10
97.42845740347638
 20
31.54481959861755
 30
0.0
 40
2.0
  1
Koeh
 41
0.8
  7
GREEKS
 72
     1
 11
100.0570288320478
 21
31.54481959861755
 31
0.0
100
AcDbText
  0
LINE
  5
1A0
330
20
100
AcDbEntity
  8
VOLL
100
AcDbLine
 10
90.00000000000005
 20
54.99999999999992
 30
0.0
 11
90.0
 21
19.99999999999998
 31
0.0
  0
LINE
  5
1A1
330
20
100
AcDbEntity
  8
TEXT
 62
     3
100
AcDbLine
 10
99.26907804492465
 20
9.738927123760138
 30
0.0
 11
94.93662892737432
 21
9.738927123760166
 31
0.0
  0
LINE
  5
1A2
330
20
100
AcDbEntity
  8
TEXT
 62
     3
100
AcDbLine
 10
93.09750516967085
 20
12.73892712376014
 30
0.0
 11
89.09750516967083
 21
12.73892712376014
 31
0.0
  0
LINE
  5
1A3
330
20
100
AcDbEntity
  8
TEXT
 62
     3
100
AcDbLine
 10
93.09750516967085
 20
13.73892712376014
 30
0.0
 11
89.09750516967084
 21
13.73892712376014
 31
0.0
  0
LINE
  5
1A4
330
20
100
AcDbEntity
  8
TEXT
 62
     3
100
AcDbLine
 10
93.09750516967085
 20
16.73892712376014
 30
0.0
 11
89.09750516967084
 21
16.73892712376014
 31
0.0
  0
LINE
  5
1A5
330
20
100
AcDbEntity
  8
TEXT
 62
     3
100
AcDbLine
 10
93.09750516967085
 20
17.73892712376014
 30
0.0
 11
88.09750516967085
 21
17.73892712376014
 31
0.0
  0
LINE
  5
1A6
330
20
100
AcDbEntity
  8
TEXT
 62
     3
100
AcDbLine
 10
89.09750516967084
 20
16.73892712376014
 30
0.0
 11
89.09750516967084
 21
13.73892712376014
 31
0.0
  0
ARC
  5
1A7
330
20
100
AcDbEntity
  8
TEXT
 62
     3
100
AcDbCircle
 10
93.09750516967085
 20
15.23892712376014
 30
0.0
 40
2.5
100
AcDbArc
 50
293.1161887722295
 51
90.0
  0
ARC
  5
1A8
330
20
100
AcDbEntity
  8
TEXT
 62
     3
100
AcDbCircle
 10
93.09750516967085
 20
15.23892712376014
 30
0.0
 40
1.5
100
AcDbArc
 50
270.0
 51
90.0
  0
ARC
  5
1A9
330
20
100
AcDbEntity
  8
TEXT
 62
     3
100
AcDbCircle
 10
93.09750516967085
 20
15.23892712376014
 30
0.0
 40
2.5
100
AcDbArc
 50
270.0
 51
270.0000000000007
  0
LINE
  5
1AA
330
20
100
AcDbEntity
  8
TEXT
 62
     3
100
AcDbLine
 10
94.06343099595991
 20
12.99774616886265
 30
0.0
 11
94.93662892737431
 21
9.738927123760166
 31
0.0
  0
CIRCLE
  5
1AB
330
20
100
AcDbEntity
  8
TEXT
 62
     3
100
AcDbCircle
 10
102.0975051696708
 20
13.23892712376014
 30
0.0
 40
3.5
  0
TEXT
  5
1AC
330
20
100
AcDbEntity
  8
TEXT
100
AcDbText
 10
91.3473965120978
 20
44.64562352614806
 30
0.0
 40
2.0
  1
DIN EN1123-2
 41
0.8
  7
GREEKS
 72
     1
 11
99.8426346073359
 21
44.64562352614806
 31
0.0
100
AcDbText
  0
TEXT
  5
1AD
330
20
100
AcDbEntity
  8
TEXT
100
AcDbText
 10
96.23132921131475
 20
36.65480545957612
 30
0.0
 40
1.8
  1
Name
 41
0.8
  7
GREEKS
100
AcDbText
  0
LINE
  5
1AE
330
20
100
AcDbEntity
  8
STEMPEL
100
AcDbLine
 10
110.0
 20
55.00000000000003
 30
0.0
 11
110.0
 21
4.999999999999985
 31
0.0
  0
TEXT
  5
1AF
330
20
100
AcDbEntity
  8
TEXT
100
AcDbText
 10
112.5648195562657
 20
25.82005971521079
 30
0.0
 40
2.5
  1
EDV-Art.Nr. 00918.040X
 41
0.8
  7
GREEKS
100
AcDbText
  0
TEXT
  5
1B0
330
20
100
AcDbEntity
  8
TEXT
100
AcDbText
 10
112.371119195568
 20
15.42280285096528
 30
0.0
 40
2.5
  1
Bauvorhaben
 41
0.8
  7
GREEKS
100
AcDbText
  0
TEXT
  5
1B1
330
20
100
AcDbEntity
  8
TEXT
 62
     1
100
AcDbText
 10
113.4467865528701
 20
43.70874394626889
 30
0.0
 40
3.5
  1
Dichtelement DN40
 41
0.8
  7
GREEKS
100
AcDbText
  0
TEXT
  5
1B2
330
20
100
AcDbEntity
  8
TEXT
100
AcDbText
 10
112.4918750788913
 20
21.31487076511316
 30
0.0
 40
1.8
  1
00918040W.DWG
 41
0.8
  7
GREEKS
100
AcDbText
  0
TEXT
  5
1B3
330
20
100
AcDbEntity
  8
TEXT
100
AcDbText
 10
112.4389701904505
 20
51.27446640058898
 30
0.0
 40
2.5
  1
Benennung
 41
0.8
  7
GREEKS
100
AcDbText
  0
LINE
  5
1EF
330
20
100
AcDbEntity
  8
HILF
100
AcDbLine
 10
210.0
 20
-0.0000000000000568
 30
0.0
 11
210.0
 21
297.0
 31
0.0
  0
LINE
  5
1F0
330
20
100
AcDbEntity
  8
STEMPEL
100
AcDbLine
 10
205.0
 20
55.00000000000003
 30
0.0
 11
205.0
 21
292.0
 31
0.0
  0
LINE
  5
1F1
330
20
100
AcDbEntity
  8
STEMPEL
100
AcDbLine
 10
205.0
 20
55.00000000000003
 30
0.0
 11
205.0
 21
5.0
 31
0.0
  0
TEXT
  5
1F2
330
20
100
AcDbEntity
  8
TEXT
 62
     1
100
AcDbText
 10
173.7505192313636
 20
44.07450714456979
 30
0.0
 40
3.5
  1
00918040W
 41
0.8
  7
GREEKS
 72
     1
 11
185.483852564697
 21
44.07450714456979
 31
0.0
100
AcDbText
  0
TEXT
  5
1F4
330
20
100
AcDbEntity
  8
TEXT
100
AcDbText
 10
168.6200430748503
 20
26.03708088939301
 30
0.0
 40
2.5
  1
ersetzt durch:
 41
0.8
  7
GREEKS
100
AcDbText
  0
TEXT
  5
1F5
330
20
100
AcDbEntity
  8
TEXT
100
AcDbText
 10
168.3619308148496
 20
36.59059118549985
 30
0.0
 40
2.5
  1
Ersatz für:
 41
0.8
  7
GREEKS
100
AcDbText
  0
TEXT
  5
1F6
330
20
100
AcDbEntity
  8
TEXT
100
AcDbText
 10
168.089377478817
 20
51.15660172685682
 30
0.0
 40
2.5
  1
Zeichnungs Nr.
 41
0.8
  7
GREEKS
100
AcDbText
  0
LINE
  5
1F7
330
20
100
AcDbEntity
  8
HILF
100
AcDbLine
 10
168.3619308148496
 20
41.88991818477913
 30
0.0
 11
202.4294419663364
 21
41.88991818477913
 31
0.0
  0
LINE
  5
1F8
330
20
100
AcDbEntity
  8
VOLL
100
AcDbLine
 10
166.0
 20
30.0
 30
0.0
 11
205.0
 21
30.0
 31
0.0
  0
LINE
  5
1F9
330
20
100
AcDbEntity
  8
STEMPEL
100
AcDbLine
 10
166.0
 20
54.99999999999989
 30
0.0
 11
166.0
 21
20.0
 31
0.0
  0
TEXT
  5
208
330
20
100
AcDbEntity
  8
TEXT
100
AcDbText
 10
99.8426346073359
 20
42.01939489256613
 30
0.0
 40
2.0
  1

 41
0.8
  7
GREEKS
 72
     1
 11
99.8426346073359
 21
42.01939489256613
 31
0.0
100
AcDbText
  0
TEXT
  5
249
330
20
100
AcDbEntity
  8
BEM
100
AcDbText
 10
208.2905770718719
 20
6.074024076691515
 30
0.0
 40
2.0
  1
Diese Zeichnung ist urheberrechtlich geschützt und bleibt unser Eigentum. Sie darf weder ganz noch teilweise vervielfältigt und nicht an Dritte weitergegeben werden.
 50
90.0
 41
0.8
  7
GREEKS
100
AcDbText
  0
LINE
  5
66F
330
20
100
AcDbEntity
  8
HILF
100
AcDbLine
 10
97.77264183449899
 20
155.7468583132359
 30
0.0
 11
135.2726418344989
 21
155.7468583132359
 31
0.0
  0
LINE
  5
670
330
20
100
AcDbEntity
  8
HILF
100
AcDbLine
 10
96.95627312341896
 20
153.8987821018827
 30
0.0
 11
136.0890105455789
 21
153.8987821018827
 31
0.0
  0
LINE
  5
671
330
20
100
AcDbEntity
  8
HILF
100
AcDbLine
 10
96.69150300441476
 20
157.876215408094
 30
0.0
 11
136.353780664583
 21
157.876215408094
 31
0.0
  0
ARC
  5
673
102
{ACAD_REACTORS
330
7C7
102
}
330
20
100
AcDbEntity
  8
STEMPEL
100
AcDbCircle
 10
98.27264183449898
 20
159.1009602794855
 30
0.0
 40
3.0
100
AcDbArc
 50
180.0
 51
228.1896851042203
  0
ARC
  5
674
102
{ACAD_REACTORS
330
7C7
102
}
330
20
100
AcDbEntity
  8
STEMPEL
100
AcDbCircle
 10
134.7726418344989
 20
159.1009602794857
 30
0.0
 40
3.0
100
AcDbArc
 50
311.8103148957761
 51
359.9999999999992
  0
ARC
  5
675
102
{ACAD_REACTORS
330
715
330
7C7
102
}
330
20
100
AcDbEntity
  8
STEMPEL
100
AcDbCircle
 10
141.522641834499
 20
168.2468583132358
 30
0.0
 40
1.0
100
AcDbArc
 50
0.0
 51
90.0
  0
ARC
  5
676
102
{ACAD_REACTORS
330
7C7
102
}
330
20
100
AcDbEntity
  8
STEMPEL
100
AcDbCircle
 10
91.52264183449899
 20
168.2468583132358
 30
0.0
 40
1.0
100
AcDbArc
 50
90.0
 51
180.0
  0
LINE
  5
677
102
{ACAD_REACTORS
330
7C7
102
}
330
20
100
AcDbEntity
  8
STEMPEL
100
AcDbLine
 10
142.522641834499
 20
164.7468583132358
 30
0.0
 11
142.522641834499
 21
168.2468583132358
 31
0.0
  0
LINE
  5
678
102
{ACAD_REACTORS
330
715
330
7C7
102
}
330
20
100
AcDbEntity
  8
STEMPEL
100
AcDbLine
 10
90.52264183449898
 20
164.7468583132358
 30
0.0
 11
90.52264183449898
 21
168.2468583132358
 31
0.0
  0
LINE
  5
679
102
{ACAD_REACTORS
330
7C7
102
}
330
20
100
AcDbEntity
  8
STEMPEL
100
AcDbLine
 10
137.7726418344989
 20
165.1646787681399
 30
0.0
 11
137.7726418344989
 21
159.1009602794857
 31
0.0
  0
ARC
  5
67A
102
{ACAD_REACTORS
330
7C7
102
}
330
20
100
AcDbEntity
  8
STEMPEL
100
AcDbCircle
 10
137.7726418344989
 20
155.7468583132359
 30
0.0
 40
1.5
100
AcDbArc
 50
131.8103148957761
 51
239.9999999999998
  0
ARC
  5
67B
102
{ACAD_REACTORS
330
7C7
102
}
330
20
100
AcDbEntity
  8
STEMPEL
100
AcDbCircle
 10
136.2726418344989
 20
153.1487821018826
 30
0.0
 40
1.5
100
AcDbArc
 50
0.0
 51
59.99999999999804
  0
LINE
  5
67C
102
{ACAD_REACTORS
330
7C7
102
}
330
20
100
AcDbEntity
  8
STEMPEL
100
AcDbLine
 10
137.7726418344989
 20
153.1487821018826
 30
0.0
 11
137.7726418344988
 21
139.4968583132359
 31
0.0
  0
ARC
  5
67D
102
{ACAD_REACTORS
330
7C7
102
}
330
20
100
AcDbEntity
  8
STEMPEL
100
AcDbCircle
 10
96.77264183449899
 20
153.1487821018827
 30
0.0
 40
1.5
100
AcDbArc
 50
120.0000000000019
 51
180.0
  0
LINE
  5
67E
102
{ACAD_REACTORS
330
7C7
102
}
330
20
100
AcDbEntity
  8
STEMPEL
100
AcDbLine
 10
95.27264183449899
 20
153.1487821018827
 30
0.0
 11
95.27264183449899
 21
139.4968583132359
 31
0.0
  0
ARC
  5
67F
102
{ACAD_REACTORS
330
7C7
102
}
330
20
100
AcDbEntity
  8
STEMPEL
100
AcDbCircle
 10
95.27264183449899
 20
155.7468583132359
 30
0.0
 40
1.5
100
AcDbArc
 50
300.0000000000001
 51
48.18968510422037
  0
LINE
  5
680
102
{ACAD_REACTORS
330
75D
330
775
330
78D
102
}
330
20
100
AcDbEntity
  8
STEMPEL
100
AcDbLine
 10
138.5226418344989
 20
136.7468583132359
 30
0.0
 11
94.52264183449896
 21
136.746858313236
 31
0.0
  0
ARC
  5
681
102
{ACAD_REACTORS
330
7C7
102
}
330
20
100
AcDbEntity
  8
STEMPEL
100
AcDbCircle
 10
96.52264183449894
 20
139.4968583132359
 30
0.0
 40
1.25
100
AcDbArc
 50
180.0
 51
216.8698976458434
  0
LINE
  5
682
330
20
100
AcDbEntity
  8
STEMPEL
100
AcDbLine
 10
94.52264183449896
 20
136.746858313236
 30
0.0
 11
94.52264183449896
 21
136.746858313236
 31
0.0
  0
ARC
  5
683
102
{ACAD_REACTORS
330
7C7
102
}
330
20
100
AcDbEntity
  8
STEMPEL
100
AcDbCircle
 10
94.52264183449896
 20
137.996858313236
 30
0.0
 40
1.25
100
AcDbArc
 50
270.0
 51
36.86989764584338
  0
ARC
  5
684
102
{ACAD_REACTORS
330
7C7
102
}
330
20
100
AcDbEntity
  8
STEMPEL
100
AcDbCircle
 10
136.5226418344989
 20
139.4968583132359
 30
0.0
 40
1.25
100
AcDbArc
 50
323.1301023541566
 51
0.0
  0
ARC
  5
685
102
{ACAD_REACTORS
330
7C7
102
}
330
20
100
AcDbEntity
  8
STEMPEL
100
AcDbCircle
 10
138.5226418344989
 20
137.9968583132359
 30
0.0
 40
1.25
100
AcDbArc
 50
143.130102354156
 51
270.0
  0
LINE
  5
686
102
{ACAD_REACTORS
330
7C7
102
}
330
20
100
AcDbEntity
  8
STEMPEL
100
AcDbLine
 10
95.27264183449899
 20
165.1646787681402
 30
0.0
 11
95.27264183449899
 21
159.1009602794855
 31
0.0
  0
LINE
  5
687
102
{ACAD_REACTORS
330
6FD
102
}
330
20
100
AcDbEntity
  8
STEMPEL
100
AcDbLine
 10
95.27264183449899
 20
165.1646787681403
 30
0.0
 11
137.7726418344989
 21
165.1646787681396
 31
0.0
  0
LINE
  5
688
102
{ACAD_REACTORS
330
7C7
102
}
330
20
100
AcDbEntity
  8
STEMPEL
100
AcDbLine
 10
94.52264183449901
 20
136.7468583132359
 30
0.0
 11
94.02264183449906
 21
142.7468583132359
 31
0.0
  0
LINE
  5
689
102
{ACAD_REACTORS
330
7C7
102
}
330
20
100
AcDbEntity
  8
STEMPEL
100
AcDbLine
 10
138.5226418344989
 20
136.7468583132359
 30
0.0
 11
139.0226418344988
 21
142.7468583132359
 31
0.0
  0
POINT
  5
68A
330
20
100
AcDbEntity
  8
DEFPOINTS
  6
ByBlock
 62
     0
100
AcDbPoint
 10
92.12264183449901
 20
158.6468583132358
 30
0.0
  0
ARC
  5
68B
102
{ACAD_REACTORS
330
7C7
102
}
330
20
100
AcDbEntity
  8
STEMPEL
100
AcDbCircle
 10
139.6075783250378
 20
156.1619218226968
 30
0.0
 40
0.584936490538955
100
AcDbArc
 50
29.99999999999902
 51
180.0
  0
ARC
  5
68C
102
{ACAD_REACTORS
330
7C7
102
}
330
20
100
AcDbEntity
  8
STEMPEL
100
AcDbCircle
 10
93.43770534396009
 20
156.1619218226968
 30
0.0
 40
0.584936490538955
100
AcDbArc
 50
0.0
 51
150.0000000000009
  0
LINE
  5
68D
102
{ACAD_REACTORS
330
72D
330
7C7
102
}
330
20
100
AcDbEntity
  8
STEMPEL
100
AcDbLine
 10
139.0226418344988
 20
156.1619218226968
 30
0.0
 11
139.0226418344988
 21
142.7468583132359
 31
0.0
  0
POINT
  5
68E
330
20
100
AcDbEntity
  8
DEFPOINTS
  6
ByBlock
 62
     0
100
AcDbPoint
 10
90.52264183449898
 20
164.7468583132358
 30
0.0
  0
POINT
  5
68F
330
20
100
AcDbEntity
  8
DEFPOINTS
  6
ByBlock
 62
     0
100
AcDbPoint
 10
90.52264183449896
 20
164.7468583132358
 30
0.0
  0
POINT
  5
690
330
20
100
AcDbEntity
  8
DEFPOINTS
  6
ByBlock
 62
     0
100
AcDbPoint
 10
140.522641834499
 20
155.7468583132358
 30
0.0
  0
POINT
  5
691
330
20
100
AcDbEntity
  8
DEFPOINTS
  6
ByBlock
 62
     0
100
AcDbPoint
 10
92.52264183449899
 20
155.7468583132358
 30
0.0
  0
POINT
  5
692
330
20
100
AcDbEntity
  8
DEFPOINTS
  6
ByBlock
 62
     0
100
AcDbPoint
 10
91.32264183449899
 20
155.7468583132358
 30
0.0
  0
LINE
  5
693
330
20
100
AcDbEntity
  8
MITTEL
100
AcDbLine
 10
116.522641834499
 20
174.2468583132358
 30
0.0
 11
116.5226418344989
 21
131.7468583132359
 31
0.0
  0
LINE
  5
694
102
{ACAD_REACTORS
330
7C7
102
}
330
20
100
AcDbEntity
  8
STEMPEL
100
AcDbLine
 10
93.63197588975323
 20
164.0121225318429
 30
0.0
 11
92.12264183449901
 21
161.1734780290778
 31
0.0
  0
LINE
  5
695
330
20
100
AcDbEntity
  8
HILF
100
AcDbLine
 10
96.48277043297486
 20
139.1015736057149
 30
0.0
 11
136.562513236023
 21
139.1015736057149
 31
0.0
  0
LINE
  5
696
102
{ACAD_REACTORS
330
7C7
102
}
330
20
100
AcDbEntity
  8
STEMPEL
100
AcDbLine
 10
141.722641834499
 20
155.7468583132358
 30
0.0
 11
139.0226418344988
 21
155.7468583132359
 31
0.0
  0
LINE
  5
697
102
{ACAD_REACTORS
330
72D
330
7C7
102
}
330
20
100
AcDbEntity
  8
STEMPEL
100
AcDbLine
 10
94.02264183449904
 20
156.1619218226968
 30
0.0
 11
94.02264183449904
 21
142.7468583132359
 31
0.0
  0
POINT
  5
698
330
20
100
AcDbEntity
  8
SCHRAFF
  6
ByBlock
 62
     0
100
AcDbPoint
 10
142.522641834499
 20
164.7468583132358
 30
0.0
  0
POINT
  5
699
330
20
100
AcDbEntity
  8
SCHRAFF
  6
ByBlock
 62
     0
100
AcDbPoint
 10
142.522641834499
 20
164.7468583132358
 30
0.0
  0
LINE
  5
69A
102
{ACAD_REACTORS
330
7C7
102
}
330
20
100
AcDbEntity
  8
STEMPEL
100
AcDbLine
 10
142.522641834499
 20
164.7468583132358
 30
0.0
 11
139.8547815756742
 21
164.7468583132358
 31
0.0
  0
LINE
  5
69B
102
{ACAD_REACTORS
330
7C7
102
}
330
20
100
AcDbEntity
  8
STEMPEL
100
AcDbLine
 10
140.922641834499
 20
161.1734780290778
 30
0.0
 11
140.922641834499
 21
160.8468583132358
 31
0.0
  0
LINE
  5
69C
102
{ACAD_REACTORS
330
7C7
102
}
330
20
100
AcDbEntity
  8
STEMPEL
100
AcDbLine
 10
141.522641834499
 20
160.2468583132358
 30
0.0
 11
140.922641834499
 21
160.8468583132358
 31
0.0
  0
LINE
  5
69D
102
{ACAD_REACTORS
330
7C7
102
}
330
20
100
AcDbEntity
  8
STEMPEL
100
AcDbLine
 10
139.4133077792448
 20
164.0121225318428
 30
0.0
 11
140.922641834499
 21
161.1734780290778
 31
0.0
  0
LINE
  5
69E
102
{ACAD_REACTORS
330
7C7
102
}
330
20
100
AcDbEntity
  8
STEMPEL
100
AcDbLine
 10
141.522641834499
 20
159.2468583132358
 30
0.0
 11
140.922641834499
 21
158.6468583132358
 31
0.0
  0
LINE
  5
69F
102
{ACAD_REACTORS
330
7C7
102
}
330
20
100
AcDbEntity
  8
STEMPEL
100
AcDbLine
 10
140.522641834499
 20
155.7468583132358
 30
0.0
 11
140.1141481854451
 21
156.4543900679663
 31
0.0
  0
LINE
  5
6A0
102
{ACAD_REACTORS
330
7C7
102
}
330
20
100
AcDbEntity
  8
STEMPEL
100
AcDbLine
 10
141.722641834499
 20
155.7468583132358
 30
0.0
 11
140.922641834499
 21
157.1324989592909
 31
0.0
  0
LINE
  5
6A1
102
{ACAD_REACTORS
330
7C7
102
}
330
20
100
AcDbEntity
  8
STEMPEL
100
AcDbLine
 10
140.922641834499
 20
158.6468583132358
 30
0.0
 11
140.922641834499
 21
157.1324989592909
 31
0.0
  0
LINE
  5
6A2
102
{ACAD_REACTORS
330
745
330
7C7
102
}
330
20
100
AcDbEntity
  8
STEMPEL
100
AcDbLine
 10
141.522641834499
 20
160.2468583132358
 30
0.0
 11
141.522641834499
 21
159.2468583132358
 31
0.0
  0
LINE
  5
6A3
102
{ACAD_REACTORS
330
7C7
102
}
330
20
100
AcDbEntity
  8
STEMPEL
100
AcDbLine
 10
137.7726418344989
 20
165.1646787681399
 30
0.0
 11
138.4924402283955
 21
169.2468583132357
 31
0.0
  0
ARC
  5
6A4
102
{ACAD_REACTORS
330
7C7
102
}
330
20
100
AcDbEntity
  8
STEMPEL
100
AcDbCircle
 10
139.8547815756742
 20
164.2468583132358
 30
0.0
 40
0.5
100
AcDbArc
 50
90.0
 51
208.0000000000004
  0
LINE
  5
6A5
102
{ACAD_REACTORS
330
775
330
7C7
102
}
330
20
100
AcDbEntity
  8
STEMPEL
100
AcDbLine
 10
90.52264183449898
 20
164.7468583132358
 30
0.0
 11
93.19050209332374
 21
164.7468583132357
 31
0.0
  0
ARC
  5
6A6
102
{ACAD_REACTORS
330
7C7
102
}
330
20
100
AcDbEntity
  8
STEMPEL
100
AcDbCircle
 10
93.19050209332374
 20
164.2468583132358
 30
0.0
 40
0.5
100
AcDbArc
 50
331.9999999999996
 51
89.99999999999836
  0
LINE
  5
6A7
102
{ACAD_REACTORS
330
7C7
102
}
330
20
100
AcDbEntity
  8
STEMPEL
100
AcDbLine
 10
91.52264183449899
 20
160.2468583132358
 30
0.0
 11
92.12264183449901
 21
160.8468583132358
 31
0.0
  0
LINE
  5
6A8
102
{ACAD_REACTORS
330
7C7
102
}
330
20
100
AcDbEntity
  8
STEMPEL
100
AcDbLine
 10
91.52264183449899
 20
159.2468583132358
 30
0.0
 11
92.12264183449901
 21
158.6468583132358
 31
0.0
  0
LINE
  5
6A9
102
{ACAD_REACTORS
330
745
330
7C7
102
}
330
20
100
AcDbEntity
  8
STEMPEL
100
AcDbLine
 10
91.52264183449899
 20
160.2468583132358
 30
0.0
 11
91.52264183449899
 21
159.2468583132358
 31
0.0
  0
LINE
  5
6AA
102
{ACAD_REACTORS
330
7C7
102
}
330
20
100
AcDbEntity
  8
STEMPEL
100
AcDbLine
 10
92.12264183449901
 20
158.6468583132358
 30
0.0
 11
92.12264183449901
 21
157.1324989592909
 31
0.0
  0
LINE
  5
6AB
102
{ACAD_REACTORS
330
7C7
102
}
330
20
100
AcDbEntity
  8
STEMPEL
100
AcDbLine
 10
92.12264183449901
 20
161.1734780290778
 30
0.0
 11
92.12264183449901
 21
160.8468583132358
 31
0.0
  0
LINE
  5
6AC
102
{ACAD_REACTORS
330
7C7
102
}
330
20
100
AcDbEntity
  8
STEMPEL
100
AcDbLine
 10
95.27264183449899
 20
165.1646787681402
 30
0.0
 11
94.55284344060244
 21
169.2468583132357
 31
0.0
  0
LINE
  5
6AD
102
{ACAD_REACTORS
330
7C7
102
}
330
20
100
AcDbEntity
  8
STEMPEL
100
AcDbLine
 10
91.32264183449899
 20
155.7468583132358
 30
0.0
 11
94.02264183449904
 21
155.7468583132359
 31
0.0
  0
LINE
  5
6AE
102
{ACAD_REACTORS
330
7C7
102
}
330
20
100
AcDbEntity
  8
STEMPEL
100
AcDbLine
 10
92.52264183449899
 20
155.7468583132358
 30
0.0
 11
92.93113548355282
 21
156.4543900679663
 31
0.0
  0
LINE
  5
6AF
102
{ACAD_REACTORS
330
75D
330
7C7
102
}
330
20
100
AcDbEntity
  8
STEMPEL
100
AcDbLine
 10
91.32264183449899
 20
155.7468583132358
 30
0.0
 11
92.12264183449901
 21
157.1324989592909
 31
0.0
  0
LINE
  5
6B0
102
{ACAD_REACTORS
330
78D
330
7C7
102
}
330
20
100
AcDbEntity
  8
STEMPEL
100
AcDbLine
 10
91.52264183449899
 20
169.2468583132358
 30
0.0
 11
141.522641834499
 21
169.2468583132358
 31
0.0
  0
TEXT
  5
6C8
330
20
100
AcDbEntity
  8
TEXT
 62
     1
100
AcDbText
 10
33.62922931407434
 20
214.9296284619235
 30
0.0
 40
3.5
  1
Gravur: EN 1123 LORO DN40 VAC TG Nest.Nr. WC Jahreszahl
 41
0.8
  7
GREEKS
100
AcDbText
  0
LINE
  5
6C9
330
20
100
AcDbEntity
  8
TEXT
 62
     2
100
AcDbLine
 10
47.34246845462692
 20
213.0052224155502
 30
0.0
 11
33.62922931407434
 21
213.0052224155502
 31
0.0
  0
ARC
  5
6CA
330
20
100
AcDbEntity
  8
TEXT
 62
     2
100
AcDbCircle
 10
181.9979087851111
 20
225.5548219061759
 30
0.0
 40
1.873481366226997
100
AcDbArc
 50
268.4391661543623
 51
0.9693128199328235
  0
ARC
  5
6CB
330
20
100
AcDbEntity
  8
TEXT
 62
     2
100
AcDbCircle
 10
185.744335323913
 20
225.5548219061759
 30
0.0
 40
1.873481366226997
100
AcDbArc
 50
179.0306871800672
 51
271.5608338456491
  0
ARC
  5
6CC
330
20
100
AcDbEntity
  8
TEXT
 62
     2
100
AcDbCircle
 10
195.7651311986657
 20
221.8092494163628
 30
0.0
 40
1.873481366226997
100
AcDbArc
 50
359.0306871800672
 51
91.56083384564263
  0
ARC
  5
6CD
330
20
100
AcDbEntity
  8
TEXT
 62
     2
100
AcDbCircle
 10
171.80000606058
 20
221.8092494163628
 30
0.0
 40
1.873481366226997
100
AcDbArc
 50
88.43916615436063
 51
180.9693128199328
  0
LINE
  5
6CE
330
20
100
AcDbEntity
  8
TEXT
 62
     2
100
AcDbLine
 10
185.7953658096696
 20
223.6820356612694
 30
0.0
 11
195.7141007129092
 21
223.6820356612694
 31
0.0
  0
LINE
  5
6CF
330
20
100
AcDbEntity
  8
TEXT
 62
     2
100
AcDbLine
 10
171.8510365463363
 20
223.6820356612693
 30
0.0
 11
181.9468782993549
 21
223.6820356612694
 31
0.0
  0
TEXT
  5
6D0
330
20
100
AcDbEntity
  8
TEXT
 62
     2
100
AcDbText
 10
169.3052304074449
 20
227.6972652306544
 30
0.0
 40
2.0
  1
Raster für weitere Jahre
 41
0.8
  7
GREEKS
100
AcDbText
  0
LINE
  5
6D1
330
20
100
AcDbEntity
  8
TEXT
 62
     1
100
AcDbLine
 10
169.7726077710651
 20
216.7004590418786
 30
0.0
 11
197.7726077710653
 21
216.7004590418786
 31
0.0
  0
LINE
  5
6D2
330
20
100
AcDbEntity
  8
TEXT
 62
     1
100
AcDbLine
 10
197.7726077710653
 20
218.7846594818912
 30
0.0
 11
197.7726077710653
 21
214.6162586018659
 31
0.0
  0
LINE
  5
6D3
330
20
100
AcDbEntity
  8
TEXT
 62
     1
100
AcDbLine
 10
193.7726077710653
 20
218.7846594818912
 30
0.0
 11
193.7726077710653
 21
214.6162586018659
 31
0.0
  0
LINE
  5
6D4
330
20
100
AcDbEntity
  8
TEXT
 62
     1
100
AcDbLine
 10
189.7726077710651
 20
218.7846594818912
 30
0.0
 11
189.7726077710651
 21
214.6162586018659
 31
0.0
  0
LINE
  5
6D5
330
20
100
AcDbEntity
  8
TEXT
 62
     1
100
AcDbLine
 10
185.7726077710651
 20
218.7846594818912
 30
0.0
 11
185.7726077710651
 21
214.6162586018659
 31
0.0
  0
LINE
  5
6D6
330
20
100
AcDbEntity
  8
TEXT
 62
     1
100
AcDbLine
 10
181.7726077710651
 20
218.7846594818912
 30
0.0
 11
181.7726077710651
 21
214.6162586018659
 31
0.0
  0
LINE
  5
6D7
330
20
100
AcDbEntity
  8
TEXT
 62
     1
100
AcDbLine
 10
177.7726077710651
 20
218.7846594818912
 30
0.0
 11
177.7726077710651
 21
214.6162586018659
 31
0.0
  0
LINE
  5
6D8
330
20
100
AcDbEntity
  8
TEXT
 62
     1
100
AcDbLine
 10
173.7726077710652
 20
218.7846594818912
 30
0.0
 11
173.7726077710652
 21
214.6162586018659
 31
0.0
  0
LINE
  5
6D9
330
20
100
AcDbEntity
  8
TEXT
 62
     1
100
AcDbLine
 10
169.7726077710651
 20
218.7846594818912
 30
0.0
 11
169.7726077710651
 21
214.6162586018659
 31
0.0
  0
LINE
  5
6DA
330
20
100
AcDbEntity
  8
TEXT
 62
     2
100
AcDbLine
 10
90.52264183449898
 20
166.4968583132358
 30
0.0
 11
33.62922931407434
 21
213.0052224155502
 31
0.0
  0
TEXT
  5
6E1
330
20
100
AcDbEntity
  8
TEXT
 62
     1
100
AcDbText
 10
61.52946099999957
 20
63.88889191869274
 30
0.0
 40
3.5
  1
Farbe: schwarz
 41
0.8
  7
GREEKS
100
AcDbText
  0
TEXT
  5
6E2
330
20
100
AcDbEntity
  8
TEXT
 62
     1
100
AcDbText
 10
53.73208176830274
 20
70.18630682328264
 30
0.0
 40
3.5
  1
Werkstoff: Äthylen-Propylen-Dien-Kautschuk (EPDM) 50%%p5 IRHD
 41
0.8
  7
GREEKS
100
AcDbText
  0
TEXT
  5
6E3
330
20
100
AcDbEntity
  8
TEXT
100
AcDbText
 10
112.5648195562657
 20
35.82005971521077
 30
0.0
 40
2.5
  1
für LORO-X-VAC
 41
0.8
  7
GREEKS
100
AcDbText
  0
DIMENSION
  5
6E6
102
{ACAD_XDICTIONARY
360
6F3
102
}
102
{ACAD_REACTORS
330
6FD
102
}
330
20
100
AcDbEntity
  8
BEM
100
AcDbDimension
  2
*D0
 10
137.7726418344989
 20
177.074343482667
 30
0.0
 11
116.5226418344989
 21
180.324343482667
 31
0.0
 70
    32
 71
     5
 42
42.49999999999994
  3
Standard
100
AcDbAlignedDimension
 13
95.27264183449899
 23
165.1646787681403
 33
0.0
 14
137.7726418344989
 24
165.1646787681396
 34
0.0
100
AcDbRotatedDimension
1001
ACAD
1000
DSTYLE
1002
{
1070
    41
1040
3.5
1070
    42
1040
1.0
1070
    43
1040
7.0
1070
    44
1040
1.0
1070
    47
1040
0.6
1070
    48
1040
0.6
1070
    73
1070
     0
1070
    74
1070
     0
1070
    77
1070
     1
1070
    78
1070
     8
1070
    79
1070
     2
1070
   140
1040
3.5
1070
   141
1040
1.5
1070
   146
1040
0.5142857142857144
1070
   147
1040
1.5
1070
   172
1070
     1
1070
   178
1070
     1
1070
   179
1070
     2
1070
   271
1070
     2
1070
   272
1070
     2
1070
   284
1070
     8
1070
   285
1070
     8
1070
   286
1070
     8
1002
}
  0
DIMENSION
  5
6FE
102
{ACAD_XDICTIONARY
360
70B
102
}
102
{ACAD_REACTORS
330
715
102
}
330
20
100
AcDbEntity
  8
BEM
100
AcDbDimension
  2
*D1
 10
142.522641834499
 20
184.2646402002068
 30
0.0
 11
116.522641834499
 21
187.5146402002068
 31
0.0
 70
    32
 71
     5
 42
52.0
  3
Standard
100
AcDbAlignedDimension
 13
90.52264183449898
 23
168.2468583132358
 33
0.0
 14
142.522641834499
 24
168.2468583132358
 34
0.0
100
AcDbRotatedDimension
1001
ACAD
1000
DSTYLE
1002
{
1070
    41
1040
3.5
1070
    42
1040
1.0
1070
    43
1040
7.0
1070
    44
1040
1.0
1070
    47
1040
0.6
1070
    48
1040
0.6
1070
    73
1070
     0
1070
    74
1070
     0
1070
    77
1070
     1
1070
    78
1070
     8
1070
    79
1070
     2
1070
   140
1040
3.5
1070
   141
1040
1.5
1070
   146
1040
0.5142857142857144
1070
   147
1040
1.5
1070
   172
1070
     1
1070
   178
1070
     1
1070
   179
1070
     2
1070
   271
1070
     2
1070
   272
1070
     2
1070
   284
1070
     8
1070
   285
1070
     8
1070
   286
1070
     8
1002
}
  0
DIMENSION
  5
716
102
{ACAD_XDICTIONARY
360
723
102
}
102
{ACAD_REACTORS
330
72D
102
}
330
20
100
AcDbEntity
  8
BEM
100
AcDbDimension
  2
*D2
 10
139.0226418344988
 20
124.4786550865618
 30
0.0
 11
116.5226418344989
 21
127.7286550865618
 31
0.0
 70
    32
 71
     5
 42
44.99999999999977
  3
Standard
100
AcDbAlignedDimension
 13
94.02264183449904
 23
142.7468583132359
 33
0.0
 14
139.0226418344988
 24
142.7468583132359
 34
0.0
100
AcDbRotatedDimension
1001
ACAD
1000
DSTYLE
1002
{
1070
    41
1040
3.5
1070
    42
1040
1.0
1070
    43
1040
7.0
1070
    44
1040
1.0
1070
    47
1040
0.6
1070
    48
1040
0.6
1070
    73
1070
     0
1070
    74
1070
     0
1070
    77
1070
     1
1070
    78
1070
     8
1070
    79
1070
     2
1070
   140
1040
3.5
1070
   141
1040
1.5
1070
   146
1040
0.5142857142857144
1070
   147
1040
1.5
1070
   172
1070
     1
1070
   178
1070
     1
1070
   179
1070
     2
1070
   271
1070
     2
1070
   272
1070
     2
1070
   284
1070
     8
1070
   285
1070
     8
1070
   286
1070
     8
1002
}
  0
DIMENSION
  5
72E
102
{ACAD_XDICTIONARY
360
73B
102
}
102
{ACAD_REACTORS
330
745
102
}
330
20
100
AcDbEntity
  8
BEM
100
AcDbDimension
  2
*D3
 10
141.522641834499
 20
117.1552046355493
 30
0.0
 11
116.522641834499
 21
120.4052046355493
 31
0.0
 70
    32
 71
     5
 42
50.0
  3
Standard
100
AcDbAlignedDimension
 13
91.52264183449899
 23
159.2468583132358
 33
0.0
 14
141.522641834499
 24
159.2468583132358
 34
0.0
100
AcDbRotatedDimension
1001
ACAD
1000
DSTYLE
1002
{
1070
    41
1040
3.5
1070
    42
1040
1.0
1070
    43
1040
7.0
1070
    44
1040
1.0
1070
    47
1040
0.6
1070
    48
1040
0.6
1070
    73
1070
     0
1070
    74
1070
     0
1070
    77
1070
     1
1070
    78
1070
     8
1070
    79
1070
     2
1070
   140
1040
3.5
1070
   141
1040
1.5
1070
   146
1040
0.5142857142857144
1070
   147
1040
1.5
1070
   172
1070
     1
1070
   178
1070
     1
1070
   179
1070
     2
1070
   271
1070
     2
1070
   272
1070
     2
1070
   284
1070
     8
1070
   285
1070
     8
1070
   286
1070
     8
1002
}
  0
DIMENSION
  5
746
102
{ACAD_XDICTIONARY
360
753
102
}
102
{ACAD_REACTORS
330
75D
102
}
330
20
100
AcDbEntity
  8
BEM
100
AcDbDimension
  2
*D4
 10
85.41201971424426
 20
155.7468583132358
 30
0.0
 11
82.16201971424423
 21
146.2468583132359
 31
0.0
 70
    32
 71
     5
 42
18.99999999999983
  3
Standard
100
AcDbAlignedDimension
 13
94.52264183449896
 23
136.746858313236
 33
0.0
 14
91.32264183449899
 24
155.7468583132358
 34
0.0
 50
90.0
100
AcDbRotatedDimension
1001
ACAD
1000
DSTYLE
1002
{
1070
    41
1040
3.5
1070
    42
1040
1.0
1070
    43
1040
7.0
1070
    44
1040
1.0
1070
    47
1040
0.6
1070
    48
1040
0.6
1070
    73
1070
     0
1070
    74
1070
     0
1070
    77
1070
     1
1070
    78
1070
     8
1070
    79
1070
     2
1070
   140
1040
3.5
1070
   141
1040
1.5
1070
   146
1040
0.5142857142857144
1070
   147
1040
1.5
1070
   172
1070
     1
1070
   178
1070
     1
1070
   179
1070
     2
1070
   271
1070
     2
1070
   272
1070
     2
1070
   284
1070
     8
1070
   285
1070
     8
1070
   286
1070
     8
1002
}
  0
DIMENSION
  5
75E
102
{ACAD_XDICTIONARY
360
76B
102
}
102
{ACAD_REACTORS
330
775
102
}
330
20
100
AcDbEntity
  8
BEM
100
AcDbDimension
  2
*D5
 10
78.88355215538604
 20
164.7468583132358
 30
0.0
 11
75.63355215538601
 21
150.7468583132359
 31
0.0
 70
    32
 71
     5
 42
27.99999999999983
  3
Standard
100
AcDbAlignedDimension
 13
94.52264183449896
 23
136.746858313236
 33
0.0
 14
90.52264183449898
 24
164.7468583132358
 34
0.0
 50
90.0
100
AcDbRotatedDimension
1001
ACAD
1000
DSTYLE
1002
{
1070
    41
1040
3.5
1070
    42
1040
1.0
1070
    43
1040
7.0
1070
    44
1040
1.0
1070
    47
1040
0.6
1070
    48
1040
0.6
1070
    73
1070
     0
1070
    74
1070
     0
1070
    77
1070
     1
1070
    78
1070
     8
1070
    79
1070
     2
1070
   140
1040
3.5
1070
   141
1040
1.5
1070
   146
1040
0.5142857142857144
1070
   147
1040
1.5
1070
   172
1070
     1
1070
   178
1070
     1
1070
   179
1070
     2
1070
   271
1070
     2
1070
   272
1070
     2
1070
   284
1070
     8
1070
   285
1070
     8
1070
   286
1070
     8
1002
}
  0
DIMENSION
  5
776
102
{ACAD_XDICTIONARY
360
783
102
}
102
{ACAD_REACTORS
330
78D
102
}
330
20
100
AcDbEntity
  8
BEM
100
AcDbDimension
  2
*D6
 10
71.42244606362123
 20
169.2468583132358
 30
0.0
 11
68.17244606362121
 21
152.9968583132359
 31
0.0
 70
    32
 71
     5
 42
32.49999999999983
  3
Standard
100
AcDbAlignedDimension
 13
94.52264183449896
 23
136.746858313236
 33
0.0
 14
91.52264183449899
 24
169.2468583132358
 34
0.0
 50
90.0
100
AcDbRotatedDimension
1001
ACAD
1000
DSTYLE
1002
{
1070
    41
1040
3.5
1070
    42
1040
1.0
1070
    43
1040
7.0
1070
    44
1040
1.0
1070
    47
1040
0.6
1070
    48
1040
0.6
1070
    73
1070
     0
1070
    74
1070
     0
1070
    77
1070
     1
1070
    78
1070
     8
1070
    79
1070
     2
1070
   140
1040
3.5
1070
   141
1040
1.5
1070
   146
1040
0.5142857142857144
1070
   147
1040
1.5
1070
   172
1070
     1
1070
   178
1070
     1
1070
   179
1070
     2
1070
   271
1070
     2
1070
   272
1070
     2
1070
   284
1070
     8
1070
   285
1070
     8
1070
   286
1070
     8
1002
}
  0
HATCH
  5
7C7
330
20
100
AcDbEntity
  8
SCHRAFF
100
AcDbHatch
 10
0.0
 20
0.0
 30
0.0
210
0.0
220
0.0
230
1.0
  2
NET
 70
     0
 71
     1
 91
        2
 92
        7
 72
     1
 73
     1
 93
       25
 10
140.922641834499
 20
158.6468583132358
 42
0.0
 10
141.522641834499
 20
159.2468583132358
 42
0.0
 10
141.522641834499
 20
160.2468583132358
 42
0.0
 10
140.922641834499
 20
160.8468583132358
 42
0.0
 10
140.922641834499
 20
161.1734780290778
 42
0.0
 10
139.4133077792448
 20
164.0121225318428
 42
-0.5657727781877534
 10
139.8547815756742
 20
164.7468583132358
 42
0.0
 10
142.522641834499
 20
164.7468583132358
 42
0.0
 10
142.522641834499
 20
168.2468583132358
 42
0.4142135623730951
 10
141.522641834499
 20
169.2468583132358
 42
0.0
 10
138.4924402283955
 20
169.2468583132358
 42
0.0
 10
137.7726418344989
 20
165.1646787681398
 42
0.0
 10
137.7726418344989
 20
159.1009602794857
 42
-0.2134217652833984
 10
136.7726418344988
 20
156.8648923019859
 42
0.5105684202253281
 10
137.0226418344988
 20
154.4478202075593
 42
-0.2679491924311435
 10
137.7726418344989
 20
153.1487821018826
 42
0.0
 10
137.7726418344988
 20
139.4968583132359
 42
-0.1622776601683724
 10
137.5226418344989
 20
138.7468583132359
 42
0.6180339887498945
 10
138.5226418344989
 20
136.7468583132359
 42
0.0
 10
139.0226418344988
 20
142.7468583132361
 42
0.0
 10
139.0226418344988
 20
156.1619218226968
 42
-0.7673269879792026
 10
140.1141481854451
 20
156.4543900679663
 42
0.0
 10
140.5226418344989
 20
155.7468583132358
 42
0.0
 10
141.722641834499
 20
155.7468583132358
 42
0.0
 10
140.922641834499
 20
157.1324989592909
 42
0.0
 97
       25
330
69E
330
6A2
330
69C
330
69B
330
69D
330
6A4
330
69A
330
677
330
675
330
6B0
330
6A3
330
679
330
674
330
67A
330
67B
330
67C
330
684
330
685
330
689
330
68D
330
68B
330
69F
330
696
330
6A0
330
6A1
 92
        7
 72
     1
 73
     1
 93
       25
 10
95.27264183449897
 20
165.1646787681403
 42
0.0
 10
94.55284344060242
 20
169.2468583132358
 42
0.0
 10
91.52264183449899
 20
169.2468583132358
 42
0.4142135623730951
 10
90.52264183449898
 20
168.2468583132358
 42
0.0
 10
90.52264183449899
 20
164.7468583132358
 42
0.0
 10
93.19050209332374
 20
164.7468583132357
 42
-0.5657727781877444
 10
93.63197588975316
 20
164.0121225318428
 42
0.0
 10
92.12264183449901
 20
161.1734780290777
 42
0.0
 10
92.12264183449901
 20
160.8468583132358
 42
0.0
 10
91.52264183449897
 20
160.2468583132358
 42
0.0
 10
91.52264183449899
 20
159.2468583132357
 42
0.0
 10
92.12264183449903
 20
158.6468583132358
 42
0.0
 10
92.12264183449899
 20
157.1324989592908
 42
0.0
 10
91.32264183449898
 20
155.7468583132358
 42
0.0
 10
92.52264183449904
 20
155.7468583132359
 42
0.0
 10
92.93113548355282
 20
156.4543900679663
 42
-0.7673269879789836
 10
94.02264183449904
 20
156.1619218226969
 42
0.0
 10
94.02264183449904
 20
142.7468583132364
 42
0.0
 10
94.52264183449901
 20
136.7468583132359
 42
0.6180339887498869
 10
95.52264183449896
 20
138.7468583132359
 42
-0.1622776601683813
 10
95.27264183449899
 20
139.4968583132359
 42
0.0
 10
95.27264183449899
 20
153.1487821018827
 42
-0.2679491924311136
 10
96.02264183449895
 20
154.4478202075593
 42
0.5105684202252957
 10
96.27264183449893
 20
156.8648923019858
 42
-0.2134217652833806
 10
95.27264183449899
 20
159.1009602794855
 42
0.0
 97
       25
330
6AC
330
6B0
330
676
330
678
330
6A5
330
6A6
330
694
330
6AB
330
6A7
330
6A9
330
6A8
330
6AA
330
6AF
330
6AD
330
6AE
330
68C
330
697
330
688
330
683
330
681
330
67E
330
67D
330
67F
330
673
330
686
 75
     0
 76
     1
 52
45.0
 41
10.0
 77
     0
 78
     2
 53
45.0
 43
0.0
 44
0.0
 45
-0.8838834764831842
 46
0.8838834764831844
 79
     0
 53
135.0
 43
0.0
 44
0.0
 45
-0.8838834764831844
 46
-0.8838834764831842
 79
     0
 47
0.1331536412757169
 98
        2
 10
139.3718023992624
 20
158.5659871042117
 10
94.73840178607838
 20
160.8295991761088
  0
ENDSEC
  0
SECTION
  2
OBJECTS
  0
DICTIONARY
  5
C
330
0
100
AcDbDictionary
281
     1
  3
ACAD_COLOR
350
1B
  3
ACAD_GROUP
350
D
  3
ACAD_LAYOUT
350
19
  3
ACAD_MATERIAL
350
1A
  3
ACAD_MLINESTYLE
350
16
  3
ACAD_PLOTSETTINGS
350
18
  3
ACAD_PLOTSTYLENAME
350
E
  3
AcDbVariableDictionary
350
25E
  0
DICTIONARY
  5
6F3
330
6E6
100
AcDbDictionary
280
     1
281
     1
  3
ACAD_DIMASSOC
360
6FD
  0
DICTIONARY
  5
70B
330
6FE
100
AcDbDictionary
280
     1
281
     1
  3
ACAD_DIMASSOC
360
715
  0
DICTIONARY
  5
723
330
716
100
AcDbDictionary
280
     1
281
     1
  3
ACAD_DIMASSOC
360
72D
  0
DICTIONARY
  5
73B
330
72E
100
AcDbDictionary
280
     1
281
     1
  3
ACAD_DIMASSOC
360
745
  0
DICTIONARY
  5
753
330
746
100
AcDbDictionary
280
     1
281
     1
  3
ACAD_DIMASSOC
360
75D
  0
DICTIONARY
  5
76B
330
75E
100
AcDbDictionary
280
     1
281
     1
  3
ACAD_DIMASSOC
360
775
  0
DICTIONARY
  5
783
330
776
100
AcDbDictionary
280
     1
281
     1
  3
ACAD_DIMASSOC
360
78D
  0
DICTIONARY
  5
1B
102
{ACAD_REACTORS
330
C
102
}
330
C
100
AcDbDictionary
281
     1
  0
DICTIONARY
  5
D
102
{ACAD_REACTORS
330
C
102
}
330
C
100
AcDbDictionary
281
     1
  0
DICTIONARY
  5
19
102
{ACAD_REACTORS
330
C
102
}
330
C
100
AcDbDictionary
281
     1
  3
Layout1
350
1F
  3
Model
350
23
  0
DICTIONARY
  5
1A
102
{ACAD_REACTORS
330
C
102
}
330
C
100
AcDbDictionary
281
     1
  0
DICTIONARY
  5
16
102
{ACAD_REACTORS
330
C
102
}
330
C
100
AcDbDictionary
281
     1
  3
Standard
350
17
  0
DICTIONARY
  5
18
102
{ACAD_REACTORS
330
C
102
}
330
C
100
AcDbDictionary
281
     1
  0
ACDBDICTIONARYWDFLT
  5
E
102
{ACAD_REACTORS
330
C
102
}
330
C
100
AcDbDictionary
281
     1
  3
Normal
350
F
100
AcDbDictionaryWithDefault
340
F
  0
DICTIONARY
  5
25E
102
{ACAD_REACTORS
330
C
102
}
330
C
100
AcDbDictionary
281
     1
  3
DIMASSOC
350
260
  3
HIDETEXT
350
25F
  3
PROJECTNAME
350
261
  0
DIMASSOC
  5
6FD
102
{ACAD_REACTORS
330
6F3
102
}
330
6F3
100
AcDbDimAssoc
330
6E6
 90
        3
 70
     0
 71
     0
  1
AcDbOsnapPointRef
 72
    13
331
687
 73
     2
 91
        0
 40
0.0
 10
0.0
 20
0.0
 30
2.000000000000000E+50
 75
     0
  1
AcDbOsnapPointRef
 72
     1
331
687
 73
     2
 91
        0
 40
1.0
 10
0.0
 20
0.0
 30
2.000000000000000E+50
 75
     0
  0
DIMASSOC
  5
715
102
{ACAD_REACTORS
330
70B
102
}
330
70B
100
AcDbDimAssoc
330
6FE
 90
        3
 70
     0
 71
     0
  1
AcDbOsnapPointRef
 72
     1
331
678
 73
     2
 91
        0
 40
1.0
 10
0.0
 20
0.0
 30
2.000000000000000E+50
 75
     0
  1
AcDbOsnapPointRef
 72
    13
331
675
 73
     2
 91
        0
 40
0.0
 10
0.0
 20
0.0
 30
2.000000000000000E+50
 75
     0
  0
DIMASSOC
  5
72D
102
{ACAD_REACTORS
330
723
102
}
330
723
100
AcDbDimAssoc
330
716
 90
        3
 70
     0
 71
     0
  1
AcDbOsnapPointRef
 72
     1
331
697
 73
     2
 91
        0
 40
1.0
 10
0.0
 20
0.0
 30
2.000000000000000E+50
 75
     0
  1
AcDbOsnapPointRef
 72
     1
331
68D
 73
     2
 91
        0
 40
1.0
 10
0.0
 20
0.0
 30
2.000000000000000E+50
 75
     0
  0
DIMASSOC
  5
745
102
{ACAD_REACTORS
330
73B
102
}
330
73B
100
AcDbDimAssoc
330
72E
 90
        3
 70
     0
 71
     0
  1
AcDbOsnapPointRef
 72
     1
331
6A9
 73
     2
 91
        0
 40
1.0
 10
0.0
 20
0.0
 30
2.000000000000000E+50
 75
     0
  1
AcDbOsnapPointRef
 72
     1
331
6A2
 73
     2
 91
        0
 40
1.0
 10
0.0
 20
0.0
 30
2.000000000000000E+50
 75
     0
  0
DIMASSOC
  5
75D
102
{ACAD_REACTORS
330
753
102
}
330
753
100
AcDbDimAssoc
330
746
 90
        3
 70
     0
 71
     0
  1
AcDbOsnapPointRef
 72
     1
331
680
 73
     2
 91
        0
 40
1.0
 10
0.0
 20
0.0
 30
2.000000000000000E+50
 75
     0
  1
AcDbOsnapPointRef
 72
    13
331
6AF
 73
     2
 91
        0
 40
0.0
 10
0.0
 20
0.0
 30
2.000000000000000E+50
 75
     0
  0
DIMASSOC
  5
775
102
{ACAD_REACTORS
330
76B
102
}
330
76B
100
AcDbDimAssoc
330
75E
 90
        3
 70
     0
 71
     0
  1
AcDbOsnapPointRef
 72
     1
331
680
 73
     2
 91
        0
 40
1.0
 10
0.0
 20
0.0
 30
2.000000000000000E+50
 75
     0
  1
AcDbOsnapPointRef
 72
    13
331
6A5
 73
     2
 91
        0
 40
0.0
 10
0.0
 20
0.0
 30
2.000000000000000E+50
 75
     0
  0
DIMASSOC
  5
78D
102
{ACAD_REACTORS
330
783
102
}
330
783
100
AcDbDimAssoc
330
776
 90
        3
 70
     0
 71
     0
  1
AcDbOsnapPointRef
 72
     1
331
680
 73
     2
 91
        0
 40
1.0
 10
0.0
 20
0.0
 30
2.000000000000000E+50
 75
     0
  1
AcDbOsnapPointRef
 72
    13
331
6B0
 73
     2
 91
        0
 40
0.0
 10
0.0
 20
0.0
 30
2.000000000000000E+50
 75
     0
  0
LAYOUT
  5
1F
102
{ACAD_REACTORS
330
19
102
}
330
19
100
AcDbPlotSettings
  1

  2
RICOH Aficio 2027 PCL 6
  4

  6

 40
0.0
 41
0.0
 42
0.0
 43
0.0
 44
0.0
 45
0.0
 46
0.0
 47
0.0
 48
0.0
 49
0.0
140
0.0
141
0.0
142
1.0
143
1.0
 70
   688
 72
     0
 73
     0
 74
     5
  7
monochrome1.ctb
 75
    16
147
1.0
 76
     0
 77
     2
 78
   300
148
0.0
149
0.0
100
AcDbLayout
  1
Layout1
 70
     0
 71
     1
 10
0.0
 20
0.0
 11
12.0
 21
9.0
 12
94.77699787264981
 22
50.00000000000001
 32
160.541677480246
 14
1.000000000000000E+20
 24
1.000000000000000E+20
 34
1.000000000000000E+20
 15
-1.000000000000000E+20
 25
-1.000000000000000E+20
 35
-1.000000000000000E+20
146
0.0
 13
0.0
 23
0.0
 33
0.0
 16
1.0
 26
0.0
 36
0.0
 17
0.0
 27
1.0
 37
0.0
 76
     0
330
1C
  0
LAYOUT
  5
23
102
{ACAD_REACTORS
330
19
102
}
330
19
100
AcDbPlotSettings
  1

  2
RICOH Aficio 2027 PCL 6
  4
A4
  6

 40
5.027083396911621
 41
5.027085304260253
 42
5.027084350585937
 43
5.027069091796875
 44
209.9733276367187
 45
296.9259948730469
 46
0.0
 47
0.0
 48
0.0
 49
0.0
140
0.0
141
0.0
142
1.0
143
1.0
 70
 11952
 72
     0
 73
     1
 74
     0
  7
monochrome1.ctb
 75
     0
147
1.0
 76
     0
 77
     2
 78
   300
148
1149.94759482167
149
45.04758967657628
100
AcDbLayout
  1
Model
 70
     1
 71
     0
 10
0.0
 20
0.0
 11
12.0
 21
9.0
 12
0.0
 22
0.0
 32
0.0
 14
0.0
 24
0.0
 34
0.0
 15
0.0
 25
0.0
 35
0.0
146
0.0
 13
0.0
 23
0.0
 33
0.0
 16
1.0
 26
0.0
 36
0.0
 17
0.0
 27
1.0
 37
0.0
 76
     0
330
20
  0
MLINESTYLE
  5
17
102
{ACAD_REACTORS
330
16
102
}
330
16
100
AcDbMlineStyle
  2
STANDARD
 70
     0
  3

 62
   256
 51
90.0
 52
90.0
 71
     2
 49
0.5
 62
   256
  6
BYLAYER
 49
-0.5
 62
   256
  6
BYLAYER
  0
ACDBPLACEHOLDER
  5
F
102
{ACAD_REACTORS
330
E
102
}
330
E
  0
DICTIONARYVAR
  5
260
102
{ACAD_REACTORS
330
25E
102
}
330
25E
100
DictionaryVariables
280
     0
  1
2
  0
DICTIONARYVAR
  5
25F
102
{ACAD_REACTORS
330
25E
102
}
330
25E
100
DictionaryVariables
280
     0
  1
1
  0
DICTIONARYVAR
  5
261
102
{ACAD_REACTORS
330
25E
102
}
330
25E
100
DictionaryVariables
280
     0
  1

  0
ENDSEC
  0
EOF
