  0
SECTION
  2
HEADER
  9
$ACADVER
  1
AC1018
  9
$ACADMAINTVER
 70
     2
  9
$DWGCODEPAGE
  3
ANSI_1252
  9
$INSBASE
 10
0.0
 20
0.0
 30
0.0
  9
$EXTMIN
 10
-0.0064083980321925
 20
-0.0090633057883451
 30
-0.0000000349181948
  9
$EXTMAX
 10
105.0064093759507
 20
148.5090646888447
 30
0.0000000814935746
  9
$LIMMIN
 10
0.0
 20
0.0
  9
$LIMMAX
 10
105.0
 20
148.5
  9
$ORTHOMODE
 70
     1
  9
$REGENMODE
 70
     1
  9
$FILLMODE
 70
     1
  9
$QTEXTMODE
 70
     0
  9
$MIRRTEXT
 70
     1
  9
$LTSCALE
 40
5.0
  9
$ATTMODE
 70
     1
  9
$TEXTSIZE
 40
3.5
  9
$TRACEWID
 40
0.5
  9
$TEXTSTYLE
  7
GREEKS
  9
$CLAYER
  8
BEM
  9
$CELTYPE
  6
ByLayer
  9
$CECOLOR
 62
   256
  9
$CELTSCALE
 40
1.0
  9
$DISPSILH
 70
     0
  9
$DIMSCALE
 40
0.5
  9
$DIMASZ
 40
3.5
  9
$DIMEXO
 40
0.5
  9
$DIMDLI
 40
7.0
  9
$DIMRND
 40
0.0
  9
$DIMDLE
 40
0.0
  9
$DIMEXE
 40
0.5
  9
$DIMTP
 40
0.2
  9
$DIMTM
 40
0.2
  9
$DIMTXT
 40
3.5
  9
$DIMCEN
 40
1.5
  9
$DIMTSZ
 40
0.0
  9
$DIMTOL
 70
     0
  9
$DIMLIM
 70
     0
  9
$DIMTIH
 70
     0
  9
$DIMTOH
 70
     0
  9
$DIMSE1
 70
     0
  9
$DIMSE2
 70
     0
  9
$DIMTAD
 70
     1
  9
$DIMZIN
 70
     8
  9
$DIMBLK
  1

  9
$DIMASO
 70
     1
  9
$DIMSHO
 70
     0
  9
$DIMPOST
  1

  9
$DIMAPOST
  1

  9
$DIMALT
 70
     0
  9
$DIMALTD
 70
     2
  9
$DIMALTF
 40
25.4
  9
$DIMLFAC
 40
1.0
  9
$DIMTOFL
 70
     1
  9
$DIMTVP
 40
0.0
  9
$DIMTIX
 70
     0
  9
$DIMSOXD
 70
     0
  9
$DIMSAH
 70
     0
  9
$DIMBLK1
  1

  9
$DIMBLK2
  1

  9
$DIMSTYLE
  2
Standard
  9
$DIMCLRD
 70
     0
  9
$DIMCLRE
 70
     0
  9
$DIMCLRT
 70
     1
  9
$DIMTFAC
 40
0.5
  9
$DIMGAP
 40
1.5
  9
$DIMJUST
 70
     0
  9
$DIMSD1
 70
     0
  9
$DIMSD2
 70
     0
  9
$DIMTOLJ
 70
     1
  9
$DIMTZIN
 70
     8
  9
$DIMALTZ
 70
     8
  9
$DIMALTTZ
 70
     8
  9
$DIMUPT
 70
     0
  9
$DIMDEC
 70
     2
  9
$DIMTDEC
 70
     2
  9
$DIMALTU
 70
     2
  9
$DIMALTTD
 70
     2
  9
$DIMTXSTY
  7
GREEKS
  9
$DIMAUNIT
 70
     0
  9
$DIMADEC
 70
     2
  9
$DIMALTRND
 40
0.0
  9
$DIMAZIN
 70
     2
  9
$DIMDSEP
 70
    46
  9
$DIMATFIT
 70
     3
  9
$DIMFRAC
 70
     0
  9
$DIMLDRBLK
  1

  9
$DIMLUNIT
 70
     2
  9
$DIMLWD
 70
    -2
  9
$DIMLWE
 70
    -2
  9
$DIMTMOVE
 70
     0
  9
$LUNITS
 70
     2
  9
$LUPREC
 70
     2
  9
$SKETCHINC
 40
1.0
  9
$FILLETRAD
 40
2.0
  9
$AUNITS
 70
     0
  9
$AUPREC
 70
     0
  9
$MENU
  1
ACAD
  9
$ELEVATION
 40
0.0
  9
$PELEVATION
 40
0.0
  9
$THICKNESS
 40
0.0
  9
$LIMCHECK
 70
     0
  9
$CHAMFERA
 40
0.0
  9
$CHAMFERB
 40
0.0
  9
$CHAMFERC
 40
0.0
  9
$CHAMFERD
 40
0.0
  9
$SKPOLY
 70
     0
  9
$TDCREATE
 40
2452259.375338311
  9
$TDUCREATE
 40
2452259.292004977
  9
$TDUPDATE
 40
2455450.557622408
  9
$TDUUPDATE
 40
2455450.474289074
  9
$TDINDWG
 40
0.0660985417
  9
$TDUSRTIMER
 40
0.0660985417
  9
$USRTIMER
 70
     1
  9
$ANGBASE
 50
0.0
  9
$ANGDIR
 70
     0
  9
$PDMODE
 70
     0
  9
$PDSIZE
 40
0.0
  9
$PLINEWID
 40
0.0
  9
$SPLFRAME
 70
     0
  9
$SPLINETYPE
 70
     6
  9
$SPLINESEGS
 70
     8
  9
$HANDSEED
  5
D1D
  9
$SURFTAB1
 70
     6
  9
$SURFTAB2
 70
     6
  9
$SURFTYPE
 70
     6
  9
$SURFU
 70
     6
  9
$SURFV
 70
     6
  9
$UCSBASE
  2

  9
$UCSNAME
  2

  9
$UCSORG
 10
0.0
 20
0.0
 30
0.0
  9
$UCSXDIR
 10
1.0
 20
0.0
 30
0.0
  9
$UCSYDIR
 10
0.0
 20
1.0
 30
0.0
  9
$UCSORTHOREF
  2

  9
$UCSORTHOVIEW
 70
     0
  9
$UCSORGTOP
 10
0.0
 20
0.0
 30
0.0
  9
$UCSORGBOTTOM
 10
0.0
 20
0.0
 30
0.0
  9
$UCSORGLEFT
 10
0.0
 20
0.0
 30
0.0
  9
$UCSORGRIGHT
 10
0.0
 20
0.0
 30
0.0
  9
$UCSORGFRONT
 10
0.0
 20
0.0
 30
0.0
  9
$UCSORGBACK
 10
0.0
 20
0.0
 30
0.0
  9
$PUCSBASE
  2

  9
$PUCSNAME
  2

  9
$PUCSORG
 10
0.0
 20
0.0
 30
0.0
  9
$PUCSXDIR
 10
1.0
 20
0.0
 30
0.0
  9
$PUCSYDIR
 10
0.0
 20
1.0
 30
0.0
  9
$PUCSORTHOREF
  2

  9
$PUCSORTHOVIEW
 70
     0
  9
$PUCSORGTOP
 10
0.0
 20
0.0
 30
0.0
  9
$PUCSORGBOTTOM
 10
0.0
 20
0.0
 30
0.0
  9
$PUCSORGLEFT
 10
0.0
 20
0.0
 30
0.0
  9
$PUCSORGRIGHT
 10
0.0
 20
0.0
 30
0.0
  9
$PUCSORGFRONT
 10
0.0
 20
0.0
 30
0.0
  9
$PUCSORGBACK
 10
0.0
 20
0.0
 30
0.0
  9
$USERI1
 70
     0
  9
$USERI2
 70
     0
  9
$USERI3
 70
     0
  9
$USERI4
 70
     0
  9
$USERI5
 70
     0
  9
$USERR1
 40
0.0
  9
$USERR2
 40
0.0
  9
$USERR3
 40
0.0
  9
$USERR4
 40
0.0
  9
$USERR5
 40
0.0
  9
$WORLDVIEW
 70
     1
  9
$SHADEDGE
 70
     3
  9
$SHADEDIF
 70
    70
  9
$TILEMODE
 70
     1
  9
$MAXACTVP
 70
    16
  9
$PINSBASE
 10
0.0
 20
0.0
 30
0.0
  9
$PLIMCHECK
 70
     0
  9
$PEXTMIN
 10
1.000000000000000E+20
 20
1.000000000000000E+20
 30
1.000000000000000E+20
  9
$PEXTMAX
 10
-1.000000000000000E+20
 20
-1.000000000000000E+20
 30
-1.000000000000000E+20
  9
$PLIMMIN
 10
0.0
 20
0.0
  9
$PLIMMAX
 10
12.0
 20
9.0
  9
$UNITMODE
 70
     0
  9
$VISRETAIN
 70
     0
  9
$PLINEGEN
 70
     0
  9
$PSLTSCALE
 70
     0
  9
$TREEDEPTH
 70
  3020
  9
$CMLSTYLE
  2
Standard
  9
$CMLJUST
 70
     0
  9
$CMLSCALE
 40
1.0
  9
$PROXYGRAPHICS
 70
     1
  9
$MEASUREMENT
 70
     0
  9
$CELWEIGHT
370
    -1
  9
$ENDCAPS
280
     0
  9
$JOINSTYLE
280
     0
  9
$LWDISPLAY
290
     0
  9
$INSUNITS
 70
     0
  9
$HYPERLINKBASE
  1

  9
$STYLESHEET
  1
monochrome 1.ctb
  9
$XEDIT
290
     1
  9
$CEPSNTYPE
380
     0
  9
$PSTYLEMODE
290
     1
  9
$FINGERPRINTGUID
  2
{6A5D2291-1B57-4C4E-A30F-DE80689943E8}
  9
$VERSIONGUID
  2
{464BBB31-15F4-4131-8C8A-676C209D985B}
  9
$EXTNAMES
290
     1
  9
$PSVPSCALE
 40
0.0
  9
$OLESTARTUP
290
     0
  9
$SORTENTS
280
   127
  9
$INDEXCTL
280
     0
  9
$HIDETEXT
280
     1
  9
$XCLIPFRAME
290
     0
  9
$HALOGAP
280
     0
  9
$OBSCOLOR
 70
   257
  9
$OBSLTYPE
280
     0
  9
$INTERSECTIONDISPLAY
280
     0
  9
$INTERSECTIONCOLOR
 70
   257
  9
$DIMASSOC
280
     2
  9
$PROJECTNAME
  1

  0
ENDSEC
  0
SECTION
  2
CLASSES
  0
CLASS
  1
ACDBDICTIONARYWDFLT
  2
AcDbDictionaryWithDefault
  3
ObjectDBX Classes
 90
        0
 91
        1
280
     0
281
     0
  0
CLASS
  1
DICTIONARYVAR
  2
AcDbDictionaryVar
  3
ObjectDBX Classes
 90
        0
 91
        3
280
     0
281
     0
  0
CLASS
  1
DIMASSOC
  2
AcDbDimAssoc
  3
"AcDbDimAssoc|Product Desc:     AcDim ARX App For Dimension|Company:          Autodesk, Inc.|WEB Address:      www.autodesk.com"
 90
        0
 91
        2
280
     0
281
     0
  0
ENDSEC
  0
SECTION
  2
TABLES
  0
TABLE
  2
VPORT
  5
8
330
0
100
AcDbSymbolTable
 70
     4
  0
VPORT
  5
D1C
330
8
100
AcDbSymbolTableRecord
100
AcDbViewportTableRecord
  2
*Active
 70
     0
 10
0.0
 20
0.0
 11
1.0
 21
1.0
 12
52.50000048895927
 22
74.2500006915282
 13
0.0
 23
0.0
 14
1.0
 24
1.0
 15
10.0
 25
10.0
 16
0.0
 26
0.0
 36
1.0
 17
0.0
 27
0.0
 37
0.0
 40
149.7174668478872
 41
1.336927223719676
 42
50.0
 43
0.0
 44
0.0
 50
0.0
 51
0.0
 71
     0
 72
  1500
 73
     1
 74
     0
 75
     0
 76
     0
 77
     0
 78
     0
281
     0
 65
     1
110
0.0
120
0.0
130
0.0
111
1.0
121
0.0
131
0.0
112
0.0
122
1.0
132
0.0
 79
     0
146
0.0
  0
ENDTAB
  0
TABLE
  2
LTYPE
  5
5
330
0
100
AcDbSymbolTable
 70
     2
  0
LTYPE
  5
13
330
5
100
AcDbSymbolTableRecord
100
AcDbLinetypeTableRecord
  2
ByBlock
 70
     0
  3

 72
    65
 73
     0
 40
0.0
  0
LTYPE
  5
14
330
5
100
AcDbSymbolTableRecord
100
AcDbLinetypeTableRecord
  2
ByLayer
 70
     0
  3

 72
    65
 73
     0
 40
0.0
  0
LTYPE
  5
15
330
5
100
AcDbSymbolTableRecord
100
AcDbLinetypeTableRecord
  2
Continuous
 70
     0
  3
Solid line
 72
    65
 73
     0
 40
0.0
  0
LTYPE
  5
3A
330
5
100
AcDbSymbolTableRecord
100
AcDbLinetypeTableRecord
  2
STRICHPUNKT
 70
     0
  3
__ . __ . __ . __ . __ . __ . __ . __ . __ . __
 72
    65
 73
     4
 40
1.0
 49
0.5
 74
     0
 49
-0.25
 74
     0
 49
0.0
 74
     0
 49
-0.25
 74
     0
  0
ENDTAB
  0
TABLE
  2
LAYER
  5
2
330
0
100
AcDbSymbolTable
 70
     9
  0
LAYER
  5
10
330
2
100
AcDbSymbolTableRecord
100
AcDbLayerTableRecord
  2
0
 70
     0
 62
     7
  6
Continuous
370
    -3
390
F
  0
LAYER
  5
3D
330
2
100
AcDbSymbolTableRecord
100
AcDbLayerTableRecord
  2
VOLL
 70
     0
 62
     1
  6
Continuous
370
    -3
390
F
  0
LAYER
  5
3E
330
2
100
AcDbSymbolTableRecord
100
AcDbLayerTableRecord
  2
HILF
 70
     0
 62
     2
  6
Continuous
370
    -3
390
F
  0
LAYER
  5
3F
330
2
100
AcDbSymbolTableRecord
100
AcDbLayerTableRecord
  2
MITTEL
 70
     0
 62
     2
  6
STRICHPUNKT
370
    -3
390
F
  0
LAYER
  5
40
330
2
100
AcDbSymbolTableRecord
100
AcDbLayerTableRecord
  2
BEM
 70
     0
 62
     7
  6
Continuous
370
    -3
390
F
  0
LAYER
  5
41
330
2
100
AcDbSymbolTableRecord
100
AcDbLayerTableRecord
  2
SCHRAFF
 70
     0
 62
     7
  6
Continuous
370
    -3
390
F
  0
LAYER
  5
42
330
2
100
AcDbSymbolTableRecord
100
AcDbLayerTableRecord
  2
STEMPEL
 70
     0
 62
     3
  6
Continuous
370
    -3
390
F
  0
LAYER
  5
43
330
2
100
AcDbSymbolTableRecord
100
AcDbLayerTableRecord
  2
DEFPOINTS
 70
     0
 62
     7
  6
Continuous
290
     0
370
    -3
390
F
  0
LAYER
  5
44
330
2
100
AcDbSymbolTableRecord
100
AcDbLayerTableRecord
  2
TEXT
 70
     0
 62
     7
  6
Continuous
370
    -3
390
F
  0
ENDTAB
  0
TABLE
  2
STYLE
  5
3
330
0
100
AcDbSymbolTable
 70
     2
  0
STYLE
  5
11
330
3
100
AcDbSymbolTableRecord
100
AcDbTextStyleTableRecord
  2
STANDARD
 70
     0
 40
0.0
 41
1.0
 50
0.0
 71
     0
 42
3.5
  3
txt
  4

  0
STYLE
  5
39
330
3
100
AcDbSymbolTableRecord
100
AcDbTextStyleTableRecord
  2
GREEKS
 70
     0
 40
0.0
 41
0.8
 50
0.0
 71
     0
 42
3.5
  3
SIMPLEX.shx
  4

  0
ENDTAB
  0
TABLE
  2
VIEW
  5
6
330
0
100
AcDbSymbolTable
 70
     0
  0
ENDTAB
  0
TABLE
  2
UCS
  5
7
330
0
100
AcDbSymbolTable
 70
     0
  0
ENDTAB
  0
TABLE
  2
APPID
  5
9
330
0
100
AcDbSymbolTable
 70
     1
  0
APPID
  5
12
330
9
100
AcDbSymbolTableRecord
100
AcDbRegAppTableRecord
  2
ACAD
 70
     0
  0
ENDTAB
  0
TABLE
  2
DIMSTYLE
  5
A
330
0
100
AcDbSymbolTable
 70
     1
100
AcDbDimStyleTable
 71
     1
340
241
  0
DIMSTYLE
105
241
102
{ACAD_REACTORS
330
1FC
330
1FB
330
1AC
330
1A9
330
C6B
330
CA7
102
}
330
A
100
AcDbSymbolTableRecord
100
AcDbDimStyleTableRecord
  2
Standard
 70
     0
340
11
  0
ENDTAB
  0
TABLE
  2
BLOCK_RECORD
  5
1
330
0
100
AcDbSymbolTable
 70
     6
  0
BLOCK_RECORD
  5
20
330
1
100
AcDbSymbolTableRecord
100
AcDbBlockTableRecord
  2
*Model_Space
340
23
  0
BLOCK_RECORD
  5
1C
330
1
100
AcDbSymbolTableRecord
100
AcDbBlockTableRecord
  2
*Paper_Space
340
1F
  0
BLOCK_RECORD
  5
80D
330
1
100
AcDbSymbolTableRecord
100
AcDbBlockTableRecord
  2
*D0
340
0
  0
BLOCK_RECORD
  5
819
330
1
100
AcDbSymbolTableRecord
100
AcDbBlockTableRecord
  2
*D1
340
0
  0
BLOCK_RECORD
  5
840
330
1
100
AcDbSymbolTableRecord
100
AcDbBlockTableRecord
  2
*D2
340
0
  0
BLOCK_RECORD
  5
864
330
1
100
AcDbSymbolTableRecord
100
AcDbBlockTableRecord
  2
*D3
340
0
  0
BLOCK_RECORD
  5
C6C
330
1
100
AcDbSymbolTableRecord
100
AcDbBlockTableRecord
  2
*D4
340
0
  0
BLOCK_RECORD
  5
CA8
330
1
100
AcDbSymbolTableRecord
100
AcDbBlockTableRecord
  2
*D5
340
0
  0
ENDTAB
  0
ENDSEC
  0
SECTION
  2
BLOCKS
  0
BLOCK
  5
48
330
20
100
AcDbEntity
  8
0
100
AcDbBlockBegin
  2
*Model_Space
 70
     0
 10
0.0
 20
0.0
 30
0.0
  3
*Model_Space
  1

  0
ENDBLK
  5
49
330
20
100
AcDbEntity
  8
0
100
AcDbBlockEnd
  0
BLOCK
  5
46
330
1C
100
AcDbEntity
 67
     1
  8
0
100
AcDbBlockBegin
  2
*Paper_Space
 70
     0
 10
0.0
 20
0.0
 30
0.0
  3
*Paper_Space
  1

  0
ENDBLK
  5
47
330
1C
100
AcDbEntity
 67
     1
  8
0
100
AcDbBlockEnd
  0
BLOCK
  5
817
330
80D
100
AcDbEntity
  8
0
100
AcDbBlockBegin
  2
*D0
 70
     1
 10
0.0
 20
0.0
 30
0.0
  3
*D0
  1

  0
LINE
  5
CDB
330
80D
100
AcDbEntity
  8
BEM
 62
     0
370
    -2
100
AcDbLine
 10
32.54978437211368
 20
89.67311165339857
 30
0.0
 11
20.66471045647013
 21
89.67311165339859
 31
0.0
  0
LINE
  5
CDC
330
80D
100
AcDbEntity
  8
BEM
 62
     0
370
    -2
100
AcDbLine
 10
27.94978437211367
 20
72.67311165339858
 30
0.0
 11
20.66471045647013
 21
72.67311165339858
 31
0.0
  0
LINE
  5
CDD
330
80D
100
AcDbEntity
  8
BEM
 62
     0
370
    -2
100
AcDbLine
 10
20.91471045647013
 20
87.92311165339858
 30
0.0
 11
20.91471045647013
 21
74.42311165339858
 31
0.0
  0
SOLID
  5
CDE
330
80D
100
AcDbEntity
  8
BEM
 62
     0
100
AcDbTrace
 10
20.62304378980346
 20
87.92311165339858
 30
0.0
 11
21.20637712313679
 21
87.92311165339858
 31
0.0
 12
20.91471045647013
 22
89.67311165339859
 32
0.0
 13
20.91471045647013
 23
89.67311165339859
 33
0.0
  0
SOLID
  5
CDF
330
80D
100
AcDbEntity
  8
BEM
 62
     0
100
AcDbTrace
 10
20.62304378980346
 20
74.42311165339858
 30
0.0
 11
21.20637712313679
 21
74.42311165339858
 31
0.0
 12
20.91471045647013
 22
72.67311165339858
 32
0.0
 13
20.91471045647013
 23
72.67311165339858
 33
0.0
  0
MTEXT
  5
CE0
330
80D
100
AcDbEntity
  8
BEM
 62
     1
100
AcDbMText
 10
19.28971045647011
 20
81.17311165339859
 30
0.0
 40
1.75
 41
0.0
 71
     5
 72
     1
  1
\A1;17
  7
GREEKS
 11
0.0000000000000001
 21
1.0
 31
0.0
 73
     1
 44
1.0
  0
POINT
  5
CE1
330
80D
100
AcDbEntity
  8
DEFPOINTS
 62
     0
100
AcDbPoint
 10
32.79978437211368
 20
89.67311165339857
 30
0.0
  0
POINT
  5
CE2
330
80D
100
AcDbEntity
  8
DEFPOINTS
 62
     0
100
AcDbPoint
 10
28.19978437211367
 20
72.67311165339858
 30
0.0
  0
POINT
  5
CE3
330
80D
100
AcDbEntity
  8
DEFPOINTS
 62
     0
100
AcDbPoint
 10
20.91471045647013
 20
72.67311165339858
 30
0.0
  0
ENDBLK
  5
818
330
80D
100
AcDbEntity
  8
0
100
AcDbBlockEnd
  0
BLOCK
  5
823
330
819
100
AcDbEntity
  8
0
100
AcDbBlockBegin
  2
*D1
 70
     1
 10
0.0
 20
0.0
 30
0.0
  3
*D1
  1

  0
LINE
  5
CE4
330
819
100
AcDbEntity
  8
BEM
 62
     0
370
    -2
100
AcDbLine
 10
29.54978437211368
 20
84.67311165339859
 30
0.0
 11
24.43924571027554
 21
84.67311165339859
 31
0.0
  0
LINE
  5
CE5
330
819
100
AcDbEntity
  8
BEM
 62
     0
370
    -2
100
AcDbLine
 10
27.94978437211367
 20
72.67311165339858
 30
0.0
 11
24.43924571027554
 21
72.67311165339858
 31
0.0
  0
LINE
  5
CE6
330
819
100
AcDbEntity
  8
BEM
 62
     0
370
    -2
100
AcDbLine
 10
24.68924571027554
 20
82.92311165339858
 30
0.0
 11
24.68924571027554
 21
74.42311165339858
 31
0.0
  0
SOLID
  5
CE7
330
819
100
AcDbEntity
  8
BEM
 62
     0
100
AcDbTrace
 10
24.39757904360887
 20
82.92311165339858
 30
0.0
 11
24.9809123769422
 21
82.92311165339858
 31
0.0
 12
24.68924571027554
 22
84.67311165339859
 32
0.0
 13
24.68924571027554
 23
84.67311165339859
 33
0.0
  0
SOLID
  5
CE8
330
819
100
AcDbEntity
  8
BEM
 62
     0
100
AcDbTrace
 10
24.39757904360887
 20
74.42311165339858
 30
0.0
 11
24.9809123769422
 21
74.42311165339858
 31
0.0
 12
24.68924571027554
 22
72.67311165339858
 32
0.0
 13
24.68924571027554
 23
72.67311165339858
 33
0.0
  0
MTEXT
  5
CE9
330
819
100
AcDbEntity
  8
BEM
 62
     1
100
AcDbMText
 10
23.06424571027552
 20
78.67311165339859
 30
0.0
 40
1.75
 41
0.0
 71
     5
 72
     1
  1
\A1;12
  7
GREEKS
 11
0.0000000000000001
 21
1.0
 31
0.0
 73
     1
 44
1.0
  0
POINT
  5
CEA
330
819
100
AcDbEntity
  8
DEFPOINTS
 62
     0
100
AcDbPoint
 10
29.79978437211368
 20
84.67311165339859
 30
0.0
  0
POINT
  5
CEB
330
819
100
AcDbEntity
  8
DEFPOINTS
 62
     0
100
AcDbPoint
 10
28.19978437211367
 20
72.67311165339858
 30
0.0
  0
POINT
  5
CEC
330
819
100
AcDbEntity
  8
DEFPOINTS
 62
     0
100
AcDbPoint
 10
24.68924571027554
 20
72.67311165339858
 30
0.0
  0
ENDBLK
  5
824
330
819
100
AcDbEntity
  8
0
100
AcDbBlockEnd
  0
BLOCK
  5
84A
330
840
100
AcDbEntity
  8
0
100
AcDbBlockBegin
  2
*D2
 70
     1
 10
0.0
 20
0.0
 30
0.0
  3
*D2
  1

  0
LINE
  5
CED
330
840
100
AcDbEntity
  8
BEM
 62
     0
370
    -2
100
AcDbLine
 10
33.79978437211369
 20
89.92311165339858
 30
0.0
 11
33.79978437211369
 21
97.17576316382469
 31
0.0
  0
LINE
  5
CEE
330
840
100
AcDbEntity
  8
BEM
 62
     0
370
    -2
100
AcDbLine
 10
86.59978437211366
 20
89.92311165339856
 30
0.0
 11
86.59978437211366
 21
97.17576316382469
 31
0.0
  0
LINE
  5
CEF
330
840
100
AcDbEntity
  8
BEM
 62
     0
370
    -2
100
AcDbLine
 10
35.54978437211369
 20
96.92576316382469
 30
0.0
 11
84.84978437211365
 21
96.92576316382469
 31
0.0
  0
SOLID
  5
CF0
330
840
100
AcDbEntity
  8
BEM
 62
     0
100
AcDbTrace
 10
35.54978437211369
 20
97.21742983049136
 30
0.0
 11
35.54978437211369
 21
96.63409649715802
 31
0.0
 12
33.79978437211369
 22
96.92576316382469
 32
0.0
 13
33.79978437211369
 23
96.92576316382469
 33
0.0
  0
SOLID
  5
CF1
330
840
100
AcDbEntity
  8
BEM
 62
     0
100
AcDbTrace
 10
84.84978437211365
 20
97.21742983049136
 30
0.0
 11
84.84978437211365
 21
96.63409649715802
 31
0.0
 12
86.59978437211366
 22
96.92576316382469
 32
0.0
 13
86.59978437211366
 23
96.92576316382469
 33
0.0
  0
MTEXT
  5
CF2
330
840
100
AcDbEntity
  8
BEM
 62
     1
100
AcDbMText
 10
60.19978437211367
 20
98.55076316382469
 30
0.0
 40
1.75
 41
0.0
 71
     5
 72
     1
  1
\A1;%%C52.8
  7
GREEKS
 73
     1
 44
1.0
  0
POINT
  5
CF3
330
840
100
AcDbEntity
  8
DEFPOINTS
 62
     0
100
AcDbPoint
 10
33.79978437211369
 20
89.67311165339857
 30
0.0
  0
POINT
  5
CF4
330
840
100
AcDbEntity
  8
DEFPOINTS
 62
     0
100
AcDbPoint
 10
86.59978437211366
 20
89.67311165339856
 30
0.0
  0
POINT
  5
CF5
330
840
100
AcDbEntity
  8
DEFPOINTS
 62
     0
100
AcDbPoint
 10
86.59978437211366
 20
96.92576316382469
 30
0.0
  0
ENDBLK
  5
84B
330
840
100
AcDbEntity
  8
0
100
AcDbBlockEnd
  0
BLOCK
  5
86E
330
864
100
AcDbEntity
  8
0
100
AcDbBlockBegin
  2
*D3
 70
     1
 10
0.0
 20
0.0
 30
0.0
  3
*D3
  1

  0
LINE
  5
CF6
330
864
100
AcDbEntity
  8
BEM
 62
     0
370
    -2
100
AcDbLine
 10
29.79978437211368
 20
84.92311165339859
 30
0.0
 11
29.79978437211368
 21
101.2774626427733
 31
0.0
  0
LINE
  5
CF7
330
864
100
AcDbEntity
  8
BEM
 62
     0
370
    -2
100
AcDbLine
 10
90.59978437211368
 20
84.92311165339856
 30
0.0
 11
90.59978437211368
 21
101.2774626427733
 31
0.0
  0
LINE
  5
CF8
330
864
100
AcDbEntity
  8
BEM
 62
     0
370
    -2
100
AcDbLine
 10
31.54978437211368
 20
101.0274626427733
 30
0.0
 11
88.84978437211367
 21
101.0274626427733
 31
0.0
  0
SOLID
  5
CF9
330
864
100
AcDbEntity
  8
BEM
 62
     0
100
AcDbTrace
 10
31.54978437211368
 20
101.3191293094399
 30
0.0
 11
31.54978437211368
 21
100.7357959761066
 31
0.0
 12
29.79978437211368
 22
101.0274626427733
 32
0.0
 13
29.79978437211368
 23
101.0274626427733
 33
0.0
  0
SOLID
  5
CFA
330
864
100
AcDbEntity
  8
BEM
 62
     0
100
AcDbTrace
 10
88.84978437211367
 20
101.3191293094399
 30
0.0
 11
88.84978437211367
 21
100.7357959761066
 31
0.0
 12
90.59978437211368
 22
101.0274626427733
 32
0.0
 13
90.59978437211368
 23
101.0274626427733
 33
0.0
  0
MTEXT
  5
CFB
330
864
100
AcDbEntity
  8
BEM
 62
     1
100
AcDbMText
 10
60.19978437211367
 20
102.6524626427733
 30
0.0
 40
1.75
 41
0.0
 71
     5
 72
     1
  1
\A1;%%C60.8
  7
GREEKS
 73
     1
 44
1.0
  0
POINT
  5
CFC
330
864
100
AcDbEntity
  8
DEFPOINTS
 62
     0
100
AcDbPoint
 10
29.79978437211368
 20
84.67311165339859
 30
0.0
  0
POINT
  5
CFD
330
864
100
AcDbEntity
  8
DEFPOINTS
 62
     0
100
AcDbPoint
 10
90.59978437211368
 20
84.67311165339856
 30
0.0
  0
POINT
  5
CFE
330
864
100
AcDbEntity
  8
DEFPOINTS
 62
     0
100
AcDbPoint
 10
90.59978437211368
 20
101.0274626427733
 30
0.0
  0
ENDBLK
  5
86F
330
864
100
AcDbEntity
  8
0
100
AcDbBlockEnd
  0
BLOCK
  5
C76
330
C6C
100
AcDbEntity
  8
0
100
AcDbBlockBegin
  2
*D4
 70
     1
 10
0.0
 20
0.0
 30
0.0
  3
*D4
  1

  0
LINE
  5
CD2
330
C6C
100
AcDbEntity
  8
BEM
 62
     0
370
    -2
100
AcDbLine
 10
39.19978437211367
 20
72.42311165339858
 30
0.0
 11
39.19978437211367
 21
63.58615020077912
 31
0.0
  0
LINE
  5
CD3
330
C6C
100
AcDbEntity
  8
BEM
 62
     0
370
    -2
100
AcDbLine
 10
81.19978437211363
 20
72.42311165339859
 30
0.0
 11
81.19978437211363
 21
63.58615020077912
 31
0.0
  0
LINE
  5
CD4
330
C6C
100
AcDbEntity
  8
BEM
 62
     0
370
    -2
100
AcDbLine
 10
40.94978437211366
 20
63.83615020077911
 30
0.0
 11
79.44978437211364
 21
63.83615020077911
 31
0.0
  0
SOLID
  5
CD5
330
C6C
100
AcDbEntity
  8
BEM
 62
     0
100
AcDbTrace
 10
40.94978437211366
 20
64.12781686744579
 30
0.0
 11
40.94978437211366
 21
63.54448353411245
 31
0.0
 12
39.19978437211367
 22
63.83615020077911
 32
0.0
 13
39.19978437211367
 23
63.83615020077911
 33
0.0
  0
SOLID
  5
CD6
330
C6C
100
AcDbEntity
  8
BEM
 62
     0
100
AcDbTrace
 10
79.44978437211364
 20
64.12781686744579
 30
0.0
 11
79.44978437211364
 21
63.54448353411245
 31
0.0
 12
81.19978437211363
 22
63.83615020077911
 32
0.0
 13
81.19978437211363
 23
63.83615020077911
 33
0.0
  0
MTEXT
  5
CD7
330
C6C
100
AcDbEntity
  8
BEM
 62
     1
100
AcDbMText
 10
60.19978437211365
 20
65.46115020077912
 30
0.0
 40
1.75
 41
0.0
 71
     5
 72
     1
  1
\A1;%%c42
  7
GREEKS
 73
     1
 44
1.0
  0
POINT
  5
CD8
330
C6C
100
AcDbEntity
  8
DEFPOINTS
 62
     0
100
AcDbPoint
 10
39.19978437211367
 20
72.67311165339858
 30
0.0
  0
POINT
  5
CD9
330
C6C
100
AcDbEntity
  8
DEFPOINTS
 62
     0
100
AcDbPoint
 10
81.19978437211363
 20
72.67311165339859
 30
0.0
  0
POINT
  5
CDA
330
C6C
100
AcDbEntity
  8
DEFPOINTS
 62
     0
100
AcDbPoint
 10
81.19978437211363
 20
63.83615020077911
 30
0.0
  0
ENDBLK
  5
C77
330
C6C
100
AcDbEntity
  8
0
100
AcDbBlockEnd
  0
BLOCK
  5
CB2
330
CA8
100
AcDbEntity
  8
0
100
AcDbBlockBegin
  2
*D5
 70
     1
 10
0.0
 20
0.0
 30
0.0
  3
*D5
  1

  0
LINE
  5
CC9
330
CA8
100
AcDbEntity
  8
BEM
 62
     0
370
    -2
100
AcDbLine
 10
28.19978437211367
 20
72.42311165339858
 30
0.0
 11
28.19978437211367
 21
59.64761731000357
 31
0.0
  0
LINE
  5
CCA
330
CA8
100
AcDbEntity
  8
BEM
 62
     0
370
    -2
100
AcDbLine
 10
92.19978437211366
 20
72.42311165339859
 30
0.0
 11
92.19978437211366
 21
59.64761731000357
 31
0.0
  0
LINE
  5
CCB
330
CA8
100
AcDbEntity
  8
BEM
 62
     0
370
    -2
100
AcDbLine
 10
29.94978437211367
 20
59.89761731000356
 30
0.0
 11
90.44978437211367
 21
59.89761731000356
 31
0.0
  0
SOLID
  5
CCC
330
CA8
100
AcDbEntity
  8
BEM
 62
     0
100
AcDbTrace
 10
29.94978437211367
 20
60.18928397667023
 30
0.0
 11
29.94978437211367
 21
59.6059506433369
 31
0.0
 12
28.19978437211367
 22
59.89761731000356
 32
0.0
 13
28.19978437211367
 23
59.89761731000356
 33
0.0
  0
SOLID
  5
CCD
330
CA8
100
AcDbEntity
  8
BEM
 62
     0
100
AcDbTrace
 10
90.44978437211367
 20
60.18928397667023
 30
0.0
 11
90.44978437211367
 21
59.6059506433369
 31
0.0
 12
92.19978437211366
 22
59.89761731000356
 32
0.0
 13
92.19978437211366
 23
59.89761731000356
 33
0.0
  0
MTEXT
  5
CCE
330
CA8
100
AcDbEntity
  8
BEM
 62
     1
100
AcDbMText
 10
60.19978437211367
 20
61.52261731000357
 30
0.0
 40
1.75
 41
0.0
 71
     5
 72
     1
  1
\A1;%%c64
  7
GREEKS
 73
     1
 44
1.0
  0
POINT
  5
CCF
330
CA8
100
AcDbEntity
  8
DEFPOINTS
 62
     0
100
AcDbPoint
 10
28.19978437211367
 20
72.67311165339858
 30
0.0
  0
POINT
  5
CD0
330
CA8
100
AcDbEntity
  8
DEFPOINTS
 62
     0
100
AcDbPoint
 10
92.19978437211366
 20
72.67311165339859
 30
0.0
  0
POINT
  5
CD1
330
CA8
100
AcDbEntity
  8
DEFPOINTS
 62
     0
100
AcDbPoint
 10
92.19978437211366
 20
59.89761731000356
 30
0.0
  0
ENDBLK
  5
CB3
330
CA8
100
AcDbEntity
  8
0
100
AcDbBlockEnd
  0
ENDSEC
  0
SECTION
  2
ENTITIES
  0
LINE
  5
18F
330
20
100
AcDbEntity
  8
STEMPEL
100
AcDbLine
 10
102.5
 20
146.0
 30
0.0
 11
9.999999999999971
 21
145.9999999999999
 31
0.0
  0
LINE
  5
190
330
20
100
AcDbEntity
  8
HILF
100
AcDbLine
 10
105.0
 20
148.5
 30
0.0
 11
-0.0000000000000284
 21
148.5
 31
0.0
  0
LINE
  5
195
330
20
100
AcDbEntity
  8
HILF
100
AcDbLine
 10
56.19342002742368
 20
21.00939561891035
 30
0.0
 11
81.20884791390777
 21
21.00939561891035
 31
0.0
  0
LINE
  5
196
330
20
100
AcDbEntity
  8
HILF
100
AcDbLine
 10
56.19342002742368
 20
17.49999999999998
 30
0.0
 11
81.20884791390773
 21
17.49999999999998
 31
0.0
  0
LINE
  5
197
330
20
100
AcDbEntity
  8
HILF
100
AcDbLine
 10
56.19342002742368
 20
14.99999999999999
 30
0.0
 11
81.20884791390773
 21
14.99999999999999
 31
0.0
  0
LINE
  5
198
330
20
100
AcDbEntity
  8
HILF
100
AcDbLine
 10
56.19342002742368
 20
12.49999999999999
 30
0.0
 11
81.20884791390773
 21
12.49999999999999
 31
0.0
  0
LINE
  5
199
330
20
100
AcDbEntity
  8
HILF
100
AcDbLine
 10
55.87274248224713
 20
3.723495645070784
 30
0.0
 11
101.2147209831682
 21
3.723495645070784
 31
0.0
  0
LINE
  5
19A
330
20
100
AcDbEntity
  8
STEMPEL
100
AcDbLine
 10
102.5
 20
27.50000000000002
 30
0.0
 11
10.0
 21
27.5
 31
0.0
  0
LINE
  5
19B
330
20
100
AcDbEntity
  8
STEMPEL
100
AcDbLine
 10
102.5
 20
10.0
 30
0.0
 11
34.00000000000003
 21
9.999999999999992
 31
0.0
  0
LINE
  5
19C
330
20
100
AcDbEntity
  8
STEMPEL
100
AcDbLine
 10
102.5
 20
20.0
 30
0.0
 11
34.00000000000003
 21
19.99999999999998
 31
0.0
  0
LINE
  5
19D
330
20
100
AcDbEntity
  8
STEMPEL
100
AcDbLine
 10
12.49999999999997
 20
2.5
 30
0.0
 11
102.5
 21
2.5
 31
0.0
  0
LINE
  5
19E
330
20
100
AcDbEntity
  8
STEMPEL
100
AcDbLine
 10
102.5
 20
2.5
 30
0.0
 11
10.0
 21
2.5
 31
0.0
  0
LINE
  5
19F
330
20
100
AcDbEntity
  8
HILF
100
AcDbLine
 10
105.0
 20
0.0
 30
0.0
 11
0.0
 21
0.0
 31
0.0
  0
TEXT
  5
1A0
330
20
100
AcDbEntity
  8
TEXT
 62
     1
100
AcDbText
 10
36.4408079266119
 20
37.89493741812738
 30
0.0
 40
1.75
  1
Werkstoff: Styrol-Butadien-Kautschuk (SBR) 50%%p5 IRHD
 41
0.8
  7
GREEKS
100
AcDbText
  0
LINE
  5
1A4
330
20
100
AcDbEntity
  8
STEMPEL
100
AcDbLine
 10
10.0
 20
2.5
 30
0.0
 11
9.999999999999971
 21
145.9999999999999
 31
0.0
  0
LINE
  5
1A5
330
20
100
AcDbEntity
  8
HILF
100
AcDbLine
 10
0.0
 20
0.0
 30
0.0
 11
-0.0000000000000284
 21
148.5
 31
0.0
  0
LINE
  5
1A6
102
{ACAD_REACTORS
330
278
330
C82
330
CBE
102
}
330
20
100
AcDbEntity
  8
STEMPEL
100
AcDbLine
 10
92.19978437211366
 20
72.67311165339859
 30
0.0
 11
28.19978437211367
 21
72.67311165339858
 31
0.0
  0
LINE
  5
1A7
102
{ACAD_REACTORS
330
278
102
}
330
20
100
AcDbEntity
  8
STEMPEL
100
AcDbLine
 10
87.59978437211367
 20
89.67311165339856
 30
0.0
 11
32.79978437211368
 21
89.67311165339857
 31
0.0
  0
DIMENSION
  5
1A9
330
20
100
AcDbEntity
  8
BEM
100
AcDbDimension
  2
*D3
 10
90.59978437211368
 20
101.0274626427733
 30
0.0
 11
60.19978437211367
 21
102.6524626427733
 31
0.0
 70
    32
  1
%%C<>
 71
     5
 42
60.8
  3
Standard
100
AcDbAlignedDimension
 13
29.79978437211368
 23
84.67311165339859
 33
0.0
 14
90.59978437211368
 24
84.67311165339856
 34
0.0
100
AcDbRotatedDimension
1001
ACAD
1000
DSTYLE
1002
{
1070
    40
1040
0.5
1070
    41
1040
3.5
1070
    42
1040
0.5
1070
    43
1040
7.0
1070
    44
1040
0.5
1070
    47
1040
0.2
1070
    48
1040
0.2
1070
    73
1070
     0
1070
    74
1070
     0
1070
    77
1070
     1
1070
    78
1070
     8
1070
    79
1070
     2
1070
   140
1040
3.5
1070
   141
1040
1.5
1070
   146
1040
0.5
1070
   147
1040
1.5
1070
   172
1070
     1
1070
   178
1070
     1
1070
   179
1070
     2
1070
   271
1070
     2
1070
   272
1070
     2
1070
   284
1070
     8
1070
   285
1070
     8
1070
   286
1070
     8
1070
   340
1005
39
1002
}
  0
DIMENSION
  5
1AC
330
20
100
AcDbEntity
  8
BEM
100
AcDbDimension
  2
*D2
 10
86.59978437211366
 20
96.92576316382469
 30
0.0
 11
60.19978437211367
 21
98.55076316382469
 31
0.0
 70
    32
  1
%%C<>
 71
     5
 42
52.79999999999997
  3
Standard
100
AcDbAlignedDimension
 13
33.79978437211369
 23
89.67311165339857
 33
0.0
 14
86.59978437211366
 24
89.67311165339856
 34
0.0
100
AcDbRotatedDimension
1001
ACAD
1000
DSTYLE
1002
{
1070
    40
1040
0.5
1070
    41
1040
3.5
1070
    42
1040
0.5
1070
    43
1040
7.0
1070
    44
1040
0.5
1070
    47
1040
0.2
1070
    48
1040
0.2
1070
    73
1070
     0
1070
    74
1070
     0
1070
    77
1070
     1
1070
    78
1070
     8
1070
    79
1070
     2
1070
   140
1040
3.5
1070
   141
1040
1.5
1070
   146
1040
0.5
1070
   147
1040
1.5
1070
   172
1070
     1
1070
   178
1070
     1
1070
   179
1070
     2
1070
   271
1070
     2
1070
   272
1070
     2
1070
   284
1070
     8
1070
   285
1070
     8
1070
   286
1070
     8
1070
   340
1005
39
1002
}
  0
LINE
  5
1B1
330
20
100
AcDbEntity
  8
STEMPEL
100
AcDbLine
 10
33.99999999999997
 20
7.499999999999992
 30
0.0
 11
10.0
 21
7.499999999999992
 31
0.0
  0
LINE
  5
1B2
330
20
100
AcDbEntity
  8
HILF
100
AcDbLine
 10
10.00000000000003
 20
25.00000000000002
 30
0.0
 11
34.00000000000003
 21
25.00000000000002
 31
0.0
  0
LINE
  5
1B3
330
20
100
AcDbEntity
  8
HILF
100
AcDbLine
 10
10.00000000000003
 20
22.50000000000001
 30
0.0
 11
34.00000000000003
 21
22.50000000000001
 31
0.0
  0
LINE
  5
1B4
330
20
100
AcDbEntity
  8
HILF
100
AcDbLine
 10
10.00000000000003
 20
19.99999999999998
 30
0.0
 11
34.00000000000003
 21
19.99999999999998
 31
0.0
  0
LINE
  5
1B5
330
20
100
AcDbEntity
  8
HILF
100
AcDbLine
 10
10.00000000000003
 20
17.49999999999998
 30
0.0
 11
34.00000000000003
 21
17.49999999999998
 31
0.0
  0
LINE
  5
1B6
330
20
100
AcDbEntity
  8
HILF
100
AcDbLine
 10
10.00000000000003
 20
14.99999999999999
 30
0.0
 11
34.00000000000003
 21
14.99999999999999
 31
0.0
  0
LINE
  5
1B7
330
20
100
AcDbEntity
  8
HILF
100
AcDbLine
 10
10.00000000000003
 20
12.49999999999999
 30
0.0
 11
34.00000000000003
 21
12.49999999999999
 31
0.0
  0
LINE
  5
1B8
330
20
100
AcDbEntity
  8
HILF
100
AcDbLine
 10
10.00000000000003
 20
9.999999999999992
 30
0.0
 11
34.00000000000003
 21
9.999999999999992
 31
0.0
  0
TEXT
  5
1B9
330
20
100
AcDbEntity
  8
TEXT
100
AcDbText
 10
29.65209946725135
 20
4.64831054241602
 30
0.0
 40
1.0
  1
Name
 41
0.8
  7
GREEKS
 72
     1
 11
31.23305184820373
 21
4.64831054241602
 31
0.0
100
AcDbText
  0
TEXT
  5
1BA
330
20
100
AcDbEntity
  8
TEXT
100
AcDbText
 10
10.62566647230113
 20
28.24944248551687
 30
0.0
 40
1.25
  1
Erstellt mit AUTOCAD 2004
 41
0.8
  7
GREEKS
100
AcDbText
  0
LINE
  5
1BC
330
20
100
AcDbEntity
  8
VOLL
100
AcDbLine
 10
13.50000000000003
 20
27.50000000000002
 30
0.0
 11
13.5
 21
2.499999999999992
 31
0.0
  0
TEXT
  5
1BD
330
20
100
AcDbEntity
  8
TEXT
100
AcDbText
 10
12.0666027676144
 20
3.413664615067979
 30
0.0
 40
1.0
  1
Index
 50
90.0
 41
0.8
  7
GREEKS
100
AcDbText
  0
TEXT
  5
1BE
330
20
100
AcDbEntity
  8
TEXT
100
AcDbText
 10
15.71004268917363
 20
4.668454737460329
 30
0.0
 40
1.0
  1
Änderung
 41
0.8
  7
GREEKS
 72
     1
 11
18.39575697488792
 21
4.668454737460329
 31
0.0
100
AcDbText
  0
LINE
  5
1BF
330
20
100
AcDbEntity
  8
VOLL
100
AcDbLine
 10
23.50000000000003
 20
27.49999999999999
 30
0.0
 11
23.5
 21
2.499999999999992
 31
0.0
  0
LINE
  5
1C0
330
20
100
AcDbEntity
  8
VOLL
100
AcDbLine
 10
28.50000000000003
 20
27.49999999999999
 30
0.0
 11
28.5
 21
2.499999999999992
 31
0.0
  0
TEXT
  5
1C1
330
20
100
AcDbEntity
  8
TEXT
100
AcDbText
 10
25.05343124510455
 20
4.667890673349525
 30
0.0
 40
1.0
  1
Tag
 41
0.8
  7
GREEKS
 72
     1
 11
25.98676457843789
 21
4.667890673349525
 31
0.0
100
AcDbText
  0
LINE
  5
1C5
330
20
100
AcDbEntity
  8
TEXT
 62
     3
100
AcDbLine
 10
46.54875258483542
 20
6.369463561880069
 30
0.0
 11
47.08465096969766
 21
4.369463561880069
 31
0.0
  0
LINE
  5
1C6
330
20
100
AcDbEntity
  8
STEMPEL
100
AcDbLine
 10
55.0
 20
27.50000000000002
 30
0.0
 11
55.0
 21
2.499999999999992
 31
0.0
  0
ARC
  5
1C7
330
20
100
AcDbEntity
  8
TEXT
 62
     3
100
AcDbCircle
 10
51.04875258483542
 20
6.619463561880069
 30
0.0
 40
2.25
100
AcDbArc
 50
270.0
 51
231.0575587310182
  0
LINE
  5
1C8
330
20
100
AcDbEntity
  8
STEMPEL
100
AcDbLine
 10
34.00000000000003
 20
27.49999999999999
 30
0.0
 11
34.0
 21
2.499999999999992
 31
0.0
  0
LINE
  5
1C9
330
20
100
AcDbEntity
  8
TEXT
 62
     3
100
AcDbLine
 10
44.54875258483542
 20
6.369463561880069
 30
0.0
 11
44.54875258483542
 21
4.369463561880083
 31
0.0
  0
ARC
  5
1CA
330
20
100
AcDbEntity
  8
TEXT
 62
     3
100
AcDbCircle
 10
37.54875258483543
 20
5.36946356188014
 30
0.0
 40
1.0
100
AcDbArc
 50
179.9999999999992
 51
270.0
  0
LINE
  5
1CB
330
20
100
AcDbEntity
  8
TEXT
 62
     3
100
AcDbLine
 10
44.04875258483542
 20
8.869463561880069
 30
0.0
 11
44.04875258483542
 21
4.369463561880069
 31
0.0
  0
ARC
  5
1CC
330
20
100
AcDbEntity
  8
TEXT
 62
     3
100
AcDbCircle
 10
41.04875258483542
 20
6.619463561880055
 30
0.0
 40
2.25
100
AcDbArc
 50
270.0
 51
231.0575587310159
  0
LINE
  5
1CD
330
20
100
AcDbEntity
  8
TEXT
 62
     3
100
AcDbLine
 10
41.04875258483542
 20
4.369463561880083
 30
0.0
 11
37.54875258483543
 21
4.369463561880069
 31
0.0
  0
LINE
  5
1CE
330
20
100
AcDbEntity
  8
TEXT
 62
     3
100
AcDbLine
 10
51.04875258483542
 20
4.369463561880069
 30
0.0
 11
47.08465096969763
 21
4.369463561880083
 31
0.0
  0
LINE
  5
1CF
330
20
100
AcDbEntity
  8
TEXT
 62
     3
100
AcDbLine
 10
44.54875258483542
 20
4.369463561880083
 30
0.0
 11
44.04875258483542
 21
4.369463561880083
 31
0.0
  0
LINE
  5
1D0
330
20
100
AcDbEntity
  8
HILF
100
AcDbLine
 10
34.00000000000003
 20
17.49999999999998
 30
0.0
 11
55.0
 21
17.49999999999998
 31
0.0
  0
LINE
  5
1D1
330
20
100
AcDbEntity
  8
HILF
100
AcDbLine
 10
34.00000000000003
 20
14.99999999999999
 30
0.0
 11
55.0
 21
14.99999999999999
 31
0.0
  0
LINE
  5
1D2
330
20
100
AcDbEntity
  8
HILF
100
AcDbLine
 10
34.00000000000003
 20
12.49999999999999
 30
0.0
 11
55.0
 21
12.49999999999999
 31
0.0
  0
TEXT
  5
1D3
330
20
100
AcDbEntity
  8
TEXT
100
AcDbText
 10
40.21569707566396
 20
15.77691260206433
 30
0.0
 40
1.0
  1
24.06.
 41
0.8
  7
GREEKS
100
AcDbText
  0
TEXT
  5
1D4
330
20
100
AcDbEntity
  8
TEXT
100
AcDbText
 10
35.06345522850518
 20
15.90747592404491
 30
0.0
 40
0.9
  1
Gez.
 41
0.8
  7
GREEKS
100
AcDbText
  0
LINE
  5
1D5
330
20
100
AcDbEntity
  8
VOLL
100
AcDbLine
 10
38.50000000000003
 20
19.99999999999998
 30
0.0
 11
38.50000000000003
 21
9.999999999999992
 31
0.0
  0
TEXT
  5
1D6
330
20
100
AcDbEntity
  8
TEXT
100
AcDbText
 10
35.06772148399739
 20
10.88236597412452
 30
0.0
 40
0.9
  1
Norm.
 41
0.8
  7
GREEKS
100
AcDbText
  0
LINE
  5
1D7
330
20
100
AcDbEntity
  8
TEXT
 62
     3
100
AcDbLine
 10
37.04875258483543
 20
8.869463561880069
 30
0.0
 11
36.54875258483543
 21
8.869463561880069
 31
0.0
  0
TEXT
  5
1D8
330
20
100
AcDbEntity
  8
TEXT
100
AcDbText
 10
35.0554292136066
 20
13.42231572857094
 30
0.0
 40
0.9
  1
Gepr.
 41
0.8
  7
GREEKS
100
AcDbText
  0
LINE
  5
1D9
330
20
100
AcDbEntity
  8
TEXT
 62
     3
100
AcDbLine
 10
36.54875258483543
 20
8.86946356188004
 30
0.0
 11
36.54875258483543
 21
5.36946356188014
 31
0.0
  0
CIRCLE
  5
1DA
330
20
100
AcDbEntity
  8
TEXT
 62
     3
100
AcDbCircle
 10
41.04875258483542
 20
6.619463561880055
 30
0.0
 40
1.75
  0
LINE
  5
1DB
330
20
100
AcDbEntity
  8
TEXT
 62
     3
100
AcDbLine
 10
37.04875258483543
 20
8.86946356188004
 30
0.0
 11
37.04875258483543
 21
5.36946356188014
 31
0.0
  0
LINE
  5
1DC
330
20
100
AcDbEntity
  8
TEXT
 62
     3
100
AcDbLine
 10
39.63453902246224
 20
4.869463561880126
 30
0.0
 11
37.54875258483543
 21
4.86946356188014
 31
0.0
  0
ARC
  5
1DD
330
20
100
AcDbEntity
  8
TEXT
 62
     3
100
AcDbCircle
 10
37.54875258483543
 20
5.36946356188014
 30
0.0
 40
0.5
100
AcDbArc
 50
180.0
 51
270.0
  0
TEXT
  5
1DE
330
20
100
AcDbEntity
  8
TEXT
100
AcDbText
 10
35.87908930375943
 20
25.61552237717722
 30
0.0
 40
1.25
  1
Maßstab
 41
0.8
  7
GREEKS
100
AcDbText
  0
TEXT
  5
1DF
330
20
100
AcDbEntity
  8
TEXT
100
AcDbText
 10
35.23963526210287
 20
18.28506367787916
 30
0.0
 40
0.9
  1
2008
 41
0.8
  7
GREEKS
100
AcDbText
  0
TEXT
  5
1E0
330
20
100
AcDbEntity
  8
TEXT
100
AcDbText
 10
40.58279182884127
 20
18.32970125307481
 30
0.0
 40
0.9
  1
Tag
 41
0.8
  7
GREEKS
100
AcDbText
  0
TEXT
  5
1E1
330
20
100
AcDbEntity
  8
TEXT
 62
     1
100
AcDbText
 10
37.84064641809613
 20
22.15414213722941
 30
0.0
 40
1.75
  1
2:1
 41
0.8
  7
GREEKS
100
AcDbText
  0
TEXT
  5
1E2
330
20
100
AcDbEntity
  8
TEXT
100
AcDbText
 10
47.80203996195996
 20
15.77240979930877
 30
0.0
 40
1.0
  1
Koeh
 41
0.8
  7
GREEKS
100
AcDbText
  0
LINE
  5
1E3
330
20
100
AcDbEntity
  8
VOLL
100
AcDbLine
 10
45.00000000000002
 20
27.49999999999996
 30
0.0
 11
45.0
 21
9.999999999999992
 31
0.0
  0
LINE
  5
1E4
330
20
100
AcDbEntity
  8
TEXT
 62
     3
100
AcDbLine
 10
49.63453902246232
 20
4.869463561880069
 30
0.0
 11
47.46831446368716
 21
4.869463561880083
 31
0.0
  0
CIRCLE
  5
1E5
330
20
100
AcDbEntity
  8
TEXT
 62
     3
100
AcDbCircle
 10
51.04875258483542
 20
6.619463561880069
 30
0.0
 40
1.75
  0
LINE
  5
1E6
330
20
100
AcDbEntity
  8
TEXT
 62
     3
100
AcDbLine
 10
46.54875258483542
 20
8.869463561880069
 30
0.0
 11
44.04875258483542
 21
8.869463561880069
 31
0.0
  0
LINE
  5
1E7
330
20
100
AcDbEntity
  8
TEXT
 62
     3
100
AcDbLine
 10
46.54875258483542
 20
8.369463561880069
 30
0.0
 11
44.54875258483542
 21
8.369463561880069
 31
0.0
  0
LINE
  5
1E8
330
20
100
AcDbEntity
  8
TEXT
 62
     3
100
AcDbLine
 10
46.54875258483542
 20
6.869463561880069
 30
0.0
 11
44.54875258483542
 21
6.869463561880069
 31
0.0
  0
LINE
  5
1E9
330
20
100
AcDbEntity
  8
TEXT
 62
     3
100
AcDbLine
 10
46.54875258483542
 20
6.369463561880069
 30
0.0
 11
44.54875258483542
 21
6.369463561880069
 31
0.0
  0
LINE
  5
1EA
330
20
100
AcDbEntity
  8
TEXT
 62
     3
100
AcDbLine
 10
44.54875258483542
 20
8.369463561880069
 30
0.0
 11
44.54875258483542
 21
6.869463561880069
 31
0.0
  0
ARC
  5
1EB
330
20
100
AcDbEntity
  8
TEXT
 62
     3
100
AcDbCircle
 10
46.54875258483542
 20
7.619463561880069
 30
0.0
 40
0.75
100
AcDbArc
 50
270.0
 51
90.0
  0
ARC
  5
1EC
330
20
100
AcDbEntity
  8
TEXT
 62
     3
100
AcDbCircle
 10
46.54875258483542
 20
7.619463561880069
 30
0.0
 40
1.25
100
AcDbArc
 50
293.1161887722295
 51
90.0
  0
ARC
  5
1ED
330
20
100
AcDbEntity
  8
TEXT
 62
     3
100
AcDbCircle
 10
46.54875258483542
 20
7.619463561880069
 30
0.0
 40
1.25
100
AcDbArc
 50
270.0
 51
270.0000000000007
  0
LINE
  5
1EE
330
20
100
AcDbEntity
  8
TEXT
 62
     3
100
AcDbLine
 10
47.03171549797997
 20
6.498873084431325
 30
0.0
 11
47.46831446368713
 21
4.869463561880083
 31
0.0
  0
TEXT
  5
1EF
330
20
100
AcDbEntity
  8
TEXT
100
AcDbText
 10
48.11566460565737
 20
18.32740272978806
 30
0.0
 40
0.9
  1
Name
 41
0.8
  7
GREEKS
100
AcDbText
  0
TEXT
  5
1F0
330
20
100
AcDbEntity
  8
TEXT
100
AcDbText
 10
46.07147386835129
 20
25.60460421087048
 30
0.0
 40
1.25
  1
Zul. Abw.
 41
0.8
  7
GREEKS
100
AcDbText
  0
TEXT
  5
1F1
330
20
100
AcDbEntity
  8
TEXT
100
AcDbText
 10
46.33715637588269
 20
21.93977527528273
 30
0.0
 40
1.0
  1
DIN EN1123-2
 41
0.7
  7
GREEKS
 72
     1
 11
50.05382304254936
 21
21.93977527528273
 31
0.0
100
AcDbText
  0
TEXT
  5
1F2
330
20
100
AcDbEntity
  8
TEXT
 62
     1
100
AcDbText
 10
56.72339327643505
 20
21.85437197313445
 30
0.0
 40
1.75
  1
Dichtelement DN 50
 41
0.8
  7
GREEKS
100
AcDbText
  0
TEXT
  5
1F3
330
20
100
AcDbEntity
  8
TEXT
100
AcDbText
 10
56.28240977813288
 20
17.91002985760538
 30
0.0
 40
1.25
  1
für Ms-Rohr %%C48 und
 41
0.8
  7
GREEKS
100
AcDbText
  0
TEXT
  5
1F4
330
20
100
AcDbEntity
  8
TEXT
100
AcDbText
 10
56.28240977813288
 20
15.41002985760539
 30
0.0
 40
1.25
  1
Kunststoff-Sifon %%C50
 41
0.8
  7
GREEKS
100
AcDbText
  0
TEXT
  5
1F5
330
20
100
AcDbEntity
  8
TEXT
100
AcDbText
 10
56.28240977813288
 20
12.91002985760539
 30
0.0
 40
1.25
  1
EDV-Art.Nr. 00915.050X
 41
0.8
  7
GREEKS
100
AcDbText
  0
TEXT
  5
1F6
330
20
100
AcDbEntity
  8
TEXT
100
AcDbText
 10
56.18555959778399
 20
7.711401425482641
 30
0.0
 40
1.25
  1
Bauvorhaben
 41
0.8
  7
GREEKS
100
AcDbText
  0
TEXT
  5
1F7
330
20
100
AcDbEntity
  8
TEXT
100
AcDbText
 10
56.24593753944566
 20
10.65743538255658
 30
0.0
 40
1.0
  1
00915050W.DWG
 41
0.8
  7
GREEKS
100
AcDbText
  0
TEXT
  5
1F8
330
20
100
AcDbEntity
  8
TEXT
100
AcDbText
 10
56.21948509522525
 20
25.63723320029449
 30
0.0
 40
1.25
  1
Benennung
 41
0.8
  7
GREEKS
100
AcDbText
  0
ARC
  5
1F9
102
{ACAD_REACTORS
330
278
102
}
330
20
100
AcDbEntity
  8
STEMPEL
100
AcDbCircle
 10
47.87429986871076
 20
76.67311165339858
 30
0.0
 40
18.0
100
AcDbArc
 50
153.612200038757
 51
177.9907356638746
  0
LINE
  5
1FA
102
{ACAD_REACTORS
330
278
102
}
330
20
100
AcDbEntity
  8
STEMPEL
100
AcDbLine
 10
33.79978437211369
 20
89.67311165339857
 30
0.0
 11
34.60464180215352
 21
82.01540473031057
 31
0.0
  0
DIMENSION
  5
1FB
330
20
100
AcDbEntity
  8
BEM
100
AcDbDimension
  2
*D1
 10
24.68924571027554
 20
72.67311165339858
 30
0.0
 11
23.06424571027552
 21
78.67311165339859
 31
0.0
 70
    32
 71
     5
 42
12.00000000000001
  3
Standard
100
AcDbAlignedDimension
 13
29.79978437211368
 23
84.67311165339859
 33
0.0
 14
28.19978437211367
 24
72.67311165339858
 34
0.0
 50
270.0
100
AcDbRotatedDimension
1001
ACAD
1000
DSTYLE
1002
{
1070
    40
1040
0.5
1070
    41
1040
3.5
1070
    42
1040
0.5
1070
    43
1040
7.0
1070
    44
1040
0.5
1070
    47
1040
0.2
1070
    48
1040
0.2
1070
    73
1070
     0
1070
    74
1070
     0
1070
    77
1070
     1
1070
    78
1070
     8
1070
    79
1070
     2
1070
   140
1040
3.5
1070
   141
1040
1.5
1070
   146
1040
0.5
1070
   147
1040
1.5
1070
   172
1070
     1
1070
   178
1070
     1
1070
   179
1070
     2
1070
   271
1070
     2
1070
   272
1070
     2
1070
   284
1070
     8
1070
   285
1070
     8
1070
   286
1070
     8
1070
   340
1005
39
1002
}
  0
DIMENSION
  5
1FC
330
20
100
AcDbEntity
  8
BEM
100
AcDbDimension
  2
*D0
 10
20.91471045647013
 20
72.67311165339858
 30
0.0
 11
19.28971045647011
 21
81.17311165339859
 31
0.0
 70
    32
 71
     5
 42
17.00000000000001
  3
Standard
100
AcDbAlignedDimension
 13
32.79978437211368
 23
89.67311165339857
 33
0.0
 14
28.19978437211367
 24
72.67311165339858
 34
0.0
 50
270.0
100
AcDbRotatedDimension
1001
ACAD
1000
DSTYLE
1002
{
1070
    40
1040
0.5
1070
    41
1040
3.5
1070
    42
1040
0.5
1070
    43
1040
7.0
1070
    44
1040
0.5
1070
    47
1040
0.2
1070
    48
1040
0.2
1070
    73
1070
     0
1070
    74
1070
     0
1070
    77
1070
     1
1070
    78
1070
     8
1070
    79
1070
     2
1070
   140
1040
3.5
1070
   141
1040
1.5
1070
   146
1040
0.5
1070
   147
1040
1.5
1070
   172
1070
     1
1070
   178
1070
     1
1070
   179
1070
     2
1070
   271
1070
     2
1070
   272
1070
     2
1070
   284
1070
     8
1070
   285
1070
     8
1070
   286
1070
     8
1070
   340
1005
39
1002
}
  0
LINE
  5
1FD
102
{ACAD_REACTORS
330
278
102
}
330
20
100
AcDbEntity
  8
STEMPEL
100
AcDbLine
 10
31.74978437211366
 20
84.67311165339859
 30
0.0
 11
29.79978437211368
 21
84.67311165339859
 31
0.0
  0
LINE
  5
1FE
102
{ACAD_REACTORS
330
278
102
}
330
20
100
AcDbEntity
  8
STEMPEL
100
AcDbLine
 10
32.79978437211368
 20
89.67311165339857
 30
0.0
 11
30.38557080974058
 21
87.25889809102552
 31
0.0
  0
ARC
  5
1FF
102
{ACAD_REACTORS
330
278
102
}
330
20
100
AcDbEntity
  8
STEMPEL
100
AcDbCircle
 10
31.79978437211366
 20
85.84468452865241
 30
0.0
 40
2.0
100
AcDbArc
 50
134.9999999999998
 51
180.0000000000002
  0
LINE
  5
200
102
{ACAD_REACTORS
330
278
102
}
330
20
100
AcDbEntity
  8
STEMPEL
100
AcDbLine
 10
29.79978437211367
 20
85.84468452865241
 30
0.0
 11
29.79978437211368
 21
84.67311165339859
 31
0.0
  0
LINE
  5
203
102
{ACAD_REACTORS
330
278
330
C82
102
}
330
20
100
AcDbEntity
  8
STEMPEL
100
AcDbLine
 10
39.19978437211367
 20
72.67311165339858
 30
0.0
 11
35.6326137348242
 21
78.85163243645179
 31
0.0
  0
LINE
  5
204
102
{ACAD_REACTORS
330
278
102
}
330
20
100
AcDbEntity
  8
STEMPEL
100
AcDbLine
 10
38.19978437211366
 20
72.67311165339858
 30
0.0
 11
33.49267759092712
 21
77.38021843458513
 31
0.0
  0
ARC
  5
205
102
{ACAD_REACTORS
330
278
102
}
330
20
100
AcDbEntity
  8
STEMPEL
100
AcDbCircle
 10
42.5608169650997
 20
82.85163243645181
 30
0.0
 40
8.0
100
AcDbArc
 50
185.9999999999999
 51
210.0
  0
LINE
  5
206
102
{ACAD_REACTORS
330
278
102
}
330
20
100
AcDbEntity
  8
STEMPEL
100
AcDbLine
 10
29.19978437211367
 20
72.67311165339858
 30
0.0
 11
31.92972070117912
 21
77.19033558137889
 31
0.0
  0
LINE
  5
207
102
{ACAD_REACTORS
330
278
102
}
330
20
100
AcDbEntity
  8
STEMPEL
100
AcDbLine
 10
28.19978437211367
 20
72.67311165339858
 30
0.0
 11
29.88536679170892
 21
77.30421128986623
 31
0.0
  0
ARC
  5
208
102
{ACAD_REACTORS
330
278
102
}
330
20
100
AcDbEntity
  8
STEMPEL
100
AcDbCircle
 10
32.78557080974057
 20
76.67311165339859
 30
0.0
 40
1.0
100
AcDbArc
 50
44.99999999999999
 51
148.8537783832093
  0
LINE
  5
209
330
20
100
AcDbEntity
  8
TEXT
 62
     2
100
AcDbLine
 10
13.79330141755854
 20
117.0286792479512
 30
0.0
 11
31.59267759092712
 21
88.46600487221204
 31
0.0
  0
ARC
  5
20E
102
{ACAD_REACTORS
330
278
102
}
330
20
100
AcDbEntity
  8
STEMPEL
100
AcDbCircle
 10
72.52526887551659
 20
76.67311165339858
 30
0.0
 40
18.0
100
AcDbArc
 50
2.009264336125349
 51
26.38779996124295
  0
LINE
  5
20F
102
{ACAD_REACTORS
330
278
102
}
330
20
100
AcDbEntity
  8
STEMPEL
100
AcDbLine
 10
86.59978437211366
 20
89.67311165339856
 30
0.0
 11
85.79492694207383
 21
82.01540473031057
 31
0.0
  0
LINE
  5
210
330
20
100
AcDbEntity
  8
MITTEL
100
AcDbLine
 10
60.19978437211368
 20
94.67311165339857
 30
0.0
 11
60.19978437211366
 21
67.67311165339859
 31
0.0
  0
LINE
  5
211
102
{ACAD_REACTORS
330
278
102
}
330
20
100
AcDbEntity
  8
STEMPEL
100
AcDbLine
 10
88.6497843721137
 20
84.67311165339856
 30
0.0
 11
90.59978437211368
 21
84.67311165339856
 31
0.0
  0
LINE
  5
212
102
{ACAD_REACTORS
330
278
102
}
330
20
100
AcDbEntity
  8
STEMPEL
100
AcDbLine
 10
87.59978437211367
 20
89.67311165339856
 30
0.0
 11
90.01399793448678
 21
87.25889809102548
 31
0.0
  0
ARC
  5
215
102
{ACAD_REACTORS
330
278
102
}
330
20
100
AcDbEntity
  8
STEMPEL
100
AcDbCircle
 10
88.59978437211369
 20
85.84468452865239
 30
0.0
 40
2.0
100
AcDbArc
 50
359.9999999999996
 51
45.00000000000031
  0
LINE
  5
216
102
{ACAD_REACTORS
330
278
102
}
330
20
100
AcDbEntity
  8
STEMPEL
100
AcDbLine
 10
90.59978437211368
 20
85.84468452865237
 30
0.0
 11
90.59978437211368
 21
84.67311165339856
 31
0.0
  0
LINE
  5
219
102
{ACAD_REACTORS
330
278
330
C82
102
}
330
20
100
AcDbEntity
  8
STEMPEL
100
AcDbLine
 10
81.19978437211365
 20
72.67311165339861
 30
0.0
 11
84.76695500940314
 21
78.85163243645178
 31
0.0
  0
LINE
  5
21A
102
{ACAD_REACTORS
330
278
102
}
330
20
100
AcDbEntity
  8
STEMPEL
100
AcDbLine
 10
82.19978437211366
 20
72.67311165339858
 30
0.0
 11
86.90689115330021
 21
77.38021843458511
 31
0.0
  0
ARC
  5
21B
102
{ACAD_REACTORS
330
278
102
}
330
20
100
AcDbEntity
  8
STEMPEL
100
AcDbCircle
 10
77.83875177912763
 20
82.85163243645179
 30
0.0
 40
8.0
100
AcDbArc
 50
330.0
 51
354.0
  0
LINE
  5
21C
102
{ACAD_REACTORS
330
278
102
}
330
20
100
AcDbEntity
  8
STEMPEL
100
AcDbLine
 10
91.19978437211367
 20
72.67311165339856
 30
0.0
 11
88.46984804304822
 21
77.19033558137886
 31
0.0
  0
ARC
  5
21D
102
{ACAD_REACTORS
330
278
102
}
330
20
100
AcDbEntity
  8
STEMPEL
100
AcDbCircle
 10
87.61399793448678
 20
76.67311165339858
 30
0.0
 40
1.0
100
AcDbArc
 50
31.1462216167907
 51
135.0
  0
LINE
  5
21E
102
{ACAD_REACTORS
330
278
102
}
330
20
100
AcDbEntity
  8
STEMPEL
100
AcDbLine
 10
92.19978437211366
 20
72.67311165339859
 30
0.0
 11
90.51420195251843
 21
77.3042112898662
 31
0.0
  0
LINE
  5
224
330
20
100
AcDbEntity
  8
STEMPEL
100
AcDbLine
 10
102.5
 20
27.50000000000002
 30
0.0
 11
102.5
 21
146.0
 31
0.0
  0
LINE
  5
225
330
20
100
AcDbEntity
  8
HILF
100
AcDbLine
 10
105.0
 20
-0.0000000000000284
 30
0.0
 11
105.0
 21
148.5
 31
0.0
  0
LINE
  5
228
330
20
100
AcDbEntity
  8
STEMPEL
100
AcDbLine
 10
102.5
 20
27.50000000000002
 30
0.0
 11
102.5
 21
2.5
 31
0.0
  0
TEXT
  5
229
330
20
100
AcDbEntity
  8
TEXT
 62
     1
100
AcDbText
 10
86.99385592969296
 20
22.0372535722849
 30
0.0
 40
1.75
  1
00915050W
 41
0.8
  7
GREEKS
 72
     1
 11
92.86052259635964
 21
22.0372535722849
 31
0.0
100
AcDbText
  0
LINE
  5
22B
330
20
100
AcDbEntity
  8
VOLL
100
AcDbLine
 10
83.0
 20
15.0
 30
0.0
 11
102.5
 21
15.0
 31
0.0
  0
LINE
  5
22C
330
20
100
AcDbEntity
  8
HILF
100
AcDbLine
 10
84.18096540742482
 20
20.94495909238957
 30
0.0
 11
101.2147209831682
 21
20.94495909238957
 31
0.0
  0
TEXT
  5
22D
330
20
100
AcDbEntity
  8
TEXT
100
AcDbText
 10
84.04468873940851
 20
25.57830086342841
 30
0.0
 40
1.25
  1
Zeichnungs Nr.
 41
0.8
  7
GREEKS
100
AcDbText
  0
TEXT
  5
22E
330
20
100
AcDbEntity
  8
TEXT
100
AcDbText
 10
84.31002153742515
 20
13.0185404446965
 30
0.0
 40
1.25
  1
ersetzt durch:
 41
0.8
  7
GREEKS
100
AcDbText
  0
LINE
  5
22F
330
20
100
AcDbEntity
  8
STEMPEL
100
AcDbLine
 10
83.0
 20
27.49999999999995
 30
0.0
 11
83.0
 21
10.0
 31
0.0
  0
TEXT
  5
230
330
20
100
AcDbEntity
  8
TEXT
100
AcDbText
 10
84.18096540742482
 20
18.29529559274992
 30
0.0
 40
1.25
  1
Ersatz für:
 41
0.8
  7
GREEKS
100
AcDbText
  0
TEXT
  5
238
330
20
100
AcDbEntity
  8
TEXT
 62
     1
100
AcDbText
 10
40.4411166907081
 20
34.89493741812738
 30
0.0
 40
1.75
  1
Farbe: schwarz
 41
0.8
  7
GREEKS
100
AcDbText
  0
TEXT
  5
23F
330
20
100
AcDbEntity
  8
TEXT
 62
     1
100
AcDbText
 10
13.79330141755855
 20
117.9908822711378
 30
0.0
 40
1.75
  1
Gravur: EN 1123 LORO DN50/50/48 TG Nest.Nr. WC Jahreszahl
 41
0.8
  7
GREEKS
100
AcDbText
  0
LINE
  5
240
330
20
100
AcDbEntity
  8
TEXT
 62
     2
100
AcDbLine
 10
20.64992098783486
 20
117.0286792479512
 30
0.0
 11
13.79330141755855
 21
117.0286792479512
 31
0.0
  0
TEXT
  5
243
330
20
100
AcDbEntity
  8
BEM
100
AcDbText
 10
104.1452885359359
 20
3.037012038345757
 30
0.0
 40
1.0
  1
Diese Zeichnung ist urheberrechtlich geschützt und bleibt unser Eigentum. Sie darf weder ganz noch teilweise vervielfältigt und nicht an Dritte weitergegeben werden.
 50
90.0
 41
0.8
  7
GREEKS
100
AcDbText
  0
HATCH
  5
278
330
20
100
AcDbEntity
  8
SCHRAFF
100
AcDbHatch
 10
0.0
 20
0.0
 30
0.0
210
0.0
220
0.0
230
1.0
  2
NET
 70
     0
 71
     1
 91
        2
 92
        7
 72
     1
 73
     1
 93
       15
 10
88.46984804304822
 20
77.19033558137886
 42
0.0
 10
91.19978437211363
 20
72.67311165339859
 42
0.0
 10
92.19978437211365
 20
72.67311165339859
 42
0.0
 10
90.51420195251843
 20
77.3042112898662
 42
0.1067744458476974
 10
88.64978437211368
 20
84.67311165339856
 42
0.0
 10
90.59978437211368
 20
84.67311165339856
 42
0.0
 10
90.59978437211368
 20
85.84468452865237
 42
0.1989123673796594
 10
90.01399793448678
 20
87.25889809102548
 42
0.0
 10
87.59978437211369
 20
89.67311165339856
 42
0.0
 10
86.59978437211368
 20
89.67311165339857
 42
0.0
 10
85.79492694207383
 20
82.01540473031057
 42
-0.1051042352656772
 10
84.76695500940314
 20
78.85163243645178
 42
0.0
 10
81.19978437211367
 20
72.67311165339861
 42
0.0
 10
82.19978437211372
 20
72.67311165339862
 42
0.0
 10
86.90689115330021
 20
77.38021843458511
 42
-0.4869430496872388
 97
       14
330
21C
330
1A6
330
21E
330
20E
330
211
330
216
330
215
330
212
330
1A7
330
20F
330
21B
330
219
330
21A
330
21D
 92
        7
 72
     1
 73
     1
 93
       15
 10
29.88536679170892
 20
77.30421128986623
 42
0.0
 10
28.19978437211368
 20
72.67311165339858
 42
0.0
 10
29.19978437211367
 20
72.67311165339859
 42
0.0
 10
31.92972070117912
 20
77.19033558137889
 42
-0.486943049687238
 10
33.49267759092712
 20
77.38021843458513
 42
0.0
 10
38.19978437211366
 20
72.67311165339858
 42
0.0
 10
39.19978437211367
 20
72.67311165339858
 42
0.0
 10
35.6326137348242
 20
78.85163243645179
 42
-0.105104235265677
 10
34.60464180215352
 20
82.01540473031057
 42
0.0
 10
33.79978437211367
 20
89.67311165339856
 42
0.0
 10
32.79978437211369
 20
89.67311165339859
 42
0.0
 10
30.38557080974058
 20
87.25889809102552
 42
0.1989123673796632
 10
29.79978437211367
 20
85.84468452865239
 42
0.0
 10
29.79978437211368
 20
84.67311165339859
 42
0.0
 10
31.74978437211366
 20
84.67311165339859
 42
0.1067744458476973
 97
       14
330
204
330
1A6
330
203
330
205
330
1FA
330
1A7
330
1FE
330
1FF
330
200
330
1FD
330
1F9
330
207
330
206
330
208
 75
     0
 76
     1
 52
-45.00000000000001
 41
10.0
 77
     0
 78
     2
 53
315.0
 43
-25.67683549139177
 44
140.0386708610502
 45
0.8838834764831846
 46
0.8838834764831842
 79
     0
 53
44.99999999999999
 43
-25.67683549139177
 44
140.0386708610502
 45
-0.8838834764831842
 46
0.8838834764831846
 79
     0
 47
0.1472999081362419
 98
        2
 10
87.54412871694302
 20
79.18578650560633
 10
32.60126263981506
 20
82.13401598041018
  0
LINE
  5
C26
330
20
100
AcDbEntity
  8
TEXT
 62
     1
100
AcDbLine
 10
84.15291860915337
 20
120.0206245054823
 30
0.0
 11
84.15291860915337
 21
117.9364240654697
 31
0.0
  0
LINE
  5
C27
330
20
100
AcDbEntity
  8
TEXT
 62
     1
100
AcDbLine
 10
86.15291860915338
 20
120.0206245054823
 30
0.0
 11
86.15291860915338
 21
117.9364240654697
 31
0.0
  0
LINE
  5
C28
330
20
100
AcDbEntity
  8
TEXT
 62
     1
100
AcDbLine
 10
88.15291860915337
 20
120.0206245054823
 30
0.0
 11
88.15291860915337
 21
117.9364240654697
 31
0.0
  0
LINE
  5
C29
330
20
100
AcDbEntity
  8
TEXT
 62
     1
100
AcDbLine
 10
90.15291860915338
 20
120.0206245054823
 30
0.0
 11
90.15291860915338
 21
117.9364240654697
 31
0.0
  0
LINE
  5
C2A
330
20
100
AcDbEntity
  8
TEXT
 62
     1
100
AcDbLine
 10
92.15291860915337
 20
120.0206245054823
 30
0.0
 11
92.15291860915337
 21
117.9364240654697
 31
0.0
  0
LINE
  5
C2B
330
20
100
AcDbEntity
  8
TEXT
 62
     1
100
AcDbLine
 10
94.15291860915337
 20
120.0206245054823
 30
0.0
 11
94.15291860915337
 21
117.9364240654697
 31
0.0
  0
LINE
  5
C2C
330
20
100
AcDbEntity
  8
TEXT
 62
     1
100
AcDbLine
 10
96.15291860915341
 20
120.0206245054823
 30
0.0
 11
96.15291860915341
 21
117.9364240654697
 31
0.0
  0
LINE
  5
C2D
330
20
100
AcDbEntity
  8
TEXT
 62
     1
100
AcDbLine
 10
98.15291860915341
 20
120.0206245054823
 30
0.0
 11
98.15291860915341
 21
117.9364240654697
 31
0.0
  0
LINE
  5
C2E
330
20
100
AcDbEntity
  8
TEXT
 62
     1
100
AcDbLine
 10
84.15291860915337
 20
118.978524285476
 30
0.0
 11
98.15291860915341
 21
118.978524285476
 31
0.0
  0
TEXT
  5
C2F
330
20
100
AcDbEntity
  8
TEXT
 62
     2
100
AcDbText
 10
83.91922992734325
 20
124.4769273798639
 30
0.0
 40
1.0
  1
Raster für weitere Jahre
 41
0.8
  7
GREEKS
100
AcDbText
  0
LINE
  5
C30
330
20
100
AcDbEntity
  8
TEXT
 62
     2
100
AcDbLine
 10
85.19213299678893
 20
122.4693125951714
 30
0.0
 11
90.24005387329825
 21
122.4693125951714
 31
0.0
  0
LINE
  5
C31
330
20
100
AcDbEntity
  8
TEXT
 62
     2
100
AcDbLine
 10
92.16429762845558
 20
122.4693125951714
 30
0.0
 11
97.12366508007542
 21
122.4693125951714
 31
0.0
  0
ARC
  5
C32
330
20
100
AcDbEntity
  8
TEXT
 62
     2
100
AcDbCircle
 10
85.1666177539108
 20
121.5329194727181
 30
0.0
 40
0.9367406831134985
100
AcDbArc
 50
88.43916615436063
 51
180.9693128199328
  0
ARC
  5
C33
330
20
100
AcDbEntity
  8
TEXT
 62
     2
100
AcDbCircle
 10
97.14918032295361
 20
121.5329194727181
 30
0.0
 40
0.9367406831134985
100
AcDbArc
 50
359.0306871800672
 51
91.56083384564263
  0
ARC
  5
C34
330
20
100
AcDbEntity
  8
TEXT
 62
     2
100
AcDbCircle
 10
92.13878238557729
 20
123.4057057176247
 30
0.0
 40
0.9367406831134985
100
AcDbArc
 50
179.0306871800672
 51
271.5608338456483
  0
ARC
  5
C35
330
20
100
AcDbEntity
  8
TEXT
 62
     2
100
AcDbCircle
 10
90.26556911617635
 20
123.4057057176247
 30
0.0
 40
0.9367406831134985
100
AcDbArc
 50
268.4391661543623
 51
0.9693128199328132
  0
DIMENSION
  5
C6B
102
{ACAD_XDICTIONARY
360
C78
102
}
102
{ACAD_REACTORS
330
C82
102
}
330
20
100
AcDbEntity
  8
BEM
100
AcDbDimension
  2
*D4
 10
81.19978437211363
 20
63.83615020077911
 30
0.0
 11
60.19978437211365
 21
65.46115020077912
 31
0.0
 70
    32
  1
%%c<>
 71
     5
 42
41.99999999999997
  3
Standard
100
AcDbAlignedDimension
 13
39.19978437211367
 23
72.67311165339858
 33
0.0
 14
81.19978437211363
 24
72.67311165339859
 34
0.0
100
AcDbRotatedDimension
1001
ACAD
1000
DSTYLE
1002
{
1070
    40
1040
0.5
1070
    41
1040
3.5
1070
    42
1040
0.5
1070
    43
1040
7.0
1070
    44
1040
0.5
1070
    47
1040
0.2
1070
    48
1040
0.2
1070
    73
1070
     0
1070
    74
1070
     0
1070
    77
1070
     1
1070
    78
1070
     8
1070
    79
1070
     2
1070
   140
1040
3.5
1070
   141
1040
1.5
1070
   146
1040
0.5
1070
   147
1040
1.5
1070
   172
1070
     1
1070
   178
1070
     1
1070
   179
1070
     2
1070
   271
1070
     2
1070
   272
1070
     2
1070
   284
1070
     8
1070
   285
1070
     8
1070
   286
1070
     8
1070
   340
1005
39
1002
}
  0
DIMENSION
  5
CA7
102
{ACAD_XDICTIONARY
360
CB4
102
}
102
{ACAD_REACTORS
330
CBE
102
}
330
20
100
AcDbEntity
  8
BEM
100
AcDbDimension
  2
*D5
 10
92.19978437211366
 20
59.89761731000356
 30
0.0
 11
60.19978437211367
 21
61.52261731000357
 31
0.0
 70
    32
  1
%%c<>
 71
     5
 42
64.0
  3
Standard
100
AcDbAlignedDimension
 13
28.19978437211367
 23
72.67311165339858
 33
0.0
 14
92.19978437211366
 24
72.67311165339859
 34
0.0
100
AcDbRotatedDimension
1001
ACAD
1000
DSTYLE
1002
{
1070
    40
1040
0.5
1070
    41
1040
3.5
1070
    42
1040
0.5
1070
    43
1040
7.0
1070
    44
1040
0.5
1070
    47
1040
0.2
1070
    48
1040
0.2
1070
    73
1070
     0
1070
    74
1070
     0
1070
    77
1070
     1
1070
    78
1070
     8
1070
    79
1070
     2
1070
   140
1040
3.5
1070
   141
1040
1.5
1070
   146
1040
0.5
1070
   147
1040
1.5
1070
   172
1070
     1
1070
   178
1070
     1
1070
   179
1070
     2
1070
   271
1070
     2
1070
   272
1070
     2
1070
   284
1070
     8
1070
   285
1070
     8
1070
   286
1070
     8
1070
   340
1005
39
1002
}
  0
ENDSEC
  0
SECTION
  2
OBJECTS
  0
DICTIONARY
  5
C
330
0
100
AcDbDictionary
281
     1
  3
ACAD_COLOR
350
1B
  3
ACAD_GROUP
350
D
  3
ACAD_LAYOUT
350
19
  3
ACAD_MATERIAL
350
1A
  3
ACAD_MLINESTYLE
350
16
  3
ACAD_PLOTSETTINGS
350
18
  3
ACAD_PLOTSTYLENAME
350
E
  3
AcDbVariableDictionary
350
28D
  0
DICTIONARY
  5
C78
330
C6B
100
AcDbDictionary
280
     1
281
     1
  3
ACAD_DIMASSOC
360
C82
  0
DICTIONARY
  5
CB4
330
CA7
100
AcDbDictionary
280
     1
281
     1
  3
ACAD_DIMASSOC
360
CBE
  0
DICTIONARY
  5
1B
102
{ACAD_REACTORS
330
C
102
}
330
C
100
AcDbDictionary
281
     1
  0
DICTIONARY
  5
D
102
{ACAD_REACTORS
330
C
102
}
330
C
100
AcDbDictionary
281
     1
  0
DICTIONARY
  5
19
102
{ACAD_REACTORS
330
C
102
}
330
C
100
AcDbDictionary
281
     1
  3
Layout1
350
1F
  3
Model
350
23
  0
DICTIONARY
  5
1A
102
{ACAD_REACTORS
330
C
102
}
330
C
100
AcDbDictionary
281
     1
  0
DICTIONARY
  5
16
102
{ACAD_REACTORS
330
C
102
}
330
C
100
AcDbDictionary
281
     1
  3
Standard
350
17
  0
DICTIONARY
  5
18
102
{ACAD_REACTORS
330
C
102
}
330
C
100
AcDbDictionary
281
     1
  0
ACDBDICTIONARYWDFLT
  5
E
102
{ACAD_REACTORS
330
C
102
}
330
C
100
AcDbDictionary
281
     1
  3
Normal
350
F
100
AcDbDictionaryWithDefault
340
F
  0
DICTIONARY
  5
28D
102
{ACAD_REACTORS
330
C
102
}
330
C
100
AcDbDictionary
281
     1
  3
DIMASSOC
350
28F
  3
HIDETEXT
350
28E
  3
PROJECTNAME
350
290
  0
DIMASSOC
  5
C82
102
{ACAD_REACTORS
330
C78
102
}
330
C78
100
AcDbDimAssoc
330
C6B
 90
        3
 70
     0
 71
     0
  1
AcDbOsnapPointRef
 72
     6
331
203
 73
     2
 91
        0
 40
0.0
 10
0.0
 20
0.0
 30
0.0
332
1A6
 74
     2
 92
        0
 75
     0
  1
AcDbOsnapPointRef
 72
     6
331
219
 73
     2
 91
        0
 40
-0.0000000000000027
 10
0.0
 20
0.0
 30
0.0
332
1A6
 74
     2
 92
        0
 75
     0
  0
DIMASSOC
  5
CBE
102
{ACAD_REACTORS
330
CB4
102
}
330
CB4
100
AcDbDimAssoc
330
CA7
 90
        3
 70
     0
 71
     0
  1
AcDbOsnapPointRef
 72
     1
331
1A6
 73
     2
 91
        0
 40
1.0
 10
0.0
 20
0.0
 30
2.000000000000000E+50
 75
     0
  1
AcDbOsnapPointRef
 72
    13
331
1A6
 73
     2
 91
        0
 40
0.0
 10
0.0
 20
0.0
 30
2.000000000000000E+50
 75
     0
  0
LAYOUT
  5
1F
102
{ACAD_REACTORS
330
19
102
}
330
19
100
AcDbPlotSettings
  1

  2
RICOH Aficio 2027 PCL 6
  4

  6

 40
0.0
 41
0.0
 42
0.0
 43
0.0
 44
0.0
 45
0.0
 46
0.0
 47
0.0
 48
0.0
 49
0.0
140
0.0
141
0.0
142
1.0
143
1.0
 70
   688
 72
     0
 73
     0
 74
     5
  7
monochrome1.ctb
 75
    16
147
1.0
 76
     0
 77
     2
 78
   300
148
0.0
149
0.0
100
AcDbLayout
  1
Layout1
 70
     0
 71
     1
 10
0.0
 20
0.0
 11
12.0
 21
9.0
 12
0.0
 22
0.0
 32
0.0
 14
1.000000000000000E+20
 24
1.000000000000000E+20
 34
1.000000000000000E+20
 15
-1.000000000000000E+20
 25
-1.000000000000000E+20
 35
-1.000000000000000E+20
146
0.0
 13
0.0
 23
0.0
 33
0.0
 16
1.0
 26
0.0
 36
0.0
 17
0.0
 27
1.0
 37
0.0
 76
     0
330
1C
  0
LAYOUT
  5
23
102
{ACAD_REACTORS
330
19
102
}
330
19
100
AcDbPlotSettings
  1

  2
none_device
  4
Letter_(8.50_x_11.00_Inches)
  6

 40
6.349999904632568
 41
6.349999904632568
 42
6.350006103515625
 43
6.350006103515625
 44
215.8999938964844
 45
279.3999938964844
 46
0.0
 47
0.0
 48
0.0
 49
0.0
140
0.0
141
0.0
142
1.0
143
1.0
 70
 11952
 72
     0
 73
     1
 74
     0
  7
monochrome1.ctb
 75
     0
147
1.0
 76
     0
 77
     2
 78
   300
148
571.712972172945
149
19.26296960039758
100
AcDbLayout
  1
Model
 70
     1
 71
     0
 10
0.0
 20
0.0
 11
12.0
 21
9.0
 12
0.0
 22
0.0
 32
0.0
 14
0.0
 24
0.0
 34
0.0
 15
0.0
 25
0.0
 35
0.0
146
0.0
 13
0.0
 23
0.0
 33
0.0
 16
1.0
 26
0.0
 36
0.0
 17
0.0
 27
1.0
 37
0.0
 76
     0
330
20
  0
MLINESTYLE
  5
17
102
{ACAD_REACTORS
330
16
102
}
330
16
100
AcDbMlineStyle
  2
STANDARD
 70
     0
  3

 62
   256
 51
90.0
 52
90.0
 71
     2
 49
0.5
 62
   256
  6
BYLAYER
 49
-0.5
 62
   256
  6
BYLAYER
  0
ACDBPLACEHOLDER
  5
F
102
{ACAD_REACTORS
330
E
102
}
330
E
  0
DICTIONARYVAR
  5
28F
102
{ACAD_REACTORS
330
28D
102
}
330
28D
100
DictionaryVariables
280
     0
  1
2
  0
DICTIONARYVAR
  5
28E
102
{ACAD_REACTORS
330
28D
102
}
330
28D
100
DictionaryVariables
280
     0
  1
1
  0
DICTIONARYVAR
  5
290
102
{ACAD_REACTORS
330
28D
102
}
330
28D
100
DictionaryVariables
280
     0
  1

  0
ENDSEC
  0
EOF
