  0
SECTION
  2
HEADER
  9
$ACADVER
  1
AC1018
  9
$ACADMAINTVER
 70
     2
  9
$DWGCODEPAGE
  3
ANSI_1252
  9
$INSBASE
 10
0.0
 20
0.0
 30
0.0
  9
$EXTMIN
 10
-0.0075370324936159
 20
-0.0067959924840579
 30
-0.0000000000000058
  9
$EXTMAX
 10
105.0033253230131
 20
148.5067987586599
 30
0.0000000000000104
  9
$LIMMIN
 10
0.0
 20
0.0
  9
$LIMMAX
 10
105.0
 20
148.5
  9
$ORTHOMODE
 70
     1
  9
$REGENMODE
 70
     1
  9
$FILLMODE
 70
     1
  9
$QTEXTMODE
 70
     0
  9
$MIRRTEXT
 70
     1
  9
$LTSCALE
 40
5.0
  9
$ATTMODE
 70
     1
  9
$TEXTSIZE
 40
3.5
  9
$TRACEWID
 40
0.5
  9
$TEXTSTYLE
  7
GREEKS
  9
$CLAYER
  8
BEM
  9
$CELTYPE
  6
ByLayer
  9
$CECOLOR
 62
   256
  9
$CELTSCALE
 40
1.0
  9
$DISPSILH
 70
     0
  9
$DIMSCALE
 40
0.5
  9
$DIMASZ
 40
3.5
  9
$DIMEXO
 40
1.0
  9
$DIMDLI
 40
7.0
  9
$DIMRND
 40
0.0
  9
$DIMDLE
 40
0.0
  9
$DIMEXE
 40
1.0
  9
$DIMTP
 40
0.2
  9
$DIMTM
 40
0.2
  9
$DIMTXT
 40
3.5
  9
$DIMCEN
 40
1.5
  9
$DIMTSZ
 40
0.0
  9
$DIMTOL
 70
     0
  9
$DIMLIM
 70
     0
  9
$DIMTIH
 70
     0
  9
$DIMTOH
 70
     0
  9
$DIMSE1
 70
     0
  9
$DIMSE2
 70
     0
  9
$DIMTAD
 70
     1
  9
$DIMZIN
 70
     8
  9
$DIMBLK
  1

  9
$DIMASO
 70
     1
  9
$DIMSHO
 70
     0
  9
$DIMPOST
  1

  9
$DIMAPOST
  1

  9
$DIMALT
 70
     0
  9
$DIMALTD
 70
     2
  9
$DIMALTF
 40
25.4
  9
$DIMLFAC
 40
1.0
  9
$DIMTOFL
 70
     1
  9
$DIMTVP
 40
0.0
  9
$DIMTIX
 70
     0
  9
$DIMSOXD
 70
     0
  9
$DIMSAH
 70
     0
  9
$DIMBLK1
  1

  9
$DIMBLK2
  1

  9
$DIMSTYLE
  2
Standard
  9
$DIMCLRD
 70
     0
  9
$DIMCLRE
 70
     0
  9
$DIMCLRT
 70
     1
  9
$DIMTFAC
 40
0.5
  9
$DIMGAP
 40
1.5
  9
$DIMJUST
 70
     0
  9
$DIMSD1
 70
     0
  9
$DIMSD2
 70
     0
  9
$DIMTOLJ
 70
     1
  9
$DIMTZIN
 70
     8
  9
$DIMALTZ
 70
     8
  9
$DIMALTTZ
 70
     8
  9
$DIMUPT
 70
     0
  9
$DIMDEC
 70
     2
  9
$DIMTDEC
 70
     2
  9
$DIMALTU
 70
     2
  9
$DIMALTTD
 70
     2
  9
$DIMTXSTY
  7
GREEKS
  9
$DIMAUNIT
 70
     0
  9
$DIMADEC
 70
     2
  9
$DIMALTRND
 40
0.0
  9
$DIMAZIN
 70
     2
  9
$DIMDSEP
 70
    46
  9
$DIMATFIT
 70
     3
  9
$DIMFRAC
 70
     0
  9
$DIMLDRBLK
  1

  9
$DIMLUNIT
 70
     2
  9
$DIMLWD
 70
    -2
  9
$DIMLWE
 70
    -2
  9
$DIMTMOVE
 70
     0
  9
$LUNITS
 70
     2
  9
$LUPREC
 70
     2
  9
$SKETCHINC
 40
1.0
  9
$FILLETRAD
 40
0.0
  9
$AUNITS
 70
     0
  9
$AUPREC
 70
     0
  9
$MENU
  1
ACAD
  9
$ELEVATION
 40
0.0
  9
$PELEVATION
 40
0.0
  9
$THICKNESS
 40
0.0
  9
$LIMCHECK
 70
     0
  9
$CHAMFERA
 40
0.0
  9
$CHAMFERB
 40
0.0
  9
$CHAMFERC
 40
0.0
  9
$CHAMFERD
 40
0.0
  9
$SKPOLY
 70
     0
  9
$TDCREATE
 40
2452345.524094908
  9
$TDUCREATE
 40
2452345.440761574
  9
$TDUPDATE
 40
2455450.554443090
  9
$TDUUPDATE
 40
2455450.471109757
  9
$TDINDWG
 40
0.0129195949
  9
$TDUSRTIMER
 40
0.0129195949
  9
$USRTIMER
 70
     1
  9
$ANGBASE
 50
0.0
  9
$ANGDIR
 70
     0
  9
$PDMODE
 70
     0
  9
$PDSIZE
 40
0.0
  9
$PLINEWID
 40
0.0
  9
$SPLFRAME
 70
     0
  9
$SPLINETYPE
 70
     6
  9
$SPLINESEGS
 70
     8
  9
$HANDSEED
  5
373
  9
$SURFTAB1
 70
     6
  9
$SURFTAB2
 70
     6
  9
$SURFTYPE
 70
     6
  9
$SURFU
 70
     6
  9
$SURFV
 70
     6
  9
$UCSBASE
  2

  9
$UCSNAME
  2

  9
$UCSORG
 10
0.0
 20
0.0
 30
0.0
  9
$UCSXDIR
 10
1.0
 20
0.0
 30
0.0
  9
$UCSYDIR
 10
0.0
 20
1.0
 30
0.0
  9
$UCSORTHOREF
  2

  9
$UCSORTHOVIEW
 70
     0
  9
$UCSORGTOP
 10
0.0
 20
0.0
 30
0.0
  9
$UCSORGBOTTOM
 10
0.0
 20
0.0
 30
0.0
  9
$UCSORGLEFT
 10
0.0
 20
0.0
 30
0.0
  9
$UCSORGRIGHT
 10
0.0
 20
0.0
 30
0.0
  9
$UCSORGFRONT
 10
0.0
 20
0.0
 30
0.0
  9
$UCSORGBACK
 10
0.0
 20
0.0
 30
0.0
  9
$PUCSBASE
  2

  9
$PUCSNAME
  2

  9
$PUCSORG
 10
0.0
 20
0.0
 30
0.0
  9
$PUCSXDIR
 10
1.0
 20
0.0
 30
0.0
  9
$PUCSYDIR
 10
0.0
 20
1.0
 30
0.0
  9
$PUCSORTHOREF
  2

  9
$PUCSORTHOVIEW
 70
     0
  9
$PUCSORGTOP
 10
0.0
 20
0.0
 30
0.0
  9
$PUCSORGBOTTOM
 10
0.0
 20
0.0
 30
0.0
  9
$PUCSORGLEFT
 10
0.0
 20
0.0
 30
0.0
  9
$PUCSORGRIGHT
 10
0.0
 20
0.0
 30
0.0
  9
$PUCSORGFRONT
 10
0.0
 20
0.0
 30
0.0
  9
$PUCSORGBACK
 10
0.0
 20
0.0
 30
0.0
  9
$USERI1
 70
     0
  9
$USERI2
 70
     0
  9
$USERI3
 70
     0
  9
$USERI4
 70
     0
  9
$USERI5
 70
     0
  9
$USERR1
 40
0.0
  9
$USERR2
 40
0.0
  9
$USERR3
 40
0.0
  9
$USERR4
 40
0.0
  9
$USERR5
 40
0.0
  9
$WORLDVIEW
 70
     1
  9
$SHADEDGE
 70
     3
  9
$SHADEDIF
 70
    70
  9
$TILEMODE
 70
     1
  9
$MAXACTVP
 70
    16
  9
$PINSBASE
 10
51.07694385854042
 20
50.00000000000001
 30
49.81437904311231
  9
$PLIMCHECK
 70
     0
  9
$PEXTMIN
 10
1.000000000000000E+20
 20
1.000000000000000E+20
 30
1.000000000000000E+20
  9
$PEXTMAX
 10
-1.000000000000000E+20
 20
-1.000000000000000E+20
 30
-1.000000000000000E+20
  9
$PLIMMIN
 10
0.0
 20
0.0
  9
$PLIMMAX
 10
12.0
 20
9.0
  9
$UNITMODE
 70
     0
  9
$VISRETAIN
 70
     0
  9
$PLINEGEN
 70
     0
  9
$PSLTSCALE
 70
     0
  9
$TREEDEPTH
 70
  3020
  9
$CMLSTYLE
  2
Standard
  9
$CMLJUST
 70
     0
  9
$CMLSCALE
 40
1.0
  9
$PROXYGRAPHICS
 70
     1
  9
$MEASUREMENT
 70
     0
  9
$CELWEIGHT
370
    -1
  9
$ENDCAPS
280
     0
  9
$JOINSTYLE
280
     0
  9
$LWDISPLAY
290
     0
  9
$INSUNITS
 70
     0
  9
$HYPERLINKBASE
  1

  9
$STYLESHEET
  1
monochrome 1.ctb
  9
$XEDIT
290
     1
  9
$CEPSNTYPE
380
     0
  9
$PSTYLEMODE
290
     1
  9
$FINGERPRINTGUID
  2
{AF43B011-1C29-4543-82F0-2E18E2016FB8}
  9
$VERSIONGUID
  2
{B13B5A98-9BCC-48FA-9455-689D19C767DB}
  9
$EXTNAMES
290
     1
  9
$PSVPSCALE
 40
0.0
  9
$OLESTARTUP
290
     0
  9
$SORTENTS
280
   127
  9
$INDEXCTL
280
     0
  9
$HIDETEXT
280
     1
  9
$XCLIPFRAME
290
     0
  9
$HALOGAP
280
     0
  9
$OBSCOLOR
 70
   257
  9
$OBSLTYPE
280
     0
  9
$INTERSECTIONDISPLAY
280
     0
  9
$INTERSECTIONCOLOR
 70
   257
  9
$DIMASSOC
280
     2
  9
$PROJECTNAME
  1

  0
ENDSEC
  0
SECTION
  2
CLASSES
  0
CLASS
  1
ACDBDICTIONARYWDFLT
  2
AcDbDictionaryWithDefault
  3
ObjectDBX Classes
 90
        0
 91
        1
280
     0
281
     0
  0
CLASS
  1
DICTIONARYVAR
  2
AcDbDictionaryVar
  3
ObjectDBX Classes
 90
        0
 91
        3
280
     0
281
     0
  0
CLASS
  1
DIMASSOC
  2
AcDbDimAssoc
  3
"AcDbDimAssoc|Product Desc:     AcDim ARX App For Dimension|Company:          Autodesk, Inc.|WEB Address:      www.autodesk.com"
 90
        0
 91
        3
280
     0
281
     0
  0
ENDSEC
  0
SECTION
  2
TABLES
  0
TABLE
  2
VPORT
  5
8
330
0
100
AcDbSymbolTable
 70
     2
  0
VPORT
  5
372
330
8
100
AcDbSymbolTableRecord
100
AcDbViewportTableRecord
  2
*Active
 70
     0
 10
0.0
 20
0.0
 11
1.0
 21
1.0
 12
52.49789414525974
 22
74.25000138308795
 13
0.0
 23
0.0
 14
1.0
 24
1.0
 15
10.0
 25
10.0
 16
0.0
 26
0.0
 36
1.0
 17
0.0
 27
0.0
 37
0.0
 40
149.712896996779
 41
1.336927223719676
 42
50.0
 43
0.0
 44
0.0
 50
0.0
 51
0.0
 71
     0
 72
  1500
 73
     1
 74
     0
 75
     0
 76
     0
 77
     0
 78
     0
281
     0
 65
     1
110
0.0
120
0.0
130
0.0
111
1.0
121
0.0
131
0.0
112
0.0
122
1.0
132
0.0
 79
     0
146
0.0
  0
ENDTAB
  0
TABLE
  2
LTYPE
  5
5
330
0
100
AcDbSymbolTable
 70
     2
  0
LTYPE
  5
13
330
5
100
AcDbSymbolTableRecord
100
AcDbLinetypeTableRecord
  2
ByBlock
 70
     0
  3

 72
    65
 73
     0
 40
0.0
  0
LTYPE
  5
14
330
5
100
AcDbSymbolTableRecord
100
AcDbLinetypeTableRecord
  2
ByLayer
 70
     0
  3

 72
    65
 73
     0
 40
0.0
  0
LTYPE
  5
15
330
5
100
AcDbSymbolTableRecord
100
AcDbLinetypeTableRecord
  2
Continuous
 70
     0
  3
Solid line
 72
    65
 73
     0
 40
0.0
  0
LTYPE
  5
38
330
5
100
AcDbSymbolTableRecord
100
AcDbLinetypeTableRecord
  2
STRICHPUNKT
 70
     0
  3
__ . __ . __ . __ . __ . __ . __ . __ . __ . __
 72
    65
 73
     4
 40
1.0
 49
0.5
 74
     0
 49
-0.25
 74
     0
 49
0.0
 74
     0
 49
-0.25
 74
     0
  0
ENDTAB
  0
TABLE
  2
LAYER
  5
2
330
0
100
AcDbSymbolTable
 70
     9
  0
LAYER
  5
10
330
2
100
AcDbSymbolTableRecord
100
AcDbLayerTableRecord
  2
0
 70
     0
 62
     7
  6
Continuous
370
    -3
390
F
  0
LAYER
  5
3B
330
2
100
AcDbSymbolTableRecord
100
AcDbLayerTableRecord
  2
VOLL
 70
     0
 62
     1
  6
Continuous
370
    -3
390
F
  0
LAYER
  5
3C
330
2
100
AcDbSymbolTableRecord
100
AcDbLayerTableRecord
  2
HILF
 70
     0
 62
     2
  6
Continuous
370
    -3
390
F
  0
LAYER
  5
3D
330
2
100
AcDbSymbolTableRecord
100
AcDbLayerTableRecord
  2
MITTEL
 70
     0
 62
     2
  6
STRICHPUNKT
370
    -3
390
F
  0
LAYER
  5
3E
330
2
100
AcDbSymbolTableRecord
100
AcDbLayerTableRecord
  2
BEM
 70
     0
 62
     7
  6
Continuous
370
    -3
390
F
  0
LAYER
  5
3F
330
2
100
AcDbSymbolTableRecord
100
AcDbLayerTableRecord
  2
SCHRAFF
 70
     0
 62
     7
  6
Continuous
370
    -3
390
F
  0
LAYER
  5
40
330
2
100
AcDbSymbolTableRecord
100
AcDbLayerTableRecord
  2
STEMPEL
 70
     0
 62
     3
  6
Continuous
370
    -3
390
F
  0
LAYER
  5
41
330
2
100
AcDbSymbolTableRecord
100
AcDbLayerTableRecord
  2
DEFPOINTS
 70
     0
 62
     7
  6
Continuous
290
     0
370
    -3
390
F
  0
LAYER
  5
42
330
2
100
AcDbSymbolTableRecord
100
AcDbLayerTableRecord
  2
TEXT
 70
     0
 62
     7
  6
Continuous
370
    -3
390
F
  0
ENDTAB
  0
TABLE
  2
STYLE
  5
3
330
0
100
AcDbSymbolTable
 70
     2
  0
STYLE
  5
11
330
3
100
AcDbSymbolTableRecord
100
AcDbTextStyleTableRecord
  2
STANDARD
 70
     0
 40
0.0
 41
1.0
 50
0.0
 71
     0
 42
3.5
  3
txt
  4

  0
STYLE
  5
37
330
3
100
AcDbSymbolTableRecord
100
AcDbTextStyleTableRecord
  2
GREEKS
 70
     0
 40
0.0
 41
0.8
 50
0.0
 71
     0
 42
3.5
  3
SIMPLEX.shx
  4

  0
ENDTAB
  0
TABLE
  2
VIEW
  5
6
330
0
100
AcDbSymbolTable
 70
     0
  0
ENDTAB
  0
TABLE
  2
UCS
  5
7
330
0
100
AcDbSymbolTable
 70
     0
  0
ENDTAB
  0
TABLE
  2
APPID
  5
9
330
0
100
AcDbSymbolTable
 70
     1
  0
APPID
  5
12
330
9
100
AcDbSymbolTableRecord
100
AcDbRegAppTableRecord
  2
ACAD
 70
     0
  0
ENDTAB
  0
TABLE
  2
DIMSTYLE
  5
A
330
0
100
AcDbSymbolTable
 70
     1
100
AcDbDimStyleTable
 71
     1
340
25F
  0
DIMSTYLE
105
25F
102
{ACAD_REACTORS
330
224
330
1B6
330
30A
330
1B8
330
337
330
34F
102
}
330
A
100
AcDbSymbolTableRecord
100
AcDbDimStyleTableRecord
  2
Standard
 70
     0
340
11
  0
ENDTAB
  0
TABLE
  2
BLOCK_RECORD
  5
1
330
0
100
AcDbSymbolTable
 70
     7
  0
BLOCK_RECORD
  5
20
330
1
100
AcDbSymbolTableRecord
100
AcDbBlockTableRecord
  2
*Model_Space
340
23
  0
BLOCK_RECORD
  5
1C
330
1
100
AcDbSymbolTableRecord
100
AcDbBlockTableRecord
  2
*Paper_Space
340
1F
  0
BLOCK_RECORD
  5
24
330
1
100
AcDbSymbolTableRecord
100
AcDbBlockTableRecord
  2
LOGO
340
0
102
{BLKREFS
331
1E3
102
}
  0
BLOCK_RECORD
  5
2F2
330
1
100
AcDbSymbolTableRecord
100
AcDbBlockTableRecord
  2
*D1
340
0
  0
BLOCK_RECORD
  5
2FE
330
1
100
AcDbSymbolTableRecord
100
AcDbBlockTableRecord
  2
*D2
340
0
  0
BLOCK_RECORD
  5
30B
330
1
100
AcDbSymbolTableRecord
100
AcDbBlockTableRecord
  2
*D3
340
0
  0
BLOCK_RECORD
  5
322
330
1
100
AcDbSymbolTableRecord
100
AcDbBlockTableRecord
  2
*D4
340
0
  0
BLOCK_RECORD
  5
338
330
1
100
AcDbSymbolTableRecord
100
AcDbBlockTableRecord
  2
*D5
340
0
  0
BLOCK_RECORD
  5
350
330
1
100
AcDbSymbolTableRecord
100
AcDbBlockTableRecord
  2
*D6
340
0
  0
ENDTAB
  0
ENDSEC
  0
SECTION
  2
BLOCKS
  0
BLOCK
  5
46
330
20
100
AcDbEntity
  8
0
100
AcDbBlockBegin
  2
*Model_Space
 70
     0
 10
0.0
 20
0.0
 30
0.0
  3
*Model_Space
  1

  0
ENDBLK
  5
47
330
20
100
AcDbEntity
  8
0
100
AcDbBlockEnd
  0
BLOCK
  5
44
330
1C
100
AcDbEntity
 67
     1
  8
0
100
AcDbBlockBegin
  2
*Paper_Space
 70
     0
 10
0.0
 20
0.0
 30
0.0
  3
*Paper_Space
  1

  0
ENDBLK
  5
45
330
1C
100
AcDbEntity
 67
     1
  8
0
100
AcDbBlockEnd
  0
BLOCK
  5
48
330
24
100
AcDbEntity
  8
0
100
AcDbBlockBegin
  2
LOGO
 70
     0
 10
0.0
 20
0.0
 30
0.0
  3
LOGO
  1

  0
ARC
  5
49
330
24
100
AcDbEntity
  8
0
100
AcDbCircle
 10
11.59973089678112
 20
-9.271599258481501
 30
0.0
 40
4.5
100
AcDbArc
 50
270.0
 51
231.0575587310159
  0
LINE
  5
4A
330
24
100
AcDbEntity
  8
0
100
AcDbLine
 10
3.599730896781125
 20
-4.771599258481529
 30
0.0
 11
3.599730896781153
 21
-11.77159925848133
 31
0.0
  0
LINE
  5
4B
330
24
100
AcDbEntity
  8
0
100
AcDbLine
 10
2.599730896781125
 20
-4.771599258481529
 30
0.0
 11
2.599730896781153
 21
-11.77159925848133
 31
0.0
  0
CIRCLE
  5
4C
330
24
100
AcDbEntity
  8
0
100
AcDbCircle
 10
11.59973089678112
 20
-9.271599258481501
 30
0.0
 40
3.5
  0
ARC
  5
4D
330
24
100
AcDbEntity
  8
0
100
AcDbCircle
 10
31.59973089678115
 20
-9.271599258481472
 30
0.0
 40
4.5
100
AcDbArc
 50
270.0
 51
231.0575587310182
  0
LINE
  5
4E
330
24
100
AcDbEntity
  8
0
100
AcDbLine
 10
17.59973089678112
 20
-4.771599258481472
 30
0.0
 11
17.59973089678115
 21
-13.77159925848147
 31
0.0
  0
ARC
  5
4F
330
24
100
AcDbEntity
  8
0
100
AcDbCircle
 10
22.59973089678116
 20
-7.271599258481472
 30
0.0
 40
2.5
100
AcDbArc
 50
293.1161887722295
 51
90.0
  0
CIRCLE
  5
50
330
24
100
AcDbEntity
  8
0
100
AcDbCircle
 10
31.59973089678115
 20
-9.271599258481472
 30
0.0
 40
3.5
  0
ARC
  5
51
330
24
100
AcDbEntity
  8
0
100
AcDbCircle
 10
4.599730896781153
 20
-11.77159925848133
 30
0.0
 40
1.0
100
AcDbArc
 50
180.0
 51
270.0
  0
ARC
  5
52
330
24
100
AcDbEntity
  8
0
100
AcDbCircle
 10
4.599730896781153
 20
-11.77159925848133
 30
0.0
 40
2.0
100
AcDbArc
 50
179.9999999999992
 51
270.0
  0
LINE
  5
53
330
24
100
AcDbEntity
  8
0
100
AcDbLine
 10
11.59973089678115
 20
-13.77159925848144
 30
0.0
 11
4.599730896781153
 21
-13.77159925848147
 31
0.0
  0
LINE
  5
54
330
24
100
AcDbEntity
  8
0
100
AcDbLine
 10
8.771303772034769
 20
-12.77159925848136
 30
0.0
 11
4.599730896781153
 21
-12.77159925848133
 31
0.0
  0
LINE
  5
55
330
24
100
AcDbEntity
  8
0
100
AcDbLine
 10
31.59973089678115
 20
-13.77159925848147
 30
0.0
 11
23.6715276665056
 21
-13.77159925848144
 31
0.0
  0
LINE
  5
56
330
24
100
AcDbEntity
  8
0
100
AcDbLine
 10
23.56565672307022
 20
-9.51278021337896
 30
0.0
 11
24.4388546544846
 21
-12.77159925848144
 31
0.0
  0
LINE
  5
57
330
24
100
AcDbEntity
  8
0
100
AcDbLine
 10
22.59973089678116
 20
-9.771599258481472
 30
0.0
 11
18.59973089678112
 21
-9.771599258481472
 31
0.0
  0
LINE
  5
58
330
24
100
AcDbEntity
  8
0
100
AcDbLine
 10
18.59973089678115
 20
-13.77159925848144
 30
0.0
 11
17.59973089678115
 21
-13.77159925848144
 31
0.0
  0
LINE
  5
59
330
24
100
AcDbEntity
  8
0
100
AcDbLine
 10
18.59973089678115
 20
-9.771599258481472
 30
0.0
 11
18.59973089678115
 21
-13.77159925848144
 31
0.0
  0
LINE
  5
5A
330
24
100
AcDbEntity
  8
0
100
AcDbLine
 10
22.59973089678116
 20
-9.771599258481472
 30
0.0
 11
23.67152766650562
 21
-13.77159925848147
 31
0.0
  0
ARC
  5
5B
330
24
100
AcDbEntity
  8
0
100
AcDbCircle
 10
22.59973089678116
 20
-7.271599258481472
 30
0.0
 40
2.5
100
AcDbArc
 50
270.0
 51
270.0000000000007
  0
LINE
  5
5C
330
24
100
AcDbEntity
  8
0
100
AcDbLine
 10
28.77130377203494
 20
-12.77159925848147
 30
0.0
 11
24.43885465448463
 21
-12.77159925848144
 31
0.0
  0
LINE
  5
5D
330
24
100
AcDbEntity
  8
0
100
AcDbLine
 10
3.599730896781125
 20
-4.771599258481472
 30
0.0
 11
2.599730896781125
 21
-4.771599258481472
 31
0.0
  0
LINE
  5
5E
330
24
100
AcDbEntity
  8
0
100
AcDbLine
 10
22.59973089678116
 20
-8.771599258481472
 30
0.0
 11
18.59973089678115
 21
-8.771599258481472
 31
0.0
  0
LINE
  5
5F
330
24
100
AcDbEntity
  8
0
100
AcDbLine
 10
22.59973089678116
 20
-5.771599258481472
 30
0.0
 11
18.59973089678115
 21
-5.771599258481472
 31
0.0
  0
LINE
  5
60
330
24
100
AcDbEntity
  8
0
100
AcDbLine
 10
22.59973089678116
 20
-4.771599258481472
 30
0.0
 11
17.59973089678115
 21
-4.771599258481472
 31
0.0
  0
LINE
  5
61
330
24
100
AcDbEntity
  8
0
100
AcDbLine
 10
18.59973089678115
 20
-5.771599258481472
 30
0.0
 11
18.59973089678115
 21
-8.771599258481472
 31
0.0
  0
ARC
  5
62
330
24
100
AcDbEntity
  8
0
100
AcDbCircle
 10
22.59973089678116
 20
-7.271599258481472
 30
0.0
 40
1.5
100
AcDbArc
 50
270.0
 51
90.0
  0
ENDBLK
  5
63
330
24
100
AcDbEntity
  8
0
100
AcDbBlockEnd
  0
BLOCK
  5
2FC
330
2F2
100
AcDbEntity
  8
0
100
AcDbBlockBegin
  2
*D1
 70
     1
 10
0.0
 20
0.0
 30
0.0
  3
*D1
  1

  0
LINE
  5
2F3
330
2F2
100
AcDbEntity
  8
BEM
 62
     0
370
    -2
100
AcDbLine
 10
39.35218735033774
 20
87.02003140740274
 30
0.0
 11
39.35218735033774
 21
99.53276819203209
 31
0.0
  0
LINE
  5
2F4
330
2F2
100
AcDbEntity
  8
BEM
 62
     0
370
    -2
100
AcDbLine
 10
78.35218735033774
 20
87.02003140740274
 30
0.0
 11
78.35218735033774
 21
99.53276819203209
 31
0.0
  0
LINE
  5
2F5
330
2F2
100
AcDbEntity
  8
BEM
 62
     0
370
    -2
100
AcDbLine
 10
41.10218735033773
 20
99.03276819203208
 30
0.0
 11
76.60218735033774
 21
99.03276819203208
 31
0.0
  0
SOLID
  5
2F6
330
2F2
100
AcDbEntity
  8
BEM
 62
     0
100
AcDbTrace
 10
41.10218735033773
 20
99.32443485869875
 30
0.0
 11
41.10218735033773
 21
98.74110152536541
 31
0.0
 12
39.35218735033774
 22
99.03276819203208
 32
0.0
 13
39.35218735033774
 23
99.03276819203208
 33
0.0
  0
SOLID
  5
2F7
330
2F2
100
AcDbEntity
  8
BEM
 62
     0
100
AcDbTrace
 10
76.60218735033774
 20
99.32443485869875
 30
0.0
 11
76.60218735033774
 21
98.74110152536541
 31
0.0
 12
78.35218735033774
 22
99.03276819203208
 32
0.0
 13
78.35218735033774
 23
99.03276819203208
 33
0.0
  0
MTEXT
  5
2F8
330
2F2
100
AcDbEntity
  8
BEM
 62
     1
100
AcDbMText
 10
58.85218735033774
 20
100.657768192032
 30
0.0
 40
1.75
 41
0.0
 71
     5
 72
     1
  1
\A1;%%C39
  7
GREEKS
 73
     1
 44
1.0
  0
POINT
  5
2F9
330
2F2
100
AcDbEntity
  8
DEFPOINTS
 62
     0
100
AcDbPoint
 10
39.35218735033774
 20
86.52003140740275
 30
0.0
  0
POINT
  5
2FA
330
2F2
100
AcDbEntity
  8
DEFPOINTS
 62
     0
100
AcDbPoint
 10
78.35218735033774
 20
86.52003140740275
 30
0.0
  0
POINT
  5
2FB
330
2F2
100
AcDbEntity
  8
DEFPOINTS
 62
     0
100
AcDbPoint
 10
78.35218735033774
 20
99.03276819203208
 30
0.0
  0
ENDBLK
  5
2FD
330
2F2
100
AcDbEntity
  8
0
100
AcDbBlockEnd
  0
BLOCK
  5
308
330
2FE
100
AcDbEntity
  8
0
100
AcDbBlockBegin
  2
*D2
 70
     1
 10
0.0
 20
0.0
 30
0.0
  3
*D2
  1

  0
LINE
  5
2FF
330
2FE
100
AcDbEntity
  8
BEM
 62
     0
370
    -2
100
AcDbLine
 10
88.85218735033774
 20
88.61810761875606
 30
0.0
 11
88.85218735033774
 21
103.4787432694949
 31
0.0
  0
LINE
  5
300
330
2FE
100
AcDbEntity
  8
BEM
 62
     0
370
    -2
100
AcDbLine
 10
28.85218735033773
 20
88.61810761875606
 30
0.0
 11
28.85218735033773
 21
103.4787432694949
 31
0.0
  0
LINE
  5
301
330
2FE
100
AcDbEntity
  8
BEM
 62
     0
370
    -2
100
AcDbLine
 10
87.10218735033775
 20
102.9787432694949
 30
0.0
 11
30.60218735033773
 21
102.9787432694949
 31
0.0
  0
SOLID
  5
302
330
2FE
100
AcDbEntity
  8
BEM
 62
     0
100
AcDbTrace
 10
87.10218735033775
 20
103.2704099361616
 30
0.0
 11
87.10218735033775
 21
102.6870766028282
 31
0.0
 12
88.85218735033774
 22
102.9787432694949
 32
0.0
 13
88.85218735033774
 23
102.9787432694949
 33
0.0
  0
SOLID
  5
303
330
2FE
100
AcDbEntity
  8
BEM
 62
     0
100
AcDbTrace
 10
30.60218735033773
 20
103.2704099361616
 30
0.0
 11
30.60218735033773
 21
102.6870766028282
 31
0.0
 12
28.85218735033773
 22
102.9787432694949
 32
0.0
 13
28.85218735033773
 23
102.9787432694949
 33
0.0
  0
MTEXT
  5
304
330
2FE
100
AcDbEntity
  8
BEM
 62
     1
100
AcDbMText
 10
58.85218735033774
 20
104.6037432694949
 30
0.0
 40
1.75
 41
0.0
 71
     5
 72
     1
  1
\A1;%%C60
  7
GREEKS
 73
     1
 44
1.0
  0
POINT
  5
305
330
2FE
100
AcDbEntity
  8
DEFPOINTS
 62
     0
100
AcDbPoint
 10
88.85218735033774
 20
88.11810761875605
 30
0.0
  0
POINT
  5
306
330
2FE
100
AcDbEntity
  8
DEFPOINTS
 62
     0
100
AcDbPoint
 10
28.85218735033773
 20
88.11810761875605
 30
0.0
  0
POINT
  5
307
330
2FE
100
AcDbEntity
  8
DEFPOINTS
 62
     0
100
AcDbPoint
 10
28.85218735033773
 20
102.9787432694949
 30
0.0
  0
ENDBLK
  5
309
330
2FE
100
AcDbEntity
  8
0
100
AcDbBlockEnd
  0
BLOCK
  5
315
330
30B
100
AcDbEntity
  8
0
100
AcDbBlockBegin
  2
*D3
 70
     1
 10
0.0
 20
0.0
 30
0.0
  3
*D3
  1

  0
LINE
  5
32E
330
30B
100
AcDbEntity
  8
BEM
 62
     0
370
    -2
100
AcDbLine
 10
42.85218735033773
 20
74.61810761875605
 30
0.0
 11
42.85218735033773
 21
65.71641756279484
 31
0.0
  0
LINE
  5
32F
330
30B
100
AcDbEntity
  8
BEM
 62
     0
370
    -2
100
AcDbLine
 10
74.85218735033774
 20
74.61810761875605
 30
0.0
 11
74.85218735033774
 21
65.71641756279484
 31
0.0
  0
LINE
  5
330
330
30B
100
AcDbEntity
  8
BEM
 62
     0
370
    -2
100
AcDbLine
 10
44.60218735033773
 20
66.21641756279484
 30
0.0
 11
73.10218735033775
 21
66.21641756279484
 31
0.0
  0
SOLID
  5
331
330
30B
100
AcDbEntity
  8
BEM
 62
     0
100
AcDbTrace
 10
44.60218735033773
 20
66.50808422946152
 30
0.0
 11
44.60218735033773
 21
65.92475089612817
 31
0.0
 12
42.85218735033773
 22
66.21641756279484
 32
0.0
 13
42.85218735033773
 23
66.21641756279484
 33
0.0
  0
SOLID
  5
332
330
30B
100
AcDbEntity
  8
BEM
 62
     0
100
AcDbTrace
 10
73.10218735033775
 20
66.50808422946152
 30
0.0
 11
73.10218735033775
 21
65.92475089612817
 31
0.0
 12
74.85218735033774
 22
66.21641756279484
 32
0.0
 13
74.85218735033774
 23
66.21641756279484
 33
0.0
  0
MTEXT
  5
333
330
30B
100
AcDbEntity
  8
BEM
 62
     1
100
AcDbMText
 10
58.85218735033774
 20
67.84141756279485
 30
0.0
 40
1.75
 41
0.0
 71
     5
 72
     1
  1
\A1;%%c32
  7
GREEKS
 73
     1
 44
1.0
  0
POINT
  5
334
330
30B
100
AcDbEntity
  8
DEFPOINTS
 62
     0
100
AcDbPoint
 10
42.85218735033773
 20
75.11810761875605
 30
0.0
  0
POINT
  5
335
330
30B
100
AcDbEntity
  8
DEFPOINTS
 62
     0
100
AcDbPoint
 10
74.85218735033774
 20
75.11810761875605
 30
0.0
  0
POINT
  5
336
330
30B
100
AcDbEntity
  8
DEFPOINTS
 62
     0
100
AcDbPoint
 10
74.85218735033774
 20
66.21641756279484
 30
0.0
  0
ENDBLK
  5
316
330
30B
100
AcDbEntity
  8
0
100
AcDbBlockEnd
  0
BLOCK
  5
32C
330
322
100
AcDbEntity
  8
0
100
AcDbBlockBegin
  2
*D4
 70
     1
 10
0.0
 20
0.0
 30
0.0
  3
*D4
  1

  0
LINE
  5
323
330
322
100
AcDbEntity
  8
BEM
 62
     0
370
    -2
100
AcDbLine
 10
89.85218735033773
 20
76.61810761875606
 30
0.0
 11
89.85218735033773
 21
61.26306208001288
 31
0.0
  0
LINE
  5
324
330
322
100
AcDbEntity
  8
BEM
 62
     0
370
    -2
100
AcDbLine
 10
27.85218735033773
 20
76.61810761875606
 30
0.0
 11
27.85218735033773
 21
61.26306208001288
 31
0.0
  0
LINE
  5
325
330
322
100
AcDbEntity
  8
BEM
 62
     0
370
    -2
100
AcDbLine
 10
88.10218735033775
 20
61.76306208001289
 30
0.0
 11
29.60218735033773
 21
61.76306208001289
 31
0.0
  0
SOLID
  5
326
330
322
100
AcDbEntity
  8
BEM
 62
     0
100
AcDbTrace
 10
88.10218735033775
 20
62.05472874667955
 30
0.0
 11
88.10218735033775
 21
61.47139541334622
 31
0.0
 12
89.85218735033773
 22
61.76306208001289
 32
0.0
 13
89.85218735033773
 23
61.76306208001289
 33
0.0
  0
SOLID
  5
327
330
322
100
AcDbEntity
  8
BEM
 62
     0
100
AcDbTrace
 10
29.60218735033773
 20
62.05472874667955
 30
0.0
 11
29.60218735033773
 21
61.47139541334622
 31
0.0
 12
27.85218735033773
 22
61.76306208001289
 32
0.0
 13
27.85218735033773
 23
61.76306208001289
 33
0.0
  0
MTEXT
  5
328
330
322
100
AcDbEntity
  8
BEM
 62
     1
100
AcDbMText
 10
58.85218735033774
 20
63.38806208001289
 30
0.0
 40
1.75
 41
0.0
 71
     5
 72
     1
  1
\A1;%%C62
  7
GREEKS
 73
     1
 44
1.0
  0
POINT
  5
329
330
322
100
AcDbEntity
  8
DEFPOINTS
 62
     0
100
AcDbPoint
 10
89.85218735033773
 20
77.11810761875605
 30
0.0
  0
POINT
  5
32A
330
322
100
AcDbEntity
  8
DEFPOINTS
 62
     0
100
AcDbPoint
 10
27.85218735033773
 20
77.11810761875605
 30
0.0
  0
POINT
  5
32B
330
322
100
AcDbEntity
  8
DEFPOINTS
 62
     0
100
AcDbPoint
 10
27.85218735033773
 20
61.76306208001289
 30
0.0
  0
ENDBLK
  5
32D
330
322
100
AcDbEntity
  8
0
100
AcDbBlockEnd
  0
BLOCK
  5
342
330
338
100
AcDbEntity
  8
0
100
AcDbBlockBegin
  2
*D5
 70
     1
 10
0.0
 20
0.0
 30
0.0
  3
*D5
  1

  0
LINE
  5
345
330
338
100
AcDbEntity
  8
BEM
 62
     0
370
    -2
100
AcDbLine
 10
41.35218735033773
 20
75.11810761875605
 30
0.0
 11
22.96820138012709
 21
75.11810761875607
 31
0.0
  0
LINE
  5
346
330
338
100
AcDbEntity
  8
BEM
 62
     0
370
    -2
100
AcDbLine
 10
28.35218735033773
 20
88.11810761875605
 30
0.0
 11
22.96820138012709
 21
88.11810761875605
 31
0.0
  0
LINE
  5
347
330
338
100
AcDbEntity
  8
BEM
 62
     0
370
    -2
100
AcDbLine
 10
23.46820138012708
 20
76.86810761875607
 30
0.0
 11
23.46820138012708
 21
86.36810761875606
 31
0.0
  0
SOLID
  5
348
330
338
100
AcDbEntity
  8
BEM
 62
     0
100
AcDbTrace
 10
23.17653471346042
 20
76.86810761875607
 30
0.0
 11
23.75986804679375
 21
76.86810761875607
 31
0.0
 12
23.46820138012708
 22
75.11810761875607
 32
0.0
 13
23.46820138012708
 23
75.11810761875607
 33
0.0
  0
SOLID
  5
349
330
338
100
AcDbEntity
  8
BEM
 62
     0
100
AcDbTrace
 10
23.17653471346042
 20
86.36810761875606
 30
0.0
 11
23.75986804679375
 21
86.36810761875606
 31
0.0
 12
23.46820138012709
 22
88.11810761875605
 32
0.0
 13
23.46820138012709
 23
88.11810761875605
 33
0.0
  0
MTEXT
  5
34A
330
338
100
AcDbEntity
  8
BEM
 62
     1
100
AcDbMText
 10
21.84320138012707
 20
81.61810761875605
 30
0.0
 40
1.75
 41
0.0
 71
     5
 72
     1
  1
\A1;13
  7
GREEKS
 11
0.0000000000000001
 21
1.0
 31
0.0
 73
     1
 44
1.0
  0
POINT
  5
34B
330
338
100
AcDbEntity
  8
DEFPOINTS
 62
     0
100
AcDbPoint
 10
41.85218735033774
 20
75.11810761875605
 30
0.0
  0
POINT
  5
34C
330
338
100
AcDbEntity
  8
DEFPOINTS
 62
     0
100
AcDbPoint
 10
28.85218735033773
 20
88.11810761875605
 30
0.0
  0
POINT
  5
34D
330
338
100
AcDbEntity
  8
DEFPOINTS
 62
     0
100
AcDbPoint
 10
23.46820138012709
 20
88.11810761875605
 30
0.0
  0
ENDBLK
  5
343
330
338
100
AcDbEntity
  8
0
100
AcDbBlockEnd
  0
BLOCK
  5
35A
330
350
100
AcDbEntity
  8
0
100
AcDbBlockBegin
  2
*D6
 70
     1
 10
0.0
 20
0.0
 30
0.0
  3
*D6
  1

  0
LINE
  5
35D
330
350
100
AcDbEntity
  8
BEM
 62
     0
370
    -2
100
AcDbLine
 10
41.35218735033773
 20
75.11810761875605
 30
0.0
 11
19.46820138012708
 21
75.11810761875607
 31
0.0
  0
LINE
  5
35E
330
350
100
AcDbEntity
  8
BEM
 62
     0
370
    -2
100
AcDbLine
 10
32.35218735033773
 20
92.11810761875607
 30
0.0
 11
19.46820138012709
 21
92.11810761875609
 31
0.0
  0
LINE
  5
35F
330
350
100
AcDbEntity
  8
BEM
 62
     0
370
    -2
100
AcDbLine
 10
19.96820138012708
 20
76.86810761875607
 30
0.0
 11
19.96820138012709
 21
90.36810761875608
 31
0.0
  0
SOLID
  5
360
330
350
100
AcDbEntity
  8
BEM
 62
     0
100
AcDbTrace
 10
19.67653471346041
 20
76.86810761875607
 30
0.0
 11
20.25986804679375
 21
76.86810761875607
 31
0.0
 12
19.96820138012708
 22
75.11810761875607
 32
0.0
 13
19.96820138012708
 23
75.11810761875607
 33
0.0
  0
SOLID
  5
361
330
350
100
AcDbEntity
  8
BEM
 62
     0
100
AcDbTrace
 10
19.67653471346042
 20
90.36810761875608
 30
0.0
 11
20.25986804679376
 21
90.36810761875608
 31
0.0
 12
19.96820138012709
 22
92.11810761875609
 32
0.0
 13
19.96820138012709
 23
92.11810761875609
 33
0.0
  0
MTEXT
  5
362
330
350
100
AcDbEntity
  8
BEM
 62
     1
100
AcDbMText
 10
18.34320138012707
 20
83.61810761875608
 30
0.0
 40
1.75
 41
0.0
 71
     5
 72
     1
  1
\A1;17
  7
GREEKS
 11
0.0000000000000001
 21
1.0
 31
0.0
 73
     1
 44
1.0
  0
POINT
  5
363
330
350
100
AcDbEntity
  8
DEFPOINTS
 62
     0
100
AcDbPoint
 10
41.85218735033774
 20
75.11810761875605
 30
0.0
  0
POINT
  5
364
330
350
100
AcDbEntity
  8
DEFPOINTS
 62
     0
100
AcDbPoint
 10
32.85218735033773
 20
92.11810761875607
 30
0.0
  0
POINT
  5
365
330
350
100
AcDbEntity
  8
DEFPOINTS
 62
     0
100
AcDbPoint
 10
19.96820138012709
 20
92.11810761875609
 30
0.0
  0
ENDBLK
  5
35B
330
350
100
AcDbEntity
  8
0
100
AcDbBlockEnd
  0
ENDSEC
  0
SECTION
  2
ENTITIES
  0
TEXT
  5
1B3
330
20
100
AcDbEntity
  8
TEXT
 62
     1
100
AcDbText
 10
32.49236745275108
 20
35.10930996975451
 30
0.0
 40
1.75
  1
Werkstoff: Styrol-Butadien-Kautschuk (SBR) 50%%p5
 41
0.8
  7
GREEKS
100
AcDbText
  0
DIMENSION
  5
1B6
330
20
100
AcDbEntity
  8
BEM
100
AcDbDimension
  2
*D2
 10
28.85218735033773
 20
102.9787432694949
 30
0.0
 11
58.85218735033774
 21
104.6037432694949
 31
0.0
 70
    32
  1
%%C<>
 71
     5
 42
60.00000000000001
  3
Standard
100
AcDbAlignedDimension
 13
88.85218735033774
 23
88.11810761875605
 33
0.0
 14
28.85218735033773
 24
88.11810761875605
 34
0.0
100
AcDbRotatedDimension
  0
DIMENSION
  5
1B8
330
20
100
AcDbEntity
  8
BEM
100
AcDbDimension
  2
*D4
 10
27.85218735033773
 20
61.76306208001289
 30
0.0
 11
58.85218735033774
 21
63.38806208001289
 31
0.0
 70
    32
  1
%%C<>
 71
     5
 42
62.00000000000001
  3
Standard
100
AcDbAlignedDimension
 13
89.85218735033773
 23
77.11810761875605
 33
0.0
 14
27.85218735033773
 24
77.11810761875605
 34
0.0
100
AcDbRotatedDimension
  0
LINE
  5
1BA
102
{ACAD_REACTORS
330
295
102
}
330
20
100
AcDbEntity
  8
STEMPEL
100
AcDbLine
 10
80.85218735033775
 20
80.11810761875606
 30
0.0
 11
85.85218735033775
 21
80.11810761875606
 31
0.0
  0
LINE
  5
1BB
102
{ACAD_REACTORS
330
295
102
}
330
20
100
AcDbEntity
  8
STEMPEL
100
AcDbLine
 10
77.85218735033774
 20
77.11810761875605
 30
0.0
 11
89.85218735033773
 21
77.11810761875605
 31
0.0
  0
LINE
  5
1BC
102
{ACAD_REACTORS
330
295
330
366
102
}
330
20
100
AcDbEntity
  8
STEMPEL
100
AcDbLine
 10
84.85218735033773
 20
92.11810761875605
 30
0.0
 11
32.85218735033773
 21
92.11810761875607
 31
0.0
  0
LINE
  5
1BD
330
20
100
AcDbEntity
  8
HILF
100
AcDbLine
 10
105.0
 20
0.0
 30
0.0
 11
0.0
 21
0.0
 31
0.0
  0
LINE
  5
1BE
330
20
100
AcDbEntity
  8
HILF
100
AcDbLine
 10
105.0
 20
148.5
 30
0.0
 11
-0.0000000000000284
 21
148.5
 31
0.0
  0
LINE
  5
1BF
330
20
100
AcDbEntity
  8
STEMPEL
100
AcDbLine
 10
102.5
 20
146.0
 30
0.0
 11
9.999999999999968
 21
145.9999999999999
 31
0.0
  0
LINE
  5
1C0
330
20
100
AcDbEntity
  8
STEMPEL
100
AcDbLine
 10
102.5
 20
2.5
 30
0.0
 11
10.0
 21
2.5
 31
0.0
  0
LINE
  5
1C1
330
20
100
AcDbEntity
  8
STEMPEL
100
AcDbLine
 10
12.49999999999997
 20
2.5
 30
0.0
 11
102.5
 21
2.5
 31
0.0
  0
LINE
  5
1C2
330
20
100
AcDbEntity
  8
HILF
100
AcDbLine
 10
55.87274248224712
 20
3.723495645070784
 30
0.0
 11
101.2147209831682
 21
3.723495645070784
 31
0.0
  0
LINE
  5
1C3
330
20
100
AcDbEntity
  8
STEMPEL
100
AcDbLine
 10
102.5
 20
20.0
 30
0.0
 11
34.00000000000003
 21
19.99999999999998
 31
0.0
  0
LINE
  5
1C4
330
20
100
AcDbEntity
  8
STEMPEL
100
AcDbLine
 10
102.5
 20
10.0
 30
0.0
 11
34.00000000000003
 21
9.999999999999992
 31
0.0
  0
LINE
  5
1C5
330
20
100
AcDbEntity
  8
STEMPEL
100
AcDbLine
 10
102.5
 20
27.50000000000002
 30
0.0
 11
9.999999999999994
 21
27.5
 31
0.0
  0
LINE
  5
1CB
330
20
100
AcDbEntity
  8
MITTEL
100
AcDbLine
 10
58.85218735033774
 20
97.11810761875607
 30
0.0
 11
58.85218735033773
 21
70.11810761875605
 31
0.0
  0
LINE
  5
1CC
330
20
100
AcDbEntity
  8
HILF
100
AcDbLine
 10
0.0
 20
0.0
 30
0.0
 11
-0.0000000000000284
 21
148.5
 31
0.0
  0
LINE
  5
1CD
330
20
100
AcDbEntity
  8
STEMPEL
100
AcDbLine
 10
10.0
 20
2.5
 30
0.0
 11
9.999999999999968
 21
145.9999999999999
 31
0.0
  0
TEXT
  5
1CF
330
20
100
AcDbEntity
  8
TEXT
100
AcDbText
 10
29.8299980884072
 20
4.64831054241602
 30
0.0
 40
1.0
  1
Name
 41
0.8
  7
GREEKS
 72
     1
 11
31.41095046935958
 21
4.64831054241602
 31
0.0
100
AcDbText
  0
TEXT
  5
1D0
330
20
100
AcDbEntity
  8
TEXT
100
AcDbText
 10
10.62566647230115
 20
28.24944248551687
 30
0.0
 40
1.25
  1
Erstellt mit AUTOCAD 2004
 41
0.8
  7
GREEKS
100
AcDbText
  0
LINE
  5
1D2
330
20
100
AcDbEntity
  8
HILF
100
AcDbLine
 10
10.00000000000002
 20
9.999999999999992
 30
0.0
 11
34.00000000000003
 21
9.999999999999992
 31
0.0
  0
LINE
  5
1D3
330
20
100
AcDbEntity
  8
HILF
100
AcDbLine
 10
10.00000000000002
 20
12.49999999999999
 30
0.0
 11
34.00000000000003
 21
12.49999999999999
 31
0.0
  0
LINE
  5
1D4
330
20
100
AcDbEntity
  8
HILF
100
AcDbLine
 10
10.00000000000002
 20
14.99999999999999
 30
0.0
 11
34.00000000000003
 21
14.99999999999999
 31
0.0
  0
LINE
  5
1D5
330
20
100
AcDbEntity
  8
HILF
100
AcDbLine
 10
10.00000000000002
 20
17.49999999999998
 30
0.0
 11
34.00000000000003
 21
17.49999999999998
 31
0.0
  0
LINE
  5
1D6
330
20
100
AcDbEntity
  8
HILF
100
AcDbLine
 10
10.00000000000002
 20
19.99999999999998
 30
0.0
 11
34.00000000000003
 21
19.99999999999998
 31
0.0
  0
LINE
  5
1D7
330
20
100
AcDbEntity
  8
HILF
100
AcDbLine
 10
10.00000000000002
 20
22.50000000000001
 30
0.0
 11
34.00000000000003
 21
22.50000000000001
 31
0.0
  0
LINE
  5
1D8
330
20
100
AcDbEntity
  8
HILF
100
AcDbLine
 10
10.00000000000002
 20
25.00000000000002
 30
0.0
 11
34.00000000000003
 21
25.00000000000002
 31
0.0
  0
LINE
  5
1D9
330
20
100
AcDbEntity
  8
STEMPEL
100
AcDbLine
 10
33.99999999999997
 20
7.499999999999992
 30
0.0
 11
9.999999999999992
 21
7.499999999999992
 31
0.0
  0
TEXT
  5
1DA
330
20
100
AcDbEntity
  8
TEXT
100
AcDbText
 10
15.67405463889639
 20
4.668454737460329
 30
0.0
 40
1.0
  1
Änderung
 41
0.8
  7
GREEKS
 72
     1
 11
18.35976892461068
 21
4.668454737460329
 31
0.0
100
AcDbText
  0
TEXT
  5
1DB
330
20
100
AcDbEntity
  8
TEXT
100
AcDbText
 10
25.04040439666315
 20
4.667890673349525
 30
0.0
 40
0.9
  1
Tag
 41
0.8
  7
GREEKS
 72
     1
 11
25.88040439666315
 21
4.667890673349525
 31
0.0
100
AcDbText
  0
TEXT
  5
1DC
330
20
100
AcDbEntity
  8
TEXT
100
AcDbText
 10
12.06660276761439
 20
3.413664615067979
 30
0.0
 40
0.9
  1
Index
 50
90.0
 41
0.8
  7
GREEKS
100
AcDbText
  0
LINE
  5
1DD
330
20
100
AcDbEntity
  8
VOLL
100
AcDbLine
 10
28.50000000000003
 20
27.49999999999999
 30
0.0
 11
28.5
 21
2.499999999999992
 31
0.0
  0
LINE
  5
1DE
330
20
100
AcDbEntity
  8
VOLL
100
AcDbLine
 10
23.50000000000003
 20
27.49999999999999
 30
0.0
 11
23.5
 21
2.499999999999992
 31
0.0
  0
LINE
  5
1DF
330
20
100
AcDbEntity
  8
VOLL
100
AcDbLine
 10
13.50000000000002
 20
27.50000000000002
 30
0.0
 11
13.49999999999999
 21
2.499999999999992
 31
0.0
  0
INSERT
  5
1E3
330
20
100
AcDbEntity
  8
STEMPEL
100
AcDbBlockReference
  2
LOGO
 10
35.24888713644485
 20
11.2552631911208
 30
0.0
 41
0.5
 42
0.5
 43
0.5
  0
LINE
  5
1E4
330
20
100
AcDbEntity
  8
STEMPEL
100
AcDbLine
 10
55.0
 20
27.50000000000002
 30
0.0
 11
55.0
 21
2.499999999999992
 31
0.0
  0
LINE
  5
1E5
330
20
100
AcDbEntity
  8
STEMPEL
100
AcDbLine
 10
34.00000000000003
 20
27.49999999999999
 30
0.0
 11
34.0
 21
2.499999999999992
 31
0.0
  0
LINE
  5
1E6
330
20
100
AcDbEntity
  8
HILF
100
AcDbLine
 10
34.00000000000003
 20
12.49999999999999
 30
0.0
 11
55.0
 21
12.49999999999999
 31
0.0
  0
LINE
  5
1E7
330
20
100
AcDbEntity
  8
HILF
100
AcDbLine
 10
34.00000000000003
 20
14.99999999999999
 30
0.0
 11
55.0
 21
14.99999999999999
 31
0.0
  0
LINE
  5
1E8
330
20
100
AcDbEntity
  8
HILF
100
AcDbLine
 10
34.00000000000003
 20
17.49999999999998
 30
0.0
 11
55.0
 21
17.49999999999998
 31
0.0
  0
TEXT
  5
1E9
330
20
100
AcDbEntity
  8
TEXT
100
AcDbText
 10
39.9853370777459
 20
15.77691260206433
 30
0.0
 40
1.0
  1
24.06.
 41
0.8
  7
GREEKS
100
AcDbText
  0
TEXT
  5
1EA
330
20
100
AcDbEntity
  8
TEXT
100
AcDbText
 10
34.39590317919039
 20
15.90747592404491
 30
0.0
 40
0.9
  1
Gez.
 41
0.8
  7
GREEKS
100
AcDbText
  0
LINE
  5
1EB
330
20
100
AcDbEntity
  8
VOLL
100
AcDbLine
 10
38.50000000000003
 20
19.99999999999998
 30
0.0
 11
38.50000000000003
 21
9.999999999999992
 31
0.0
  0
TEXT
  5
1EC
330
20
100
AcDbEntity
  8
TEXT
100
AcDbText
 10
34.38787716429181
 20
13.42231572857094
 30
0.0
 40
0.9
  1
Gepr.
 41
0.8
  7
GREEKS
100
AcDbText
  0
TEXT
  5
1ED
330
20
100
AcDbEntity
  8
TEXT
100
AcDbText
 10
34.4001694346826
 20
10.88236597412452
 30
0.0
 40
0.9
  1
Norm.
 41
0.8
  7
GREEKS
100
AcDbText
  0
TEXT
  5
1EE
330
20
100
AcDbEntity
  8
TEXT
100
AcDbText
 10
34.655527455526
 20
18.28506367787916
 30
0.0
 40
0.9
  1
2008
 41
0.8
  7
GREEKS
100
AcDbText
  0
TEXT
  5
1EF
330
20
100
AcDbEntity
  8
TEXT
100
AcDbText
 10
35.87908930375943
 20
25.61552237717722
 30
0.0
 40
1.25
  1
Maßstab
 41
0.8
  7
GREEKS
100
AcDbText
  0
TEXT
  5
1F0
330
20
100
AcDbEntity
  8
TEXT
100
AcDbText
 10
40.58279182884127
 20
18.32970125307481
 30
0.0
 40
0.9
  1
Tag
 41
0.8
  7
GREEKS
100
AcDbText
  0
TEXT
  5
1F1
330
20
100
AcDbEntity
  8
TEXT
 62
     1
100
AcDbText
 10
37.84064641809614
 20
22.15414213722941
 30
0.0
 40
1.75
  1
2:1
 41
0.8
  7
GREEKS
100
AcDbText
  0
TEXT
  5
1F2
330
20
100
AcDbEntity
  8
TEXT
100
AcDbText
 10
48.71128237571644
 20
15.77240979930877
 30
0.0
 40
1.0
  1
Koeh
 41
0.8
  7
GREEKS
100
AcDbText
  0
LINE
  5
1F3
330
20
100
AcDbEntity
  8
VOLL
100
AcDbLine
 10
45.00000000000002
 20
27.49999999999996
 30
0.0
 11
45.0
 21
9.999999999999992
 31
0.0
  0
TEXT
  5
1F4
330
20
100
AcDbEntity
  8
TEXT
100
AcDbText
 10
48.11566460565737
 20
18.32740272978806
 30
0.0
 40
0.9
  1
Name
 41
0.8
  7
GREEKS
100
AcDbText
  0
TEXT
  5
1F5
330
20
100
AcDbEntity
  8
TEXT
100
AcDbText
 10
45.66893641766696
 20
22.07920274981321
 30
0.0
 40
1.0
  1
DIN EN1123-2
 41
0.8
  7
GREEKS
 72
     1
 11
49.91655546528601
 21
22.07920274981321
 31
0.0
100
AcDbText
  0
TEXT
  5
1F6
330
20
100
AcDbEntity
  8
TEXT
100
AcDbText
 10
46.07147386835128
 20
25.60460421087048
 30
0.0
 40
1.25
  1
Zul. Abw.
 41
0.8
  7
GREEKS
100
AcDbText
  0
TEXT
  5
1F7
330
20
100
AcDbEntity
  8
TEXT
100
AcDbText
 10
56.28240977813288
 20
12.91002985760539
 30
0.0
 40
1.25
  1
EDV-Art.Nr. 00914.050X
 41
0.8
  7
GREEKS
100
AcDbText
  0
TEXT
  5
1F8
330
20
100
AcDbEntity
  8
TEXT
100
AcDbText
 10
56.28240977813288
 20
17.91002985760538
 30
0.0
 40
1.25
  1
für Ms-Rohr %%C38
 41
0.8
  7
GREEKS
100
AcDbText
  0
TEXT
  5
1F9
330
20
100
AcDbEntity
  8
TEXT
 62
     1
100
AcDbText
 10
56.72339327643505
 20
21.85437197313445
 30
0.0
 40
1.75
  1
Dichtelement DN50
 41
0.8
  7
GREEKS
100
AcDbText
  0
LINE
  5
1FA
330
20
100
AcDbEntity
  8
HILF
100
AcDbLine
 10
56.19342002742368
 20
12.49999999999999
 30
0.0
 11
81.20884791390775
 21
12.49999999999999
 31
0.0
  0
LINE
  5
1FB
330
20
100
AcDbEntity
  8
HILF
100
AcDbLine
 10
56.19342002742368
 20
14.99999999999999
 30
0.0
 11
81.20884791390775
 21
14.99999999999999
 31
0.0
  0
LINE
  5
1FC
330
20
100
AcDbEntity
  8
HILF
100
AcDbLine
 10
56.19342002742368
 20
17.49999999999998
 30
0.0
 11
81.20884791390775
 21
17.49999999999998
 31
0.0
  0
LINE
  5
1FD
330
20
100
AcDbEntity
  8
HILF
100
AcDbLine
 10
56.19342002742368
 20
21.00939561891035
 30
0.0
 11
81.20884791390777
 21
21.00939561891035
 31
0.0
  0
TEXT
  5
1FE
330
20
100
AcDbEntity
  8
TEXT
100
AcDbText
 10
56.18555959778399
 20
7.711401425482641
 30
0.0
 40
1.25
  1
Bauvorhaben
 41
0.8
  7
GREEKS
100
AcDbText
  0
TEXT
  5
1FF
330
20
100
AcDbEntity
  8
TEXT
100
AcDbText
 10
56.24593753944567
 20
10.65743538255658
 30
0.0
 40
0.9
  1
00914050X.DWG
 41
0.8
  7
GREEKS
100
AcDbText
  0
TEXT
  5
200
330
20
100
AcDbEntity
  8
TEXT
100
AcDbText
 10
56.21948509522525
 20
25.63723320029449
 30
0.0
 40
1.25
  1
Benennung
 41
0.8
  7
GREEKS
100
AcDbText
  0
LINE
  5
208
102
{ACAD_REACTORS
330
295
102
}
330
20
100
AcDbEntity
  8
STEMPEL
100
AcDbLine
 10
30.85218735033774
 20
86.61810761875605
 30
0.0
 11
30.21799387306805
 21
86.61810761875605
 31
0.0
  0
LINE
  5
209
102
{ACAD_REACTORS
330
295
102
}
330
20
100
AcDbEntity
  8
STEMPEL
100
AcDbLine
 10
30.85218735033774
 20
88.11810761875605
 30
0.0
 11
28.85218735033775
 21
88.11810761875605
 31
0.0
  0
ARC
  5
20A
102
{ACAD_REACTORS
330
295
330
34E
102
}
330
20
100
AcDbEntity
  8
STEMPEL
100
AcDbCircle
 10
32.85218735033773
 20
88.11810761875607
 30
0.0
 40
4.0
100
AcDbArc
 50
90.0
 51
180.0000000000002
  0
LINE
  5
20D
102
{ACAD_REACTORS
330
295
102
}
330
20
100
AcDbEntity
  8
STEMPEL
100
AcDbLine
 10
39.85218735033774
 20
77.11810761875605
 30
0.0
 11
27.85218735033773
 21
77.11810761875605
 31
0.0
  0
LINE
  5
211
102
{ACAD_REACTORS
330
295
102
}
330
20
100
AcDbEntity
  8
STEMPEL
100
AcDbLine
 10
28.85218735033773
 20
77.11810761875605
 30
0.0
 11
31.85218735033774
 21
80.11810761875606
 31
0.0
  0
LINE
  5
212
330
20
100
AcDbEntity
  8
TEXT
 62
     2
100
AcDbLine
 10
16.43272265219869
 20
118.912256992914
 30
0.0
 11
30.10213205967468
 21
91.0227927821251
 31
0.0
  0
LINE
  5
219
102
{ACAD_REACTORS
330
295
102
}
330
20
100
AcDbEntity
  8
STEMPEL
100
AcDbLine
 10
27.85218735033774
 20
80.11810761875606
 30
0.0
 11
30.21799387306805
 21
86.61810761875605
 31
0.0
  0
LINE
  5
21B
102
{ACAD_REACTORS
330
295
102
}
330
20
100
AcDbEntity
  8
STEMPEL
100
AcDbLine
 10
27.85218735033774
 20
80.11810761875606
 30
0.0
 11
27.85218735033773
 21
77.11810761875605
 31
0.0
  0
POINT
  5
220
330
20
100
AcDbEntity
  8
DEFPOINTS
  6
ByBlock
 62
     0
100
AcDbPoint
 10
28.85218735033773
 20
88.11810761875605
 30
0.0
  0
POINT
  5
221
330
20
100
AcDbEntity
  8
DEFPOINTS
  6
ByBlock
 62
     0
100
AcDbPoint
 10
30.21799387306805
 20
86.61810761875605
 30
0.0
  0
DIMENSION
  5
224
330
20
100
AcDbEntity
  8
BEM
100
AcDbDimension
  2
*D1
 10
78.35218735033774
 20
99.03276819203208
 30
0.0
 11
58.85218735033774
 21
100.657768192032
 31
0.0
 70
    32
  1
%%C<>
 71
     5
 42
39.00000000000001
  3
Standard
100
AcDbAlignedDimension
 13
39.35218735033774
 23
86.52003140740275
 33
0.0
 14
78.35218735033774
 24
86.52003140740275
 34
0.0
100
AcDbRotatedDimension
  0
LINE
  5
225
330
20
100
AcDbEntity
  8
STEMPEL
100
AcDbLine
 10
39.35218735033774
 20
81.18028544524714
 30
0.0
 11
78.35218735033774
 21
81.18028544524714
 31
0.0
  0
LINE
  5
226
330
20
100
AcDbEntity
  8
STEMPEL
100
AcDbLine
 10
39.35218735033774
 20
86.52003140740275
 30
0.0
 11
78.35218735033774
 21
86.52003140740275
 31
0.0
  0
LINE
  5
227
102
{ACAD_REACTORS
330
295
330
321
330
34E
330
366
102
}
330
20
100
AcDbEntity
  8
STEMPEL
100
AcDbLine
 10
75.85218735033774
 20
75.11810761875605
 30
0.0
 11
41.85218735033774
 21
75.11810761875605
 31
0.0
  0
LINE
  5
229
102
{ACAD_REACTORS
330
295
102
}
330
20
100
AcDbEntity
  8
STEMPEL
100
AcDbLine
 10
39.35218735033774
 20
86.52003140740275
 30
0.0
 11
39.35218735033774
 21
81.18028544524714
 31
0.0
  0
LINE
  5
22A
102
{ACAD_REACTORS
330
295
102
}
330
20
100
AcDbEntity
  8
STEMPEL
100
AcDbLine
 10
41.85218735033774
 20
75.11810761875605
 30
0.0
 11
36.85218735033774
 21
80.11810761875606
 31
0.0
  0
LINE
  5
22B
102
{ACAD_REACTORS
330
295
102
}
330
20
100
AcDbEntity
  8
STEMPEL
100
AcDbLine
 10
36.85218735033774
 20
80.11810761875606
 30
0.0
 11
31.85218735033774
 21
80.11810761875606
 31
0.0
  0
LINE
  5
22C
102
{ACAD_REACTORS
330
295
330
321
102
}
330
20
100
AcDbEntity
  8
STEMPEL
100
AcDbLine
 10
42.85218735033773
 20
75.11810761875605
 30
0.0
 11
39.35218735033774
 21
81.18028544524714
 31
0.0
  0
POINT
  5
22D
330
20
100
AcDbEntity
  8
DEFPOINTS
  6
ByBlock
 62
     0
100
AcDbPoint
 10
41.85218735033774
 20
75.11810761875605
 30
0.0
  0
POINT
  5
22F
330
20
100
AcDbEntity
  8
DEFPOINTS
  6
ByBlock
 62
     0
100
AcDbPoint
 10
41.85218735033774
 20
75.11810761875605
 30
0.0
  0
LINE
  5
230
102
{ACAD_REACTORS
330
295
102
}
330
20
100
AcDbEntity
  8
STEMPEL
100
AcDbLine
 10
30.85218735033774
 20
88.11810761875605
 30
0.0
 11
30.85218735033774
 21
86.61810761875605
 31
0.0
  0
POINT
  5
231
330
20
100
AcDbEntity
  8
DEFPOINTS
  6
ByBlock
 62
     0
100
AcDbPoint
 10
32.85218735033773
 20
92.11810761875607
 30
0.0
  0
POINT
  5
232
330
20
100
AcDbEntity
  8
DEFPOINTS
  6
ByBlock
 62
     0
100
AcDbPoint
 10
32.85218735033773
 20
92.11810761875607
 30
0.0
  0
LINE
  5
233
102
{ACAD_REACTORS
330
295
102
}
330
20
100
AcDbEntity
  8
STEMPEL
100
AcDbLine
 10
37.85218735033774
 20
92.11810761875607
 30
0.0
 11
39.35218735033774
 21
86.52003140740275
 31
0.0
  0
POINT
  5
235
330
20
100
AcDbEntity
  8
DEFPOINTS
  6
ByBlock
 62
     0
100
AcDbPoint
 10
37.85218735033774
 20
92.11810761875607
 30
0.0
  0
LINE
  5
239
102
{ACAD_REACTORS
330
295
102
}
330
20
100
AcDbEntity
  8
STEMPEL
100
AcDbLine
 10
78.35218735033774
 20
86.52003140740275
 30
0.0
 11
78.35218735033774
 21
81.18028544524714
 31
0.0
  0
LINE
  5
23A
102
{ACAD_REACTORS
330
295
330
321
102
}
330
20
100
AcDbEntity
  8
STEMPEL
100
AcDbLine
 10
74.85218735033774
 20
75.11810761875605
 30
0.0
 11
78.35218735033774
 21
81.18028544524714
 31
0.0
  0
LINE
  5
23B
102
{ACAD_REACTORS
330
295
102
}
330
20
100
AcDbEntity
  8
STEMPEL
100
AcDbLine
 10
75.85218735033774
 20
75.11810761875605
 30
0.0
 11
80.85218735033775
 21
80.11810761875606
 31
0.0
  0
LINE
  5
23C
102
{ACAD_REACTORS
330
295
102
}
330
20
100
AcDbEntity
  8
STEMPEL
100
AcDbLine
 10
79.85218735033774
 20
92.11810761875607
 30
0.0
 11
78.35218735033774
 21
86.52003140740275
 31
0.0
  0
POINT
  5
23D
330
20
100
AcDbEntity
  8
DEFPOINTS
  6
ByBlock
 62
     0
100
AcDbPoint
 10
79.85218735033774
 20
92.11810761875607
 30
0.0
  0
LINE
  5
244
330
20
100
AcDbEntity
  8
HILF
100
AcDbLine
 10
105.0
 20
-0.0000000000000284
 30
0.0
 11
105.0
 21
148.5
 31
0.0
  0
LINE
  5
245
330
20
100
AcDbEntity
  8
STEMPEL
100
AcDbLine
 10
102.5
 20
27.50000000000002
 30
0.0
 11
102.5
 21
146.0
 31
0.0
  0
LINE
  5
246
330
20
100
AcDbEntity
  8
STEMPEL
100
AcDbLine
 10
102.5
 20
27.50000000000002
 30
0.0
 11
102.5
 21
2.5
 31
0.0
  0
TEXT
  5
247
330
20
100
AcDbEntity
  8
TEXT
 62
     1
100
AcDbText
 10
86.58934545583694
 20
22.0372535722849
 30
0.0
 40
1.75
  1
00914050W
 41
0.8
  7
GREEKS
 72
     1
 11
92.45601212250361
 21
22.0372535722849
 31
0.0
100
AcDbText
  0
TEXT
  5
249
330
20
100
AcDbEntity
  8
TEXT
100
AcDbText
 10
84.04468873940851
 20
25.57830086342841
 30
0.0
 40
1.25
  1
Zeichnungs Nr.
 41
0.8
  7
GREEKS
100
AcDbText
  0
TEXT
  5
24A
330
20
100
AcDbEntity
  8
TEXT
100
AcDbText
 10
84.31002153742515
 20
13.0185404446965
 30
0.0
 40
1.25
  1
ersetzt durch:
 41
0.8
  7
GREEKS
100
AcDbText
  0
LINE
  5
24B
330
20
100
AcDbEntity
  8
HILF
100
AcDbLine
 10
84.18096540742482
 20
20.94495909238957
 30
0.0
 11
101.2147209831682
 21
20.94495909238957
 31
0.0
  0
LINE
  5
24C
330
20
100
AcDbEntity
  8
VOLL
100
AcDbLine
 10
83.0
 20
15.0
 30
0.0
 11
102.5
 21
15.0
 31
0.0
  0
LINE
  5
24D
330
20
100
AcDbEntity
  8
STEMPEL
100
AcDbLine
 10
83.0
 20
27.49999999999995
 30
0.0
 11
83.0
 21
10.0
 31
0.0
  0
TEXT
  5
24E
330
20
100
AcDbEntity
  8
TEXT
100
AcDbText
 10
84.18096540742482
 20
18.29529559274992
 30
0.0
 40
1.25
  1
Ersatz für:
 41
0.8
  7
GREEKS
100
AcDbText
  0
LINE
  5
24F
102
{ACAD_REACTORS
330
295
102
}
330
20
100
AcDbEntity
  8
STEMPEL
100
AcDbLine
 10
89.85218735033773
 20
80.11810761875606
 30
0.0
 11
87.48638082760743
 21
86.61810761875605
 31
0.0
  0
LINE
  5
250
102
{ACAD_REACTORS
330
295
102
}
330
20
100
AcDbEntity
  8
STEMPEL
100
AcDbLine
 10
88.85218735033774
 20
77.11810761875605
 30
0.0
 11
85.85218735033775
 21
80.11810761875606
 31
0.0
  0
LINE
  5
251
102
{ACAD_REACTORS
330
295
102
}
330
20
100
AcDbEntity
  8
STEMPEL
100
AcDbLine
 10
89.85218735033773
 20
80.11810761875606
 30
0.0
 11
89.85218735033773
 21
77.11810761875605
 31
0.0
  0
LINE
  5
252
102
{ACAD_REACTORS
330
295
102
}
330
20
100
AcDbEntity
  8
STEMPEL
100
AcDbLine
 10
86.85218735033775
 20
88.11810761875605
 30
0.0
 11
88.85218735033772
 21
88.11810761875605
 31
0.0
  0
ARC
  5
253
102
{ACAD_REACTORS
330
295
102
}
330
20
100
AcDbEntity
  8
STEMPEL
100
AcDbCircle
 10
84.85218735033773
 20
88.11810761875607
 30
0.0
 40
4.0
100
AcDbArc
 50
359.9999999999998
 51
90.0
  0
POINT
  5
254
330
20
100
AcDbEntity
  8
DEFPOINTS
  6
ByBlock
 62
     0
100
AcDbPoint
 10
84.85218735033772
 20
88.11810761875609
 30
0.0
  0
LINE
  5
255
102
{ACAD_REACTORS
330
295
102
}
330
20
100
AcDbEntity
  8
STEMPEL
100
AcDbLine
 10
86.85218735033775
 20
86.61810761875605
 30
0.0
 11
87.48638082760743
 21
86.61810761875605
 31
0.0
  0
LINE
  5
256
102
{ACAD_REACTORS
330
295
102
}
330
20
100
AcDbEntity
  8
STEMPEL
100
AcDbLine
 10
86.85218735033775
 20
88.11810761875605
 30
0.0
 11
86.85218735033775
 21
86.61810761875605
 31
0.0
  0
POINT
  5
259
330
20
100
AcDbEntity
  8
DEFPOINTS
  6
ByBlock
 62
     0
100
AcDbPoint
 10
88.08878595198294
 20
90.46851811308
 30
0.0
  0
TEXT
  5
25D
330
20
100
AcDbEntity
  8
TEXT
 62
     1
100
AcDbText
 10
36.34887116452206
 20
31.74159938860121
 30
0.0
 40
1.75
  1
Farbe: schwarz
 41
0.8
  7
GREEKS
100
AcDbText
  0
TEXT
  5
261
330
20
100
AcDbEntity
  8
BEM
100
AcDbText
 10
104.1452885359359
 20
3.037012038345757
 30
0.0
 40
1.0
  1
Diese Zeichnung ist urheberrechtlich geschützt und bleibt unser Eigentum. Sie darf weder ganz noch teilweise vervielfältigt und nicht an Dritte weitergegeben werden.
 50
90.0
 41
0.8
  7
GREEKS
100
AcDbText
  0
HATCH
  5
295
330
20
100
AcDbEntity
  8
SCHRAFF
100
AcDbHatch
 10
0.0
 20
0.0
 30
0.0
210
0.0
220
0.0
230
1.0
  2
NET
 70
     0
 71
     1
 91
        2
 92
        7
 72
     1
 73
     1
 93
       15
 10
79.85218735033775
 20
92.11810761875605
 42
0.0
 10
78.35218735033773
 20
86.52003140740271
 42
0.0
 10
78.35218735033774
 20
81.18028544524712
 42
0.0
 10
74.85218735033773
 20
75.11810761875604
 42
0.0
 10
75.85218735033774
 20
75.11810761875605
 42
0.0
 10
80.85218735033775
 20
80.11810761875606
 42
0.0
 10
85.85218735033771
 20
80.11810761875606
 42
0.0
 10
88.85218735033772
 20
77.11810761875607
 42
0.0
 10
89.85218735033773
 20
77.11810761875605
 42
0.0
 10
89.85218735033775
 20
80.11810761875599
 42
0.0
 10
87.48638082760743
 20
86.61810761875605
 42
0.0
 10
86.85218735033773
 20
86.61810761875605
 42
0.0
 10
86.85218735033776
 20
88.11810761875605
 42
0.0
 10
88.85218735033772
 20
88.11810761875605
 42
0.4142135623730951
 10
84.85218735033772
 20
92.11810761875605
 42
0.0
 97
       15
330
1BC
330
23C
330
239
330
23A
330
227
330
23B
330
1BA
330
250
330
1BB
330
251
330
24F
330
255
330
256
330
252
330
253
 92
        7
 72
     1
 73
     1
 93
       15
 10
37.85218735033774
 20
92.11810761875607
 42
0.0
 10
32.85218735033773
 20
92.11810761875607
 42
0.4142135623730944
 10
28.85218735033775
 20
88.11810761875605
 42
0.0
 10
30.85218735033775
 20
88.11810761875605
 42
0.0
 10
30.85218735033774
 20
86.61810761875605
 42
0.0
 10
30.21799387306805
 20
86.61810761875605
 42
0.0
 10
27.85218735033774
 20
80.11810761875606
 42
0.0
 10
27.85218735033773
 20
77.11810761875605
 42
0.0
 10
28.85218735033774
 20
77.11810761875607
 42
0.0
 10
31.85218735033776
 20
80.11810761875606
 42
0.0
 10
36.85218735033777
 20
80.11810761875604
 42
0.0
 10
41.85218735033774
 20
75.11810761875605
 42
0.0
 10
42.85218735033774
 20
75.11810761875607
 42
0.0
 10
39.35218735033774
 20
81.18028544524714
 42
0.0
 10
39.35218735033774
 20
86.52003140740275
 42
0.0
 97
       15
330
1BC
330
20A
330
209
330
230
330
208
330
219
330
21B
330
20D
330
211
330
22B
330
22A
330
227
330
22C
330
229
330
233
 75
     0
 76
     1
 52
45.0
 41
15.0
 77
     0
 78
     2
 53
45.0
 43
0.0
 44
0.0
 45
-1.325825214724776
 46
1.325825214724776
 79
     0
 53
135.0
 43
0.0
 44
0.0
 45
-1.325825214724776
 46
-1.325825214724776
 79
     0
 47
0.1010237210944639
 98
        2
 10
82.63773336436884
 20
89.15210940295565
 10
36.83932414640935
 20
87.73777737153029
  0
TEXT
  5
2D3
330
20
100
AcDbEntity
  8
TEXT
 62
     1
100
AcDbText
 10
16.43272265219869
 20
119.8744600161006
 30
0.0
 40
1.75
  1
Gravur: EN 1123 LORO DN50/38 Ms TG Nest.Nr. WC Jahreszahl
 41
0.8
  7
GREEKS
100
AcDbText
  0
ARC
  5
2D4
330
20
100
AcDbEntity
  8
TEXT
 62
     2
100
AcDbCircle
 10
92.887463321576
 20
125.1870567382268
 30
0.0
 40
0.9367406831134985
100
AcDbArc
 50
268.4391661543622
 51
0.9693128199328132
  0
ARC
  5
2D5
330
20
100
AcDbEntity
  8
TEXT
 62
     2
100
AcDbCircle
 10
94.76067659097694
 20
125.1870567382268
 30
0.0
 40
0.9367406831134985
100
AcDbArc
 50
179.0306871800672
 51
271.5608338456491
  0
ARC
  5
2D6
330
20
100
AcDbEntity
  8
TEXT
 62
     2
100
AcDbCircle
 10
99.77107452835326
 20
123.3142704933202
 30
0.0
 40
0.9367406831134985
100
AcDbArc
 50
359.0306871800672
 51
91.56083384564261
  0
ARC
  5
2D7
330
20
100
AcDbEntity
  8
TEXT
 62
     2
100
AcDbCircle
 10
87.78851195931045
 20
123.3142704933202
 30
0.0
 40
0.9367406831134985
100
AcDbArc
 50
88.43916615436064
 51
180.9693128199328
  0
LINE
  5
2D8
330
20
100
AcDbEntity
  8
TEXT
 62
     2
100
AcDbLine
 10
94.78619183385523
 20
124.2506636157735
 30
0.0
 11
99.74555928547509
 21
124.2506636157736
 31
0.0
  0
LINE
  5
2D9
330
20
100
AcDbEntity
  8
TEXT
 62
     2
100
AcDbLine
 10
87.81402720218862
 20
124.2506636157735
 30
0.0
 11
92.8619480786979
 21
124.2506636157735
 31
0.0
  0
TEXT
  5
2DA
330
20
100
AcDbEntity
  8
TEXT
 62
     2
100
AcDbText
 10
86.5411241327429
 20
126.2582784004661
 30
0.0
 40
1.0
  1
Raster für weitere Jahre
 41
0.8
  7
GREEKS
100
AcDbText
  0
LINE
  5
2DB
330
20
100
AcDbEntity
  8
TEXT
 62
     1
100
AcDbLine
 10
86.77481281455303
 20
120.7598753060781
 30
0.0
 11
100.774812814553
 21
120.7598753060781
 31
0.0
  0
LINE
  5
2DC
330
20
100
AcDbEntity
  8
TEXT
 62
     1
100
AcDbLine
 10
100.774812814553
 20
121.8019755260844
 30
0.0
 11
100.774812814553
 21
119.7177750860718
 31
0.0
  0
LINE
  5
2DD
330
20
100
AcDbEntity
  8
TEXT
 62
     1
100
AcDbLine
 10
98.77481281455306
 20
121.8019755260844
 30
0.0
 11
98.77481281455306
 21
119.7177750860718
 31
0.0
  0
LINE
  5
2DE
330
20
100
AcDbEntity
  8
TEXT
 62
     1
100
AcDbLine
 10
96.77481281455303
 20
121.8019755260844
 30
0.0
 11
96.77481281455303
 21
119.7177750860718
 31
0.0
  0
LINE
  5
2DF
330
20
100
AcDbEntity
  8
TEXT
 62
     1
100
AcDbLine
 10
94.77481281455302
 20
121.8019755260844
 30
0.0
 11
94.77481281455302
 21
119.7177750860718
 31
0.0
  0
LINE
  5
2E0
330
20
100
AcDbEntity
  8
TEXT
 62
     1
100
AcDbLine
 10
92.77481281455303
 20
121.8019755260844
 30
0.0
 11
92.77481281455303
 21
119.7177750860718
 31
0.0
  0
LINE
  5
2E1
330
20
100
AcDbEntity
  8
TEXT
 62
     1
100
AcDbLine
 10
90.77481281455304
 20
121.8019755260844
 30
0.0
 11
90.77481281455304
 21
119.7177750860718
 31
0.0
  0
LINE
  5
2E2
330
20
100
AcDbEntity
  8
TEXT
 62
     1
100
AcDbLine
 10
88.77481281455303
 20
121.8019755260844
 30
0.0
 11
88.77481281455303
 21
119.7177750860718
 31
0.0
  0
LINE
  5
2E3
330
20
100
AcDbEntity
  8
TEXT
 62
     1
100
AcDbLine
 10
86.77481281455303
 20
121.8019755260844
 30
0.0
 11
86.77481281455303
 21
119.7177750860718
 31
0.0
  0
LINE
  5
2E4
330
20
100
AcDbEntity
  8
TEXT
 62
     2
100
AcDbLine
 10
23.28934222247497
 20
118.912256992914
 30
0.0
 11
16.43272265219869
 21
118.912256992914
 31
0.0
  0
DIMENSION
  5
30A
102
{ACAD_XDICTIONARY
360
317
102
}
102
{ACAD_REACTORS
330
321
102
}
330
20
100
AcDbEntity
  8
BEM
100
AcDbDimension
  2
*D3
 10
74.85218735033774
 20
66.21641756279484
 30
0.0
 11
58.85218735033774
 21
67.84141756279485
 31
0.0
 70
    32
  1
%%c<>
 71
     5
 42
32.00000000000001
  3
Standard
100
AcDbAlignedDimension
 13
42.85218735033773
 23
75.11810761875605
 33
0.0
 14
74.85218735033774
 24
75.11810761875605
 34
0.0
100
AcDbRotatedDimension
1001
ACAD
1000
DSTYLE
1002
{
1070
    40
1040
0.5
1070
    41
1040
3.5
1070
    42
1040
1.0
1070
    43
1040
7.0
1070
    44
1040
1.0
1070
    47
1040
0.2
1070
    48
1040
0.2
1070
    73
1070
     0
1070
    74
1070
     0
1070
    77
1070
     1
1070
    78
1070
     8
1070
    79
1070
     2
1070
   140
1040
3.5
1070
   141
1040
1.5
1070
   146
1040
0.5
1070
   147
1040
1.5
1070
   172
1070
     1
1070
   178
1070
     1
1070
   179
1070
     2
1070
   271
1070
     2
1070
   272
1070
     2
1070
   284
1070
     8
1070
   285
1070
     8
1070
   286
1070
     8
1070
   340
1005
37
1002
}
  0
DIMENSION
  5
337
102
{ACAD_XDICTIONARY
360
344
102
}
102
{ACAD_REACTORS
330
34E
102
}
330
20
100
AcDbEntity
  8
BEM
100
AcDbDimension
  2
*D5
 10
23.46820138012709
 20
88.11810761875605
 30
0.0
 11
21.84320138012707
 21
81.61810761875605
 31
0.0
 70
    32
 71
     5
 42
12.99999999999998
  3
Standard
100
AcDbAlignedDimension
 13
41.85218735033774
 23
75.11810761875605
 33
0.0
 14
28.85218735033773
 24
88.11810761875605
 34
0.0
 50
90.0
100
AcDbRotatedDimension
1001
ACAD
1000
DSTYLE
1002
{
1070
    40
1040
0.5
1070
    41
1040
3.5
1070
    42
1040
1.0
1070
    43
1040
7.0
1070
    44
1040
1.0
1070
    47
1040
0.2
1070
    48
1040
0.2
1070
    73
1070
     0
1070
    74
1070
     0
1070
    77
1070
     1
1070
    78
1070
     8
1070
    79
1070
     2
1070
   140
1040
3.5
1070
   141
1040
1.5
1070
   146
1040
0.5
1070
   147
1040
1.5
1070
   172
1070
     1
1070
   178
1070
     1
1070
   179
1070
     2
1070
   271
1070
     2
1070
   272
1070
     2
1070
   284
1070
     8
1070
   285
1070
     8
1070
   286
1070
     8
1070
   340
1005
37
1002
}
  0
DIMENSION
  5
34F
102
{ACAD_XDICTIONARY
360
35C
102
}
102
{ACAD_REACTORS
330
366
102
}
330
20
100
AcDbEntity
  8
BEM
100
AcDbDimension
  2
*D6
 10
19.96820138012709
 20
92.11810761875609
 30
0.0
 11
18.34320138012707
 21
83.61810761875608
 31
0.0
 70
    32
 71
     5
 42
17.00000000000001
  3
Standard
100
AcDbAlignedDimension
 13
41.85218735033774
 23
75.11810761875605
 33
0.0
 14
32.85218735033773
 24
92.11810761875607
 34
0.0
 50
90.0
100
AcDbRotatedDimension
1001
ACAD
1000
DSTYLE
1002
{
1070
    40
1040
0.5
1070
    41
1040
3.5
1070
    42
1040
1.0
1070
    43
1040
7.0
1070
    44
1040
1.0
1070
    47
1040
0.2
1070
    48
1040
0.2
1070
    73
1070
     0
1070
    74
1070
     0
1070
    77
1070
     1
1070
    78
1070
     8
1070
    79
1070
     2
1070
   140
1040
3.5
1070
   141
1040
1.5
1070
   146
1040
0.5
1070
   147
1040
1.5
1070
   172
1070
     1
1070
   178
1070
     1
1070
   179
1070
     2
1070
   271
1070
     2
1070
   272
1070
     2
1070
   284
1070
     8
1070
   285
1070
     8
1070
   286
1070
     8
1070
   340
1005
37
1002
}
  0
ENDSEC
  0
SECTION
  2
OBJECTS
  0
DICTIONARY
  5
C
330
0
100
AcDbDictionary
281
     1
  3
ACAD_COLOR
350
1B
  3
ACAD_GROUP
350
D
  3
ACAD_LAYOUT
350
19
  3
ACAD_MATERIAL
350
1A
  3
ACAD_MLINESTYLE
350
16
  3
ACAD_PLOTSETTINGS
350
18
  3
ACAD_PLOTSTYLENAME
350
E
  3
AcDbVariableDictionary
350
2B6
  0
DICTIONARY
  5
317
330
30A
100
AcDbDictionary
280
     1
281
     1
  3
ACAD_DIMASSOC
360
321
  0
DICTIONARY
  5
344
330
337
100
AcDbDictionary
280
     1
281
     1
  3
ACAD_DIMASSOC
360
34E
  0
DICTIONARY
  5
35C
330
34F
100
AcDbDictionary
280
     1
281
     1
  3
ACAD_DIMASSOC
360
366
  0
DICTIONARY
  5
1B
102
{ACAD_REACTORS
330
C
102
}
330
C
100
AcDbDictionary
281
     1
  0
DICTIONARY
  5
D
102
{ACAD_REACTORS
330
C
102
}
330
C
100
AcDbDictionary
281
     1
  0
DICTIONARY
  5
19
102
{ACAD_REACTORS
330
C
102
}
330
C
100
AcDbDictionary
281
     1
  3
Layout1
350
1F
  3
Model
350
23
  0
DICTIONARY
  5
1A
102
{ACAD_REACTORS
330
C
102
}
330
C
100
AcDbDictionary
281
     1
  0
DICTIONARY
  5
16
102
{ACAD_REACTORS
330
C
102
}
330
C
100
AcDbDictionary
281
     1
  3
Standard
350
17
  0
DICTIONARY
  5
18
102
{ACAD_REACTORS
330
C
102
}
330
C
100
AcDbDictionary
281
     1
  0
ACDBDICTIONARYWDFLT
  5
E
102
{ACAD_REACTORS
330
C
102
}
330
C
100
AcDbDictionary
281
     1
  3
Normal
350
F
100
AcDbDictionaryWithDefault
340
F
  0
DICTIONARY
  5
2B6
102
{ACAD_REACTORS
330
C
102
}
330
C
100
AcDbDictionary
281
     1
  3
DIMASSOC
350
2B8
  3
HIDETEXT
350
2B7
  3
PROJECTNAME
350
2B9
  0
DIMASSOC
  5
321
102
{ACAD_REACTORS
330
317
102
}
330
317
100
AcDbDimAssoc
330
30A
 90
        3
 70
     0
 71
     0
  1
AcDbOsnapPointRef
 72
     6
331
22C
 73
     2
 91
        0
 40
0.0
 10
0.0
 20
0.0
 30
0.0
332
227
 74
     2
 92
        0
 75
     0
  1
AcDbOsnapPointRef
 72
     6
331
23A
 73
     2
 91
        0
 40
0.0
 10
0.0
 20
0.0
 30
0.0
332
227
 74
     2
 92
        0
 75
     0
  0
DIMASSOC
  5
34E
102
{ACAD_REACTORS
330
344
102
}
330
344
100
AcDbDimAssoc
330
337
 90
        3
 70
     0
 71
     0
  1
AcDbOsnapPointRef
 72
     1
331
227
 73
     2
 91
        0
 40
1.0
 10
0.0
 20
0.0
 30
2.000000000000000E+50
 75
     0
  1
AcDbOsnapPointRef
 72
     1
331
20A
 73
     2
 91
        0
 40
3.141592653589796
 10
0.0
 20
0.0
 30
2.000000000000000E+50
 75
     0
  0
DIMASSOC
  5
366
102
{ACAD_REACTORS
330
35C
102
}
330
35C
100
AcDbDimAssoc
330
34F
 90
        3
 70
     0
 71
     0
  1
AcDbOsnapPointRef
 72
     1
331
227
 73
     2
 91
        0
 40
1.0
 10
0.0
 20
0.0
 30
2.000000000000000E+50
 75
     0
  1
AcDbOsnapPointRef
 72
     1
331
1BC
 73
     2
 91
        0
 40
0.9999999999999998
 10
0.0
 20
0.0
 30
2.000000000000000E+50
 75
     0
  0
LAYOUT
  5
1F
102
{ACAD_REACTORS
330
19
102
}
330
19
100
AcDbPlotSettings
  1

  2
RICOH Aficio 2027 PCL 6
  4

  6

 40
0.0
 41
0.0
 42
0.0
 43
0.0
 44
0.0
 45
0.0
 46
0.0
 47
0.0
 48
0.0
 49
0.0
140
0.0
141
0.0
142
1.0
143
1.0
 70
   688
 72
     0
 73
     0
 74
     5
  7
monochrome1.ctb
 75
    16
147
1.0
 76
     0
 77
     2
 78
   300
148
0.0
149
0.0
100
AcDbLayout
  1
Layout1
 70
     0
 71
     1
 10
0.0
 20
0.0
 11
12.0
 21
9.0
 12
51.07694385854042
 22
50.00000000000001
 32
49.81437904311231
 14
1.000000000000000E+20
 24
1.000000000000000E+20
 34
1.000000000000000E+20
 15
-1.000000000000000E+20
 25
-1.000000000000000E+20
 35
-1.000000000000000E+20
146
0.0
 13
0.0
 23
0.0
 33
0.0
 16
1.0
 26
0.0
 36
0.0
 17
0.0
 27
1.0
 37
0.0
 76
     0
330
1C
  0
LAYOUT
  5
23
102
{ACAD_REACTORS
330
19
102
}
330
19
100
AcDbPlotSettings
  1

  2
none_device
  4
Letter_(8.50_x_11.00_Inches)
  6

 40
6.349999904632568
 41
6.349999904632568
 42
6.350006103515625
 43
6.350006103515625
 44
215.8999938964844
 45
279.3999938964844
 46
0.0
 47
0.0
 48
0.0
 49
0.0
140
0.0
141
0.0
142
1.0
143
1.0
 70
 11952
 72
     0
 73
     1
 74
     0
  7
monochrome1.ctb
 75
     0
147
1.0
 76
     0
 77
     2
 78
   300
148
567.9072805694968
149
15.40375672866042
100
AcDbLayout
  1
Model
 70
     1
 71
     0
 10
0.0
 20
0.0
 11
12.0
 21
9.0
 12
0.0
 22
0.0
 32
0.0
 14
0.0
 24
0.0
 34
0.0
 15
0.0
 25
0.0
 35
0.0
146
0.0
 13
0.0
 23
0.0
 33
0.0
 16
1.0
 26
0.0
 36
0.0
 17
0.0
 27
1.0
 37
0.0
 76
     0
330
20
  0
MLINESTYLE
  5
17
102
{ACAD_REACTORS
330
16
102
}
330
16
100
AcDbMlineStyle
  2
STANDARD
 70
     0
  3

 62
   256
 51
90.0
 52
90.0
 71
     2
 49
0.5
 62
   256
  6
BYLAYER
 49
-0.5
 62
   256
  6
BYLAYER
  0
ACDBPLACEHOLDER
  5
F
102
{ACAD_REACTORS
330
E
102
}
330
E
  0
DICTIONARYVAR
  5
2B8
102
{ACAD_REACTORS
330
2B6
102
}
330
2B6
100
DictionaryVariables
280
     0
  1
2
  0
DICTIONARYVAR
  5
2B7
102
{ACAD_REACTORS
330
2B6
102
}
330
2B6
100
DictionaryVariables
280
     0
  1
1
  0
DICTIONARYVAR
  5
2B9
102
{ACAD_REACTORS
330
2B6
102
}
330
2B6
100
DictionaryVariables
280
     0
  1

  0
ENDSEC
  0
EOF
