  0
SECTION
  2
HEADER
  9
$ACADVER
  1
AC1018
  9
$ACADMAINTVER
 70
     2
  9
$DWGCODEPAGE
  3
ANSI_1252
  9
$INSBASE
 10
0.0
 20
0.0
 30
0.0
  9
$EXTMIN
 10
-0.0064041928749248
 20
-0.0045286792473007
 30
-0.0000000000112498
  9
$EXTMAX
 10
420.0064100605654
 20
297.0045328285429
 30
0.0000000000002956
  9
$LIMMIN
 10
0.0
 20
0.0
  9
$LIMMAX
 10
419.9999999999999
 20
297.0000000000001
  9
$ORTHOMODE
 70
     1
  9
$REGENMODE
 70
     1
  9
$FILLMODE
 70
     1
  9
$QTEXTMODE
 70
     0
  9
$MIRRTEXT
 70
     1
  9
$LTSCALE
 40
10.0
  9
$ATTMODE
 70
     1
  9
$TEXTSIZE
 40
2.5
  9
$TRACEWID
 40
0.5
  9
$TEXTSTYLE
  7
GREEKS
  9
$CLAYER
  8
BEM
  9
$CELTYPE
  6
ByLayer
  9
$CECOLOR
 62
   256
  9
$CELTSCALE
 40
1.0
  9
$DISPSILH
 70
     0
  9
$DIMSCALE
 40
1.0
  9
$DIMASZ
 40
3.5
  9
$DIMEXO
 40
1.0
  9
$DIMDLI
 40
7.0
  9
$DIMRND
 40
0.0
  9
$DIMDLE
 40
0.0
  9
$DIMEXE
 40
1.0
  9
$DIMTP
 40
0.0
  9
$DIMTM
 40
0.0
  9
$DIMTXT
 40
3.5
  9
$DIMCEN
 40
1.5
  9
$DIMTSZ
 40
0.0
  9
$DIMTOL
 70
     0
  9
$DIMLIM
 70
     0
  9
$DIMTIH
 70
     0
  9
$DIMTOH
 70
     0
  9
$DIMSE1
 70
     0
  9
$DIMSE2
 70
     0
  9
$DIMTAD
 70
     1
  9
$DIMZIN
 70
     8
  9
$DIMBLK
  1

  9
$DIMASO
 70
     1
  9
$DIMSHO
 70
     0
  9
$DIMPOST
  1

  9
$DIMAPOST
  1

  9
$DIMALT
 70
     0
  9
$DIMALTD
 70
     2
  9
$DIMALTF
 40
25.4
  9
$DIMLFAC
 40
1.0
  9
$DIMTOFL
 70
     1
  9
$DIMTVP
 40
0.0
  9
$DIMTIX
 70
     0
  9
$DIMSOXD
 70
     0
  9
$DIMSAH
 70
     0
  9
$DIMBLK1
  1

  9
$DIMBLK2
  1

  9
$DIMSTYLE
  2
Standard
  9
$DIMCLRD
 70
     0
  9
$DIMCLRE
 70
     0
  9
$DIMCLRT
 70
     1
  9
$DIMTFAC
 40
0.5
  9
$DIMGAP
 40
1.5
  9
$DIMJUST
 70
     0
  9
$DIMSD1
 70
     0
  9
$DIMSD2
 70
     0
  9
$DIMTOLJ
 70
     1
  9
$DIMTZIN
 70
     8
  9
$DIMALTZ
 70
     8
  9
$DIMALTTZ
 70
     8
  9
$DIMUPT
 70
     0
  9
$DIMDEC
 70
     2
  9
$DIMTDEC
 70
     2
  9
$DIMALTU
 70
     2
  9
$DIMALTTD
 70
     2
  9
$DIMTXSTY
  7
GREEKS
  9
$DIMAUNIT
 70
     0
  9
$DIMADEC
 70
     2
  9
$DIMALTRND
 40
0.0
  9
$DIMAZIN
 70
     2
  9
$DIMDSEP
 70
    46
  9
$DIMATFIT
 70
     3
  9
$DIMFRAC
 70
     0
  9
$DIMLDRBLK
  1

  9
$DIMLUNIT
 70
     2
  9
$DIMLWD
 70
    -2
  9
$DIMLWE
 70
    -2
  9
$DIMTMOVE
 70
     0
  9
$LUNITS
 70
     2
  9
$LUPREC
 70
     2
  9
$SKETCHINC
 40
1.0
  9
$FILLETRAD
 40
0.0
  9
$AUNITS
 70
     0
  9
$AUPREC
 70
     0
  9
$MENU
  1
ACAD
  9
$ELEVATION
 40
0.0
  9
$PELEVATION
 40
0.0
  9
$THICKNESS
 40
0.0
  9
$LIMCHECK
 70
     0
  9
$CHAMFERA
 40
0.0
  9
$CHAMFERB
 40
0.0
  9
$CHAMFERC
 40
0.0
  9
$CHAMFERD
 40
0.0
  9
$SKPOLY
 70
     0
  9
$TDCREATE
 40
2451337.601764699
  9
$TDUCREATE
 40
2451337.518431366
  9
$TDUPDATE
 40
2455449.568959329
  9
$TDUUPDATE
 40
2455449.485625996
  9
$TDINDWG
 40
0.1954843981
  9
$TDUSRTIMER
 40
0.1954843981
  9
$USRTIMER
 70
     1
  9
$ANGBASE
 50
0.0
  9
$ANGDIR
 70
     0
  9
$PDMODE
 70
     0
  9
$PDSIZE
 40
0.0
  9
$PLINEWID
 40
0.0
  9
$SPLFRAME
 70
     0
  9
$SPLINETYPE
 70
     6
  9
$SPLINESEGS
 70
     8
  9
$HANDSEED
  5
45F
  9
$SURFTAB1
 70
     6
  9
$SURFTAB2
 70
     6
  9
$SURFTYPE
 70
     6
  9
$SURFU
 70
     6
  9
$SURFV
 70
     6
  9
$UCSBASE
  2

  9
$UCSNAME
  2

  9
$UCSORG
 10
0.0
 20
0.0
 30
0.0
  9
$UCSXDIR
 10
1.0
 20
0.0
 30
0.0
  9
$UCSYDIR
 10
0.0
 20
1.0
 30
0.0
  9
$UCSORTHOREF
  2

  9
$UCSORTHOVIEW
 70
     0
  9
$UCSORGTOP
 10
0.0
 20
0.0
 30
0.0
  9
$UCSORGBOTTOM
 10
0.0
 20
0.0
 30
0.0
  9
$UCSORGLEFT
 10
0.0
 20
0.0
 30
0.0
  9
$UCSORGRIGHT
 10
0.0
 20
0.0
 30
0.0
  9
$UCSORGFRONT
 10
0.0
 20
0.0
 30
0.0
  9
$UCSORGBACK
 10
0.0
 20
0.0
 30
0.0
  9
$PUCSBASE
  2

  9
$PUCSNAME
  2

  9
$PUCSORG
 10
0.0
 20
0.0
 30
0.0
  9
$PUCSXDIR
 10
1.0
 20
0.0
 30
0.0
  9
$PUCSYDIR
 10
0.0
 20
1.0
 30
0.0
  9
$PUCSORTHOREF
  2

  9
$PUCSORTHOVIEW
 70
     0
  9
$PUCSORGTOP
 10
0.0
 20
0.0
 30
0.0
  9
$PUCSORGBOTTOM
 10
0.0
 20
0.0
 30
0.0
  9
$PUCSORGLEFT
 10
0.0
 20
0.0
 30
0.0
  9
$PUCSORGRIGHT
 10
0.0
 20
0.0
 30
0.0
  9
$PUCSORGFRONT
 10
0.0
 20
0.0
 30
0.0
  9
$PUCSORGBACK
 10
0.0
 20
0.0
 30
0.0
  9
$USERI1
 70
     0
  9
$USERI2
 70
     0
  9
$USERI3
 70
     0
  9
$USERI4
 70
     0
  9
$USERI5
 70
     0
  9
$USERR1
 40
0.0
  9
$USERR2
 40
0.0
  9
$USERR3
 40
0.0
  9
$USERR4
 40
0.0
  9
$USERR5
 40
0.0
  9
$WORLDVIEW
 70
     1
  9
$SHADEDGE
 70
     3
  9
$SHADEDIF
 70
    70
  9
$TILEMODE
 70
     1
  9
$MAXACTVP
 70
    16
  9
$PINSBASE
 10
0.0
 20
0.0
 30
0.0
  9
$PLIMCHECK
 70
     0
  9
$PEXTMIN
 10
1.000000000000000E+20
 20
1.000000000000000E+20
 30
1.000000000000000E+20
  9
$PEXTMAX
 10
-1.000000000000000E+20
 20
-1.000000000000000E+20
 30
-1.000000000000000E+20
  9
$PLIMMIN
 10
0.0
 20
0.0
  9
$PLIMMAX
 10
12.0
 20
9.0
  9
$UNITMODE
 70
     0
  9
$VISRETAIN
 70
     0
  9
$PLINEGEN
 70
     0
  9
$PSLTSCALE
 70
     0
  9
$TREEDEPTH
 70
  3020
  9
$CMLSTYLE
  2
Standard
  9
$CMLJUST
 70
     0
  9
$CMLSCALE
 40
1.0
  9
$PROXYGRAPHICS
 70
     1
  9
$MEASUREMENT
 70
     0
  9
$CELWEIGHT
370
    -1
  9
$ENDCAPS
280
     0
  9
$JOINSTYLE
280
     0
  9
$LWDISPLAY
290
     0
  9
$INSUNITS
 70
     0
  9
$HYPERLINKBASE
  1

  9
$STYLESHEET
  1
monochrome 1.ctb
  9
$XEDIT
290
     1
  9
$CEPSNTYPE
380
     0
  9
$PSTYLEMODE
290
     1
  9
$FINGERPRINTGUID
  2
{7AC1F547-7501-4415-93D1-B3791A34BBD2}
  9
$VERSIONGUID
  2
{C13CCE28-92C3-464A-82A3-7B3FFBC1B30E}
  9
$EXTNAMES
290
     1
  9
$PSVPSCALE
 40
0.0
  9
$OLESTARTUP
290
     0
  9
$SORTENTS
280
   127
  9
$INDEXCTL
280
     0
  9
$HIDETEXT
280
     1
  9
$XCLIPFRAME
290
     0
  9
$HALOGAP
280
     0
  9
$OBSCOLOR
 70
   257
  9
$OBSLTYPE
280
     0
  9
$INTERSECTIONDISPLAY
280
     0
  9
$INTERSECTIONCOLOR
 70
   257
  9
$DIMASSOC
280
     2
  9
$PROJECTNAME
  1

  0
ENDSEC
  0
SECTION
  2
CLASSES
  0
CLASS
  1
ACDBDICTIONARYWDFLT
  2
AcDbDictionaryWithDefault
  3
ObjectDBX Classes
 90
        0
 91
        1
280
     0
281
     0
  0
CLASS
  1
DICTIONARYVAR
  2
AcDbDictionaryVar
  3
ObjectDBX Classes
 90
        0
 91
        3
280
     0
281
     0
  0
CLASS
  1
DIMASSOC
  2
AcDbDimAssoc
  3
"AcDbDimAssoc|Product Desc:     AcDim ARX App For Dimension|Company:          Autodesk, Inc.|WEB Address:      www.autodesk.com"
 90
        0
 91
        3
280
     0
281
     0
  0
ENDSEC
  0
SECTION
  2
TABLES
  0
TABLE
  2
VPORT
  5
8
330
0
100
AcDbSymbolTable
 70
     2
  0
VPORT
  5
45E
330
8
100
AcDbSymbolTableRecord
100
AcDbViewportTableRecord
  2
*Active
 70
     0
 10
0.0
 20
0.0
 11
1.0
 21
1.0
 12
210.0000029338453
 22
148.5000020746477
 13
0.0
 23
0.0
 14
1.0
 24
1.0
 15
10.0
 25
10.0
 16
0.0
 26
0.0
 36
1.0
 17
0.0
 27
0.0
 37
0.0
 40
316.0604315111355
 41
1.336927223719676
 42
50.0
 43
0.0
 44
0.0
 50
0.0
 51
0.0
 71
     0
 72
  1500
 73
     1
 74
     0
 75
     0
 76
     0
 77
     0
 78
     0
281
     0
 65
     1
110
0.0
120
0.0
130
0.0
111
1.0
121
0.0
131
0.0
112
0.0
122
1.0
132
0.0
 79
     0
146
0.0
  0
ENDTAB
  0
TABLE
  2
LTYPE
  5
5
330
0
100
AcDbSymbolTable
 70
     3
  0
LTYPE
  5
13
330
5
100
AcDbSymbolTableRecord
100
AcDbLinetypeTableRecord
  2
ByBlock
 70
     0
  3

 72
    65
 73
     0
 40
0.0
  0
LTYPE
  5
14
330
5
100
AcDbSymbolTableRecord
100
AcDbLinetypeTableRecord
  2
ByLayer
 70
     0
  3

 72
    65
 73
     0
 40
0.0
  0
LTYPE
  5
15
330
5
100
AcDbSymbolTableRecord
100
AcDbLinetypeTableRecord
  2
Continuous
 70
     0
  3
Solid line
 72
    65
 73
     0
 40
0.0
  0
LTYPE
  5
43
330
5
100
AcDbSymbolTableRecord
100
AcDbLinetypeTableRecord
  2
STRICHPUNKT
 70
     0
  3
__ . __ . __ . __ . __ . __ . __ . __ . __ . __
 72
    65
 73
     4
 40
1.0
 49
0.5
 74
     0
 49
-0.25
 74
     0
 49
0.0
 74
     0
 49
-0.25
 74
     0
  0
LTYPE
  5
44
330
5
100
AcDbSymbolTableRecord
100
AcDbLinetypeTableRecord
  2
VERDECKT
 70
     0
  3
_ _ _ _ _ _ _ _ _ _ _ _ _ _ _ _ _ _ _ _ _ _ _
 72
    65
 73
     2
 40
0.375
 49
0.25
 74
     0
 49
-0.125
 74
     0
  0
ENDTAB
  0
TABLE
  2
LAYER
  5
2
330
0
100
AcDbSymbolTable
 70
    10
  0
LAYER
  5
10
330
2
100
AcDbSymbolTableRecord
100
AcDbLayerTableRecord
  2
0
 70
     0
 62
     7
  6
Continuous
370
    -3
390
F
  0
LAYER
  5
48
330
2
100
AcDbSymbolTableRecord
100
AcDbLayerTableRecord
  2
VOLL
 70
     0
 62
     1
  6
Continuous
370
    -3
390
F
  0
LAYER
  5
49
330
2
100
AcDbSymbolTableRecord
100
AcDbLayerTableRecord
  2
HILF
 70
     0
 62
     2
  6
Continuous
370
    -3
390
F
  0
LAYER
  5
4A
330
2
100
AcDbSymbolTableRecord
100
AcDbLayerTableRecord
  2
MITTEL
 70
     0
 62
     2
  6
STRICHPUNKT
370
    -3
390
F
  0
LAYER
  5
4B
330
2
100
AcDbSymbolTableRecord
100
AcDbLayerTableRecord
  2
VERDECKT
 70
     0
 62
     6
  6
VERDECKT
370
    -3
390
F
  0
LAYER
  5
4D
330
2
100
AcDbSymbolTableRecord
100
AcDbLayerTableRecord
  2
BEM
 70
     0
 62
     7
  6
Continuous
370
    -3
390
F
  0
LAYER
  5
4E
330
2
100
AcDbSymbolTableRecord
100
AcDbLayerTableRecord
  2
STEMPEL
 70
     0
 62
     3
  6
Continuous
370
    -3
390
F
  0
LAYER
  5
4F
330
2
100
AcDbSymbolTableRecord
100
AcDbLayerTableRecord
  2
TEXT
 70
     0
 62
     7
  6
Continuous
370
    -3
390
F
  0
LAYER
  5
50
330
2
100
AcDbSymbolTableRecord
100
AcDbLayerTableRecord
  2
SCHRAFF
 70
     0
 62
     7
  6
Continuous
370
    -3
390
F
  0
LAYER
  5
51
330
2
100
AcDbSymbolTableRecord
100
AcDbLayerTableRecord
  2
DEFPOINTS
 70
     0
 62
     7
  6
Continuous
290
     0
370
    -3
390
F
  0
ENDTAB
  0
TABLE
  2
STYLE
  5
3
330
0
100
AcDbSymbolTable
 70
     2
  0
STYLE
  5
11
330
3
100
AcDbSymbolTableRecord
100
AcDbTextStyleTableRecord
  2
STANDARD
 70
     0
 40
0.0
 41
1.0
 50
0.0
 71
     0
 42
3.5
  3
txt
  4

  0
STYLE
  5
42
330
3
100
AcDbSymbolTableRecord
100
AcDbTextStyleTableRecord
  2
GREEKS
 70
     0
 40
0.0
 41
0.8
 50
0.0
 71
     0
 42
2.5
  3
SIMPLEX.shx
  4

  0
ENDTAB
  0
TABLE
  2
VIEW
  5
6
330
0
100
AcDbSymbolTable
 70
     0
  0
ENDTAB
  0
TABLE
  2
UCS
  5
7
330
0
100
AcDbSymbolTable
 70
     0
  0
ENDTAB
  0
TABLE
  2
APPID
  5
9
330
0
100
AcDbSymbolTable
 70
     1
  0
APPID
  5
12
330
9
100
AcDbSymbolTableRecord
100
AcDbRegAppTableRecord
  2
ACAD
 70
     0
  0
ENDTAB
  0
TABLE
  2
DIMSTYLE
  5
A
330
0
100
AcDbSymbolTable
 70
     1
100
AcDbDimStyleTable
 71
     1
340
34B
  0
DIMSTYLE
105
34B
102
{ACAD_REACTORS
330
341
330
3E4
330
337
330
408
330
420
102
}
330
A
100
AcDbSymbolTableRecord
100
AcDbDimStyleTableRecord
  2
Standard
 70
     0
340
11
  0
ENDTAB
  0
TABLE
  2
BLOCK_RECORD
  5
1
330
0
100
AcDbSymbolTable
 70
     9
  0
BLOCK_RECORD
  5
20
330
1
100
AcDbSymbolTableRecord
100
AcDbBlockTableRecord
  2
*Model_Space
340
23
  0
BLOCK_RECORD
  5
1C
330
1
100
AcDbSymbolTableRecord
100
AcDbBlockTableRecord
  2
*Paper_Space
340
1F
  0
BLOCK_RECORD
  5
24
330
1
100
AcDbSymbolTableRecord
100
AcDbBlockTableRecord
  2
LOGO
340
0
102
{BLKREFS
331
1D1
102
}
  0
BLOCK_RECORD
  5
26
330
1
100
AcDbSymbolTableRecord
100
AcDbBlockTableRecord
  2
*X1
340
0
102
{BLKREFS
331
1F8
102
}
  0
BLOCK_RECORD
  5
31
330
1
100
AcDbSymbolTableRecord
100
AcDbBlockTableRecord
  2
*D2
340
0
  0
BLOCK_RECORD
  5
32
330
1
100
AcDbSymbolTableRecord
100
AcDbBlockTableRecord
  2
*X3
340
0
102
{BLKREFS
331
314
331
315
102
}
  0
BLOCK_RECORD
  5
3C5
330
1
100
AcDbSymbolTableRecord
100
AcDbBlockTableRecord
  2
*D4
340
0
  0
BLOCK_RECORD
  5
3E5
330
1
100
AcDbSymbolTableRecord
100
AcDbBlockTableRecord
  2
*D5
340
0
  0
BLOCK_RECORD
  5
3FC
330
1
100
AcDbSymbolTableRecord
100
AcDbBlockTableRecord
  2
*D6
340
0
  0
BLOCK_RECORD
  5
409
330
1
100
AcDbSymbolTableRecord
100
AcDbBlockTableRecord
  2
*D7
340
0
  0
BLOCK_RECORD
  5
421
330
1
100
AcDbSymbolTableRecord
100
AcDbBlockTableRecord
  2
*D8
340
0
  0
ENDTAB
  0
ENDSEC
  0
SECTION
  2
BLOCKS
  0
BLOCK
  5
55
330
20
100
AcDbEntity
  8
0
100
AcDbBlockBegin
  2
*Model_Space
 70
     0
 10
0.0
 20
0.0
 30
0.0
  3
*Model_Space
  1

  0
ENDBLK
  5
56
330
20
100
AcDbEntity
  8
0
100
AcDbBlockEnd
  0
BLOCK
  5
53
330
1C
100
AcDbEntity
 67
     1
  8
0
100
AcDbBlockBegin
  2
*Paper_Space
 70
     0
 10
0.0
 20
0.0
 30
0.0
  3
*Paper_Space
  1

  0
ENDBLK
  5
54
330
1C
100
AcDbEntity
 67
     1
  8
0
100
AcDbBlockEnd
  0
BLOCK
  5
57
330
24
100
AcDbEntity
  8
0
100
AcDbBlockBegin
  2
LOGO
 70
     0
 10
0.0
 20
0.0
 30
0.0
  3
LOGO
  1

  0
ARC
  5
58
330
24
100
AcDbEntity
  8
0
100
AcDbCircle
 10
11.59973089678112
 20
-9.271599258481501
 30
0.0
 40
4.5
100
AcDbArc
 50
270.0
 51
231.0575587310159
  0
LINE
  5
59
330
24
100
AcDbEntity
  8
0
100
AcDbLine
 10
3.599730896781125
 20
-4.771599258481529
 30
0.0
 11
3.599730896781153
 21
-11.77159925848133
 31
0.0
  0
LINE
  5
5A
330
24
100
AcDbEntity
  8
0
100
AcDbLine
 10
2.599730896781125
 20
-4.771599258481529
 30
0.0
 11
2.599730896781153
 21
-11.77159925848133
 31
0.0
  0
CIRCLE
  5
5B
330
24
100
AcDbEntity
  8
0
100
AcDbCircle
 10
11.59973089678112
 20
-9.271599258481501
 30
0.0
 40
3.5
  0
ARC
  5
5C
330
24
100
AcDbEntity
  8
0
100
AcDbCircle
 10
31.59973089678115
 20
-9.271599258481472
 30
0.0
 40
4.5
100
AcDbArc
 50
270.0
 51
231.0575587310182
  0
LINE
  5
5D
330
24
100
AcDbEntity
  8
0
100
AcDbLine
 10
17.59973089678112
 20
-4.771599258481472
 30
0.0
 11
17.59973089678115
 21
-13.77159925848147
 31
0.0
  0
ARC
  5
5E
330
24
100
AcDbEntity
  8
0
100
AcDbCircle
 10
22.59973089678116
 20
-7.271599258481472
 30
0.0
 40
2.5
100
AcDbArc
 50
293.1161887722295
 51
90.0
  0
CIRCLE
  5
5F
330
24
100
AcDbEntity
  8
0
100
AcDbCircle
 10
31.59973089678115
 20
-9.271599258481472
 30
0.0
 40
3.5
  0
ARC
  5
60
330
24
100
AcDbEntity
  8
0
100
AcDbCircle
 10
4.599730896781153
 20
-11.77159925848133
 30
0.0
 40
1.0
100
AcDbArc
 50
180.0
 51
270.0
  0
ARC
  5
61
330
24
100
AcDbEntity
  8
0
100
AcDbCircle
 10
4.599730896781153
 20
-11.77159925848133
 30
0.0
 40
2.0
100
AcDbArc
 50
179.9999999999992
 51
270.0
  0
LINE
  5
62
330
24
100
AcDbEntity
  8
0
100
AcDbLine
 10
11.59973089678115
 20
-13.77159925848144
 30
0.0
 11
4.599730896781153
 21
-13.77159925848147
 31
0.0
  0
LINE
  5
63
330
24
100
AcDbEntity
  8
0
100
AcDbLine
 10
8.771303772034769
 20
-12.77159925848136
 30
0.0
 11
4.599730896781153
 21
-12.77159925848133
 31
0.0
  0
LINE
  5
64
330
24
100
AcDbEntity
  8
0
100
AcDbLine
 10
31.59973089678115
 20
-13.77159925848147
 30
0.0
 11
23.6715276665056
 21
-13.77159925848144
 31
0.0
  0
LINE
  5
65
330
24
100
AcDbEntity
  8
0
100
AcDbLine
 10
23.56565672307022
 20
-9.51278021337896
 30
0.0
 11
24.4388546544846
 21
-12.77159925848144
 31
0.0
  0
LINE
  5
66
330
24
100
AcDbEntity
  8
0
100
AcDbLine
 10
22.59973089678116
 20
-9.771599258481472
 30
0.0
 11
18.59973089678112
 21
-9.771599258481472
 31
0.0
  0
LINE
  5
67
330
24
100
AcDbEntity
  8
0
100
AcDbLine
 10
18.59973089678115
 20
-13.77159925848144
 30
0.0
 11
17.59973089678115
 21
-13.77159925848144
 31
0.0
  0
LINE
  5
68
330
24
100
AcDbEntity
  8
0
100
AcDbLine
 10
18.59973089678115
 20
-9.771599258481472
 30
0.0
 11
18.59973089678115
 21
-13.77159925848144
 31
0.0
  0
LINE
  5
69
330
24
100
AcDbEntity
  8
0
100
AcDbLine
 10
22.59973089678116
 20
-9.771599258481472
 30
0.0
 11
23.67152766650562
 21
-13.77159925848147
 31
0.0
  0
ARC
  5
6A
330
24
100
AcDbEntity
  8
0
100
AcDbCircle
 10
22.59973089678116
 20
-7.271599258481472
 30
0.0
 40
2.5
100
AcDbArc
 50
270.0
 51
270.0000000000007
  0
LINE
  5
6B
330
24
100
AcDbEntity
  8
0
100
AcDbLine
 10
28.77130377203494
 20
-12.77159925848147
 30
0.0
 11
24.43885465448463
 21
-12.77159925848144
 31
0.0
  0
LINE
  5
6C
330
24
100
AcDbEntity
  8
0
100
AcDbLine
 10
3.599730896781125
 20
-4.771599258481472
 30
0.0
 11
2.599730896781125
 21
-4.771599258481472
 31
0.0
  0
LINE
  5
6D
330
24
100
AcDbEntity
  8
0
100
AcDbLine
 10
22.59973089678116
 20
-8.771599258481472
 30
0.0
 11
18.59973089678115
 21
-8.771599258481472
 31
0.0
  0
LINE
  5
6E
330
24
100
AcDbEntity
  8
0
100
AcDbLine
 10
22.59973089678116
 20
-5.771599258481472
 30
0.0
 11
18.59973089678115
 21
-5.771599258481472
 31
0.0
  0
LINE
  5
6F
330
24
100
AcDbEntity
  8
0
100
AcDbLine
 10
22.59973089678116
 20
-4.771599258481472
 30
0.0
 11
17.59973089678115
 21
-4.771599258481472
 31
0.0
  0
LINE
  5
70
330
24
100
AcDbEntity
  8
0
100
AcDbLine
 10
18.59973089678115
 20
-5.771599258481472
 30
0.0
 11
18.59973089678115
 21
-8.771599258481472
 31
0.0
  0
ARC
  5
71
330
24
100
AcDbEntity
  8
0
100
AcDbCircle
 10
22.59973089678116
 20
-7.271599258481472
 30
0.0
 40
1.5
100
AcDbArc
 50
270.0
 51
90.0
  0
ENDBLK
  5
72
330
24
100
AcDbEntity
  8
0
100
AcDbBlockEnd
  0
BLOCK
  5
77
330
26
100
AcDbEntity
  8
0
100
AcDbBlockBegin
  2
*X1
 70
     1
 10
0.0
 20
0.0
 30
0.0
  3
*X1
  1

  0
LINE
  5
78
330
26
100
AcDbEntity
  8
0
 62
     0
100
AcDbLine
 10
384.8776016733439
 20
223.2196794807694
 30
0.0
 11
389.1902280215254
 21
224.3752442280218
 31
0.0
  0
LINE
  5
79
330
26
100
AcDbEntity
  8
0
 62
     0
100
AcDbLine
 10
385.9110014528862
 20
225.5671304779764
 30
0.0
 11
389.7708857590237
 21
226.6013833606835
 31
0.0
  0
LINE
  5
7A
330
26
100
AcDbEntity
  8
0
 62
     0
100
AcDbLine
 10
399.9256786174463
 20
218.9695901023023
 30
0.0
 11
402.0183344729396
 21
219.5303155488181
 31
0.0
  0
LINE
  5
7B
330
26
100
AcDbEntity
  8
0
 62
     0
100
AcDbLine
 10
398.5114650550733
 20
216.5201003595192
 30
0.0
 11
404.4678242157228
 21
218.1161019864449
 31
0.0
  0
LINE
  5
7C
330
26
100
AcDbEntity
  8
0
 62
     0
100
AcDbLine
 10
400.0871869395838
 20
214.8717614051496
 30
0.0
 11
406.6594293191911
 21
216.632788443227
 31
0.0
  0
LINE
  5
7D
330
26
100
AcDbEntity
  8
0
 62
     0
100
AcDbLine
 10
402.536676682367
 20
213.4575478427766
 30
0.0
 11
405.2452157568181
 21
214.1832987004439
 31
0.0
  0
ENDBLK
  5
7E
330
26
100
AcDbEntity
  8
0
100
AcDbBlockEnd
  0
BLOCK
  5
E9
330
31
100
AcDbEntity
  8
0
100
AcDbBlockBegin
  2
*D2
 70
     1
 10
0.0
 20
0.0
 30
0.0
  3
*D2
  1

  0
ARC
  5
EA
330
31
100
AcDbEntity
  8
0
  6
ByBlock
 62
     0
100
AcDbCircle
 10
130.6500970602945
 20
143.5625550106366
 30
0.0
 40
35.30228184590775
100
AcDbArc
 50
215.682846555565
 51
324.317153444435
  0
SOLID
  5
EB
330
31
100
AcDbEntity
  8
0
  6
ByBlock
 62
     0
100
AcDbTrace
 10
101.485427449808
 20
122.6544516159409
 30
0.0
 11
102.4656313174201
 21
123.2871533537522
 31
0.0
 12
100.0774241701801
 22
125.9114140876828
 32
0.0
 13
100.0774241701801
 23
125.9114140876828
 33
0.0
  0
SOLID
  5
EC
330
31
100
AcDbEntity
  8
0
  6
ByBlock
 62
     0
100
AcDbTrace
 10
158.8345628031689
 20
123.2871533537522
 30
0.0
 11
159.8147666707809
 21
122.6544516159409
 31
0.0
 12
161.2227699504088
 22
125.9114140876828
 32
0.0
 13
161.2227699504088
 23
125.9114140876828
 33
0.0
  0
TEXT
  5
ED
330
31
100
AcDbEntity
  8
0
  6
ByBlock
 62
     1
100
AcDbText
 10
126.6943268785889
 20
110.4434182597521
 30
0.0
 40
3.5
  1
120%%d
 41
0.8
  7
GREEKS
 72
     1
 11
130.6943268785888
 21
112.1934182597521
 31
0.0
100
AcDbText
 73
     2
  0
POINT
  5
EE
330
31
100
AcDbEntity
  8
DEFPOINTS
  6
ByBlock
 62
     0
100
AcDbPoint
 10
122.5148179916272
 20
109.2104322523148
 30
0.0
  0
POINT
  5
EF
330
31
100
AcDbEntity
  8
DEFPOINTS
  6
ByBlock
 62
     0
100
AcDbPoint
 10
130.6500970602946
 20
143.5625550106365
 30
0.0
  0
POINT
  5
F0
330
31
100
AcDbEntity
  8
DEFPOINTS
  6
ByBlock
 62
     0
100
AcDbPoint
 10
130.6500970602944
 20
143.5625550106365
 30
0.0
  0
POINT
  5
F1
330
31
100
AcDbEntity
  8
DEFPOINTS
  6
ByBlock
 62
     0
100
AcDbPoint
 10
27.3205938295493
 20
83.90523850513563
 30
0.0
  0
POINT
  5
F2
330
31
100
AcDbEntity
  8
DEFPOINTS
  6
ByBlock
 62
     0
100
AcDbPoint
 10
233.9796002910397
 20
83.90523850513563
 30
0.0
  0
ENDBLK
  5
F3
330
31
100
AcDbEntity
  8
0
100
AcDbBlockEnd
  0
BLOCK
  5
F4
330
32
100
AcDbEntity
  8
0
100
AcDbBlockBegin
  2
*X3
 70
     1
 10
0.0
 20
0.0
 30
0.0
  3
*X3
  1

  0
LINE
  5
F5
330
32
100
AcDbEntity
  8
0
 62
     0
100
AcDbLine
 10
125.5307588154583
 20
52.6
 30
0.0
 11
128.1500970602946
 21
52.6
 31
0.0
  0
LINE
  5
F6
330
32
100
AcDbEntity
  8
0
 62
     0
100
AcDbLine
 10
125.47737488188
 20
52.7
 30
0.0
 11
128.1500970602946
 21
52.7
 31
0.0
  0
LINE
  5
F7
330
32
100
AcDbEntity
  8
0
 62
     0
100
AcDbLine
 10
125.4287086563514
 20
52.80000000000001
 30
0.0
 11
128.1500970602946
 21
52.80000000000001
 31
0.0
  0
LINE
  5
F8
330
32
100
AcDbEntity
  8
0
 62
     0
100
AcDbLine
 10
125.3845110740624
 20
52.9
 30
0.0
 11
128.1500970602946
 21
52.9
 31
0.0
  0
LINE
  5
F9
330
32
100
AcDbEntity
  8
0
 62
     0
100
AcDbLine
 10
125.3445709332783
 20
53.0
 30
0.0
 11
128.1500970602946
 21
53.0
 31
0.0
  0
LINE
  5
FA
330
32
100
AcDbEntity
  8
0
 62
     0
100
AcDbLine
 10
125.3087086934044
 20
53.1
 30
0.0
 11
128.1500970602946
 21
53.1
 31
0.0
  0
LINE
  5
FB
330
32
100
AcDbEntity
  8
0
 62
     0
100
AcDbLine
 10
125.2767716604093
 20
53.2
 30
0.0
 11
128.1500970602946
 21
53.2
 31
0.0
  0
LINE
  5
FC
330
32
100
AcDbEntity
  8
0
 62
     0
100
AcDbLine
 10
125.2486302147571
 20
53.3
 30
0.0
 11
128.1500970602946
 21
53.3
 31
0.0
  0
LINE
  5
FD
330
32
100
AcDbEntity
  8
0
 62
     0
100
AcDbLine
 10
125.2241748368101
 20
53.4
 30
0.0
 11
128.1500970602946
 21
53.4
 31
0.0
  0
LINE
  5
FE
330
32
100
AcDbEntity
  8
0
 62
     0
100
AcDbLine
 10
125.2033137530241
 20
53.5
 30
0.0
 11
128.1500970602946
 21
53.5
 31
0.0
  0
LINE
  5
FF
330
32
100
AcDbEntity
  8
0
 62
     0
100
AcDbLine
 10
125.185971074083
 20
53.6
 30
0.0
 11
128.1500970602946
 21
53.6
 31
0.0
  0
LINE
  5
100
330
32
100
AcDbEntity
  8
0
 62
     0
100
AcDbLine
 10
125.1720853302535
 20
53.7
 30
0.0
 11
128.1500970602946
 21
53.7
 31
0.0
  0
LINE
  5
101
330
32
100
AcDbEntity
  8
0
 62
     0
100
AcDbLine
 10
125.1616083341339
 20
53.8
 30
0.0
 11
128.1500970602946
 21
53.8
 31
0.0
  0
LINE
  5
102
330
32
100
AcDbEntity
  8
0
 62
     0
100
AcDbLine
 10
125.1545043195307
 20
53.9
 30
0.0
 11
128.1500970602946
 21
53.9
 31
0.0
  0
LINE
  5
103
330
32
100
AcDbEntity
  8
0
 62
     0
100
AcDbLine
 10
125.1507493194275
 20
54.0
 30
0.0
 11
128.1500970602946
 21
54.0
 31
0.0
  0
LINE
  5
104
330
32
100
AcDbEntity
  8
0
 62
     0
100
AcDbLine
 10
125.1503307572683
 20
54.1
 30
0.0
 11
128.0614196047541
 21
54.1
 31
0.0
  0
LINE
  5
105
330
32
100
AcDbEntity
  8
0
 62
     0
100
AcDbLine
 10
125.1532472350783
 20
54.2
 30
0.0
 11
125.6918955747805
 21
54.2
 31
0.0
  0
LINE
  5
106
330
32
100
AcDbEntity
  8
0
 62
     0
100
AcDbLine
 10
125.58915546808
 20
52.5
 30
0.0
 11
128.1500970602946
 21
52.5
 31
0.0
  0
LINE
  5
107
330
32
100
AcDbEntity
  8
0
 62
     0
100
AcDbLine
 10
125.6529164828018
 20
52.40000000000001
 30
0.0
 11
128.1500970602946
 21
52.40000000000001
 31
0.0
  0
LINE
  5
108
330
32
100
AcDbEntity
  8
0
 62
     0
100
AcDbLine
 10
125.7224645027439
 20
52.3
 30
0.0
 11
128.1500970602946
 21
52.3
 31
0.0
  0
LINE
  5
109
330
32
100
AcDbEntity
  8
0
 62
     0
100
AcDbLine
 10
125.7983128796452
 20
52.2
 30
0.0
 11
128.1500970602946
 21
52.2
 31
0.0
  0
LINE
  5
10A
330
32
100
AcDbEntity
  8
0
 62
     0
100
AcDbLine
 10
125.8810933515657
 20
52.1
 30
0.0
 11
128.1500970602946
 21
52.1
 31
0.0
  0
LINE
  5
10B
330
32
100
AcDbEntity
  8
0
 62
     0
100
AcDbLine
 10
125.9715960095493
 20
52.0
 30
0.0
 11
128.1500970602946
 21
52.0
 31
0.0
  0
LINE
  5
10C
330
32
100
AcDbEntity
  8
0
 62
     0
100
AcDbLine
 10
126.0708289616669
 20
51.90000000000001
 30
0.0
 11
128.1500970602946
 21
51.90000000000001
 31
0.0
  0
LINE
  5
10D
330
32
100
AcDbEntity
  8
0
 62
     0
100
AcDbLine
 10
126.180111064445
 20
51.8
 30
0.0
 11
128.1500970602946
 21
51.8
 31
0.0
  0
LINE
  5
10E
330
32
100
AcDbEntity
  8
0
 62
     0
100
AcDbLine
 10
126.3012233972997
 20
51.7
 30
0.0
 11
128.1500970602946
 21
51.7
 31
0.0
  0
LINE
  5
10F
330
32
100
AcDbEntity
  8
0
 62
     0
100
AcDbLine
 10
126.4366727638668
 20
51.6
 30
0.0
 11
128.1500970602946
 21
51.6
 31
0.0
  0
LINE
  5
110
330
32
100
AcDbEntity
  8
0
 62
     0
100
AcDbLine
 10
126.5901894292274
 20
51.5
 30
0.0
 11
128.1500970602946
 21
51.5
 31
0.0
  0
LINE
  5
111
330
32
100
AcDbEntity
  8
0
 62
     0
100
AcDbLine
 10
126.7677798697286
 20
51.4
 30
0.0
 11
128.1500970602946
 21
51.4
 31
0.0
  0
LINE
  5
112
330
32
100
AcDbEntity
  8
0
 62
     0
100
AcDbLine
 10
126.9803578529467
 20
51.3
 30
0.0
 11
128.1500970602946
 21
51.3
 31
0.0
  0
LINE
  5
113
330
32
100
AcDbEntity
  8
0
 62
     0
100
AcDbLine
 10
127.2524452285248
 20
51.2
 30
0.0
 11
128.1500970602946
 21
51.2
 31
0.0
  0
LINE
  5
114
330
32
100
AcDbEntity
  8
0
 62
     0
100
AcDbLine
 10
127.6775848287573
 20
51.1
 30
0.0
 11
128.1500970602946
 21
51.1
 31
0.0
  0
ENDBLK
  5
115
330
32
100
AcDbEntity
  8
0
100
AcDbBlockEnd
  0
BLOCK
  5
3CF
330
3C5
100
AcDbEntity
  8
0
100
AcDbBlockBegin
  2
*D4
 70
     1
 10
0.0
 20
0.0
 30
0.0
  3
*D4
  1

  0
LINE
  5
44A
330
3C5
100
AcDbEntity
  8
BEM
 62
     0
370
    -2
100
AcDbLine
 10
314.5149826755623
 20
163.7805703622039
 30
0.0
 11
302.227944980162
 21
163.7805703622039
 31
0.0
  0
LINE
  5
44B
330
3C5
100
AcDbEntity
  8
BEM
 62
     0
370
    -2
100
AcDbLine
 10
314.5149826755623
 20
183.7805703622039
 30
0.0
 11
302.227944980162
 21
183.7805703622039
 31
0.0
  0
LINE
  5
44C
330
3C5
100
AcDbEntity
  8
BEM
 62
     0
370
    -2
100
AcDbLine
 10
303.227944980162
 20
167.2805703622039
 30
0.0
 11
303.227944980162
 21
180.2805703622039
 31
0.0
  0
SOLID
  5
44D
330
3C5
100
AcDbEntity
  8
BEM
 62
     0
100
AcDbTrace
 10
302.6446116468287
 20
167.2805703622039
 30
0.0
 11
303.8112783134953
 21
167.2805703622039
 31
0.0
 12
303.227944980162
 22
163.7805703622039
 32
0.0
 13
303.227944980162
 23
163.7805703622039
 33
0.0
  0
SOLID
  5
44E
330
3C5
100
AcDbEntity
  8
BEM
 62
     0
100
AcDbTrace
 10
302.6446116468287
 20
180.2805703622039
 30
0.0
 11
303.8112783134953
 21
180.2805703622039
 31
0.0
 12
303.227944980162
 22
183.7805703622039
 32
0.0
 13
303.227944980162
 23
183.7805703622039
 33
0.0
  0
MTEXT
  5
44F
330
3C5
100
AcDbEntity
  8
BEM
 62
     1
100
AcDbMText
 10
299.977944980162
 20
173.7805703622039
 30
0.0
 40
3.5
 41
0.0
 71
     5
 72
     1
  1
\A1;20
  7
GREEKS
 11
0.0000000000000001
 21
1.0
 31
0.0
 73
     1
 44
1.0
  0
POINT
  5
450
330
3C5
100
AcDbEntity
  8
DEFPOINTS
 62
     0
100
AcDbPoint
 10
315.5149826755623
 20
163.7805703622039
 30
0.0
  0
POINT
  5
451
330
3C5
100
AcDbEntity
  8
DEFPOINTS
 62
     0
100
AcDbPoint
 10
315.5149826755623
 20
183.7805703622039
 30
0.0
  0
POINT
  5
452
330
3C5
100
AcDbEntity
  8
DEFPOINTS
 62
     0
100
AcDbPoint
 10
303.227944980162
 20
183.7805703622039
 30
0.0
  0
ENDBLK
  5
3D0
330
3C5
100
AcDbEntity
  8
0
100
AcDbBlockEnd
  0
BLOCK
  5
3EF
330
3E5
100
AcDbEntity
  8
0
100
AcDbBlockBegin
  2
*D5
 70
     1
 10
0.0
 20
0.0
 30
0.0
  3
*D5
  1

  0
LINE
  5
3F2
330
3E5
100
AcDbEntity
  8
BEM
 62
     0
370
    -2
100
AcDbLine
 10
264.3672851132947
 20
157.7805703622038
 30
0.0
 11
264.3672851132947
 21
142.1782259311924
 31
0.0
  0
LINE
  5
3F3
330
3E5
100
AcDbEntity
  8
BEM
 62
     0
370
    -2
100
AcDbLine
 10
381.8672851132946
 20
202.7805703622039
 30
0.0
 11
381.8672851132946
 21
142.1782259311924
 31
0.0
  0
LINE
  5
3F4
330
3E5
100
AcDbEntity
  8
BEM
 62
     0
370
    -2
100
AcDbLine
 10
267.8672851132946
 20
143.1782259311924
 30
0.0
 11
378.3672851132946
 21
143.1782259311924
 31
0.0
  0
SOLID
  5
3F5
330
3E5
100
AcDbEntity
  8
BEM
 62
     0
100
AcDbTrace
 10
267.8672851132946
 20
143.7615592645257
 30
0.0
 11
267.8672851132946
 21
142.594892597859
 31
0.0
 12
264.3672851132947
 22
143.1782259311924
 32
0.0
 13
264.3672851132947
 23
143.1782259311924
 33
0.0
  0
SOLID
  5
3F6
330
3E5
100
AcDbEntity
  8
BEM
 62
     0
100
AcDbTrace
 10
378.3672851132946
 20
143.7615592645257
 30
0.0
 11
378.3672851132946
 21
142.594892597859
 31
0.0
 12
381.8672851132946
 22
143.1782259311924
 32
0.0
 13
381.8672851132946
 23
143.1782259311924
 33
0.0
  0
MTEXT
  5
3F7
330
3E5
100
AcDbEntity
  8
BEM
 62
     1
100
AcDbMText
 10
323.1172851132947
 20
146.4282259311924
 30
0.0
 40
3.5
 41
0.0
 71
     5
 72
     1
  1
\A1;117.5
  7
GREEKS
 73
     1
 44
1.0
  0
POINT
  5
3F8
330
3E5
100
AcDbEntity
  8
DEFPOINTS
 62
     0
100
AcDbPoint
 10
264.3672851132947
 20
158.7805703622038
 30
0.0
  0
POINT
  5
3F9
330
3E5
100
AcDbEntity
  8
DEFPOINTS
 62
     0
100
AcDbPoint
 10
381.8672851132946
 20
203.7805703622038
 30
0.0
  0
POINT
  5
3FA
330
3E5
100
AcDbEntity
  8
DEFPOINTS
 62
     0
100
AcDbPoint
 10
381.8672851132946
 20
143.1782259311924
 30
0.0
  0
ENDBLK
  5
3F0
330
3E5
100
AcDbEntity
  8
0
100
AcDbBlockEnd
  0
BLOCK
  5
406
330
3FC
100
AcDbEntity
  8
0
100
AcDbBlockBegin
  2
*D6
 70
     1
 10
0.0
 20
0.0
 30
0.0
  3
*D6
  1

  0
LINE
  5
3FD
330
3FC
100
AcDbEntity
  8
BEM
 62
     0
370
    -2
100
AcDbLine
 10
368.0824647057677
 20
259.7805703622039
 30
0.0
 11
392.4739952404971
 21
259.7805703622039
 31
0.0
  0
LINE
  5
3FE
330
3FC
100
AcDbEntity
  8
BEM
 62
     0
370
    -2
100
AcDbLine
 10
368.2348499020911
 20
163.7805703622037
 30
0.0
 11
392.4739952404971
 21
163.7805703622037
 31
0.0
  0
LINE
  5
3FF
330
3FC
100
AcDbEntity
  8
BEM
 62
     0
370
    -2
100
AcDbLine
 10
391.4739952404971
 20
256.2805703622039
 30
0.0
 11
391.4739952404971
 21
167.2805703622038
 31
0.0
  0
SOLID
  5
400
330
3FC
100
AcDbEntity
  8
BEM
 62
     0
100
AcDbTrace
 10
390.8906619071638
 20
256.2805703622039
 30
0.0
 11
392.0573285738304
 21
256.2805703622039
 31
0.0
 12
391.4739952404971
 22
259.7805703622039
 32
0.0
 13
391.4739952404971
 23
259.7805703622039
 33
0.0
  0
SOLID
  5
401
330
3FC
100
AcDbEntity
  8
BEM
 62
     0
100
AcDbTrace
 10
390.8906619071638
 20
167.2805703622038
 30
0.0
 11
392.0573285738304
 21
167.2805703622038
 31
0.0
 12
391.4739952404971
 22
163.7805703622037
 32
0.0
 13
391.4739952404971
 23
163.7805703622037
 33
0.0
  0
MTEXT
  5
402
330
3FC
100
AcDbEntity
  8
BEM
 62
     1
100
AcDbMText
 10
388.2239952404971
 20
211.7805703622039
 30
0.0
 40
3.5
 41
0.0
 71
     5
 72
     1
  1
\A1;96
  7
GREEKS
 11
0.0000000000000001
 21
1.0
 31
0.0
 73
     1
 44
1.0
  0
POINT
  5
403
330
3FC
100
AcDbEntity
  8
DEFPOINTS
 62
     0
100
AcDbPoint
 10
367.0824647057677
 20
259.7805703622039
 30
0.0
  0
POINT
  5
404
330
3FC
100
AcDbEntity
  8
DEFPOINTS
 62
     0
100
AcDbPoint
 10
367.2348499020911
 20
163.7805703622037
 30
0.0
  0
POINT
  5
405
330
3FC
100
AcDbEntity
  8
DEFPOINTS
 62
     0
100
AcDbPoint
 10
391.4739952404971
 20
163.7805703622037
 30
0.0
  0
ENDBLK
  5
407
330
3FC
100
AcDbEntity
  8
0
100
AcDbBlockEnd
  0
BLOCK
  5
413
330
409
100
AcDbEntity
  8
0
100
AcDbBlockBegin
  2
*D7
 70
     1
 10
0.0
 20
0.0
 30
0.0
  3
*D7
  1

  0
LINE
  5
441
330
409
100
AcDbEntity
  8
BEM
 62
     0
370
    -2
100
AcDbLine
 10
314.5149826755623
 20
183.7805703622039
 30
0.0
 11
302.227944980162
 21
183.7805703622039
 31
0.0
  0
LINE
  5
442
330
409
100
AcDbEntity
  8
BEM
 62
     0
370
    -2
100
AcDbLine
 10
312.5149826755623
 20
239.780570362204
 30
0.0
 11
302.227944980162
 21
239.780570362204
 31
0.0
  0
LINE
  5
443
330
409
100
AcDbEntity
  8
BEM
 62
     0
370
    -2
100
AcDbLine
 10
303.227944980162
 20
187.2805703622039
 30
0.0
 11
303.227944980162
 21
236.280570362204
 31
0.0
  0
SOLID
  5
444
330
409
100
AcDbEntity
  8
BEM
 62
     0
100
AcDbTrace
 10
302.6446116468287
 20
187.2805703622039
 30
0.0
 11
303.8112783134953
 21
187.2805703622039
 31
0.0
 12
303.227944980162
 22
183.7805703622039
 32
0.0
 13
303.227944980162
 23
183.7805703622039
 33
0.0
  0
SOLID
  5
445
330
409
100
AcDbEntity
  8
BEM
 62
     0
100
AcDbTrace
 10
302.6446116468287
 20
236.280570362204
 30
0.0
 11
303.8112783134953
 21
236.280570362204
 31
0.0
 12
303.227944980162
 22
239.780570362204
 32
0.0
 13
303.227944980162
 23
239.780570362204
 33
0.0
  0
MTEXT
  5
446
330
409
100
AcDbEntity
  8
BEM
 62
     1
100
AcDbMText
 10
299.977944980162
 20
211.780570362204
 30
0.0
 40
3.5
 41
0.0
 71
     5
 72
     1
  1
\A1;56
  7
GREEKS
 11
0.0000000000000001
 21
1.0
 31
0.0
 73
     1
 44
1.0
  0
POINT
  5
447
330
409
100
AcDbEntity
  8
DEFPOINTS
 62
     0
100
AcDbPoint
 10
315.5149826755623
 20
183.7805703622039
 30
0.0
  0
POINT
  5
448
330
409
100
AcDbEntity
  8
DEFPOINTS
 62
     0
100
AcDbPoint
 10
313.5149826755623
 20
239.780570362204
 30
0.0
  0
POINT
  5
449
330
409
100
AcDbEntity
  8
DEFPOINTS
 62
     0
100
AcDbPoint
 10
303.227944980162
 20
239.780570362204
 30
0.0
  0
ENDBLK
  5
414
330
409
100
AcDbEntity
  8
0
100
AcDbBlockEnd
  0
BLOCK
  5
42B
330
421
100
AcDbEntity
  8
0
100
AcDbBlockBegin
  2
*D8
 70
     1
 10
0.0
 20
0.0
 30
0.0
  3
*D8
  1

  0
LINE
  5
438
330
421
100
AcDbEntity
  8
BEM
 62
     0
370
    -2
100
AcDbLine
 10
312.5149826755623
 20
239.780570362204
 30
0.0
 11
302.227944980162
 21
239.780570362204
 31
0.0
  0
LINE
  5
439
330
421
100
AcDbEntity
  8
BEM
 62
     0
370
    -2
100
AcDbLine
 10
312.5149826755621
 20
259.7805703622039
 30
0.0
 11
302.227944980162
 21
259.7805703622039
 31
0.0
  0
LINE
  5
43A
330
421
100
AcDbEntity
  8
BEM
 62
     0
370
    -2
100
AcDbLine
 10
303.227944980162
 20
243.2805703622039
 30
0.0
 11
303.227944980162
 21
256.2805703622039
 31
0.0
  0
SOLID
  5
43B
330
421
100
AcDbEntity
  8
BEM
 62
     0
100
AcDbTrace
 10
302.6446116468287
 20
243.2805703622039
 30
0.0
 11
303.8112783134953
 21
243.2805703622039
 31
0.0
 12
303.227944980162
 22
239.780570362204
 32
0.0
 13
303.227944980162
 23
239.780570362204
 33
0.0
  0
SOLID
  5
43C
330
421
100
AcDbEntity
  8
BEM
 62
     0
100
AcDbTrace
 10
302.6446116468287
 20
256.2805703622039
 30
0.0
 11
303.8112783134953
 21
256.2805703622039
 31
0.0
 12
303.227944980162
 22
259.7805703622039
 32
0.0
 13
303.227944980162
 23
259.7805703622039
 33
0.0
  0
MTEXT
  5
43D
330
421
100
AcDbEntity
  8
BEM
 62
     1
100
AcDbMText
 10
299.977944980162
 20
249.780570362204
 30
0.0
 40
3.5
 41
0.0
 71
     5
 72
     1
  1
\A1;20
  7
GREEKS
 11
0.0000000000000001
 21
1.0
 31
0.0
 73
     1
 44
1.0
  0
POINT
  5
43E
330
421
100
AcDbEntity
  8
DEFPOINTS
 62
     0
100
AcDbPoint
 10
313.5149826755623
 20
239.780570362204
 30
0.0
  0
POINT
  5
43F
330
421
100
AcDbEntity
  8
DEFPOINTS
 62
     0
100
AcDbPoint
 10
313.5149826755621
 20
259.7805703622039
 30
0.0
  0
POINT
  5
440
330
421
100
AcDbEntity
  8
DEFPOINTS
 62
     0
100
AcDbPoint
 10
303.227944980162
 20
259.7805703622039
 30
0.0
  0
ENDBLK
  5
42C
330
421
100
AcDbEntity
  8
0
100
AcDbBlockEnd
  0
ENDSEC
  0
SECTION
  2
ENTITIES
  0
LINE
  5
18F
330
20
100
AcDbEntity
  8
STEMPEL
100
AcDbLine
 10
415.0
 20
55.00000000000003
 30
0.0
 11
235.0
 21
55.0
 31
0.0
  0
LINE
  5
190
330
20
100
AcDbEntity
  8
STEMPEL
100
AcDbLine
 10
283.0
 20
54.99999999999997
 30
0.0
 11
283.0
 21
4.999999999999985
 31
0.0
  0
LINE
  5
191
330
20
100
AcDbEntity
  8
STEMPEL
100
AcDbLine
 10
325.0
 20
55.00000000000003
 30
0.0
 11
325.0
 21
4.999999999999985
 31
0.0
  0
LINE
  5
192
330
20
100
AcDbEntity
  8
STEMPEL
100
AcDbLine
 10
376.0
 20
54.99999999999989
 30
0.0
 11
376.0
 21
20.0
 31
0.0
  0
LINE
  5
193
330
20
100
AcDbEntity
  8
STEMPEL
100
AcDbLine
 10
283.0
 20
14.99999999999998
 30
0.0
 11
235.0
 21
14.99999999999998
 31
0.0
  0
LINE
  5
194
330
20
100
AcDbEntity
  8
STEMPEL
100
AcDbLine
 10
415.0
 20
20.0
 30
0.0
 11
283.0
 21
19.99999999999998
 31
0.0
  0
LINE
  5
195
330
20
100
AcDbEntity
  8
STEMPEL
100
AcDbLine
 10
415.0
 20
40.0
 30
0.0
 11
283.0
 21
39.99999999999997
 31
0.0
  0
LINE
  5
196
330
20
100
AcDbEntity
  8
VOLL
100
AcDbLine
 10
242.0000000000001
 20
55.00000000000003
 30
0.0
 11
242.0
 21
4.999999999999985
 31
0.0
  0
LINE
  5
197
330
20
100
AcDbEntity
  8
VOLL
100
AcDbLine
 10
262.0
 20
54.99999999999997
 30
0.0
 11
262.0
 21
4.999999999999985
 31
0.0
  0
LINE
  5
198
330
20
100
AcDbEntity
  8
VOLL
100
AcDbLine
 10
272.0000000000001
 20
54.99999999999997
 30
0.0
 11
272.0
 21
4.999999999999985
 31
0.0
  0
LINE
  5
199
330
20
100
AcDbEntity
  8
VOLL
100
AcDbLine
 10
292.0000000000001
 20
39.99999999999997
 30
0.0
 11
292.0000000000001
 21
19.99999999999998
 31
0.0
  0
LINE
  5
19A
330
20
100
AcDbEntity
  8
VOLL
100
AcDbLine
 10
305.0000000000001
 20
54.99999999999992
 30
0.0
 11
305.0
 21
19.99999999999998
 31
0.0
  0
LINE
  5
19B
330
20
100
AcDbEntity
  8
HILF
100
AcDbLine
 10
235.0
 20
50.00000000000003
 30
0.0
 11
283.0
 21
50.00000000000003
 31
0.0
  0
LINE
  5
19C
330
20
100
AcDbEntity
  8
HILF
100
AcDbLine
 10
235.0
 20
45.00000000000002
 30
0.0
 11
283.0
 21
45.00000000000002
 31
0.0
  0
LINE
  5
19D
330
20
100
AcDbEntity
  8
HILF
100
AcDbLine
 10
235.0
 20
39.99999999999997
 30
0.0
 11
283.0
 21
39.99999999999997
 31
0.0
  0
LINE
  5
19E
330
20
100
AcDbEntity
  8
HILF
100
AcDbLine
 10
235.0
 20
34.99999999999997
 30
0.0
 11
283.0
 21
34.99999999999997
 31
0.0
  0
LINE
  5
19F
330
20
100
AcDbEntity
  8
HILF
100
AcDbLine
 10
235.0
 20
29.99999999999999
 30
0.0
 11
283.0
 21
29.99999999999999
 31
0.0
  0
LINE
  5
1A0
330
20
100
AcDbEntity
  8
HILF
100
AcDbLine
 10
235.0
 20
24.99999999999999
 30
0.0
 11
283.0
 21
24.99999999999999
 31
0.0
  0
LINE
  5
1A1
330
20
100
AcDbEntity
  8
HILF
100
AcDbLine
 10
235.0
 20
19.99999999999998
 30
0.0
 11
283.0
 21
19.99999999999998
 31
0.0
  0
LINE
  5
1A2
330
20
100
AcDbEntity
  8
HILF
100
AcDbLine
 10
283.0
 20
34.99999999999997
 30
0.0
 11
325.0
 21
34.99999999999997
 31
0.0
  0
LINE
  5
1A3
330
20
100
AcDbEntity
  8
HILF
100
AcDbLine
 10
283.0
 20
29.99999999999999
 30
0.0
 11
325.0
 21
29.99999999999999
 31
0.0
  0
LINE
  5
1A4
330
20
100
AcDbEntity
  8
HILF
100
AcDbLine
 10
283.0
 20
24.99999999999999
 30
0.0
 11
325.0
 21
24.99999999999999
 31
0.0
  0
LINE
  5
1A5
330
20
100
AcDbEntity
  8
HILF
100
AcDbLine
 10
327.3868400548474
 20
42.01879123782069
 30
0.0
 11
372.4176958278155
 21
42.01879123782069
 31
0.0
  0
LINE
  5
1A6
330
20
100
AcDbEntity
  8
HILF
100
AcDbLine
 10
327.3868400548474
 20
34.99999999999997
 30
0.0
 11
372.4176958278154
 21
34.99999999999997
 31
0.0
  0
LINE
  5
1A7
330
20
100
AcDbEntity
  8
HILF
100
AcDbLine
 10
327.3868400548474
 20
29.99999999999999
 30
0.0
 11
372.4176958278154
 21
29.99999999999999
 31
0.0
  0
LINE
  5
1A8
330
20
100
AcDbEntity
  8
HILF
100
AcDbLine
 10
327.3868400548474
 20
24.99999999999999
 30
0.0
 11
372.4176958278154
 21
24.99999999999999
 31
0.0
  0
LINE
  5
1A9
330
20
100
AcDbEntity
  8
VOLL
100
AcDbLine
 10
376.0
 20
30.0
 30
0.0
 11
415.0
 21
30.0
 31
0.0
  0
LINE
  5
1AA
330
20
100
AcDbEntity
  8
HILF
100
AcDbLine
 10
378.3619308148496
 20
41.88991818477913
 30
0.0
 11
412.4294419663364
 21
41.88991818477913
 31
0.0
  0
LINE
  5
1AB
330
20
100
AcDbEntity
  8
HILF
100
AcDbLine
 10
326.7454849644943
 20
7.446991290141568
 30
0.0
 11
412.4294419663364
 21
7.446991290141568
 31
0.0
  0
TEXT
  5
1AC
330
20
100
AcDbEntity
  8
TEXT
100
AcDbText
 10
246.3694605284834
 20
9.423504069047723
 30
0.0
 40
2.0
  1
Änderung
 41
0.8
  7
GREEKS
 72
     1
 11
251.7408890999119
 21
9.423504069047723
 31
0.0
100
AcDbText
  0
TEXT
  5
1AD
330
20
100
AcDbEntity
  8
TEXT
100
AcDbText
 10
286.7581786075188
 20
51.23104475435443
 30
0.0
 40
2.5
  1
Maßstab
 41
0.8
  7
GREEKS
100
AcDbText
  0
TEXT
  5
1AE
330
20
100
AcDbEntity
  8
TEXT
100
AcDbText
 10
307.1429477367026
 20
51.20920842174095
 30
0.0
 40
2.5
  1
Zul. Abw.
 41
0.8
  7
GREEKS
100
AcDbText
  0
TEXT
  5
1AF
330
20
100
AcDbEntity
  8
TEXT
100
AcDbText
 10
327.4389701904505
 20
51.27446640058898
 30
0.0
 40
2.5
  1
Benennung
 41
0.8
  7
GREEKS
100
AcDbText
  0
TEXT
  5
1B0
330
20
100
AcDbEntity
  8
TEXT
100
AcDbText
 10
378.089377478817
 20
51.15660172685682
 30
0.0
 40
2.5
  1
Zeichnungs Nr.
 41
0.8
  7
GREEKS
100
AcDbText
  0
TEXT
  5
1B1
330
20
100
AcDbEntity
  8
TEXT
100
AcDbText
 10
327.371119195568
 20
15.42280285096528
 30
0.0
 40
2.5
  1
Bauvorhaben
 41
0.8
  7
GREEKS
100
AcDbText
  0
TEXT
  5
1B2
330
20
100
AcDbEntity
  8
TEXT
100
AcDbText
 10
378.3619308148496
 20
36.59059118549985
 30
0.0
 40
2.5
  1
Ersatz für:
 41
0.8
  7
GREEKS
100
AcDbText
  0
TEXT
  5
1B3
330
20
100
AcDbEntity
  8
TEXT
100
AcDbText
 10
239.1332055352288
 20
6.827329230135958
 30
0.0
 40
2.0
  1
Index
 50
90.0
 41
0.8
  7
GREEKS
100
AcDbText
  0
TEXT
  5
1B4
330
20
100
AcDbEntity
  8
TEXT
100
AcDbText
 10
264.9493394838597
 20
9.422375940826114
 30
0.0
 40
2.0
  1
Tag
 41
0.8
  7
GREEKS
 72
     1
 11
266.8160061505264
 21
9.422375940826114
 31
0.0
100
AcDbText
  0
TEXT
  5
1B5
330
20
100
AcDbEntity
  8
TEXT
100
AcDbText
 10
274.5878717501451
 20
9.383215678959103
 30
0.0
 40
2.0
  1
Name
 41
0.8
  7
GREEKS
 72
     1
 11
277.7497765120499
 21
9.383215678959103
 31
0.0
100
AcDbText
  0
TEXT
  5
1B6
330
20
100
AcDbEntity
  8
TEXT
100
AcDbText
 10
296.1655836576825
 20
36.65940250614963
 30
0.0
 40
2.0
  1
Tag
 41
0.8
  7
GREEKS
100
AcDbText
  0
TEXT
  5
1B7
330
20
100
AcDbEntity
  8
TEXT
100
AcDbText
 10
311.2313292113147
 20
36.65480545957612
 30
0.0
 40
2.0
  1
Name
 41
0.8
  7
GREEKS
100
AcDbText
  0
TEXT
  5
1B8
330
20
100
AcDbEntity
  8
TEXT
100
AcDbText
 10
283.7918063583808
 20
31.81495184808982
 30
0.0
 40
2.0
  1
Gez.
 41
0.8
  7
GREEKS
100
AcDbText
  0
TEXT
  5
1B9
330
20
100
AcDbEntity
  8
TEXT
100
AcDbText
 10
283.7757543285836
 20
26.84463145714189
 30
0.0
 40
2.0
  1
Gepr.
 41
0.8
  7
GREEKS
100
AcDbText
  0
TEXT
  5
1BA
330
20
100
AcDbEntity
  8
TEXT
100
AcDbText
 10
283.8003388693652
 20
21.76473194824904
 30
0.0
 40
2.0
  1
Norm.
 41
0.8
  7
GREEKS
100
AcDbText
  0
LINE
  5
1BB
330
20
100
AcDbEntity
  8
STEMPEL
100
AcDbLine
 10
239.9999999999999
 20
5.0
 30
0.0
 11
415.0
 21
5.0
 31
0.0
  0
TEXT
  5
1BC
330
20
100
AcDbEntity
  8
TEXT
100
AcDbText
 10
378.6200430748503
 20
26.03708088939301
 30
0.0
 40
2.5
  1
ersetzt durch:
 41
0.8
  7
GREEKS
100
AcDbText
  0
LINE
  5
1BD
330
20
100
AcDbEntity
  8
STEMPEL
100
AcDbLine
 10
415.0
 20
5.0
 30
0.0
 11
20.0
 21
5.0
 31
0.0
  0
LINE
  5
1BE
330
20
100
AcDbEntity
  8
STEMPEL
100
AcDbLine
 10
415.0
 20
5.0
 30
0.0
 11
415.0
 21
292.0
 31
0.0
  0
LINE
  5
1BF
330
20
100
AcDbEntity
  8
STEMPEL
100
AcDbLine
 10
235.0
 20
5.0
 30
0.0
 11
235.0
 21
55.0
 31
0.0
  0
LINE
  5
1C0
330
20
100
AcDbEntity
  8
STEMPEL
100
AcDbLine
 10
415.0
 20
292.0
 30
0.0
 11
19.99999999999994
 21
292.0
 31
0.0
  0
LINE
  5
1C1
330
20
100
AcDbEntity
  8
HILF
100
AcDbLine
 10
419.9999999999999
 20
297.0000000000001
 30
0.0
 11
-0.0000000000000853
 21
296.9999999999999
 31
0.0
  0
LINE
  5
1C2
330
20
100
AcDbEntity
  8
HILF
100
AcDbLine
 10
420.0
 20
0.0
 30
0.0
 11
0.0
 21
0.0
 31
0.0
  0
LINE
  5
1C3
330
20
100
AcDbEntity
  8
HILF
100
AcDbLine
 10
15.54383567856925
 20
148.4999999999999
 30
0.0
 11
0.0000000000000284
 21
148.4999999999999
 31
0.0
  0
TEXT
  5
1C4
330
20
100
AcDbEntity
  8
TEXT
100
AcDbText
 10
284.311054911052
 20
36.57012735575833
 30
0.0
 40
2.0
  1
2007
 41
0.8
  7
GREEKS
100
AcDbText
  0
LINE
  5
1C5
330
20
100
AcDbEntity
  8
HILF
100
AcDbLine
 10
420.0
 20
-0.0000000000000568
 30
0.0
 11
419.9999999999999
 21
297.0
 31
0.0
  0
TEXT
  5
1C6
330
20
100
AcDbEntity
  8
VOLL
100
AcDbText
 10
78.07675471698113
 20
31.02594776470585
 30
0.0
 40
1.8
  1

  7
GREEKS
100
AcDbText
  0
TEXT
  5
1C7
330
20
100
AcDbEntity
  8
TEXT
100
AcDbText
 10
235.9275497548884
 20
55.83599999999997
 30
0.0
 40
2.5
  1
Erstellt mit AUTOCAD 2004
 41
0.8
  7
GREEKS
100
AcDbText
  0
TEXT
  5
1C8
330
20
100
AcDbEntity
  8
TEXT
100
AcDbText
 10
312.2108024290629
 20
31.54481959861755
 30
0.0
 40
2.0
  1
Koeh
 41
0.8
  7
GREEKS
 72
     1
 11
314.8393738576343
 21
31.54481959861755
 31
0.0
100
AcDbText
  0
TEXT
  5
1C9
330
20
100
AcDbEntity
  8
TEXT
 62
     1
100
AcDbText
 10
383.6626566817717
 20
44.07450714456979
 30
0.0
 40
3.5
  1
00808150W
 41
0.8
  7
GREEKS
 72
     1
 11
395.395990015105
 21
44.07450714456979
 31
0.0
100
AcDbText
  0
TEXT
  5
1CA
330
20
100
AcDbEntity
  8
TEXT
 62
     1
100
AcDbText
 10
290.2503153240943
 20
44.07450714456979
 30
0.0
 40
3.5
  1
1:1
 41
0.8
  7
GREEKS
100
AcDbText
  0
TEXT
  5
1CB
330
20
100
AcDbEntity
  8
TEXT
100
AcDbText
 10
295.1994985541181
 20
31.55382520412866
 30
0.0
 40
2.0
  1
04.09.
 41
0.8
  7
GREEKS
 72
     1
 11
298.70426045888
 21
31.55382520412866
 31
0.0
100
AcDbText
  0
TEXT
  5
1CC
330
20
100
AcDbEntity
  8
TEXT
 62
     1
100
AcDbText
 10
327.3190664645448
 20
43.70874394626889
 30
0.0
 40
3.5
  1
Sicherungsbügel DN150
 41
0.75
  7
GREEKS
100
AcDbText
  0
TEXT
  5
1CD
330
20
100
AcDbEntity
  8
TEXT
100
AcDbText
 10
327.5648195562658
 20
35.75167208792644
 30
0.0
 40
2.5
  1
mit CV-Kralle
 41
0.8
  7
GREEKS
100
AcDbText
  0
TEXT
  5
1CE
330
20
100
AcDbEntity
  8
TEXT
100
AcDbText
 10
327.5648195562658
 20
25.82005971521079
 30
0.0
 40
2.5
  1
EDV-Art.Nr. 00808.150X
 41
0.8
  7
GREEKS
100
AcDbText
  0
TEXT
  5
1CF
330
20
100
AcDbEntity
  8
TEXT
100
AcDbText
 10
327.4918750788913
 20
21.31487076511316
 30
0.0
 40
2.0
  1
00808150W.DWG
 41
0.8
  7
GREEKS
100
AcDbText
  0
TEXT
  5
1D0
330
20
100
AcDbEntity
  8
TEXT
100
AcDbText
 10
306.313066104042
 20
45.38181920511511
 30
0.0
 40
2.0
  1
DIN EN1123-2
 41
0.8
  7
GREEKS
 72
     1
 11
314.8083041992801
 21
45.38181920511511
 31
0.0
100
AcDbText
  0
INSERT
  5
1D1
330
20
100
AcDbEntity
  8
STEMPEL
100
AcDbBlockReference
  2
LOGO
 10
285.4977742728897
 20
22.51052638224161
 30
0.0
  0
LINE
  5
1D3
330
20
100
AcDbEntity
  8
HILF
100
AcDbLine
 10
0.0
 20
0.0
 30
0.0
 11
-0.0000000000000853
 21
296.9999999999999
 31
0.0
  0
LINE
  5
1D4
330
20
100
AcDbEntity
  8
STEMPEL
100
AcDbLine
 10
20.0
 20
5.0
 30
0.0
 11
19.99999999999994
 21
292.0
 31
0.0
  0
LINE
  5
1D5
330
20
100
AcDbEntity
  8
HILF
 62
     7
100
AcDbLine
 10
230.0
 20
-0.0000000000001412
 30
0.0
 11
230.0
 21
5.0
 31
0.0
  0
LINE
  5
1D6
330
20
100
AcDbEntity
  8
HILF
 62
     7
100
AcDbLine
 10
229.9999999999999
 20
292.0
 30
0.0
 11
229.9999999999999
 21
296.9999999999999
 31
0.0
  0
LINE
  5
1D7
330
20
100
AcDbEntity
  8
MITTEL
100
AcDbLine
 10
130.6500970602946
 20
143.5625550106365
 30
0.0
 11
130.6500970602946
 21
115.0937233928954
 31
0.0
  0
LINE
  5
1D8
330
20
100
AcDbEntity
  8
MITTEL
100
AcDbLine
 10
225.1500970602946
 20
143.5625550106365
 30
0.0
 11
36.15009706029463
 21
143.5625550106365
 31
0.0
  0
LINE
  5
1D9
330
20
100
AcDbEntity
  8
MITTEL
100
AcDbLine
 10
130.6500970602946
 20
143.5625550106365
 30
0.0
 11
233.9796002910397
 21
83.90523850513563
 31
0.0
  0
LINE
  5
1DA
330
20
100
AcDbEntity
  8
STEMPEL
100
AcDbLine
 10
210.3289651964287
 20
92.94113688999777
 30
0.0
 11
227.6494732721175
 21
82.94113688999777
 31
0.0
  0
LINE
  5
1DB
330
20
100
AcDbEntity
  8
STEMPEL
100
AcDbLine
 10
207.8289651964287
 20
88.6110098710756
 30
0.0
 11
225.1494732721175
 21
78.61100987107559
 31
0.0
  0
ARC
  5
1DC
330
20
100
AcDbEntity
  8
STEMPEL
100
AcDbCircle
 10
204.8289651964287
 20
83.41485744836893
 30
0.0
 40
6.0
100
AcDbArc
 50
59.99999999999967
 51
140.9632431360087
  0
ARC
  5
1DD
330
20
100
AcDbEntity
  8
STEMPEL
100
AcDbCircle
 10
204.8289651964287
 20
83.41485744836893
 30
0.0
 40
11.0
100
AcDbArc
 50
59.99999999999967
 51
140.9632431360087
  0
LINE
  5
1DE
330
20
100
AcDbEntity
  8
STEMPEL
100
AcDbLine
 10
227.6494732721175
 20
82.94113688999775
 30
0.0
 11
225.1494732721175
 21
78.61100987107565
 31
0.0
  0
LINE
  5
1DF
330
20
100
AcDbEntity
  8
MITTEL
100
AcDbLine
 10
225.3911430229195
 20
105.0295941581179
 30
0.0
 11
211.39114302292
 21
80.78088285215342
 31
0.0
  0
LINE
  5
1E0
330
20
100
AcDbEntity
  8
STEMPEL
100
AcDbLine
 10
211.194990600213
 20
92.44113688999778
 30
0.0
 11
208.6949906002132
 21
88.11100987107563
 31
0.0
  0
LINE
  5
1E1
330
20
100
AcDbEntity
  8
STEMPEL
100
AcDbLine
 10
221.5872954456262
 20
86.44113688999778
 30
0.0
 11
219.0872954456263
 21
82.1110098710756
 31
0.0
  0
LINE
  5
1E2
330
20
100
AcDbEntity
  8
STEMPEL
100
AcDbLine
 10
53.47122892416035
 20
88.6110098710756
 30
0.0
 11
36.15072084847174
 21
78.61100987107559
 31
0.0
  0
ARC
  5
1E3
330
20
100
AcDbEntity
  8
STEMPEL
100
AcDbCircle
 10
56.47122892416035
 20
83.41485744836893
 30
0.0
 40
11.0
100
AcDbArc
 50
39.03675686399131
 51
120.0000000000003
  0
ARC
  5
1E4
330
20
100
AcDbEntity
  8
STEMPEL
100
AcDbCircle
 10
56.47122892416035
 20
83.41485744836893
 30
0.0
 40
6.0
100
AcDbArc
 50
39.03675686399131
 51
120.0000000000003
  0
LINE
  5
1E5
330
20
100
AcDbEntity
  8
MITTEL
100
AcDbLine
 10
35.90905109766953
 20
105.0295941581179
 30
0.0
 11
49.90905109766931
 21
80.78088285215342
 31
0.0
  0
LINE
  5
1E6
330
20
100
AcDbEntity
  8
STEMPEL
100
AcDbLine
 10
50.97122892416035
 20
92.94113688999777
 30
0.0
 11
33.65072084847174
 21
82.94113688999777
 31
0.0
  0
LINE
  5
1E7
330
20
100
AcDbEntity
  8
VERDECKT
100
AcDbLine
 10
50.10520352037605
 20
92.44113688999778
 30
0.0
 11
52.60520352037605
 21
88.11100987107563
 31
0.0
  0
LINE
  5
1E8
330
20
100
AcDbEntity
  8
VERDECKT
100
AcDbLine
 10
39.71289867496279
 20
86.44113688999778
 30
0.0
 11
42.21289867496278
 21
82.1110098710756
 31
0.0
  0
LINE
  5
1E9
330
20
100
AcDbEntity
  8
STEMPEL
100
AcDbLine
 10
33.65072084847174
 20
82.94113688999775
 30
0.0
 11
36.15072084847151
 21
78.61100987107565
 31
0.0
  0
ARC
  5
1EA
330
20
100
AcDbEntity
  8
STEMPEL
100
AcDbCircle
 10
130.6500970602946
 20
143.5625550106365
 30
0.0
 40
84.50000000000001
100
AcDbArc
 50
219.0367568639908
 51
320.9632431360092
  0
ARC
  5
1EB
330
20
100
AcDbEntity
  8
STEMPEL
100
AcDbCircle
 10
130.6500970602946
 20
143.5625550106365
 30
0.0
 40
89.50000000000001
100
AcDbArc
 50
219.0367568639908
 51
320.9632431360092
  0
LINE
  5
1EC
330
20
100
AcDbEntity
  8
MITTEL
100
AcDbLine
 10
130.6500970602944
 20
143.5625550106365
 30
0.0
 11
27.3205938295493
 21
83.90523850513563
 31
0.0
  0
LWPOLYLINE
  5
1ED
330
20
100
AcDbEntity
  8
HILF
100
AcDbPolyline
 90
        9
 70
     0
 43
0.0
 10
207.739651083034
 20
94.02277466474638
 10
207.4188821082448
 20
93.52912518355958
 10
207.1820056113583
 20
92.96743526253846
 10
206.9878600911799
 20
92.34577693969397
 10
206.7952840465149
 20
91.67222225303701
 10
206.5631159761683
 20
90.95484324057855
 10
206.2501943789452
 20
90.20171194032952
 10
205.8153577536511
 20
89.42090039030086
 10
205.7569162399385
 20
89.34266537886472
  0
INSERT
  5
1F8
330
20
100
AcDbEntity
  8
SCHRAFF
100
AcDbBlockReference
  2
*X1
 10
-179.1043483763088
 20
-133.855143863309
 30
0.0
1001
ACAD
1000
HATCH
1002
{
1070
    16
1000
_U,I
1040
2.0
1040
0.2617993877991493
1070
     0
1002
}
  0
ARC
  5
1F9
330
20
100
AcDbEntity
  8
STEMPEL
100
AcDbCircle
 10
130.6500970602946
 20
143.5625550106366
 30
0.0
 40
79.5
100
AcDbArc
 50
228.9476247063713
 51
265.6756761867509
  0
LINE
  5
1FA
330
20
100
AcDbEntity
  8
STEMPEL
100
AcDbLine
 10
69.46426194638792
 20
88.97048982334181
 30
0.0
 11
67.59884014413472
 21
87.30609759202184
 31
0.0
  0
ARC
  5
1FB
330
20
100
AcDbEntity
  8
MITTEL
100
AcDbCircle
 10
130.6500970602946
 20
143.5625550106366
 30
0.0
 40
82.0
100
AcDbArc
 50
218.246231804697
 51
321.7537681953031
  0
LINE
  5
1FC
330
20
100
AcDbEntity
  8
STEMPEL
100
AcDbLine
 10
69.46426194638792
 20
88.97048982334181
 30
0.0
 11
72.67986373256502
 21
89.15941127860028
 31
0.0
  0
LINE
  5
1FD
330
20
100
AcDbEntity
  8
STEMPEL
100
AcDbLine
 10
72.67986373256502
 20
89.15941127860028
 30
0.0
 11
72.28738119277199
 21
85.96226511061241
 31
0.0
  0
LINE
  5
1FE
330
20
100
AcDbEntity
  8
STEMPEL
100
AcDbLine
 10
75.25822492885385
 20
83.0998350769938
 30
0.0
 11
75.48941167964102
 21
86.31267476328105
 31
0.0
  0
LINE
  5
1FF
330
20
100
AcDbEntity
  8
STEMPEL
100
AcDbLine
 10
75.48941167964102
 20
86.31267476328105
 30
0.0
 11
72.28738119277199
 21
85.96226511061244
 31
0.0
  0
LINE
  5
200
330
20
100
AcDbEntity
  8
STEMPEL
100
AcDbLine
 10
75.25822492885385
 20
83.0998350769938
 30
0.0
 11
78.43857931332872
 21
83.61084598947289
 31
0.0
  0
LINE
  5
201
330
20
100
AcDbEntity
  8
STEMPEL
100
AcDbLine
 10
186.0419691917352
 20
83.0998350769938
 30
0.0
 11
182.8616148072603
 21
83.61084598947289
 31
0.0
  0
LINE
  5
202
330
20
100
AcDbEntity
  8
STEMPEL
100
AcDbLine
 10
191.8359321742011
 20
88.97048982334181
 30
0.0
 11
193.7013539764543
 21
87.30609759202184
 31
0.0
  0
LINE
  5
203
330
20
100
AcDbEntity
  8
STEMPEL
100
AcDbLine
 10
185.810782440948
 20
86.31267476328105
 30
0.0
 11
189.0128129278172
 21
85.96226511061244
 31
0.0
  0
LINE
  5
204
330
20
100
AcDbEntity
  8
STEMPEL
100
AcDbLine
 10
186.0419691917352
 20
83.0998350769938
 30
0.0
 11
185.810782440948
 21
86.31267476328105
 31
0.0
  0
LINE
  5
205
330
20
100
AcDbEntity
  8
STEMPEL
100
AcDbLine
 10
188.620330388024
 20
89.15941127860028
 30
0.0
 11
189.0128129278172
 21
85.96226511061241
 31
0.0
  0
LINE
  5
206
330
20
100
AcDbEntity
  8
STEMPEL
100
AcDbLine
 10
191.8359321742011
 20
88.97048982334181
 30
0.0
 11
188.620330388024
 21
89.15941127860028
 31
0.0
  0
LINE
  5
207
330
20
100
AcDbEntity
  8
STEMPEL
100
AcDbLine
 10
130.6500970602946
 20
61.56255501063663
 30
0.0
 11
132.6499388324461
 21
64.08771224333676
 31
0.0
  0
LINE
  5
208
330
20
100
AcDbEntity
  8
STEMPEL
100
AcDbLine
 10
132.6499388324461
 20
64.08771224333676
 30
0.0
 11
134.7742513430839
 21
61.66633195089014
 31
0.0
  0
LINE
  5
209
330
20
100
AcDbEntity
  8
STEMPEL
100
AcDbLine
 10
134.7742513430839
 20
61.66633195089014
 30
0.0
 11
136.6445604874786
 21
64.28887458503666
 31
0.0
  0
LINE
  5
20A
330
20
100
AcDbEntity
  8
STEMPEL
100
AcDbLine
 10
130.6500970602946
 20
61.56255501063663
 30
0.0
 11
128.6502552881429
 21
64.08771224333676
 31
0.0
  0
LINE
  5
20B
330
20
100
AcDbEntity
  8
STEMPEL
100
AcDbLine
 10
128.6502552881429
 20
64.08771224333676
 30
0.0
 11
126.5259427775049
 21
61.66633195089014
 31
0.0
  0
LINE
  5
20C
330
20
100
AcDbEntity
  8
STEMPEL
100
AcDbLine
 10
126.5259427775049
 20
61.66633195089014
 30
0.0
 11
124.6556336331104
 21
64.28887458503666
 31
0.0
  0
ARC
  5
20D
330
20
100
AcDbEntity
  8
STEMPEL
100
AcDbCircle
 10
130.6500970602946
 20
143.5625550106366
 30
0.0
 40
79.5
100
AcDbArc
 50
274.3243238132492
 51
311.0523752936287
  0
ARC
  5
20E
330
20
100
AcDbEntity
  8
MITTEL
100
AcDbCircle
 10
130.6500970602946
 20
143.5625550106366
 30
0.0
 40
79.5
100
AcDbArc
 50
341.7404183509561
 51
360.0
  0
ARC
  5
20F
330
20
100
AcDbEntity
  8
MITTEL
100
AcDbCircle
 10
130.6500970602946
 20
143.5625550106367
 30
0.0
 40
84.50000000000001
100
AcDbArc
 50
339.0367568639909
 51
359.9999999999999
  0
LINE
  5
210
330
20
100
AcDbEntity
  8
MITTEL
100
AcDbLine
 10
206.1470130591899
 20
118.6534065977397
 30
0.0
 11
210.8952467698125
 21
117.0867934900104
 31
0.0
  0
ARC
  5
211
330
20
100
AcDbEntity
  8
MITTEL
100
AcDbCircle
 10
130.6500970602946
 20
143.5625550106367
 30
0.0
 40
89.50000000000001
100
AcDbArc
 50
339.0367568639909
 51
360.0
  0
ARC
  5
212
330
20
100
AcDbEntity
  8
MITTEL
100
AcDbCircle
 10
219.8289651964287
 20
109.3956195619023
 30
0.0
 40
6.0
100
AcDbArc
 50
159.0367568639914
 51
240.0000000000003
  0
ARC
  5
213
330
20
100
AcDbEntity
  8
MITTEL
100
AcDbCircle
 10
219.8289651964287
 20
109.3956195619023
 30
0.0
 40
11.0
100
AcDbArc
 50
159.0367568639914
 51
240.0000000000003
  0
LINE
  5
214
330
20
100
AcDbEntity
  8
MITTEL
100
AcDbLine
 10
215.1949906002132
 20
99.36934012027359
 30
0.0
 11
217.6949906002132
 21
103.6994671391956
 31
0.0
  0
LINE
  5
215
330
20
100
AcDbEntity
  8
MITTEL
100
AcDbLine
 10
214.3289651964287
 20
99.86934012027347
 30
0.0
 11
231.6494732721175
 21
89.86934012027347
 31
0.0
  0
LINE
  5
216
330
20
100
AcDbEntity
  8
MITTEL
100
AcDbLine
 10
216.8289651964287
 20
104.1994671391955
 30
0.0
 11
234.1494732721175
 21
94.19946713919562
 31
0.0
  0
LINE
  5
217
330
20
100
AcDbEntity
  8
MITTEL
100
AcDbLine
 10
225.5872954456265
 20
93.36934012027354
 30
0.0
 11
228.0872954456265
 21
97.69946713919569
 31
0.0
  0
LINE
  5
218
330
20
100
AcDbEntity
  8
MITTEL
100
AcDbLine
 10
231.6494732721175
 20
89.86934012027353
 30
0.0
 11
234.1494732721175
 21
94.19946713919557
 31
0.0
  0
ARC
  5
219
330
20
100
AcDbEntity
  8
MITTEL
100
AcDbCircle
 10
130.6500970602944
 20
143.5625550106365
 30
0.0
 40
82.0
100
AcDbArc
 50
338.2462318046972
 51
0.0000000000000397
  0
ARC
  5
21A
330
20
100
AcDbEntity
  8
MITTEL
100
AcDbCircle
 10
130.6500970602946
 20
143.5625550106365
 30
0.0
 40
82.0
100
AcDbArc
 50
179.9999999999999
 51
201.7537681953027
  0
ARC
  5
21B
330
20
100
AcDbEntity
  8
MITTEL
100
AcDbCircle
 10
130.6500970602946
 20
143.5625550106367
 30
0.0
 40
84.50000000000001
100
AcDbArc
 50
180.0000000000001
 51
200.9632431360091
  0
LINE
  5
21C
330
20
100
AcDbEntity
  8
MITTEL
100
AcDbLine
 10
55.15318106139915
 20
118.6534065977397
 30
0.0
 11
50.40494735077681
 21
117.0867934900104
 31
0.0
  0
ARC
  5
21D
330
20
100
AcDbEntity
  8
MITTEL
100
AcDbCircle
 10
130.6500970602946
 20
143.5625550106366
 30
0.0
 40
79.5
100
AcDbArc
 50
180.0
 51
198.2595816490439
  0
ARC
  5
21E
330
20
100
AcDbEntity
  8
MITTEL
100
AcDbCircle
 10
130.6500970602946
 20
143.5625550106367
 30
0.0
 40
89.50000000000001
100
AcDbArc
 50
180.0
 51
200.9632431360091
  0
ARC
  5
21F
330
20
100
AcDbEntity
  8
MITTEL
100
AcDbCircle
 10
41.47122892416035
 20
109.3956195619023
 30
0.0
 40
11.0
100
AcDbArc
 50
299.9999999999996
 51
20.96324313600854
  0
ARC
  5
220
330
20
100
AcDbEntity
  8
MITTEL
100
AcDbCircle
 10
41.47122892416035
 20
109.3956195619023
 30
0.0
 40
6.0
100
AcDbArc
 50
299.9999999999996
 51
20.96324313600854
  0
LINE
  5
221
330
20
100
AcDbEntity
  8
MITTEL
100
AcDbLine
 10
46.10520352037605
 20
99.36934012027359
 30
0.0
 11
43.60520352037605
 21
103.6994671391956
 31
0.0
  0
LINE
  5
222
330
20
100
AcDbEntity
  8
MITTEL
100
AcDbLine
 10
29.65072084847151
 20
89.86934012027353
 30
0.0
 11
27.15072084847174
 21
94.19946713919557
 31
0.0
  0
LINE
  5
223
330
20
100
AcDbEntity
  8
MITTEL
100
AcDbLine
 10
35.71289867496279
 20
93.36934012027354
 30
0.0
 11
33.21289867496256
 21
97.69946713919569
 31
0.0
  0
LINE
  5
224
330
20
100
AcDbEntity
  8
MITTEL
100
AcDbLine
 10
46.97122892416035
 20
99.86934012027347
 30
0.0
 11
29.65072084847151
 21
89.86934012027347
 31
0.0
  0
LINE
  5
225
330
20
100
AcDbEntity
  8
MITTEL
100
AcDbLine
 10
44.47122892416035
 20
104.1994671391955
 30
0.0
 11
27.15072084847174
 21
94.19946713919562
 31
0.0
  0
LINE
  5
226
330
20
100
AcDbEntity
  8
STEMPEL
100
AcDbLine
 10
133.1500970602946
 20
26.06255501063657
 30
0.0
 11
128.1500970602946
 21
26.06255501063657
 31
0.0
  0
LINE
  5
227
330
20
100
AcDbEntity
  8
STEMPEL
100
AcDbLine
 10
128.1500970602946
 20
54.06255501063657
 30
0.0
 11
128.1500970602946
 21
26.06255501063657
 31
0.0
  0
LINE
  5
228
330
20
100
AcDbEntity
  8
STEMPEL
100
AcDbLine
 10
133.1500970602946
 20
54.06255501063654
 30
0.0
 11
133.1500970602946
 21
26.06255501063657
 31
0.0
  0
LINE
  5
229
330
20
100
AcDbEntity
  8
STEMPEL
100
AcDbLine
 10
128.1500970602946
 20
54.06255501063657
 30
0.0
 11
133.1500970602946
 21
54.06255501063654
 31
0.0
  0
LINE
  5
22A
330
20
100
AcDbEntity
  8
MITTEL
100
AcDbLine
 10
130.6500970602946
 20
158.7805703622038
 30
0.0
 11
130.6500970602946
 21
264.780570362204
 31
0.0
  0
LINE
  5
22B
330
20
100
AcDbEntity
  8
STEMPEL
100
AcDbLine
 10
33.65072084847174
 20
163.7805703622038
 30
0.0
 11
227.6494732721173
 21
163.7805703622038
 31
0.0
  0
LINE
  5
22C
330
20
100
AcDbEntity
  8
STEMPEL
100
AcDbLine
 10
33.65072084847174
 20
259.7805703622038
 30
0.0
 11
227.6494732721173
 21
259.7805703622039
 31
0.0
  0
LINE
  5
22D
330
20
100
AcDbEntity
  8
STEMPEL
100
AcDbLine
 10
33.65072084847174
 20
183.7805703622039
 30
0.0
 11
128.1500970602948
 21
183.7805703622039
 31
0.0
  0
LINE
  5
22E
330
20
100
AcDbEntity
  8
STEMPEL
100
AcDbLine
 10
33.65072084847174
 20
239.7805703622038
 30
0.0
 11
128.1500970602946
 21
239.7805703622038
 31
0.0
  0
LINE
  5
22F
330
20
100
AcDbEntity
  8
STEMPEL
100
AcDbLine
 10
33.65072084847174
 20
163.7805703622038
 30
0.0
 11
33.65072084847174
 21
183.7805703622039
 31
0.0
  0
LINE
  5
230
330
20
100
AcDbEntity
  8
STEMPEL
100
AcDbLine
 10
36.15072084847174
 20
163.7805703622038
 30
0.0
 11
36.15072084847174
 21
183.7805703622039
 31
0.0
  0
LINE
  5
231
330
20
100
AcDbEntity
  8
STEMPEL
100
AcDbLine
 10
36.15072084847174
 20
239.7805703622038
 30
0.0
 11
36.15072084847174
 21
259.7805703622039
 31
0.0
  0
LINE
  5
232
330
20
100
AcDbEntity
  8
STEMPEL
100
AcDbLine
 10
33.65072084847174
 20
239.7805703622038
 30
0.0
 11
33.65072084847174
 21
259.7805703622038
 31
0.0
  0
LINE
  5
233
330
20
100
AcDbEntity
  8
HILF
100
AcDbLine
 10
57.56274966334917
 20
163.7805703622038
 30
0.0
 11
57.56274966334917
 21
183.7805703622039
 31
0.0
  0
LINE
  5
234
330
20
100
AcDbEntity
  8
HILF
100
AcDbLine
 10
57.56274966334917
 20
239.7805703622038
 30
0.0
 11
57.56274966334917
 21
259.7805703622039
 31
0.0
  0
LINE
  5
235
330
20
100
AcDbEntity
  8
STEMPEL
100
AcDbLine
 10
128.1500970602948
 20
163.7805703622038
 30
0.0
 11
128.1500970602946
 21
259.7805703622039
 31
0.0
  0
LINE
  5
236
330
20
100
AcDbEntity
  8
STEMPEL
100
AcDbLine
 10
133.1500970602948
 20
163.7805703622038
 30
0.0
 11
133.1500970602946
 21
259.7805703622039
 31
0.0
  0
LINE
  5
237
330
20
100
AcDbEntity
  8
STEMPEL
100
AcDbLine
 10
133.1500970602946
 20
239.7805703622038
 30
0.0
 11
227.6494732721175
 21
239.7805703622038
 31
0.0
  0
LINE
  5
238
330
20
100
AcDbEntity
  8
VERDECKT
100
AcDbLine
 10
128.1500970602946
 20
239.7805703622038
 30
0.0
 11
133.1500970602946
 21
239.7805703622038
 31
0.0
  0
LINE
  5
239
330
20
100
AcDbEntity
  8
STEMPEL
100
AcDbLine
 10
133.1500970602946
 20
183.7805703622039
 30
0.0
 11
227.6494732721173
 21
183.7805703622038
 31
0.0
  0
LINE
  5
23A
330
20
100
AcDbEntity
  8
VERDECKT
100
AcDbLine
 10
128.1500970602948
 20
183.7805703622039
 30
0.0
 11
133.1500970602946
 21
183.7805703622039
 31
0.0
  0
LINE
  5
23B
330
20
100
AcDbEntity
  8
STEMPEL
100
AcDbLine
 10
225.1494732721175
 20
163.7805703622038
 30
0.0
 11
225.1494732721175
 21
183.7805703622039
 31
0.0
  0
LINE
  5
23C
330
20
100
AcDbEntity
  8
STEMPEL
100
AcDbLine
 10
227.6494732721173
 20
163.7805703622038
 30
0.0
 11
227.6494732721175
 21
183.7805703622039
 31
0.0
  0
LINE
  5
23D
330
20
100
AcDbEntity
  8
HILF
100
AcDbLine
 10
203.7374444572396
 20
163.7805703622038
 30
0.0
 11
203.7374444572396
 21
183.7805703622039
 31
0.0
  0
LINE
  5
23E
330
20
100
AcDbEntity
  8
STEMPEL
100
AcDbLine
 10
225.1494732721175
 20
239.7805703622038
 30
0.0
 11
225.1494732721175
 21
259.7805703622039
 31
0.0
  0
LINE
  5
23F
330
20
100
AcDbEntity
  8
STEMPEL
100
AcDbLine
 10
227.6494732721175
 20
239.7805703622038
 30
0.0
 11
227.6494732721173
 21
259.7805703622038
 31
0.0
  0
LINE
  5
240
330
20
100
AcDbEntity
  8
HILF
100
AcDbLine
 10
203.7374444572396
 20
239.7805703622038
 30
0.0
 11
203.7374444572396
 21
259.7805703622039
 31
0.0
  0
LINE
  5
241
330
20
100
AcDbEntity
  8
STEMPEL
100
AcDbLine
 10
313.5149826755621
 20
259.7805703622039
 30
0.0
 11
367.0824647057677
 21
259.7805703622039
 31
0.0
  0
LINE
  5
242
330
20
100
AcDbEntity
  8
STEMPEL
100
AcDbLine
 10
313.5149826755623
 20
239.780570362204
 30
0.0
 11
353.8672851132946
 21
239.780570362204
 31
0.0
  0
LINE
  5
243
330
20
100
AcDbEntity
  8
STEMPEL
100
AcDbLine
 10
315.5149826755623
 20
163.7805703622039
 30
0.0
 11
367.0566679851216
 21
163.7805703622037
 31
0.0
  0
LINE
  5
244
330
20
100
AcDbEntity
  8
STEMPEL
100
AcDbLine
 10
315.5149826755623
 20
183.7805703622039
 30
0.0
 11
355.8672851132946
 21
183.7805703622039
 31
0.0
  0
LINE
  5
245
102
{ACAD_REACTORS
330
41F
102
}
330
20
100
AcDbEntity
  8
STEMPEL
100
AcDbLine
 10
315.5149826755623
 20
163.7805703622039
 30
0.0
 11
315.5149826755623
 21
183.7805703622039
 31
0.0
  0
LINE
  5
246
330
20
100
AcDbEntity
  8
STEMPEL
100
AcDbLine
 10
326.9887032339334
 20
163.7805703622038
 30
0.0
 11
326.9887032339334
 21
183.7805703622038
 31
0.0
  0
LINE
  5
247
330
20
100
AcDbEntity
  8
STEMPEL
100
AcDbLine
 10
331.3188302528558
 20
163.7805703622038
 30
0.0
 11
331.3188302528558
 21
183.7805703622039
 31
0.0
  0
LINE
  5
248
330
20
100
AcDbEntity
  8
STEMPEL
100
AcDbLine
 10
329.3188302528558
 20
239.780570362204
 30
0.0
 11
329.3188302528558
 21
259.7805703622039
 31
0.0
  0
LINE
  5
249
330
20
100
AcDbEntity
  8
STEMPEL
100
AcDbLine
 10
324.9887032339334
 20
239.780570362204
 30
0.0
 11
324.9887032339334
 21
259.7805703622039
 31
0.0
  0
LINE
  5
24A
102
{ACAD_REACTORS
330
41F
330
437
102
}
330
20
100
AcDbEntity
  8
STEMPEL
100
AcDbLine
 10
313.5149826755623
 20
239.780570362204
 30
0.0
 11
313.5149826755621
 21
259.7805703622039
 31
0.0
  0
LINE
  5
24B
330
20
100
AcDbEntity
  8
STEMPEL
100
AcDbLine
 10
355.8672851132948
 20
163.7805703622039
 30
0.0
 11
355.8672851132946
 21
183.7805703622039
 31
0.0
  0
LINE
  5
24C
330
20
100
AcDbEntity
  8
STEMPEL
100
AcDbLine
 10
353.8672851132946
 20
239.780570362204
 30
0.0
 11
353.8672851132946
 21
259.7805703622039
 31
0.0
  0
LWPOLYLINE
  5
24D
330
20
100
AcDbEntity
  8
STEMPEL
100
AcDbPolyline
 90
       16
 70
     1
 43
0.0
 10
320.4887032339333
 20
179.7805703622039
 42
0.1747045211890339
 10
319.4724320871889
 20
179.4142967518599
 42
0.1042029417664314
 10
318.3673828903736
 20
178.0232110493232
 42
0.064948101650287
 10
317.7373460360136
 20
176.2071551330357
 42
0.0510992989620841
 10
317.4887032339333
 20
173.7805703622039
 42
0.0510992989620841
 10
317.7373460360136
 20
171.3539855913721
 42
0.064948101650287
 10
318.3673828903736
 20
169.5379296750846
 42
0.1042029417664414
 10
319.4724320871889
 20
168.1468439725479
 42
0.1747045211890594
 10
320.4887032339333
 20
167.7805703622039
 42
0.1747045211890339
 10
321.5049743806777
 20
168.1468439725479
 42
0.104202941766431
 10
322.6100235774931
 20
169.5379296750846
 42
0.0649481016502971
 10
323.2400604318531
 20
171.3539855913722
 42
0.0510992989620864
 10
323.4887032339333
 20
173.7805703622039
 42
0.0510992989620751
 10
323.2400604318534
 20
176.207155133035
 42
0.0649481016503175
 10
322.6100235774931
 20
178.0232110493232
 42
0.1042029417664211
 10
321.5049743806777
 20
179.41429675186
 42
0.1747045211890084
  0
LWPOLYLINE
  5
25F
330
20
100
AcDbEntity
  8
STEMPEL
100
AcDbPolyline
 90
       16
 70
     1
 43
0.0
 10
52.60520352037605
 20
249.7805703622038
 42
0.0863188075832462
 10
52.19925411875118
 20
252.1145037752972
 42
0.0925889459849671
 10
51.0832857118441
 20
254.0232110493231
 42
0.1030981112244735
 10
49.35926313467729
 20
255.3381830200461
 42
0.111997634476814
 10
47.4090510976693
 20
255.7805703622038
 42
0.1119976344768248
 10
45.45883906066132
 20
255.3381830200461
 42
0.103098111224476
 10
43.73481648349451
 20
254.0232110493231
 42
0.0925889459849596
 10
42.61884807658765
 20
252.1145037752973
 42
0.086318807583248
 10
42.21289867496278
 20
249.7805703622038
 42
0.0863188075832498
 10
42.61884807658765
 20
247.4466369491103
 42
0.0925889459849521
 10
43.73481648349451
 20
245.5379296750846
 42
0.1030981112244856
 10
45.45883906066132
 20
244.2229577043616
 42
0.1119976344768187
 10
47.4090510976693
 20
243.7805703622038
 42
0.1119976344768156
 10
49.35926313467729
 20
244.2229577043616
 42
0.1030981112244773
 10
51.0832857118441
 20
245.5379296750846
 42
0.0925889459849589
 10
52.19925411875095
 20
247.4466369491103
 42
0.0863188075832519
  0
LWPOLYLINE
  5
271
330
20
100
AcDbEntity
  8
STEMPEL
100
AcDbPolyline
 90
        5
 70
     0
 43
0.0
 10
50.10520352037605
 20
249.7805703622038
 42
0.0863188075832462
 10
49.69925411875118
 20
252.1145037752972
 42
0.0925889459849671
 10
48.5832857118441
 20
254.0232110493231
 42
0.1030981112244735
 10
46.85926313467729
 20
255.3381830200461
 42
0.0415037783514881
 10
46.1590510976693
 20
255.6042831766179
 42
0.1119976344768248
  0
LWPOLYLINE
  5
278
330
20
100
AcDbEntity
  8
STEMPEL
100
AcDbPolyline
 90
        5
 70
     0
 43
0.0
 10
46.1590510976693
 20
243.9568575477899
 42
0.0415037783514877
 10
46.85926313467729
 20
244.2229577043616
 42
0.1030981112244773
 10
48.5832857118441
 20
245.5379296750846
 42
0.0925889459849589
 10
49.69925411875095
 20
247.4466369491103
 42
0.0863188075832519
 10
50.10520352037605
 20
249.7805703622038
 42
0.0863188075832462
  0
LWPOLYLINE
  5
27F
330
20
100
AcDbEntity
  8
STEMPEL
100
AcDbPolyline
 90
       16
 70
     1
 43
0.0
 10
208.6949906002132
 20
249.7805703622038
 42
-0.0863188075832462
 10
209.1009400018378
 20
252.1145037752972
 42
-0.0925889459849671
 10
210.2169084087449
 20
254.0232110493231
 42
-0.1030981112244735
 10
211.9409309859115
 20
255.3381830200461
 42
-0.111997634476814
 10
213.8911430229197
 20
255.7805703622038
 42
-0.1119976344768248
 10
215.8413550599279
 20
255.3381830200461
 42
-0.103098111224476
 10
217.5653776370945
 20
254.0232110493231
 42
-0.0925889459849596
 10
218.6813460440014
 20
252.1145037752973
 42
-0.086318807583248
 10
219.0872954456263
 20
249.7805703622038
 42
-0.0863188075832498
 10
218.6813460440014
 20
247.4466369491103
 42
-0.0925889459849521
 10
217.5653776370945
 20
245.5379296750846
 42
-0.1030981112244856
 10
215.8413550599277
 20
244.2229577043616
 42
-0.1119976344768187
 10
213.8911430229197
 20
243.7805703622038
 42
-0.1119976344768156
 10
211.9409309859118
 20
244.2229577043616
 42
-0.1030981112244773
 10
210.2169084087449
 20
245.5379296750846
 42
-0.0925889459849589
 10
209.1009400018378
 20
247.4466369491103
 42
-0.0863188075832519
  0
LWPOLYLINE
  5
291
330
20
100
AcDbEntity
  8
STEMPEL
100
AcDbPolyline
 90
        5
 70
     0
 43
0.0
 10
215.1411430229197
 20
243.9568575477899
 42
-0.0415037783514877
 10
214.4409309859117
 20
244.2229577043616
 42
-0.1030981112244773
 10
212.7169084087449
 20
245.5379296750846
 42
-0.0925889459849589
 10
211.6009400018378
 20
247.4466369491103
 42
-0.0863188075832519
 10
211.1949906002132
 20
249.7805703622038
 42
-0.0863188075832462
  0
LWPOLYLINE
  5
298
330
20
100
AcDbEntity
  8
STEMPEL
100
AcDbPolyline
 90
        5
 70
     0
 43
0.0
 10
211.1949906002132
 20
249.7805703622038
 42
-0.0863188075832462
 10
211.6009400018378
 20
252.1145037752972
 42
-0.0925889459849671
 10
212.7169084087449
 20
254.0232110493231
 42
-0.1030981112244735
 10
214.4409309859115
 20
255.3381830200461
 42
-0.0415037783514881
 10
215.1411430229197
 20
255.6042831766179
 42
-0.1119976344768248
  0
LWPOLYLINE
  5
29F
330
20
100
AcDbEntity
  8
STEMPEL
100
AcDbPolyline
 90
       16
 70
     1
 43
0.0
 10
52.60520352037605
 20
173.7805703622039
 42
0.0863188075832462
 10
52.19925411875118
 20
176.1145037752972
 42
0.0925889459849671
 10
51.0832857118441
 20
178.0232110493232
 42
0.1030981112244735
 10
49.35926313467729
 20
179.3381830200461
 42
0.111997634476814
 10
47.4090510976693
 20
179.7805703622039
 42
0.1119976344768248
 10
45.45883906066132
 20
179.3381830200461
 42
0.103098111224476
 10
43.73481648349474
 20
178.0232110493232
 42
0.0925889459849596
 10
42.61884807658765
 20
176.1145037752974
 42
0.086318807583248
 10
42.21289867496278
 20
173.7805703622039
 42
0.0863188075832498
 10
42.61884807658765
 20
171.4466369491103
 42
0.0925889459849521
 10
43.73481648349474
 20
169.5379296750846
 42
0.1030981112244856
 10
45.45883906066132
 20
168.2229577043617
 42
0.1119976344768187
 10
47.4090510976693
 20
167.7805703622039
 42
0.1119976344768156
 10
49.35926313467729
 20
168.2229577043617
 42
0.1030981112244773
 10
51.0832857118441
 20
169.5379296750846
 42
0.0925889459849589
 10
52.19925411875095
 20
171.4466369491104
 42
0.0863188075832519
  0
LWPOLYLINE
  5
2B1
330
20
100
AcDbEntity
  8
STEMPEL
100
AcDbPolyline
 90
        5
 70
     0
 43
0.0
 10
46.1590510976693
 20
167.9568575477899
 42
0.0415037783514877
 10
46.85926313467729
 20
168.2229577043617
 42
0.1030981112244773
 10
48.5832857118441
 20
169.5379296750846
 42
0.0925889459849589
 10
49.69925411875095
 20
171.4466369491104
 42
0.0863188075832519
 10
50.10520352037605
 20
173.7805703622039
 42
0.0863188075832462
  0
LWPOLYLINE
  5
2B8
330
20
100
AcDbEntity
  8
STEMPEL
100
AcDbPolyline
 90
        5
 70
     0
 43
0.0
 10
50.10520352037605
 20
173.7805703622039
 42
0.0863188075832462
 10
49.69925411875118
 20
176.1145037752972
 42
0.0925889459849671
 10
48.5832857118441
 20
178.0232110493232
 42
0.1030981112244735
 10
46.85926313467729
 20
179.3381830200461
 42
0.0415037783514881
 10
46.1590510976693
 20
179.6042831766179
 42
0.1119976344768248
  0
LWPOLYLINE
  5
2BF
330
20
100
AcDbEntity
  8
STEMPEL
100
AcDbPolyline
 90
       16
 70
     1
 43
0.0
 10
208.6949906002132
 20
173.7805703622039
 42
-0.0863188075832462
 10
209.1009400018378
 20
176.1145037752972
 42
-0.0925889459849671
 10
210.2169084087449
 20
178.0232110493232
 42
-0.1030981112244735
 10
211.9409309859115
 20
179.3381830200461
 42
-0.111997634476814
 10
213.8911430229197
 20
179.7805703622039
 42
-0.1119976344768248
 10
215.8413550599279
 20
179.3381830200461
 42
-0.103098111224476
 10
217.5653776370945
 20
178.0232110493232
 42
-0.0925889459849596
 10
218.6813460440016
 20
176.1145037752974
 42
-0.086318807583248
 10
219.0872954456263
 20
173.7805703622039
 42
-0.0863188075832498
 10
218.6813460440014
 20
171.4466369491103
 42
-0.0925889459849521
 10
217.5653776370945
 20
169.5379296750846
 42
-0.1030981112244856
 10
215.8413550599277
 20
168.2229577043617
 42
-0.1119976344768187
 10
213.8911430229197
 20
167.7805703622039
 42
-0.1119976344768156
 10
211.9409309859118
 20
168.2229577043617
 42
-0.1030981112244773
 10
210.2169084087449
 20
169.5379296750846
 42
-0.0925889459849589
 10
209.1009400018378
 20
171.4466369491104
 42
-0.0863188075832519
  0
LWPOLYLINE
  5
2D1
330
20
100
AcDbEntity
  8
STEMPEL
100
AcDbPolyline
 90
        5
 70
     0
 43
0.0
 10
215.1411430229197
 20
167.9568575477899
 42
-0.0415037783514877
 10
214.4409309859117
 20
168.2229577043617
 42
-0.1030981112244773
 10
212.7169084087449
 20
169.5379296750846
 42
-0.0925889459849589
 10
211.6009400018378
 20
171.4466369491104
 42
-0.0863188075832519
 10
211.1949906002132
 20
173.7805703622039
 42
-0.0863188075832462
  0
LWPOLYLINE
  5
2D8
330
20
100
AcDbEntity
  8
STEMPEL
100
AcDbPolyline
 90
        5
 70
     0
 43
0.0
 10
211.1949906002132
 20
173.7805703622039
 42
-0.0863188075832462
 10
211.6009400018378
 20
176.1145037752972
 42
-0.0925889459849671
 10
212.7169084087449
 20
178.0232110493232
 42
-0.1030981112244735
 10
214.4409309859115
 20
179.3381830200461
 42
-0.0415037783514881
 10
215.1411430229197
 20
179.6042831766179
 42
-0.1119976344768248
  0
LWPOLYLINE
  5
2DF
330
20
100
AcDbEntity
  8
STEMPEL
100
AcDbPolyline
 90
        5
 70
     0
 43
0.0
 10
322.6537667433944
 20
177.9342458721674
 42
0.0615991555976931
 10
322.0674730549358
 20
176.2071551330357
 42
0.0510992989620841
 10
321.8188302528556
 20
173.7805703622039
 42
0.0510992989620841
 10
322.0674730549358
 20
171.3539855913721
 42
0.0615991555976931
 10
322.6537667433944
 20
169.6268948522404
 42
0.1042029417664414
  0
LWPOLYLINE
  5
2E6
330
20
100
AcDbEntity
  8
STEMPEL
100
AcDbPolyline
 90
       16
 70
     1
 43
0.0
 10
318.4887032339333
 20
255.7805703622039
 42
0.1747045211890339
 10
317.4724320871889
 20
255.4142967518599
 42
0.1042029417664314
 10
316.3673828903736
 20
254.0232110493231
 42
0.064948101650287
 10
315.7373460360135
 20
252.2071551330358
 42
0.0510992989620841
 10
315.4887032339333
 20
249.7805703622039
 42
0.0510992989620841
 10
315.7373460360135
 20
247.3539855913721
 42
0.064948101650287
 10
316.3673828903736
 20
245.5379296750846
 42
0.1042029417664414
 10
317.4724320871889
 20
244.1468439725479
 42
0.1747045211890594
 10
318.4887032339333
 20
243.7805703622039
 42
0.1747045211890339
 10
319.5049743806777
 20
244.1468439725479
 42
0.104202941766431
 10
320.6100235774931
 20
245.5379296750846
 42
0.0649481016502971
 10
321.2400604318531
 20
247.3539855913722
 42
0.0510992989620864
 10
321.4887032339333
 20
249.7805703622039
 42
0.0510992989620751
 10
321.2400604318534
 20
252.2071551330351
 42
0.0649481016503175
 10
320.6100235774931
 20
254.0232110493231
 42
0.1042029417664211
 10
319.5049743806777
 20
255.41429675186
 42
0.1747045211890084
  0
LWPOLYLINE
  5
2F8
330
20
100
AcDbEntity
  8
STEMPEL
100
AcDbPolyline
 90
        5
 70
     0
 43
0.0
 10
320.6537667433944
 20
253.9342458721674
 42
0.0615991555976931
 10
320.0674730549358
 20
252.2071551330358
 42
0.0510992989620841
 10
319.8188302528556
 20
249.7805703622039
 42
0.0510992989620841
 10
320.0674730549358
 20
247.3539855913721
 42
0.0615991555976931
 10
320.6537667433944
 20
245.6268948522403
 42
0.1042029417664414
  0
LINE
  5
2FF
330
20
100
AcDbEntity
  8
STEMPEL
100
AcDbLine
 10
381.8672851132946
 20
203.7805703622038
 30
0.0
 11
381.8672851132946
 21
220.7805703622037
 31
0.0
  0
LINE
  5
301
330
20
100
AcDbEntity
  8
STEMPEL
100
AcDbLine
 10
353.8672851132946
 20
239.780570362204
 30
0.0
 11
361.8672851132944
 21
211.4169339985676
 31
0.0
  0
LINE
  5
302
330
20
100
AcDbEntity
  8
STEMPEL
100
AcDbLine
 10
355.8672851132946
 20
183.7805703622039
 30
0.0
 11
361.8672851132944
 21
207.7805703622039
 31
0.0
  0
LINE
  5
303
330
20
100
AcDbEntity
  8
STEMPEL
100
AcDbLine
 10
361.8672851132944
 20
207.7805703622039
 30
0.0
 11
361.8672851132944
 21
211.4169339985676
 31
0.0
  0
ARC
  5
304
330
20
100
AcDbEntity
  8
STEMPEL
100
AcDbCircle
 10
367.0824647057677
 20
254.780570362204
 30
0.0
 40
5.0
100
AcDbArc
 50
15.75117366345294
 51
90.0
  0
LINE
  5
305
330
20
100
AcDbEntity
  8
HILF
100
AcDbLine
 10
133.1500970602944
 20
37.82963653992562
 30
0.0
 11
128.1500970602944
 21
37.82963653992565
 31
0.0
  0
LINE
  5
306
330
20
100
AcDbEntity
  8
HILF
100
AcDbLine
 10
133.1500970602946
 20
220.7805703622037
 30
0.0
 11
128.1500970602946
 21
220.7805703622037
 31
0.0
  0
LINE
  5
307
330
20
100
AcDbEntity
  8
HILF
100
AcDbLine
 10
133.1500970602946
 20
203.7805703622039
 30
0.0
 11
128.1500970602946
 21
203.7805703622038
 31
0.0
  0
LINE
  5
30C
102
{ACAD_REACTORS
330
3FB
102
}
330
20
100
AcDbEntity
  8
MITTEL
100
AcDbLine
 10
264.3672851132947
 20
158.7805703622038
 30
0.0
 11
264.3672851132947
 21
264.780570362204
 31
0.0
  0
DIMENSION
  5
312
330
20
100
AcDbEntity
  8
BEM
100
AcDbDimension
  2
*D2
 10
233.9796002910397
 20
83.90523850513563
 30
0.0
 11
130.6943268785888
 21
112.1934182597521
 31
0.0
 70
   130
 71
     5
 42
-1.0
100
AcDb2LineAngularDimension
 13
130.6500970602944
 23
143.5625550106365
 33
0.0
 14
27.3205938295493
 24
83.90523850513563
 34
0.0
 15
130.6500970602946
 25
143.5625550106365
 35
0.0
 16
122.5148179916272
 26
109.2104322523148
 36
0.0
  0
ARC
  5
313
330
20
100
AcDbEntity
  8
SCHRAFF
100
AcDbCircle
 10
128.1500970602946
 20
54.06255501063657
 30
0.0
 40
3.0
100
AcDbArc
 50
176.7732763824933
 51
270.0
  0
INSERT
  5
314
330
20
100
AcDbEntity
  8
SCHRAFF
100
AcDbBlockReference
  2
*X3
 10
0.0
 20
0.0
 30
0.0
1001
ACAD
1000
HATCH
1002
{
1070
    16
1000
_U,I
1040
0.1
1040
0.0
1070
     0
1002
}
  0
INSERT
  5
315
330
20
100
AcDbEntity
  8
SCHRAFF
100
AcDbBlockReference
  2
*X3
 10
261.3001941205892
 20
0.0
 30
0.0
 41
-1.0
1001
ACAD
1000
HATCH
1002
{
1070
    16
1000
_U,I
1040
0.1
1040
0.0
1070
     0
1002
}
  0
ARC
  5
316
330
20
100
AcDbEntity
  8
SCHRAFF
100
AcDbCircle
 10
133.1500970602946
 20
54.06255501063657
 30
0.0
 40
3.0
100
AcDbArc
 50
270.0
 51
3.226723617506698
  0
ARC
  5
317
330
20
100
AcDbEntity
  8
SCHRAFF
100
AcDbCircle
 10
126.6500970602948
 20
183.6098350572176
 30
0.0
 40
1.915360502180973
100
AcDbArc
 50
218.4508030898924
 51
321.5491969101066
  0
ARC
  5
318
330
20
100
AcDbEntity
  8
SCHRAFF
100
AcDbCircle
 10
126.6500970602948
 20
178.6098350572176
 30
0.0
 40
1.915360502180973
100
AcDbArc
 50
218.4508030898924
 51
321.5491969101066
  0
ARC
  5
319
330
20
100
AcDbEntity
  8
SCHRAFF
100
AcDbCircle
 10
126.6500970602948
 20
173.6098350572176
 30
0.0
 40
1.915360502180973
100
AcDbArc
 50
218.4508030898924
 51
321.5491969101066
  0
ARC
  5
31A
330
20
100
AcDbEntity
  8
SCHRAFF
100
AcDbCircle
 10
126.6500970602948
 20
168.6098350572176
 30
0.0
 40
1.915360502180973
100
AcDbArc
 50
218.4508030898924
 51
321.5491969101066
  0
ARC
  5
31B
330
20
100
AcDbEntity
  8
SCHRAFF
100
AcDbCircle
 10
134.6500970602944
 20
173.6098350572176
 30
0.0
 40
1.915360502180973
100
AcDbArc
 50
218.4508030898934
 51
321.5491969101076
  0
ARC
  5
31C
330
20
100
AcDbEntity
  8
SCHRAFF
100
AcDbCircle
 10
134.6500970602944
 20
168.6098350572176
 30
0.0
 40
1.915360502180973
100
AcDbArc
 50
218.4508030898934
 51
321.5491969101076
  0
ARC
  5
31D
330
20
100
AcDbEntity
  8
SCHRAFF
100
AcDbCircle
 10
134.6500970602944
 20
178.6098350572176
 30
0.0
 40
1.915360502180973
100
AcDbArc
 50
218.4508030898934
 51
321.5491969101076
  0
ARC
  5
31E
330
20
100
AcDbEntity
  8
SCHRAFF
100
AcDbCircle
 10
134.6500970602944
 20
183.6098350572176
 30
0.0
 40
1.915360502180973
100
AcDbArc
 50
218.4508030898934
 51
321.5491969101076
  0
ARC
  5
31F
330
20
100
AcDbEntity
  8
SCHRAFF
100
AcDbCircle
 10
126.6500970602946
 20
249.6098350572176
 30
0.0
 40
1.915360502180973
100
AcDbArc
 50
218.4508030898924
 51
321.5491969101066
  0
ARC
  5
320
330
20
100
AcDbEntity
  8
SCHRAFF
100
AcDbCircle
 10
134.6500970602943
 20
249.6098350572176
 30
0.0
 40
1.915360502180973
100
AcDbArc
 50
218.4508030898934
 51
321.5491969101076
  0
ARC
  5
321
330
20
100
AcDbEntity
  8
SCHRAFF
100
AcDbCircle
 10
126.6500970602946
 20
244.6098350572176
 30
0.0
 40
1.915360502180973
100
AcDbArc
 50
218.4508030898924
 51
321.5491969101066
  0
ARC
  5
322
330
20
100
AcDbEntity
  8
SCHRAFF
100
AcDbCircle
 10
134.6500970602943
 20
244.6098350572176
 30
0.0
 40
1.915360502180973
100
AcDbArc
 50
218.4508030898934
 51
321.5491969101076
  0
ARC
  5
323
330
20
100
AcDbEntity
  8
SCHRAFF
100
AcDbCircle
 10
126.6500970602946
 20
259.6098350572177
 30
0.0
 40
1.915360502180973
100
AcDbArc
 50
218.4508030898924
 51
321.5491969101066
  0
ARC
  5
324
330
20
100
AcDbEntity
  8
SCHRAFF
100
AcDbCircle
 10
126.6500970602946
 20
254.6098350572176
 30
0.0
 40
1.915360502180973
100
AcDbArc
 50
218.4508030898924
 51
321.5491969101066
  0
ARC
  5
325
330
20
100
AcDbEntity
  8
SCHRAFF
100
AcDbCircle
 10
134.6500970602943
 20
254.6098350572176
 30
0.0
 40
1.915360502180973
100
AcDbArc
 50
218.4508030898934
 51
321.5491969101076
  0
ARC
  5
326
330
20
100
AcDbEntity
  8
SCHRAFF
100
AcDbCircle
 10
134.6500970602943
 20
259.6098350572177
 30
0.0
 40
1.915360502180973
100
AcDbArc
 50
218.4508030898934
 51
321.5491969101076
  0
ARC
  5
327
330
20
100
AcDbEntity
  8
SCHRAFF
100
AcDbCircle
 10
356.8672851132947
 20
173.4654126752355
 30
0.0
 40
1.915360502180973
100
AcDbArc
 50
218.4508030898934
 51
321.5491969101076
  0
ARC
  5
328
330
20
100
AcDbEntity
  8
SCHRAFF
100
AcDbCircle
 10
356.8672851132947
 20
168.4654126752355
 30
0.0
 40
1.915360502180973
100
AcDbArc
 50
218.4508030898934
 51
321.5491969101076
  0
ARC
  5
329
330
20
100
AcDbEntity
  8
SCHRAFF
100
AcDbCircle
 10
356.8672851132947
 20
178.4654126752355
 30
0.0
 40
1.915360502180973
100
AcDbArc
 50
218.4508030898934
 51
321.5491969101076
  0
ARC
  5
32A
330
20
100
AcDbEntity
  8
SCHRAFF
100
AcDbCircle
 10
356.8672851132947
 20
183.4654126752355
 30
0.0
 40
1.915360502180973
100
AcDbArc
 50
218.4508030898934
 51
321.5491969101076
  0
ARC
  5
32B
330
20
100
AcDbEntity
  8
SCHRAFF
100
AcDbCircle
 10
354.8672851132945
 20
249.4654126752356
 30
0.0
 40
1.915360502180973
100
AcDbArc
 50
218.4508030898934
 51
321.5491969101076
  0
ARC
  5
32C
330
20
100
AcDbEntity
  8
SCHRAFF
100
AcDbCircle
 10
354.8672851132945
 20
244.4654126752356
 30
0.0
 40
1.915360502180973
100
AcDbArc
 50
218.4508030898934
 51
321.5491969101076
  0
ARC
  5
32D
330
20
100
AcDbEntity
  8
SCHRAFF
100
AcDbCircle
 10
354.8672851132945
 20
259.4654126752356
 30
0.0
 40
1.915360502180973
100
AcDbArc
 50
218.4508030898934
 51
321.5491969101076
  0
ARC
  5
32E
330
20
100
AcDbEntity
  8
SCHRAFF
100
AcDbCircle
 10
354.8672851132945
 20
254.4654126752356
 30
0.0
 40
1.915360502180973
100
AcDbArc
 50
218.4508030898934
 51
321.5491969101076
  0
LINE
  5
32F
330
20
100
AcDbEntity
  8
STEMPEL
100
AcDbLine
 10
371.8947130856997
 20
256.137871187313
 30
0.0
 11
381.8672851132946
 21
220.7805703622037
 31
0.0
  0
DIMENSION
  5
337
330
20
100
AcDbEntity
  8
BEM
100
AcDbDimension
  2
*D6
 10
391.4739952404971
 20
163.7805703622037
 30
0.0
 11
388.2239952404971
 21
211.7805703622039
 31
0.0
 70
    32
 71
     5
 42
96.00000000000015
  3
Standard
100
AcDbAlignedDimension
 13
367.0824647057677
 23
259.7805703622039
 33
0.0
 14
367.2348499020911
 24
163.7805703622037
 34
0.0
 50
90.0
100
AcDbRotatedDimension
  0
LINE
  5
338
330
20
100
AcDbEntity
  8
MITTEL
100
AcDbLine
 10
315.5149826755623
 20
173.7805703622039
 30
0.0
 11
331.3188302528558
 21
173.7805703622039
 31
0.0
  0
LINE
  5
339
330
20
100
AcDbEntity
  8
MITTEL
100
AcDbLine
 10
320.4887032339334
 20
183.7805703622039
 30
0.0
 11
320.4887032339334
 21
163.7805703622039
 31
0.0
  0
LINE
  5
33A
330
20
100
AcDbEntity
  8
MITTEL
100
AcDbLine
 10
318.4887032339334
 20
259.7805703622039
 30
0.0
 11
318.4887032339334
 21
239.780570362204
 31
0.0
  0
LINE
  5
33B
330
20
100
AcDbEntity
  8
MITTEL
100
AcDbLine
 10
313.5149826755623
 20
249.7805703622039
 30
0.0
 11
329.3188302528558
 21
249.7805703622039
 31
0.0
  0
LINE
  5
33D
102
{ACAD_REACTORS
330
3FB
102
}
330
20
100
AcDbEntity
  8
STEMPEL
100
AcDbLine
 10
381.8672851132946
 20
203.7805703622038
 30
0.0
 11
371.8776949491406
 21
167.4547879470985
 31
0.0
  0
ARC
  5
33E
330
20
100
AcDbEntity
  8
STEMPEL
100
AcDbCircle
 10
367.0566679851216
 20
168.7805703622037
 30
0.0
 40
5.0
100
AcDbArc
 50
269.9999999999998
 51
344.6237487511735
  0
DIMENSION
  5
341
330
20
100
AcDbEntity
  8
BEM
100
AcDbDimension
  2
*D4
 10
303.227944980162
 20
183.7805703622039
 30
0.0
 11
299.977944980162
 21
173.7805703622039
 31
0.0
 70
    32
 71
     5
 42
20.0
  3
Standard
100
AcDbAlignedDimension
 13
315.5149826755623
 23
163.7805703622039
 33
0.0
 14
315.5149826755623
 24
183.7805703622039
 34
0.0
 50
90.0
100
AcDbRotatedDimension
1001
ACAD
1000
DSTYLE
1002
{
1070
    41
1040
3.5
1070
    42
1040
1.0
1070
    43
1040
7.0
1070
    44
1040
1.0
1070
    73
1070
     0
1070
    74
1070
     0
1070
    77
1070
     1
1070
    78
1070
     8
1070
    79
1070
     2
1070
   140
1040
3.5
1070
   141
1040
1.5
1070
   146
1040
0.5
1070
   147
1040
1.5
1070
   172
1070
     1
1070
   178
1070
     1
1070
   179
1070
     2
1070
   271
1070
     2
1070
   272
1070
     2
1070
   284
1070
     8
1070
   285
1070
     8
1070
   286
1070
     8
1070
   340
1005
42
1002
}
  0
LINE
  5
342
330
20
100
AcDbEntity
  8
MITTEL
100
AcDbLine
 10
130.6500970602946
 20
106.0203879888352
 30
0.0
 11
130.6500970602946
 21
21.0625550106366
 31
0.0
  0
TEXT
  5
34D
330
20
100
AcDbEntity
  8
BEM
100
AcDbText
 10
418.2905770718718
 20
6.074024076691515
 30
0.0
 40
2.0
  1
Diese Zeichnung ist urheberrechtlich geschützt und bleibt unser Eigentum. Sie darf weder ganz noch teilweise vervielfältigt und nicht an Dritte weitergegeben werden.
 50
90.0
 41
0.8
  7
GREEKS
100
AcDbText
  0
TEXT
  5
391
330
20
100
AcDbEntity
  8
TEXT
 62
     1
100
AcDbText
 10
299.3212781176575
 20
68.83609412352268
 30
0.0
 40
3.5
  1
Werkstoff: St37 feuerverzinkt
 41
0.8
  7
GREEKS
100
AcDbText
  0
DIMENSION
  5
3E4
102
{ACAD_XDICTIONARY
360
3F1
102
}
102
{ACAD_REACTORS
330
3FB
102
}
330
20
100
AcDbEntity
  8
BEM
100
AcDbDimension
  2
*D5
 10
381.8672851132946
 20
143.1782259311924
 30
0.0
 11
323.1172851132947
 21
146.4282259311924
 31
0.0
 70
    32
 71
     5
 42
117.4999999999999
  3
Standard
100
AcDbAlignedDimension
 13
264.3672851132947
 23
158.7805703622038
 33
0.0
 14
381.8672851132946
 24
203.7805703622038
 34
0.0
100
AcDbRotatedDimension
1001
ACAD
1000
DSTYLE
1002
{
1070
    41
1040
3.5
1070
    42
1040
1.0
1070
    43
1040
7.0
1070
    44
1040
1.0
1070
    73
1070
     0
1070
    74
1070
     0
1070
    77
1070
     1
1070
    78
1070
     8
1070
    79
1070
     2
1070
   140
1040
3.5
1070
   141
1040
1.5
1070
   146
1040
0.5
1070
   147
1040
1.5
1070
   172
1070
     1
1070
   178
1070
     1
1070
   179
1070
     2
1070
   271
1070
     2
1070
   272
1070
     2
1070
   284
1070
     8
1070
   285
1070
     8
1070
   286
1070
     8
1070
   340
1005
42
1002
}
  0
DIMENSION
  5
408
102
{ACAD_XDICTIONARY
360
415
102
}
102
{ACAD_REACTORS
330
41F
102
}
330
20
100
AcDbEntity
  8
BEM
100
AcDbDimension
  2
*D7
 10
303.227944980162
 20
239.780570362204
 30
0.0
 11
299.977944980162
 21
211.780570362204
 31
0.0
 70
    32
 71
     5
 42
56.00000000000003
  3
Standard
100
AcDbAlignedDimension
 13
315.5149826755623
 23
183.7805703622039
 33
0.0
 14
313.5149826755623
 24
239.780570362204
 34
0.0
 50
90.0
100
AcDbRotatedDimension
1001
ACAD
1000
DSTYLE
1002
{
1070
    41
1040
3.5
1070
    42
1040
1.0
1070
    43
1040
7.0
1070
    44
1040
1.0
1070
    73
1070
     0
1070
    74
1070
     0
1070
    77
1070
     1
1070
    78
1070
     8
1070
    79
1070
     2
1070
   140
1040
3.5
1070
   141
1040
1.5
1070
   146
1040
0.5
1070
   147
1040
1.5
1070
   172
1070
     1
1070
   178
1070
     1
1070
   179
1070
     2
1070
   271
1070
     2
1070
   272
1070
     2
1070
   284
1070
     8
1070
   285
1070
     8
1070
   286
1070
     8
1070
   340
1005
42
1002
}
  0
DIMENSION
  5
420
102
{ACAD_XDICTIONARY
360
42D
102
}
102
{ACAD_REACTORS
330
437
102
}
330
20
100
AcDbEntity
  8
BEM
100
AcDbDimension
  2
*D8
 10
303.227944980162
 20
259.7805703622039
 30
0.0
 11
299.977944980162
 21
249.780570362204
 31
0.0
 70
    32
 71
     5
 42
20.0
  3
Standard
100
AcDbAlignedDimension
 13
313.5149826755623
 23
239.780570362204
 33
0.0
 14
313.5149826755621
 24
259.7805703622039
 34
0.0
 50
90.0
100
AcDbRotatedDimension
1001
ACAD
1000
DSTYLE
1002
{
1070
   279
1070
     1
1070
    41
1040
3.5
1070
    42
1040
1.0
1070
    43
1040
7.0
1070
    44
1040
1.0
1070
    73
1070
     0
1070
    74
1070
     0
1070
    77
1070
     1
1070
    78
1070
     8
1070
    79
1070
     2
1070
   140
1040
3.5
1070
   141
1040
1.5
1070
   146
1040
0.5
1070
   147
1040
1.5
1070
   172
1070
     1
1070
   178
1070
     1
1070
   179
1070
     2
1070
   271
1070
     2
1070
   272
1070
     2
1070
   284
1070
     8
1070
   285
1070
     8
1070
   286
1070
     8
1070
   340
1005
42
1002
}
  0
ENDSEC
  0
SECTION
  2
OBJECTS
  0
DICTIONARY
  5
C
330
0
100
AcDbDictionary
281
     1
  3
ACAD_COLOR
350
1B
  3
ACAD_GROUP
350
D
  3
ACAD_LAYOUT
350
19
  3
ACAD_MATERIAL
350
1A
  3
ACAD_MLINESTYLE
350
16
  3
ACAD_PLOTSETTINGS
350
18
  3
ACAD_PLOTSTYLENAME
350
E
  3
AcDbVariableDictionary
350
3BE
  0
DICTIONARY
  5
3F1
330
3E4
100
AcDbDictionary
280
     1
281
     1
  3
ACAD_DIMASSOC
360
3FB
  0
DICTIONARY
  5
415
330
408
100
AcDbDictionary
280
     1
281
     1
  3
ACAD_DIMASSOC
360
41F
  0
DICTIONARY
  5
42D
330
420
100
AcDbDictionary
280
     1
281
     1
  3
ACAD_DIMASSOC
360
437
  0
DICTIONARY
  5
1B
102
{ACAD_REACTORS
330
C
102
}
330
C
100
AcDbDictionary
281
     1
  0
DICTIONARY
  5
D
102
{ACAD_REACTORS
330
C
102
}
330
C
100
AcDbDictionary
281
     1
  0
DICTIONARY
  5
19
102
{ACAD_REACTORS
330
C
102
}
330
C
100
AcDbDictionary
281
     1
  3
Layout1
350
1F
  3
Model
350
23
  0
DICTIONARY
  5
1A
102
{ACAD_REACTORS
330
C
102
}
330
C
100
AcDbDictionary
281
     1
  0
DICTIONARY
  5
16
102
{ACAD_REACTORS
330
C
102
}
330
C
100
AcDbDictionary
281
     1
  3
Standard
350
17
  0
DICTIONARY
  5
18
102
{ACAD_REACTORS
330
C
102
}
330
C
100
AcDbDictionary
281
     1
  0
ACDBDICTIONARYWDFLT
  5
E
102
{ACAD_REACTORS
330
C
102
}
330
C
100
AcDbDictionary
281
     1
  3
Normal
350
F
100
AcDbDictionaryWithDefault
340
F
  0
DICTIONARY
  5
3BE
102
{ACAD_REACTORS
330
C
102
}
330
C
100
AcDbDictionary
281
     1
  3
DIMASSOC
350
3C0
  3
HIDETEXT
350
3BF
  3
PROJECTNAME
350
3C1
  0
DIMASSOC
  5
3FB
102
{ACAD_REACTORS
330
3F1
102
}
330
3F1
100
AcDbDimAssoc
330
3E4
 90
        3
 70
     0
 71
     0
  1
AcDbOsnapPointRef
 72
    13
331
30C
 73
     2
 91
        0
 40
0.0
 10
0.0
 20
0.0
 30
2.000000000000000E+50
 75
     0
  1
AcDbOsnapPointRef
 72
    13
331
33D
 73
     2
 91
        0
 40
0.0
 10
0.0
 20
0.0
 30
2.000000000000000E+50
 75
     0
  0
DIMASSOC
  5
41F
102
{ACAD_REACTORS
330
415
102
}
330
415
100
AcDbDimAssoc
330
408
 90
        3
 70
     0
 71
     0
  1
AcDbOsnapPointRef
 72
     1
331
245
 73
     2
 91
        0
 40
1.0
 10
0.0
 20
0.0
 30
2.000000000000000E+50
 75
     0
  1
AcDbOsnapPointRef
 72
    13
331
24A
 73
     2
 91
        0
 40
0.0
 10
0.0
 20
0.0
 30
2.000000000000000E+50
 75
     0
  0
DIMASSOC
  5
437
102
{ACAD_REACTORS
330
42D
102
}
330
42D
100
AcDbDimAssoc
330
420
 90
        3
 70
     0
 71
     0
  1
AcDbOsnapPointRef
 72
    13
331
24A
 73
     2
 91
        0
 40
0.0
 10
0.0
 20
0.0
 30
2.000000000000000E+50
 75
     0
  1
AcDbOsnapPointRef
 72
     1
331
24A
 73
     2
 91
        0
 40
1.0
 10
0.0
 20
0.0
 30
2.000000000000000E+50
 75
     0
  0
LAYOUT
  5
1F
102
{ACAD_REACTORS
330
19
102
}
330
19
100
AcDbPlotSettings
  1

  2
RICOH Aficio 2027 PCL 6
  4

  6

 40
0.0
 41
0.0
 42
0.0
 43
0.0
 44
0.0
 45
0.0
 46
0.0
 47
0.0
 48
0.0
 49
0.0
140
0.0
141
0.0
142
1.0
143
1.0
 70
   688
 72
     0
 73
     0
 74
     5
  7
monochrome1.ctb
 75
    16
147
1.0
 76
     0
 77
     2
 78
   300
148
0.0
149
0.0
100
AcDbLayout
  1
Layout1
 70
     0
 71
     1
 10
0.0
 20
0.0
 11
12.0
 21
9.0
 12
0.0
 22
0.0
 32
0.0
 14
1.000000000000000E+20
 24
1.000000000000000E+20
 34
1.000000000000000E+20
 15
-1.000000000000000E+20
 25
-1.000000000000000E+20
 35
-1.000000000000000E+20
146
0.0
 13
0.0
 23
0.0
 33
0.0
 16
1.0
 26
0.0
 36
0.0
 17
0.0
 27
1.0
 37
0.0
 76
     0
330
1C
  0
LAYOUT
  5
23
102
{ACAD_REACTORS
330
19
102
}
330
19
100
AcDbPlotSettings
  1

  2
RICOH Aficio 2027 PCL 6
  4
A4
  6

 40
5.027083396911621
 41
5.027085304260253
 42
5.027084350585937
 43
5.027069091796875
 44
209.9733276367187
 45
296.9259948730469
 46
0.0
 47
0.0
 48
0.0
 49
0.0
140
0.0
141
0.0
142
1.0
143
1.0
 70
 11952
 72
     0
 73
     1
 74
     0
  7
monochrome1.ctb
 75
     0
147
1.0
 76
     0
 77
     2
 78
   300
148
-1517.052417597513
149
45.04758967657917
100
AcDbLayout
  1
Model
 70
     1
 71
     0
 10
0.0
 20
0.0
 11
12.0
 21
9.0
 12
0.0
 22
0.0
 32
0.0
 14
0.0
 24
0.0
 34
0.0
 15
0.0
 25
0.0
 35
0.0
146
0.0
 13
0.0
 23
0.0
 33
0.0
 16
1.0
 26
0.0
 36
0.0
 17
0.0
 27
1.0
 37
0.0
 76
     0
330
20
  0
MLINESTYLE
  5
17
102
{ACAD_REACTORS
330
16
102
}
330
16
100
AcDbMlineStyle
  2
STANDARD
 70
     0
  3

 62
   256
 51
90.0
 52
90.0
 71
     2
 49
0.5
 62
   256
  6
BYLAYER
 49
-0.5
 62
   256
  6
BYLAYER
  0
ACDBPLACEHOLDER
  5
F
102
{ACAD_REACTORS
330
E
102
}
330
E
  0
DICTIONARYVAR
  5
3C0
102
{ACAD_REACTORS
330
3BE
102
}
330
3BE
100
DictionaryVariables
280
     0
  1
2
  0
DICTIONARYVAR
  5
3BF
102
{ACAD_REACTORS
330
3BE
102
}
330
3BE
100
DictionaryVariables
280
     0
  1
1
  0
DICTIONARYVAR
  5
3C1
102
{ACAD_REACTORS
330
3BE
102
}
330
3BE
100
DictionaryVariables
280
     0
  1

  0
ENDSEC
  0
EOF
