  0
SECTION
  2
HEADER
  9
$ACADVER
  1
AC1018
  9
$ACADMAINTVER
 70
   104
  9
$DWGCODEPAGE
  3
ANSI_1252
  9
$LASTSAVEDBY
  1
w.koehlhoff
  9
$INSBASE
 10
0.0
 20
0.0
 30
0.0
  9
$EXTMIN
 10
-0.0384469162695496
 20
-0.0543749244384344
 30
-0.000000000000013
  9
$EXTMAX
 10
525.0176282777297
 20
742.5249314213608
 30
0.0000000000000023
  9
$LIMMIN
 10
0.0
 20
0.0
  9
$LIMMAX
 10
524.9999999999999
 20
742.4999999999999
  9
$ORTHOMODE
 70
     1
  9
$REGENMODE
 70
     1
  9
$FILLMODE
 70
     1
  9
$QTEXTMODE
 70
     0
  9
$MIRRTEXT
 70
     1
  9
$LTSCALE
 40
25.0
  9
$ATTMODE
 70
     1
  9
$TEXTSIZE
 40
3.5
  9
$TRACEWID
 40
1.0
  9
$TEXTSTYLE
  7
STANDARD
  9
$CLAYER
  8
BEM
  9
$CELTYPE
  6
ByLayer
  9
$CECOLOR
 62
   256
  9
$CELTSCALE
 40
1.0
  9
$DISPSILH
 70
     0
  9
$DIMSCALE
 40
2.5
  9
$DIMASZ
 40
3.5
  9
$DIMEXO
 40
1.0
  9
$DIMDLI
 40
7.0
  9
$DIMRND
 40
0.0
  9
$DIMDLE
 40
0.0
  9
$DIMEXE
 40
1.0
  9
$DIMTP
 40
0.0
  9
$DIMTM
 40
0.0
  9
$DIMTXT
 40
3.5
  9
$DIMCEN
 40
1.5
  9
$DIMTSZ
 40
0.0
  9
$DIMTOL
 70
     0
  9
$DIMLIM
 70
     0
  9
$DIMTIH
 70
     0
  9
$DIMTOH
 70
     0
  9
$DIMSE1
 70
     0
  9
$DIMSE2
 70
     0
  9
$DIMTAD
 70
     1
  9
$DIMZIN
 70
     8
  9
$DIMBLK
  1

  9
$DIMASO
 70
     1
  9
$DIMSHO
 70
     0
  9
$DIMPOST
  1

  9
$DIMAPOST
  1

  9
$DIMALT
 70
     0
  9
$DIMALTD
 70
     2
  9
$DIMALTF
 40
25.4
  9
$DIMLFAC
 40
1.0
  9
$DIMTOFL
 70
     1
  9
$DIMTVP
 40
0.0
  9
$DIMTIX
 70
     0
  9
$DIMSOXD
 70
     0
  9
$DIMSAH
 70
     0
  9
$DIMBLK1
  1

  9
$DIMBLK2
  1

  9
$DIMSTYLE
  2
Standard
  9
$DIMCLRD
 70
     0
  9
$DIMCLRE
 70
     0
  9
$DIMCLRT
 70
     1
  9
$DIMTFAC
 40
0.5142857142857144
  9
$DIMGAP
 40
1.5
  9
$DIMJUST
 70
     0
  9
$DIMSD1
 70
     0
  9
$DIMSD2
 70
     0
  9
$DIMTOLJ
 70
     1
  9
$DIMTZIN
 70
     8
  9
$DIMALTZ
 70
     8
  9
$DIMALTTZ
 70
     8
  9
$DIMUPT
 70
     0
  9
$DIMDEC
 70
     2
  9
$DIMTDEC
 70
     2
  9
$DIMALTU
 70
     2
  9
$DIMALTTD
 70
     2
  9
$DIMTXSTY
  7
STANDARD
  9
$DIMAUNIT
 70
     0
  9
$DIMADEC
 70
     3
  9
$DIMALTRND
 40
0.0
  9
$DIMAZIN
 70
     2
  9
$DIMDSEP
 70
    46
  9
$DIMATFIT
 70
     3
  9
$DIMFRAC
 70
     0
  9
$DIMLDRBLK
  1

  9
$DIMLUNIT
 70
     2
  9
$DIMLWD
 70
    -2
  9
$DIMLWE
 70
    -2
  9
$DIMTMOVE
 70
     0
  9
$LUNITS
 70
     2
  9
$LUPREC
 70
     2
  9
$SKETCHINC
 40
1.0
  9
$FILLETRAD
 40
2.0
  9
$AUNITS
 70
     0
  9
$AUPREC
 70
     0
  9
$MENU
  1
ACAD
  9
$ELEVATION
 40
0.0
  9
$PELEVATION
 40
0.0
  9
$THICKNESS
 40
0.0
  9
$LIMCHECK
 70
     0
  9
$CHAMFERA
 40
0.0
  9
$CHAMFERB
 40
0.0
  9
$CHAMFERC
 40
0.0
  9
$CHAMFERD
 40
0.0
  9
$SKPOLY
 70
     0
  9
$TDCREATE
 40
2455397.825393172
  9
$TDUCREATE
 40
2455397.783726505
  9
$TDUPDATE
 40
2456352.572010845
  9
$TDUUPDATE
 40
2456352.530344179
  9
$TDINDWG
 40
0.2598600000
  9
$TDUSRTIMER
 40
0.2598600000
  9
$USRTIMER
 70
     1
  9
$ANGBASE
 50
0.0
  9
$ANGDIR
 70
     0
  9
$PDMODE
 70
     0
  9
$PDSIZE
 40
0.0
  9
$PLINEWID
 40
0.0
  9
$SPLFRAME
 70
     0
  9
$SPLINETYPE
 70
     6
  9
$SPLINESEGS
 70
     8
  9
$HANDSEED
  5
201B
  9
$SURFTAB1
 70
     6
  9
$SURFTAB2
 70
     6
  9
$SURFTYPE
 70
     6
  9
$SURFU
 70
     6
  9
$SURFV
 70
     6
  9
$UCSBASE
  2

  9
$UCSNAME
  2

  9
$UCSORG
 10
0.0
 20
0.0
 30
0.0
  9
$UCSXDIR
 10
1.0
 20
0.0
 30
0.0
  9
$UCSYDIR
 10
0.0
 20
1.0
 30
0.0
  9
$UCSORTHOREF
  2

  9
$UCSORTHOVIEW
 70
     0
  9
$UCSORGTOP
 10
0.0
 20
0.0
 30
0.0
  9
$UCSORGBOTTOM
 10
0.0
 20
0.0
 30
0.0
  9
$UCSORGLEFT
 10
0.0
 20
0.0
 30
0.0
  9
$UCSORGRIGHT
 10
0.0
 20
0.0
 30
0.0
  9
$UCSORGFRONT
 10
0.0
 20
0.0
 30
0.0
  9
$UCSORGBACK
 10
0.0
 20
0.0
 30
0.0
  9
$PUCSBASE
  2

  9
$PUCSNAME
  2

  9
$PUCSORG
 10
0.0
 20
0.0
 30
0.0
  9
$PUCSXDIR
 10
1.0
 20
0.0
 30
0.0
  9
$PUCSYDIR
 10
0.0
 20
1.0
 30
0.0
  9
$PUCSORTHOREF
  2

  9
$PUCSORTHOVIEW
 70
     0
  9
$PUCSORGTOP
 10
0.0
 20
0.0
 30
0.0
  9
$PUCSORGBOTTOM
 10
0.0
 20
0.0
 30
0.0
  9
$PUCSORGLEFT
 10
0.0
 20
0.0
 30
0.0
  9
$PUCSORGRIGHT
 10
0.0
 20
0.0
 30
0.0
  9
$PUCSORGFRONT
 10
0.0
 20
0.0
 30
0.0
  9
$PUCSORGBACK
 10
0.0
 20
0.0
 30
0.0
  9
$USERI1
 70
     0
  9
$USERI2
 70
     0
  9
$USERI3
 70
     0
  9
$USERI4
 70
     0
  9
$USERI5
 70
     0
  9
$USERR1
 40
0.0
  9
$USERR2
 40
0.0
  9
$USERR3
 40
0.0
  9
$USERR4
 40
0.0
  9
$USERR5
 40
0.0
  9
$WORLDVIEW
 70
     1
  9
$SHADEDGE
 70
     3
  9
$SHADEDIF
 70
    70
  9
$TILEMODE
 70
     1
  9
$MAXACTVP
 70
    16
  9
$PINSBASE
 10
0.0
 20
0.0
 30
0.0
  9
$PLIMCHECK
 70
     0
  9
$PEXTMIN
 10
1.000000000000000E+20
 20
1.000000000000000E+20
 30
1.000000000000000E+20
  9
$PEXTMAX
 10
-1.000000000000000E+20
 20
-1.000000000000000E+20
 30
-1.000000000000000E+20
  9
$PLIMMIN
 10
0.0
 20
0.0
  9
$PLIMMAX
 10
12.0
 20
9.0
  9
$UNITMODE
 70
     0
  9
$VISRETAIN
 70
     0
  9
$PLINEGEN
 70
     0
  9
$PSLTSCALE
 70
     0
  9
$TREEDEPTH
 70
  3020
  9
$CMLSTYLE
  2
Standard
  9
$CMLJUST
 70
     0
  9
$CMLSCALE
 40
1.0
  9
$PROXYGRAPHICS
 70
     1
  9
$MEASUREMENT
 70
     0
  9
$CELWEIGHT
370
    -1
  9
$ENDCAPS
280
     0
  9
$JOINSTYLE
280
     0
  9
$LWDISPLAY
290
     0
  9
$INSUNITS
 70
     0
  9
$HYPERLINKBASE
  1

  9
$STYLESHEET
  1
monochrome1.ctb
  9
$XEDIT
290
     1
  9
$CEPSNTYPE
380
     0
  9
$PSTYLEMODE
290
     1
  9
$FINGERPRINTGUID
  2
{D68B0D0D-A558-11D7-B632-000102183313}
  9
$VERSIONGUID
  2
{45C9AC98-F2E3-4760-A14F-D7A406831269}
  9
$EXTNAMES
290
     1
  9
$PSVPSCALE
 40
0.0
  9
$OLESTARTUP
290
     0
  9
$SORTENTS
280
   127
  9
$INDEXCTL
280
     0
  9
$HIDETEXT
280
     0
  9
$XCLIPFRAME
290
     0
  9
$HALOGAP
280
     0
  9
$OBSCOLOR
 70
   257
  9
$OBSLTYPE
280
     0
  9
$INTERSECTIONDISPLAY
280
     0
  9
$INTERSECTIONCOLOR
 70
   257
  9
$DIMASSOC
280
     1
  9
$PROJECTNAME
  1

  0
ENDSEC
  0
SECTION
  2
CLASSES
  0
CLASS
  1
ACDBDICTIONARYWDFLT
  2
AcDbDictionaryWithDefault
  3
ObjectDBX Classes
 90
        0
 91
        1
280
     0
281
     0
  0
CLASS
  1
DICTIONARYVAR
  2
AcDbDictionaryVar
  3
ObjectDBX Classes
 90
        0
 91
        7
280
     0
281
     0
  0
CLASS
  1
DIMASSOC
  2
AcDbDimAssoc
  3
"AcDbDimAssoc|Product Desc:     AcDim ARX App For Dimension|Company:          Autodesk, Inc.|WEB Address:      www.autodesk.com"
 90
        0
 91
        0
280
     0
281
     0
  0
CLASS
  1
MATERIAL
  2
AcDbMaterial
  3
ObjectDBX Classes
 90
     1153
 91
        3
280
     0
281
     0
  0
CLASS
  1
VISUALSTYLE
  2
AcDbVisualStyle
  3
ObjectDBX Classes
 90
     4095
 91
       24
280
     0
281
     0
  0
CLASS
  1
TABLESTYLE
  2
AcDbTableStyle
  3
ObjectDBX Classes
 90
     4095
 91
        1
280
     0
281
     0
  0
CLASS
  1
SCALE
  2
AcDbScale
  3
ObjectDBX Classes
 90
     1153
 91
       17
280
     0
281
     0
  0
CLASS
  1
MLEADERSTYLE
  2
AcDbMLeaderStyle
  3
ACDB_MLEADERSTYLE_CLASS
 90
     4095
 91
        1
280
     0
281
     0
  0
CLASS
  1
ACDBSECTIONVIEWSTYLE
  2
AcDbSectionViewStyle
  3
ObjectDBX Classes
 90
     1025
 91
        1
280
     0
281
     0
  0
CLASS
  1
ACDBDETAILVIEWSTYLE
  2
AcDbDetailViewStyle
  3
ObjectDBX Classes
 90
     1025
 91
        1
280
     0
281
     0
  0
CLASS
  1
SORTENTSTABLE
  2
AcDbSortentsTable
  3
ObjectDBX Classes
 90
        0
 91
        1
280
     0
281
     0
  0
CLASS
  1
CELLSTYLEMAP
  2
AcDbCellStyleMap
  3
ObjectDBX Classes
 90
     1152
 91
        3
280
     0
281
     0
  0
ENDSEC
  0
SECTION
  2
TABLES
  0
TABLE
  2
VPORT
  5
8
102
{ACAD_XDICTIONARY
360
1330
102
}
330
0
100
AcDbSymbolTable
 70
     1
  0
VPORT
  5
1177
330
8
100
AcDbSymbolTableRecord
100
AcDbViewportTableRecord
  2
*Active
 70
     0
 10
0.0
 20
0.0
 11
1.0
 21
1.0
 12
262.48959068073
 22
371.2352782484611
 13
0.0
 23
0.0
 14
1.0
 24
1.0
 15
10.0
 25
10.0
 16
0.0
 26
0.0
 36
1.0
 17
0.0
 27
0.0
 37
0.0
 40
747.5910901906527
 41
1.699324324324324
 42
50.0
 43
0.0
 44
0.0
 50
0.0
 51
0.0
 71
     0
 72
  1500
 73
     1
 74
     0
 75
     0
 76
     0
 77
     0
 78
     0
281
     0
 65
     1
110
0.0
120
0.0
130
0.0
111
1.0
121
0.0
131
0.0
112
0.0
122
1.0
132
0.0
 79
     0
146
0.0
1001
ACAD_NAV_VCDISPLAY
1070
     3
  0
ENDTAB
  0
TABLE
  2
LTYPE
  5
5
330
0
100
AcDbSymbolTable
 70
     5
  0
LTYPE
  5
13
330
5
100
AcDbSymbolTableRecord
100
AcDbLinetypeTableRecord
  2
ByBlock
 70
     0
  3

 72
    65
 73
     0
 40
0.0
  0
LTYPE
  5
14
330
5
100
AcDbSymbolTableRecord
100
AcDbLinetypeTableRecord
  2
ByLayer
 70
     0
  3

 72
    65
 73
     0
 40
0.0
  0
LTYPE
  5
15
330
5
100
AcDbSymbolTableRecord
100
AcDbLinetypeTableRecord
  2
Continuous
 70
     0
  3
Solid line
 72
    65
 73
     0
 40
0.0
  0
LTYPE
  5
25
330
5
100
AcDbSymbolTableRecord
100
AcDbLinetypeTableRecord
  2
STRICHPUNKT
 70
     0
  3
__ . __ . __ . __ . __ . __ . __ . __ . __ . __
 72
    65
 73
     4
 40
1.0
 49
0.5
 74
     0
 49
-0.25
 74
     0
 49
0.0
 74
     0
 49
-0.25
 74
     0
  0
LTYPE
  5
34
330
5
100
AcDbSymbolTableRecord
100
AcDbLinetypeTableRecord
  2
AUSGEZOGEN
 70
     0
  3
Ausgezogene Linie
 72
    65
 73
     0
 40
0.0
  0
LTYPE
  5
11C1
330
5
100
AcDbSymbolTableRecord
100
AcDbLinetypeTableRecord
  2
PHANTOM2
 70
     0
  3
Phantom (.5x) ___ _ _ ___ _ _ ___ _ _ ___ _ _
 72
    65
 73
     6
 40
1.25
 49
0.625
 74
     0
 49
-0.125
 74
     0
 49
0.125
 74
     0
 49
-0.125
 74
     0
 49
0.125
 74
     0
 49
-0.125
 74
     0
  0
ENDTAB
  0
TABLE
  2
LAYER
  5
2
102
{ACAD_XDICTIONARY
360
1371
102
}
330
0
100
AcDbSymbolTable
 70
     8
  0
LAYER
  5
10
102
{ACAD_XDICTIONARY
360
131F
102
}
330
2
100
AcDbSymbolTableRecord
100
AcDbLayerTableRecord
  2
0
 70
     0
 62
     7
  6
Continuous
370
    -3
390
F
  0
LAYER
  5
2B
102
{ACAD_XDICTIONARY
360
1321
102
}
330
2
100
AcDbSymbolTableRecord
100
AcDbLayerTableRecord
  2
VOLL
 70
     0
 62
     1
  6
Continuous
370
    -3
390
F
  0
LAYER
  5
2C
102
{ACAD_XDICTIONARY
360
1323
102
}
330
2
100
AcDbSymbolTableRecord
100
AcDbLayerTableRecord
  2
HILF
 70
     0
 62
     2
  6
Continuous
370
    -3
390
F
  0
LAYER
  5
2D
102
{ACAD_XDICTIONARY
360
1325
102
}
330
2
100
AcDbSymbolTableRecord
100
AcDbLayerTableRecord
  2
MITTEL
 70
     0
 62
     2
  6
STRICHPUNKT
370
    -3
390
F
  0
LAYER
  5
2F
102
{ACAD_XDICTIONARY
360
1327
102
}
330
2
100
AcDbSymbolTableRecord
100
AcDbLayerTableRecord
  2
BEM
 70
     0
 62
     7
  6
Continuous
370
    -3
390
F
  0
LAYER
  5
30
102
{ACAD_XDICTIONARY
360
1329
102
}
330
2
100
AcDbSymbolTableRecord
100
AcDbLayerTableRecord
  2
STEMPEL
 70
     0
 62
     3
  6
Continuous
370
    -3
390
F
  0
LAYER
  5
33
102
{ACAD_XDICTIONARY
360
132B
102
}
330
2
100
AcDbSymbolTableRecord
100
AcDbLayerTableRecord
  2
TEXT
 70
     0
 62
     7
  6
Continuous
370
    -3
390
F
  0
LAYER
  5
1B2
330
2
100
AcDbSymbolTableRecord
100
AcDbLayerTableRecord
  2
DEFPOINTS
 70
     0
 62
     7
  6
AUSGEZOGEN
290
     0
370
    -3
390
F
  0
ENDTAB
  0
TABLE
  2
STYLE
  5
3
330
0
100
AcDbSymbolTable
 70
     3
  0
STYLE
  5
11
330
3
100
AcDbSymbolTableRecord
100
AcDbTextStyleTableRecord
  2
STANDARD
 70
     0
 40
0.0
 41
0.8
 50
0.0
 71
     0
 42
3.5
  3
simplex.shx
  4

  0
STYLE
  5
24
330
3
100
AcDbSymbolTableRecord
100
AcDbTextStyleTableRecord
  2
GREEKS
 70
     0
 40
0.0
 41
0.8
 50
0.0
 71
     0
 42
2.5
  3
SIMPLEX.shx
  4

  0
ENDTAB
  0
TABLE
  2
VIEW
  5
6
330
0
100
AcDbSymbolTable
 70
     1
  0
ENDTAB
  0
TABLE
  2
UCS
  5
7
330
0
100
AcDbSymbolTable
 70
     0
  0
ENDTAB
  0
TABLE
  2
APPID
  5
9
330
0
100
AcDbSymbolTable
 70
     6
  0
APPID
  5
12
330
9
100
AcDbSymbolTableRecord
100
AcDbRegAppTableRecord
  2
ACAD
 70
     0
  0
APPID
  5
1216
330
9
100
AcDbSymbolTableRecord
100
AcDbRegAppTableRecord
  2
ACAD_NAV_VCDISPLAY
 70
     0
  0
APPID
  5
1217
330
9
100
AcDbSymbolTableRecord
100
AcDbRegAppTableRecord
  2
ACAD_MLEADERVER
 70
     0
  0
APPID
  5
1263
330
9
100
AcDbSymbolTableRecord
100
AcDbRegAppTableRecord
  2
ACAD_DSTYLE_DIMJAG
 70
     0
  0
APPID
  5
1264
330
9
100
AcDbSymbolTableRecord
100
AcDbRegAppTableRecord
  2
ACAD_DSTYLE_DIMTALN
 70
     0
  0
APPID
  5
131D
330
9
100
AcDbSymbolTableRecord
100
AcDbRegAppTableRecord
  2
ACAD_EXEMPT_FROM_CAD_STANDARDS
 70
     0
  0
ENDTAB
  0
TABLE
  2
DIMSTYLE
  5
A
330
0
100
AcDbSymbolTable
 70
     2
100
AcDbDimStyleTable
 71
     1
340
A2
  0
DIMSTYLE
105
A2
102
{ACAD_REACTORS
330
1EB6
330
1EC3
330
1ED0
330
1EDD
330
1EEA
102
}
330
A
100
AcDbSymbolTableRecord
100
AcDbDimStyleTableRecord
  2
Standard
 70
     0
340
11
  0
ENDTAB
  0
TABLE
  2
BLOCK_RECORD
  5
1
330
0
100
AcDbSymbolTable
 70
     7
  0
BLOCK_RECORD
  5
1E
102
{ACAD_XDICTIONARY
360
DB
102
}
330
1
100
AcDbSymbolTableRecord
100
AcDbBlockTableRecord
  2
*Model_Space
340
21
  0
BLOCK_RECORD
  5
1A
102
{ACAD_XDICTIONARY
360
DD
102
}
330
1
100
AcDbSymbolTableRecord
100
AcDbBlockTableRecord
  2
*Paper_Space
340
1D
  0
BLOCK_RECORD
  5
22
330
1
100
AcDbSymbolTableRecord
100
AcDbBlockTableRecord
  2
LOGO
340
0
102
{BLKREFS
331
12F6
102
}
  0
BLOCK_RECORD
  5
1EB7
330
1
100
AcDbSymbolTableRecord
100
AcDbBlockTableRecord
  2
*D1
340
0
  0
BLOCK_RECORD
  5
1EC4
330
1
100
AcDbSymbolTableRecord
100
AcDbBlockTableRecord
  2
*D2
340
0
  0
BLOCK_RECORD
  5
1ED1
330
1
100
AcDbSymbolTableRecord
100
AcDbBlockTableRecord
  2
*D3
340
0
  0
BLOCK_RECORD
  5
1EDE
330
1
100
AcDbSymbolTableRecord
100
AcDbBlockTableRecord
  2
*D4
340
0
  0
BLOCK_RECORD
  5
1EEB
330
1
100
AcDbSymbolTableRecord
100
AcDbBlockTableRecord
  2
*D5
340
0
  0
ENDTAB
  0
ENDSEC
  0
SECTION
  2
BLOCKS
  0
BLOCK
  5
37
330
1E
100
AcDbEntity
  8
0
100
AcDbBlockBegin
  2
*Model_Space
 70
     0
 10
0.0
 20
0.0
 30
0.0
  3
*Model_Space
  1

  0
ENDBLK
  5
38
330
1E
100
AcDbEntity
  8
0
100
AcDbBlockEnd
  0
BLOCK
  5
35
330
1A
100
AcDbEntity
 67
     1
  8
0
100
AcDbBlockBegin
  2
*Paper_Space
 70
     0
 10
0.0
 20
0.0
 30
0.0
  3
*Paper_Space
  1

  0
ENDBLK
  5
36
330
1A
100
AcDbEntity
 67
     1
  8
0
100
AcDbBlockEnd
  0
BLOCK
  5
39
330
22
100
AcDbEntity
  8
0
100
AcDbBlockBegin
  2
LOGO
 70
     0
 10
0.0
 20
0.0
 30
0.0
  3
LOGO
  1

  0
ARC
  5
3A
330
22
100
AcDbEntity
  8
0
100
AcDbCircle
 10
11.59973089678112
 20
-9.271599258481501
 30
0.0
 40
4.5
100
AcDbArc
 50
270.0
 51
231.0575587310159
  0
LINE
  5
3B
330
22
100
AcDbEntity
  8
0
100
AcDbLine
 10
3.599730896781125
 20
-4.771599258481529
 30
0.0
 11
3.599730896781153
 21
-11.77159925848133
 31
0.0
  0
LINE
  5
3C
330
22
100
AcDbEntity
  8
0
100
AcDbLine
 10
2.599730896781125
 20
-4.771599258481529
 30
0.0
 11
2.599730896781153
 21
-11.77159925848133
 31
0.0
  0
CIRCLE
  5
3D
330
22
100
AcDbEntity
  8
0
100
AcDbCircle
 10
11.59973089678112
 20
-9.271599258481501
 30
0.0
 40
3.5
  0
ARC
  5
3E
330
22
100
AcDbEntity
  8
0
100
AcDbCircle
 10
31.59973089678115
 20
-9.271599258481472
 30
0.0
 40
4.5
100
AcDbArc
 50
270.0
 51
231.0575587310182
  0
LINE
  5
3F
330
22
100
AcDbEntity
  8
0
100
AcDbLine
 10
17.59973089678112
 20
-4.771599258481472
 30
0.0
 11
17.59973089678115
 21
-13.77159925848147
 31
0.0
  0
ARC
  5
40
330
22
100
AcDbEntity
  8
0
100
AcDbCircle
 10
22.59973089678116
 20
-7.271599258481472
 30
0.0
 40
2.5
100
AcDbArc
 50
293.1161887722295
 51
90.0
  0
CIRCLE
  5
41
330
22
100
AcDbEntity
  8
0
100
AcDbCircle
 10
31.59973089678115
 20
-9.271599258481472
 30
0.0
 40
3.5
  0
ARC
  5
42
330
22
100
AcDbEntity
  8
0
100
AcDbCircle
 10
4.599730896781153
 20
-11.77159925848133
 30
0.0
 40
1.0
100
AcDbArc
 50
180.0
 51
270.0
  0
ARC
  5
43
330
22
100
AcDbEntity
  8
0
100
AcDbCircle
 10
4.599730896781153
 20
-11.77159925848133
 30
0.0
 40
2.0
100
AcDbArc
 50
179.9999999999992
 51
270.0
  0
LINE
  5
44
330
22
100
AcDbEntity
  8
0
100
AcDbLine
 10
11.59973089678115
 20
-13.77159925848144
 30
0.0
 11
4.599730896781153
 21
-13.77159925848147
 31
0.0
  0
LINE
  5
45
330
22
100
AcDbEntity
  8
0
100
AcDbLine
 10
8.771303772034769
 20
-12.77159925848136
 30
0.0
 11
4.599730896781153
 21
-12.77159925848133
 31
0.0
  0
LINE
  5
46
330
22
100
AcDbEntity
  8
0
100
AcDbLine
 10
31.59973089678115
 20
-13.77159925848147
 30
0.0
 11
23.6715276665056
 21
-13.77159925848144
 31
0.0
  0
LINE
  5
47
330
22
100
AcDbEntity
  8
0
100
AcDbLine
 10
23.56565672307022
 20
-9.51278021337896
 30
0.0
 11
24.4388546544846
 21
-12.77159925848144
 31
0.0
  0
LINE
  5
48
330
22
100
AcDbEntity
  8
0
100
AcDbLine
 10
22.59973089678116
 20
-9.771599258481472
 30
0.0
 11
18.59973089678112
 21
-9.771599258481472
 31
0.0
  0
LINE
  5
49
330
22
100
AcDbEntity
  8
0
100
AcDbLine
 10
18.59973089678115
 20
-13.77159925848144
 30
0.0
 11
17.59973089678115
 21
-13.77159925848144
 31
0.0
  0
LINE
  5
4A
330
22
100
AcDbEntity
  8
0
100
AcDbLine
 10
18.59973089678115
 20
-9.771599258481472
 30
0.0
 11
18.59973089678115
 21
-13.77159925848144
 31
0.0
  0
LINE
  5
4B
330
22
100
AcDbEntity
  8
0
100
AcDbLine
 10
22.59973089678116
 20
-9.771599258481472
 30
0.0
 11
23.67152766650562
 21
-13.77159925848147
 31
0.0
  0
ARC
  5
4C
330
22
100
AcDbEntity
  8
0
100
AcDbCircle
 10
22.59973089678116
 20
-7.271599258481472
 30
0.0
 40
2.5
100
AcDbArc
 50
270.0
 51
270.0000000000007
  0
LINE
  5
4D
330
22
100
AcDbEntity
  8
0
100
AcDbLine
 10
28.77130377203494
 20
-12.77159925848147
 30
0.0
 11
24.43885465448463
 21
-12.77159925848144
 31
0.0
  0
LINE
  5
4E
330
22
100
AcDbEntity
  8
0
100
AcDbLine
 10
3.599730896781125
 20
-4.771599258481472
 30
0.0
 11
2.599730896781125
 21
-4.771599258481472
 31
0.0
  0
LINE
  5
4F
330
22
100
AcDbEntity
  8
0
100
AcDbLine
 10
22.59973089678116
 20
-8.771599258481472
 30
0.0
 11
18.59973089678115
 21
-8.771599258481472
 31
0.0
  0
LINE
  5
50
330
22
100
AcDbEntity
  8
0
100
AcDbLine
 10
22.59973089678116
 20
-5.771599258481472
 30
0.0
 11
18.59973089678115
 21
-5.771599258481472
 31
0.0
  0
LINE
  5
51
330
22
100
AcDbEntity
  8
0
100
AcDbLine
 10
22.59973089678116
 20
-4.771599258481472
 30
0.0
 11
17.59973089678115
 21
-4.771599258481472
 31
0.0
  0
LINE
  5
52
330
22
100
AcDbEntity
  8
0
100
AcDbLine
 10
18.59973089678115
 20
-5.771599258481472
 30
0.0
 11
18.59973089678115
 21
-8.771599258481472
 31
0.0
  0
ARC
  5
53
330
22
100
AcDbEntity
  8
0
100
AcDbCircle
 10
22.59973089678116
 20
-7.271599258481472
 30
0.0
 40
1.5
100
AcDbArc
 50
270.0
 51
90.0
  0
ENDBLK
  5
54
330
22
100
AcDbEntity
  8
0
100
AcDbBlockEnd
  0
BLOCK
  5
1EB8
330
1EB7
100
AcDbEntity
  8
0
100
AcDbBlockBegin
  2
*D1
 70
     1
 10
0.0
 20
0.0
 30
0.0
  3
*D1
  1

  0
LINE
  5
1F09
330
1EB7
100
AcDbEntity
  8
BEM
 62
     0
440
 16777216
370
    -2
100
AcDbLine
 10
72.54682181012753
 20
557.0872070417258
 30
0.0
 11
72.54682181012753
 21
588.6747966206173
 31
0.0
  0
LINE
  5
1F0A
330
1EB7
100
AcDbEntity
  8
BEM
 62
     0
440
 16777216
370
    -2
100
AcDbLine
 10
292.5468218101276
 20
557.0872070417258
 30
0.0
 11
292.5468218101276
 21
588.6747966206173
 31
0.0
  0
LINE
  5
1F0B
330
1EB7
100
AcDbEntity
  8
BEM
 62
     0
440
 16777216
370
    -2
100
AcDbLine
 10
81.29682181012753
 20
586.1747966206173
 30
0.0
 11
283.7968218101275
 21
586.1747966206173
 31
0.0
  0
SOLID
  5
1F0C
330
1EB7
100
AcDbEntity
  8
BEM
 62
     0
440
 16777216
100
AcDbTrace
 10
81.29682181012753
 20
587.6331299539507
 30
0.0
 11
81.29682181012753
 21
584.7164632872839
 31
0.0
 12
72.54682181012753
 22
586.1747966206173
 32
0.0
 13
72.54682181012753
 23
586.1747966206173
 33
0.0
  0
SOLID
  5
1F0D
330
1EB7
100
AcDbEntity
  8
BEM
 62
     0
440
 16777216
100
AcDbTrace
 10
283.7968218101275
 20
587.6331299539507
 30
0.0
 11
283.7968218101275
 21
584.7164632872839
 31
0.0
 12
292.5468218101276
 22
586.1747966206173
 32
0.0
 13
292.5468218101276
 23
586.1747966206173
 33
0.0
  0
MTEXT
  5
1F0E
330
1EB7
100
AcDbEntity
  8
BEM
 62
     1
440
 16777216
100
AcDbMText
 10
182.5468218101275
 20
594.2997966206173
 30
0.0
 40
8.75
 41
0.0
 71
     5
 72
     1
  1
\A1;220
 73
     1
 44
1.0
  0
POINT
  5
1F0F
330
1EB7
100
AcDbEntity
  8
DEFPOINTS
 62
     0
440
 16777216
100
AcDbPoint
 10
72.54682181012753
 20
554.5872070417258
 30
0.0
  0
POINT
  5
1F10
330
1EB7
100
AcDbEntity
  8
DEFPOINTS
 62
     0
440
 16777216
100
AcDbPoint
 10
292.5468218101276
 20
554.5872070417258
 30
0.0
  0
POINT
  5
1F11
330
1EB7
100
AcDbEntity
  8
DEFPOINTS
 62
     0
440
 16777216
100
AcDbPoint
 10
292.5468218101276
 20
586.1747966206173
 30
0.0
  0
ENDBLK
  5
1EB9
330
1EB7
100
AcDbEntity
  8
0
100
AcDbBlockEnd
  0
BLOCK
  5
1EC5
330
1EC4
100
AcDbEntity
  8
0
100
AcDbBlockBegin
  2
*D2
 70
     1
 10
0.0
 20
0.0
 30
0.0
  3
*D2
  1

  0
LINE
  5
1F12
330
1EC4
100
AcDbEntity
  8
BEM
 62
     0
440
 16777216
370
    -2
100
AcDbLine
 10
282.5468218101276
 20
494.0872070417258
 30
0.0
 11
282.5468218101276
 21
452.0235256116045
 31
0.0
  0
LINE
  5
1F13
330
1EC4
100
AcDbEntity
  8
BEM
 62
     0
440
 16777216
370
    -2
100
AcDbLine
 10
82.54682181012753
 20
494.0872070417258
 30
0.0
 11
82.54682181012753
 21
452.0235256116045
 31
0.0
  0
LINE
  5
1F14
330
1EC4
100
AcDbEntity
  8
BEM
 62
     0
440
 16777216
370
    -2
100
AcDbLine
 10
273.7968218101276
 20
454.5235256116045
 30
0.0
 11
91.29682181012753
 21
454.5235256116045
 31
0.0
  0
SOLID
  5
1F15
330
1EC4
100
AcDbEntity
  8
BEM
 62
     0
440
 16777216
100
AcDbTrace
 10
273.7968218101276
 20
455.9818589449379
 30
0.0
 11
273.7968218101276
 21
453.0651922782712
 31
0.0
 12
282.5468218101276
 22
454.5235256116045
 32
0.0
 13
282.5468218101276
 23
454.5235256116045
 33
0.0
  0
SOLID
  5
1F16
330
1EC4
100
AcDbEntity
  8
BEM
 62
     0
440
 16777216
100
AcDbTrace
 10
91.29682181012753
 20
455.9818589449379
 30
0.0
 11
91.29682181012753
 21
453.0651922782712
 31
0.0
 12
82.54682181012753
 22
454.5235256116045
 32
0.0
 13
82.54682181012753
 23
454.5235256116045
 33
0.0
  0
MTEXT
  5
1F17
330
1EC4
100
AcDbEntity
  8
BEM
 62
     1
440
 16777216
100
AcDbMText
 10
182.5468218101275
 20
462.6485256116045
 30
0.0
 40
8.75
 41
0.0
 71
     5
 72
     1
  1
\A1;200
 73
     1
 44
1.0
  0
POINT
  5
1F18
330
1EC4
100
AcDbEntity
  8
DEFPOINTS
 62
     0
440
 16777216
100
AcDbPoint
 10
282.5468218101276
 20
496.5872070417258
 30
0.0
  0
POINT
  5
1F19
330
1EC4
100
AcDbEntity
  8
DEFPOINTS
 62
     0
440
 16777216
100
AcDbPoint
 10
82.54682181012753
 20
496.5872070417258
 30
0.0
  0
POINT
  5
1F1A
330
1EC4
100
AcDbEntity
  8
DEFPOINTS
 62
     0
440
 16777216
100
AcDbPoint
 10
82.54682181012753
 20
454.5235256116045
 30
0.0
  0
ENDBLK
  5
1EC6
330
1EC4
100
AcDbEntity
  8
0
100
AcDbBlockEnd
  0
BLOCK
  5
1ED2
330
1ED1
100
AcDbEntity
  8
0
100
AcDbBlockBegin
  2
*D3
 70
     1
 10
0.0
 20
0.0
 30
0.0
  3
*D3
  1

  0
LINE
  5
1F1B
330
1ED1
100
AcDbEntity
  8
BEM
 62
     0
440
 16777216
370
    -2
100
AcDbLine
 10
279.0468218101275
 20
570.5872070417258
 30
0.0
 11
319.3768064426095
 21
570.5872070417258
 31
0.0
  0
LINE
  5
1F1C
330
1ED1
100
AcDbEntity
  8
BEM
 62
     0
440
 16777216
370
    -2
100
AcDbLine
 10
269.0468218101275
 20
480.5872070417258
 30
0.0
 11
319.3768064426095
 21
480.5872070417258
 31
0.0
  0
LINE
  5
1F1D
330
1ED1
100
AcDbEntity
  8
BEM
 62
     0
440
 16777216
370
    -2
100
AcDbLine
 10
316.8768064426095
 20
561.8372070417258
 30
0.0
 11
316.8768064426095
 21
489.3372070417258
 31
0.0
  0
SOLID
  5
1F1E
330
1ED1
100
AcDbEntity
  8
BEM
 62
     0
440
 16777216
100
AcDbTrace
 10
315.4184731092761
 20
561.8372070417258
 30
0.0
 11
318.3351397759428
 21
561.8372070417258
 31
0.0
 12
316.8768064426095
 22
570.5872070417258
 32
0.0
 13
316.8768064426095
 23
570.5872070417258
 33
0.0
  0
SOLID
  5
1F1F
330
1ED1
100
AcDbEntity
  8
BEM
 62
     0
440
 16777216
100
AcDbTrace
 10
315.4184731092761
 20
489.3372070417258
 30
0.0
 11
318.3351397759428
 21
489.3372070417258
 31
0.0
 12
316.8768064426095
 22
480.5872070417258
 32
0.0
 13
316.8768064426095
 23
480.5872070417258
 33
0.0
  0
MTEXT
  5
1F20
330
1ED1
100
AcDbEntity
  8
BEM
 62
     1
440
 16777216
100
AcDbMText
 10
308.7518064426094
 20
525.5872070417259
 30
0.0
 40
8.75
 41
0.0
 71
     5
 72
     1
  1
\A1;90
 11
0.0000000000000001
 21
1.0
 31
0.0
 73
     1
 44
1.0
  0
POINT
  5
1F21
330
1ED1
100
AcDbEntity
  8
DEFPOINTS
 62
     0
440
 16777216
100
AcDbPoint
 10
276.5468218101275
 20
570.5872070417258
 30
0.0
  0
POINT
  5
1F22
330
1ED1
100
AcDbEntity
  8
DEFPOINTS
 62
     0
440
 16777216
100
AcDbPoint
 10
266.5468218101275
 20
480.5872070417258
 30
0.0
  0
POINT
  5
1F23
330
1ED1
100
AcDbEntity
  8
DEFPOINTS
 62
     0
440
 16777216
100
AcDbPoint
 10
316.8768064426095
 20
480.5872070417258
 30
0.0
  0
ENDBLK
  5
1ED3
330
1ED1
100
AcDbEntity
  8
0
100
AcDbBlockEnd
  0
BLOCK
  5
1EDF
330
1EDE
100
AcDbEntity
  8
0
100
AcDbBlockBegin
  2
*D4
 70
     1
 10
0.0
 20
0.0
 30
0.0
  3
*D4
  1

  0
LINE
  5
1F37
330
1EDE
100
AcDbEntity
  8
BEM
 62
     0
440
 16777216
370
    -2
100
AcDbLine
 10
492.3092222737359
 20
562.2940722502364
 30
0.0
 11
492.3092222737359
 21
589.7280069697055
 31
0.0
  0
LINE
  5
1F38
330
1EDE
100
AcDbEntity
  8
BEM
 62
     0
440
 16777216
370
    -2
100
AcDbLine
 10
416.309222273735
 20
573.0872070417258
 30
0.0
 11
416.309222273735
 21
589.7280069697055
 31
0.0
  0
LINE
  5
1F39
330
1EDE
100
AcDbEntity
  8
BEM
 62
     0
440
 16777216
370
    -2
100
AcDbLine
 10
483.5592222737359
 20
587.2280069697056
 30
0.0
 11
425.059222273735
 21
587.2280069697056
 31
0.0
  0
SOLID
  5
1F3A
330
1EDE
100
AcDbEntity
  8
BEM
 62
     0
440
 16777216
100
AcDbTrace
 10
483.5592222737359
 20
588.6863403030389
 30
0.0
 11
483.5592222737359
 21
585.7696736363721
 31
0.0
 12
492.3092222737359
 22
587.2280069697056
 32
0.0
 13
492.3092222737359
 23
587.2280069697056
 33
0.0
  0
SOLID
  5
1F3B
330
1EDE
100
AcDbEntity
  8
BEM
 62
     0
440
 16777216
100
AcDbTrace
 10
425.059222273735
 20
588.6863403030389
 30
0.0
 11
425.059222273735
 21
585.7696736363721
 31
0.0
 12
416.309222273735
 22
587.2280069697056
 32
0.0
 13
416.309222273735
 23
587.2280069697056
 33
0.0
  0
MTEXT
  5
1F3C
330
1EDE
100
AcDbEntity
  8
BEM
 62
     1
440
 16777216
100
AcDbMText
 10
454.3092222737355
 20
595.3530069697055
 30
0.0
 40
8.75
 41
0.0
 71
     5
 72
     1
  1
\A1;76
 73
     1
 44
1.0
  0
POINT
  5
1F3D
330
1EDE
100
AcDbEntity
  8
DEFPOINTS
 62
     0
440
 16777216
100
AcDbPoint
 10
492.3092222737359
 20
559.7940722502364
 30
0.0
  0
POINT
  5
1F3E
330
1EDE
100
AcDbEntity
  8
DEFPOINTS
 62
     0
440
 16777216
100
AcDbPoint
 10
416.309222273735
 20
570.5872070417258
 30
0.0
  0
POINT
  5
1F3F
330
1EDE
100
AcDbEntity
  8
DEFPOINTS
 62
     0
440
 16777216
100
AcDbPoint
 10
416.309222273735
 20
587.2280069697056
 30
0.0
  0
ENDBLK
  5
1EE0
330
1EDE
100
AcDbEntity
  8
0
100
AcDbBlockEnd
  0
BLOCK
  5
1EEC
330
1EEB
100
AcDbEntity
  8
0
100
AcDbBlockBegin
  2
*D5
 70
     1
 10
0.0
 20
0.0
 30
0.0
  3
*D5
  1

  0
LINE
  5
1F40
330
1EEB
100
AcDbEntity
  8
BEM
 62
     0
440
 16777216
370
    -2
100
AcDbLine
 10
483.309222273735
 20
478.0872070417258
 30
0.0
 11
483.309222273735
 21
452.5501299158782
 31
0.0
  0
LINE
  5
1F41
330
1EEB
100
AcDbEntity
  8
BEM
 62
     0
440
 16777216
370
    -2
100
AcDbLine
 10
416.309222273735
 20
478.0872070417258
 30
0.0
 11
416.309222273735
 21
452.5501299158782
 31
0.0
  0
LINE
  5
1F42
330
1EEB
100
AcDbEntity
  8
BEM
 62
     0
440
 16777216
370
    -2
100
AcDbLine
 10
474.559222273735
 20
455.0501299158781
 30
0.0
 11
425.059222273735
 21
455.0501299158781
 31
0.0
  0
SOLID
  5
1F43
330
1EEB
100
AcDbEntity
  8
BEM
 62
     0
440
 16777216
100
AcDbTrace
 10
474.559222273735
 20
456.5084632492115
 30
0.0
 11
474.559222273735
 21
453.5917965825448
 31
0.0
 12
483.309222273735
 22
455.0501299158781
 32
0.0
 13
483.309222273735
 23
455.0501299158781
 33
0.0
  0
SOLID
  5
1F44
330
1EEB
100
AcDbEntity
  8
BEM
 62
     0
440
 16777216
100
AcDbTrace
 10
425.059222273735
 20
456.5084632492115
 30
0.0
 11
425.059222273735
 21
453.5917965825448
 31
0.0
 12
416.309222273735
 22
455.0501299158781
 32
0.0
 13
416.309222273735
 23
455.0501299158781
 33
0.0
  0
MTEXT
  5
1F45
330
1EEB
100
AcDbEntity
  8
BEM
 62
     1
440
 16777216
100
AcDbMText
 10
449.809222273735
 20
463.1751299158781
 30
0.0
 40
8.75
 41
0.0
 71
     5
 72
     1
  1
\A1;67
 73
     1
 44
1.0
  0
POINT
  5
1F46
330
1EEB
100
AcDbEntity
  8
DEFPOINTS
 62
     0
440
 16777216
100
AcDbPoint
 10
483.309222273735
 20
480.5872070417257
 30
0.0
  0
POINT
  5
1F47
330
1EEB
100
AcDbEntity
  8
DEFPOINTS
 62
     0
440
 16777216
100
AcDbPoint
 10
416.309222273735
 20
480.5872070417258
 30
0.0
  0
POINT
  5
1F48
330
1EEB
100
AcDbEntity
  8
DEFPOINTS
 62
     0
440
 16777216
100
AcDbPoint
 10
416.309222273735
 20
455.0501299158781
 30
0.0
  0
ENDBLK
  5
1EED
330
1EEB
100
AcDbEntity
  8
0
100
AcDbBlockEnd
  0
ENDSEC
  0
SECTION
  2
ENTITIES
  0
TEXT
  5
3F3
330
1E
100
AcDbEntity
  8
TEXT
 62
     1
100
AcDbText
 10
175.6352994850667
 20
172.8336355320479
 30
0.0
 40
8.75
  1
Werkstoff: Feuerverzinktes Spaltband DX51D+Z 275 MA C
 41
0.8
  7
GREEKS
100
AcDbText
  0
TEXT
  5
E21
330
1E
100
AcDbEntity
  8
VOLL
100
AcDbText
 10
195.7402497691741
 20
296.1880535808031
 30
0.0
 40
1.8
  1

 50
90.0
  7
GREEKS
100
AcDbText
  0
TEXT
  5
EA0
330
1E
100
AcDbEntity
  8
VOLL
100
AcDbText
 10
231.3238984216361
 20
170.8583351821271
 30
0.0
 40
1.8
  1

  7
GREEKS
100
AcDbText
  0
LINE
  5
12B2
330
1E
100
AcDbEntity
  8
STEMPEL
100
AcDbLine
 10
512.5
 20
137.5
 30
0.0
 11
49.99999999999996
 21
137.5
 31
0.0
  0
LINE
  5
12B3
330
1E
100
AcDbEntity
  8
STEMPEL
100
AcDbLine
 10
170.0000000000001
 20
137.4999999999999
 30
0.0
 11
170.0
 21
12.49999999999996
 31
0.0
  0
LINE
  5
12B4
330
1E
100
AcDbEntity
  8
STEMPEL
100
AcDbLine
 10
275.0
 20
137.5
 30
0.0
 11
275.0
 21
12.49999999999996
 31
0.0
  0
LINE
  5
12B5
330
1E
100
AcDbEntity
  8
STEMPEL
100
AcDbLine
 10
415.0
 20
137.4999999999997
 30
0.0
 11
415.0
 21
50.0
 31
0.0
  0
LINE
  5
12B6
330
1E
100
AcDbEntity
  8
STEMPEL
100
AcDbLine
 10
169.9999999999998
 20
37.49999999999996
 30
0.0
 11
49.99999999999996
 21
37.49999999999996
 31
0.0
  0
LINE
  5
12B7
330
1E
100
AcDbEntity
  8
STEMPEL
100
AcDbLine
 10
512.5
 20
50.0
 30
0.0
 11
170.0000000000001
 21
49.99999999999996
 31
0.0
  0
LINE
  5
12B8
330
1E
100
AcDbEntity
  8
STEMPEL
100
AcDbLine
 10
512.5
 20
100.0
 30
0.0
 11
170.0000000000001
 21
99.99999999999992
 31
0.0
  0
LINE
  5
12B9
330
1E
100
AcDbEntity
  8
VOLL
100
AcDbLine
 10
67.50000000000011
 20
137.5
 30
0.0
 11
67.49999999999997
 21
12.49999999999996
 31
0.0
  0
LINE
  5
12BA
330
1E
100
AcDbEntity
  8
VOLL
100
AcDbLine
 10
117.5000000000001
 20
137.4999999999999
 30
0.0
 11
117.5
 21
12.49999999999996
 31
0.0
  0
LINE
  5
12BB
330
1E
100
AcDbEntity
  8
VOLL
100
AcDbLine
 10
142.5000000000001
 20
137.4999999999999
 30
0.0
 11
142.5
 21
12.49999999999996
 31
0.0
  0
LINE
  5
12BC
330
1E
100
AcDbEntity
  8
VOLL
100
AcDbLine
 10
192.5000000000001
 20
99.99999999999992
 30
0.0
 11
192.5000000000001
 21
49.99999999999996
 31
0.0
  0
LINE
  5
12BD
330
1E
100
AcDbEntity
  8
VOLL
100
AcDbLine
 10
225.0000000000001
 20
137.4999999999998
 30
0.0
 11
225.0
 21
49.99999999999996
 31
0.0
  0
LINE
  5
12BE
330
1E
100
AcDbEntity
  8
HILF
100
AcDbLine
 10
50.0000000000001
 20
125.0
 30
0.0
 11
170.0000000000001
 21
125.0
 31
0.0
  0
LINE
  5
12BF
330
1E
100
AcDbEntity
  8
HILF
100
AcDbLine
 10
50.0000000000001
 20
112.5
 30
0.0
 11
170.0000000000001
 21
112.5
 31
0.0
  0
LINE
  5
12C0
330
1E
100
AcDbEntity
  8
HILF
100
AcDbLine
 10
50.0000000000001
 20
99.99999999999992
 30
0.0
 11
170.0000000000001
 21
99.99999999999992
 31
0.0
  0
LINE
  5
12C1
330
1E
100
AcDbEntity
  8
HILF
100
AcDbLine
 10
50.0000000000001
 20
87.49999999999992
 30
0.0
 11
170.0000000000001
 21
87.49999999999992
 31
0.0
  0
LINE
  5
12C2
330
1E
100
AcDbEntity
  8
HILF
100
AcDbLine
 10
50.0000000000001
 20
74.99999999999997
 30
0.0
 11
170.0000000000001
 21
74.99999999999997
 31
0.0
  0
LINE
  5
12C3
330
1E
100
AcDbEntity
  8
HILF
100
AcDbLine
 10
50.0000000000001
 20
62.49999999999996
 30
0.0
 11
170.0000000000001
 21
62.49999999999996
 31
0.0
  0
LINE
  5
12C4
330
1E
100
AcDbEntity
  8
HILF
100
AcDbLine
 10
50.0000000000001
 20
49.99999999999996
 30
0.0
 11
170.0000000000001
 21
49.99999999999996
 31
0.0
  0
LINE
  5
12C5
330
1E
100
AcDbEntity
  8
HILF
100
AcDbLine
 10
170.0000000000001
 20
87.49999999999992
 30
0.0
 11
275.0
 21
87.49999999999992
 31
0.0
  0
LINE
  5
12C6
330
1E
100
AcDbEntity
  8
HILF
100
AcDbLine
 10
170.0000000000001
 20
74.99999999999997
 30
0.0
 11
275.0
 21
74.99999999999997
 31
0.0
  0
LINE
  5
12C7
330
1E
100
AcDbEntity
  8
HILF
100
AcDbLine
 10
170.0000000000001
 20
62.49999999999996
 30
0.0
 11
275.0
 21
62.49999999999996
 31
0.0
  0
LINE
  5
12C8
330
1E
100
AcDbEntity
  8
HILF
100
AcDbLine
 10
280.9671001371185
 20
105.0469780945517
 30
0.0
 11
406.0442395695388
 21
105.0469780945517
 31
0.0
  0
LINE
  5
12C9
330
1E
100
AcDbEntity
  8
HILF
100
AcDbLine
 10
280.9671001371185
 20
87.49999999999992
 30
0.0
 11
406.0442395695387
 21
87.49999999999992
 31
0.0
  0
LINE
  5
12CA
330
1E
100
AcDbEntity
  8
HILF
100
AcDbLine
 10
280.9671001371185
 20
74.99999999999997
 30
0.0
 11
406.0442395695387
 21
74.99999999999997
 31
0.0
  0
LINE
  5
12CB
330
1E
100
AcDbEntity
  8
HILF
100
AcDbLine
 10
280.9671001371185
 20
62.49999999999996
 30
0.0
 11
406.0442395695387
 21
62.49999999999996
 31
0.0
  0
LINE
  5
12CC
330
1E
100
AcDbEntity
  8
VOLL
100
AcDbLine
 10
415.0
 20
75.0
 30
0.0
 11
512.5
 21
75.0
 31
0.0
  0
LINE
  5
12CD
330
1E
100
AcDbEntity
  8
HILF
100
AcDbLine
 10
420.9048270371241
 20
104.7247954619478
 30
0.0
 11
506.073604915841
 21
104.7247954619478
 31
0.0
  0
LINE
  5
12CE
330
1E
100
AcDbEntity
  8
HILF
100
AcDbLine
 10
279.3637124112356
 20
18.61747822535392
 30
0.0
 11
506.073604915841
 21
18.61747822535392
 31
0.0
  0
TEXT
  5
12CF
330
1E
100
AcDbEntity
  8
TEXT
100
AcDbText
 10
79.82707474539775
 20
23.34227368730165
 30
0.0
 40
5.0
  1
Änderung
 41
0.8
  7
GREEKS
 72
     1
 11
93.25564617396919
 21
23.34227368730165
 31
0.0
100
AcDbText
  0
TEXT
  5
12D0
330
1E
100
AcDbEntity
  8
TEXT
100
AcDbText
 10
179.3954465187971
 20
128.0776118858861
 30
0.0
 40
6.25
  1
Maßstab
 41
0.8
  7
GREEKS
100
AcDbText
  0
TEXT
  5
12D1
330
1E
100
AcDbEntity
  8
TEXT
100
AcDbText
 10
230.3573693417564
 20
128.0230210543524
 30
0.0
 40
6.25
  1
Zul. Abw.
 41
0.8
  7
GREEKS
100
AcDbText
  0
TEXT
  5
12D2
330
1E
100
AcDbEntity
  8
TEXT
100
AcDbText
 10
281.0974254761262
 20
128.1861660014724
 30
0.0
 40
6.25
  1
Benennung
 41
0.8
  7
GREEKS
100
AcDbText
  0
TEXT
  5
12D3
330
1E
100
AcDbEntity
  8
TEXT
100
AcDbText
 10
420.2234436970425
 20
127.891504317142
 30
0.0
 40
6.25
  1
Zeichnungs Nr.
 41
0.8
  7
GREEKS
100
AcDbText
  0
TEXT
  5
12D4
330
1E
100
AcDbEntity
  8
TEXT
100
AcDbText
 10
280.92779798892
 20
38.55700712741321
 30
0.0
 40
6.25
  1
Bauvorhaben
 41
0.8
  7
GREEKS
100
AcDbText
  0
TEXT
  5
12D5
330
1E
100
AcDbEntity
  8
TEXT
100
AcDbText
 10
420.9048270371241
 20
91.47647796374961
 30
0.0
 40
6.25
  1
Ersatz für:
 41
0.8
  7
GREEKS
100
AcDbText
  0
TEXT
  5
12D6
330
1E
100
AcDbEntity
  8
TEXT
100
AcDbText
 10
60.33301383807195
 20
17.06832307533989
 30
0.0
 40
5.0
  1
Index
 50
90.0
 41
0.8
  7
GREEKS
100
AcDbText
  0
TEXT
  5
12D7
330
1E
100
AcDbEntity
  8
TEXT
100
AcDbText
 10
125.1168345094351
 20
23.33945336674763
 30
0.0
 40
5.0
  1
Tag
 41
0.8
  7
GREEKS
 72
     1
 11
129.7835011761018
 21
23.33945336674763
 31
0.0
100
AcDbText
  0
TEXT
  5
12D8
330
1E
100
AcDbEntity
  8
TEXT
100
AcDbText
 10
148.7653430483241
 20
23.2415527120801
 30
0.0
 40
5.0
  1
Name
 41
0.8
  7
GREEKS
 72
     1
 11
156.670104953086
 21
23.2415527120801
 31
0.0
100
AcDbText
  0
TEXT
  5
12D9
330
1E
100
AcDbEntity
  8
TEXT
100
AcDbText
 10
202.9139591442063
 20
91.64850626537408
 30
0.0
 40
5.0
  1
Tag
 41
0.8
  7
GREEKS
100
AcDbText
  0
TEXT
  5
12DA
330
1E
100
AcDbEntity
  8
TEXT
100
AcDbText
 10
240.5783230282869
 20
91.63701364894031
 30
0.0
 40
5.0
  1
Name
 41
0.8
  7
GREEKS
100
AcDbText
  0
TEXT
  5
12DB
330
1E
100
AcDbEntity
  8
TEXT
100
AcDbText
 10
171.9795158959519
 20
79.53737962022455
 30
0.0
 40
5.0
  1
Gez.
 41
0.8
  7
GREEKS
100
AcDbText
  0
TEXT
  5
12DC
330
1E
100
AcDbEntity
  8
TEXT
100
AcDbText
 10
171.939385821459
 20
67.11157864285471
 30
0.0
 40
5.0
  1
Gepr.
 41
0.8
  7
GREEKS
100
AcDbText
  0
TEXT
  5
12DD
330
1E
100
AcDbEntity
  8
TEXT
100
AcDbText
 10
172.0008471734129
 20
54.41182987062259
 30
0.0
 40
5.0
  1
Norm.
 41
0.8
  7
GREEKS
100
AcDbText
  0
LINE
  5
12DE
330
1E
100
AcDbEntity
  8
STEMPEL
100
AcDbLine
 10
62.49999999999985
 20
12.5
 30
0.0
 11
512.5
 21
12.5
 31
0.0
  0
TEXT
  5
12DF
330
1E
100
AcDbEntity
  8
TEXT
100
AcDbText
 10
421.5501076871257
 20
65.09270222348252
 30
0.0
 40
6.25
  1
ersetzt durch:
 41
0.8
  7
GREEKS
100
AcDbText
  0
LINE
  5
12E0
330
1E
100
AcDbEntity
  8
STEMPEL
100
AcDbLine
 10
512.5
 20
12.5
 30
0.0
 11
49.99999999999985
 21
12.5
 31
0.0
  0
LINE
  5
12E1
330
1E
100
AcDbEntity
  8
STEMPEL
100
AcDbLine
 10
512.5
 20
12.5
 30
0.0
 11
512.5
 21
730.0
 31
0.0
  0
LINE
  5
12E2
330
1E
100
AcDbEntity
  8
STEMPEL
100
AcDbLine
 10
50.0
 20
12.5
 30
0.0
 11
49.99999999999985
 21
730.0
 31
0.0
  0
LINE
  5
12E3
330
1E
100
AcDbEntity
  8
STEMPEL
100
AcDbLine
 10
512.5
 20
730.0
 30
0.0
 11
49.99999999999985
 21
730.0
 31
0.0
  0
LINE
  5
12E4
330
1E
100
AcDbEntity
  8
HILF
100
AcDbLine
 10
0.0
 20
0.0
 30
0.0
 11
-0.0000000000001421
 21
742.4999999999999
 31
0.0
  0
LINE
  5
12E5
330
1E
100
AcDbEntity
  8
HILF
100
AcDbLine
 10
524.9999999999999
 20
742.5000000000002
 30
0.0
 11
0.0
 21
742.4999999999999
 31
0.0
  0
LINE
  5
12E6
330
1E
100
AcDbEntity
  8
HILF
100
AcDbLine
 10
525.0
 20
0.0
 30
0.0
 11
0.0
 21
0.0
 31
0.0
  0
LINE
  5
12E7
330
1E
100
AcDbEntity
  8
HILF
100
AcDbLine
 10
38.8595891964232
 20
371.2500000000001
 30
0.0
 11
0.0000000000001421
 21
371.2500000000001
 31
0.0
  0
TEXT
  5
12E8
330
1E
100
AcDbEntity
  8
TEXT
100
AcDbText
 10
173.27763727763
 20
91.42531838939582
 30
0.0
 40
5.0
  1
2013
 41
0.8
  7
GREEKS
100
AcDbText
  0
LINE
  5
12E9
330
1E
100
AcDbEntity
  8
HILF
100
AcDbLine
 10
525.0
 20
-0.0000000000001421
 30
0.0
 11
524.9999999999999
 21
742.4999999999999
 31
0.0
  0
TEXT
  5
12EA
330
1E
100
AcDbEntity
  8
VOLL
100
AcDbText
 10
15.48184921861335
 20
-127.4361817384096
 30
0.0
 40
1.8
  1

  7
GREEKS
100
AcDbText
  0
TEXT
  5
12EB
330
1E
100
AcDbEntity
  8
TEXT
100
AcDbText
 10
52.31887438722093
 20
139.5899999999999
 30
0.0
 40
6.25
  1
Erstellt mit AUTOCAD 2004
 41
0.8
  7
GREEKS
100
AcDbText
  0
TEXT
  5
12EC
330
1E
100
AcDbEntity
  8
TEXT
100
AcDbText
 10
243.0270060726571
 20
78.86204899654387
 30
0.0
 40
5.0
  1
Koeh
 41
0.8
  7
GREEKS
 72
     1
 11
249.5984346440857
 21
78.86204899654387
 31
0.0
100
AcDbText
  0
TEXT
  5
12ED
330
1E
100
AcDbEntity
  8
TEXT
 62
     1
100
AcDbText
 10
429.7263134845003
 20
110.1862678614245
 30
0.0
 40
8.75
  1
00806125W
 41
0.8
  7
GREEKS
 72
     1
 11
459.0596468178337
 21
110.1862678614245
 31
0.0
100
AcDbText
  0
TEXT
  5
12EE
330
1E
100
AcDbEntity
  8
TEXT
 62
     1
100
AcDbText
 10
188.1257883102358
 20
110.1862678614245
 30
0.0
 40
8.75
  1
1:2.5
 41
0.8
  7
GREEKS
100
AcDbText
  0
TEXT
  5
12EF
330
1E
100
AcDbEntity
  8
TEXT
100
AcDbText
 10
200.4987463852951
 20
78.88456301032164
 30
0.0
 40
5.0
  1
28.02.
 41
0.8
  7
GREEKS
 72
     1
 11
209.2606511471998
 21
78.88456301032164
 31
0.0
100
AcDbText
  0
TEXT
  5
12F0
330
1E
100
AcDbEntity
  8
TEXT
 62
     1
100
AcDbText
 10
280.6475495935391
 20
109.2718598656722
 30
0.0
 40
8.75
  1
Sicherungsschelle DN125
 41
0.75
  7
GREEKS
100
AcDbText
  0
TEXT
  5
12F3
330
1E
100
AcDbEntity
  8
TEXT
100
AcDbText
 10
281.4120488906644
 20
64.55014928802697
 30
0.0
 40
6.25
  1
EDV-Art.Nr. 00806.125X
 41
0.8
  7
GREEKS
100
AcDbText
  0
TEXT
  5
12F4
330
1E
100
AcDbEntity
  8
TEXT
100
AcDbText
 10
281.2296876972284
 20
53.28717691278291
 30
0.0
 40
5.0
  1
00806100W.DWG
 41
0.8
  7
GREEKS
100
AcDbText
  0
TEXT
  5
12F5
330
1E
100
AcDbEntity
  8
TEXT
100
AcDbText
 10
228.282665260105
 20
113.4545480127878
 30
0.0
 40
5.0
  1
DIN EN1123-2
 41
0.8
  7
GREEKS
 72
     1
 11
249.5207604982003
 21
113.4545480127878
 31
0.0
100
AcDbText
  0
INSERT
  5
12F6
330
1E
100
AcDbEntity
  8
STEMPEL
100
AcDbBlockReference
  2
LOGO
 10
176.2444356822243
 20
56.27631595560401
 30
0.0
 41
2.5
 42
2.5
 43
2.5
  0
TEXT
  5
12F7
330
1E
100
AcDbEntity
  8
BEM
100
AcDbText
 10
521.6278654821457
 20
12.70987634998562
 30
0.0
 40
5.0
  1
Diese Zeichnung ist urheberrechtlich geschützt und bleibt unser Eigentum. Sie darf weder ganz noch teilweise verfielfältigt und nicht an Dritte weitergegeben werden.
 50
90.0
 41
0.8
  7
GREEKS
100
AcDbText
  0
LINE
  5
1C9C
330
1E
100
AcDbEntity
  8
STEMPEL
100
AcDbLine
 10
413.5472601488114
 20
495.5872070417258
 30
0.0
 11
416.3092222737351
 21
495.5872070417258
 31
0.0
  0
LINE
  5
1C9D
330
1E
100
AcDbEntity
  8
HILF
100
AcDbLine
 10
413.5472601488114
 20
496.5072070417257
 30
0.0
 11
414.809222273735
 21
496.5072070417257
 31
0.0
  0
LINE
  5
1C9E
330
1E
100
AcDbEntity
  8
HILF
100
AcDbLine
 10
413.5472601488114
 20
504.6672070417257
 30
0.0
 11
414.809222273735
 21
504.6672070417257
 31
0.0
  0
LINE
  5
1C9F
330
1E
100
AcDbEntity
  8
STEMPEL
100
AcDbLine
 10
413.5472601488114
 20
505.5872070417258
 30
0.0
 11
416.3092222737351
 21
505.5872070417258
 31
0.0
  0
LINE
  5
1CA0
330
1E
100
AcDbEntity
  8
STEMPEL
100
AcDbLine
 10
413.0472601488113
 20
491.8372070417258
 30
0.0
 11
413.5472601488114
 21
491.8372070417258
 31
0.0
  0
LINE
  5
1CA1
330
1E
100
AcDbEntity
  8
STEMPEL
100
AcDbLine
 10
413.0472601488113
 20
509.3372070417258
 30
0.0
 11
413.5472601488114
 21
509.3372070417258
 31
0.0
  0
LINE
  5
1CA2
330
1E
100
AcDbEntity
  8
STEMPEL
100
AcDbLine
 10
413.0472601488113
 20
509.3372070417258
 30
0.0
 11
413.0472601488113
 21
491.8372070417258
 31
0.0
  0
LINE
  5
1CA3
330
1E
100
AcDbEntity
  8
STEMPEL
100
AcDbLine
 10
413.5472601488114
 20
509.3372070417258
 30
0.0
 11
413.5472601488114
 21
491.8372070417258
 31
0.0
  0
LINE
  5
1CA4
330
1E
100
AcDbEntity
  8
STEMPEL
100
AcDbLine
 10
413.5472601488114
 20
545.5872070417258
 30
0.0
 11
416.3092222737351
 21
545.5872070417258
 31
0.0
  0
LINE
  5
1CA5
330
1E
100
AcDbEntity
  8
HILF
100
AcDbLine
 10
413.5472601488114
 20
546.5072070417257
 30
0.0
 11
414.809222273735
 21
546.5072070417257
 31
0.0
  0
LINE
  5
1CA6
330
1E
100
AcDbEntity
  8
HILF
100
AcDbLine
 10
413.5472601488114
 20
554.6672070417257
 30
0.0
 11
414.809222273735
 21
554.6672070417257
 31
0.0
  0
LINE
  5
1CA7
330
1E
100
AcDbEntity
  8
STEMPEL
100
AcDbLine
 10
413.5472601488114
 20
555.5872070417258
 30
0.0
 11
416.3092222737351
 21
555.5872070417258
 31
0.0
  0
LINE
  5
1CA8
330
1E
100
AcDbEntity
  8
STEMPEL
100
AcDbLine
 10
413.5472601488114
 20
559.3372070417258
 30
0.0
 11
413.5472601488114
 21
541.8372070417258
 31
0.0
  0
LINE
  5
1CA9
330
1E
100
AcDbEntity
  8
STEMPEL
100
AcDbLine
 10
413.0472601488113
 20
559.3372070417258
 30
0.0
 11
413.0472601488113
 21
541.8372070417258
 31
0.0
  0
LINE
  5
1CAA
330
1E
100
AcDbEntity
  8
STEMPEL
100
AcDbLine
 10
413.0472601488113
 20
559.3372070417258
 30
0.0
 11
413.5472601488114
 21
559.3372070417258
 31
0.0
  0
LINE
  5
1CAB
330
1E
100
AcDbEntity
  8
STEMPEL
100
AcDbLine
 10
413.0472601488113
 20
541.8372070417258
 30
0.0
 11
413.5472601488114
 21
541.8372070417258
 31
0.0
  0
LINE
  5
1CAC
330
1E
100
AcDbEntity
  8
STEMPEL
100
AcDbLine
 10
82.54682181012753
 20
315.56812529751
 30
0.0
 11
82.54682181012753
 21
312.8181252975102
 31
0.0
  0
LINE
  5
1CAD
330
1E
100
AcDbEntity
  8
HILF
100
AcDbLine
 10
83.4668218101275
 20
315.56812529751
 30
0.0
 11
83.46682181012756
 21
314.3181252975101
 31
0.0
  0
LINE
  5
1CAE
330
1E
100
AcDbEntity
  8
HILF
100
AcDbLine
 10
91.62682181012753
 20
315.56812529751
 30
0.0
 11
91.62682181012753
 21
314.3181252975101
 31
0.0
  0
LINE
  5
1CAF
330
1E
100
AcDbEntity
  8
STEMPEL
100
AcDbLine
 10
92.54682181012753
 20
315.5681252975102
 30
0.0
 11
92.54682181012753
 21
312.8181252975102
 31
0.0
  0
LINE
  5
1CB0
330
1E
100
AcDbEntity
  8
STEMPEL
100
AcDbLine
 10
92.54682181012748
 20
315.5681252975102
 30
0.0
 11
92.54682181012753
 21
312.8181252975102
 31
0.0
  0
LINE
  5
1CB1
330
1E
100
AcDbEntity
  8
HILF
100
AcDbLine
 10
93.4668218101275
 20
315.56812529751
 30
0.0
 11
93.46682181012756
 21
314.3181252975101
 31
0.0
  0
LINE
  5
1CB2
330
1E
100
AcDbEntity
  8
HILF
100
AcDbLine
 10
101.6268218101275
 20
315.5681252975101
 30
0.0
 11
101.6268218101275
 21
314.3181252975101
 31
0.0
  0
LINE
  5
1CB3
330
1E
100
AcDbEntity
  8
STEMPEL
100
AcDbLine
 10
102.5468218101275
 20
315.5681252975102
 30
0.0
 11
102.5468218101275
 21
312.8181252975102
 31
0.0
  0
LINE
  5
1CB4
330
1E
100
AcDbEntity
  8
STEMPEL
100
AcDbLine
 10
96.29682181012753
 20
316.0681252975102
 30
0.0
 11
96.29682181012753
 21
315.5681252975102
 31
0.0
  0
LINE
  5
1CB5
330
1E
100
AcDbEntity
  8
STEMPEL
100
AcDbLine
 10
106.2968218101275
 20
315.5681252975102
 30
0.0
 11
78.79682181012753
 21
315.56812529751
 31
0.0
  0
LINE
  5
1CB6
330
1E
100
AcDbEntity
  8
STEMPEL
100
AcDbLine
 10
106.2968218101275
 20
316.0681252975102
 30
0.0
 11
78.79682181012753
 21
316.0681252975101
 31
0.0
  0
LINE
  5
1CB7
330
1E
100
AcDbEntity
  8
STEMPEL
100
AcDbLine
 10
106.2968218101275
 20
316.0681252975102
 30
0.0
 11
106.2968218101275
 21
315.5681252975102
 31
0.0
  0
LINE
  5
1CB8
330
1E
100
AcDbEntity
  8
STEMPEL
100
AcDbLine
 10
78.79682181012753
 20
316.0681252975102
 30
0.0
 11
78.79682181012753
 21
315.5681252975102
 31
0.0
  0
LINE
  5
1CB9
330
1E
100
AcDbEntity
  8
STEMPEL
100
AcDbLine
 10
262.5468218101275
 20
315.56812529751
 30
0.0
 11
262.5468218101275
 21
312.8181252975102
 31
0.0
  0
LINE
  5
1CBA
330
1E
100
AcDbEntity
  8
HILF
100
AcDbLine
 10
263.4668218101275
 20
315.56812529751
 30
0.0
 11
263.4668218101276
 21
314.3181252975101
 31
0.0
  0
LINE
  5
1CBB
330
1E
100
AcDbEntity
  8
HILF
100
AcDbLine
 10
271.6268218101275
 20
315.56812529751
 30
0.0
 11
271.6268218101275
 21
314.3181252975101
 31
0.0
  0
LINE
  5
1CBC
330
1E
100
AcDbEntity
  8
STEMPEL
100
AcDbLine
 10
272.5468218101275
 20
315.56812529751
 30
0.0
 11
272.5468218101275
 21
312.8181252975102
 31
0.0
  0
LINE
  5
1CBD
330
1E
100
AcDbEntity
  8
STEMPEL
100
AcDbLine
 10
272.5468218101275
 20
315.56812529751
 30
0.0
 11
272.5468218101275
 21
312.8181252975102
 31
0.0
  0
LINE
  5
1CBE
330
1E
100
AcDbEntity
  8
HILF
100
AcDbLine
 10
273.4668218101276
 20
315.56812529751
 30
0.0
 11
273.4668218101276
 21
314.3181252975101
 31
0.0
  0
LINE
  5
1CBF
330
1E
100
AcDbEntity
  8
HILF
100
AcDbLine
 10
281.6268218101275
 20
315.56812529751
 30
0.0
 11
281.6268218101275
 21
314.3181252975101
 31
0.0
  0
LINE
  5
1CC0
330
1E
100
AcDbEntity
  8
STEMPEL
100
AcDbLine
 10
282.5468218101276
 20
315.5681252975102
 30
0.0
 11
282.5468218101276
 21
312.8181252975102
 31
0.0
  0
LINE
  5
1CC1
330
1E
100
AcDbEntity
  8
STEMPEL
100
AcDbLine
 10
258.7968218101275
 20
316.0681252975101
 30
0.0
 11
258.7968218101275
 21
315.5681252975101
 31
0.0
  0
LINE
  5
1CC2
330
1E
100
AcDbEntity
  8
STEMPEL
100
AcDbLine
 10
268.7968218101275
 20
316.0681252975101
 30
0.0
 11
268.7968218101275
 21
315.56812529751
 31
0.0
  0
LINE
  5
1CC3
330
1E
100
AcDbEntity
  8
STEMPEL
100
AcDbLine
 10
286.2968218101276
 20
316.0681252975101
 30
0.0
 11
286.2968218101276
 21
315.5681252975101
 31
0.0
  0
LINE
  5
1CC4
330
1E
100
AcDbEntity
  8
STEMPEL
100
AcDbLine
 10
286.2968218101276
 20
316.0681252975101
 30
0.0
 11
258.7968218101275
 21
316.0681252975101
 31
0.0
  0
LINE
  5
1CC5
330
1E
100
AcDbEntity
  8
STEMPEL
100
AcDbLine
 10
286.2968218101276
 20
315.5681252975101
 30
0.0
 11
258.7968218101275
 21
315.56812529751
 31
0.0
  0
LINE
  5
1CC6
330
1E
100
AcDbEntity
  8
HILF
100
AcDbLine
 10
184.8316218101275
 20
506.4848070417253
 30
0.0
 11
181.2140218101276
 21
506.4848070417253
 31
0.0
  0
LINE
  5
1CC7
330
1E
100
AcDbEntity
  8
HILF
100
AcDbLine
 10
184.8316218101275
 20
506.4848070417253
 30
0.0
 11
184.8316218101275
 21
506.1992070417254
 31
0.0
  0
LINE
  5
1CC8
330
1E
100
AcDbEntity
  8
HILF
100
AcDbLine
 10
180.2620218101272
 20
505.532807041725
 30
0.0
 11
180.2620218101272
 21
500.8680070417248
 31
0.0
  0
ARC
  5
1CC9
330
1E
100
AcDbEntity
  8
HILF
100
AcDbCircle
 10
182.5468218101278
 20
490.8720070417258
 30
0.0
 40
2.2848
100
AcDbArc
 50
180.0
 51
131.8103148958014
  0
CIRCLE
  5
1CCA
330
1E
100
AcDbEntity
  8
HILF
100
AcDbCircle
 10
182.5468218101278
 20
490.8720070417258
 30
0.0
 40
1.9992
  0
LINE
  5
1CCB
330
1E
100
AcDbEntity
  8
HILF
100
AcDbLine
 10
180.5476218101272
 20
505.532807041725
 30
0.0
 11
180.5476218101272
 21
502.7838700848471
 31
0.0
  0
LINE
  5
1CCC
330
1E
100
AcDbEntity
  8
HILF
100
AcDbLine
 10
184.5460218101276
 20
497.2504070417242
 30
0.0
 11
184.5460218101276
 21
495.5368070417243
 31
0.0
  0
LINE
  5
1CCD
330
1E
100
AcDbEntity
  8
HILF
100
AcDbLine
 10
184.8316218101275
 20
506.1992070417254
 30
0.0
 11
181.2140218101276
 21
506.1992070417254
 31
0.0
  0
CIRCLE
  5
1CCE
330
1E
100
AcDbEntity
  8
HILF
100
AcDbCircle
 10
182.5468218101278
 20
500.868007041725
 30
0.0
 40
1.9992
  0
ARC
  5
1CCF
330
1E
100
AcDbEntity
  8
HILF
100
AcDbCircle
 10
182.5468218101278
 20
500.868007041725
 30
0.0
 40
2.2848
100
AcDbArc
 50
180.0
 51
131.8103148958014
  0
LINE
  5
1CD0
330
1E
100
AcDbEntity
  8
HILF
100
AcDbLine
 10
180.2620218101272
 20
497.8216070417243
 30
0.0
 11
184.8316218101275
 21
497.8216070417243
 31
0.0
  0
LINE
  5
1CD1
330
1E
100
AcDbEntity
  8
HILF
100
AcDbLine
 10
180.2620218101272
 20
497.5360070417242
 30
0.0
 11
182.4516218101273
 21
497.5360070417242
 31
0.0
  0
LINE
  5
1CD2
330
1E
100
AcDbEntity
  8
HILF
100
AcDbLine
 10
183.0228218101272
 20
497.2504070417242
 30
0.0
 11
183.0228218101272
 21
495.5368070417243
 31
0.0
  0
ARC
  5
1CD3
330
1E
100
AcDbEntity
  8
HILF
100
AcDbCircle
 10
183.7844218101274
 20
495.5368070417245
 30
0.0
 40
1.047199999999994
100
AcDbArc
 50
222.6269444216468
 51
0.0
  0
ARC
  5
1CD4
330
1E
100
AcDbEntity
  8
HILF
100
AcDbCircle
 10
183.7844218101274
 20
495.5368070417245
 30
0.0
 40
0.7615999999999948
100
AcDbArc
 50
180.0
 51
0.0
  0
LINE
  5
1CD5
330
1E
100
AcDbEntity
  8
HILF
100
AcDbLine
 10
181.0136979983925
 20
494.4962685107006
 30
0.0
 11
182.1734646689286
 21
494.9183890574714
 31
0.0
  0
ARC
  5
1CD6
330
1E
100
AcDbEntity
  8
HILF
100
AcDbCircle
 10
181.2140218101276
 20
505.5328070417251
 30
0.0
 40
0.9520000000000001
100
AcDbArc
 50
90.0
 51
180.0
  0
ARC
  5
1CD7
330
1E
100
AcDbEntity
  8
HILF
100
AcDbCircle
 10
181.2140218101276
 20
505.5328070417251
 30
0.0
 40
0.6664000000000002
100
AcDbArc
 50
90.0
 51
180.0
  0
LINE
  5
1CD8
330
1E
100
AcDbEntity
  8
HILF
100
AcDbLine
 10
184.8316218101275
 20
497.8216070417243
 30
0.0
 11
184.8316218101275
 21
495.5368070417243
 31
0.0
  0
LINE
  5
1CD9
330
1E
100
AcDbEntity
  8
HILF
100
AcDbLine
 10
180.5476218101272
 20
493.422763660716
 30
0.0
 11
180.5476218101272
 21
492.7878700848466
 31
0.0
  0
LINE
  5
1CDA
330
1E
100
AcDbEntity
  8
HILF
100
AcDbLine
 10
180.2620218101272
 20
493.422763660716
 30
0.0
 11
180.2620218101272
 21
490.8720070417258
 31
0.0
  0
LINE
  5
1CDB
330
1E
100
AcDbEntity
  8
HILF
100
AcDbLine
 10
180.2620218101272
 20
497.8216070417243
 30
0.0
 11
180.2620218101272
 21
497.5360070417242
 31
0.0
  0
ARC
  5
1CDC
330
1E
100
AcDbEntity
  8
HILF
100
AcDbCircle
 10
180.8332218101271
 20
502.7838700848471
 30
0.0
 40
0.2856
100
AcDbArc
 50
180.0
 51
311.8103148958015
  0
ARC
  5
1CDD
330
1E
100
AcDbEntity
  8
HILF
100
AcDbCircle
 10
184.2604218101276
 20
497.2504070417244
 30
0.0
 40
0.2856
100
AcDbArc
 50
0.0
 51
90.0
  0
LINE
  5
1CDE
330
1E
100
AcDbEntity
  8
HILF
100
AcDbLine
 10
182.7372218101272
 20
497.2504070417242
 30
0.0
 11
182.7372218101272
 21
495.7235176949602
 31
0.0
  0
LINE
  5
1CDF
330
1E
100
AcDbEntity
  8
HILF
100
AcDbLine
 10
183.3084218101272
 20
497.5360070417242
 30
0.0
 11
184.2604218101276
 21
497.5360070417242
 31
0.0
  0
ARC
  5
1CE0
330
1E
100
AcDbEntity
  8
HILF
100
AcDbCircle
 10
183.3084218101272
 20
497.2504070417244
 30
0.0
 40
0.2856
100
AcDbArc
 50
90.0
 51
180.0
  0
ARC
  5
1CE1
330
1E
100
AcDbEntity
  8
HILF
100
AcDbCircle
 10
182.4516218101273
 20
497.2504070417244
 30
0.0
 40
0.2856
100
AcDbArc
 50
0.0
 51
90.0
  0
ARC
  5
1CE2
330
1E
100
AcDbEntity
  8
HILF
100
AcDbCircle
 10
180.8332218101271
 20
492.7878700848466
 30
0.0
 40
0.2856
100
AcDbArc
 50
180.0
 51
311.8103148958015
  0
LINE
  5
1CE3
330
1E
100
AcDbEntity
  8
HILF
100
AcDbLine
 10
181.1113789513258
 20
494.2278922982064
 30
0.0
 11
182.2711456218627
 21
494.650012844974
 31
0.0
  0
ARC
  5
1CE4
330
1E
100
AcDbEntity
  8
HILF
100
AcDbCircle
 10
181.4044218101271
 20
493.422763660716
 30
0.0
 40
0.8568000000000001
100
AcDbArc
 50
110.0000000000034
 51
180.0
  0
ARC
  5
1CE5
330
1E
100
AcDbEntity
  8
HILF
100
AcDbCircle
 10
181.8804218101273
 20
495.7235176949602
 30
0.0
 40
0.8568000000000001
100
AcDbArc
 50
290.0000000000034
 51
0.0
  0
ARC
  5
1CE6
330
1E
100
AcDbEntity
  8
HILF
100
AcDbCircle
 10
181.8804218101273
 20
495.7235176949602
 30
0.0
 40
1.1424
100
AcDbArc
 50
290.0000000000034
 51
310.2862365156004
  0
ARC
  5
1CE7
330
1E
100
AcDbEntity
  8
HILF
100
AcDbCircle
 10
181.4044218101271
 20
493.422763660716
 30
0.0
 40
1.1424
100
AcDbArc
 50
110.0000000000034
 51
180.0
  0
ARC
  5
1CE8
330
1E
100
AcDbEntity
  8
HILF
100
AcDbCircle
 10
182.8037759693807
 20
494.6342054823283
 30
0.0
 40
0.2856
100
AcDbArc
 50
42.62694442164682
 51
130.2862365156004
  0
LINE
  5
1CE9
330
1E
100
AcDbEntity
  8
HILF
100
AcDbLine
 10
182.5468218101278
 20
503.3753840042322
 30
0.0
 11
182.5468218101278
 21
498.2250489661951
 31
0.0
  0
LINE
  5
1CEA
330
1E
100
AcDbEntity
  8
HILF
100
AcDbLine
 10
182.5468218101278
 20
493.440106299457
 30
0.0
 11
182.5468218101278
 21
488.388989420516
 31
0.0
  0
LINE
  5
1CEB
330
1E
100
AcDbEntity
  8
HILF
100
AcDbLine
 10
251.6480836185132
 20
515.5952855256836
 30
0.0
 11
113.4455600017418
 21
515.5952855256836
 31
0.0
  0
LINE
  5
1CEC
330
1E
100
AcDbEntity
  8
HILF
100
AcDbLine
 10
260.3748886263688
 20
535.039128790206
 30
0.0
 11
104.7187549938862
 21
535.039128790206
 31
0.0
  0
LINE
  5
1CED
330
1E
100
AcDbEntity
  8
HILF
100
AcDbLine
 10
260.4657310061085
 20
561.0474172286781
 30
0.0
 11
104.6279126141466
 21
561.047417228678
 31
0.0
  0
LINE
  5
1CEE
330
1E
100
AcDbEntity
  8
HILF
100
AcDbLine
 10
112.5640799661421
 20
514.5130874559932
 30
0.0
 11
112.5640799661422
 21
480.5872070417258
 31
0.0
  0
LINE
  5
1CEF
330
1E
100
AcDbEntity
  8
HILF
100
AcDbLine
 10
104.2786607545525
 20
533.3896996077853
 30
0.0
 11
112.0956189013255
 21
516.6261787646965
 31
0.0
  0
ARC
  5
1CF0
330
1E
100
AcDbEntity
  8
HILF
100
AcDbCircle
 10
107.5640799661421
 20
514.5130874559932
 30
0.0
 40
5.0
100
AcDbArc
 50
0.0
 51
24.99999999999791
  0
LINE
  5
1CF1
330
1E
100
AcDbEntity
  8
HILF
100
AcDbLine
 10
103.9210456039256
 20
562.2685739521588
 30
0.0
 11
106.6239333404608
 21
570.5872070417257
 31
0.0
  0
ARC
  5
1CF2
330
1E
100
AcDbEntity
  8
HILF
100
AcDbCircle
 10
111.5291230508466
 20
559.7940722502372
 30
0.0
 40
8.0
100
AcDbArc
 50
161.9728905859786
 51
180.0
  0
LINE
  5
1CF3
330
1E
100
AcDbEntity
  8
HILF
100
AcDbLine
 10
103.5291230508457
 20
559.7940722502372
 30
0.0
 11
103.5291230508457
 21
536.7706457017109
 31
0.0
  0
ARC
  5
1CF4
330
1E
100
AcDbEntity
  8
HILF
100
AcDbCircle
 10
111.5291230508457
 20
536.7706457017109
 30
0.0
 40
8.0
100
AcDbArc
 50
180.0
 51
204.9999999999993
  0
ARC
  5
1CF5
330
1E
100
AcDbEntity
  8
HILF
100
AcDbCircle
 10
253.5645205694093
 20
536.7706457017109
 30
0.0
 40
8.0
100
AcDbArc
 50
335.0000000000005
 51
0.0
  0
LINE
  5
1CF6
330
1E
100
AcDbEntity
  8
HILF
100
AcDbLine
 10
261.5645205694093
 20
559.7940722502372
 30
0.0
 11
261.5645205694093
 21
536.7706457017109
 31
0.0
  0
LINE
  5
1CF7
330
1E
100
AcDbEntity
  8
HILF
100
AcDbLine
 10
252.5295636541129
 20
514.5130874559932
 30
0.0
 11
252.5295636541128
 21
480.5872070417258
 31
0.0
  0
ARC
  5
1CF8
330
1E
100
AcDbEntity
  8
HILF
100
AcDbCircle
 10
257.5295636541129
 20
514.5130874559932
 30
0.0
 40
5.0
100
AcDbArc
 50
155.000000000002
 51
180.0
  0
LINE
  5
1CF9
330
1E
100
AcDbEntity
  8
HILF
100
AcDbLine
 10
260.8149828657026
 20
533.3896996077853
 30
0.0
 11
252.9980247189296
 21
516.6261787646965
 31
0.0
  0
ARC
  5
1CFA
330
1E
100
AcDbEntity
  8
HILF
100
AcDbCircle
 10
253.5645205694085
 20
559.7940722502372
 30
0.0
 40
8.0
100
AcDbArc
 50
0.0
 51
18.02710941402137
  0
LINE
  5
1CFB
330
1E
100
AcDbEntity
  8
HILF
100
AcDbLine
 10
261.1725980163295
 20
562.2685739521588
 30
0.0
 11
258.4697102797942
 21
570.5872070417257
 31
0.0
  0
LINE
  5
1CFC
330
1E
100
AcDbEntity
  8
HILF
100
AcDbLine
 10
344.0539458689286
 20
516.2446043674979
 30
0.0
 11
407.3092222737349
 21
516.2446043674979
 31
0.0
  0
LINE
  5
1CFD
330
1E
100
AcDbEntity
  8
HILF
100
AcDbLine
 10
335.3932596057595
 20
535.6134239643798
 30
0.0
 11
407.3092222737349
 21
535.6134239643796
 31
0.0
  0
LINE
  5
1CFE
330
1E
100
AcDbEntity
  8
HILF
100
AcDbLine
 10
335.353190539597
 20
560.5774128617627
 30
0.0
 11
405.6119360606959
 21
560.5774128617627
 31
0.0
  0
LINE
  5
1CFF
330
1E
100
AcDbEntity
  8
STEMPEL
100
AcDbLine
 10
337.4040325633491
 20
570.5872070417258
 30
0.0
 11
410.309222273735
 21
570.5872070417258
 31
0.0
  0
LINE
  5
1D00
330
1E
100
AcDbEntity
  8
STEMPEL
100
AcDbLine
 10
343.3092222737351
 20
480.5872070417257
 30
0.0
 11
410.309222273735
 21
480.5872070417258
 31
0.0
  0
ARC
  5
1D01
330
1E
100
AcDbEntity
  8
STEMPEL
100
AcDbCircle
 10
338.309222273735
 20
514.5130874559932
 30
0.0
 40
5.0
100
AcDbArc
 50
0.0
 51
24.99999999999792
  0
LINE
  5
1D02
330
1E
100
AcDbEntity
  8
STEMPEL
100
AcDbLine
 10
343.3092222737351
 20
514.5130874559932
 30
0.0
 11
343.3092222737351
 21
480.5872070417238
 31
0.0
  0
LINE
  5
1D03
330
1E
100
AcDbEntity
  8
STEMPEL
100
AcDbLine
 10
335.0584047519049
 20
533.3154960446348
 30
0.0
 11
342.8407612089184
 21
516.6261787646965
 31
0.0
  0
ARC
  5
1D04
330
1E
100
AcDbEntity
  8
STEMPEL
100
AcDbCircle
 10
342.309222273735
 20
536.6948398765836
 30
0.0
 40
8.0
100
AcDbArc
 50
180.0
 51
204.9816393688632
  0
LINE
  5
1D05
330
1E
100
AcDbEntity
  8
STEMPEL
100
AcDbLine
 10
334.3092222737341
 20
559.7940722502364
 30
0.0
 11
334.309222273735
 21
536.6948398765828
 31
0.0
  0
ARC
  5
1D06
330
1E
100
AcDbEntity
  8
STEMPEL
100
AcDbCircle
 10
342.309222273735
 20
559.7940722502372
 30
0.0
 40
8.0
100
AcDbArc
 50
161.9728905859786
 51
180.0
  0
LINE
  5
1D07
330
1E
100
AcDbEntity
  8
STEMPEL
100
AcDbLine
 10
334.701144826814
 20
562.2685739521588
 30
0.0
 11
337.4040325633492
 21
570.5872070417257
 31
0.0
  0
LINE
  5
1D08
330
1E
100
AcDbEntity
  8
STEMPEL
100
AcDbLine
 10
483.309222273735
 20
480.5872070417257
 30
0.0
 11
416.309222273735
 21
480.5872070417258
 31
0.0
  0
LINE
  5
1D09
330
1E
100
AcDbEntity
  8
STEMPEL
100
AcDbLine
 10
416.309222273735
 20
480.5872070417258
 30
0.0
 11
416.309222273735
 21
570.5872070417258
 31
0.0
  0
LINE
  5
1D0A
330
1E
100
AcDbEntity
  8
STEMPEL
100
AcDbLine
 10
489.2144119841209
 20
570.5872070417258
 30
0.0
 11
416.309222273735
 21
570.5872070417258
 31
0.0
  0
LINE
  5
1D0B
330
1E
100
AcDbEntity
  8
HILF
100
AcDbLine
 10
491.265254007873
 20
560.5774128617627
 30
0.0
 11
421.0065084867741
 21
560.5774128617627
 31
0.0
  0
LINE
  5
1D0C
330
1E
100
AcDbEntity
  8
HILF
100
AcDbLine
 10
491.2251849417105
 20
535.6134239643798
 30
0.0
 11
419.3092222737351
 21
535.6134239643796
 31
0.0
  0
LINE
  5
1D0D
330
1E
100
AcDbEntity
  8
HILF
100
AcDbLine
 10
482.5644986785414
 20
516.2446043674979
 30
0.0
 11
419.3092222737351
 21
516.2446043674979
 31
0.0
  0
LINE
  5
1D0E
330
1E
100
AcDbEntity
  8
STEMPEL
100
AcDbLine
 10
491.917299720656
 20
562.2685739521588
 30
0.0
 11
489.2144119841208
 21
570.5872070417257
 31
0.0
  0
ARC
  5
1D0F
330
1E
100
AcDbEntity
  8
STEMPEL
100
AcDbCircle
 10
484.309222273735
 20
559.7940722502372
 30
0.0
 40
8.0
100
AcDbArc
 50
0.0
 51
18.02710941402137
  0
LINE
  5
1D10
330
1E
100
AcDbEntity
  8
STEMPEL
100
AcDbLine
 10
492.3092222737359
 20
559.7940722502364
 30
0.0
 11
492.309222273735
 21
536.6948398765828
 31
0.0
  0
ARC
  5
1D11
330
1E
100
AcDbEntity
  8
STEMPEL
100
AcDbCircle
 10
484.309222273735
 20
536.6948398765836
 30
0.0
 40
8.0
100
AcDbArc
 50
335.0183606311365
 51
0.0
  0
LINE
  5
1D12
330
1E
100
AcDbEntity
  8
STEMPEL
100
AcDbLine
 10
491.5600397955651
 20
533.3154960446348
 30
0.0
 11
483.7776833385516
 21
516.6261787646965
 31
0.0
  0
LINE
  5
1D13
330
1E
100
AcDbEntity
  8
STEMPEL
100
AcDbLine
 10
483.309222273735
 20
514.5130874559932
 30
0.0
 11
483.309222273735
 21
480.5872070417238
 31
0.0
  0
ARC
  5
1D14
330
1E
100
AcDbEntity
  8
STEMPEL
100
AcDbCircle
 10
488.309222273735
 20
514.5130874559932
 30
0.0
 40
5.0
100
AcDbArc
 50
155.000000000002
 51
180.0
  0
LINE
  5
1D15
330
1E
100
AcDbEntity
  8
STEMPEL
100
AcDbLine
 10
416.309222273735
 20
480.5872070417258
 30
0.0
 11
416.309222273735
 21
570.5872070417258
 31
0.0
  0
ARC
  5
1D16
330
1E
100
AcDbEntity
  8
STEMPEL
100
AcDbCircle
 10
104.8615593725196
 20
308.8181252975102
 30
0.0
 40
1.0
100
AcDbArc
 50
5.148856173378415
 51
90.0
  0
ARC
  5
1D17
330
1E
100
AcDbEntity
  8
STEMPEL
100
AcDbCircle
 10
104.8615593725196
 20
322.8181252975101
 30
0.0
 40
1.0
100
AcDbArc
 50
270.0
 51
354.8511438266232
  0
ARC
  5
1D18
330
1E
100
AcDbEntity
  8
STEMPEL
100
AcDbCircle
 10
260.2320842477352
 20
308.8181252975102
 30
0.0
 40
1.0
100
AcDbArc
 50
89.99999999999349
 51
174.8511438266248
  0
ARC
  5
1D19
330
1E
100
AcDbEntity
  8
STEMPEL
100
AcDbCircle
 10
260.2320842477352
 20
322.8181252975101
 30
0.0
 40
1.0
100
AcDbArc
 50
185.1488561733784
 51
270.0
  0
ARC
  5
1D1A
330
1E
100
AcDbEntity
  8
STEMPEL
100
AcDbCircle
 10
182.5468218101274
 20
315.8181252975102
 30
0.0
 40
77.0
100
AcDbArc
 50
185.1488561733784
 51
354.8511438266216
  0
ARC
  5
1D1B
330
1E
100
AcDbEntity
  8
STEMPEL
100
AcDbCircle
 10
182.5468218101274
 20
315.8181252975102
 30
0.0
 40
77.0
100
AcDbArc
 50
5.148856173378415
 51
174.8511438266216
  0
ARC
  5
1D1C
330
1E
100
AcDbEntity
  8
STEMPEL
  6
Continuous
100
AcDbCircle
 10
420.059222273735
 20
560.9872070417257
 30
0.0
 40
0.7499999999999995
100
AcDbArc
 50
20.00000000000135
 51
180.0
  0
ARC
  5
1D1D
330
1E
100
AcDbEntity
  8
STEMPEL
  6
Continuous
100
AcDbCircle
 10
420.059222273735
 20
540.1872070417257
 30
0.0
 40
0.7500000000000006
100
AcDbArc
 50
180.0
 51
339.9999999999987
  0
LINE
  5
1D1E
330
1E
100
AcDbEntity
  8
STEMPEL
  6
Continuous
100
AcDbLine
 10
420.7639917393244
 20
539.9306919342315
 30
0.0
 11
421.9128692824638
 21
543.0872070417258
 31
0.0
  0
LINE
  5
1D1F
330
1E
100
AcDbEntity
  8
STEMPEL
  6
Continuous
100
AcDbLine
 10
421.9128692824638
 20
558.0872070417258
 30
0.0
 11
420.7639917393244
 21
561.24372214922
 31
0.0
  0
LINE
  5
1D20
330
1E
100
AcDbEntity
  8
STEMPEL
  6
Continuous
100
AcDbLine
 10
428.509222273735
 20
543.0872070417258
 30
0.0
 11
428.509222273735
 21
558.0872070417258
 31
0.0
  0
LINE
  5
1D21
330
1E
100
AcDbEntity
  8
STEMPEL
  6
Continuous
100
AcDbLine
 10
419.309222273735
 20
540.1872070417257
 30
0.0
 11
419.309222273735
 21
560.9872070417257
 31
0.0
  0
LINE
  5
1D22
330
1E
100
AcDbEntity
  8
HILF
  6
Continuous
100
AcDbLine
 10
420.7639917393244
 20
539.9306919342315
 30
0.0
 11
420.7639917393244
 21
561.24372214922
 31
0.0
  0
LINE
  5
1D23
330
1E
100
AcDbEntity
  8
HILF
  6
Continuous
100
AcDbLine
 10
414.809222273735
 20
555.5872070417258
 30
0.0
 11
414.809222273735
 21
545.5872070417258
 31
0.0
  0
LINE
  5
1D24
330
1E
100
AcDbEntity
  8
MITTEL
100
AcDbLine
 10
433.509222273735
 20
550.5872070417258
 30
0.0
 11
384.309222273735
 21
550.5872070417258
 31
0.0
  0
LINE
  5
1D25
330
1E
100
AcDbEntity
  8
STEMPEL
100
AcDbLine
 10
390.229222273735
 20
545.5872070417258
 30
0.0
 11
390.229222273735
 21
555.5872070417258
 31
0.0
  0
LINE
  5
1D26
330
1E
100
AcDbEntity
  8
STEMPEL
100
AcDbLine
 10
390.229222273735
 20
555.5872070417258
 30
0.0
 11
389.3092222737351
 21
554.6672070417257
 31
0.0
  0
LINE
  5
1D27
330
1E
100
AcDbEntity
  8
STEMPEL
100
AcDbLine
 10
389.3092222737351
 20
554.6672070417257
 30
0.0
 11
389.3092222737351
 21
546.5072070417257
 31
0.0
  0
LINE
  5
1D28
330
1E
100
AcDbEntity
  8
STEMPEL
100
AcDbLine
 10
389.3092222737351
 20
546.5072070417257
 30
0.0
 11
390.229222273735
 21
545.5872070417258
 31
0.0
  0
LINE
  5
1D29
330
1E
100
AcDbEntity
  8
STEMPEL
100
AcDbLine
 10
390.229222273735
 20
545.5872070417258
 30
0.0
 11
397.3092222737351
 21
545.5872070417258
 31
0.0
  0
LINE
  5
1D2A
330
1E
100
AcDbEntity
  8
STEMPEL
100
AcDbLine
 10
390.229222273735
 20
555.5872070417258
 30
0.0
 11
397.3092222737351
 21
555.5872070417258
 31
0.0
  0
LINE
  5
1D2B
330
1E
100
AcDbEntity
  8
HILF
100
AcDbLine
 10
389.3092222737351
 20
546.5072070417257
 30
0.0
 11
397.3092222737351
 21
546.5072070417258
 31
0.0
  0
LINE
  5
1D2C
330
1E
100
AcDbEntity
  8
HILF
100
AcDbLine
 10
389.3092222737351
 20
554.6672070417257
 30
0.0
 11
397.3092222737351
 21
554.6672070417257
 31
0.0
  0
LINE
  5
1D2D
330
1E
100
AcDbEntity
  8
HILF
100
AcDbLine
 10
414.809222273735
 20
546.5072070417257
 30
0.0
 11
416.3092222737351
 21
546.200540375059
 31
0.0
  0
LINE
  5
1D2E
330
1E
100
AcDbEntity
  8
HILF
100
AcDbLine
 10
414.809222273735
 20
554.6672070417257
 30
0.0
 11
416.3092222737351
 21
554.9738737083924
 31
0.0
  0
LINE
  5
1D2F
330
1E
100
AcDbEntity
  8
STEMPEL
100
AcDbLine
 10
428.509222273735
 20
558.0872070417258
 30
0.0
 11
421.4905713485014
 21
558.0872070417258
 31
0.0
  0
LINE
  5
1D30
330
1E
100
AcDbEntity
  8
STEMPEL
  6
Continuous
100
AcDbLine
 10
428.1983331412797
 20
550.5872070417258
 30
0.0
 11
421.4905713485014
 21
550.5872070417258
 31
0.0
  0
LINE
  5
1D31
330
1E
100
AcDbEntity
  8
STEMPEL
100
AcDbLine
 10
428.509222273735
 20
543.0872070417258
 30
0.0
 11
421.4905713485014
 21
543.0872070417258
 31
0.0
  0
ARC
  5
1D32
330
1E
100
AcDbEntity
  8
STEMPEL
100
AcDbCircle
 10
405.7371942828364
 20
554.3372070417258
 30
0.0
 40
22.77202799089855
100
AcDbArc
 50
350.5216033605196
 51
9.478396639480399
  0
ARC
  5
1D33
330
1E
100
AcDbEntity
  8
STEMPEL
100
AcDbCircle
 10
405.7371942828364
 20
546.8372070417258
 30
0.0
 40
22.77202799089855
100
AcDbArc
 50
350.5216033605196
 51
9.478396639480399
  0
ARC
  5
1D34
330
1E
100
AcDbEntity
  8
STEMPEL
100
AcDbCircle
 10
405.0517454173061
 20
554.3372070417258
 30
0.0
 40
16.8611238651562
100
AcDbArc
 50
347.1496643135762
 51
12.85033568642386
  0
ARC
  5
1D35
330
1E
100
AcDbEntity
  8
STEMPEL
100
AcDbCircle
 10
405.0517454173061
 20
546.8372070417258
 30
0.0
 40
16.8611238651562
100
AcDbArc
 50
347.1496643135762
 51
12.85033568642386
  0
ARC
  5
1D36
330
1E
100
AcDbEntity
  8
STEMPEL
100
AcDbCircle
 10
406.5592222737349
 20
560.7372070417258
 30
0.0
 40
0.750000000000001
100
AcDbArc
 50
359.9999991462263
 51
159.9999999999986
  0
ARC
  5
1D37
330
1E
100
AcDbEntity
  8
STEMPEL
100
AcDbCircle
 10
406.5592222737349
 20
540.4372070417257
 30
0.0
 40
0.7500000000000013
100
AcDbArc
 50
200.0000000000014
 51
359.9999991462263
  0
LINE
  5
1D38
330
1E
100
AcDbEntity
  8
STEMPEL
100
AcDbLine
 10
404.7965678235726
 20
543.0872070417258
 30
0.0
 11
405.8544528081456
 21
540.1806919342316
 31
0.0
  0
LINE
  5
1D39
330
1E
100
AcDbEntity
  8
STEMPEL
100
AcDbLine
 10
405.8544528081456
 20
560.99372214922
 30
0.0
 11
404.7965678235726
 21
558.0872070417258
 31
0.0
  0
LINE
  5
1D3A
330
1E
100
AcDbEntity
  8
STEMPEL
100
AcDbLine
 10
407.309222273735
 20
560.7372070417258
 30
0.0
 11
407.309222273735
 21
540.4372070417257
 31
0.0
  0
LINE
  5
1D3B
330
1E
100
AcDbEntity
  8
STEMPEL
100
AcDbLine
 10
405.8544528081456
 20
560.99372214922
 30
0.0
 11
405.8544528081456
 21
540.1806919342314
 31
0.0
  0
LINE
  5
1D3C
330
1E
100
AcDbEntity
  8
STEMPEL
100
AcDbLine
 10
397.309222273735
 20
543.0872070417258
 30
0.0
 11
397.309222273735
 21
558.0872070417258
 31
0.0
  0
POINT
  5
1D3D
330
1E
100
AcDbEntity
  8
0
100
AcDbPoint
 10
407.309222273735
 20
550.5872070417258
 30
0.0
210
-1.0
220
0.0000000000000001
230
0.0
  0
LINE
  5
1D3E
330
1E
100
AcDbEntity
  8
STEMPEL
100
AcDbLine
 10
405.2188657575351
 20
558.0872070417258
 30
0.0
 11
397.309222273735
 21
558.0872070417258
 31
0.0
  0
LINE
  5
1D3F
330
1E
100
AcDbEntity
  8
STEMPEL
100
AcDbLine
 10
405.2188657575351
 20
550.5872070417258
 30
0.0
 11
397.6201114061904
 21
550.5872070417258
 31
0.0
  0
LINE
  5
1D40
330
1E
100
AcDbEntity
  8
STEMPEL
100
AcDbLine
 10
405.2188657575351
 20
543.0872070417258
 30
0.0
 11
397.309222273735
 21
543.0872070417258
 31
0.0
  0
LWPOLYLINE
  5
1D41
330
1E
100
AcDbEntity
  8
HILF
100
AcDbPolyline
 90
       23
 70
     0
 43
0.0
 10
405.2188657575351
 20
543.0872070417258
 10
405.1701258006168
 20
543.3248883928183
 10
405.0830591121249
 20
543.7843604734574
 10
405.0089803992041
 20
544.2255166646409
 10
404.9765227061085
 20
544.4402116201183
 10
404.9469879985165
 20
544.6514684494522
 10
404.896353471989
 20
545.0650165976534
 10
404.8564992378673
 20
545.4687180676369
 10
404.8269815514946
 20
545.8649424533391
 10
404.8074778683625
 20
546.2559207317101
 10
404.7977779013081
 20
546.6437885081774
 10
404.7965678235732
 20
546.8372070417253
 10
404.7977779013081
 20
547.0306255752732
 10
404.8074778683625
 20
547.4184933517405
 10
404.8269815514946
 20
547.8094716301115
 10
404.8564992378673
 20
548.2056960158138
 10
404.896353471989
 20
548.6093974857974
 10
404.9469879985165
 20
549.0229456339987
 10
404.9765227061085
 20
549.2342024633326
 10
405.0089803992041
 20
549.4488974188102
 10
405.0830591121249
 20
549.8900536099938
 10
405.1701258006168
 20
550.349525690633
 10
405.2188657575351
 20
550.5872070417258
  0
LWPOLYLINE
  5
1D42
330
1E
100
AcDbEntity
  8
HILF
100
AcDbPolyline
 90
       23
 70
     0
 43
0.0
 10
405.2188657575351
 20
550.5872070417258
 10
405.1701258006168
 20
550.8248883928184
 10
405.0830591121249
 20
551.2843604734574
 10
405.0089803992041
 20
551.725516664641
 10
404.9765227061085
 20
551.9402116201184
 10
404.9469879985165
 20
552.1514684494523
 10
404.896353471989
 20
552.5650165976534
 10
404.8564992378673
 20
552.9687180676368
 10
404.8269815514946
 20
553.3649424533392
 10
404.8074778683625
 20
553.7559207317101
 10
404.7977779013081
 20
554.1437885081775
 10
404.7965678235732
 20
554.3372070417253
 10
404.7977779013081
 20
554.5306255752732
 10
404.8074778683625
 20
554.9184933517405
 10
404.8269815514946
 20
555.3094716301115
 10
404.8564992378673
 20
555.7056960158138
 10
404.896353471989
 20
556.1093974857974
 10
404.9469879985165
 20
556.5229456339986
 10
404.9765227061085
 20
556.7342024633326
 10
405.0089803992041
 20
556.9488974188102
 10
405.0830591121249
 20
557.3900536099938
 10
405.1701258006168
 20
557.8495256906331
 10
405.2188657575351
 20
558.0872070417258
  0
ARC
  5
1D43
330
1E
100
AcDbEntity
  8
STEMPEL
100
AcDbCircle
 10
420.081250264633
 20
546.8372070417258
 30
0.0
 40
22.77202799089803
100
AcDbArc
 50
170.5216033605196
 51
189.4783966394804
  0
ARC
  5
1D44
330
1E
100
AcDbEntity
  8
STEMPEL
100
AcDbCircle
 10
420.081250264633
 20
554.3372070417258
 30
0.0
 40
22.77202799089803
100
AcDbArc
 50
170.5216033605196
 51
189.4783966394804
  0
LINE
  5
1D45
330
1E
100
AcDbEntity
  8
STEMPEL
100
AcDbLine
 10
410.309222273735
 20
555.5872070417258
 30
0.0
 11
413.0472601488113
 21
555.5872070417258
 31
0.0
  0
LINE
  5
1D46
330
1E
100
AcDbEntity
  8
HILF
100
AcDbLine
 10
410.309222273735
 20
554.6672070417257
 30
0.0
 11
413.0472601488113
 21
554.6672070417257
 31
0.0
  0
LINE
  5
1D47
330
1E
100
AcDbEntity
  8
HILF
100
AcDbLine
 10
410.309222273735
 20
546.5072070417257
 30
0.0
 11
413.0472601488113
 21
546.5072070417257
 31
0.0
  0
LINE
  5
1D48
330
1E
100
AcDbEntity
  8
STEMPEL
100
AcDbLine
 10
410.309222273735
 20
545.5872070417258
 30
0.0
 11
413.0472601488113
 21
545.5872070417258
 31
0.0
  0
LINE
  5
1D49
330
1E
100
AcDbEntity
  8
STEMPEL
100
AcDbLine
 10
410.309222273735
 20
495.5872070417258
 30
0.0
 11
413.0472601488113
 21
495.5872070417258
 31
0.0
  0
LINE
  5
1D4A
330
1E
100
AcDbEntity
  8
HILF
100
AcDbLine
 10
410.309222273735
 20
496.5072070417257
 30
0.0
 11
413.0472601488113
 21
496.5072070417257
 31
0.0
  0
LINE
  5
1D4B
330
1E
100
AcDbEntity
  8
HILF
100
AcDbLine
 10
410.309222273735
 20
504.6672070417257
 30
0.0
 11
413.0472601488113
 21
504.6672070417257
 31
0.0
  0
LINE
  5
1D4C
330
1E
100
AcDbEntity
  8
STEMPEL
100
AcDbLine
 10
410.309222273735
 20
505.5872070417258
 30
0.0
 11
413.0472601488113
 21
505.5872070417258
 31
0.0
  0
ARC
  5
1D4D
330
1E
100
AcDbEntity
  8
STEMPEL
100
AcDbCircle
 10
420.081250264633
 20
504.3372070417258
 30
0.0
 40
22.77202799089803
100
AcDbArc
 50
170.5216033605196
 51
189.4783966394804
  0
ARC
  5
1D4E
330
1E
100
AcDbEntity
  8
STEMPEL
100
AcDbCircle
 10
420.081250264633
 20
496.8372070417258
 30
0.0
 40
22.77202799089803
100
AcDbArc
 50
170.5216033605196
 51
189.4783966394804
  0
LWPOLYLINE
  5
1D4F
330
1E
100
AcDbEntity
  8
HILF
100
AcDbPolyline
 90
       23
 70
     0
 43
0.0
 10
405.2188657575351
 20
500.5872070417258
 10
405.1701258006168
 20
500.8248883928184
 10
405.0830591121249
 20
501.2843604734574
 10
405.0089803992041
 20
501.725516664641
 10
404.9765227061085
 20
501.9402116201184
 10
404.9469879985165
 20
502.1514684494523
 10
404.896353471989
 20
502.5650165976534
 10
404.8564992378673
 20
502.9687180676368
 10
404.8269815514946
 20
503.3649424533392
 10
404.8074778683625
 20
503.7559207317101
 10
404.7977779013081
 20
504.1437885081775
 10
404.7965678235732
 20
504.3372070417253
 10
404.7977779013081
 20
504.5306255752732
 10
404.8074778683625
 20
504.9184933517405
 10
404.8269815514946
 20
505.3094716301115
 10
404.8564992378673
 20
505.7056960158138
 10
404.896353471989
 20
506.1093974857974
 10
404.9469879985165
 20
506.5229456339986
 10
404.9765227061085
 20
506.7342024633326
 10
405.0089803992041
 20
506.9488974188102
 10
405.0830591121249
 20
507.3900536099938
 10
405.1701258006168
 20
507.8495256906331
 10
405.2188657575351
 20
508.0872070417258
  0
LWPOLYLINE
  5
1D50
330
1E
100
AcDbEntity
  8
HILF
100
AcDbPolyline
 90
       23
 70
     0
 43
0.0
 10
405.2188657575351
 20
493.0872070417258
 10
405.1701258006168
 20
493.3248883928183
 10
405.0830591121249
 20
493.7843604734574
 10
405.0089803992041
 20
494.2255166646409
 10
404.9765227061085
 20
494.4402116201183
 10
404.9469879985165
 20
494.6514684494522
 10
404.896353471989
 20
495.0650165976534
 10
404.8564992378673
 20
495.4687180676369
 10
404.8269815514946
 20
495.8649424533391
 10
404.8074778683625
 20
496.2559207317101
 10
404.7977779013081
 20
496.6437885081774
 10
404.7965678235732
 20
496.8372070417253
 10
404.7977779013081
 20
497.0306255752732
 10
404.8074778683625
 20
497.4184933517405
 10
404.8269815514946
 20
497.8094716301115
 10
404.8564992378673
 20
498.2056960158138
 10
404.896353471989
 20
498.6093974857974
 10
404.9469879985165
 20
499.0229456339987
 10
404.9765227061085
 20
499.2342024633326
 10
405.0089803992041
 20
499.4488974188102
 10
405.0830591121249
 20
499.8900536099938
 10
405.1701258006168
 20
500.349525690633
 10
405.2188657575351
 20
500.5872070417258
  0
LINE
  5
1D51
330
1E
100
AcDbEntity
  8
STEMPEL
100
AcDbLine
 10
405.2188657575351
 20
493.0872070417258
 30
0.0
 11
397.309222273735
 21
493.0872070417258
 31
0.0
  0
LINE
  5
1D52
330
1E
100
AcDbEntity
  8
STEMPEL
100
AcDbLine
 10
405.2188657575351
 20
500.5872070417258
 30
0.0
 11
397.6201114061904
 21
500.5872070417258
 31
0.0
  0
LINE
  5
1D53
330
1E
100
AcDbEntity
  8
STEMPEL
100
AcDbLine
 10
405.2188657575351
 20
508.0872070417258
 30
0.0
 11
397.309222273735
 21
508.0872070417258
 31
0.0
  0
POINT
  5
1D54
330
1E
100
AcDbEntity
  8
0
100
AcDbPoint
 10
407.309222273735
 20
500.5872070417258
 30
0.0
210
-1.0
220
0.0000000000000001
230
0.0
  0
LINE
  5
1D55
330
1E
100
AcDbEntity
  8
STEMPEL
100
AcDbLine
 10
397.309222273735
 20
493.0872070417258
 30
0.0
 11
397.309222273735
 21
508.0872070417258
 31
0.0
  0
LINE
  5
1D56
330
1E
100
AcDbEntity
  8
STEMPEL
100
AcDbLine
 10
405.8544528081456
 20
510.99372214922
 30
0.0
 11
405.8544528081456
 21
490.1806919342314
 31
0.0
  0
LINE
  5
1D57
330
1E
100
AcDbEntity
  8
STEMPEL
100
AcDbLine
 10
407.309222273735
 20
510.7372070417258
 30
0.0
 11
407.309222273735
 21
490.4372070417257
 31
0.0
  0
LINE
  5
1D58
330
1E
100
AcDbEntity
  8
STEMPEL
100
AcDbLine
 10
405.8544528081456
 20
510.99372214922
 30
0.0
 11
404.7965678235726
 21
508.0872070417258
 31
0.0
  0
LINE
  5
1D59
330
1E
100
AcDbEntity
  8
STEMPEL
100
AcDbLine
 10
404.7965678235726
 20
493.0872070417258
 30
0.0
 11
405.8544528081456
 21
490.1806919342316
 31
0.0
  0
ARC
  5
1D5A
330
1E
100
AcDbEntity
  8
STEMPEL
100
AcDbCircle
 10
406.5592222737349
 20
490.4372070417257
 30
0.0
 40
0.7500000000000013
100
AcDbArc
 50
200.0000000000014
 51
359.9999991462263
  0
ARC
  5
1D5B
330
1E
100
AcDbEntity
  8
STEMPEL
100
AcDbCircle
 10
406.5592222737349
 20
510.7372070417258
 30
0.0
 40
0.750000000000001
100
AcDbArc
 50
359.9999991462263
 51
159.9999999999986
  0
ARC
  5
1D5C
330
1E
100
AcDbEntity
  8
STEMPEL
100
AcDbCircle
 10
405.0517454173061
 20
496.8372070417258
 30
0.0
 40
16.8611238651562
100
AcDbArc
 50
347.1496643135762
 51
12.85033568642386
  0
ARC
  5
1D5D
330
1E
100
AcDbEntity
  8
STEMPEL
100
AcDbCircle
 10
405.0517454173061
 20
504.3372070417258
 30
0.0
 40
16.8611238651562
100
AcDbArc
 50
347.1496643135762
 51
12.85033568642386
  0
ARC
  5
1D5E
330
1E
100
AcDbEntity
  8
STEMPEL
100
AcDbCircle
 10
405.7371942828364
 20
496.8372070417258
 30
0.0
 40
22.77202799089855
100
AcDbArc
 50
350.5216033605196
 51
9.478396639480399
  0
ARC
  5
1D5F
330
1E
100
AcDbEntity
  8
STEMPEL
100
AcDbCircle
 10
405.7371942828364
 20
504.3372070417258
 30
0.0
 40
22.77202799089855
100
AcDbArc
 50
350.5216033605196
 51
9.478396639480399
  0
LINE
  5
1D60
330
1E
100
AcDbEntity
  8
STEMPEL
100
AcDbLine
 10
428.509222273735
 20
493.0872070417258
 30
0.0
 11
421.4905713485014
 21
493.0872070417258
 31
0.0
  0
LINE
  5
1D61
330
1E
100
AcDbEntity
  8
STEMPEL
  6
Continuous
100
AcDbLine
 10
428.1983331412797
 20
500.5872070417258
 30
0.0
 11
421.4905713485014
 21
500.5872070417258
 31
0.0
  0
LINE
  5
1D62
330
1E
100
AcDbEntity
  8
STEMPEL
100
AcDbLine
 10
428.509222273735
 20
508.0872070417258
 30
0.0
 11
421.4905713485014
 21
508.0872070417258
 31
0.0
  0
LINE
  5
1D63
330
1E
100
AcDbEntity
  8
HILF
100
AcDbLine
 10
414.809222273735
 20
504.6672070417257
 30
0.0
 11
416.3092222737351
 21
504.9738737083924
 31
0.0
  0
LINE
  5
1D64
330
1E
100
AcDbEntity
  8
HILF
100
AcDbLine
 10
414.809222273735
 20
496.5072070417257
 30
0.0
 11
416.3092222737351
 21
496.200540375059
 31
0.0
  0
LINE
  5
1D65
330
1E
100
AcDbEntity
  8
HILF
100
AcDbLine
 10
389.3092222737351
 20
504.6672070417257
 30
0.0
 11
397.3092222737351
 21
504.6672070417257
 31
0.0
  0
LINE
  5
1D66
330
1E
100
AcDbEntity
  8
HILF
100
AcDbLine
 10
389.3092222737351
 20
496.5072070417257
 30
0.0
 11
397.3092222737351
 21
496.5072070417258
 31
0.0
  0
LINE
  5
1D67
330
1E
100
AcDbEntity
  8
STEMPEL
100
AcDbLine
 10
390.229222273735
 20
505.5872070417258
 30
0.0
 11
397.3092222737351
 21
505.5872070417258
 31
0.0
  0
LINE
  5
1D68
330
1E
100
AcDbEntity
  8
STEMPEL
100
AcDbLine
 10
390.229222273735
 20
495.5872070417258
 30
0.0
 11
397.3092222737351
 21
495.5872070417258
 31
0.0
  0
LINE
  5
1D69
330
1E
100
AcDbEntity
  8
STEMPEL
100
AcDbLine
 10
389.3092222737351
 20
496.5072070417257
 30
0.0
 11
390.229222273735
 21
495.5872070417258
 31
0.0
  0
LINE
  5
1D6A
330
1E
100
AcDbEntity
  8
STEMPEL
100
AcDbLine
 10
389.3092222737351
 20
504.6672070417257
 30
0.0
 11
389.3092222737351
 21
496.5072070417257
 31
0.0
  0
LINE
  5
1D6B
330
1E
100
AcDbEntity
  8
STEMPEL
100
AcDbLine
 10
390.229222273735
 20
505.5872070417258
 30
0.0
 11
389.3092222737351
 21
504.6672070417257
 31
0.0
  0
LINE
  5
1D6C
330
1E
100
AcDbEntity
  8
STEMPEL
100
AcDbLine
 10
390.229222273735
 20
495.5872070417258
 30
0.0
 11
390.229222273735
 21
505.5872070417258
 31
0.0
  0
LINE
  5
1D6D
330
1E
100
AcDbEntity
  8
MITTEL
100
AcDbLine
 10
433.509222273735
 20
500.5872070417258
 30
0.0
 11
384.309222273735
 21
500.5872070417258
 31
0.0
  0
LINE
  5
1D6E
330
1E
100
AcDbEntity
  8
HILF
  6
Continuous
100
AcDbLine
 10
414.809222273735
 20
505.5872070417258
 30
0.0
 11
414.809222273735
 21
495.5872070417258
 31
0.0
  0
LINE
  5
1D6F
330
1E
100
AcDbEntity
  8
HILF
  6
Continuous
100
AcDbLine
 10
420.7639917393244
 20
489.9306919342315
 30
0.0
 11
420.7639917393244
 21
511.24372214922
 31
0.0
  0
LINE
  5
1D70
330
1E
100
AcDbEntity
  8
STEMPEL
  6
Continuous
100
AcDbLine
 10
419.309222273735
 20
490.1872070417257
 30
0.0
 11
419.309222273735
 21
510.9872070417257
 31
0.0
  0
LINE
  5
1D71
330
1E
100
AcDbEntity
  8
STEMPEL
  6
Continuous
100
AcDbLine
 10
428.509222273735
 20
493.0872070417258
 30
0.0
 11
428.509222273735
 21
508.0872070417258
 31
0.0
  0
LINE
  5
1D72
330
1E
100
AcDbEntity
  8
STEMPEL
  6
Continuous
100
AcDbLine
 10
421.9128692824638
 20
508.0872070417258
 30
0.0
 11
420.7639917393244
 21
511.24372214922
 31
0.0
  0
LINE
  5
1D73
330
1E
100
AcDbEntity
  8
STEMPEL
  6
Continuous
100
AcDbLine
 10
420.7639917393244
 20
489.9306919342315
 30
0.0
 11
421.9128692824638
 21
493.0872070417258
 31
0.0
  0
ARC
  5
1D74
330
1E
100
AcDbEntity
  8
STEMPEL
  6
Continuous
100
AcDbCircle
 10
420.059222273735
 20
490.1872070417257
 30
0.0
 40
0.7500000000000006
100
AcDbArc
 50
180.0
 51
339.9999999999987
  0
ARC
  5
1D75
330
1E
100
AcDbEntity
  8
STEMPEL
  6
Continuous
100
AcDbCircle
 10
420.059222273735
 20
510.9872070417257
 30
0.0
 40
0.7499999999999995
100
AcDbArc
 50
20.00000000000135
 51
180.0
  0
LINE
  5
1D76
330
1E
100
AcDbEntity
  8
STEMPEL
100
AcDbLine
 10
410.309222273735
 20
570.5872070417258
 30
0.0
 11
410.309222273735
 21
480.5872070417258
 31
0.0
  0
LINE
  5
1D77
330
1E
100
AcDbEntity
  8
STEMPEL
100
AcDbLine
 10
407.309222273735
 20
570.5872070417258
 30
0.0
 11
407.309222273735
 21
480.5872070417258
 31
0.0
  0
LINE
  5
1D78
330
1E
100
AcDbEntity
  8
STEMPEL
100
AcDbLine
 10
419.309222273735
 20
570.5872070417258
 30
0.0
 11
419.309222273735
 21
480.5872070417258
 31
0.0
  0
CIRCLE
  5
1D79
330
1E
100
AcDbEntity
  8
STEMPEL
 62
     3
100
AcDbCircle
 10
97.54682181012753
 20
500.5872070417258
 30
0.0
 40
7.500000000000013
  0
CIRCLE
  5
1D7A
330
1E
100
AcDbEntity
  8
HILF
100
AcDbCircle
 10
97.54682181012753
 20
500.5872070417258
 30
0.0
 40
9.800000000000002
  0
CIRCLE
  5
1D7B
330
1E
100
AcDbEntity
  8
STEMPEL
  6
Continuous
100
AcDbCircle
 10
97.54682181012753
 20
500.5872070417258
 30
0.0
 40
11.15
  0
LINE
  5
1D7C
330
1E
100
AcDbEntity
  8
MITTEL
100
AcDbLine
 10
97.54682181012753
 20
484.4372070417257
 30
0.0
 11
97.54682181012753
 21
516.7372070417257
 31
0.0
  0
LINE
  5
1D7D
330
1E
100
AcDbEntity
  8
MITTEL
100
AcDbLine
 10
113.6968218101275
 20
500.5872070417258
 30
0.0
 11
81.3968218101275
 21
500.5872070417258
 31
0.0
  0
LWPOLYLINE
  5
1D7E
330
1E
100
AcDbEntity
  8
STEMPEL
100
AcDbPolyline
 90
        6
 70
     1
 43
0.0
 10
106.2070758479719
 20
500.5872070417258
 10
101.8769488290497
 20
508.0872070417258
 10
93.21669479120533
 20
508.0872070417257
 10
88.88656777228311
 20
500.5872070417257
 10
93.21669479120533
 20
493.0872070417257
 10
101.8769488290497
 20
493.0872070417257
  0
CIRCLE
  5
1D7F
330
1E
100
AcDbEntity
  8
STEMPEL
 62
     3
100
AcDbCircle
 10
277.5468218101275
 20
550.5872070417258
 30
0.0
 40
7.500000000000013
  0
CIRCLE
  5
1D80
330
1E
100
AcDbEntity
  8
HILF
100
AcDbCircle
 10
277.5468218101275
 20
550.5872070417258
 30
0.0
 40
9.800000000000002
  0
CIRCLE
  5
1D81
330
1E
100
AcDbEntity
  8
STEMPEL
  6
Continuous
100
AcDbCircle
 10
277.5468218101275
 20
550.5872070417258
 30
0.0
 40
11.15
  0
LINE
  5
1D82
330
1E
100
AcDbEntity
  8
MITTEL
100
AcDbLine
 10
277.5468218101275
 20
534.4372070417257
 30
0.0
 11
277.5468218101275
 21
566.7372070417257
 31
0.0
  0
LINE
  5
1D83
330
1E
100
AcDbEntity
  8
MITTEL
100
AcDbLine
 10
293.6968218101275
 20
550.5872070417258
 30
0.0
 11
261.3968218101275
 21
550.5872070417258
 31
0.0
  0
LWPOLYLINE
  5
1D84
330
1E
100
AcDbEntity
  8
STEMPEL
100
AcDbPolyline
 90
        6
 70
     1
 43
0.0
 10
286.2070758479719
 20
550.5872070417258
 10
281.8769488290497
 20
558.0872070417258
 10
273.2166947912053
 20
558.0872070417257
 10
268.8865677722831
 20
550.5872070417257
 10
273.2166947912053
 20
543.0872070417257
 10
281.8769488290497
 20
543.0872070417257
  0
CIRCLE
  5
1D85
330
1E
100
AcDbEntity
  8
STEMPEL
 62
     3
100
AcDbCircle
 10
267.5468218101276
 20
500.5872070417258
 30
0.0
 40
7.500000000000013
  0
CIRCLE
  5
1D86
330
1E
100
AcDbEntity
  8
HILF
100
AcDbCircle
 10
267.5468218101276
 20
500.5872070417258
 30
0.0
 40
9.800000000000002
  0
CIRCLE
  5
1D87
330
1E
100
AcDbEntity
  8
STEMPEL
  6
Continuous
100
AcDbCircle
 10
267.5468218101276
 20
500.5872070417258
 30
0.0
 40
11.15
  0
LINE
  5
1D88
330
1E
100
AcDbEntity
  8
MITTEL
100
AcDbLine
 10
267.5468218101276
 20
484.4372070417257
 30
0.0
 11
267.5468218101276
 21
516.7372070417257
 31
0.0
  0
LINE
  5
1D89
330
1E
100
AcDbEntity
  8
MITTEL
100
AcDbLine
 10
283.6968218101275
 20
500.5872070417258
 30
0.0
 11
251.3968218101275
 21
500.5872070417258
 31
0.0
  0
LWPOLYLINE
  5
1D8A
330
1E
100
AcDbEntity
  8
STEMPEL
100
AcDbPolyline
 90
        6
 70
     1
 43
0.0
 10
276.2070758479719
 20
500.5872070417258
 10
271.8769488290497
 20
508.0872070417258
 10
263.2166947912053
 20
508.0872070417257
 10
258.8865677722831
 20
500.5872070417257
 10
263.2166947912053
 20
493.0872070417257
 10
271.8769488290497
 20
493.0872070417257
  0
LWPOLYLINE
  5
1D8B
330
1E
100
AcDbEntity
  8
STEMPEL
100
AcDbPolyline
 90
        6
 70
     1
 43
0.0
 10
96.20707584797191
 20
550.5872070417258
 10
91.87694882904969
 20
558.0872070417258
 10
83.21669479120533
 20
558.0872070417258
 10
78.88656777228312
 20
550.5872070417258
 10
83.21669479120533
 20
543.0872070417258
 10
91.87694882904969
 20
543.0872070417258
  0
LINE
  5
1D8C
330
1E
100
AcDbEntity
  8
MITTEL
100
AcDbLine
 10
103.6968218101275
 20
550.5872070417258
 30
0.0
 11
71.39682181012751
 21
550.5872070417258
 31
0.0
  0
LINE
  5
1D8D
330
1E
100
AcDbEntity
  8
MITTEL
100
AcDbLine
 10
87.54682181012753
 20
534.4372070417257
 30
0.0
 11
87.54682181012753
 21
566.7372070417257
 31
0.0
  0
CIRCLE
  5
1D8E
330
1E
100
AcDbEntity
  8
STEMPEL
  6
Continuous
100
AcDbCircle
 10
87.54682181012753
 20
550.5872070417258
 30
0.0
 40
11.15
  0
CIRCLE
  5
1D8F
330
1E
100
AcDbEntity
  8
HILF
100
AcDbCircle
 10
87.54682181012753
 20
550.5872070417258
 30
0.0
 40
9.800000000000002
  0
CIRCLE
  5
1D90
330
1E
100
AcDbEntity
  8
STEMPEL
 62
     3
100
AcDbCircle
 10
87.54682181012753
 20
550.5872070417258
 30
0.0
 40
7.500000000000013
  0
ARC
  5
1D91
330
1E
100
AcDbEntity
  8
STEMPEL
100
AcDbCircle
 10
111.8927348795049
 20
322.8181252975101
 30
0.0
 40
4.0
100
AcDbArc
 50
270.0
 51
354.3419286053664
  0
ARC
  5
1D92
330
1E
100
AcDbEntity
  8
STEMPEL
100
AcDbCircle
 10
102.8536602465405
 20
322.8181252975101
 30
0.0
 40
1.0
100
AcDbArc
 50
270.0000000000065
 51
354.9801998683234
  0
LINE
  5
1D93
330
1E
100
AcDbEntity
  8
STEMPEL
100
AcDbLine
 10
72.54682181012765
 20
318.8181252975101
 30
0.0
 11
72.54682181012765
 21
321.8181252975102
 31
0.0
  0
LINE
  5
1D94
330
1E
100
AcDbEntity
  8
STEMPEL
100
AcDbLine
 10
72.54682181012777
 20
321.8181252975102
 30
0.0
 11
104.8615593725196
 21
321.8181252975102
 31
0.0
  0
LINE
  5
1D95
330
1E
100
AcDbEntity
  8
STEMPEL
100
AcDbLine
 10
72.54682181012777
 20
318.8181252975101
 30
0.0
 11
111.8927348795049
 21
318.8181252975101
 31
0.0
  0
ARC
  5
1D96
330
1E
100
AcDbEntity
  8
STEMPEL
100
AcDbCircle
 10
104.6607511684524
 20
322.8181252975101
 30
0.0
 40
4.0
100
AcDbArc
 50
270.0
 51
354.8643476824172
  0
ARC
  5
1D97
330
1E
100
AcDbEntity
  8
STEMPEL
100
AcDbCircle
 10
104.6607511684524
 20
308.8181252975102
 30
0.0
 40
4.0
100
AcDbArc
 50
5.135652317582763
 51
90.0
  0
LINE
  5
1D98
330
1E
100
AcDbEntity
  8
STEMPEL
100
AcDbLine
 10
72.54682181012777
 20
312.8181252975102
 30
0.0
 11
111.8927348795049
 21
312.8181252975102
 31
0.0
  0
LINE
  5
1D99
330
1E
100
AcDbEntity
  8
STEMPEL
100
AcDbLine
 10
72.54682181012777
 20
309.8181252975102
 30
0.0
 11
104.8615593725196
 21
309.8181252975102
 31
0.0
  0
LINE
  5
1D9A
330
1E
100
AcDbEntity
  8
STEMPEL
100
AcDbLine
 10
72.54682181012765
 20
312.8181252975102
 30
0.0
 11
72.54682181012765
 21
309.8181252975102
 31
0.0
  0
ARC
  5
1D9B
330
1E
100
AcDbEntity
  8
STEMPEL
100
AcDbCircle
 10
102.8536602465405
 20
308.8181252975102
 30
0.0
 40
1.0
100
AcDbArc
 50
5.019800131676561
 51
89.99999999999349
  0
ARC
  5
1D9C
330
1E
100
AcDbEntity
  8
STEMPEL
100
AcDbCircle
 10
111.8927348795049
 20
308.8181252975102
 30
0.0
 40
4.0
100
AcDbArc
 50
5.658071394633569
 51
90.0
  0
LINE
  5
1D9D
330
1E
100
AcDbEntity
  8
STEMPEL
  6
Continuous
100
AcDbLine
 10
96.20707584797191
 20
300.9290144299655
 30
0.0
 11
95.04682181012753
 21
300.6181252975102
 31
0.0
  0
LINE
  5
1D9E
330
1E
100
AcDbEntity
  8
STEMPEL
  6
Continuous
100
AcDbLine
 10
80.04682181012753
 20
300.6181252975102
 30
0.0
 11
78.88656777228317
 21
300.9290144299655
 31
0.0
  0
ARC
  5
1D9F
330
1E
100
AcDbEntity
  8
STEMPEL
  6
Continuous
100
AcDbCircle
 10
77.14682181012756
 20
309.0681252975102
 30
0.0
 40
0.7499999999999995
100
AcDbArc
 50
90.0
 51
250.0000000000035
  0
ARC
  5
1DA0
330
1E
100
AcDbEntity
  8
STEMPEL
  6
Continuous
100
AcDbCircle
 10
97.94682181012753
 20
309.0681252975102
 30
0.0
 40
0.7500000000000006
100
AcDbArc
 50
289.9999999999965
 51
90.0
  0
LINE
  5
1DA1
330
1E
100
AcDbEntity
  8
STEMPEL
  6
Continuous
100
AcDbLine
 10
98.20333691762181
 20
308.3633558319207
 30
0.0
 11
96.20707584797191
 21
307.6367762227438
 31
0.0
  0
LINE
  5
1DA2
330
1E
100
AcDbEntity
  8
STEMPEL
  6
Continuous
100
AcDbLine
 10
78.88656777228317
 20
307.6367762227438
 30
0.0
 11
76.89030670263327
 21
308.3633558319207
 31
0.0
  0
LINE
  5
1DA3
330
1E
100
AcDbEntity
  8
STEMPEL
  6
Continuous
100
AcDbLine
 10
95.04682181012753
 20
300.6181252975102
 30
0.0
 11
80.04682181012753
 21
300.6181252975102
 31
0.0
  0
LINE
  5
1DA4
330
1E
100
AcDbEntity
  8
STEMPEL
  6
Continuous
100
AcDbLine
 10
96.20707584797191
 20
300.9290144299655
 30
0.0
 11
96.20707584797191
 21
307.6367762227438
 31
0.0
  0
LINE
  5
1DA5
330
1E
100
AcDbEntity
  8
STEMPEL
  6
Continuous
100
AcDbLine
 10
91.87694882904976
 20
300.9290144299655
 30
0.0
 11
91.87694882904976
 21
307.6367762227438
 31
0.0
  0
LINE
  5
1DA6
330
1E
100
AcDbEntity
  8
STEMPEL
  6
Continuous
100
AcDbLine
 10
83.21669479120533
 20
300.9290144299655
 30
0.0
 11
83.21669479120533
 21
307.6367762227438
 31
0.0
  0
LINE
  5
1DA7
330
1E
100
AcDbEntity
  8
STEMPEL
  6
Continuous
100
AcDbLine
 10
78.88656777228317
 20
300.9290144299655
 30
0.0
 11
78.88656777228317
 21
307.6367762227438
 31
0.0
  0
LINE
  5
1DA8
330
1E
100
AcDbEntity
  8
STEMPEL
  6
Continuous
100
AcDbLine
 10
97.94682181012753
 20
309.8181252975102
 30
0.0
 11
77.14682181012756
 21
309.8181252975102
 31
0.0
  0
LINE
  5
1DA9
330
1E
100
AcDbEntity
  8
HILF
  6
Continuous
100
AcDbLine
 10
98.20333691762181
 20
308.3633558319207
 30
0.0
 11
76.89030670263327
 21
308.3633558319207
 31
0.0
  0
LINE
  5
1DAA
330
1E
100
AcDbEntity
  8
HILF
  6
Continuous
100
AcDbLine
 10
82.54682181012753
 20
314.3181252975101
 30
0.0
 11
92.54682181012753
 21
314.3181252975101
 31
0.0
  0
ARC
  5
1DAB
330
1E
100
AcDbEntity
  8
STEMPEL
100
AcDbCircle
 10
87.54682181012753
 20
330.9290144299657
 30
0.0
 40
30.31088913245553
100
AcDbArc
 50
261.7867892982637
 51
278.2132107017363
  0
ARC
  5
1DAC
330
1E
100
AcDbEntity
  8
STEMPEL
100
AcDbCircle
 10
94.04201233851086
 20
308.3124310052947
 30
0.0
 40
7.694305707784582
100
AcDbArc
 50
253.6571066940137
 51
286.3428933059863
  0
ARC
  5
1DAD
330
1E
100
AcDbEntity
  8
STEMPEL
100
AcDbCircle
 10
81.05163128174428
 20
308.3124310052948
 30
0.0
 40
7.694305707784634
100
AcDbArc
 50
253.6571066940137
 51
286.3428933059863
  0
ARC
  5
1DAE
330
1E
100
AcDbEntity
  8
HILF
100
AcDbCircle
 10
81.05163128174428
 20
312.9756188884886
 30
0.0
 40
5.761140599705702
100
AcDbArc
 50
247.9259452633231
 51
292.0740547366769
  0
ARC
  5
1DAF
330
1E
100
AcDbEntity
  8
HILF
100
AcDbCircle
 10
87.54682181012753
 20
329.6255937866643
 30
0.0
 40
22.41111549788147
100
AcDbArc
 50
258.8596278389341
 51
281.1403721610659
  0
ARC
  5
1DB0
330
1E
100
AcDbEntity
  8
HILF
100
AcDbCircle
 10
94.04201233851086
 20
312.9756188884886
 30
0.0
 40
5.761140599705708
100
AcDbArc
 50
247.9259452633231
 51
292.0740547366769
  0
LINE
  5
1DB1
330
1E
100
AcDbEntity
  8
MITTEL
100
AcDbLine
 10
87.54682181012753
 20
295.6181252975102
 30
0.0
 11
87.54682181012753
 21
344.8181252975102
 31
0.0
  0
LINE
  5
1DB2
330
1E
100
AcDbEntity
  8
STEMPEL
100
AcDbLine
 10
92.54682181012753
 20
338.8981252975101
 30
0.0
 11
82.54682181012753
 21
338.8981252975101
 31
0.0
  0
LINE
  5
1DB3
330
1E
100
AcDbEntity
  8
STEMPEL
100
AcDbLine
 10
82.54682181012753
 20
338.8981252975101
 30
0.0
 11
83.46682181012756
 21
339.8181252975102
 31
0.0
  0
LINE
  5
1DB4
330
1E
100
AcDbEntity
  8
STEMPEL
100
AcDbLine
 10
83.46682181012756
 20
339.8181252975102
 30
0.0
 11
91.62682181012753
 21
339.8181252975102
 31
0.0
  0
LINE
  5
1DB5
330
1E
100
AcDbEntity
  8
STEMPEL
100
AcDbLine
 10
91.62682181012753
 20
339.8181252975102
 30
0.0
 11
92.54682181012753
 21
338.8981252975101
 31
0.0
  0
LINE
  5
1DB6
330
1E
100
AcDbEntity
  8
STEMPEL
100
AcDbLine
 10
92.54682181012753
 20
338.8981252975101
 30
0.0
 11
92.54682181012753
 21
331.8181252975102
 31
0.0
  0
LINE
  5
1DB7
330
1E
100
AcDbEntity
  8
STEMPEL
100
AcDbLine
 10
82.54682181012753
 20
338.8981252975101
 30
0.0
 11
82.54682181012753
 21
331.8181252975102
 31
0.0
  0
LINE
  5
1DB8
330
1E
100
AcDbEntity
  8
HILF
100
AcDbLine
 10
91.62682181012753
 20
339.8181252975102
 30
0.0
 11
91.62682181012753
 21
331.8181252975102
 31
0.0
  0
LINE
  5
1DB9
330
1E
100
AcDbEntity
  8
HILF
100
AcDbLine
 10
83.46682181012756
 20
339.8181252975102
 30
0.0
 11
83.4668218101275
 21
331.8181252975102
 31
0.0
  0
LINE
  5
1DBA
330
1E
100
AcDbEntity
  8
HILF
100
AcDbLine
 10
91.62682181012753
 20
314.3181252975101
 30
0.0
 11
91.93348847679425
 21
312.8181252975102
 31
0.0
  0
LINE
  5
1DBB
330
1E
100
AcDbEntity
  8
HILF
100
AcDbLine
 10
83.46682181012756
 20
314.3181252975101
 30
0.0
 11
83.16015514346089
 21
312.8181252975102
 31
0.0
  0
LINE
  5
1DBC
330
1E
100
AcDbEntity
  8
STEMPEL
100
AcDbLine
 10
82.54682181012753
 20
318.8181252975101
 30
0.0
 11
82.54682181012753
 21
316.0681252975101
 31
0.0
  0
LINE
  5
1DBD
330
1E
100
AcDbEntity
  8
HILF
100
AcDbLine
 10
83.4668218101275
 20
318.8181252975102
 30
0.0
 11
83.4668218101275
 21
316.0681252975101
 31
0.0
  0
LINE
  5
1DBE
330
1E
100
AcDbEntity
  8
HILF
100
AcDbLine
 10
91.62682181012753
 20
318.8181252975102
 30
0.0
 11
91.62682181012753
 21
316.0681252975101
 31
0.0
  0
LINE
  5
1DBF
330
1E
100
AcDbEntity
  8
STEMPEL
100
AcDbLine
 10
92.54682181012748
 20
318.8181252975101
 30
0.0
 11
92.54682181012748
 21
316.0681252975101
 31
0.0
  0
ARC
  5
1DC0
330
1E
100
AcDbEntity
  8
STEMPEL
100
AcDbCircle
 10
77.39682181012756
 20
322.5681252975101
 30
0.0
 40
0.750000000000001
100
AcDbArc
 50
110.0000000000034
 51
270.0000008537736
  0
ARC
  5
1DC1
330
1E
100
AcDbEntity
  8
STEMPEL
100
AcDbCircle
 10
97.69682181012752
 20
322.5681252975101
 30
0.0
 40
0.7500000000000013
100
AcDbArc
 50
270.0000008537736
 51
69.99999999999658
  0
LINE
  5
1DC2
330
1E
100
AcDbEntity
  8
STEMPEL
100
AcDbLine
 10
96.20707584797191
 20
323.9084818137099
 30
0.0
 11
97.95333691762175
 21
323.2728947630996
 31
0.0
  0
LINE
  5
1DC3
330
1E
100
AcDbEntity
  8
STEMPEL
100
AcDbLine
 10
77.14030670263326
 20
323.2728947630996
 30
0.0
 11
78.88656777228317
 21
323.9084818137099
 31
0.0
  0
LINE
  5
1DC4
330
1E
100
AcDbEntity
  8
STEMPEL
100
AcDbLine
 10
78.88656777228317
 20
331.5072361650548
 30
0.0
 11
80.04682181012753
 21
331.8181252975102
 31
0.0
  0
LINE
  5
1DC5
330
1E
100
AcDbEntity
  8
STEMPEL
100
AcDbLine
 10
95.04682181012753
 20
331.8181252975102
 30
0.0
 11
96.20707584797191
 21
331.5072361650548
 31
0.0
  0
LINE
  5
1DC6
330
1E
100
AcDbEntity
  8
STEMPEL
100
AcDbLine
 10
96.20707584797191
 20
323.9084818137099
 30
0.0
 11
96.20707584797191
 21
331.5072361650548
 31
0.0
  0
LINE
  5
1DC7
330
1E
100
AcDbEntity
  8
STEMPEL
100
AcDbLine
 10
77.39682181012756
 20
321.8181252975102
 30
0.0
 11
97.69682181012752
 21
321.8181252975102
 31
0.0
  0
LINE
  5
1DC8
330
1E
100
AcDbEntity
  8
HILF
100
AcDbLine
 10
77.14030670263326
 20
323.2728947630996
 30
0.0
 11
97.95333691762181
 21
323.2728947630996
 31
0.0
  0
LINE
  5
1DC9
330
1E
100
AcDbEntity
  8
STEMPEL
100
AcDbLine
 10
91.87694882904976
 20
323.9084818137099
 30
0.0
 11
91.87694882904976
 21
331.5072361650548
 31
0.0
  0
LINE
  5
1DCA
330
1E
100
AcDbEntity
  8
STEMPEL
100
AcDbLine
 10
83.21669479120533
 20
323.9084818137099
 30
0.0
 11
83.21669479120533
 21
331.5072361650548
 31
0.0
  0
LINE
  5
1DCB
330
1E
100
AcDbEntity
  8
STEMPEL
100
AcDbLine
 10
78.88656777228317
 20
323.9084818137099
 30
0.0
 11
78.88656777228317
 21
331.5072361650548
 31
0.0
  0
LINE
  5
1DCC
330
1E
100
AcDbEntity
  8
STEMPEL
100
AcDbLine
 10
95.04682181012753
 20
331.8181252975102
 30
0.0
 11
80.04682181012753
 21
331.8181252975102
 31
0.0
  0
POINT
  5
1DCD
330
1E
100
AcDbEntity
  8
0
100
AcDbPoint
 10
87.54682181012753
 20
321.8181252975102
 30
0.0
210
-0.0000000000000001
220
1.0
230
0.0
  0
ARC
  5
1DCE
330
1E
100
AcDbEntity
  8
HILF
100
AcDbCircle
 10
94.04201233851081
 20
318.5696391479805
 30
0.0
 40
5.761140599691502
100
AcDbArc
 50
67.92594526325993
 51
112.07405473674
  0
ARC
  5
1DCF
330
1E
100
AcDbEntity
  8
HILF
100
AcDbCircle
 10
81.05163128174423
 20
318.5696391479805
 30
0.0
 40
5.761140599691502
100
AcDbArc
 50
67.92594526325993
 51
112.07405473674
  0
ARC
  5
1DD0
330
1E
100
AcDbEntity
  8
HILF
100
AcDbCircle
 10
87.54682181012753
 20
301.9196642498489
 30
0.0
 40
22.41111549782308
100
AcDbArc
 50
78.8596278389076
 51
101.1403721610924
  0
ARC
  5
1DD1
330
1E
100
AcDbEntity
  8
STEMPEL
100
AcDbCircle
 10
81.05163128174423
 20
324.1238195897257
 30
0.0
 40
7.694305707784447
100
AcDbArc
 50
73.65710669401368
 51
106.3428933059863
  0
ARC
  5
1DD2
330
1E
100
AcDbEntity
  8
STEMPEL
100
AcDbCircle
 10
94.04201233851081
 20
324.1238195897257
 30
0.0
 40
7.694305707784447
100
AcDbArc
 50
73.65710669401368
 51
106.3428933059796
  0
ARC
  5
1DD3
330
1E
100
AcDbEntity
  8
STEMPEL
100
AcDbCircle
 10
87.54682181012753
 20
301.5072361650553
 30
0.0
 40
30.31088913245485
100
AcDbArc
 50
81.78678929825712
 51
98.21321070173631
  0
ARC
  5
1DD4
330
1E
100
AcDbEntity
  8
STEMPEL
100
AcDbCircle
 10
97.54682181012753
 20
301.5072361650553
 30
0.0
 40
30.31088913245485
100
AcDbArc
 50
81.78678929825712
 51
94.1647026001452
  0
ARC
  5
1DD5
330
1E
100
AcDbEntity
  8
STEMPEL
100
AcDbCircle
 10
104.0420123385108
 20
324.1238195897257
 30
0.0
 40
7.694305707784447
100
AcDbArc
 50
81.59273115559443
 51
106.3428933059796
  0
ARC
  5
1DD6
330
1E
100
AcDbEntity
  8
HILF
100
AcDbCircle
 10
97.54682181012753
 20
301.9196642498489
 30
0.0
 40
22.41111549782308
100
AcDbArc
 50
78.8596278389076
 51
93.42720930287649
  0
ARC
  5
1DD7
330
1E
100
AcDbEntity
  8
HILF
100
AcDbCircle
 10
104.0420123385108
 20
318.5696391479805
 30
0.0
 40
5.761140599691502
100
AcDbArc
 50
90.35029276776574
 51
112.07405473674
  0
POINT
  5
1DD8
330
1E
100
AcDbEntity
  8
0
100
AcDbPoint
 10
97.54682181012753
 20
321.8181252975102
 30
0.0
210
-0.0000000000000001
220
1.0
230
0.0
  0
LINE
  5
1DD9
330
1E
100
AcDbEntity
  8
STEMPEL
100
AcDbLine
 10
105.0468218101275
 20
331.8181252975102
 30
0.0
 11
90.04682181012753
 21
331.8181252975102
 31
0.0
  0
LINE
  5
1DDA
330
1E
100
AcDbEntity
  8
STEMPEL
100
AcDbLine
 10
101.8769488290497
 20
323.9084818137099
 30
0.0
 11
101.8769488290497
 21
331.5072361650548
 31
0.0
  0
LINE
  5
1DDB
330
1E
100
AcDbEntity
  8
HILF
100
AcDbLine
 10
87.14030670263326
 20
323.2728947630996
 30
0.0
 11
103.8993398910292
 21
323.2728947630996
 31
0.0
  0
LINE
  5
1DDC
330
1E
100
AcDbEntity
  8
STEMPEL
100
AcDbLine
 10
87.39682181012756
 20
321.8181252975102
 30
0.0
 11
102.8536602465405
 21
321.8181252975102
 31
0.0
  0
LINE
  5
1DDD
330
1E
100
AcDbEntity
  8
STEMPEL
100
AcDbLine
 10
105.0468218101275
 20
331.8181252975102
 30
0.0
 11
105.1768429051425
 21
331.7832862501019
 31
0.0
  0
LINE
  5
1DDE
330
1E
100
AcDbEntity
  8
HILF
100
AcDbLine
 10
93.46682181012756
 20
339.8181252975102
 30
0.0
 11
93.4668218101275
 21
331.8181252975102
 31
0.0
  0
LINE
  5
1DDF
330
1E
100
AcDbEntity
  8
HILF
100
AcDbLine
 10
101.6268218101275
 20
339.8181252975102
 30
0.0
 11
101.6268218101275
 21
331.8181252975102
 31
0.0
  0
LINE
  5
1DE0
330
1E
100
AcDbEntity
  8
STEMPEL
100
AcDbLine
 10
92.54682181012753
 20
338.8981252975101
 30
0.0
 11
92.54682181012753
 21
331.8181252975102
 31
0.0
  0
LINE
  5
1DE1
330
1E
100
AcDbEntity
  8
STEMPEL
100
AcDbLine
 10
102.5468218101275
 20
338.8981252975101
 30
0.0
 11
102.5468218101275
 21
331.8181252975102
 31
0.0
  0
LINE
  5
1DE2
330
1E
100
AcDbEntity
  8
STEMPEL
100
AcDbLine
 10
101.6268218101275
 20
339.8181252975102
 30
0.0
 11
102.5468218101275
 21
338.8981252975101
 31
0.0
  0
LINE
  5
1DE3
330
1E
100
AcDbEntity
  8
STEMPEL
100
AcDbLine
 10
93.46682181012756
 20
339.8181252975102
 30
0.0
 11
101.6268218101275
 21
339.8181252975102
 31
0.0
  0
LINE
  5
1DE4
330
1E
100
AcDbEntity
  8
STEMPEL
100
AcDbLine
 10
92.54682181012753
 20
338.8981252975101
 30
0.0
 11
93.46682181012756
 21
339.8181252975102
 31
0.0
  0
LINE
  5
1DE5
330
1E
100
AcDbEntity
  8
STEMPEL
100
AcDbLine
 10
102.5468218101275
 20
338.8981252975101
 30
0.0
 11
92.54682181012753
 21
338.8981252975101
 31
0.0
  0
ARC
  5
1DE6
330
1E
100
AcDbEntity
  8
HILF
100
AcDbCircle
 10
104.0420123385108
 20
312.9756188884886
 30
0.0
 40
5.761140599705708
100
AcDbArc
 50
247.9259452633231
 51
269.7483776326196
  0
ARC
  5
1DE7
330
1E
100
AcDbEntity
  8
HILF
100
AcDbCircle
 10
97.54682181012753
 20
329.6255937866643
 30
0.0
 40
22.41111549788147
100
AcDbArc
 50
266.57279069713
 51
281.1403721610659
  0
ARC
  5
1DE8
330
1E
100
AcDbEntity
  8
STEMPEL
100
AcDbCircle
 10
104.0420123385108
 20
308.3124310052947
 30
0.0
 40
7.694305707784582
100
AcDbArc
 50
253.6571066940137
 51
277.2340919623041
  0
ARC
  5
1DE9
330
1E
100
AcDbEntity
  8
STEMPEL
100
AcDbCircle
 10
97.54682181012753
 20
330.9290144299657
 30
0.0
 40
30.31088913245553
100
AcDbArc
 50
265.8352973998548
 51
278.2132107017363
  0
LINE
  5
1DEA
330
1E
100
AcDbEntity
  8
HILF
  6
Continuous
100
AcDbLine
 10
103.8993398910292
 20
308.3633558319207
 30
0.0
 11
86.89030670263326
 21
308.3633558319207
 31
0.0
  0
LINE
  5
1DEB
330
1E
100
AcDbEntity
  8
STEMPEL
  6
Continuous
100
AcDbLine
 10
101.8769488290497
 20
300.9290144299655
 30
0.0
 11
101.8769488290497
 21
307.6367762227438
 31
0.0
  0
LINE
  5
1DEC
330
1E
100
AcDbEntity
  8
STEMPEL
  6
Continuous
100
AcDbLine
 10
105.0228900212923
 20
300.6181252975102
 30
0.0
 11
90.04682181012753
 21
300.6181252975102
 31
0.0
  0
LINE
  5
1DED
330
1E
100
AcDbEntity
  8
STEMPEL
  6
Continuous
100
AcDbLine
 10
90.04682181012753
 20
300.6181252975102
 30
0.0
 11
88.88656777228318
 21
300.9290144299655
 31
0.0
  0
LINE
  5
1DEE
330
1E
100
AcDbEntity
  8
STEMPEL
100
AcDbLine
 10
102.5468218101275
 20
318.8181252975101
 30
0.0
 11
102.5468218101275
 21
316.0681252975101
 31
0.0
  0
LINE
  5
1DEF
330
1E
100
AcDbEntity
  8
HILF
100
AcDbLine
 10
101.6268218101275
 20
318.8181252975102
 30
0.0
 11
101.6268218101275
 21
316.0681252975101
 31
0.0
  0
LINE
  5
1DF0
330
1E
100
AcDbEntity
  8
HILF
100
AcDbLine
 10
93.4668218101275
 20
318.8181252975102
 30
0.0
 11
93.4668218101275
 21
316.0681252975101
 31
0.0
  0
LINE
  5
1DF1
330
1E
100
AcDbEntity
  8
STEMPEL
100
AcDbLine
 10
92.54682181012753
 20
318.8181252975101
 30
0.0
 11
92.54682181012753
 21
316.0681252975101
 31
0.0
  0
LINE
  5
1DF2
330
1E
100
AcDbEntity
  8
HILF
100
AcDbLine
 10
93.46682181012756
 20
314.3181252975101
 30
0.0
 11
93.16015514346089
 21
312.8181252975102
 31
0.0
  0
LINE
  5
1DF3
330
1E
100
AcDbEntity
  8
HILF
100
AcDbLine
 10
101.6268218101275
 20
314.3181252975101
 30
0.0
 11
101.9334884767942
 21
312.8181252975102
 31
0.0
  0
LINE
  5
1DF4
330
1E
100
AcDbEntity
  8
HILF
  6
Continuous
100
AcDbLine
 10
92.54682181012753
 20
314.3181252975101
 30
0.0
 11
102.5468218101275
 21
314.3181252975101
 31
0.0
  0
LINE
  5
1DF5
330
1E
100
AcDbEntity
  8
MITTEL
100
AcDbLine
 10
97.54682181012753
 20
295.6181252975102
 30
0.0
 11
97.54682181012753
 21
344.8181252975102
 31
0.0
  0
LINE
  5
1DF6
330
1E
100
AcDbEntity
  8
MITTEL
100
AcDbLine
 10
267.5468218101276
 20
295.6181252975102
 30
0.0
 11
267.5468218101276
 21
344.8181252975102
 31
0.0
  0
LINE
  5
1DF7
330
1E
100
AcDbEntity
  8
HILF
  6
Continuous
100
AcDbLine
 10
272.5468218101275
 20
314.3181252975101
 30
0.0
 11
262.5468218101275
 21
314.3181252975101
 31
0.0
  0
LINE
  5
1DF8
330
1E
100
AcDbEntity
  8
HILF
100
AcDbLine
 10
263.4668218101276
 20
314.3181252975101
 30
0.0
 11
263.1601551434608
 21
312.8181252975102
 31
0.0
  0
LINE
  5
1DF9
330
1E
100
AcDbEntity
  8
HILF
100
AcDbLine
 10
271.6268218101275
 20
314.3181252975101
 30
0.0
 11
271.9334884767942
 21
312.8181252975102
 31
0.0
  0
LINE
  5
1DFA
330
1E
100
AcDbEntity
  8
STEMPEL
100
AcDbLine
 10
272.5468218101275
 20
318.8181252975101
 30
0.0
 11
272.5468218101275
 21
316.0681252975101
 31
0.0
  0
LINE
  5
1DFB
330
1E
100
AcDbEntity
  8
HILF
100
AcDbLine
 10
271.6268218101276
 20
318.8181252975102
 30
0.0
 11
271.6268218101275
 21
316.0681252975101
 31
0.0
  0
LINE
  5
1DFC
330
1E
100
AcDbEntity
  8
HILF
100
AcDbLine
 10
263.4668218101276
 20
318.8181252975102
 30
0.0
 11
263.4668218101275
 21
316.0681252975101
 31
0.0
  0
LINE
  5
1DFD
330
1E
100
AcDbEntity
  8
STEMPEL
100
AcDbLine
 10
262.5468218101276
 20
318.8181252975101
 30
0.0
 11
262.5468218101275
 21
316.0681252975101
 31
0.0
  0
LINE
  5
1DFE
330
1E
100
AcDbEntity
  8
STEMPEL
  6
Continuous
100
AcDbLine
 10
275.0468218101275
 20
300.6181252975102
 30
0.0
 11
276.2070758479719
 21
300.9290144299655
 31
0.0
  0
LINE
  5
1DFF
330
1E
100
AcDbEntity
  8
STEMPEL
  6
Continuous
100
AcDbLine
 10
260.0707535989628
 20
300.6181252975102
 30
0.0
 11
275.0468218101275
 21
300.6181252975102
 31
0.0
  0
LINE
  5
1E00
330
1E
100
AcDbEntity
  8
STEMPEL
  6
Continuous
100
AcDbLine
 10
263.2166947912053
 20
300.9290144299655
 30
0.0
 11
263.2166947912053
 21
307.6367762227438
 31
0.0
  0
LINE
  5
1E01
330
1E
100
AcDbEntity
  8
HILF
  6
Continuous
100
AcDbLine
 10
261.1943037292259
 20
308.3633558319207
 30
0.0
 11
278.2033369176218
 21
308.3633558319207
 31
0.0
  0
ARC
  5
1E02
330
1E
100
AcDbEntity
  8
STEMPEL
100
AcDbCircle
 10
267.5468218101276
 20
330.9290144299657
 30
0.0
 40
30.31088913245553
100
AcDbArc
 50
261.7867892982637
 51
274.1647026001452
  0
ARC
  5
1E03
330
1E
100
AcDbEntity
  8
STEMPEL
100
AcDbCircle
 10
261.0516312817442
 20
308.3124310052947
 30
0.0
 40
7.694305707784582
100
AcDbArc
 50
262.7659080376958
 51
286.3428933059863
  0
ARC
  5
1E04
330
1E
100
AcDbEntity
  8
HILF
100
AcDbCircle
 10
267.5468218101276
 20
329.6255937866643
 30
0.0
 40
22.41111549788147
100
AcDbArc
 50
258.8596278389341
 51
273.42720930287
  0
ARC
  5
1E05
330
1E
100
AcDbEntity
  8
HILF
100
AcDbCircle
 10
261.0516312817442
 20
312.9756188884886
 30
0.0
 40
5.761140599705708
100
AcDbArc
 50
270.2516223673804
 51
292.0740547366769
  0
LINE
  5
1E06
330
1E
100
AcDbEntity
  8
STEMPEL
100
AcDbLine
 10
262.5468218101275
 20
338.8981252975101
 30
0.0
 11
272.5468218101275
 21
338.8981252975101
 31
0.0
  0
LINE
  5
1E07
330
1E
100
AcDbEntity
  8
STEMPEL
100
AcDbLine
 10
272.5468218101275
 20
338.8981252975101
 30
0.0
 11
271.6268218101275
 21
339.8181252975102
 31
0.0
  0
LINE
  5
1E08
330
1E
100
AcDbEntity
  8
STEMPEL
100
AcDbLine
 10
271.6268218101275
 20
339.8181252975102
 30
0.0
 11
263.4668218101276
 21
339.8181252975102
 31
0.0
  0
LINE
  5
1E09
330
1E
100
AcDbEntity
  8
STEMPEL
100
AcDbLine
 10
263.4668218101276
 20
339.8181252975102
 30
0.0
 11
262.5468218101275
 21
338.8981252975101
 31
0.0
  0
LINE
  5
1E0A
330
1E
100
AcDbEntity
  8
STEMPEL
100
AcDbLine
 10
262.5468218101275
 20
338.8981252975101
 30
0.0
 11
262.5468218101275
 21
331.8181252975102
 31
0.0
  0
LINE
  5
1E0B
330
1E
100
AcDbEntity
  8
STEMPEL
100
AcDbLine
 10
272.5468218101275
 20
338.8981252975101
 30
0.0
 11
272.5468218101275
 21
331.8181252975102
 31
0.0
  0
LINE
  5
1E0C
330
1E
100
AcDbEntity
  8
HILF
100
AcDbLine
 10
263.4668218101276
 20
339.8181252975102
 30
0.0
 11
263.4668218101276
 21
331.8181252975102
 31
0.0
  0
LINE
  5
1E0D
330
1E
100
AcDbEntity
  8
HILF
100
AcDbLine
 10
271.6268218101275
 20
339.8181252975102
 30
0.0
 11
271.6268218101276
 21
331.8181252975102
 31
0.0
  0
LINE
  5
1E0E
330
1E
100
AcDbEntity
  8
STEMPEL
100
AcDbLine
 10
260.0468218101275
 20
331.8181252975102
 30
0.0
 11
259.9168007151126
 21
331.7832862501019
 31
0.0
  0
LINE
  5
1E0F
330
1E
100
AcDbEntity
  8
STEMPEL
100
AcDbLine
 10
277.6968218101275
 20
321.8181252975102
 30
0.0
 11
260.2320842477352
 21
321.8181252975102
 31
0.0
  0
LINE
  5
1E10
330
1E
100
AcDbEntity
  8
HILF
100
AcDbLine
 10
277.9533369176218
 20
323.2728947630996
 30
0.0
 11
261.1943037292259
 21
323.2728947630996
 31
0.0
  0
LINE
  5
1E11
330
1E
100
AcDbEntity
  8
STEMPEL
100
AcDbLine
 10
263.2166947912053
 20
323.9084818137099
 30
0.0
 11
263.2166947912053
 21
331.5072361650548
 31
0.0
  0
LINE
  5
1E12
330
1E
100
AcDbEntity
  8
STEMPEL
100
AcDbLine
 10
260.0468218101275
 20
331.8181252975102
 30
0.0
 11
275.0468218101275
 21
331.8181252975102
 31
0.0
  0
POINT
  5
1E13
330
1E
100
AcDbEntity
  8
0
100
AcDbPoint
 10
267.5468218101276
 20
321.8181252975102
 30
0.0
210
0.0000000000000001
220
1.0
230
0.0
  0
ARC
  5
1E14
330
1E
100
AcDbEntity
  8
HILF
100
AcDbCircle
 10
261.0516312817443
 20
318.5696391479805
 30
0.0
 40
5.761140599691502
100
AcDbArc
 50
67.92594526325993
 51
89.64970723223427
  0
ARC
  5
1E15
330
1E
100
AcDbEntity
  8
HILF
100
AcDbCircle
 10
267.5468218101276
 20
301.9196642498489
 30
0.0
 40
22.41111549782308
100
AcDbArc
 50
86.5727906971235
 51
101.1403721610924
  0
ARC
  5
1E16
330
1E
100
AcDbEntity
  8
STEMPEL
100
AcDbCircle
 10
261.0516312817443
 20
324.1238195897257
 30
0.0
 40
7.694305707784447
100
AcDbArc
 50
73.65710669401368
 51
98.40726884440556
  0
ARC
  5
1E17
330
1E
100
AcDbEntity
  8
STEMPEL
100
AcDbCircle
 10
267.5468218101276
 20
301.5072361650553
 30
0.0
 40
30.31088913245485
100
AcDbArc
 50
85.83529739985479
 51
98.21321070173631
  0
ARC
  5
1E18
330
1E
100
AcDbEntity
  8
STEMPEL
100
AcDbCircle
 10
277.5468218101275
 20
301.5072361650553
 30
0.0
 40
30.31088913245485
100
AcDbArc
 50
81.78678929825712
 51
98.21321070173631
  0
ARC
  5
1E19
330
1E
100
AcDbEntity
  8
STEMPEL
100
AcDbCircle
 10
271.0516312817443
 20
324.1238195897257
 30
0.0
 40
7.694305707784447
100
AcDbArc
 50
73.65710669401368
 51
106.3428933059863
  0
ARC
  5
1E1A
330
1E
100
AcDbEntity
  8
STEMPEL
100
AcDbCircle
 10
284.0420123385109
 20
324.1238195897257
 30
0.0
 40
7.694305707784447
100
AcDbArc
 50
73.65710669401368
 51
106.3428933059796
  0
ARC
  5
1E1B
330
1E
100
AcDbEntity
  8
HILF
100
AcDbCircle
 10
277.5468218101275
 20
301.9196642498489
 30
0.0
 40
22.41111549782308
100
AcDbArc
 50
78.8596278389076
 51
101.1403721610924
  0
ARC
  5
1E1C
330
1E
100
AcDbEntity
  8
HILF
100
AcDbCircle
 10
284.0420123385109
 20
318.5696391479805
 30
0.0
 40
5.761140599691502
100
AcDbArc
 50
67.92594526325993
 51
112.07405473674
  0
ARC
  5
1E1D
330
1E
100
AcDbEntity
  8
HILF
100
AcDbCircle
 10
271.0516312817443
 20
318.5696391479805
 30
0.0
 40
5.761140599691502
100
AcDbArc
 50
67.92594526325993
 51
112.07405473674
  0
POINT
  5
1E1E
330
1E
100
AcDbEntity
  8
0
100
AcDbPoint
 10
277.5468218101275
 20
321.8181252975102
 30
0.0
210
0.0000000000000001
220
1.0
230
0.0
  0
LINE
  5
1E1F
330
1E
100
AcDbEntity
  8
STEMPEL
100
AcDbLine
 10
270.0468218101276
 20
331.8181252975102
 30
0.0
 11
285.0468218101275
 21
331.8181252975102
 31
0.0
  0
LINE
  5
1E20
330
1E
100
AcDbEntity
  8
STEMPEL
100
AcDbLine
 10
286.2070758479719
 20
323.9084818137099
 30
0.0
 11
286.2070758479719
 21
331.5072361650548
 31
0.0
  0
LINE
  5
1E21
330
1E
100
AcDbEntity
  8
STEMPEL
100
AcDbLine
 10
281.8769488290497
 20
323.9084818137099
 30
0.0
 11
281.8769488290497
 21
331.5072361650548
 31
0.0
  0
LINE
  5
1E22
330
1E
100
AcDbEntity
  8
STEMPEL
100
AcDbLine
 10
273.2166947912053
 20
323.9084818137099
 30
0.0
 11
273.2166947912053
 21
331.5072361650548
 31
0.0
  0
LINE
  5
1E23
330
1E
100
AcDbEntity
  8
HILF
100
AcDbLine
 10
287.9533369176218
 20
323.2728947630996
 30
0.0
 11
267.1403067026333
 21
323.2728947630996
 31
0.0
  0
LINE
  5
1E24
330
1E
100
AcDbEntity
  8
STEMPEL
100
AcDbLine
 10
287.6968218101275
 20
321.8181252975102
 30
0.0
 11
267.3968218101276
 21
321.8181252975102
 31
0.0
  0
LINE
  5
1E25
330
1E
100
AcDbEntity
  8
STEMPEL
100
AcDbLine
 10
268.8865677722832
 20
323.9084818137099
 30
0.0
 11
268.8865677722832
 21
331.5072361650548
 31
0.0
  0
LINE
  5
1E26
330
1E
100
AcDbEntity
  8
STEMPEL
100
AcDbLine
 10
270.0468218101276
 20
331.8181252975102
 30
0.0
 11
268.8865677722832
 21
331.5072361650548
 31
0.0
  0
LINE
  5
1E27
330
1E
100
AcDbEntity
  8
STEMPEL
100
AcDbLine
 10
286.2070758479719
 20
331.5072361650548
 30
0.0
 11
285.0468218101275
 21
331.8181252975102
 31
0.0
  0
LINE
  5
1E28
330
1E
100
AcDbEntity
  8
STEMPEL
100
AcDbLine
 10
287.9533369176218
 20
323.2728947630996
 30
0.0
 11
286.2070758479719
 21
323.9084818137099
 31
0.0
  0
LINE
  5
1E29
330
1E
100
AcDbEntity
  8
STEMPEL
100
AcDbLine
 10
268.8865677722832
 20
323.9084818137099
 30
0.0
 11
267.1403067026333
 21
323.2728947630996
 31
0.0
  0
ARC
  5
1E2A
330
1E
100
AcDbEntity
  8
STEMPEL
100
AcDbCircle
 10
267.3968218101276
 20
322.5681252975101
 30
0.0
 40
0.7500000000000013
100
AcDbArc
 50
110.0000000000034
 51
269.9999991462263
  0
ARC
  5
1E2B
330
1E
100
AcDbEntity
  8
STEMPEL
100
AcDbCircle
 10
287.6968218101275
 20
322.5681252975101
 30
0.0
 40
0.750000000000001
100
AcDbArc
 50
269.9999991462263
 51
69.99999999999658
  0
LINE
  5
1E2C
330
1E
100
AcDbEntity
  8
STEMPEL
100
AcDbLine
 10
272.5468218101276
 20
318.8181252975101
 30
0.0
 11
272.5468218101275
 21
316.0681252975101
 31
0.0
  0
LINE
  5
1E2D
330
1E
100
AcDbEntity
  8
HILF
100
AcDbLine
 10
273.4668218101276
 20
318.8181252975102
 30
0.0
 11
273.4668218101276
 21
316.0681252975101
 31
0.0
  0
LINE
  5
1E2E
330
1E
100
AcDbEntity
  8
HILF
100
AcDbLine
 10
281.6268218101276
 20
318.8181252975102
 30
0.0
 11
281.6268218101275
 21
316.0681252975101
 31
0.0
  0
LINE
  5
1E2F
330
1E
100
AcDbEntity
  8
STEMPEL
100
AcDbLine
 10
282.5468218101276
 20
318.8181252975101
 30
0.0
 11
282.5468218101276
 21
316.0681252975101
 31
0.0
  0
LINE
  5
1E30
330
1E
100
AcDbEntity
  8
HILF
100
AcDbLine
 10
281.6268218101275
 20
314.3181252975101
 30
0.0
 11
281.9334884767942
 21
312.8181252975102
 31
0.0
  0
LINE
  5
1E31
330
1E
100
AcDbEntity
  8
HILF
100
AcDbLine
 10
273.4668218101276
 20
314.3181252975101
 30
0.0
 11
273.1601551434608
 21
312.8181252975102
 31
0.0
  0
LINE
  5
1E32
330
1E
100
AcDbEntity
  8
HILF
100
AcDbLine
 10
281.6268218101275
 20
339.8181252975102
 30
0.0
 11
281.6268218101276
 21
331.8181252975102
 31
0.0
  0
LINE
  5
1E33
330
1E
100
AcDbEntity
  8
HILF
100
AcDbLine
 10
273.4668218101276
 20
339.8181252975102
 30
0.0
 11
273.4668218101276
 21
331.8181252975102
 31
0.0
  0
LINE
  5
1E34
330
1E
100
AcDbEntity
  8
STEMPEL
100
AcDbLine
 10
282.5468218101276
 20
338.8981252975101
 30
0.0
 11
282.5468218101276
 21
331.8181252975102
 31
0.0
  0
LINE
  5
1E35
330
1E
100
AcDbEntity
  8
STEMPEL
100
AcDbLine
 10
272.5468218101275
 20
338.8981252975101
 30
0.0
 11
272.5468218101275
 21
331.8181252975102
 31
0.0
  0
LINE
  5
1E36
330
1E
100
AcDbEntity
  8
STEMPEL
100
AcDbLine
 10
273.4668218101276
 20
339.8181252975102
 30
0.0
 11
272.5468218101275
 21
338.8981252975101
 31
0.0
  0
LINE
  5
1E37
330
1E
100
AcDbEntity
  8
STEMPEL
100
AcDbLine
 10
281.6268218101275
 20
339.8181252975102
 30
0.0
 11
273.4668218101276
 21
339.8181252975102
 31
0.0
  0
LINE
  5
1E38
330
1E
100
AcDbEntity
  8
STEMPEL
100
AcDbLine
 10
282.5468218101276
 20
338.8981252975101
 30
0.0
 11
281.6268218101275
 21
339.8181252975102
 31
0.0
  0
LINE
  5
1E39
330
1E
100
AcDbEntity
  8
STEMPEL
100
AcDbLine
 10
272.5468218101275
 20
338.8981252975101
 30
0.0
 11
282.5468218101276
 21
338.8981252975101
 31
0.0
  0
LINE
  5
1E3A
330
1E
100
AcDbEntity
  8
MITTEL
100
AcDbLine
 10
277.5468218101275
 20
295.6181252975102
 30
0.0
 11
277.5468218101275
 21
344.8181252975102
 31
0.0
  0
ARC
  5
1E3B
330
1E
100
AcDbEntity
  8
HILF
100
AcDbCircle
 10
271.0516312817442
 20
312.9756188884886
 30
0.0
 40
5.761140599705708
100
AcDbArc
 50
247.9259452633231
 51
292.0740547366769
  0
ARC
  5
1E3C
330
1E
100
AcDbEntity
  8
HILF
100
AcDbCircle
 10
277.5468218101275
 20
329.6255937866643
 30
0.0
 40
22.41111549788147
100
AcDbArc
 50
258.8596278389341
 51
281.1403721610659
  0
ARC
  5
1E3D
330
1E
100
AcDbEntity
  8
HILF
100
AcDbCircle
 10
284.0420123385108
 20
312.9756188884886
 30
0.0
 40
5.761140599705702
100
AcDbArc
 50
247.9259452633231
 51
292.0740547366769
  0
ARC
  5
1E3E
330
1E
100
AcDbEntity
  8
STEMPEL
100
AcDbCircle
 10
284.0420123385108
 20
308.3124310052948
 30
0.0
 40
7.694305707784634
100
AcDbArc
 50
253.6571066940137
 51
286.3428933059863
  0
ARC
  5
1E3F
330
1E
100
AcDbEntity
  8
STEMPEL
100
AcDbCircle
 10
271.0516312817442
 20
308.3124310052947
 30
0.0
 40
7.694305707784582
100
AcDbArc
 50
253.6571066940137
 51
286.3428933059863
  0
ARC
  5
1E40
330
1E
100
AcDbEntity
  8
STEMPEL
100
AcDbCircle
 10
277.5468218101275
 20
330.9290144299657
 30
0.0
 40
30.31088913245553
100
AcDbArc
 50
261.7867892982637
 51
278.2132107017363
  0
LINE
  5
1E41
330
1E
100
AcDbEntity
  8
HILF
  6
Continuous
100
AcDbLine
 10
282.5468218101276
 20
314.3181252975101
 30
0.0
 11
272.5468218101275
 21
314.3181252975101
 31
0.0
  0
LINE
  5
1E42
330
1E
100
AcDbEntity
  8
HILF
  6
Continuous
100
AcDbLine
 10
266.8903067026333
 20
308.3633558319207
 30
0.0
 11
288.2033369176218
 21
308.3633558319207
 31
0.0
  0
LINE
  5
1E43
330
1E
100
AcDbEntity
  8
STEMPEL
  6
Continuous
100
AcDbLine
 10
267.1468218101276
 20
309.8181252975102
 30
0.0
 11
287.9468218101275
 21
309.8181252975102
 31
0.0
  0
LINE
  5
1E44
330
1E
100
AcDbEntity
  8
STEMPEL
  6
Continuous
100
AcDbLine
 10
286.2070758479719
 20
300.9290144299655
 30
0.0
 11
286.2070758479719
 21
307.6367762227438
 31
0.0
  0
LINE
  5
1E45
330
1E
100
AcDbEntity
  8
STEMPEL
  6
Continuous
100
AcDbLine
 10
281.8769488290497
 20
300.9290144299655
 30
0.0
 11
281.8769488290497
 21
307.6367762227438
 31
0.0
  0
LINE
  5
1E46
330
1E
100
AcDbEntity
  8
STEMPEL
  6
Continuous
100
AcDbLine
 10
273.2166947912053
 20
300.9290144299655
 30
0.0
 11
273.2166947912053
 21
307.6367762227438
 31
0.0
  0
LINE
  5
1E47
330
1E
100
AcDbEntity
  8
STEMPEL
  6
Continuous
100
AcDbLine
 10
268.8865677722832
 20
300.9290144299655
 30
0.0
 11
268.8865677722832
 21
307.6367762227438
 31
0.0
  0
LINE
  5
1E48
330
1E
100
AcDbEntity
  8
STEMPEL
  6
Continuous
100
AcDbLine
 10
270.0468218101276
 20
300.6181252975102
 30
0.0
 11
285.0468218101275
 21
300.6181252975102
 31
0.0
  0
LINE
  5
1E49
330
1E
100
AcDbEntity
  8
STEMPEL
  6
Continuous
100
AcDbLine
 10
286.2070758479719
 20
307.6367762227438
 30
0.0
 11
288.2033369176218
 21
308.3633558319207
 31
0.0
  0
LINE
  5
1E4A
330
1E
100
AcDbEntity
  8
STEMPEL
  6
Continuous
100
AcDbLine
 10
266.8903067026333
 20
308.3633558319207
 30
0.0
 11
268.8865677722832
 21
307.6367762227438
 31
0.0
  0
ARC
  5
1E4B
330
1E
100
AcDbEntity
  8
STEMPEL
  6
Continuous
100
AcDbCircle
 10
267.1468218101276
 20
309.0681252975102
 30
0.0
 40
0.7500000000000006
100
AcDbArc
 50
90.0
 51
250.0000000000035
  0
ARC
  5
1E4C
330
1E
100
AcDbEntity
  8
STEMPEL
  6
Continuous
100
AcDbCircle
 10
287.9468218101275
 20
309.0681252975102
 30
0.0
 40
0.7499999999999995
100
AcDbArc
 50
289.9999999999965
 51
90.0
  0
LINE
  5
1E4D
330
1E
100
AcDbEntity
  8
STEMPEL
  6
Continuous
100
AcDbLine
 10
285.0468218101275
 20
300.6181252975102
 30
0.0
 11
286.2070758479719
 21
300.9290144299655
 31
0.0
  0
LINE
  5
1E4E
330
1E
100
AcDbEntity
  8
STEMPEL
  6
Continuous
100
AcDbLine
 10
268.8865677722832
 20
300.9290144299655
 30
0.0
 11
270.0468218101276
 21
300.6181252975102
 31
0.0
  0
ARC
  5
1E4F
330
1E
100
AcDbEntity
  8
STEMPEL
100
AcDbCircle
 10
253.2009087407502
 20
308.8181252975102
 30
0.0
 40
4.0
100
AcDbArc
 50
90.0
 51
174.3419286053664
  0
ARC
  5
1E50
330
1E
100
AcDbEntity
  8
STEMPEL
100
AcDbCircle
 10
262.2399833737146
 20
308.8181252975102
 30
0.0
 40
1.0
100
AcDbArc
 50
90.00000000000651
 51
174.9801998683234
  0
LINE
  5
1E51
330
1E
100
AcDbEntity
  8
STEMPEL
100
AcDbLine
 10
292.5468218101274
 20
312.8181252975102
 30
0.0
 11
292.5468218101274
 21
309.8181252975102
 31
0.0
  0
LINE
  5
1E52
330
1E
100
AcDbEntity
  8
STEMPEL
100
AcDbLine
 10
292.5468218101273
 20
309.8181252975102
 30
0.0
 11
260.2320842477353
 21
309.8181252975102
 31
0.0
  0
LINE
  5
1E53
330
1E
100
AcDbEntity
  8
STEMPEL
100
AcDbLine
 10
292.5468218101273
 20
312.8181252975102
 30
0.0
 11
253.2009087407502
 21
312.8181252975102
 31
0.0
  0
ARC
  5
1E54
330
1E
100
AcDbEntity
  8
STEMPEL
100
AcDbCircle
 10
182.5468218101274
 20
315.8181252975102
 30
0.0
 40
79.0
100
AcDbArc
 50
185.0198001316782
 51
354.9801998683218
  0
ARC
  5
1E55
330
1E
100
AcDbEntity
  8
STEMPEL
100
AcDbCircle
 10
182.5468218101274
 20
315.8181252975102
 30
0.0
 40
67.0
100
AcDbArc
 50
185.6580713946335
 51
354.3419286053664
  0
ARC
  5
1E56
330
1E
100
AcDbEntity
  8
STEMPEL
100
AcDbCircle
 10
182.5468218101275
 20
315.8181252975102
 30
0.0
 40
74.2
100
AcDbArc
 50
185.1356523175827
 51
354.8643476824172
  0
ARC
  5
1E57
330
1E
100
AcDbEntity
  8
STEMPEL
100
AcDbCircle
 10
260.4328924518027
 20
308.8181252975102
 30
0.0
 40
4.0
100
AcDbArc
 50
90.0
 51
174.8643476824172
  0
ARC
  5
1E58
330
1E
100
AcDbEntity
  8
STEMPEL
100
AcDbCircle
 10
260.4328924518027
 20
322.8181252975101
 30
0.0
 40
4.0
100
AcDbArc
 50
185.1356523175827
 51
270.0
  0
ARC
  5
1E59
330
1E
100
AcDbEntity
  8
STEMPEL
100
AcDbCircle
 10
182.5468218101275
 20
315.8181252975102
 30
0.0
 40
74.2
100
AcDbArc
 50
5.135652317582763
 51
174.8643476824172
  0
ARC
  5
1E5A
330
1E
100
AcDbEntity
  8
STEMPEL
100
AcDbCircle
 10
182.5468218101274
 20
315.8181252975102
 30
0.0
 40
67.0
100
AcDbArc
 50
5.658071394633569
 51
174.3419286053664
  0
ARC
  5
1E5B
330
1E
100
AcDbEntity
  8
STEMPEL
100
AcDbCircle
 10
182.5468218101274
 20
315.8181252975102
 30
0.0
 40
79.0
100
AcDbArc
 50
5.019800131678183
 51
174.9801998683218
  0
LINE
  5
1E5C
330
1E
100
AcDbEntity
  8
STEMPEL
100
AcDbLine
 10
292.5468218101273
 20
318.8181252975101
 30
0.0
 11
253.2009087407502
 21
318.8181252975101
 31
0.0
  0
LINE
  5
1E5D
330
1E
100
AcDbEntity
  8
STEMPEL
100
AcDbLine
 10
292.5468218101273
 20
321.8181252975102
 30
0.0
 11
262.2399833737146
 21
321.8181252975102
 31
0.0
  0
LINE
  5
1E5E
330
1E
100
AcDbEntity
  8
STEMPEL
100
AcDbLine
 10
292.5468218101274
 20
318.8181252975101
 30
0.0
 11
292.5468218101274
 21
321.8181252975102
 31
0.0
  0
ARC
  5
1E5F
330
1E
100
AcDbEntity
  8
STEMPEL
100
AcDbCircle
 10
262.2399833737146
 20
322.8181252975101
 30
0.0
 40
1.0
100
AcDbArc
 50
185.0198001316765
 51
269.9999999999935
  0
ARC
  5
1E60
330
1E
100
AcDbEntity
  8
STEMPEL
100
AcDbCircle
 10
253.2009087407502
 20
322.8181252975101
 30
0.0
 40
4.0
100
AcDbArc
 50
185.6580713946335
 51
270.0
  0
ARC
  5
1E61
330
1E
100
AcDbEntity
  8
STEMPEL
100
AcDbCircle
 10
88.54682181012753
 20
554.5872070417258
 30
0.0
 40
16.0
100
AcDbArc
 50
90.0
 51
180.0
  0
ARC
  5
1E62
330
1E
100
AcDbEntity
  8
STEMPEL
100
AcDbCircle
 10
98.54682181012755
 20
496.5872070417258
 30
0.0
 40
16.0
100
AcDbArc
 50
180.0
 51
270.0
  0
ARC
  5
1E63
330
1E
100
AcDbEntity
  8
STEMPEL
100
AcDbCircle
 10
104.5468218101275
 20
538.5872070417258
 30
0.0
 40
32.0
100
AcDbArc
 50
180.0
 51
212.461744967243
  0
ARC
  5
1E64
330
1E
100
AcDbEntity
  8
STEMPEL
100
AcDbCircle
 10
50.54682181012754
 20
504.2360789670906
 30
0.0
 40
32.0
100
AcDbArc
 50
0.0
 51
32.46174496724295
  0
LINE
  5
1E65
330
1E
100
AcDbEntity
  8
STEMPEL
100
AcDbLine
 10
82.54682181012753
 20
504.2360789670906
 30
0.0
 11
82.54682181012753
 21
496.5872070417258
 31
0.0
  0
LINE
  5
1E66
330
1E
100
AcDbEntity
  8
STEMPEL
100
AcDbLine
 10
72.54682181012753
 20
554.5872070417258
 30
0.0
 11
72.54682181012753
 21
538.5872070417258
 31
0.0
  0
LINE
  5
1E67
330
1E
100
AcDbEntity
  8
STEMPEL
100
AcDbLine
 10
98.54682181012755
 20
480.5872070417258
 30
0.0
 11
266.5468218101275
 21
480.5872070417258
 31
0.0
  0
LINE
  5
1E68
330
1E
100
AcDbEntity
  8
STEMPEL
100
AcDbLine
 10
88.54682181012753
 20
570.5872070417258
 30
0.0
 11
276.5468218101275
 21
570.5872070417258
 31
0.0
  0
LINE
  5
1E69
330
1E
100
AcDbEntity
  8
MITTEL
100
AcDbLine
 10
182.5468218101275
 20
575.5872070417258
 30
0.0
 11
182.5468218101275
 21
475.5872070417258
 31
0.0
  0
ARC
  5
1E6A
330
1E
100
AcDbEntity
  8
STEMPEL
100
AcDbCircle
 10
266.5468218101275
 20
496.5872070417258
 30
0.0
 40
16.0
100
AcDbArc
 50
270.0
 51
0.0
  0
ARC
  5
1E6B
330
1E
100
AcDbEntity
  8
STEMPEL
100
AcDbCircle
 10
276.5468218101275
 20
554.5872070417258
 30
0.0
 40
16.0
100
AcDbArc
 50
0.0
 51
90.0
  0
ARC
  5
1E6C
330
1E
100
AcDbEntity
  8
STEMPEL
100
AcDbCircle
 10
314.5468218101275
 20
504.2360789670908
 30
0.0
 40
32.0
100
AcDbArc
 50
147.538255032757
 51
180.0
  0
ARC
  5
1E6D
330
1E
100
AcDbEntity
  8
STEMPEL
100
AcDbCircle
 10
260.5468218101275
 20
538.5872070417258
 30
0.0
 40
32.0
100
AcDbArc
 50
327.5382550327571
 51
0.0
  0
LINE
  5
1E6E
330
1E
100
AcDbEntity
  8
STEMPEL
100
AcDbLine
 10
282.5468218101276
 20
504.2360789670908
 30
0.0
 11
282.5468218101276
 21
496.5872070417258
 31
0.0
  0
LINE
  5
1E6F
330
1E
100
AcDbEntity
  8
STEMPEL
100
AcDbLine
 10
292.5468218101276
 20
554.5872070417258
 30
0.0
 11
292.5468218101276
 21
538.5872070417258
 31
0.0
  0
LINE
  5
1E70
330
1E
100
AcDbEntity
  8
MITTEL
100
AcDbLine
 10
413.309222273735
 20
575.5872070417258
 30
0.0
 11
413.309222273735
 21
475.5872070417258
 31
0.0
  0
LINE
  5
1E71
330
1E
100
AcDbEntity
  8
MITTEL
100
AcDbLine
 10
67.54682181012753
 20
315.8181252975102
 30
0.0
 11
297.5468218101275
 21
315.8181252975102
 31
0.0
  0
LINE
  5
1E72
330
1E
100
AcDbEntity
  8
MITTEL
100
AcDbLine
 10
182.5468218101275
 20
399.3181252975102
 30
0.0
 11
182.5468218101275
 21
232.3181252975102
 31
0.0
  0
DIMENSION
  5
1EB6
330
1E
100
AcDbEntity
  8
BEM
100
AcDbDimension
  2
*D1
 10
292.5468218101276
 20
586.1747966206173
 30
0.0
 11
182.5468218101275
 21
594.2997966206173
 31
0.0
 70
    32
 71
     5
 42
220.0
  3
Standard
100
AcDbAlignedDimension
 13
72.54682181012753
 23
554.5872070417258
 33
0.0
 14
292.5468218101276
 24
554.5872070417258
 34
0.0
100
AcDbRotatedDimension
1001
ACAD
1000
DSTYLE
1002
{
1070
    40
1040
2.5
1070
    41
1040
3.5
1070
    42
1040
1.0
1070
    43
1040
7.0
1070
    44
1040
1.0
1070
    73
1070
     0
1070
    74
1070
     0
1070
    77
1070
     1
1070
    78
1070
     8
1070
    79
1070
     2
1070
   140
1040
3.5
1070
   141
1040
1.5
1070
   146
1040
0.5142857142857144
1070
   147
1040
1.5
1070
   172
1070
     1
1070
   178
1070
     1
1070
   179
1070
     3
1070
   271
1070
     2
1070
   272
1070
     2
1070
   284
1070
     8
1070
   285
1070
     8
1070
   286
1070
     8
1002
}
  0
DIMENSION
  5
1EC3
330
1E
100
AcDbEntity
  8
BEM
100
AcDbDimension
  2
*D2
 10
82.54682181012753
 20
454.5235256116045
 30
0.0
 11
182.5468218101275
 21
462.6485256116045
 31
0.0
 70
    32
 71
     5
 42
200.0
  3
Standard
100
AcDbAlignedDimension
 13
282.5468218101276
 23
496.5872070417258
 33
0.0
 14
82.54682181012753
 24
496.5872070417258
 34
0.0
100
AcDbRotatedDimension
1001
ACAD
1000
DSTYLE
1002
{
1070
    40
1040
2.5
1070
    41
1040
3.5
1070
    42
1040
1.0
1070
    43
1040
7.0
1070
    44
1040
1.0
1070
    73
1070
     0
1070
    74
1070
     0
1070
    77
1070
     1
1070
    78
1070
     8
1070
    79
1070
     2
1070
   140
1040
3.5
1070
   141
1040
1.5
1070
   146
1040
0.5142857142857144
1070
   147
1040
1.5
1070
   172
1070
     1
1070
   178
1070
     1
1070
   179
1070
     3
1070
   271
1070
     2
1070
   272
1070
     2
1070
   284
1070
     8
1070
   285
1070
     8
1070
   286
1070
     8
1002
}
  0
DIMENSION
  5
1ED0
330
1E
100
AcDbEntity
  8
BEM
100
AcDbDimension
  2
*D3
 10
316.8768064426095
 20
480.5872070417258
 30
0.0
 11
308.7518064426094
 21
525.5872070417259
 31
0.0
 70
    32
 71
     5
 42
90.00000000000005
  3
Standard
100
AcDbAlignedDimension
 13
276.5468218101275
 23
570.5872070417258
 33
0.0
 14
266.5468218101275
 24
480.5872070417258
 34
0.0
 50
90.0
100
AcDbRotatedDimension
1001
ACAD
1000
DSTYLE
1002
{
1070
    40
1040
2.5
1070
    41
1040
3.5
1070
    42
1040
1.0
1070
    43
1040
7.0
1070
    44
1040
1.0
1070
    73
1070
     0
1070
    74
1070
     0
1070
    77
1070
     1
1070
    78
1070
     8
1070
    79
1070
     2
1070
   140
1040
3.5
1070
   141
1040
1.5
1070
   146
1040
0.5142857142857144
1070
   147
1040
1.5
1070
   172
1070
     1
1070
   178
1070
     1
1070
   179
1070
     3
1070
   271
1070
     2
1070
   272
1070
     2
1070
   284
1070
     8
1070
   285
1070
     8
1070
   286
1070
     8
1002
}
  0
DIMENSION
  5
1EDD
330
1E
100
AcDbEntity
  8
BEM
100
AcDbDimension
  2
*D4
 10
416.309222273735
 20
587.2280069697056
 30
0.0
 11
454.3092222737355
 21
595.3530069697055
 31
0.0
 70
    32
 71
     5
 42
76.00000000000091
  3
Standard
100
AcDbAlignedDimension
 13
492.3092222737359
 23
559.7940722502364
 33
0.0
 14
416.309222273735
 24
570.5872070417258
 34
0.0
100
AcDbRotatedDimension
1001
ACAD
1000
DSTYLE
1002
{
1070
    40
1040
2.5
1070
    41
1040
3.5
1070
    42
1040
1.0
1070
    43
1040
7.0
1070
    44
1040
1.0
1070
    73
1070
     0
1070
    74
1070
     0
1070
    77
1070
     1
1070
    78
1070
     8
1070
    79
1070
     2
1070
   140
1040
3.5
1070
   141
1040
1.5
1070
   146
1040
0.5142857142857144
1070
   147
1040
1.5
1070
   172
1070
     1
1070
   178
1070
     1
1070
   179
1070
     3
1070
   271
1070
     2
1070
   272
1070
     2
1070
   284
1070
     8
1070
   285
1070
     8
1070
   286
1070
     8
1002
}
  0
DIMENSION
  5
1EEA
330
1E
100
AcDbEntity
  8
BEM
100
AcDbDimension
  2
*D5
 10
416.309222273735
 20
455.0501299158781
 30
0.0
 11
449.809222273735
 21
463.1751299158781
 31
0.0
 70
    32
 71
     5
 42
67.0
  3
Standard
100
AcDbAlignedDimension
 13
483.309222273735
 23
480.5872070417257
 33
0.0
 14
416.309222273735
 24
480.5872070417258
 34
0.0
100
AcDbRotatedDimension
1001
ACAD
1000
DSTYLE
1002
{
1070
    40
1040
2.5
1070
    41
1040
3.5
1070
    42
1040
1.0
1070
    43
1040
7.0
1070
    44
1040
1.0
1070
    73
1070
     0
1070
    74
1070
     0
1070
    77
1070
     1
1070
    78
1070
     8
1070
    79
1070
     2
1070
   140
1040
3.5
1070
   141
1040
1.5
1070
   146
1040
0.5142857142857144
1070
   147
1040
1.5
1070
   172
1070
     1
1070
   178
1070
     1
1070
   179
1070
     3
1070
   271
1070
     2
1070
   272
1070
     2
1070
   284
1070
     8
1070
   285
1070
     8
1070
   286
1070
     8
1002
}
  0
ENDSEC
  0
SECTION
  2
OBJECTS
  0
DICTIONARY
  5
C
330
0
100
AcDbDictionary
281
     1
  3
ACAD_CIP_PREVIOUS_PRODUCT_INFO
350
11C7
  3
ACAD_COLOR
350
11A
  3
ACAD_DETAILVIEWSTYLE
350
11C3
  3
ACAD_GROUP
350
D
  3
ACAD_LAYOUT
350
19
  3
ACAD_MATERIAL
350
119
  3
ACAD_MLEADERSTYLE
350
11BE
  3
ACAD_MLINESTYLE
350
16
  3
ACAD_PLOTSETTINGS
350
18
  3
ACAD_PLOTSTYLENAME
350
E
  3
ACAD_SCALELIST
350
11AC
  3
ACAD_SECTIONVIEWSTYLE
350
11C0
  3
ACAD_TABLESTYLE
350
11AA
  3
ACAD_VISUALSTYLE
350
1191
  3
ACDB_RECOMPOSE_DATA
350
1FDC
  3
AcDbVariableDictionary
350
125
  3
AcDsDecomposeData
350
1FE2
  0
DICTIONARY
  5
1330
330
8
100
AcDbDictionary
280
     1
281
     1
  0
DICTIONARY
  5
1371
330
2
100
AcDbDictionary
280
     1
281
     1
  3
ACAD_LAYERSTATES
360
1372
  0
DICTIONARY
  5
131F
330
10
100
AcDbDictionary
280
     1
281
     1
  3
ADSK_XREC_LAYER_RECONCILED
360
1320
  0
DICTIONARY
  5
1321
330
2B
100
AcDbDictionary
280
     1
281
     1
  3
ADSK_XREC_LAYER_RECONCILED
360
1322
  0
DICTIONARY
  5
1323
330
2C
100
AcDbDictionary
280
     1
281
     1
  3
ADSK_XREC_LAYER_RECONCILED
360
1324
  0
DICTIONARY
  5
1325
330
2D
100
AcDbDictionary
280
     1
281
     1
  3
ADSK_XREC_LAYER_RECONCILED
360
1326
  0
DICTIONARY
  5
1327
330
2F
100
AcDbDictionary
280
     1
281
     1
  3
ADSK_XREC_LAYER_RECONCILED
360
1328
  0
DICTIONARY
  5
1329
330
30
100
AcDbDictionary
280
     1
281
     1
  3
ADSK_XREC_LAYER_RECONCILED
360
132A
  0
DICTIONARY
  5
132B
330
33
100
AcDbDictionary
280
     1
281
     1
  3
ADSK_XREC_LAYER_RECONCILED
360
132C
  0
DICTIONARY
  5
DB
330
1E
100
AcDbDictionary
280
     1
281
     1
  3
ACAD_LAYOUTSELFREF
360
10F
  3
ACAD_SORTENTS
360
12F8
  0
DICTIONARY
  5
DD
330
1A
100
AcDbDictionary
280
     1
281
     1
  3
ACAD_LAYOUTSELFREF
360
10E
  0
XRECORD
  5
11C7
102
{ACAD_REACTORS
330
C
102
}
330
C
100
AcDbXrecord
280
     1
300
ACD
300
2013
300
ACD_F_S
  0
DICTIONARY
  5
11A
102
{ACAD_REACTORS
330
C
102
}
330
C
100
AcDbDictionary
281
     1
  0
DICTIONARY
  5
11C3
102
{ACAD_REACTORS
330
C
102
}
330
C
100
AcDbDictionary
281
     1
  3
Imperial24
350
11C4
  0
DICTIONARY
  5
D
102
{ACAD_REACTORS
330
C
102
}
330
C
100
AcDbDictionary
281
     1
  0
DICTIONARY
  5
19
102
{ACAD_REACTORS
330
C
102
}
330
C
100
AcDbDictionary
281
     1
  3
Layout1
350
1D
  3
Model
350
21
  0
DICTIONARY
  5
119
102
{ACAD_REACTORS
330
C
102
}
330
C
100
AcDbDictionary
281
     1
  3
ByBlock
350
1181
  3
ByLayer
350
1179
  3
Global
350
1189
  0
DICTIONARY
  5
11BE
102
{ACAD_REACTORS
330
C
102
}
330
C
100
AcDbDictionary
281
     1
  3
Standard
350
11BF
  0
DICTIONARY
  5
16
102
{ACAD_REACTORS
330
C
102
}
330
C
100
AcDbDictionary
281
     1
  3
Standard
350
17
  0
DICTIONARY
  5
18
102
{ACAD_REACTORS
330
C
102
}
330
C
100
AcDbDictionary
281
     1
  0
ACDBDICTIONARYWDFLT
  5
E
102
{ACAD_REACTORS
330
C
102
}
330
C
100
AcDbDictionary
281
     1
  3
Normal
350
F
100
AcDbDictionaryWithDefault
340
F
  0
DICTIONARY
  5
11AC
102
{ACAD_REACTORS
330
C
102
}
330
C
100
AcDbDictionary
281
     1
  3
A0
350
11AD
  3
A1
350
11AE
  3
A2
350
11AF
  3
A3
350
11B0
  3
A4
350
11B1
  3
A5
350
11B2
  3
A6
350
11B3
  3
A7
350
11B4
  3
A8
350
11B5
  3
A9
350
11B6
  3
B0
350
11B7
  3
B1
350
11B8
  3
B2
350
11B9
  3
B3
350
11BA
  3
B4
350
11BB
  3
B5
350
11BC
  3
B6
350
11BD
  0
DICTIONARY
  5
11C0
102
{ACAD_REACTORS
330
C
102
}
330
C
100
AcDbDictionary
281
     1
  3
Imperial24
350
11C2
  0
DICTIONARY
  5
11AA
102
{ACAD_REACTORS
330
C
102
}
330
C
100
AcDbDictionary
281
     1
  3
Standard
350
11AB
  0
DICTIONARY
  5
1191
102
{ACAD_REACTORS
330
C
102
}
330
C
100
AcDbDictionary
281
     1
  3
2dWireframe
350
1197
  3
Basic
350
1196
  3
Brighten
350
119D
  3
ColorChange
350
11A1
  3
Conceptual
350
119A
  3
Dim
350
119C
  3
EdgeColorOff
350
11A9
  3
Facepattern
350
11A0
  3
Flat
350
1192
  3
FlatWithEdges
350
1193
  3
Gouraud
350
1194
  3
GouraudWithEdges
350
1195
  3
Hidden
350
1199
  3
JitterOff
350
11A7
  3
Linepattern
350
119F
  3
OverhangOff
350
11A8
  3
Realistic
350
119B
  3
Shaded
350
11A6
  3
Shaded with edges
350
11A5
  3
Shades of Gray
350
11A2
  3
Sketchy
350
11A3
  3
Thicken
350
119E
  3
Wireframe
350
1198
  3
X-Ray
350
11A4
  0
XRECORD
  5
1FDC
102
{ACAD_REACTORS
330
C
102
}
330
C
100
AcDbXrecord
280
     1
 90
        1
330
11AB
  0
DICTIONARY
  5
125
102
{ACAD_REACTORS
330
C
102
}
330
C
100
AcDbDictionary
281
     1
  3
CANNOSCALE
350
136D
  3
CMLEADERSTYLE
350
136A
  3
CTABLESTYLE
350
1369
  3
CVIEWDETAILSTYLE
350
136B
  3
CVIEWSECTIONSTYLE
350
136C
  3
DIMASSOC
350
126
  3
PROJECTNAME
350
127
  0
DICTIONARY
  5
1FE2
102
{ACAD_REACTORS
330
C
102
}
330
C
100
AcDbDictionary
281
     1
  3
AcDsRecords
350
1FE4
  3
AcDsSchemas
350
1FE3
1001
ACAD
1070
     2
  0
DICTIONARY
  5
1372
102
{ACAD_REACTORS
330
1371
102
}
330
1371
100
AcDbDictionary
281
     1
  0
XRECORD
  5
1320
102
{ACAD_REACTORS
330
131F
102
}
330
131F
100
AcDbXrecord
280
     1
290
     1
  0
XRECORD
  5
1322
102
{ACAD_REACTORS
330
1321
102
}
330
1321
100
AcDbXrecord
280
     1
290
     1
  0
XRECORD
  5
1324
102
{ACAD_REACTORS
330
1323
102
}
330
1323
100
AcDbXrecord
280
     1
290
     1
  0
XRECORD
  5
1326
102
{ACAD_REACTORS
330
1325
102
}
330
1325
100
AcDbXrecord
280
     1
290
     1
  0
XRECORD
  5
1328
102
{ACAD_REACTORS
330
1327
102
}
330
1327
100
AcDbXrecord
280
     1
290
     1
  0
XRECORD
  5
132A
102
{ACAD_REACTORS
330
1329
102
}
330
1329
100
AcDbXrecord
280
     1
290
     1
  0
XRECORD
  5
132C
102
{ACAD_REACTORS
330
132B
102
}
330
132B
100
AcDbXrecord
280
     1
290
     1
  0
XRECORD
  5
10F
102
{ACAD_REACTORS
330
DB
102
}
330
DB
100
AcDbXrecord
280
     1
340
1E
  0
SORTENTSTABLE
  5
12F8
102
{ACAD_REACTORS
330
DB
102
}
330
DB
100
AcDbSortentsTable
330
1E
331
12D5
  5
12D0
331
12D1
  5
12CC
331
12CD
  5
12C8
331
12C9
  5
12C4
331
1DA7
  5
1DA7
331
1DA3
  5
1DA3
331
1E1D
  5
1E1D
331
1D9F
  5
1D9F
331
1DDE
  5
1DDE
331
1E19
  5
1E19
331
1E15
  5
1E15
331
1E54
  5
1E54
331
1D9B
  5
1D9B
331
1DDA
  5
1DDA
331
1E11
  5
1E11
331
1E50
  5
1E50
331
1CB6
  5
1CB6
331
1CB2
  5
1CB2
331
1D2C
  5
1D2C
331
1CAE
  5
1CAE
331
1CED
  5
1CED
331
1D28
  5
1D28
331
1D67
  5
1D67
331
1CAA
  5
1CAA
331
1CE9
  5
1CE9
331
1D24
  5
1D24
331
1D63
  5
1D63
331
1D20
  5
1D20
331
12C5
  5
12C0
331
12C1
  5
12BC
331
12BD
  5
12B8
331
12B9
  5
12B4
331
1D97
  5
1D97
331
1DD6
  5
1DD6
331
1D93
  5
1D93
331
1DD2
  5
1DD2
331
1E0D
  5
1E0D
331
1E4C
  5
1E4C
331
1D8F
  5
1D8F
331
1DCE
  5
1DCE
331
1E09
  5
1E09
331
1E48
  5
1E48
331
1E05
  5
1E05
331
1E44
  5
1E44
331
1D8B
  5
1D8B
331
1DCA
  5
1DCA
331
1E01
  5
1E01
331
1E40
  5
1E40
331
1D5F
  5
1D5F
331
1CA6
  5
1CA6
331
1CE5
  5
1CE5
331
1CA2
  5
1CA2
331
1CE1
  5
1CE1
331
1D1C
  5
1D1C
331
1D5B
  5
1D5B
331
1C9E
  5
1C9E
331
1CDD
  5
1CDD
331
1D18
  5
1D18
331
1D57
  5
1D57
331
1CD9
  5
1CD9
331
1D14
  5
1D14
331
1D53
  5
1D53
331
1D10
  5
1D10
331
12B5
  5
1299
331
12F4
  5
12EF
331
12F0
  5
12EB
331
12EC
  5
12E7
331
3F3
  5
3F3
331
12E8
  5
12E3
331
1D87
  5
1D87
331
1DC6
  5
1DC6
331
1D83
  5
1D83
331
1DC2
  5
1DC2
331
1DFD
  5
1DFD
331
1E3C
  5
1E3C
331
1D7F
  5
1D7F
331
1DBE
  5
1DBE
331
1DF9
  5
1DF9
331
1E38
  5
1E38
331
1DF5
  5
1DF5
331
1E34
  5
1E34
331
1D7B
  5
1D7B
331
1DBA
  5
1DBA
331
1DF1
  5
1DF1
331
1E30
  5
1E30
331
1D4F
  5
1D4F
331
1CD5
  5
1CD5
331
1CD1
  5
1CD1
331
1D0C
  5
1D0C
331
1D4B
  5
1D4B
331
1CCD
  5
1CCD
331
1E71
  5
1E71
331
1D08
  5
1D08
331
1D47
  5
1D47
331
1CC9
  5
1CC9
331
1D04
  5
1D04
331
1D43
  5
1D43
331
1E6D
  5
1E6D
331
1E69
  5
1E69
331
1D00
  5
1D00
331
12E4
  5
12DF
331
12E0
  5
12DB
331
12DC
  5
12D7
331
12D8
  5
12D3
331
1D77
  5
1D77
331
1DB6
  5
1DB6
331
1D73
  5
1D73
331
1DB2
  5
1DB2
331
1DED
  5
1DED
331
1E2C
  5
1E2C
331
1DAE
  5
1DAE
331
1DE9
  5
1DE9
331
1E28
  5
1E28
331
1D6F
  5
1D6F
331
1DE5
  5
1DE5
331
1E24
  5
1E24
331
1D6B
  5
1D6B
331
1DAA
  5
1DAA
331
1DE1
  5
1DE1
331
1E20
  5
1E20
331
1D3F
  5
1D3F
331
1CC5
  5
1CC5
331
1CC1
  5
1CC1
331
1E65
  5
1E65
331
1CFC
  5
1CFC
331
1D3B
  5
1D3B
331
1CBD
  5
1CBD
331
1CF8
  5
1CF8
331
1D37
  5
1D37
331
1E61
  5
1E61
331
1CB9
  5
1CB9
331
1CF4
  5
1CF4
331
1D33
  5
1D33
331
1E5D
  5
1E5D
331
1E59
  5
1E59
331
1CF0
  5
1CF0
331
12D4
  5
12CF
331
12D0
  5
12CB
331
12CC
  5
12C7
331
12C8
  5
12C3
331
1DA6
  5
1DA6
331
1DA2
  5
1DA2
331
1E1C
  5
1E1C
331
1D9E
  5
1D9E
331
1DDD
  5
1DDD
331
1E18
  5
1E18
331
1E57
  5
1E57
331
1E14
  5
1E14
331
1E53
  5
1E53
331
1D9A
  5
1D9A
331
1DD9
  5
1DD9
331
1E10
  5
1E10
331
1D2F
  5
1D2F
331
1CB5
  5
1CB5
331
1CB1
  5
1CB1
331
1D2B
  5
1D2B
331
1CAD
  5
1CAD
331
1CEC
  5
1CEC
331
1D27
  5
1D27
331
1D66
  5
1D66
331
1CA9
  5
1CA9
331
1CE8
  5
1CE8
331
1D23
  5
1D23
331
1D62
  5
1D62
331
12C4
  5
12BF
331
12C0
  5
12BB
331
12BC
  5
12B7
331
12B8
  5
12B3
331
1D96
  5
1D96
331
1DD5
  5
1DD5
331
1E4F
  5
1E4F
331
1D92
  5
1D92
331
1DD1
  5
1DD1
331
1E0C
  5
1E0C
331
1E4B
  5
1E4B
331
1DCD
  5
1DCD
331
1E08
  5
1E08
331
1E47
  5
1E47
331
1D8E
  5
1D8E
331
1E04
  5
1E04
331
1E43
  5
1E43
331
1D8A
  5
1D8A
331
1DC9
  5
1DC9
331
1E00
  5
1E00
331
1D5E
  5
1D5E
331
1CA5
  5
1CA5
331
1CE4
  5
1CE4
331
1D1F
  5
1D1F
331
1CA1
  5
1CA1
331
1CE0
  5
1CE0
331
1D1B
  5
1D1B
331
1D5A
  5
1D5A
331
1C9D
  5
1C9D
331
1CDC
  5
1CDC
331
1D17
  5
1D17
331
1D56
  5
1D56
331
1CD8
  5
1CD8
331
1D13
  5
1D13
331
1D52
  5
1D52
331
12F7
  5
12F2
331
12B4
  5
128C
331
12F3
  5
12EE
331
12EF
  5
12EA
331
12EB
  5
12E6
331
1D86
  5
1D86
331
1DC5
  5
1DC5
331
1E3F
  5
1E3F
331
1D82
  5
1D82
331
1DC1
  5
1DC1
331
1DFC
  5
1DFC
331
1E3B
  5
1E3B
331
1DBD
  5
1DBD
331
1DF8
  5
1DF8
331
1E37
  5
1E37
331
1D7E
  5
1D7E
331
1DF4
  5
1DF4
331
1E33
  5
1E33
331
1D7A
  5
1D7A
331
1DB9
  5
1DB9
331
1DF0
  5
1DF0
331
1D4E
  5
1D4E
331
1CD4
  5
1CD4
331
1D0F
  5
1D0F
331
1CD0
  5
1CD0
331
1D0B
  5
1D0B
331
1D4A
  5
1D4A
331
1CCC
  5
1CCC
331
1D07
  5
1D07
331
1D46
  5
1D46
331
1E70
  5
1E70
331
1CC8
  5
1CC8
331
1D03
  5
1D03
331
1D42
  5
1D42
331
1E6C
  5
1E6C
331
1E68
  5
1E68
331
12E7
  5
12E2
331
12E3
  5
12DE
331
12DF
  5
12DA
331
12DB
  5
12D6
331
1D76
  5
1D76
331
1DB5
  5
1DB5
331
1E2F
  5
1E2F
331
1D72
  5
1D72
331
1DB1
  5
1DB1
331
1DEC
  5
1DEC
331
1E2B
  5
1E2B
331
1DAD
  5
1DAD
331
1DE8
  5
1DE8
331
1E27
  5
1E27
331
1D6E
  5
1D6E
331
1E23
  5
1E23
331
1D6A
  5
1D6A
331
1DA9
  5
1DA9
331
1DE4
  5
1DE4
331
1DE0
  5
1DE0
331
1CC4
  5
1CC4
331
1CFF
  5
1CFF
331
1D3E
  5
1D3E
331
1CC0
  5
1CC0
331
1E64
  5
1E64
331
1CFB
  5
1CFB
331
1D3A
  5
1D3A
331
1CBC
  5
1CBC
331
1CF7
  5
1CF7
331
1D36
  5
1D36
331
1E60
  5
1E60
331
1CF3
  5
1CF3
331
1D32
  5
1D32
331
1E5C
  5
1E5C
331
1CB8
  5
1CB8
331
1E58
  5
1E58
331
12D7
  5
12D2
331
12D3
  5
12CE
331
12CF
  5
12CA
331
12CB
  5
12C6
331
1DA5
  5
1DA5
331
1E1F
  5
1E1F
331
1DA1
  5
1DA1
331
1E1B
  5
1E1B
331
1DDC
  5
1DDC
331
1E17
  5
1E17
331
1E56
  5
1E56
331
1D9D
  5
1D9D
331
1E13
  5
1E13
331
1E52
  5
1E52
331
1D99
  5
1D99
331
1DD8
  5
1DD8
331
1CB4
  5
1CB4
331
1D2E
  5
1D2E
331
1CB0
  5
1CB0
331
1CEF
  5
1CEF
331
1D2A
  5
1D2A
331
1CAC
  5
1CAC
331
1CEB
  5
1CEB
331
1D26
  5
1D26
331
1D65
  5
1D65
331
1D22
  5
1D22
331
1D61
  5
1D61
331
1CA8
  5
1CA8
331
12C7
  5
12C2
331
12C3
  5
12BE
331
12BF
  5
12BA
331
12BB
  5
12B6
331
1D95
  5
1D95
331
1DD4
  5
1DD4
331
1E0F
  5
1E0F
331
1E4E
  5
1E4E
331
1D91
  5
1D91
331
1DD0
  5
1DD0
331
1E0B
  5
1E0B
331
1E4A
  5
1E4A
331
1DCC
  5
1DCC
331
1E07
  5
1E07
331
1E46
  5
1E46
331
1D8D
  5
1D8D
331
1E42
  5
1E42
331
1D89
  5
1D89
331
1DC8
  5
1DC8
331
1E03
  5
1E03
331
1CE7
  5
1CE7
331
1CA4
  5
1CA4
331
1CE3
  5
1CE3
331
1D1E
  5
1D1E
331
1D5D
  5
1D5D
331
1CA0
  5
1CA0
331
1CDF
  5
1CDF
331
1D1A
  5
1D1A
331
1D59
  5
1D59
331
1C9C
  5
1C9C
331
1CDB
  5
1CDB
331
1D16
  5
1D16
331
1D55
  5
1D55
331
1D12
  5
1D12
331
1D51
  5
1D51
331
12B7
  5
12B2
331
12F6
  5
12F1
331
12B3
  5
127F
331
E21
  5
E21
331
12EE
  5
12E9
331
12EA
  5
12E5
331
1D85
  5
1D85
331
1DC4
  5
1DC4
331
1DFF
  5
1DFF
331
1E3E
  5
1E3E
331
1D81
  5
1D81
331
1DC0
  5
1DC0
331
1DFB
  5
1DFB
331
1E3A
  5
1E3A
331
1DF7
  5
1DF7
331
1E36
  5
1E36
331
1D7D
  5
1D7D
331
1DBC
  5
1DBC
331
1E32
  5
1E32
331
1D79
  5
1D79
331
1DB8
  5
1DB8
331
1DF3
  5
1DF3
331
1CD7
  5
1CD7
331
1CD3
  5
1CD3
331
1D0E
  5
1D0E
331
1D4D
  5
1D4D
331
1CCF
  5
1CCF
331
1D0A
  5
1D0A
331
1D49
  5
1D49
331
1CCB
  5
1CCB
331
1D06
  5
1D06
331
1D45
  5
1D45
331
1E6F
  5
1E6F
331
1D02
  5
1D02
331
1D41
  5
1D41
331
1E6B
  5
1E6B
331
12E6
  5
12E1
331
12E2
  5
12DD
331
12DE
  5
12D9
331
12DA
  5
12D5
331
1D75
  5
1D75
331
1DB4
  5
1DB4
331
1DEF
  5
1DEF
331
1E2E
  5
1E2E
331
1D71
  5
1D71
331
1DB0
  5
1DB0
331
1DEB
  5
1DEB
331
1E2A
  5
1E2A
331
1DE7
  5
1DE7
331
1E26
  5
1E26
331
1D6D
  5
1D6D
331
1DAC
  5
1DAC
331
1D69
  5
1D69
331
1DA8
  5
1DA8
331
1DE3
  5
1DE3
331
1E22
  5
1E22
331
1CC7
  5
1CC7
331
1CC3
  5
1CC3
331
1E67
  5
1E67
331
1CFE
  5
1CFE
331
1D3D
  5
1D3D
331
1CBF
  5
1CBF
331
1E63
  5
1E63
331
1CFA
  5
1CFA
331
1D39
  5
1D39
331
1CBB
  5
1CBB
331
1CF6
  5
1CF6
331
1D35
  5
1D35
331
1E5F
  5
1E5F
331
1D31
  5
1D31
331
1E5B
  5
1E5B
331
1CF2
  5
1CF2
331
12D6
  5
12D1
331
12D2
  5
12CD
331
12CE
  5
12C9
331
12CA
  5
12C5
331
1DA4
  5
1DA4
331
1E1E
  5
1E1E
331
1DA0
  5
1DA0
331
1DDF
  5
1DDF
331
1E1A
  5
1E1A
331
1E16
  5
1E16
331
1E55
  5
1E55
331
1D9C
  5
1D9C
331
1DDB
  5
1DDB
331
1E51
  5
1E51
331
1D98
  5
1D98
331
1E12
  5
1E12
331
1CB7
  5
1CB7
331
1CB3
  5
1CB3
331
1D2D
  5
1D2D
331
1CAF
  5
1CAF
331
1CEE
  5
1CEE
331
1D29
  5
1D29
331
1CAB
  5
1CAB
331
1CEA
  5
1CEA
331
1D25
  5
1D25
331
1D64
  5
1D64
331
1D21
  5
1D21
331
1D60
  5
1D60
331
12C6
  5
12C1
331
12C2
  5
12BD
331
12BE
  5
12B9
331
12BA
  5
12B5
331
EA0
  5
EA0
331
1DD7
  5
1DD7
331
1D94
  5
1D94
331
1DD3
  5
1DD3
331
1E0E
  5
1E0E
331
1E4D
  5
1E4D
331
1D90
  5
1D90
331
1DCF
  5
1DCF
331
1E0A
  5
1E0A
331
1E49
  5
1E49
331
1E06
  5
1E06
331
1E45
  5
1E45
331
1D8C
  5
1D8C
331
1DCB
  5
1DCB
331
1E41
  5
1E41
331
1D88
  5
1D88
331
1E02
  5
1E02
331
1CE6
  5
1CE6
331
1CA7
  5
1CA7
331
1CA3
  5
1CA3
331
1CE2
  5
1CE2
331
1D1D
  5
1D1D
331
1D5C
  5
1D5C
331
1C9F
  5
1C9F
331
1CDE
  5
1CDE
331
1D19
  5
1D19
331
1D58
  5
1D58
331
1CDA
  5
1CDA
331
1D15
  5
1D15
331
1D54
  5
1D54
331
1D50
  5
1D50
331
1D11
  5
1D11
331
12B6
  5
12B1
331
12F5
  5
12F0
331
12B2
  5
1265
331
12ED
  5
12E8
331
12E9
  5
12E4
331
1DC7
  5
1DC7
331
1D84
  5
1D84
331
1DC3
  5
1DC3
331
1DFE
  5
1DFE
331
1E3D
  5
1E3D
331
1D80
  5
1D80
331
1DBF
  5
1DBF
331
1DFA
  5
1DFA
331
1E39
  5
1E39
331
1DF6
  5
1DF6
331
1E35
  5
1E35
331
1D7C
  5
1D7C
331
1DBB
  5
1DBB
331
1D78
  5
1D78
331
1DF2
  5
1DF2
331
1E31
  5
1E31
331
1CD6
  5
1CD6
331
1CD2
  5
1CD2
331
1D0D
  5
1D0D
331
1D4C
  5
1D4C
331
1CCE
  5
1CCE
331
1E72
  5
1E72
331
1D09
  5
1D09
331
1D48
  5
1D48
331
1CCA
  5
1CCA
331
1D05
  5
1D05
331
1D44
  5
1D44
331
1E6E
  5
1E6E
331
1D40
  5
1D40
331
1E6A
  5
1E6A
331
1D01
  5
1D01
331
12E5
  5
12E0
331
12E1
  5
12DC
331
12DD
  5
12D8
331
12D9
  5
12D4
331
1DB7
  5
1DB7
331
1D74
  5
1D74
331
1DB3
  5
1DB3
331
1DEE
  5
1DEE
331
1E2D
  5
1E2D
331
1D70
  5
1D70
331
1DAF
  5
1DAF
331
1DEA
  5
1DEA
331
1E29
  5
1E29
331
1DE6
  5
1DE6
331
1E25
  5
1E25
331
1D6C
  5
1D6C
331
1DAB
  5
1DAB
331
1D68
  5
1D68
331
1DE2
  5
1DE2
331
1E21
  5
1E21
331
1CC6
  5
1CC6
331
1CC2
  5
1CC2
331
1E66
  5
1E66
331
1CFD
  5
1CFD
331
1D3C
  5
1D3C
331
1CBE
  5
1CBE
331
1E62
  5
1E62
331
1CF9
  5
1CF9
331
1D38
  5
1D38
331
1CBA
  5
1CBA
331
1CF5
  5
1CF5
331
1D34
  5
1D34
331
1E5E
  5
1E5E
331
1E5A
  5
1E5A
331
1CF1
  5
1CF1
331
1D30
  5
1D30
  0
XRECORD
  5
10E
102
{ACAD_REACTORS
330
DD
102
}
330
DD
100
AcDbXrecord
280
     1
340
1A
  0
ACDBDETAILVIEWSTYLE
  5
11C4
102
{ACAD_REACTORS
330
11C3
102
}
330
11C3
100
AcDbModelDocViewStyle
 70
     0
  3
Imperial24
290
     0
100
AcDbDetailViewStyle
 70
     0
 71
     0
 90
        3
 71
     1
340
11
 62
   256
 40
0.24
340
0
 62
   256
 40
0.24
300

 40
0.36
280
     3
 71
     2
340
15
 90
       25
 62
   256
 71
     3
340
11
 62
   256
 40
0.24
 90
        1
 40
0.75
 90
        1
300
%<\AcVar ViewType \f "%tc1">% %<\AcVar ViewDetailId>%\PVARIA %<\AcVar ViewScale \f "%sn">%
 71
     4
340
15
 90
       25
 62
   256
340
15
 90
       25
 62
   256
280
     0
  0
LAYOUT
  5
1D
102
{ACAD_REACTORS
330
19
102
}
330
19
100
AcDbPlotSettings
  1

  2
\\NT_WORK01\HP LaserJet 5000 PCL 6
  4

  6

 40
0.0
 41
0.0
 42
0.0
 43
0.0
 44
0.0
 45
0.0
 46
0.0
 47
0.0
 48
0.0
 49
0.0
140
0.0
141
0.0
142
1.0
143
1.0
 70
   688
 72
     0
 73
     0
 74
     5
  7

 75
    16
147
1.0
 76
     0
 77
     2
 78
   300
148
0.0
149
0.0
100
AcDbLayout
  1
Layout1
 70
     0
 71
     1
 10
0.0
 20
0.0
 11
12.0
 21
9.0
 12
0.0
 22
0.0
 32
0.0
 14
1.000000000000000E+20
 24
1.000000000000000E+20
 34
1.000000000000000E+20
 15
-1.000000000000000E+20
 25
-1.000000000000000E+20
 35
-1.000000000000000E+20
146
0.0
 13
0.0
 23
0.0
 33
0.0
 16
1.0
 26
0.0
 36
0.0
 17
0.0
 27
1.0
 37
0.0
 76
     0
330
1A
  0
LAYOUT
  5
21
102
{ACAD_REACTORS
330
19
102
}
330
19
100
AcDbPlotSettings
  1

  2
none_device
  4
Letter_(8.50_x_11.00_Inches)
  6

 40
6.349999904632568
 41
6.349999904632568
 42
6.350006103515625
 43
6.350006103515625
 44
215.8999938964844
 45
279.3999938964844
 46
0.0
 47
0.0
 48
0.0
 49
0.0
140
0.0
141
0.0
142
1.0
143
1.0
 70
 11952
 72
     0
 73
     1
 74
     0
  7

 75
     0
147
1.0
 76
     0
 77
     2
 78
   300
148
-1504.277490893296
149
57.67950492285677
100
AcDbLayout
  1
Model
 70
     1
 71
     0
 10
0.0
 20
0.0
 11
12.0
 21
9.0
 12
0.0
 22
0.0
 32
0.0
 14
0.0
 24
0.0
 34
0.0
 15
0.0
 25
0.0
 35
0.0
146
0.0
 13
0.0
 23
0.0
 33
0.0
 16
1.0
 26
0.0
 36
0.0
 17
0.0
 27
1.0
 37
0.0
 76
     0
330
1E
331
1177
  0
MATERIAL
  5
1181
102
{ACAD_XDICTIONARY
360
1182
102
}
102
{ACAD_REACTORS
330
119
102
}
330
119
100
AcDbMaterial
  1
ByBlock
 72
     0
 43
0.0208333333333333
 43
0.0
 43
0.0
 43
0.0
 43
0.0
 43
0.0208333333333333
 43
0.0
 43
0.0
 43
0.0
 43
0.0
 43
1.0
 43
0.0
 43
0.0
 43
0.0
 43
0.0
 43
1.0
 77
     0
 47
0.0208333333333333
 47
0.0
 47
0.0
 47
0.0
 47
0.0
 47
0.0208333333333333
 47
0.0
 47
0.0
 47
0.0
 47
0.0
 47
1.0
 47
0.0
 47
0.0
 47
0.0
 47
0.0
 47
1.0
171
     0
 49
0.0208333333333333
 49
0.0
 49
0.0
 49
0.0
 49
0.0
 49
0.0208333333333333
 49
0.0
 49
0.0
 49
0.0
 49
0.0
 49
1.0
 49
0.0
 49
0.0
 49
0.0
 49
0.0
 49
1.0
175
     0
142
0.0208333333333333
142
0.0
142
0.0
142
0.0
142
0.0
142
0.0208333333333333
142
0.0
142
0.0
142
0.0
142
0.0
142
1.0
142
0.0
142
0.0
142
0.0
142
0.0
142
1.0
179
     0
144
0.0208333333333333
144
0.0
144
0.0
144
0.0
144
0.0
144
0.0208333333333333
144
0.0
144
0.0
144
0.0
144
0.0
144
1.0
144
0.0
144
0.0
144
0.0
144
0.0
144
1.0
147
0.0208333333333333
147
0.0
147
0.0
147
0.0
147
0.0
147
0.0208333333333333
147
0.0
147
0.0
147
0.0
147
0.0
147
1.0
147
0.0
147
0.0
147
0.0
147
0.0
147
1.0
  0
MATERIAL
  5
1179
102
{ACAD_XDICTIONARY
360
117A
102
}
102
{ACAD_REACTORS
330
119
102
}
330
119
100
AcDbMaterial
  1
ByLayer
 72
     0
 43
0.0208333333333333
 43
0.0
 43
0.0
 43
0.0
 43
0.0
 43
0.0208333333333333
 43
0.0
 43
0.0
 43
0.0
 43
0.0
 43
1.0
 43
0.0
 43
0.0
 43
0.0
 43
0.0
 43
1.0
 77
     0
 47
0.0208333333333333
 47
0.0
 47
0.0
 47
0.0
 47
0.0
 47
0.0208333333333333
 47
0.0
 47
0.0
 47
0.0
 47
0.0
 47
1.0
 47
0.0
 47
0.0
 47
0.0
 47
0.0
 47
1.0
171
     0
 49
0.0208333333333333
 49
0.0
 49
0.0
 49
0.0
 49
0.0
 49
0.0208333333333333
 49
0.0
 49
0.0
 49
0.0
 49
0.0
 49
1.0
 49
0.0
 49
0.0
 49
0.0
 49
0.0
 49
1.0
175
     0
142
0.0208333333333333
142
0.0
142
0.0
142
0.0
142
0.0
142
0.0208333333333333
142
0.0
142
0.0
142
0.0
142
0.0
142
1.0
142
0.0
142
0.0
142
0.0
142
0.0
142
1.0
179
     0
144
0.0208333333333333
144
0.0
144
0.0
144
0.0
144
0.0
144
0.0208333333333333
144
0.0
144
0.0
144
0.0
144
0.0
144
1.0
144
0.0
144
0.0
144
0.0
144
0.0
144
1.0
147
0.0208333333333333
147
0.0
147
0.0
147
0.0
147
0.0
147
0.0208333333333333
147
0.0
147
0.0
147
0.0
147
0.0
147
1.0
147
0.0
147
0.0
147
0.0
147
0.0
147
1.0
  0
MATERIAL
  5
1189
102
{ACAD_XDICTIONARY
360
118A
102
}
102
{ACAD_REACTORS
330
119
102
}
330
119
100
AcDbMaterial
  1
Global
 72
     0
 43
0.0208333333333333
 43
0.0
 43
0.0
 43
0.0
 43
0.0
 43
0.0208333333333333
 43
0.0
 43
0.0
 43
0.0
 43
0.0
 43
1.0
 43
0.0
 43
0.0
 43
0.0
 43
0.0
 43
1.0
 77
     0
 47
0.0208333333333333
 47
0.0
 47
0.0
 47
0.0
 47
0.0
 47
0.0208333333333333
 47
0.0
 47
0.0
 47
0.0
 47
0.0
 47
1.0
 47
0.0
 47
0.0
 47
0.0
 47
0.0
 47
1.0
171
     0
 49
0.0208333333333333
 49
0.0
 49
0.0
 49
0.0
 49
0.0
 49
0.0208333333333333
 49
0.0
 49
0.0
 49
0.0
 49
0.0
 49
1.0
 49
0.0
 49
0.0
 49
0.0
 49
0.0
 49
1.0
175
     0
142
0.0208333333333333
142
0.0
142
0.0
142
0.0
142
0.0
142
0.0208333333333333
142
0.0
142
0.0
142
0.0
142
0.0
142
1.0
142
0.0
142
0.0
142
0.0
142
0.0
142
1.0
179
     0
144
0.0208333333333333
144
0.0
144
0.0
144
0.0
144
0.0
144
0.0208333333333333
144
0.0
144
0.0
144
0.0
144
0.0
144
1.0
144
0.0
144
0.0
144
0.0
144
0.0
144
1.0
147
0.0208333333333333
147
0.0
147
0.0
147
0.0
147
0.0
147
0.0208333333333333
147
0.0
147
0.0
147
0.0
147
0.0
147
1.0
147
0.0
147
0.0
147
0.0
147
0.0
147
1.0
  0
MLEADERSTYLE
  5
11BF
102
{ACAD_XDICTIONARY
360
2019
102
}
102
{ACAD_REACTORS
330
11BE
102
}
330
11BE
100
AcDbMLeaderStyle
170
     2
171
     1
172
     0
 90
        2
 40
0.0
 41
0.0
173
     1
 91
-1056964608
340
13
 92
       -2
290
     1
 42
0.09
291
     1
 43
0.36
  3
Standard
 44
0.18
300

342
11
174
     1
178
     6
175
     1
176
     0
 93
-1056964608
 45
0.18
292
     0
297
     0
 46
0.18
 94
-1056964608
 47
1.0
 49
1.0
140
1.0
293
     1
141
0.0
294
     1
177
     0
142
1.0
295
     0
296
     0
143
0.125
1001
ACAD_MLEADERVER
1070
     2
  0
MLINESTYLE
  5
17
102
{ACAD_REACTORS
330
16
102
}
330
16
100
AcDbMlineStyle
  2
STANDARD
 70
     0
  3

 62
   256
 51
90.0
 52
90.0
 71
     2
 49
0.5
 62
   256
  6
BYLAYER
 49
-0.5
 62
   256
  6
BYLAYER
  0
ACDBPLACEHOLDER
  5
F
102
{ACAD_REACTORS
330
E
102
}
330
E
  0
SCALE
  5
11AD
102
{ACAD_REACTORS
330
11AC
102
}
330
11AC
100
AcDbScale
 70
     0
300
1:1
140
1.0
141
1.0
290
     1
  0
SCALE
  5
11AE
102
{ACAD_REACTORS
330
11AC
102
}
330
11AC
100
AcDbScale
 70
     0
300
1/128" = 1'-0"
140
0.0078125
141
12.0
290
     0
  0
SCALE
  5
11AF
102
{ACAD_REACTORS
330
11AC
102
}
330
11AC
100
AcDbScale
 70
     0
300
1/64" = 1'-0"
140
0.015625
141
12.0
290
     0
  0
SCALE
  5
11B0
102
{ACAD_REACTORS
330
11AC
102
}
330
11AC
100
AcDbScale
 70
     0
300
1/32" = 1'-0"
140
0.03125
141
12.0
290
     0
  0
SCALE
  5
11B1
102
{ACAD_REACTORS
330
11AC
102
}
330
11AC
100
AcDbScale
 70
     0
300
1/16" = 1'-0"
140
0.0625
141
12.0
290
     0
  0
SCALE
  5
11B2
102
{ACAD_REACTORS
330
11AC
102
}
330
11AC
100
AcDbScale
 70
     0
300
3/32" = 1'-0"
140
0.09375
141
12.0
290
     0
  0
SCALE
  5
11B3
102
{ACAD_REACTORS
330
11AC
102
}
330
11AC
100
AcDbScale
 70
     0
300
1/8" = 1'-0"
140
0.125
141
12.0
290
     0
  0
SCALE
  5
11B4
102
{ACAD_REACTORS
330
11AC
102
}
330
11AC
100
AcDbScale
 70
     0
300
3/16" = 1'-0"
140
0.1875
141
12.0
290
     0
  0
SCALE
  5
11B5
102
{ACAD_REACTORS
330
11AC
102
}
330
11AC
100
AcDbScale
 70
     0
300
1/4" = 1'-0"
140
0.25
141
12.0
290
     0
  0
SCALE
  5
11B6
102
{ACAD_REACTORS
330
11AC
102
}
330
11AC
100
AcDbScale
 70
     0
300
3/8" = 1'-0"
140
0.375
141
12.0
290
     0
  0
SCALE
  5
11B7
102
{ACAD_REACTORS
330
11AC
102
}
330
11AC
100
AcDbScale
 70
     0
300
1/2" = 1'-0"
140
0.5
141
12.0
290
     0
  0
SCALE
  5
11B8
102
{ACAD_REACTORS
330
11AC
102
}
330
11AC
100
AcDbScale
 70
     0
300
3/4" = 1'-0"
140
0.75
141
12.0
290
     0
  0
SCALE
  5
11B9
102
{ACAD_REACTORS
330
11AC
102
}
330
11AC
100
AcDbScale
 70
     0
300
1" = 1'-0"
140
1.0
141
12.0
290
     0
  0
SCALE
  5
11BA
102
{ACAD_REACTORS
330
11AC
102
}
330
11AC
100
AcDbScale
 70
     0
300
1-1/2" = 1'-0"
140
1.5
141
12.0
290
     0
  0
SCALE
  5
11BB
102
{ACAD_REACTORS
330
11AC
102
}
330
11AC
100
AcDbScale
 70
     0
300
3" = 1'-0"
140
3.0
141
12.0
290
     0
  0
SCALE
  5
11BC
102
{ACAD_REACTORS
330
11AC
102
}
330
11AC
100
AcDbScale
 70
     0
300
6" = 1'-0"
140
6.0
141
12.0
290
     0
  0
SCALE
  5
11BD
102
{ACAD_REACTORS
330
11AC
102
}
330
11AC
100
AcDbScale
 70
     0
300
1'-0" = 1'-0"
140
12.0
141
12.0
290
     0
  0
ACDBSECTIONVIEWSTYLE
  5
11C2
102
{ACAD_REACTORS
330
11C0
102
}
330
11C0
100
AcDbModelDocViewStyle
 70
     0
  3
Imperial24
290
     0
100
AcDbSectionViewStyle
 70
     0
 71
     0
 90
       78
 71
     1
340
11
 62
   256
 40
0.24
340
0
340
0
 62
   256
 40
0.24
300
I, O, Q, S, X, Z
 40
0.48
 90
        3
 40
0.18
 90
        1
 71
     2
340
11C1
 90
       25
 62
   256
340
15
 90
       50
 62
   256
 40
0.24
 40
0.0
 40
0.24
 71
     3
340
11
 62
   256
 40
0.24
 90
        1
 40
0.75
 90
        1
300
%<\AcVar ViewType \f "%tc1">% %<\AcVar ViewSectionStartId>%-%<\AcVar ViewSectionEndId>%\PVARIA %<\AcVar ViewScale \f "%sn">%
 71
     4
 62
   256
 62
   257
300
ANSI31
 40
1.0
 90
        0
290
     0
290
     0
 90
        6
 40
0.0
 40
1.570796326794896
 40
0.2617993877991494
 40
1.308996938995747
 40
-0.2617993877991494
 40
1.832595714594046
  0
TABLESTYLE
  5
11AB
102
{ACAD_XDICTIONARY
360
132D
102
}
102
{ACAD_REACTORS
330
11AA
102
}
330
11AA
100
AcDbTableStyle
  3
Standard
 70
     0
 71
     0
 40
0.06
 41
0.06
280
     0
281
     0
  7
STANDARD
140
0.18
170
     2
 62
     0
 63
     7
283
     0
274
    -2
284
     1
 64
     0
275
    -2
285
     1
 65
     0
276
    -2
286
     1
 66
     0
277
    -2
287
     1
 67
     0
278
    -2
288
     1
 68
     0
279
    -2
289
     1
 69
     0
  7
STANDARD
140
0.25
170
     5
 62
     0
 63
     7
283
     0
274
    -2
284
     1
 64
     0
275
    -2
285
     1
 65
     0
276
    -2
286
     1
 66
     0
277
    -2
287
     1
 67
     0
278
    -2
288
     1
 68
     0
279
    -2
289
     1
 69
     0
  7
STANDARD
140
0.18
170
     5
 62
     0
 63
     7
283
     0
274
    -2
284
     1
 64
     0
275
    -2
285
     1
 65
     0
276
    -2
286
     1
 66
     0
277
    -2
287
     1
 67
     0
278
    -2
288
     1
 68
     0
279
    -2
289
     1
 69
     0
  0
VISUALSTYLE
  5
1197
102
{ACAD_XDICTIONARY
360
1FF2
102
}
102
{ACAD_REACTORS
330
1191
102
}
330
1191
100
AcDbVisualStyle
  2
2dWireframe
 70
     4
 71
     0
 72
     2
 73
     0
 90
        0
 40
-0.6
 41
-30.0
 62
     5
 63
     7
421
 16777215
 74
     1
 91
        4
 64
     7
 65
   257
 75
     1
175
     1
 42
1.0
 92
        0
 66
   257
 43
1.0
 76
     1
 77
     6
 78
     2
 67
     7
 79
     5
170
     0
171
     0
290
     0
174
     0
 93
        1
 44
0.0
173
     0
291
     0
 45
0.0
1001
ACAD
1000
AcDbSavedByObjectVersion
1070
     0
  0
VISUALSTYLE
  5
1196
102
{ACAD_XDICTIONARY
360
1FF0
102
}
102
{ACAD_REACTORS
330
1191
102
}
330
1191
100
AcDbVisualStyle
  2
Basic
 70
     7
 71
     1
 72
     0
 73
     1
 90
        0
 40
-0.6
 41
-30.0
 62
     5
 63
     7
421
 16777215
 74
     0
 91
        4
 64
     7
 65
   257
 75
     1
175
     1
 42
1.0
 92
        8
 66
     7
 43
1.0
 76
     1
 77
     6
 78
     2
 67
     7
 79
     5
170
     0
171
     0
290
     0
174
     0
 93
        1
 44
0.0
173
     0
291
     1
 45
0.0
1001
ACAD
1000
AcDbSavedByObjectVersion
1070
     0
  0
VISUALSTYLE
  5
119D
102
{ACAD_XDICTIONARY
360
1FFE
102
}
102
{ACAD_REACTORS
330
1191
102
}
330
1191
100
AcDbVisualStyle
  2
Brighten
 70
    12
 71
     2
 72
     2
 73
     0
 90
        0
 40
-0.6
 41
-30.0
 62
     5
 63
     7
421
 16777215
 74
     1
 91
        4
 64
     7
 65
   257
 75
     1
175
     1
 42
1.0
 92
        8
 66
     7
 43
1.0
 76
     1
 77
     6
 78
     2
 67
     7
 79
     5
170
     0
171
     0
290
     0
174
     0
 93
        1
 44
50.0
173
     0
291
     1
 45
0.0
1001
ACAD
1000
AcDbSavedByObjectVersion
1070
     0
  0
VISUALSTYLE
  5
11A1
102
{ACAD_XDICTIONARY
360
2006
102
}
102
{ACAD_REACTORS
330
1191
102
}
330
1191
100
AcDbVisualStyle
  2
ColorChange
 70
    16
 71
     2
 72
     2
 73
     3
 90
        0
 40
-0.6
 41
-30.0
 62
     5
 63
     8
421
  8421504
 74
     1
 91
        4
 64
     7
 65
   257
 75
     1
175
     1
 42
1.0
 92
        8
 66
     8
424
  8421504
 43
1.0
 76
     1
 77
     6
 78
     2
 67
     7
 79
     5
170
     0
171
     0
290
     0
174
     0
 93
        1
 44
0.0
173
     0
291
     1
 45
0.0
1001
ACAD
1000
AcDbSavedByObjectVersion
1070
     0
  0
VISUALSTYLE
  5
119A
102
{ACAD_XDICTIONARY
360
1FF8
102
}
102
{ACAD_REACTORS
330
1191
102
}
330
1191
100
AcDbVisualStyle
  2
Conceptual
 70
     9
 71
     3
 72
     2
 73
     0
 90
        0
 40
-0.6
 41
-30.0
 62
     5
 63
     7
421
 16777215
 74
     2
 91
        2
 64
     7
 65
   257
 75
     1
175
     1
 42
179.0
 92
        8
 66
     7
 43
1.0
 76
     1
 77
     6
 78
     2
 67
     7
 79
     3
170
     0
171
     0
290
     0
174
     0
 93
        1
 44
0.0
173
     0
291
     0
 45
0.0
1001
ACAD
1000
AcDbSavedByObjectVersion
1070
     0
  0
VISUALSTYLE
  5
119C
102
{ACAD_XDICTIONARY
360
1FFC
102
}
102
{ACAD_REACTORS
330
1191
102
}
330
1191
100
AcDbVisualStyle
  2
Dim
 70
    11
 71
     2
 72
     2
 73
     0
 90
        0
 40
-0.6
 41
-30.0
 62
     5
 63
     7
421
 16777215
 74
     1
 91
        4
 64
     7
 65
   257
 75
     1
175
     1
 42
1.0
 92
        8
 66
     7
 43
1.0
 76
     1
 77
     6
 78
     2
 67
     7
 79
     5
170
     0
171
     0
290
     0
174
     0
 93
        1
 44
-50.0
173
     0
291
     1
 45
0.0
1001
ACAD
1000
AcDbSavedByObjectVersion
1070
     0
  0
VISUALSTYLE
  5
11A9
102
{ACAD_XDICTIONARY
360
2016
102
}
102
{ACAD_REACTORS
330
1191
102
}
330
1191
100
AcDbVisualStyle
  2
EdgeColorOff
 70
    22
 71
     2
 72
     2
 73
     0
 90
        0
 40
-0.6
 41
-30.0
 62
     5
 63
     7
421
 16777215
 74
     1
 91
        4
 64
     7
 65
   257
 75
     1
175
     1
 42
1.0
 92
        8
 66
     7
 43
1.0
 76
     1
 77
     6
 78
     2
 67
     7
 79
     5
170
     0
171
     0
290
     0
174
     0
 93
        1
 44
0.0
173
     0
291
     1
 45
0.0
1001
ACAD
1000
AcDbSavedByObjectVersion
1070
     0
  0
VISUALSTYLE
  5
11A0
102
{ACAD_XDICTIONARY
360
2004
102
}
102
{ACAD_REACTORS
330
1191
102
}
330
1191
100
AcDbVisualStyle
  2
Facepattern
 70
    15
 71
     2
 72
     2
 73
     0
 90
        0
 40
-0.6
 41
-30.0
 62
     5
 63
     7
421
 16777215
 74
     1
 91
        4
 64
     7
 65
   257
 75
     1
175
     1
 42
1.0
 92
        8
 66
     7
 43
1.0
 76
     1
 77
     6
 78
     2
 67
     7
 79
     5
170
     0
171
     0
290
     0
174
     0
 93
        1
 44
0.0
173
     0
291
     1
 45
0.0
1001
ACAD
1000
AcDbSavedByObjectVersion
1070
     0
  0
VISUALSTYLE
  5
1192
102
{ACAD_XDICTIONARY
360
1FE8
102
}
102
{ACAD_REACTORS
330
1191
102
}
330
1191
100
AcDbVisualStyle
  2
Flat
 70
     0
 71
     2
 72
     1
 73
     1
 90
        2
 40
-0.6
 41
30.0
 62
     5
 63
     7
421
 16777215
 74
     0
 91
        0
 64
     7
 65
   257
 75
     1
175
     1
 42
1.0
 92
        8
 66
     7
 43
1.0
 76
     1
 77
     6
 78
     2
 67
     7
 79
     5
170
     0
171
     0
290
     0
174
     0
 93
       13
 44
0.0
173
     0
291
     1
 45
0.0
1001
ACAD
1000
AcDbSavedByObjectVersion
1070
     0
  0
VISUALSTYLE
  5
1193
102
{ACAD_XDICTIONARY
360
1FEA
102
}
102
{ACAD_REACTORS
330
1191
102
}
330
1191
100
AcDbVisualStyle
  2
FlatWithEdges
 70
     1
 71
     2
 72
     1
 73
     1
 90
        2
 40
-0.6
 41
30.0
 62
     5
 63
     7
421
 16777215
 74
     1
 91
        0
 64
     7
 65
   257
 75
     1
175
     1
 42
1.0
 92
        0
 66
   257
 43
1.0
 76
     1
 77
     6
 78
     2
 67
     7
 79
     5
170
     0
171
     0
290
     0
174
     0
 93
       13
 44
0.0
173
     0
291
     1
 45
0.0
1001
ACAD
1000
AcDbSavedByObjectVersion
1070
     0
  0
VISUALSTYLE
  5
1194
102
{ACAD_XDICTIONARY
360
1FEC
102
}
102
{ACAD_REACTORS
330
1191
102
}
330
1191
100
AcDbVisualStyle
  2
Gouraud
 70
     2
 71
     2
 72
     2
 73
     1
 90
        2
 40
-0.6
 41
30.0
 62
     5
 63
     7
421
 16777215
 74
     0
 91
        0
 64
     7
 65
   257
 75
     1
175
     1
 42
1.0
 92
        0
 66
     7
 43
1.0
 76
     1
 77
     6
 78
     2
 67
     7
 79
     5
170
     0
171
     0
290
     0
174
     0
 93
       13
 44
0.0
173
     0
291
     1
 45
0.0
1001
ACAD
1000
AcDbSavedByObjectVersion
1070
     0
  0
VISUALSTYLE
  5
1195
102
{ACAD_XDICTIONARY
360
1FEE
102
}
102
{ACAD_REACTORS
330
1191
102
}
330
1191
100
AcDbVisualStyle
  2
GouraudWithEdges
 70
     3
 71
     2
 72
     2
 73
     1
 90
        2
 40
-0.6
 41
30.0
 62
     5
 63
     7
421
 16777215
 74
     1
 91
        0
 64
     7
 65
   257
 75
     1
175
     1
 42
1.0
 92
        0
 66
   257
 43
1.0
 76
     1
 77
     6
 78
     2
 67
     7
 79
     5
170
     0
171
     0
290
     0
174
     0
 93
       13
 44
0.0
173
     0
291
     1
 45
0.0
1001
ACAD
1000
AcDbSavedByObjectVersion
1070
     0
  0
VISUALSTYLE
  5
1199
102
{ACAD_XDICTIONARY
360
1FF6
102
}
102
{ACAD_REACTORS
330
1191
102
}
330
1191
100
AcDbVisualStyle
  2
Hidden
 70
     6
 71
     1
 72
     2
 73
     2
 90
        0
 40
-0.6
 41
-30.0
 62
     5
 63
     7
421
 16777215
 74
     2
 91
        2
 64
     7
 65
   257
 75
     2
175
     1
 42
40.0
 92
        0
 66
   257
 43
1.0
 76
     1
 77
     6
 78
     2
 67
     7
 79
     3
170
     0
171
     0
290
     0
174
     0
 93
        1
 44
0.0
173
     0
291
     0
 45
0.0
1001
ACAD
1000
AcDbSavedByObjectVersion
1070
     0
  0
VISUALSTYLE
  5
11A7
102
{ACAD_XDICTIONARY
360
2012
102
}
102
{ACAD_REACTORS
330
1191
102
}
330
1191
100
AcDbVisualStyle
  2
JitterOff
 70
    20
 71
     2
 72
     2
 73
     0
 90
        0
 40
-0.6
 41
-30.0
 62
     5
 63
     7
421
 16777215
 74
     1
 91
        4
 64
     7
 65
   257
 75
     1
175
     1
 42
1.0
 92
       10
 66
     7
 43
1.0
 76
     1
 77
     6
 78
     2
 67
     7
 79
     5
170
     0
171
     0
290
     0
174
     0
 93
        1
 44
0.0
173
     0
291
     1
 45
0.0
1001
ACAD
1000
AcDbSavedByObjectVersion
1070
     0
  0
VISUALSTYLE
  5
119F
102
{ACAD_XDICTIONARY
360
2002
102
}
102
{ACAD_REACTORS
330
1191
102
}
330
1191
100
AcDbVisualStyle
  2
Linepattern
 70
    14
 71
     2
 72
     2
 73
     0
 90
        0
 40
-0.6
 41
-30.0
 62
     5
 63
     7
421
 16777215
 74
     1
 91
        4
 64
     7
 65
   257
 75
     7
175
     7
 42
1.0
 92
        8
 66
     7
 43
1.0
 76
     1
 77
     6
 78
     2
 67
     7
 79
     5
170
     0
171
     0
290
     0
174
     0
 93
        1
 44
0.0
173
     0
291
     1
 45
0.0
1001
ACAD
1000
AcDbSavedByObjectVersion
1070
     0
  0
VISUALSTYLE
  5
11A8
102
{ACAD_XDICTIONARY
360
2014
102
}
102
{ACAD_REACTORS
330
1191
102
}
330
1191
100
AcDbVisualStyle
  2
OverhangOff
 70
    21
 71
     2
 72
     2
 73
     0
 90
        0
 40
-0.6
 41
-30.0
 62
     5
 63
     7
421
 16777215
 74
     1
 91
        4
 64
     7
 65
   257
 75
     1
175
     1
 42
1.0
 92
        9
 66
     7
 43
1.0
 76
     1
 77
     6
 78
     2
 67
     7
 79
     5
170
     0
171
     0
290
     0
174
     0
 93
        1
 44
0.0
173
     0
291
     1
 45
0.0
1001
ACAD
1000
AcDbSavedByObjectVersion
1070
     0
  0
VISUALSTYLE
  5
119B
102
{ACAD_XDICTIONARY
360
1FFA
102
}
102
{ACAD_REACTORS
330
1191
102
}
330
1191
100
AcDbVisualStyle
  2
Realistic
 70
     8
 71
     2
 72
     2
 73
     0
 90
        2
 40
-0.6
 41
30.0
 62
     5
 63
     7
421
 16777215
 74
     0
 91
        0
 64
     7
 65
   257
 75
     1
175
     1
 42
1.0
 92
        8
 66
   257
 43
1.0
 76
     1
 77
     6
 78
     2
 67
     7
 79
     3
170
     0
171
     0
290
     0
174
     0
 93
       13
 44
0.0
173
     0
291
     0
 45
0.0
1001
ACAD
1000
AcDbSavedByObjectVersion
1070
     0
  0
VISUALSTYLE
  5
11A6
102
{ACAD_XDICTIONARY
360
2010
102
}
102
{ACAD_REACTORS
330
1191
102
}
330
1191
100
AcDbVisualStyle
  2
Shaded
 70
    27
 71
     2
 72
     2
 73
     1
 90
        2
 40
-0.6
 41
30.0
 62
     5
 63
     7
421
 16777215
 74
     0
 91
        4
 64
     7
 65
   257
 75
     1
175
     1
 42
1.0
 92
        8
 66
   257
 43
1.0
 76
     1
 77
     6
 78
     2
 67
     8
425
  7895160
 79
     3
170
     0
171
     0
290
     0
174
     0
 93
        5
 44
0.0
173
     0
291
     0
 45
0.0
1001
ACAD
1000
AcDbSavedByObjectVersion
1070
     0
  0
VISUALSTYLE
  5
11A5
102
{ACAD_XDICTIONARY
360
200E
102
}
102
{ACAD_REACTORS
330
1191
102
}
330
1191
100
AcDbVisualStyle
  2
Shaded with edges
 70
    26
 71
     2
 72
     2
 73
     1
 90
        2
 40
-0.6
 41
30.0
 62
     5
 63
     7
421
 16777215
 74
     1
 91
       10
 64
     7
 65
   257
 75
     2
175
     1
 42
1.0
 92
        8
 66
   257
 43
1.0
 76
     1
 77
     6
 78
     2
 67
     7
 79
     3
170
     0
171
     0
290
     0
174
     0
 93
        5
 44
0.0
173
     0
291
     0
 45
0.0
1001
ACAD
1000
AcDbSavedByObjectVersion
1070
     0
  0
VISUALSTYLE
  5
11A2
102
{ACAD_XDICTIONARY
360
2008
102
}
102
{ACAD_REACTORS
330
1191
102
}
330
1191
100
AcDbVisualStyle
  2
Shades of Gray
 70
    23
 71
     2
 72
     2
 73
     3
 90
        0
 40
-0.6
 41
-30.0
 62
     5
 63
     7
421
 16777215
 74
     2
 91
        2
 64
     7
 65
     7
 75
     1
175
     1
 42
40.0
 92
        8
 66
     7
 43
1.0
 76
     1
 77
     6
 78
     2
 67
     7
 79
     3
170
     0
171
     0
290
     0
174
     0
 93
        1
 44
0.0
173
     0
291
     0
 45
0.0
1001
ACAD
1000
AcDbSavedByObjectVersion
1070
     0
  0
VISUALSTYLE
  5
11A3
102
{ACAD_XDICTIONARY
360
200A
102
}
102
{ACAD_REACTORS
330
1191
102
}
330
1191
100
AcDbVisualStyle
  2
Sketchy
 70
    24
 71
     1
 72
     2
 73
     2
 90
        0
 40
-0.6
 41
-30.0
 62
     5
 63
     7
421
 16777215
 74
     2
 91
        2
 64
     7
 65
     7
 75
     1
175
     1
 42
40.0
 92
       11
 66
     7
 43
1.0
 76
     1
 77
     6
 78
     2
 67
     7
 79
     6
170
     0
171
     0
290
     0
174
     0
 93
        1
 44
0.0
173
     0
291
     0
 45
0.0
1001
ACAD
1000
AcDbSavedByObjectVersion
1070
     0
  0
VISUALSTYLE
  5
119E
102
{ACAD_XDICTIONARY
360
2000
102
}
102
{ACAD_REACTORS
330
1191
102
}
330
1191
100
AcDbVisualStyle
  2
Thicken
 70
    13
 71
     2
 72
     2
 73
     0
 90
        0
 40
-0.6
 41
-30.0
 62
     5
 63
     7
421
 16777215
 74
     1
 91
        4
 64
     7
 65
   257
 75
     1
175
     1
 42
1.0
 92
       12
 66
     7
 43
1.0
 76
     1
 77
     6
 78
     2
 67
     7
 79
     5
170
     0
171
     0
290
     0
174
     0
 93
        1
 44
0.0
173
     0
291
     1
 45
0.0
1001
ACAD
1000
AcDbSavedByObjectVersion
1070
     0
  0
VISUALSTYLE
  5
1198
102
{ACAD_XDICTIONARY
360
1FF4
102
}
102
{ACAD_REACTORS
330
1191
102
}
330
1191
100
AcDbVisualStyle
  2
Wireframe
 70
     5
 71
     0
 72
     2
 73
     0
 90
        0
 40
-0.6
 41
-30.0
 62
     5
 63
     7
421
 16777215
 74
     1
 91
        4
 64
     7
 65
   257
 75
     1
175
     1
 42
1.0
 92
        0
 66
   257
 43
1.0
 76
     1
 77
     6
 78
     2
 67
     7
 79
     3
170
     0
171
     0
290
     0
174
     0
 93
        1
 44
0.0
173
     0
291
     0
 45
0.0
1001
ACAD
1000
AcDbSavedByObjectVersion
1070
     0
  0
VISUALSTYLE
  5
11A4
102
{ACAD_XDICTIONARY
360
200C
102
}
102
{ACAD_REACTORS
330
1191
102
}
330
1191
100
AcDbVisualStyle
  2
X-Ray
 70
    25
 71
     2
 72
     2
 73
     1
 90
        1
 40
0.5
 41
-30.0
 62
     5
 63
     7
421
 16777215
 74
     1
 91
        0
 64
     7
 65
   257
 75
     1
175
     1
 42
1.0
 92
        8
 66
     7
 43
1.0
 76
     1
 77
     6
 78
     2
 67
     7
 79
     3
170
     0
171
     0
290
     0
174
     0
 93
       13
 44
0.0
173
     0
291
     0
 45
0.0
1001
ACAD
1000
AcDbSavedByObjectVersion
1070
     0
  0
DICTIONARYVAR
  5
136D
102
{ACAD_REACTORS
330
125
102
}
330
125
100
DictionaryVariables
280
     0
  1
1:1
  0
DICTIONARYVAR
  5
136A
102
{ACAD_REACTORS
330
125
102
}
330
125
100
DictionaryVariables
280
     0
  1
STANDARD
  0
DICTIONARYVAR
  5
1369
102
{ACAD_REACTORS
330
125
102
}
330
125
100
DictionaryVariables
280
     0
  1
STANDARD
  0
DICTIONARYVAR
  5
136B
102
{ACAD_REACTORS
330
125
102
}
330
125
100
DictionaryVariables
280
     0
  1
Imperial24
  0
DICTIONARYVAR
  5
136C
102
{ACAD_REACTORS
330
125
102
}
330
125
100
DictionaryVariables
280
     0
  1
Imperial24
  0
DICTIONARYVAR
  5
126
102
{ACAD_REACTORS
330
125
102
}
330
125
100
DictionaryVariables
280
     0
  1
1
  0
DICTIONARYVAR
  5
127
102
{ACAD_REACTORS
330
125
102
}
330
125
100
DictionaryVariables
280
     0
  1

  0
DICTIONARY
  5
1FE4
102
{ACAD_REACTORS
330
1FE2
102
}
330
1FE2
100
AcDbDictionary
281
     1
  0
DICTIONARY
  5
1FE3
102
{ACAD_REACTORS
330
1FE2
102
}
330
1FE2
100
AcDbDictionary
281
     1
  3
8796083811152
350
1FDD
  3
8796083811168
350
1FDE
  3
8796083811184
350
1FDF
  3
8796083811200
350
1FE0
  3
8796083811216
350
1FE1
  0
DICTIONARY
  5
1182
330
1181
100
AcDbDictionary
280
     1
281
     1
  3
ACAD_XREC_ROUNDTRIP
360
1FE6
  3
BUMPTILE
360
1184
  3
DIFFUSETILE
360
1183
  3
OPACITYTILE
360
1187
  3
REFLECTIONTILE
360
1186
  3
REFRACTIONTILE
360
1188
  3
SPECULARTILE
360
1185
  0
DICTIONARY
  5
117A
330
1179
100
AcDbDictionary
280
     1
281
     1
  3
ACAD_XREC_ROUNDTRIP
360
1FE5
  3
BUMPTILE
360
117C
  3
DIFFUSETILE
360
117B
  3
OPACITYTILE
360
117F
  3
REFLECTIONTILE
360
117E
  3
REFRACTIONTILE
360
1180
  3
SPECULARTILE
360
117D
  0
DICTIONARY
  5
118A
330
1189
100
AcDbDictionary
280
     1
281
     1
  3
ACAD_XREC_ROUNDTRIP
360
1FE7
  3
BUMPTILE
360
118C
  3
DIFFUSETILE
360
118B
  3
OPACITYTILE
360
118F
  3
REFLECTIONTILE
360
118E
  3
REFRACTIONTILE
360
1190
  3
SPECULARTILE
360
118D
  0
DICTIONARY
  5
2019
330
11BF
100
AcDbDictionary
280
     1
281
     1
  3
ACAD_XREC_ROUNDTRIP
360
201A
  0
DICTIONARY
  5
132D
330
11AB
100
AcDbDictionary
280
     1
281
     1
  3
ACAD_ROUNDTRIP_2008_TABLESTYLE_CELLSTYLEMAP
360
1FDB
  3
ACAD_XREC_ROUNDTRIP
360
2018
  0
DICTIONARY
  5
1FF2
330
1197
100
AcDbDictionary
280
     1
281
     1
  3
ACAD_XREC_ROUNDTRIP
360
1FF3
  0
DICTIONARY
  5
1FF0
330
1196
100
AcDbDictionary
280
     1
281
     1
  3
ACAD_XREC_ROUNDTRIP
360
1FF1
  0
DICTIONARY
  5
1FFE
330
119D
100
AcDbDictionary
280
     1
281
     1
  3
ACAD_XREC_ROUNDTRIP
360
1FFF
  0
DICTIONARY
  5
2006
330
11A1
100
AcDbDictionary
280
     1
281
     1
  3
ACAD_XREC_ROUNDTRIP
360
2007
  0
DICTIONARY
  5
1FF8
330
119A
100
AcDbDictionary
280
     1
281
     1
  3
ACAD_XREC_ROUNDTRIP
360
1FF9
  0
DICTIONARY
  5
1FFC
330
119C
100
AcDbDictionary
280
     1
281
     1
  3
ACAD_XREC_ROUNDTRIP
360
1FFD
  0
DICTIONARY
  5
2016
330
11A9
100
AcDbDictionary
280
     1
281
     1
  3
ACAD_XREC_ROUNDTRIP
360
2017
  0
DICTIONARY
  5
2004
330
11A0
100
AcDbDictionary
280
     1
281
     1
  3
ACAD_XREC_ROUNDTRIP
360
2005
  0
DICTIONARY
  5
1FE8
330
1192
100
AcDbDictionary
280
     1
281
     1
  3
ACAD_XREC_ROUNDTRIP
360
1FE9
  0
DICTIONARY
  5
1FEA
330
1193
100
AcDbDictionary
280
     1
281
     1
  3
ACAD_XREC_ROUNDTRIP
360
1FEB
  0
DICTIONARY
  5
1FEC
330
1194
100
AcDbDictionary
280
     1
281
     1
  3
ACAD_XREC_ROUNDTRIP
360
1FED
  0
DICTIONARY
  5
1FEE
330
1195
100
AcDbDictionary
280
     1
281
     1
  3
ACAD_XREC_ROUNDTRIP
360
1FEF
  0
DICTIONARY
  5
1FF6
330
1199
100
AcDbDictionary
280
     1
281
     1
  3
ACAD_XREC_ROUNDTRIP
360
1FF7
  0
DICTIONARY
  5
2012
330
11A7
100
AcDbDictionary
280
     1
281
     1
  3
ACAD_XREC_ROUNDTRIP
360
2013
  0
DICTIONARY
  5
2002
330
119F
100
AcDbDictionary
280
     1
281
     1
  3
ACAD_XREC_ROUNDTRIP
360
2003
  0
DICTIONARY
  5
2014
330
11A8
100
AcDbDictionary
280
     1
281
     1
  3
ACAD_XREC_ROUNDTRIP
360
2015
  0
DICTIONARY
  5
1FFA
330
119B
100
AcDbDictionary
280
     1
281
     1
  3
ACAD_XREC_ROUNDTRIP
360
1FFB
  0
DICTIONARY
  5
2010
330
11A6
100
AcDbDictionary
280
     1
281
     1
  3
ACAD_XREC_ROUNDTRIP
360
2011
  0
DICTIONARY
  5
200E
330
11A5
100
AcDbDictionary
280
     1
281
     1
  3
ACAD_XREC_ROUNDTRIP
360
200F
  0
DICTIONARY
  5
2008
330
11A2
100
AcDbDictionary
280
     1
281
     1
  3
ACAD_XREC_ROUNDTRIP
360
2009
  0
DICTIONARY
  5
200A
330
11A3
100
AcDbDictionary
280
     1
281
     1
  3
ACAD_XREC_ROUNDTRIP
360
200B
  0
DICTIONARY
  5
2000
330
119E
100
AcDbDictionary
280
     1
281
     1
  3
ACAD_XREC_ROUNDTRIP
360
2001
  0
DICTIONARY
  5
1FF4
330
1198
100
AcDbDictionary
280
     1
281
     1
  3
ACAD_XREC_ROUNDTRIP
360
1FF5
  0
DICTIONARY
  5
200C
330
11A4
100
AcDbDictionary
280
     1
281
     1
  3
ACAD_XREC_ROUNDTRIP
360
200D
  0
XRECORD
  5
1FDD
102
{ACAD_REACTORS
330
1FE3
102
}
330
1FE3
100
AcDbXrecord
280
     1
  1
AcDb_Thumbnail_Schema
102
{ATTRRECORD
341
1FDE
  2
AcDbDs::TreatedAsObjectData
280
     1
291
     1
102
ATTRRECORD}
102
{ATTRRECORD
341
1FDF
  2
AcDbDs::Legacy
280
     1
291
     1
102
ATTRRECORD}
  2
AcDbDs::ID
280
    10
 91
        8
102
{ATTRRECORD
341
1FE0
  2
AcDs:Indexable
280
     1
291
     1
102
ATTRRECORD}
102
{ATTRRECORD
341
1FE1
  2
AcDbDs::HandleAttribute
280
     7
282
     1
102
ATTRRECORD}
  2
Thumbnail_Data
280
    15
 91
        0
  0
XRECORD
  5
1FDE
102
{ACAD_REACTORS
330
1FE3
102
}
330
1FE3
100
AcDbXrecord
280
     1
  1
AcDbDs::TreatedAsObjectDataSchema
  2
AcDbDs::TreatedAsObjectData
280
     1
 91
        0
  0
XRECORD
  5
1FDF
102
{ACAD_REACTORS
330
1FE3
102
}
330
1FE3
100
AcDbXrecord
280
     1
  1
AcDbDs::LegacySchema
  2
AcDbDs::Legacy
280
     1
 91
        0
  0
XRECORD
  5
1FE0
102
{ACAD_REACTORS
330
1FE3
102
}
330
1FE3
100
AcDbXrecord
280
     1
  1
AcDbDs::IndexedPropertySchema
  2
AcDs:Indexable
280
     1
 91
        0
  0
XRECORD
  5
1FE1
102
{ACAD_REACTORS
330
1FE3
102
}
330
1FE3
100
AcDbXrecord
280
     1
  1
AcDbDs::HandleAttributeSchema
  2
AcDbDs::HandleAttribute
280
     7
 91
        1
284
     1
  0
XRECORD
  5
1FE6
102
{ACAD_REACTORS
330
1182
102
}
330
1182
100
AcDbXrecord
280
     1
102
MATERIAL
148
0.0
149
0.0
149
0.0
 93
        0
 94
      127
282
     0
 72
     0
 77
     0
171
     0
175
     0
179
     0
273
     0
  0
XRECORD
  5
1184
102
{ACAD_REACTORS
330
1182
102
}
330
1182
100
AcDbXrecord
280
     1
270
     1
271
     1
  0
XRECORD
  5
1183
102
{ACAD_REACTORS
330
1182
102
}
330
1182
100
AcDbXrecord
280
     1
270
     1
271
     1
  0
XRECORD
  5
1187
102
{ACAD_REACTORS
330
1182
102
}
330
1182
100
AcDbXrecord
280
     1
270
     1
271
     1
  0
XRECORD
  5
1186
102
{ACAD_REACTORS
330
1182
102
}
330
1182
100
AcDbXrecord
280
     1
270
     1
271
     1
  0
XRECORD
  5
1188
102
{ACAD_REACTORS
330
1182
102
}
330
1182
100
AcDbXrecord
280
     1
270
     1
271
     1
  0
XRECORD
  5
1185
102
{ACAD_REACTORS
330
1182
102
}
330
1182
100
AcDbXrecord
280
     1
270
     1
271
     1
  0
XRECORD
  5
1FE5
102
{ACAD_REACTORS
330
117A
102
}
330
117A
100
AcDbXrecord
280
     1
102
MATERIAL
148
0.0
149
0.0
149
0.0
 93
        0
 94
      127
282
     0
 72
     0
 77
     0
171
     0
175
     0
179
     0
273
     0
  0
XRECORD
  5
117C
102
{ACAD_REACTORS
330
117A
102
}
330
117A
100
AcDbXrecord
280
     1
270
     1
271
     1
  0
XRECORD
  5
117B
102
{ACAD_REACTORS
330
117A
102
}
330
117A
100
AcDbXrecord
280
     1
270
     1
271
     1
  0
XRECORD
  5
117F
102
{ACAD_REACTORS
330
117A
102
}
330
117A
100
AcDbXrecord
280
     1
270
     1
271
     1
  0
XRECORD
  5
117E
102
{ACAD_REACTORS
330
117A
102
}
330
117A
100
AcDbXrecord
280
     1
270
     1
271
     1
  0
XRECORD
  5
1180
102
{ACAD_REACTORS
330
117A
102
}
330
117A
100
AcDbXrecord
280
     1
270
     1
271
     1
  0
XRECORD
  5
117D
102
{ACAD_REACTORS
330
117A
102
}
330
117A
100
AcDbXrecord
280
     1
270
     1
271
     1
  0
XRECORD
  5
1FE7
102
{ACAD_REACTORS
330
118A
102
}
330
118A
100
AcDbXrecord
280
     1
102
MATERIAL
148
0.0
149
0.0
149
0.0
 93
        0
 94
      127
282
     0
 72
     0
 77
     0
171
     0
175
     0
179
     0
273
     0
  0
XRECORD
  5
118C
102
{ACAD_REACTORS
330
118A
102
}
330
118A
100
AcDbXrecord
280
     1
270
     1
271
     1
  0
XRECORD
  5
118B
102
{ACAD_REACTORS
330
118A
102
}
330
118A
100
AcDbXrecord
280
     1
270
     1
271
     1
  0
XRECORD
  5
118F
102
{ACAD_REACTORS
330
118A
102
}
330
118A
100
AcDbXrecord
280
     1
270
     1
271
     1
  0
XRECORD
  5
118E
102
{ACAD_REACTORS
330
118A
102
}
330
118A
100
AcDbXrecord
280
     1
270
     1
271
     1
  0
XRECORD
  5
1190
102
{ACAD_REACTORS
330
118A
102
}
330
118A
100
AcDbXrecord
280
     1
270
     1
271
     1
  0
XRECORD
  5
118D
102
{ACAD_REACTORS
330
118A
102
}
330
118A
100
AcDbXrecord
280
     1
270
     1
271
     1
  0
XRECORD
  5
201A
102
{ACAD_REACTORS
330
2019
102
}
330
2019
100
AcDbXrecord
280
     1
102
ACAD_ROUNDTRIP_2012_MLEADER_STYLE
298
     1
  0
CELLSTYLEMAP
  5
1FDB
102
{ACAD_REACTORS
330
132D
102
}
330
132D
100
AcDbCellStyleMap
 90
        3
300
CELLSTYLE
  1
TABLEFORMAT_BEGIN
 90
        5
170
     1
 91
        0
 92
    32768
 62
   257
 93
        1
300
CONTENTFORMAT
  1
CONTENTFORMAT_BEGIN
 90
        0
 91
        0
 92
      512
 93
        0
300

 40
0.0
140
1.0
 94
        5
 62
     0
340
11
144
0.25
309
CONTENTFORMAT_END
171
     0
 94
        0
309
TABLEFORMAT_END
  1
CELLSTYLE_BEGIN
 90
        1
 91
        1
300
_TITLE
309
CELLSTYLE_END
300
CELLSTYLE
  1
TABLEFORMAT_BEGIN
 90
        5
170
     1
 91
        0
 92
        0
 62
   257
 93
        1
300
CONTENTFORMAT
  1
CONTENTFORMAT_BEGIN
 90
        0
 91
        0
 92
      512
 93
        0
300

 40
0.0
140
1.0
 94
        5
 62
     0
340
11
144
0.18
309
CONTENTFORMAT_END
171
     0
 94
        0
309
TABLEFORMAT_END
  1
CELLSTYLE_BEGIN
 90
        2
 91
        1
300
_HEADER
309
CELLSTYLE_END
300
CELLSTYLE
  1
TABLEFORMAT_BEGIN
 90
        5
170
     1
 91
        0
 92
        0
 62
   257
 93
        1
300
CONTENTFORMAT
  1
CONTENTFORMAT_BEGIN
 90
        0
 91
        0
 92
      512
 93
        0
300

 40
0.0
140
1.0
 94
        2
 62
     0
340
11
144
0.18
309
CONTENTFORMAT_END
171
     0
 94
        0
309
TABLEFORMAT_END
  1
CELLSTYLE_BEGIN
 90
        3
 91
        2
300
_DATA
309
CELLSTYLE_END
  0
XRECORD
  5
2018
102
{ACAD_REACTORS
330
132D
102
}
330
132D
100
AcDbXrecord
280
     1
102
ACAD_ROUNDTRIP_PRE2007_TABLESTYLE
 90
      512
 91
        0
  1

 92
      512
 93
        0
  2

 94
      512
 95
        0
  3

  0
XRECORD
  5
1FF3
102
{ACAD_REACTORS
330
1FF2
102
}
330
1FF2
100
AcDbXrecord
280
     1
102
RTVSPost2010Prop28
280
     1
102
RTVSPost2010PropOp28
 70
     1
102
RTVSPost2010Prop29
280
     1
102
RTVSPost2010PropOp29
 70
     1
102
RTVSPost2010Prop30
280
     0
102
RTVSPost2010PropOp30
 70
     1
102
RTVSPost2010Prop31
280
     0
102
RTVSPost2010PropOp31
 70
     1
102
RTVSPost2010Prop32
280
     0
102
RTVSPost2010PropOp32
 70
     1
102
RTVSPost2010Prop33
280
     0
102
RTVSPost2010PropOp33
 70
     1
102
RTVSPost2010Prop34
280
     0
102
RTVSPost2010PropOp34
 70
     1
102
RTVSPost2010Prop35
280
     0
102
RTVSPost2010PropOp35
 70
     1
102
RTVSPost2010Prop36
280
     0
102
RTVSPost2010PropOp36
 70
     1
102
RTVSPost2010Prop37
 90
       50
102
RTVSPost2010PropOp37
 70
     1
102
RTVSPost2010Prop38
140
0.0
102
RTVSPost2010PropOp38
 70
     1
102
RTVSPost2010Prop39
140
1.0
102
RTVSPost2010PropOp39
 70
     1
102
RTVSPost2010Prop40
 90
        0
102
RTVSPost2010PropOp40
 70
     1
102
RTVSPost2010Prop41ColorIndex
 90
       18
102
RTVSPost2010Prop41ColorRGB
 90
        0
102
RTVSPost2010PropOp41
 70
     1
102
RTVSPost2010Prop42
 90
       50
102
RTVSPost2010PropOp42
 70
     1
102
RTVSPost2010Prop43
 90
        3
102
RTVSPost2010PropOp43
 70
     1
102
RTVSPost2010Prop44ColorIndex
 90
        5
102
RTVSPost2010Prop44ColorRGB
 90
      255
102
RTVSPost2010PropOp44
 70
     1
102
RTVSPost2010Prop45
280
     0
102
RTVSPost2010PropOp45
 70
     1
102
RTVSPost2010Prop46
 90
       50
102
RTVSPost2010PropOp46
 70
     1
102
RTVSPost2010Prop47
 90
       50
102
RTVSPost2010PropOp47
 70
     1
102
RTVSPost2010Prop48
 90
       50
102
RTVSPost2010PropOp48
 70
     1
102
RTVSPost2010Prop49
280
     0
102
RTVSPost2010PropOp49
 70
     1
102
RTVSPost2010Prop50
 90
       50
102
RTVSPost2010PropOp50
 70
     1
102
RTVSPost2010Prop51ColorIndex
 90
      256
102
RTVSPost2010Prop51ColorRGB
 90
-16777216
102
RTVSPost2010PropOp51
 70
     0
102
RTVSPost2010Prop52
140
1.0
102
RTVSPost2010PropOp52
 70
     0
102
RTVSPost2010Prop53
 90
        2
102
RTVSPost2010PropOp53
 70
     1
102
RTVSPost2010Prop54
  1
strokes_ogs.tif
102
RTVSPost2010PropOp54
 70
     1
102
RTVSPost2010Prop55
280
     0
102
RTVSPost2010PropOp55
 70
     1
102
RTVSPost2010Prop56
140
1.0
102
RTVSPost2010PropOp56
 70
     1
102
RTVSPost2010Prop57
140
1.0
102
RTVSPost2010PropOp57
 70
     1
102
RTVSPropertyOp0
 70
     1
102
RTVSPropertyOp1
 70
     1
102
RTVSPropertyOp2
 70
     1
102
RTVSPropertyOp3
 70
     1
102
RTVSPropertyOp4
 70
     1
102
RTVSPropertyOp5
 70
     1
102
RTVSPropertyOp6
 70
     1
102
RTVSPropertyOp7
 70
     1
102
RTVSPropertyOp8
 70
     1
102
RTVSPropertyOp9
 70
     1
102
RTVSPropertyOp10
 70
     1
102
RTVSPropertyOp11
 70
     1
102
RTVSPropertyOp12
 70
     1
102
RTVSPropertyOp13
 70
     1
102
RTVSPropertyOp14
 70
     1
102
RTVSPropertyOp15
 70
     1
102
RTVSPropertyOp16
 70
     1
102
RTVSPropertyOp17
 70
     1
102
RTVSPropertyOp18
 70
     1
102
RTVSPropertyOp19
 70
     1
102
RTVSPropertyOp20
 70
     1
102
RTVSPropertyOp21
 70
     1
102
RTVSPropertyOp22
 70
     1
102
RTVSPropertyOp23
 70
     1
102
RTVSPropertyOp24
 70
     1
102
RTVSPropertyOp25
 70
     1
102
RTVSPropertyOp26
 70
     1
102
RTVSPropertyOp27
 70
     1
102
RTVSPropertyOp28
 70
     1
102
RTVSPropertyOp29
 70
     1
102
RTVSPropertyOp30
 70
     1
102
RTVSPropertyOp31
 70
     1
102
RTVSPropertyOp32
 70
     1
102
RTVSPropertyOp33
 70
     1
102
RTVSPropertyOp34
 70
     1
102
RTVSPropertyOp35
 70
     1
102
RTVSPropertyOp36
 70
     1
102
RTVSPropertyOp37
 70
     1
102
RTVSPropertyOp38
 70
     1
102
RTVSPropertyOp39
 70
     1
102
RTVSPropertyOp40
 70
     1
102
RTVSPropertyOp41
 70
     1
102
RTVSPropertyOp42
 70
     1
102
RTVSPropertyOp43
 70
     1
102
RTVSPropertyOp44
 70
     1
102
RTVSPropertyOp45
 70
     1
102
RTVSPropertyOp46
 70
     1
102
RTVSPropertyOp47
 70
     1
102
RTVSPropertyOp48
 70
     1
102
RTVSPropertyOp49
 70
     1
102
RTVSPropertyOp50
 70
     1
102
RTVSPropertyOp51
 70
     0
102
RTVSPropertyOp52
 70
     0
102
RTVSPropertyOp53
 70
     1
102
RTVSPropertyOp54
 70
     1
102
RTVSPropertyOp55
 70
     1
102
RTVSPropertyOp56
 70
     1
102
RTVSPropertyOp57
 70
     1
102
RTVSPropertyOp58
 70
     1
102
RTVSPropertyOp59
 70
     1
102
RTVSPropertyOp60
 70
     1
102
RTVSPropertyOp61
 70
     1
102
RTVSPropertyOp62
 70
     1
  0
XRECORD
  5
1FF1
102
{ACAD_REACTORS
330
1FF0
102
}
330
1FF0
100
AcDbXrecord
280
     1
102
RTVSPost2010Prop28
280
     0
102
RTVSPost2010PropOp28
 70
     1
102
RTVSPost2010Prop29
280
     1
102
RTVSPost2010PropOp29
 70
     1
102
RTVSPost2010Prop30
280
     1
102
RTVSPost2010PropOp30
 70
     1
102
RTVSPost2010Prop31
280
     0
102
RTVSPost2010PropOp31
 70
     1
102
RTVSPost2010Prop32
280
     0
102
RTVSPost2010PropOp32
 70
     1
102
RTVSPost2010Prop33
280
     0
102
RTVSPost2010PropOp33
 70
     1
102
RTVSPost2010Prop34
280
     0
102
RTVSPost2010PropOp34
 70
     1
102
RTVSPost2010Prop35
280
     0
102
RTVSPost2010PropOp35
 70
     1
102
RTVSPost2010Prop36
280
     0
102
RTVSPost2010PropOp36
 70
     1
102
RTVSPost2010Prop37
 90
       50
102
RTVSPost2010PropOp37
 70
     1
102
RTVSPost2010Prop38
140
0.0
102
RTVSPost2010PropOp38
 70
     1
102
RTVSPost2010Prop39
140
1.0
102
RTVSPost2010PropOp39
 70
     1
102
RTVSPost2010Prop40
 90
        0
102
RTVSPost2010PropOp40
 70
     1
102
RTVSPost2010Prop41ColorIndex
 90
       18
102
RTVSPost2010Prop41ColorRGB
 90
        0
102
RTVSPost2010PropOp41
 70
     1
102
RTVSPost2010Prop42
 90
       50
102
RTVSPost2010PropOp42
 70
     1
102
RTVSPost2010Prop43
 90
        3
102
RTVSPost2010PropOp43
 70
     1
102
RTVSPost2010Prop44ColorIndex
 90
        5
102
RTVSPost2010Prop44ColorRGB
 90
      255
102
RTVSPost2010PropOp44
 70
     1
102
RTVSPost2010Prop45
280
     0
102
RTVSPost2010PropOp45
 70
     1
102
RTVSPost2010Prop46
 90
       50
102
RTVSPost2010PropOp46
 70
     1
102
RTVSPost2010Prop47
 90
       50
102
RTVSPost2010PropOp47
 70
     1
102
RTVSPost2010Prop48
 90
       50
102
RTVSPost2010PropOp48
 70
     1
102
RTVSPost2010Prop49
280
     0
102
RTVSPost2010PropOp49
 70
     1
102
RTVSPost2010Prop50
 90
       50
102
RTVSPost2010PropOp50
 70
     1
102
RTVSPost2010Prop51ColorIndex
 90
      256
102
RTVSPost2010Prop51ColorRGB
 90
-16777216
102
RTVSPost2010PropOp51
 70
     0
102
RTVSPost2010Prop52
140
1.0
102
RTVSPost2010PropOp52
 70
     0
102
RTVSPost2010Prop53
 90
        2
102
RTVSPost2010PropOp53
 70
     1
102
RTVSPost2010Prop54
  1
strokes_ogs.tif
102
RTVSPost2010PropOp54
 70
     1
102
RTVSPost2010Prop55
280
     0
102
RTVSPost2010PropOp55
 70
     1
102
RTVSPost2010Prop56
140
1.0
102
RTVSPost2010PropOp56
 70
     1
102
RTVSPost2010Prop57
140
1.0
102
RTVSPost2010PropOp57
 70
     1
102
RTVSPropertyOp0
 70
     1
102
RTVSPropertyOp1
 70
     1
102
RTVSPropertyOp2
 70
     1
102
RTVSPropertyOp3
 70
     1
102
RTVSPropertyOp4
 70
     1
102
RTVSPropertyOp5
 70
     1
102
RTVSPropertyOp6
 70
     1
102
RTVSPropertyOp7
 70
     1
102
RTVSPropertyOp8
 70
     1
102
RTVSPropertyOp9
 70
     1
102
RTVSPropertyOp10
 70
     1
102
RTVSPropertyOp11
 70
     1
102
RTVSPropertyOp12
 70
     1
102
RTVSPropertyOp13
 70
     1
102
RTVSPropertyOp14
 70
     1
102
RTVSPropertyOp15
 70
     1
102
RTVSPropertyOp16
 70
     1
102
RTVSPropertyOp17
 70
     1
102
RTVSPropertyOp18
 70
     1
102
RTVSPropertyOp19
 70
     1
102
RTVSPropertyOp20
 70
     1
102
RTVSPropertyOp21
 70
     1
102
RTVSPropertyOp22
 70
     1
102
RTVSPropertyOp23
 70
     1
102
RTVSPropertyOp24
 70
     1
102
RTVSPropertyOp25
 70
     1
102
RTVSPropertyOp26
 70
     1
102
RTVSPropertyOp27
 70
     1
102
RTVSPropertyOp28
 70
     1
102
RTVSPropertyOp29
 70
     1
102
RTVSPropertyOp30
 70
     1
102
RTVSPropertyOp31
 70
     1
102
RTVSPropertyOp32
 70
     1
102
RTVSPropertyOp33
 70
     1
102
RTVSPropertyOp34
 70
     1
102
RTVSPropertyOp35
 70
     1
102
RTVSPropertyOp36
 70
     1
102
RTVSPropertyOp37
 70
     1
102
RTVSPropertyOp38
 70
     1
102
RTVSPropertyOp39
 70
     1
102
RTVSPropertyOp40
 70
     1
102
RTVSPropertyOp41
 70
     1
102
RTVSPropertyOp42
 70
     1
102
RTVSPropertyOp43
 70
     1
102
RTVSPropertyOp44
 70
     1
102
RTVSPropertyOp45
 70
     1
102
RTVSPropertyOp46
 70
     1
102
RTVSPropertyOp47
 70
     1
102
RTVSPropertyOp48
 70
     1
102
RTVSPropertyOp49
 70
     1
102
RTVSPropertyOp50
 70
     1
102
RTVSPropertyOp51
 70
     0
102
RTVSPropertyOp52
 70
     0
102
RTVSPropertyOp53
 70
     1
102
RTVSPropertyOp54
 70
     1
102
RTVSPropertyOp55
 70
     1
102
RTVSPropertyOp56
 70
     1
102
RTVSPropertyOp57
 70
     1
102
RTVSPropertyOp58
 70
     1
102
RTVSPropertyOp59
 70
     1
102
RTVSPropertyOp60
 70
     1
102
RTVSPropertyOp61
 70
     1
102
RTVSPropertyOp62
 70
     1
  0
XRECORD
  5
1FFF
102
{ACAD_REACTORS
330
1FFE
102
}
330
1FFE
100
AcDbXrecord
280
     1
102
RTVSPost2010Prop28
280
     0
102
RTVSPost2010PropOp28
 70
     1
102
RTVSPost2010Prop29
280
     1
102
RTVSPost2010PropOp29
 70
     1
102
RTVSPost2010Prop30
280
     1
102
RTVSPost2010PropOp30
 70
     1
102
RTVSPost2010Prop31
280
     0
102
RTVSPost2010PropOp31
 70
     1
102
RTVSPost2010Prop32
280
     0
102
RTVSPost2010PropOp32
 70
     1
102
RTVSPost2010Prop33
280
     0
102
RTVSPost2010PropOp33
 70
     1
102
RTVSPost2010Prop34
280
     0
102
RTVSPost2010PropOp34
 70
     1
102
RTVSPost2010Prop35
280
     0
102
RTVSPost2010PropOp35
 70
     1
102
RTVSPost2010Prop36
280
     0
102
RTVSPost2010PropOp36
 70
     1
102
RTVSPost2010Prop37
 90
       50
102
RTVSPost2010PropOp37
 70
     1
102
RTVSPost2010Prop38
140
0.0
102
RTVSPost2010PropOp38
 70
     1
102
RTVSPost2010Prop39
140
1.0
102
RTVSPost2010PropOp39
 70
     1
102
RTVSPost2010Prop40
 90
        0
102
RTVSPost2010PropOp40
 70
     1
102
RTVSPost2010Prop41ColorIndex
 90
       18
102
RTVSPost2010Prop41ColorRGB
 90
        0
102
RTVSPost2010PropOp41
 70
     1
102
RTVSPost2010Prop42
 90
       50
102
RTVSPost2010PropOp42
 70
     1
102
RTVSPost2010Prop43
 90
        3
102
RTVSPost2010PropOp43
 70
     1
102
RTVSPost2010Prop44ColorIndex
 90
        5
102
RTVSPost2010Prop44ColorRGB
 90
      255
102
RTVSPost2010PropOp44
 70
     1
102
RTVSPost2010Prop45
280
     0
102
RTVSPost2010PropOp45
 70
     1
102
RTVSPost2010Prop46
 90
       50
102
RTVSPost2010PropOp46
 70
     1
102
RTVSPost2010Prop47
 90
       50
102
RTVSPost2010PropOp47
 70
     1
102
RTVSPost2010Prop48
 90
       50
102
RTVSPost2010PropOp48
 70
     1
102
RTVSPost2010Prop49
280
     0
102
RTVSPost2010PropOp49
 70
     1
102
RTVSPost2010Prop50
 90
       50
102
RTVSPost2010PropOp50
 70
     1
102
RTVSPost2010Prop51ColorIndex
 90
      256
102
RTVSPost2010Prop51ColorRGB
 90
-16777216
102
RTVSPost2010PropOp51
 70
     0
102
RTVSPost2010Prop52
140
1.0
102
RTVSPost2010PropOp52
 70
     0
102
RTVSPost2010Prop53
 90
        2
102
RTVSPost2010PropOp53
 70
     1
102
RTVSPost2010Prop54
  1
strokes_ogs.tif
102
RTVSPost2010PropOp54
 70
     1
102
RTVSPost2010Prop55
280
     0
102
RTVSPost2010PropOp55
 70
     1
102
RTVSPost2010Prop56
140
1.0
102
RTVSPost2010PropOp56
 70
     1
102
RTVSPost2010Prop57
140
1.0
102
RTVSPost2010PropOp57
 70
     1
102
RTVSPropertyOp0
 70
     1
102
RTVSPropertyOp1
 70
     1
102
RTVSPropertyOp2
 70
     1
102
RTVSPropertyOp3
 70
     1
102
RTVSPropertyOp4
 70
     1
102
RTVSPropertyOp5
 70
     1
102
RTVSPropertyOp6
 70
     1
102
RTVSPropertyOp7
 70
     1
102
RTVSPropertyOp8
 70
     1
102
RTVSPropertyOp9
 70
     1
102
RTVSPropertyOp10
 70
     1
102
RTVSPropertyOp11
 70
     1
102
RTVSPropertyOp12
 70
     1
102
RTVSPropertyOp13
 70
     1
102
RTVSPropertyOp14
 70
     1
102
RTVSPropertyOp15
 70
     1
102
RTVSPropertyOp16
 70
     1
102
RTVSPropertyOp17
 70
     1
102
RTVSPropertyOp18
 70
     1
102
RTVSPropertyOp19
 70
     1
102
RTVSPropertyOp20
 70
     1
102
RTVSPropertyOp21
 70
     1
102
RTVSPropertyOp22
 70
     1
102
RTVSPropertyOp23
 70
     1
102
RTVSPropertyOp24
 70
     1
102
RTVSPropertyOp25
 70
     1
102
RTVSPropertyOp26
 70
     1
102
RTVSPropertyOp27
 70
     1
102
RTVSPropertyOp28
 70
     1
102
RTVSPropertyOp29
 70
     1
102
RTVSPropertyOp30
 70
     1
102
RTVSPropertyOp31
 70
     1
102
RTVSPropertyOp32
 70
     1
102
RTVSPropertyOp33
 70
     1
102
RTVSPropertyOp34
 70
     1
102
RTVSPropertyOp35
 70
     1
102
RTVSPropertyOp36
 70
     1
102
RTVSPropertyOp37
 70
     1
102
RTVSPropertyOp38
 70
     1
102
RTVSPropertyOp39
 70
     1
102
RTVSPropertyOp40
 70
     1
102
RTVSPropertyOp41
 70
     1
102
RTVSPropertyOp42
 70
     1
102
RTVSPropertyOp43
 70
     1
102
RTVSPropertyOp44
 70
     1
102
RTVSPropertyOp45
 70
     1
102
RTVSPropertyOp46
 70
     1
102
RTVSPropertyOp47
 70
     1
102
RTVSPropertyOp48
 70
     1
102
RTVSPropertyOp49
 70
     1
102
RTVSPropertyOp50
 70
     1
102
RTVSPropertyOp51
 70
     0
102
RTVSPropertyOp52
 70
     0
102
RTVSPropertyOp53
 70
     1
102
RTVSPropertyOp54
 70
     1
102
RTVSPropertyOp55
 70
     1
102
RTVSPropertyOp56
 70
     1
102
RTVSPropertyOp57
 70
     1
102
RTVSPropertyOp58
 70
     1
102
RTVSPropertyOp59
 70
     1
102
RTVSPropertyOp60
 70
     1
102
RTVSPropertyOp61
 70
     1
102
RTVSPropertyOp62
 70
     1
  0
XRECORD
  5
2007
102
{ACAD_REACTORS
330
2006
102
}
330
2006
100
AcDbXrecord
280
     1
102
RTVSPost2010Prop28
280
     0
102
RTVSPost2010PropOp28
 70
     1
102
RTVSPost2010Prop29
280
     1
102
RTVSPost2010PropOp29
 70
     1
102
RTVSPost2010Prop30
280
     1
102
RTVSPost2010PropOp30
 70
     1
102
RTVSPost2010Prop31
280
     0
102
RTVSPost2010PropOp31
 70
     1
102
RTVSPost2010Prop32
280
     0
102
RTVSPost2010PropOp32
 70
     1
102
RTVSPost2010Prop33
280
     0
102
RTVSPost2010PropOp33
 70
     1
102
RTVSPost2010Prop34
280
     0
102
RTVSPost2010PropOp34
 70
     1
102
RTVSPost2010Prop35
280
     0
102
RTVSPost2010PropOp35
 70
     1
102
RTVSPost2010Prop36
280
     0
102
RTVSPost2010PropOp36
 70
     1
102
RTVSPost2010Prop37
 90
       50
102
RTVSPost2010PropOp37
 70
     1
102
RTVSPost2010Prop38
140
0.0
102
RTVSPost2010PropOp38
 70
     1
102
RTVSPost2010Prop39
140
1.0
102
RTVSPost2010PropOp39
 70
     1
102
RTVSPost2010Prop40
 90
        0
102
RTVSPost2010PropOp40
 70
     1
102
RTVSPost2010Prop41ColorIndex
 90
       18
102
RTVSPost2010Prop41ColorRGB
 90
        0
102
RTVSPost2010PropOp41
 70
     1
102
RTVSPost2010Prop42
 90
       50
102
RTVSPost2010PropOp42
 70
     1
102
RTVSPost2010Prop43
 90
        3
102
RTVSPost2010PropOp43
 70
     1
102
RTVSPost2010Prop44ColorIndex
 90
        5
102
RTVSPost2010Prop44ColorRGB
 90
      255
102
RTVSPost2010PropOp44
 70
     1
102
RTVSPost2010Prop45
280
     0
102
RTVSPost2010PropOp45
 70
     1
102
RTVSPost2010Prop46
 90
       50
102
RTVSPost2010PropOp46
 70
     1
102
RTVSPost2010Prop47
 90
       50
102
RTVSPost2010PropOp47
 70
     1
102
RTVSPost2010Prop48
 90
       50
102
RTVSPost2010PropOp48
 70
     1
102
RTVSPost2010Prop49
280
     0
102
RTVSPost2010PropOp49
 70
     1
102
RTVSPost2010Prop50
 90
       50
102
RTVSPost2010PropOp50
 70
     1
102
RTVSPost2010Prop51ColorIndex
 90
      256
102
RTVSPost2010Prop51ColorRGB
 90
-16777216
102
RTVSPost2010PropOp51
 70
     0
102
RTVSPost2010Prop52
140
1.0
102
RTVSPost2010PropOp52
 70
     0
102
RTVSPost2010Prop53
 90
        2
102
RTVSPost2010PropOp53
 70
     1
102
RTVSPost2010Prop54
  1
strokes_ogs.tif
102
RTVSPost2010PropOp54
 70
     1
102
RTVSPost2010Prop55
280
     0
102
RTVSPost2010PropOp55
 70
     1
102
RTVSPost2010Prop56
140
1.0
102
RTVSPost2010PropOp56
 70
     1
102
RTVSPost2010Prop57
140
1.0
102
RTVSPost2010PropOp57
 70
     1
102
RTVSPropertyOp0
 70
     1
102
RTVSPropertyOp1
 70
     1
102
RTVSPropertyOp2
 70
     1
102
RTVSPropertyOp3
 70
     1
102
RTVSPropertyOp4
 70
     1
102
RTVSPropertyOp5
 70
     1
102
RTVSPropertyOp6
 70
     1
102
RTVSPropertyOp7
 70
     1
102
RTVSPropertyOp8
 70
     1
102
RTVSPropertyOp9
 70
     1
102
RTVSPropertyOp10
 70
     1
102
RTVSPropertyOp11
 70
     1
102
RTVSPropertyOp12
 70
     1
102
RTVSPropertyOp13
 70
     1
102
RTVSPropertyOp14
 70
     1
102
RTVSPropertyOp15
 70
     1
102
RTVSPropertyOp16
 70
     1
102
RTVSPropertyOp17
 70
     1
102
RTVSPropertyOp18
 70
     1
102
RTVSPropertyOp19
 70
     1
102
RTVSPropertyOp20
 70
     1
102
RTVSPropertyOp21
 70
     1
102
RTVSPropertyOp22
 70
     1
102
RTVSPropertyOp23
 70
     1
102
RTVSPropertyOp24
 70
     1
102
RTVSPropertyOp25
 70
     1
102
RTVSPropertyOp26
 70
     1
102
RTVSPropertyOp27
 70
     1
102
RTVSPropertyOp28
 70
     1
102
RTVSPropertyOp29
 70
     1
102
RTVSPropertyOp30
 70
     1
102
RTVSPropertyOp31
 70
     1
102
RTVSPropertyOp32
 70
     1
102
RTVSPropertyOp33
 70
     1
102
RTVSPropertyOp34
 70
     1
102
RTVSPropertyOp35
 70
     1
102
RTVSPropertyOp36
 70
     1
102
RTVSPropertyOp37
 70
     1
102
RTVSPropertyOp38
 70
     1
102
RTVSPropertyOp39
 70
     1
102
RTVSPropertyOp40
 70
     1
102
RTVSPropertyOp41
 70
     1
102
RTVSPropertyOp42
 70
     1
102
RTVSPropertyOp43
 70
     1
102
RTVSPropertyOp44
 70
     1
102
RTVSPropertyOp45
 70
     1
102
RTVSPropertyOp46
 70
     1
102
RTVSPropertyOp47
 70
     1
102
RTVSPropertyOp48
 70
     1
102
RTVSPropertyOp49
 70
     1
102
RTVSPropertyOp50
 70
     1
102
RTVSPropertyOp51
 70
     0
102
RTVSPropertyOp52
 70
     0
102
RTVSPropertyOp53
 70
     1
102
RTVSPropertyOp54
 70
     1
102
RTVSPropertyOp55
 70
     1
102
RTVSPropertyOp56
 70
     1
102
RTVSPropertyOp57
 70
     1
102
RTVSPropertyOp58
 70
     1
102
RTVSPropertyOp59
 70
     1
102
RTVSPropertyOp60
 70
     1
102
RTVSPropertyOp61
 70
     1
102
RTVSPropertyOp62
 70
     1
  0
XRECORD
  5
1FF9
102
{ACAD_REACTORS
330
1FF8
102
}
330
1FF8
100
AcDbXrecord
280
     1
102
RTVSPost2010Prop28
280
     0
102
RTVSPost2010PropOp28
 70
     1
102
RTVSPost2010Prop29
280
     1
102
RTVSPost2010PropOp29
 70
     1
102
RTVSPost2010Prop30
280
     1
102
RTVSPost2010PropOp30
 70
     1
102
RTVSPost2010Prop31
280
     0
102
RTVSPost2010PropOp31
 70
     1
102
RTVSPost2010Prop32
280
     0
102
RTVSPost2010PropOp32
 70
     1
102
RTVSPost2010Prop33
280
     0
102
RTVSPost2010PropOp33
 70
     1
102
RTVSPost2010Prop34
280
     0
102
RTVSPost2010PropOp34
 70
     1
102
RTVSPost2010Prop35
280
     0
102
RTVSPost2010PropOp35
 70
     1
102
RTVSPost2010Prop36
280
     0
102
RTVSPost2010PropOp36
 70
     1
102
RTVSPost2010Prop37
 90
       50
102
RTVSPost2010PropOp37
 70
     1
102
RTVSPost2010Prop38
140
0.0
102
RTVSPost2010PropOp38
 70
     1
102
RTVSPost2010Prop39
140
1.0
102
RTVSPost2010PropOp39
 70
     1
102
RTVSPost2010Prop40
 90
        0
102
RTVSPost2010PropOp40
 70
     1
102
RTVSPost2010Prop41ColorIndex
 90
       18
102
RTVSPost2010Prop41ColorRGB
 90
        0
102
RTVSPost2010PropOp41
 70
     1
102
RTVSPost2010Prop42
 90
       50
102
RTVSPost2010PropOp42
 70
     1
102
RTVSPost2010Prop43
 90
        3
102
RTVSPost2010PropOp43
 70
     1
102
RTVSPost2010Prop44ColorIndex
 90
        5
102
RTVSPost2010Prop44ColorRGB
 90
      255
102
RTVSPost2010PropOp44
 70
     1
102
RTVSPost2010Prop45
280
     0
102
RTVSPost2010PropOp45
 70
     1
102
RTVSPost2010Prop46
 90
       50
102
RTVSPost2010PropOp46
 70
     1
102
RTVSPost2010Prop47
 90
       50
102
RTVSPost2010PropOp47
 70
     1
102
RTVSPost2010Prop48
 90
       50
102
RTVSPost2010PropOp48
 70
     1
102
RTVSPost2010Prop49
280
     0
102
RTVSPost2010PropOp49
 70
     1
102
RTVSPost2010Prop50
 90
       50
102
RTVSPost2010PropOp50
 70
     1
102
RTVSPost2010Prop51ColorIndex
 90
      256
102
RTVSPost2010Prop51ColorRGB
 90
-16777216
102
RTVSPost2010PropOp51
 70
     0
102
RTVSPost2010Prop52
140
1.0
102
RTVSPost2010PropOp52
 70
     0
102
RTVSPost2010Prop53
 90
        2
102
RTVSPost2010PropOp53
 70
     1
102
RTVSPost2010Prop54
  1
strokes_ogs.tif
102
RTVSPost2010PropOp54
 70
     1
102
RTVSPost2010Prop55
280
     0
102
RTVSPost2010PropOp55
 70
     1
102
RTVSPost2010Prop56
140
1.0
102
RTVSPost2010PropOp56
 70
     1
102
RTVSPost2010Prop57
140
1.0
102
RTVSPost2010PropOp57
 70
     1
102
RTVSPropertyOp0
 70
     1
102
RTVSPropertyOp1
 70
     1
102
RTVSPropertyOp2
 70
     1
102
RTVSPropertyOp3
 70
     1
102
RTVSPropertyOp4
 70
     1
102
RTVSPropertyOp5
 70
     1
102
RTVSPropertyOp6
 70
     1
102
RTVSPropertyOp7
 70
     1
102
RTVSPropertyOp8
 70
     1
102
RTVSPropertyOp9
 70
     1
102
RTVSPropertyOp10
 70
     1
102
RTVSPropertyOp11
 70
     1
102
RTVSPropertyOp12
 70
     1
102
RTVSPropertyOp13
 70
     1
102
RTVSPropertyOp14
 70
     1
102
RTVSPropertyOp15
 70
     1
102
RTVSPropertyOp16
 70
     1
102
RTVSPropertyOp17
 70
     1
102
RTVSPropertyOp18
 70
     1
102
RTVSPropertyOp19
 70
     1
102
RTVSPropertyOp20
 70
     1
102
RTVSPropertyOp21
 70
     1
102
RTVSPropertyOp22
 70
     1
102
RTVSPropertyOp23
 70
     1
102
RTVSPropertyOp24
 70
     1
102
RTVSPropertyOp25
 70
     1
102
RTVSPropertyOp26
 70
     1
102
RTVSPropertyOp27
 70
     1
102
RTVSPropertyOp28
 70
     1
102
RTVSPropertyOp29
 70
     1
102
RTVSPropertyOp30
 70
     1
102
RTVSPropertyOp31
 70
     1
102
RTVSPropertyOp32
 70
     1
102
RTVSPropertyOp33
 70
     1
102
RTVSPropertyOp34
 70
     1
102
RTVSPropertyOp35
 70
     1
102
RTVSPropertyOp36
 70
     1
102
RTVSPropertyOp37
 70
     1
102
RTVSPropertyOp38
 70
     1
102
RTVSPropertyOp39
 70
     1
102
RTVSPropertyOp40
 70
     1
102
RTVSPropertyOp41
 70
     1
102
RTVSPropertyOp42
 70
     1
102
RTVSPropertyOp43
 70
     1
102
RTVSPropertyOp44
 70
     1
102
RTVSPropertyOp45
 70
     1
102
RTVSPropertyOp46
 70
     1
102
RTVSPropertyOp47
 70
     1
102
RTVSPropertyOp48
 70
     1
102
RTVSPropertyOp49
 70
     1
102
RTVSPropertyOp50
 70
     1
102
RTVSPropertyOp51
 70
     0
102
RTVSPropertyOp52
 70
     0
102
RTVSPropertyOp53
 70
     1
102
RTVSPropertyOp54
 70
     1
102
RTVSPropertyOp55
 70
     1
102
RTVSPropertyOp56
 70
     1
102
RTVSPropertyOp57
 70
     1
102
RTVSPropertyOp58
 70
     1
102
RTVSPropertyOp59
 70
     1
102
RTVSPropertyOp60
 70
     1
102
RTVSPropertyOp61
 70
     1
102
RTVSPropertyOp62
 70
     1
  0
XRECORD
  5
1FFD
102
{ACAD_REACTORS
330
1FFC
102
}
330
1FFC
100
AcDbXrecord
280
     1
102
RTVSPost2010Prop28
280
     0
102
RTVSPost2010PropOp28
 70
     1
102
RTVSPost2010Prop29
280
     1
102
RTVSPost2010PropOp29
 70
     1
102
RTVSPost2010Prop30
280
     1
102
RTVSPost2010PropOp30
 70
     1
102
RTVSPost2010Prop31
280
     0
102
RTVSPost2010PropOp31
 70
     1
102
RTVSPost2010Prop32
280
     0
102
RTVSPost2010PropOp32
 70
     1
102
RTVSPost2010Prop33
280
     0
102
RTVSPost2010PropOp33
 70
     1
102
RTVSPost2010Prop34
280
     0
102
RTVSPost2010PropOp34
 70
     1
102
RTVSPost2010Prop35
280
     0
102
RTVSPost2010PropOp35
 70
     1
102
RTVSPost2010Prop36
280
     0
102
RTVSPost2010PropOp36
 70
     1
102
RTVSPost2010Prop37
 90
       50
102
RTVSPost2010PropOp37
 70
     1
102
RTVSPost2010Prop38
140
0.0
102
RTVSPost2010PropOp38
 70
     1
102
RTVSPost2010Prop39
140
1.0
102
RTVSPost2010PropOp39
 70
     1
102
RTVSPost2010Prop40
 90
        0
102
RTVSPost2010PropOp40
 70
     1
102
RTVSPost2010Prop41ColorIndex
 90
       18
102
RTVSPost2010Prop41ColorRGB
 90
        0
102
RTVSPost2010PropOp41
 70
     1
102
RTVSPost2010Prop42
 90
       50
102
RTVSPost2010PropOp42
 70
     1
102
RTVSPost2010Prop43
 90
        3
102
RTVSPost2010PropOp43
 70
     1
102
RTVSPost2010Prop44ColorIndex
 90
        5
102
RTVSPost2010Prop44ColorRGB
 90
      255
102
RTVSPost2010PropOp44
 70
     1
102
RTVSPost2010Prop45
280
     0
102
RTVSPost2010PropOp45
 70
     1
102
RTVSPost2010Prop46
 90
       50
102
RTVSPost2010PropOp46
 70
     1
102
RTVSPost2010Prop47
 90
       50
102
RTVSPost2010PropOp47
 70
     1
102
RTVSPost2010Prop48
 90
       50
102
RTVSPost2010PropOp48
 70
     1
102
RTVSPost2010Prop49
280
     0
102
RTVSPost2010PropOp49
 70
     1
102
RTVSPost2010Prop50
 90
       50
102
RTVSPost2010PropOp50
 70
     1
102
RTVSPost2010Prop51ColorIndex
 90
      256
102
RTVSPost2010Prop51ColorRGB
 90
-16777216
102
RTVSPost2010PropOp51
 70
     0
102
RTVSPost2010Prop52
140
1.0
102
RTVSPost2010PropOp52
 70
     0
102
RTVSPost2010Prop53
 90
        2
102
RTVSPost2010PropOp53
 70
     1
102
RTVSPost2010Prop54
  1
strokes_ogs.tif
102
RTVSPost2010PropOp54
 70
     1
102
RTVSPost2010Prop55
280
     0
102
RTVSPost2010PropOp55
 70
     1
102
RTVSPost2010Prop56
140
1.0
102
RTVSPost2010PropOp56
 70
     1
102
RTVSPost2010Prop57
140
1.0
102
RTVSPost2010PropOp57
 70
     1
102
RTVSPropertyOp0
 70
     1
102
RTVSPropertyOp1
 70
     1
102
RTVSPropertyOp2
 70
     1
102
RTVSPropertyOp3
 70
     1
102
RTVSPropertyOp4
 70
     1
102
RTVSPropertyOp5
 70
     1
102
RTVSPropertyOp6
 70
     1
102
RTVSPropertyOp7
 70
     1
102
RTVSPropertyOp8
 70
     1
102
RTVSPropertyOp9
 70
     1
102
RTVSPropertyOp10
 70
     1
102
RTVSPropertyOp11
 70
     1
102
RTVSPropertyOp12
 70
     1
102
RTVSPropertyOp13
 70
     1
102
RTVSPropertyOp14
 70
     1
102
RTVSPropertyOp15
 70
     1
102
RTVSPropertyOp16
 70
     1
102
RTVSPropertyOp17
 70
     1
102
RTVSPropertyOp18
 70
     1
102
RTVSPropertyOp19
 70
     1
102
RTVSPropertyOp20
 70
     1
102
RTVSPropertyOp21
 70
     1
102
RTVSPropertyOp22
 70
     1
102
RTVSPropertyOp23
 70
     1
102
RTVSPropertyOp24
 70
     1
102
RTVSPropertyOp25
 70
     1
102
RTVSPropertyOp26
 70
     1
102
RTVSPropertyOp27
 70
     1
102
RTVSPropertyOp28
 70
     1
102
RTVSPropertyOp29
 70
     1
102
RTVSPropertyOp30
 70
     1
102
RTVSPropertyOp31
 70
     1
102
RTVSPropertyOp32
 70
     1
102
RTVSPropertyOp33
 70
     1
102
RTVSPropertyOp34
 70
     1
102
RTVSPropertyOp35
 70
     1
102
RTVSPropertyOp36
 70
     1
102
RTVSPropertyOp37
 70
     1
102
RTVSPropertyOp38
 70
     1
102
RTVSPropertyOp39
 70
     1
102
RTVSPropertyOp40
 70
     1
102
RTVSPropertyOp41
 70
     1
102
RTVSPropertyOp42
 70
     1
102
RTVSPropertyOp43
 70
     1
102
RTVSPropertyOp44
 70
     1
102
RTVSPropertyOp45
 70
     1
102
RTVSPropertyOp46
 70
     1
102
RTVSPropertyOp47
 70
     1
102
RTVSPropertyOp48
 70
     1
102
RTVSPropertyOp49
 70
     1
102
RTVSPropertyOp50
 70
     1
102
RTVSPropertyOp51
 70
     0
102
RTVSPropertyOp52
 70
     0
102
RTVSPropertyOp53
 70
     1
102
RTVSPropertyOp54
 70
     1
102
RTVSPropertyOp55
 70
     1
102
RTVSPropertyOp56
 70
     1
102
RTVSPropertyOp57
 70
     1
102
RTVSPropertyOp58
 70
     1
102
RTVSPropertyOp59
 70
     1
102
RTVSPropertyOp60
 70
     1
102
RTVSPropertyOp61
 70
     1
102
RTVSPropertyOp62
 70
     1
  0
XRECORD
  5
2017
102
{ACAD_REACTORS
330
2016
102
}
330
2016
100
AcDbXrecord
280
     1
102
RTVSPost2010Prop28
280
     0
102
RTVSPost2010PropOp28
 70
     0
102
RTVSPost2010Prop29
280
     1
102
RTVSPost2010PropOp29
 70
     0
102
RTVSPost2010Prop30
280
     1
102
RTVSPost2010PropOp30
 70
     0
102
RTVSPost2010Prop31
280
     0
102
RTVSPost2010PropOp31
 70
     0
102
RTVSPost2010Prop32
280
     0
102
RTVSPost2010PropOp32
 70
     0
102
RTVSPost2010Prop33
280
     0
102
RTVSPost2010PropOp33
 70
     0
102
RTVSPost2010Prop34
280
     0
102
RTVSPost2010PropOp34
 70
     0
102
RTVSPost2010Prop35
280
     0
102
RTVSPost2010PropOp35
 70
     0
102
RTVSPost2010Prop36
280
     0
102
RTVSPost2010PropOp36
 70
     0
102
RTVSPost2010Prop37
 90
       50
102
RTVSPost2010PropOp37
 70
     0
102
RTVSPost2010Prop38
140
0.0
102
RTVSPost2010PropOp38
 70
     0
102
RTVSPost2010Prop39
140
1.0
102
RTVSPost2010PropOp39
 70
     0
102
RTVSPost2010Prop40
 90
        0
102
RTVSPost2010PropOp40
 70
     0
102
RTVSPost2010Prop41ColorIndex
 90
       18
102
RTVSPost2010Prop41ColorRGB
 90
        0
102
RTVSPost2010PropOp41
 70
     0
102
RTVSPost2010Prop42
 90
       50
102
RTVSPost2010PropOp42
 70
     0
102
RTVSPost2010Prop43
 90
        3
102
RTVSPost2010PropOp43
 70
     0
102
RTVSPost2010Prop44ColorIndex
 90
        5
102
RTVSPost2010Prop44ColorRGB
 90
      255
102
RTVSPost2010PropOp44
 70
     0
102
RTVSPost2010Prop45
280
     0
102
RTVSPost2010PropOp45
 70
     0
102
RTVSPost2010Prop46
 90
       50
102
RTVSPost2010PropOp46
 70
     0
102
RTVSPost2010Prop47
 90
       50
102
RTVSPost2010PropOp47
 70
     0
102
RTVSPost2010Prop48
 90
       50
102
RTVSPost2010PropOp48
 70
     0
102
RTVSPost2010Prop49
280
     0
102
RTVSPost2010PropOp49
 70
     0
102
RTVSPost2010Prop50
 90
       50
102
RTVSPost2010PropOp50
 70
     0
102
RTVSPost2010Prop51ColorIndex
 90
      256
102
RTVSPost2010Prop51ColorRGB
 90
-16777216
102
RTVSPost2010PropOp51
 70
     0
102
RTVSPost2010Prop52
140
1.0
102
RTVSPost2010PropOp52
 70
     0
102
RTVSPost2010Prop53
 90
        2
102
RTVSPost2010PropOp53
 70
     0
102
RTVSPost2010Prop54
  1
strokes_ogs.tif
102
RTVSPost2010PropOp54
 70
     0
102
RTVSPost2010Prop55
280
     0
102
RTVSPost2010PropOp55
 70
     0
102
RTVSPost2010Prop56
140
1.0
102
RTVSPost2010PropOp56
 70
     0
102
RTVSPost2010Prop57
140
1.0
102
RTVSPost2010PropOp57
 70
     0
102
RTVSPropertyOp0
 70
     0
102
RTVSPropertyOp1
 70
     0
102
RTVSPropertyOp2
 70
     0
102
RTVSPropertyOp3
 70
     0
102
RTVSPropertyOp4
 70
     0
102
RTVSPropertyOp5
 70
     0
102
RTVSPropertyOp6
 70
     0
102
RTVSPropertyOp7
 70
     0
102
RTVSPropertyOp8
 70
     0
102
RTVSPropertyOp9
 70
     0
102
RTVSPropertyOp10
 70
     0
102
RTVSPropertyOp11
 70
     0
102
RTVSPropertyOp12
 70
     0
102
RTVSPropertyOp13
 70
     0
102
RTVSPropertyOp14
 70
     2
102
RTVSPropertyOp15
 70
     0
102
RTVSPropertyOp16
 70
     0
102
RTVSPropertyOp17
 70
     0
102
RTVSPropertyOp18
 70
     0
102
RTVSPropertyOp19
 70
     0
102
RTVSPropertyOp20
 70
     0
102
RTVSPropertyOp21
 70
     0
102
RTVSPropertyOp22
 70
     0
102
RTVSPropertyOp23
 70
     0
102
RTVSPropertyOp24
 70
     0
102
RTVSPropertyOp25
 70
     0
102
RTVSPropertyOp26
 70
     0
102
RTVSPropertyOp27
 70
     0
102
RTVSPropertyOp28
 70
     0
102
RTVSPropertyOp29
 70
     0
102
RTVSPropertyOp30
 70
     0
102
RTVSPropertyOp31
 70
     0
102
RTVSPropertyOp32
 70
     0
102
RTVSPropertyOp33
 70
     0
102
RTVSPropertyOp34
 70
     0
102
RTVSPropertyOp35
 70
     0
102
RTVSPropertyOp36
 70
     0
102
RTVSPropertyOp37
 70
     0
102
RTVSPropertyOp38
 70
     0
102
RTVSPropertyOp39
 70
     0
102
RTVSPropertyOp40
 70
     0
102
RTVSPropertyOp41
 70
     0
102
RTVSPropertyOp42
 70
     0
102
RTVSPropertyOp43
 70
     0
102
RTVSPropertyOp44
 70
     0
102
RTVSPropertyOp45
 70
     0
102
RTVSPropertyOp46
 70
     0
102
RTVSPropertyOp47
 70
     0
102
RTVSPropertyOp48
 70
     0
102
RTVSPropertyOp49
 70
     0
102
RTVSPropertyOp50
 70
     0
102
RTVSPropertyOp51
 70
     0
102
RTVSPropertyOp52
 70
     0
102
RTVSPropertyOp53
 70
     0
102
RTVSPropertyOp54
 70
     0
102
RTVSPropertyOp55
 70
     0
102
RTVSPropertyOp56
 70
     0
102
RTVSPropertyOp57
 70
     0
102
RTVSPropertyOp58
 70
     0
102
RTVSPropertyOp59
 70
     0
102
RTVSPropertyOp60
 70
     0
102
RTVSPropertyOp61
 70
     0
102
RTVSPropertyOp62
 70
     0
  0
XRECORD
  5
2005
102
{ACAD_REACTORS
330
2004
102
}
330
2004
100
AcDbXrecord
280
     1
102
RTVSPost2010Prop28
280
     0
102
RTVSPost2010PropOp28
 70
     1
102
RTVSPost2010Prop29
280
     1
102
RTVSPost2010PropOp29
 70
     1
102
RTVSPost2010Prop30
280
     1
102
RTVSPost2010PropOp30
 70
     1
102
RTVSPost2010Prop31
280
     0
102
RTVSPost2010PropOp31
 70
     1
102
RTVSPost2010Prop32
280
     0
102
RTVSPost2010PropOp32
 70
     1
102
RTVSPost2010Prop33
280
     0
102
RTVSPost2010PropOp33
 70
     1
102
RTVSPost2010Prop34
280
     0
102
RTVSPost2010PropOp34
 70
     1
102
RTVSPost2010Prop35
280
     0
102
RTVSPost2010PropOp35
 70
     1
102
RTVSPost2010Prop36
280
     0
102
RTVSPost2010PropOp36
 70
     1
102
RTVSPost2010Prop37
 90
       50
102
RTVSPost2010PropOp37
 70
     1
102
RTVSPost2010Prop38
140
0.0
102
RTVSPost2010PropOp38
 70
     1
102
RTVSPost2010Prop39
140
1.0
102
RTVSPost2010PropOp39
 70
     1
102
RTVSPost2010Prop40
 90
        0
102
RTVSPost2010PropOp40
 70
     1
102
RTVSPost2010Prop41ColorIndex
 90
       18
102
RTVSPost2010Prop41ColorRGB
 90
        0
102
RTVSPost2010PropOp41
 70
     1
102
RTVSPost2010Prop42
 90
       50
102
RTVSPost2010PropOp42
 70
     1
102
RTVSPost2010Prop43
 90
        3
102
RTVSPost2010PropOp43
 70
     1
102
RTVSPost2010Prop44ColorIndex
 90
        5
102
RTVSPost2010Prop44ColorRGB
 90
      255
102
RTVSPost2010PropOp44
 70
     1
102
RTVSPost2010Prop45
280
     0
102
RTVSPost2010PropOp45
 70
     1
102
RTVSPost2010Prop46
 90
       50
102
RTVSPost2010PropOp46
 70
     1
102
RTVSPost2010Prop47
 90
       50
102
RTVSPost2010PropOp47
 70
     1
102
RTVSPost2010Prop48
 90
       50
102
RTVSPost2010PropOp48
 70
     1
102
RTVSPost2010Prop49
280
     0
102
RTVSPost2010PropOp49
 70
     1
102
RTVSPost2010Prop50
 90
       50
102
RTVSPost2010PropOp50
 70
     1
102
RTVSPost2010Prop51ColorIndex
 90
      256
102
RTVSPost2010Prop51ColorRGB
 90
-16777216
102
RTVSPost2010PropOp51
 70
     0
102
RTVSPost2010Prop52
140
1.0
102
RTVSPost2010PropOp52
 70
     0
102
RTVSPost2010Prop53
 90
        2
102
RTVSPost2010PropOp53
 70
     1
102
RTVSPost2010Prop54
  1
strokes_ogs.tif
102
RTVSPost2010PropOp54
 70
     1
102
RTVSPost2010Prop55
280
     0
102
RTVSPost2010PropOp55
 70
     1
102
RTVSPost2010Prop56
140
1.0
102
RTVSPost2010PropOp56
 70
     1
102
RTVSPost2010Prop57
140
1.0
102
RTVSPost2010PropOp57
 70
     1
102
RTVSPropertyOp0
 70
     1
102
RTVSPropertyOp1
 70
     1
102
RTVSPropertyOp2
 70
     1
102
RTVSPropertyOp3
 70
     1
102
RTVSPropertyOp4
 70
     1
102
RTVSPropertyOp5
 70
     1
102
RTVSPropertyOp6
 70
     1
102
RTVSPropertyOp7
 70
     1
102
RTVSPropertyOp8
 70
     1
102
RTVSPropertyOp9
 70
     1
102
RTVSPropertyOp10
 70
     1
102
RTVSPropertyOp11
 70
     1
102
RTVSPropertyOp12
 70
     1
102
RTVSPropertyOp13
 70
     1
102
RTVSPropertyOp14
 70
     1
102
RTVSPropertyOp15
 70
     1
102
RTVSPropertyOp16
 70
     1
102
RTVSPropertyOp17
 70
     1
102
RTVSPropertyOp18
 70
     1
102
RTVSPropertyOp19
 70
     1
102
RTVSPropertyOp20
 70
     1
102
RTVSPropertyOp21
 70
     1
102
RTVSPropertyOp22
 70
     1
102
RTVSPropertyOp23
 70
     1
102
RTVSPropertyOp24
 70
     1
102
RTVSPropertyOp25
 70
     1
102
RTVSPropertyOp26
 70
     1
102
RTVSPropertyOp27
 70
     1
102
RTVSPropertyOp28
 70
     1
102
RTVSPropertyOp29
 70
     1
102
RTVSPropertyOp30
 70
     1
102
RTVSPropertyOp31
 70
     1
102
RTVSPropertyOp32
 70
     1
102
RTVSPropertyOp33
 70
     1
102
RTVSPropertyOp34
 70
     1
102
RTVSPropertyOp35
 70
     1
102
RTVSPropertyOp36
 70
     1
102
RTVSPropertyOp37
 70
     1
102
RTVSPropertyOp38
 70
     1
102
RTVSPropertyOp39
 70
     1
102
RTVSPropertyOp40
 70
     1
102
RTVSPropertyOp41
 70
     1
102
RTVSPropertyOp42
 70
     1
102
RTVSPropertyOp43
 70
     1
102
RTVSPropertyOp44
 70
     1
102
RTVSPropertyOp45
 70
     1
102
RTVSPropertyOp46
 70
     1
102
RTVSPropertyOp47
 70
     1
102
RTVSPropertyOp48
 70
     1
102
RTVSPropertyOp49
 70
     1
102
RTVSPropertyOp50
 70
     1
102
RTVSPropertyOp51
 70
     0
102
RTVSPropertyOp52
 70
     0
102
RTVSPropertyOp53
 70
     1
102
RTVSPropertyOp54
 70
     1
102
RTVSPropertyOp55
 70
     1
102
RTVSPropertyOp56
 70
     1
102
RTVSPropertyOp57
 70
     1
102
RTVSPropertyOp58
 70
     1
102
RTVSPropertyOp59
 70
     1
102
RTVSPropertyOp60
 70
     1
102
RTVSPropertyOp61
 70
     1
102
RTVSPropertyOp62
 70
     1
  0
XRECORD
  5
1FE9
102
{ACAD_REACTORS
330
1FE8
102
}
330
1FE8
100
AcDbXrecord
280
     1
102
RTVSPost2010Prop28
280
     0
102
RTVSPost2010PropOp28
 70
     1
102
RTVSPost2010Prop29
280
     1
102
RTVSPost2010PropOp29
 70
     1
102
RTVSPost2010Prop30
280
     1
102
RTVSPost2010PropOp30
 70
     1
102
RTVSPost2010Prop31
280
     0
102
RTVSPost2010PropOp31
 70
     1
102
RTVSPost2010Prop32
280
     0
102
RTVSPost2010PropOp32
 70
     1
102
RTVSPost2010Prop33
280
     0
102
RTVSPost2010PropOp33
 70
     1
102
RTVSPost2010Prop34
280
     0
102
RTVSPost2010PropOp34
 70
     1
102
RTVSPost2010Prop35
280
     0
102
RTVSPost2010PropOp35
 70
     1
102
RTVSPost2010Prop36
280
     0
102
RTVSPost2010PropOp36
 70
     1
102
RTVSPost2010Prop37
 90
       50
102
RTVSPost2010PropOp37
 70
     1
102
RTVSPost2010Prop38
140
0.0
102
RTVSPost2010PropOp38
 70
     1
102
RTVSPost2010Prop39
140
1.0
102
RTVSPost2010PropOp39
 70
     1
102
RTVSPost2010Prop40
 90
        0
102
RTVSPost2010PropOp40
 70
     1
102
RTVSPost2010Prop41ColorIndex
 90
       18
102
RTVSPost2010Prop41ColorRGB
 90
        0
102
RTVSPost2010PropOp41
 70
     1
102
RTVSPost2010Prop42
 90
       50
102
RTVSPost2010PropOp42
 70
     1
102
RTVSPost2010Prop43
 90
        3
102
RTVSPost2010PropOp43
 70
     1
102
RTVSPost2010Prop44ColorIndex
 90
        5
102
RTVSPost2010Prop44ColorRGB
 90
      255
102
RTVSPost2010PropOp44
 70
     1
102
RTVSPost2010Prop45
280
     0
102
RTVSPost2010PropOp45
 70
     1
102
RTVSPost2010Prop46
 90
       50
102
RTVSPost2010PropOp46
 70
     1
102
RTVSPost2010Prop47
 90
       50
102
RTVSPost2010PropOp47
 70
     1
102
RTVSPost2010Prop48
 90
       50
102
RTVSPost2010PropOp48
 70
     1
102
RTVSPost2010Prop49
280
     0
102
RTVSPost2010PropOp49
 70
     1
102
RTVSPost2010Prop50
 90
       50
102
RTVSPost2010PropOp50
 70
     1
102
RTVSPost2010Prop51ColorIndex
 90
      256
102
RTVSPost2010Prop51ColorRGB
 90
-16777216
102
RTVSPost2010PropOp51
 70
     0
102
RTVSPost2010Prop52
140
1.0
102
RTVSPost2010PropOp52
 70
     0
102
RTVSPost2010Prop53
 90
        2
102
RTVSPost2010PropOp53
 70
     1
102
RTVSPost2010Prop54
  1
strokes_ogs.tif
102
RTVSPost2010PropOp54
 70
     1
102
RTVSPost2010Prop55
280
     0
102
RTVSPost2010PropOp55
 70
     1
102
RTVSPost2010Prop56
140
1.0
102
RTVSPost2010PropOp56
 70
     1
102
RTVSPost2010Prop57
140
1.0
102
RTVSPost2010PropOp57
 70
     1
102
RTVSPropertyOp0
 70
     1
102
RTVSPropertyOp1
 70
     1
102
RTVSPropertyOp2
 70
     1
102
RTVSPropertyOp3
 70
     1
102
RTVSPropertyOp4
 70
     1
102
RTVSPropertyOp5
 70
     1
102
RTVSPropertyOp6
 70
     1
102
RTVSPropertyOp7
 70
     1
102
RTVSPropertyOp8
 70
     1
102
RTVSPropertyOp9
 70
     1
102
RTVSPropertyOp10
 70
     1
102
RTVSPropertyOp11
 70
     1
102
RTVSPropertyOp12
 70
     1
102
RTVSPropertyOp13
 70
     1
102
RTVSPropertyOp14
 70
     1
102
RTVSPropertyOp15
 70
     1
102
RTVSPropertyOp16
 70
     1
102
RTVSPropertyOp17
 70
     1
102
RTVSPropertyOp18
 70
     1
102
RTVSPropertyOp19
 70
     1
102
RTVSPropertyOp20
 70
     1
102
RTVSPropertyOp21
 70
     1
102
RTVSPropertyOp22
 70
     1
102
RTVSPropertyOp23
 70
     1
102
RTVSPropertyOp24
 70
     1
102
RTVSPropertyOp25
 70
     1
102
RTVSPropertyOp26
 70
     1
102
RTVSPropertyOp27
 70
     1
102
RTVSPropertyOp28
 70
     1
102
RTVSPropertyOp29
 70
     1
102
RTVSPropertyOp30
 70
     1
102
RTVSPropertyOp31
 70
     1
102
RTVSPropertyOp32
 70
     1
102
RTVSPropertyOp33
 70
     1
102
RTVSPropertyOp34
 70
     1
102
RTVSPropertyOp35
 70
     1
102
RTVSPropertyOp36
 70
     1
102
RTVSPropertyOp37
 70
     1
102
RTVSPropertyOp38
 70
     1
102
RTVSPropertyOp39
 70
     1
102
RTVSPropertyOp40
 70
     1
102
RTVSPropertyOp41
 70
     1
102
RTVSPropertyOp42
 70
     1
102
RTVSPropertyOp43
 70
     1
102
RTVSPropertyOp44
 70
     1
102
RTVSPropertyOp45
 70
     1
102
RTVSPropertyOp46
 70
     1
102
RTVSPropertyOp47
 70
     1
102
RTVSPropertyOp48
 70
     1
102
RTVSPropertyOp49
 70
     1
102
RTVSPropertyOp50
 70
     1
102
RTVSPropertyOp51
 70
     0
102
RTVSPropertyOp52
 70
     0
102
RTVSPropertyOp53
 70
     1
102
RTVSPropertyOp54
 70
     1
102
RTVSPropertyOp55
 70
     1
102
RTVSPropertyOp56
 70
     1
102
RTVSPropertyOp57
 70
     1
102
RTVSPropertyOp58
 70
     1
102
RTVSPropertyOp59
 70
     1
102
RTVSPropertyOp60
 70
     1
102
RTVSPropertyOp61
 70
     1
102
RTVSPropertyOp62
 70
     1
  0
XRECORD
  5
1FEB
102
{ACAD_REACTORS
330
1FEA
102
}
330
1FEA
100
AcDbXrecord
280
     1
102
RTVSPost2010Prop28
280
     0
102
RTVSPost2010PropOp28
 70
     1
102
RTVSPost2010Prop29
280
     1
102
RTVSPost2010PropOp29
 70
     1
102
RTVSPost2010Prop30
280
     1
102
RTVSPost2010PropOp30
 70
     1
102
RTVSPost2010Prop31
280
     0
102
RTVSPost2010PropOp31
 70
     1
102
RTVSPost2010Prop32
280
     0
102
RTVSPost2010PropOp32
 70
     1
102
RTVSPost2010Prop33
280
     0
102
RTVSPost2010PropOp33
 70
     1
102
RTVSPost2010Prop34
280
     0
102
RTVSPost2010PropOp34
 70
     1
102
RTVSPost2010Prop35
280
     0
102
RTVSPost2010PropOp35
 70
     1
102
RTVSPost2010Prop36
280
     0
102
RTVSPost2010PropOp36
 70
     1
102
RTVSPost2010Prop37
 90
       50
102
RTVSPost2010PropOp37
 70
     1
102
RTVSPost2010Prop38
140
0.0
102
RTVSPost2010PropOp38
 70
     1
102
RTVSPost2010Prop39
140
1.0
102
RTVSPost2010PropOp39
 70
     1
102
RTVSPost2010Prop40
 90
        0
102
RTVSPost2010PropOp40
 70
     1
102
RTVSPost2010Prop41ColorIndex
 90
       18
102
RTVSPost2010Prop41ColorRGB
 90
        0
102
RTVSPost2010PropOp41
 70
     1
102
RTVSPost2010Prop42
 90
       50
102
RTVSPost2010PropOp42
 70
     1
102
RTVSPost2010Prop43
 90
        3
102
RTVSPost2010PropOp43
 70
     1
102
RTVSPost2010Prop44ColorIndex
 90
        5
102
RTVSPost2010Prop44ColorRGB
 90
      255
102
RTVSPost2010PropOp44
 70
     1
102
RTVSPost2010Prop45
280
     0
102
RTVSPost2010PropOp45
 70
     1
102
RTVSPost2010Prop46
 90
       50
102
RTVSPost2010PropOp46
 70
     1
102
RTVSPost2010Prop47
 90
       50
102
RTVSPost2010PropOp47
 70
     1
102
RTVSPost2010Prop48
 90
       50
102
RTVSPost2010PropOp48
 70
     1
102
RTVSPost2010Prop49
280
     0
102
RTVSPost2010PropOp49
 70
     1
102
RTVSPost2010Prop50
 90
       50
102
RTVSPost2010PropOp50
 70
     1
102
RTVSPost2010Prop51ColorIndex
 90
      256
102
RTVSPost2010Prop51ColorRGB
 90
-16777216
102
RTVSPost2010PropOp51
 70
     0
102
RTVSPost2010Prop52
140
1.0
102
RTVSPost2010PropOp52
 70
     0
102
RTVSPost2010Prop53
 90
        2
102
RTVSPost2010PropOp53
 70
     1
102
RTVSPost2010Prop54
  1
strokes_ogs.tif
102
RTVSPost2010PropOp54
 70
     1
102
RTVSPost2010Prop55
280
     0
102
RTVSPost2010PropOp55
 70
     1
102
RTVSPost2010Prop56
140
1.0
102
RTVSPost2010PropOp56
 70
     1
102
RTVSPost2010Prop57
140
1.0
102
RTVSPost2010PropOp57
 70
     1
102
RTVSPropertyOp0
 70
     1
102
RTVSPropertyOp1
 70
     1
102
RTVSPropertyOp2
 70
     1
102
RTVSPropertyOp3
 70
     1
102
RTVSPropertyOp4
 70
     1
102
RTVSPropertyOp5
 70
     1
102
RTVSPropertyOp6
 70
     1
102
RTVSPropertyOp7
 70
     1
102
RTVSPropertyOp8
 70
     1
102
RTVSPropertyOp9
 70
     1
102
RTVSPropertyOp10
 70
     1
102
RTVSPropertyOp11
 70
     1
102
RTVSPropertyOp12
 70
     1
102
RTVSPropertyOp13
 70
     1
102
RTVSPropertyOp14
 70
     1
102
RTVSPropertyOp15
 70
     1
102
RTVSPropertyOp16
 70
     1
102
RTVSPropertyOp17
 70
     1
102
RTVSPropertyOp18
 70
     1
102
RTVSPropertyOp19
 70
     1
102
RTVSPropertyOp20
 70
     1
102
RTVSPropertyOp21
 70
     1
102
RTVSPropertyOp22
 70
     1
102
RTVSPropertyOp23
 70
     1
102
RTVSPropertyOp24
 70
     1
102
RTVSPropertyOp25
 70
     1
102
RTVSPropertyOp26
 70
     1
102
RTVSPropertyOp27
 70
     1
102
RTVSPropertyOp28
 70
     1
102
RTVSPropertyOp29
 70
     1
102
RTVSPropertyOp30
 70
     1
102
RTVSPropertyOp31
 70
     1
102
RTVSPropertyOp32
 70
     1
102
RTVSPropertyOp33
 70
     1
102
RTVSPropertyOp34
 70
     1
102
RTVSPropertyOp35
 70
     1
102
RTVSPropertyOp36
 70
     1
102
RTVSPropertyOp37
 70
     1
102
RTVSPropertyOp38
 70
     1
102
RTVSPropertyOp39
 70
     1
102
RTVSPropertyOp40
 70
     1
102
RTVSPropertyOp41
 70
     1
102
RTVSPropertyOp42
 70
     1
102
RTVSPropertyOp43
 70
     1
102
RTVSPropertyOp44
 70
     1
102
RTVSPropertyOp45
 70
     1
102
RTVSPropertyOp46
 70
     1
102
RTVSPropertyOp47
 70
     1
102
RTVSPropertyOp48
 70
     1
102
RTVSPropertyOp49
 70
     1
102
RTVSPropertyOp50
 70
     1
102
RTVSPropertyOp51
 70
     0
102
RTVSPropertyOp52
 70
     0
102
RTVSPropertyOp53
 70
     1
102
RTVSPropertyOp54
 70
     1
102
RTVSPropertyOp55
 70
     1
102
RTVSPropertyOp56
 70
     1
102
RTVSPropertyOp57
 70
     1
102
RTVSPropertyOp58
 70
     1
102
RTVSPropertyOp59
 70
     1
102
RTVSPropertyOp60
 70
     1
102
RTVSPropertyOp61
 70
     1
102
RTVSPropertyOp62
 70
     1
  0
XRECORD
  5
1FED
102
{ACAD_REACTORS
330
1FEC
102
}
330
1FEC
100
AcDbXrecord
280
     1
102
RTVSPost2010Prop28
280
     0
102
RTVSPost2010PropOp28
 70
     1
102
RTVSPost2010Prop29
280
     1
102
RTVSPost2010PropOp29
 70
     1
102
RTVSPost2010Prop30
280
     1
102
RTVSPost2010PropOp30
 70
     1
102
RTVSPost2010Prop31
280
     0
102
RTVSPost2010PropOp31
 70
     1
102
RTVSPost2010Prop32
280
     0
102
RTVSPost2010PropOp32
 70
     1
102
RTVSPost2010Prop33
280
     0
102
RTVSPost2010PropOp33
 70
     1
102
RTVSPost2010Prop34
280
     0
102
RTVSPost2010PropOp34
 70
     1
102
RTVSPost2010Prop35
280
     0
102
RTVSPost2010PropOp35
 70
     1
102
RTVSPost2010Prop36
280
     0
102
RTVSPost2010PropOp36
 70
     1
102
RTVSPost2010Prop37
 90
       50
102
RTVSPost2010PropOp37
 70
     1
102
RTVSPost2010Prop38
140
0.0
102
RTVSPost2010PropOp38
 70
     1
102
RTVSPost2010Prop39
140
1.0
102
RTVSPost2010PropOp39
 70
     1
102
RTVSPost2010Prop40
 90
        0
102
RTVSPost2010PropOp40
 70
     1
102
RTVSPost2010Prop41ColorIndex
 90
       18
102
RTVSPost2010Prop41ColorRGB
 90
        0
102
RTVSPost2010PropOp41
 70
     1
102
RTVSPost2010Prop42
 90
       50
102
RTVSPost2010PropOp42
 70
     1
102
RTVSPost2010Prop43
 90
        3
102
RTVSPost2010PropOp43
 70
     1
102
RTVSPost2010Prop44ColorIndex
 90
        5
102
RTVSPost2010Prop44ColorRGB
 90
      255
102
RTVSPost2010PropOp44
 70
     1
102
RTVSPost2010Prop45
280
     0
102
RTVSPost2010PropOp45
 70
     1
102
RTVSPost2010Prop46
 90
       50
102
RTVSPost2010PropOp46
 70
     1
102
RTVSPost2010Prop47
 90
       50
102
RTVSPost2010PropOp47
 70
     1
102
RTVSPost2010Prop48
 90
       50
102
RTVSPost2010PropOp48
 70
     1
102
RTVSPost2010Prop49
280
     0
102
RTVSPost2010PropOp49
 70
     1
102
RTVSPost2010Prop50
 90
       50
102
RTVSPost2010PropOp50
 70
     1
102
RTVSPost2010Prop51ColorIndex
 90
      256
102
RTVSPost2010Prop51ColorRGB
 90
-16777216
102
RTVSPost2010PropOp51
 70
     0
102
RTVSPost2010Prop52
140
1.0
102
RTVSPost2010PropOp52
 70
     0
102
RTVSPost2010Prop53
 90
        2
102
RTVSPost2010PropOp53
 70
     1
102
RTVSPost2010Prop54
  1
strokes_ogs.tif
102
RTVSPost2010PropOp54
 70
     1
102
RTVSPost2010Prop55
280
     0
102
RTVSPost2010PropOp55
 70
     1
102
RTVSPost2010Prop56
140
1.0
102
RTVSPost2010PropOp56
 70
     1
102
RTVSPost2010Prop57
140
1.0
102
RTVSPost2010PropOp57
 70
     1
102
RTVSPropertyOp0
 70
     1
102
RTVSPropertyOp1
 70
     1
102
RTVSPropertyOp2
 70
     1
102
RTVSPropertyOp3
 70
     1
102
RTVSPropertyOp4
 70
     1
102
RTVSPropertyOp5
 70
     1
102
RTVSPropertyOp6
 70
     1
102
RTVSPropertyOp7
 70
     1
102
RTVSPropertyOp8
 70
     1
102
RTVSPropertyOp9
 70
     1
102
RTVSPropertyOp10
 70
     1
102
RTVSPropertyOp11
 70
     1
102
RTVSPropertyOp12
 70
     1
102
RTVSPropertyOp13
 70
     1
102
RTVSPropertyOp14
 70
     1
102
RTVSPropertyOp15
 70
     1
102
RTVSPropertyOp16
 70
     1
102
RTVSPropertyOp17
 70
     1
102
RTVSPropertyOp18
 70
     1
102
RTVSPropertyOp19
 70
     1
102
RTVSPropertyOp20
 70
     1
102
RTVSPropertyOp21
 70
     1
102
RTVSPropertyOp22
 70
     1
102
RTVSPropertyOp23
 70
     1
102
RTVSPropertyOp24
 70
     1
102
RTVSPropertyOp25
 70
     1
102
RTVSPropertyOp26
 70
     1
102
RTVSPropertyOp27
 70
     1
102
RTVSPropertyOp28
 70
     1
102
RTVSPropertyOp29
 70
     1
102
RTVSPropertyOp30
 70
     1
102
RTVSPropertyOp31
 70
     1
102
RTVSPropertyOp32
 70
     1
102
RTVSPropertyOp33
 70
     1
102
RTVSPropertyOp34
 70
     1
102
RTVSPropertyOp35
 70
     1
102
RTVSPropertyOp36
 70
     1
102
RTVSPropertyOp37
 70
     1
102
RTVSPropertyOp38
 70
     1
102
RTVSPropertyOp39
 70
     1
102
RTVSPropertyOp40
 70
     1
102
RTVSPropertyOp41
 70
     1
102
RTVSPropertyOp42
 70
     1
102
RTVSPropertyOp43
 70
     1
102
RTVSPropertyOp44
 70
     1
102
RTVSPropertyOp45
 70
     1
102
RTVSPropertyOp46
 70
     1
102
RTVSPropertyOp47
 70
     1
102
RTVSPropertyOp48
 70
     1
102
RTVSPropertyOp49
 70
     1
102
RTVSPropertyOp50
 70
     1
102
RTVSPropertyOp51
 70
     0
102
RTVSPropertyOp52
 70
     0
102
RTVSPropertyOp53
 70
     1
102
RTVSPropertyOp54
 70
     1
102
RTVSPropertyOp55
 70
     1
102
RTVSPropertyOp56
 70
     1
102
RTVSPropertyOp57
 70
     1
102
RTVSPropertyOp58
 70
     1
102
RTVSPropertyOp59
 70
     1
102
RTVSPropertyOp60
 70
     1
102
RTVSPropertyOp61
 70
     1
102
RTVSPropertyOp62
 70
     1
  0
XRECORD
  5
1FEF
102
{ACAD_REACTORS
330
1FEE
102
}
330
1FEE
100
AcDbXrecord
280
     1
102
RTVSPost2010Prop28
280
     0
102
RTVSPost2010PropOp28
 70
     1
102
RTVSPost2010Prop29
280
     1
102
RTVSPost2010PropOp29
 70
     1
102
RTVSPost2010Prop30
280
     1
102
RTVSPost2010PropOp30
 70
     1
102
RTVSPost2010Prop31
280
     0
102
RTVSPost2010PropOp31
 70
     1
102
RTVSPost2010Prop32
280
     0
102
RTVSPost2010PropOp32
 70
     1
102
RTVSPost2010Prop33
280
     0
102
RTVSPost2010PropOp33
 70
     1
102
RTVSPost2010Prop34
280
     0
102
RTVSPost2010PropOp34
 70
     1
102
RTVSPost2010Prop35
280
     0
102
RTVSPost2010PropOp35
 70
     1
102
RTVSPost2010Prop36
280
     0
102
RTVSPost2010PropOp36
 70
     1
102
RTVSPost2010Prop37
 90
       50
102
RTVSPost2010PropOp37
 70
     1
102
RTVSPost2010Prop38
140
0.0
102
RTVSPost2010PropOp38
 70
     1
102
RTVSPost2010Prop39
140
1.0
102
RTVSPost2010PropOp39
 70
     1
102
RTVSPost2010Prop40
 90
        0
102
RTVSPost2010PropOp40
 70
     1
102
RTVSPost2010Prop41ColorIndex
 90
       18
102
RTVSPost2010Prop41ColorRGB
 90
        0
102
RTVSPost2010PropOp41
 70
     1
102
RTVSPost2010Prop42
 90
       50
102
RTVSPost2010PropOp42
 70
     1
102
RTVSPost2010Prop43
 90
        3
102
RTVSPost2010PropOp43
 70
     1
102
RTVSPost2010Prop44ColorIndex
 90
        5
102
RTVSPost2010Prop44ColorRGB
 90
      255
102
RTVSPost2010PropOp44
 70
     1
102
RTVSPost2010Prop45
280
     0
102
RTVSPost2010PropOp45
 70
     1
102
RTVSPost2010Prop46
 90
       50
102
RTVSPost2010PropOp46
 70
     1
102
RTVSPost2010Prop47
 90
       50
102
RTVSPost2010PropOp47
 70
     1
102
RTVSPost2010Prop48
 90
       50
102
RTVSPost2010PropOp48
 70
     1
102
RTVSPost2010Prop49
280
     0
102
RTVSPost2010PropOp49
 70
     1
102
RTVSPost2010Prop50
 90
       50
102
RTVSPost2010PropOp50
 70
     1
102
RTVSPost2010Prop51ColorIndex
 90
      256
102
RTVSPost2010Prop51ColorRGB
 90
-16777216
102
RTVSPost2010PropOp51
 70
     0
102
RTVSPost2010Prop52
140
1.0
102
RTVSPost2010PropOp52
 70
     0
102
RTVSPost2010Prop53
 90
        2
102
RTVSPost2010PropOp53
 70
     1
102
RTVSPost2010Prop54
  1
strokes_ogs.tif
102
RTVSPost2010PropOp54
 70
     1
102
RTVSPost2010Prop55
280
     0
102
RTVSPost2010PropOp55
 70
     1
102
RTVSPost2010Prop56
140
1.0
102
RTVSPost2010PropOp56
 70
     1
102
RTVSPost2010Prop57
140
1.0
102
RTVSPost2010PropOp57
 70
     1
102
RTVSPropertyOp0
 70
     1
102
RTVSPropertyOp1
 70
     1
102
RTVSPropertyOp2
 70
     1
102
RTVSPropertyOp3
 70
     1
102
RTVSPropertyOp4
 70
     1
102
RTVSPropertyOp5
 70
     1
102
RTVSPropertyOp6
 70
     1
102
RTVSPropertyOp7
 70
     1
102
RTVSPropertyOp8
 70
     1
102
RTVSPropertyOp9
 70
     1
102
RTVSPropertyOp10
 70
     1
102
RTVSPropertyOp11
 70
     1
102
RTVSPropertyOp12
 70
     1
102
RTVSPropertyOp13
 70
     1
102
RTVSPropertyOp14
 70
     1
102
RTVSPropertyOp15
 70
     1
102
RTVSPropertyOp16
 70
     1
102
RTVSPropertyOp17
 70
     1
102
RTVSPropertyOp18
 70
     1
102
RTVSPropertyOp19
 70
     1
102
RTVSPropertyOp20
 70
     1
102
RTVSPropertyOp21
 70
     1
102
RTVSPropertyOp22
 70
     1
102
RTVSPropertyOp23
 70
     1
102
RTVSPropertyOp24
 70
     1
102
RTVSPropertyOp25
 70
     1
102
RTVSPropertyOp26
 70
     1
102
RTVSPropertyOp27
 70
     1
102
RTVSPropertyOp28
 70
     1
102
RTVSPropertyOp29
 70
     1
102
RTVSPropertyOp30
 70
     1
102
RTVSPropertyOp31
 70
     1
102
RTVSPropertyOp32
 70
     1
102
RTVSPropertyOp33
 70
     1
102
RTVSPropertyOp34
 70
     1
102
RTVSPropertyOp35
 70
     1
102
RTVSPropertyOp36
 70
     1
102
RTVSPropertyOp37
 70
     1
102
RTVSPropertyOp38
 70
     1
102
RTVSPropertyOp39
 70
     1
102
RTVSPropertyOp40
 70
     1
102
RTVSPropertyOp41
 70
     1
102
RTVSPropertyOp42
 70
     1
102
RTVSPropertyOp43
 70
     1
102
RTVSPropertyOp44
 70
     1
102
RTVSPropertyOp45
 70
     1
102
RTVSPropertyOp46
 70
     1
102
RTVSPropertyOp47
 70
     1
102
RTVSPropertyOp48
 70
     1
102
RTVSPropertyOp49
 70
     1
102
RTVSPropertyOp50
 70
     1
102
RTVSPropertyOp51
 70
     0
102
RTVSPropertyOp52
 70
     0
102
RTVSPropertyOp53
 70
     1
102
RTVSPropertyOp54
 70
     1
102
RTVSPropertyOp55
 70
     1
102
RTVSPropertyOp56
 70
     1
102
RTVSPropertyOp57
 70
     1
102
RTVSPropertyOp58
 70
     1
102
RTVSPropertyOp59
 70
     1
102
RTVSPropertyOp60
 70
     1
102
RTVSPropertyOp61
 70
     1
102
RTVSPropertyOp62
 70
     1
  0
XRECORD
  5
1FF7
102
{ACAD_REACTORS
330
1FF6
102
}
330
1FF6
100
AcDbXrecord
280
     1
102
RTVSPost2010Prop28
280
     0
102
RTVSPost2010PropOp28
 70
     1
102
RTVSPost2010Prop29
280
     1
102
RTVSPost2010PropOp29
 70
     1
102
RTVSPost2010Prop30
280
     1
102
RTVSPost2010PropOp30
 70
     1
102
RTVSPost2010Prop31
280
     0
102
RTVSPost2010PropOp31
 70
     1
102
RTVSPost2010Prop32
280
     0
102
RTVSPost2010PropOp32
 70
     1
102
RTVSPost2010Prop33
280
     0
102
RTVSPost2010PropOp33
 70
     1
102
RTVSPost2010Prop34
280
     0
102
RTVSPost2010PropOp34
 70
     1
102
RTVSPost2010Prop35
280
     0
102
RTVSPost2010PropOp35
 70
     1
102
RTVSPost2010Prop36
280
     0
102
RTVSPost2010PropOp36
 70
     1
102
RTVSPost2010Prop37
 90
       50
102
RTVSPost2010PropOp37
 70
     1
102
RTVSPost2010Prop38
140
0.0
102
RTVSPost2010PropOp38
 70
     1
102
RTVSPost2010Prop39
140
1.0
102
RTVSPost2010PropOp39
 70
     1
102
RTVSPost2010Prop40
 90
        0
102
RTVSPost2010PropOp40
 70
     1
102
RTVSPost2010Prop41ColorIndex
 90
       18
102
RTVSPost2010Prop41ColorRGB
 90
        0
102
RTVSPost2010PropOp41
 70
     1
102
RTVSPost2010Prop42
 90
       50
102
RTVSPost2010PropOp42
 70
     1
102
RTVSPost2010Prop43
 90
        3
102
RTVSPost2010PropOp43
 70
     1
102
RTVSPost2010Prop44ColorIndex
 90
        5
102
RTVSPost2010Prop44ColorRGB
 90
      255
102
RTVSPost2010PropOp44
 70
     1
102
RTVSPost2010Prop45
280
     0
102
RTVSPost2010PropOp45
 70
     1
102
RTVSPost2010Prop46
 90
       50
102
RTVSPost2010PropOp46
 70
     1
102
RTVSPost2010Prop47
 90
       50
102
RTVSPost2010PropOp47
 70
     1
102
RTVSPost2010Prop48
 90
       50
102
RTVSPost2010PropOp48
 70
     1
102
RTVSPost2010Prop49
280
     0
102
RTVSPost2010PropOp49
 70
     1
102
RTVSPost2010Prop50
 90
       50
102
RTVSPost2010PropOp50
 70
     1
102
RTVSPost2010Prop51ColorIndex
 90
      256
102
RTVSPost2010Prop51ColorRGB
 90
-16777216
102
RTVSPost2010PropOp51
 70
     0
102
RTVSPost2010Prop52
140
1.0
102
RTVSPost2010PropOp52
 70
     0
102
RTVSPost2010Prop53
 90
        2
102
RTVSPost2010PropOp53
 70
     1
102
RTVSPost2010Prop54
  1
strokes_ogs.tif
102
RTVSPost2010PropOp54
 70
     1
102
RTVSPost2010Prop55
280
     0
102
RTVSPost2010PropOp55
 70
     1
102
RTVSPost2010Prop56
140
1.0
102
RTVSPost2010PropOp56
 70
     1
102
RTVSPost2010Prop57
140
1.0
102
RTVSPost2010PropOp57
 70
     1
102
RTVSPropertyOp0
 70
     1
102
RTVSPropertyOp1
 70
     1
102
RTVSPropertyOp2
 70
     1
102
RTVSPropertyOp3
 70
     1
102
RTVSPropertyOp4
 70
     1
102
RTVSPropertyOp5
 70
     1
102
RTVSPropertyOp6
 70
     1
102
RTVSPropertyOp7
 70
     1
102
RTVSPropertyOp8
 70
     1
102
RTVSPropertyOp9
 70
     1
102
RTVSPropertyOp10
 70
     1
102
RTVSPropertyOp11
 70
     1
102
RTVSPropertyOp12
 70
     1
102
RTVSPropertyOp13
 70
     1
102
RTVSPropertyOp14
 70
     1
102
RTVSPropertyOp15
 70
     1
102
RTVSPropertyOp16
 70
     1
102
RTVSPropertyOp17
 70
     1
102
RTVSPropertyOp18
 70
     1
102
RTVSPropertyOp19
 70
     1
102
RTVSPropertyOp20
 70
     1
102
RTVSPropertyOp21
 70
     1
102
RTVSPropertyOp22
 70
     1
102
RTVSPropertyOp23
 70
     1
102
RTVSPropertyOp24
 70
     1
102
RTVSPropertyOp25
 70
     1
102
RTVSPropertyOp26
 70
     1
102
RTVSPropertyOp27
 70
     1
102
RTVSPropertyOp28
 70
     1
102
RTVSPropertyOp29
 70
     1
102
RTVSPropertyOp30
 70
     1
102
RTVSPropertyOp31
 70
     1
102
RTVSPropertyOp32
 70
     1
102
RTVSPropertyOp33
 70
     1
102
RTVSPropertyOp34
 70
     1
102
RTVSPropertyOp35
 70
     1
102
RTVSPropertyOp36
 70
     1
102
RTVSPropertyOp37
 70
     1
102
RTVSPropertyOp38
 70
     1
102
RTVSPropertyOp39
 70
     1
102
RTVSPropertyOp40
 70
     1
102
RTVSPropertyOp41
 70
     1
102
RTVSPropertyOp42
 70
     1
102
RTVSPropertyOp43
 70
     1
102
RTVSPropertyOp44
 70
     1
102
RTVSPropertyOp45
 70
     1
102
RTVSPropertyOp46
 70
     1
102
RTVSPropertyOp47
 70
     1
102
RTVSPropertyOp48
 70
     1
102
RTVSPropertyOp49
 70
     1
102
RTVSPropertyOp50
 70
     1
102
RTVSPropertyOp51
 70
     0
102
RTVSPropertyOp52
 70
     0
102
RTVSPropertyOp53
 70
     1
102
RTVSPropertyOp54
 70
     1
102
RTVSPropertyOp55
 70
     1
102
RTVSPropertyOp56
 70
     1
102
RTVSPropertyOp57
 70
     1
102
RTVSPropertyOp58
 70
     1
102
RTVSPropertyOp59
 70
     1
102
RTVSPropertyOp60
 70
     1
102
RTVSPropertyOp61
 70
     1
102
RTVSPropertyOp62
 70
     1
  0
XRECORD
  5
2013
102
{ACAD_REACTORS
330
2012
102
}
330
2012
100
AcDbXrecord
280
     1
102
RTVSPost2010Prop28
280
     0
102
RTVSPost2010PropOp28
 70
     0
102
RTVSPost2010Prop29
280
     1
102
RTVSPost2010PropOp29
 70
     0
102
RTVSPost2010Prop30
280
     1
102
RTVSPost2010PropOp30
 70
     0
102
RTVSPost2010Prop31
280
     0
102
RTVSPost2010PropOp31
 70
     0
102
RTVSPost2010Prop32
280
     0
102
RTVSPost2010PropOp32
 70
     0
102
RTVSPost2010Prop33
280
     0
102
RTVSPost2010PropOp33
 70
     0
102
RTVSPost2010Prop34
280
     0
102
RTVSPost2010PropOp34
 70
     0
102
RTVSPost2010Prop35
280
     0
102
RTVSPost2010PropOp35
 70
     0
102
RTVSPost2010Prop36
280
     0
102
RTVSPost2010PropOp36
 70
     0
102
RTVSPost2010Prop37
 90
       50
102
RTVSPost2010PropOp37
 70
     0
102
RTVSPost2010Prop38
140
0.0
102
RTVSPost2010PropOp38
 70
     0
102
RTVSPost2010Prop39
140
1.0
102
RTVSPost2010PropOp39
 70
     0
102
RTVSPost2010Prop40
 90
        0
102
RTVSPost2010PropOp40
 70
     0
102
RTVSPost2010Prop41ColorIndex
 90
       18
102
RTVSPost2010Prop41ColorRGB
 90
        0
102
RTVSPost2010PropOp41
 70
     0
102
RTVSPost2010Prop42
 90
       50
102
RTVSPost2010PropOp42
 70
     0
102
RTVSPost2010Prop43
 90
        3
102
RTVSPost2010PropOp43
 70
     0
102
RTVSPost2010Prop44ColorIndex
 90
        5
102
RTVSPost2010Prop44ColorRGB
 90
      255
102
RTVSPost2010PropOp44
 70
     0
102
RTVSPost2010Prop45
280
     0
102
RTVSPost2010PropOp45
 70
     0
102
RTVSPost2010Prop46
 90
       50
102
RTVSPost2010PropOp46
 70
     0
102
RTVSPost2010Prop47
 90
       50
102
RTVSPost2010PropOp47
 70
     0
102
RTVSPost2010Prop48
 90
       50
102
RTVSPost2010PropOp48
 70
     0
102
RTVSPost2010Prop49
280
     0
102
RTVSPost2010PropOp49
 70
     0
102
RTVSPost2010Prop50
 90
       50
102
RTVSPost2010PropOp50
 70
     0
102
RTVSPost2010Prop51ColorIndex
 90
      256
102
RTVSPost2010Prop51ColorRGB
 90
-16777216
102
RTVSPost2010PropOp51
 70
     0
102
RTVSPost2010Prop52
140
1.0
102
RTVSPost2010PropOp52
 70
     0
102
RTVSPost2010Prop53
 90
        2
102
RTVSPost2010PropOp53
 70
     0
102
RTVSPost2010Prop54
  1
strokes_ogs.tif
102
RTVSPost2010PropOp54
 70
     0
102
RTVSPost2010Prop55
280
     0
102
RTVSPost2010PropOp55
 70
     0
102
RTVSPost2010Prop56
140
1.0
102
RTVSPost2010PropOp56
 70
     0
102
RTVSPost2010Prop57
140
1.0
102
RTVSPost2010PropOp57
 70
     0
102
RTVSPropertyOp0
 70
     0
102
RTVSPropertyOp1
 70
     0
102
RTVSPropertyOp2
 70
     0
102
RTVSPropertyOp3
 70
     0
102
RTVSPropertyOp4
 70
     0
102
RTVSPropertyOp5
 70
     0
102
RTVSPropertyOp6
 70
     0
102
RTVSPropertyOp7
 70
     0
102
RTVSPropertyOp8
 70
     0
102
RTVSPropertyOp9
 70
     0
102
RTVSPropertyOp10
 70
     0
102
RTVSPropertyOp11
 70
     0
102
RTVSPropertyOp12
 70
     0
102
RTVSPropertyOp13
 70
     0
102
RTVSPropertyOp14
 70
     2
102
RTVSPropertyOp15
 70
     0
102
RTVSPropertyOp16
 70
     0
102
RTVSPropertyOp17
 70
     0
102
RTVSPropertyOp18
 70
     0
102
RTVSPropertyOp19
 70
     0
102
RTVSPropertyOp20
 70
     0
102
RTVSPropertyOp21
 70
     0
102
RTVSPropertyOp22
 70
     0
102
RTVSPropertyOp23
 70
     0
102
RTVSPropertyOp24
 70
     0
102
RTVSPropertyOp25
 70
     0
102
RTVSPropertyOp26
 70
     0
102
RTVSPropertyOp27
 70
     0
102
RTVSPropertyOp28
 70
     0
102
RTVSPropertyOp29
 70
     0
102
RTVSPropertyOp30
 70
     0
102
RTVSPropertyOp31
 70
     0
102
RTVSPropertyOp32
 70
     0
102
RTVSPropertyOp33
 70
     0
102
RTVSPropertyOp34
 70
     0
102
RTVSPropertyOp35
 70
     0
102
RTVSPropertyOp36
 70
     0
102
RTVSPropertyOp37
 70
     0
102
RTVSPropertyOp38
 70
     0
102
RTVSPropertyOp39
 70
     0
102
RTVSPropertyOp40
 70
     0
102
RTVSPropertyOp41
 70
     0
102
RTVSPropertyOp42
 70
     0
102
RTVSPropertyOp43
 70
     0
102
RTVSPropertyOp44
 70
     0
102
RTVSPropertyOp45
 70
     0
102
RTVSPropertyOp46
 70
     0
102
RTVSPropertyOp47
 70
     0
102
RTVSPropertyOp48
 70
     0
102
RTVSPropertyOp49
 70
     0
102
RTVSPropertyOp50
 70
     0
102
RTVSPropertyOp51
 70
     0
102
RTVSPropertyOp52
 70
     0
102
RTVSPropertyOp53
 70
     0
102
RTVSPropertyOp54
 70
     0
102
RTVSPropertyOp55
 70
     0
102
RTVSPropertyOp56
 70
     0
102
RTVSPropertyOp57
 70
     0
102
RTVSPropertyOp58
 70
     0
102
RTVSPropertyOp59
 70
     0
102
RTVSPropertyOp60
 70
     0
102
RTVSPropertyOp61
 70
     0
102
RTVSPropertyOp62
 70
     0
  0
XRECORD
  5
2003
102
{ACAD_REACTORS
330
2002
102
}
330
2002
100
AcDbXrecord
280
     1
102
RTVSPost2010Prop28
280
     0
102
RTVSPost2010PropOp28
 70
     1
102
RTVSPost2010Prop29
280
     1
102
RTVSPost2010PropOp29
 70
     1
102
RTVSPost2010Prop30
280
     1
102
RTVSPost2010PropOp30
 70
     1
102
RTVSPost2010Prop31
280
     0
102
RTVSPost2010PropOp31
 70
     1
102
RTVSPost2010Prop32
280
     0
102
RTVSPost2010PropOp32
 70
     1
102
RTVSPost2010Prop33
280
     0
102
RTVSPost2010PropOp33
 70
     1
102
RTVSPost2010Prop34
280
     0
102
RTVSPost2010PropOp34
 70
     1
102
RTVSPost2010Prop35
280
     0
102
RTVSPost2010PropOp35
 70
     1
102
RTVSPost2010Prop36
280
     0
102
RTVSPost2010PropOp36
 70
     1
102
RTVSPost2010Prop37
 90
       50
102
RTVSPost2010PropOp37
 70
     1
102
RTVSPost2010Prop38
140
0.0
102
RTVSPost2010PropOp38
 70
     1
102
RTVSPost2010Prop39
140
1.0
102
RTVSPost2010PropOp39
 70
     1
102
RTVSPost2010Prop40
 90
        0
102
RTVSPost2010PropOp40
 70
     1
102
RTVSPost2010Prop41ColorIndex
 90
       18
102
RTVSPost2010Prop41ColorRGB
 90
        0
102
RTVSPost2010PropOp41
 70
     1
102
RTVSPost2010Prop42
 90
       50
102
RTVSPost2010PropOp42
 70
     1
102
RTVSPost2010Prop43
 90
        3
102
RTVSPost2010PropOp43
 70
     1
102
RTVSPost2010Prop44ColorIndex
 90
        5
102
RTVSPost2010Prop44ColorRGB
 90
      255
102
RTVSPost2010PropOp44
 70
     1
102
RTVSPost2010Prop45
280
     0
102
RTVSPost2010PropOp45
 70
     1
102
RTVSPost2010Prop46
 90
       50
102
RTVSPost2010PropOp46
 70
     1
102
RTVSPost2010Prop47
 90
       50
102
RTVSPost2010PropOp47
 70
     1
102
RTVSPost2010Prop48
 90
       50
102
RTVSPost2010PropOp48
 70
     1
102
RTVSPost2010Prop49
280
     0
102
RTVSPost2010PropOp49
 70
     1
102
RTVSPost2010Prop50
 90
       50
102
RTVSPost2010PropOp50
 70
     1
102
RTVSPost2010Prop51ColorIndex
 90
      256
102
RTVSPost2010Prop51ColorRGB
 90
-16777216
102
RTVSPost2010PropOp51
 70
     0
102
RTVSPost2010Prop52
140
1.0
102
RTVSPost2010PropOp52
 70
     0
102
RTVSPost2010Prop53
 90
        2
102
RTVSPost2010PropOp53
 70
     1
102
RTVSPost2010Prop54
  1
strokes_ogs.tif
102
RTVSPost2010PropOp54
 70
     1
102
RTVSPost2010Prop55
280
     0
102
RTVSPost2010PropOp55
 70
     1
102
RTVSPost2010Prop56
140
1.0
102
RTVSPost2010PropOp56
 70
     1
102
RTVSPost2010Prop57
140
1.0
102
RTVSPost2010PropOp57
 70
     1
102
RTVSPropertyOp0
 70
     1
102
RTVSPropertyOp1
 70
     1
102
RTVSPropertyOp2
 70
     1
102
RTVSPropertyOp3
 70
     1
102
RTVSPropertyOp4
 70
     1
102
RTVSPropertyOp5
 70
     1
102
RTVSPropertyOp6
 70
     1
102
RTVSPropertyOp7
 70
     1
102
RTVSPropertyOp8
 70
     1
102
RTVSPropertyOp9
 70
     1
102
RTVSPropertyOp10
 70
     1
102
RTVSPropertyOp11
 70
     1
102
RTVSPropertyOp12
 70
     1
102
RTVSPropertyOp13
 70
     1
102
RTVSPropertyOp14
 70
     1
102
RTVSPropertyOp15
 70
     1
102
RTVSPropertyOp16
 70
     1
102
RTVSPropertyOp17
 70
     1
102
RTVSPropertyOp18
 70
     1
102
RTVSPropertyOp19
 70
     1
102
RTVSPropertyOp20
 70
     1
102
RTVSPropertyOp21
 70
     1
102
RTVSPropertyOp22
 70
     1
102
RTVSPropertyOp23
 70
     1
102
RTVSPropertyOp24
 70
     1
102
RTVSPropertyOp25
 70
     1
102
RTVSPropertyOp26
 70
     1
102
RTVSPropertyOp27
 70
     1
102
RTVSPropertyOp28
 70
     1
102
RTVSPropertyOp29
 70
     1
102
RTVSPropertyOp30
 70
     1
102
RTVSPropertyOp31
 70
     1
102
RTVSPropertyOp32
 70
     1
102
RTVSPropertyOp33
 70
     1
102
RTVSPropertyOp34
 70
     1
102
RTVSPropertyOp35
 70
     1
102
RTVSPropertyOp36
 70
     1
102
RTVSPropertyOp37
 70
     1
102
RTVSPropertyOp38
 70
     1
102
RTVSPropertyOp39
 70
     1
102
RTVSPropertyOp40
 70
     1
102
RTVSPropertyOp41
 70
     1
102
RTVSPropertyOp42
 70
     1
102
RTVSPropertyOp43
 70
     1
102
RTVSPropertyOp44
 70
     1
102
RTVSPropertyOp45
 70
     1
102
RTVSPropertyOp46
 70
     1
102
RTVSPropertyOp47
 70
     1
102
RTVSPropertyOp48
 70
     1
102
RTVSPropertyOp49
 70
     1
102
RTVSPropertyOp50
 70
     1
102
RTVSPropertyOp51
 70
     0
102
RTVSPropertyOp52
 70
     0
102
RTVSPropertyOp53
 70
     1
102
RTVSPropertyOp54
 70
     1
102
RTVSPropertyOp55
 70
     1
102
RTVSPropertyOp56
 70
     1
102
RTVSPropertyOp57
 70
     1
102
RTVSPropertyOp58
 70
     1
102
RTVSPropertyOp59
 70
     1
102
RTVSPropertyOp60
 70
     1
102
RTVSPropertyOp61
 70
     1
102
RTVSPropertyOp62
 70
     1
  0
XRECORD
  5
2015
102
{ACAD_REACTORS
330
2014
102
}
330
2014
100
AcDbXrecord
280
     1
102
RTVSPost2010Prop28
280
     0
102
RTVSPost2010PropOp28
 70
     0
102
RTVSPost2010Prop29
280
     1
102
RTVSPost2010PropOp29
 70
     0
102
RTVSPost2010Prop30
280
     1
102
RTVSPost2010PropOp30
 70
     0
102
RTVSPost2010Prop31
280
     0
102
RTVSPost2010PropOp31
 70
     0
102
RTVSPost2010Prop32
280
     0
102
RTVSPost2010PropOp32
 70
     0
102
RTVSPost2010Prop33
280
     0
102
RTVSPost2010PropOp33
 70
     0
102
RTVSPost2010Prop34
280
     0
102
RTVSPost2010PropOp34
 70
     0
102
RTVSPost2010Prop35
280
     0
102
RTVSPost2010PropOp35
 70
     0
102
RTVSPost2010Prop36
280
     0
102
RTVSPost2010PropOp36
 70
     0
102
RTVSPost2010Prop37
 90
       50
102
RTVSPost2010PropOp37
 70
     0
102
RTVSPost2010Prop38
140
0.0
102
RTVSPost2010PropOp38
 70
     0
102
RTVSPost2010Prop39
140
1.0
102
RTVSPost2010PropOp39
 70
     0
102
RTVSPost2010Prop40
 90
        0
102
RTVSPost2010PropOp40
 70
     0
102
RTVSPost2010Prop41ColorIndex
 90
       18
102
RTVSPost2010Prop41ColorRGB
 90
        0
102
RTVSPost2010PropOp41
 70
     0
102
RTVSPost2010Prop42
 90
       50
102
RTVSPost2010PropOp42
 70
     0
102
RTVSPost2010Prop43
 90
        3
102
RTVSPost2010PropOp43
 70
     0
102
RTVSPost2010Prop44ColorIndex
 90
        5
102
RTVSPost2010Prop44ColorRGB
 90
      255
102
RTVSPost2010PropOp44
 70
     0
102
RTVSPost2010Prop45
280
     0
102
RTVSPost2010PropOp45
 70
     0
102
RTVSPost2010Prop46
 90
       50
102
RTVSPost2010PropOp46
 70
     0
102
RTVSPost2010Prop47
 90
       50
102
RTVSPost2010PropOp47
 70
     0
102
RTVSPost2010Prop48
 90
       50
102
RTVSPost2010PropOp48
 70
     0
102
RTVSPost2010Prop49
280
     0
102
RTVSPost2010PropOp49
 70
     0
102
RTVSPost2010Prop50
 90
       50
102
RTVSPost2010PropOp50
 70
     0
102
RTVSPost2010Prop51ColorIndex
 90
      256
102
RTVSPost2010Prop51ColorRGB
 90
-16777216
102
RTVSPost2010PropOp51
 70
     0
102
RTVSPost2010Prop52
140
1.0
102
RTVSPost2010PropOp52
 70
     0
102
RTVSPost2010Prop53
 90
        2
102
RTVSPost2010PropOp53
 70
     0
102
RTVSPost2010Prop54
  1
strokes_ogs.tif
102
RTVSPost2010PropOp54
 70
     0
102
RTVSPost2010Prop55
280
     0
102
RTVSPost2010PropOp55
 70
     0
102
RTVSPost2010Prop56
140
1.0
102
RTVSPost2010PropOp56
 70
     0
102
RTVSPost2010Prop57
140
1.0
102
RTVSPost2010PropOp57
 70
     0
102
RTVSPropertyOp0
 70
     0
102
RTVSPropertyOp1
 70
     0
102
RTVSPropertyOp2
 70
     0
102
RTVSPropertyOp3
 70
     0
102
RTVSPropertyOp4
 70
     0
102
RTVSPropertyOp5
 70
     0
102
RTVSPropertyOp6
 70
     0
102
RTVSPropertyOp7
 70
     0
102
RTVSPropertyOp8
 70
     0
102
RTVSPropertyOp9
 70
     0
102
RTVSPropertyOp10
 70
     0
102
RTVSPropertyOp11
 70
     0
102
RTVSPropertyOp12
 70
     0
102
RTVSPropertyOp13
 70
     0
102
RTVSPropertyOp14
 70
     2
102
RTVSPropertyOp15
 70
     0
102
RTVSPropertyOp16
 70
     0
102
RTVSPropertyOp17
 70
     0
102
RTVSPropertyOp18
 70
     0
102
RTVSPropertyOp19
 70
     0
102
RTVSPropertyOp20
 70
     0
102
RTVSPropertyOp21
 70
     0
102
RTVSPropertyOp22
 70
     0
102
RTVSPropertyOp23
 70
     0
102
RTVSPropertyOp24
 70
     0
102
RTVSPropertyOp25
 70
     0
102
RTVSPropertyOp26
 70
     0
102
RTVSPropertyOp27
 70
     0
102
RTVSPropertyOp28
 70
     0
102
RTVSPropertyOp29
 70
     0
102
RTVSPropertyOp30
 70
     0
102
RTVSPropertyOp31
 70
     0
102
RTVSPropertyOp32
 70
     0
102
RTVSPropertyOp33
 70
     0
102
RTVSPropertyOp34
 70
     0
102
RTVSPropertyOp35
 70
     0
102
RTVSPropertyOp36
 70
     0
102
RTVSPropertyOp37
 70
     0
102
RTVSPropertyOp38
 70
     0
102
RTVSPropertyOp39
 70
     0
102
RTVSPropertyOp40
 70
     0
102
RTVSPropertyOp41
 70
     0
102
RTVSPropertyOp42
 70
     0
102
RTVSPropertyOp43
 70
     0
102
RTVSPropertyOp44
 70
     0
102
RTVSPropertyOp45
 70
     0
102
RTVSPropertyOp46
 70
     0
102
RTVSPropertyOp47
 70
     0
102
RTVSPropertyOp48
 70
     0
102
RTVSPropertyOp49
 70
     0
102
RTVSPropertyOp50
 70
     0
102
RTVSPropertyOp51
 70
     0
102
RTVSPropertyOp52
 70
     0
102
RTVSPropertyOp53
 70
     0
102
RTVSPropertyOp54
 70
     0
102
RTVSPropertyOp55
 70
     0
102
RTVSPropertyOp56
 70
     0
102
RTVSPropertyOp57
 70
     0
102
RTVSPropertyOp58
 70
     0
102
RTVSPropertyOp59
 70
     0
102
RTVSPropertyOp60
 70
     0
102
RTVSPropertyOp61
 70
     0
102
RTVSPropertyOp62
 70
     0
  0
XRECORD
  5
1FFB
102
{ACAD_REACTORS
330
1FFA
102
}
330
1FFA
100
AcDbXrecord
280
     1
102
RTVSPost2010Prop28
280
     0
102
RTVSPost2010PropOp28
 70
     1
102
RTVSPost2010Prop29
280
     1
102
RTVSPost2010PropOp29
 70
     1
102
RTVSPost2010Prop30
280
     1
102
RTVSPost2010PropOp30
 70
     1
102
RTVSPost2010Prop31
280
     0
102
RTVSPost2010PropOp31
 70
     1
102
RTVSPost2010Prop32
280
     0
102
RTVSPost2010PropOp32
 70
     1
102
RTVSPost2010Prop33
280
     0
102
RTVSPost2010PropOp33
 70
     1
102
RTVSPost2010Prop34
280
     0
102
RTVSPost2010PropOp34
 70
     1
102
RTVSPost2010Prop35
280
     0
102
RTVSPost2010PropOp35
 70
     1
102
RTVSPost2010Prop36
280
     0
102
RTVSPost2010PropOp36
 70
     1
102
RTVSPost2010Prop37
 90
       50
102
RTVSPost2010PropOp37
 70
     1
102
RTVSPost2010Prop38
140
0.0
102
RTVSPost2010PropOp38
 70
     1
102
RTVSPost2010Prop39
140
1.0
102
RTVSPost2010PropOp39
 70
     1
102
RTVSPost2010Prop40
 90
        0
102
RTVSPost2010PropOp40
 70
     1
102
RTVSPost2010Prop41ColorIndex
 90
       18
102
RTVSPost2010Prop41ColorRGB
 90
        0
102
RTVSPost2010PropOp41
 70
     1
102
RTVSPost2010Prop42
 90
       50
102
RTVSPost2010PropOp42
 70
     1
102
RTVSPost2010Prop43
 90
        3
102
RTVSPost2010PropOp43
 70
     1
102
RTVSPost2010Prop44ColorIndex
 90
        5
102
RTVSPost2010Prop44ColorRGB
 90
      255
102
RTVSPost2010PropOp44
 70
     1
102
RTVSPost2010Prop45
280
     0
102
RTVSPost2010PropOp45
 70
     1
102
RTVSPost2010Prop46
 90
       50
102
RTVSPost2010PropOp46
 70
     1
102
RTVSPost2010Prop47
 90
       50
102
RTVSPost2010PropOp47
 70
     1
102
RTVSPost2010Prop48
 90
       50
102
RTVSPost2010PropOp48
 70
     1
102
RTVSPost2010Prop49
280
     0
102
RTVSPost2010PropOp49
 70
     1
102
RTVSPost2010Prop50
 90
       50
102
RTVSPost2010PropOp50
 70
     1
102
RTVSPost2010Prop51ColorIndex
 90
      256
102
RTVSPost2010Prop51ColorRGB
 90
-16777216
102
RTVSPost2010PropOp51
 70
     0
102
RTVSPost2010Prop52
140
1.0
102
RTVSPost2010PropOp52
 70
     0
102
RTVSPost2010Prop53
 90
        2
102
RTVSPost2010PropOp53
 70
     1
102
RTVSPost2010Prop54
  1
strokes_ogs.tif
102
RTVSPost2010PropOp54
 70
     1
102
RTVSPost2010Prop55
280
     0
102
RTVSPost2010PropOp55
 70
     1
102
RTVSPost2010Prop56
140
1.0
102
RTVSPost2010PropOp56
 70
     1
102
RTVSPost2010Prop57
140
1.0
102
RTVSPost2010PropOp57
 70
     1
102
RTVSPropertyOp0
 70
     1
102
RTVSPropertyOp1
 70
     1
102
RTVSPropertyOp2
 70
     1
102
RTVSPropertyOp3
 70
     1
102
RTVSPropertyOp4
 70
     1
102
RTVSPropertyOp5
 70
     1
102
RTVSPropertyOp6
 70
     1
102
RTVSPropertyOp7
 70
     1
102
RTVSPropertyOp8
 70
     1
102
RTVSPropertyOp9
 70
     1
102
RTVSPropertyOp10
 70
     1
102
RTVSPropertyOp11
 70
     1
102
RTVSPropertyOp12
 70
     1
102
RTVSPropertyOp13
 70
     1
102
RTVSPropertyOp14
 70
     1
102
RTVSPropertyOp15
 70
     1
102
RTVSPropertyOp16
 70
     1
102
RTVSPropertyOp17
 70
     1
102
RTVSPropertyOp18
 70
     1
102
RTVSPropertyOp19
 70
     1
102
RTVSPropertyOp20
 70
     1
102
RTVSPropertyOp21
 70
     1
102
RTVSPropertyOp22
 70
     1
102
RTVSPropertyOp23
 70
     1
102
RTVSPropertyOp24
 70
     1
102
RTVSPropertyOp25
 70
     1
102
RTVSPropertyOp26
 70
     1
102
RTVSPropertyOp27
 70
     1
102
RTVSPropertyOp28
 70
     1
102
RTVSPropertyOp29
 70
     1
102
RTVSPropertyOp30
 70
     1
102
RTVSPropertyOp31
 70
     1
102
RTVSPropertyOp32
 70
     1
102
RTVSPropertyOp33
 70
     1
102
RTVSPropertyOp34
 70
     1
102
RTVSPropertyOp35
 70
     1
102
RTVSPropertyOp36
 70
     1
102
RTVSPropertyOp37
 70
     1
102
RTVSPropertyOp38
 70
     1
102
RTVSPropertyOp39
 70
     1
102
RTVSPropertyOp40
 70
     1
102
RTVSPropertyOp41
 70
     1
102
RTVSPropertyOp42
 70
     1
102
RTVSPropertyOp43
 70
     1
102
RTVSPropertyOp44
 70
     1
102
RTVSPropertyOp45
 70
     1
102
RTVSPropertyOp46
 70
     1
102
RTVSPropertyOp47
 70
     1
102
RTVSPropertyOp48
 70
     1
102
RTVSPropertyOp49
 70
     1
102
RTVSPropertyOp50
 70
     1
102
RTVSPropertyOp51
 70
     0
102
RTVSPropertyOp52
 70
     0
102
RTVSPropertyOp53
 70
     1
102
RTVSPropertyOp54
 70
     1
102
RTVSPropertyOp55
 70
     1
102
RTVSPropertyOp56
 70
     1
102
RTVSPropertyOp57
 70
     1
102
RTVSPropertyOp58
 70
     1
102
RTVSPropertyOp59
 70
     1
102
RTVSPropertyOp60
 70
     1
102
RTVSPropertyOp61
 70
     1
102
RTVSPropertyOp62
 70
     1
  0
XRECORD
  5
2011
102
{ACAD_REACTORS
330
2010
102
}
330
2010
100
AcDbXrecord
280
     1
102
RTVSPost2010Prop28
280
     0
102
RTVSPost2010PropOp28
 70
     1
102
RTVSPost2010Prop29
280
     1
102
RTVSPost2010PropOp29
 70
     1
102
RTVSPost2010Prop30
280
     1
102
RTVSPost2010PropOp30
 70
     1
102
RTVSPost2010Prop31
280
     0
102
RTVSPost2010PropOp31
 70
     1
102
RTVSPost2010Prop32
280
     0
102
RTVSPost2010PropOp32
 70
     1
102
RTVSPost2010Prop33
280
     0
102
RTVSPost2010PropOp33
 70
     1
102
RTVSPost2010Prop34
280
     0
102
RTVSPost2010PropOp34
 70
     1
102
RTVSPost2010Prop35
280
     0
102
RTVSPost2010PropOp35
 70
     1
102
RTVSPost2010Prop36
280
     0
102
RTVSPost2010PropOp36
 70
     1
102
RTVSPost2010Prop37
 90
       50
102
RTVSPost2010PropOp37
 70
     1
102
RTVSPost2010Prop38
140
0.0
102
RTVSPost2010PropOp38
 70
     1
102
RTVSPost2010Prop39
140
1.0
102
RTVSPost2010PropOp39
 70
     1
102
RTVSPost2010Prop40
 90
        0
102
RTVSPost2010PropOp40
 70
     1
102
RTVSPost2010Prop41ColorIndex
 90
       18
102
RTVSPost2010Prop41ColorRGB
 90
        0
102
RTVSPost2010PropOp41
 70
     1
102
RTVSPost2010Prop42
 90
       50
102
RTVSPost2010PropOp42
 70
     1
102
RTVSPost2010Prop43
 90
        3
102
RTVSPost2010PropOp43
 70
     1
102
RTVSPost2010Prop44ColorIndex
 90
        5
102
RTVSPost2010Prop44ColorRGB
 90
      255
102
RTVSPost2010PropOp44
 70
     1
102
RTVSPost2010Prop45
280
     0
102
RTVSPost2010PropOp45
 70
     1
102
RTVSPost2010Prop46
 90
       50
102
RTVSPost2010PropOp46
 70
     1
102
RTVSPost2010Prop47
 90
       50
102
RTVSPost2010PropOp47
 70
     1
102
RTVSPost2010Prop48
 90
       50
102
RTVSPost2010PropOp48
 70
     1
102
RTVSPost2010Prop49
280
     0
102
RTVSPost2010PropOp49
 70
     1
102
RTVSPost2010Prop50
 90
       50
102
RTVSPost2010PropOp50
 70
     1
102
RTVSPost2010Prop51ColorIndex
 90
      256
102
RTVSPost2010Prop51ColorRGB
 90
-16777216
102
RTVSPost2010PropOp51
 70
     0
102
RTVSPost2010Prop52
140
1.0
102
RTVSPost2010PropOp52
 70
     0
102
RTVSPost2010Prop53
 90
        2
102
RTVSPost2010PropOp53
 70
     1
102
RTVSPost2010Prop54
  1
strokes_ogs.tif
102
RTVSPost2010PropOp54
 70
     1
102
RTVSPost2010Prop55
280
     0
102
RTVSPost2010PropOp55
 70
     1
102
RTVSPost2010Prop56
140
1.0
102
RTVSPost2010PropOp56
 70
     1
102
RTVSPost2010Prop57
140
1.0
102
RTVSPost2010PropOp57
 70
     1
102
RTVSPropertyOp0
 70
     1
102
RTVSPropertyOp1
 70
     1
102
RTVSPropertyOp2
 70
     1
102
RTVSPropertyOp3
 70
     1
102
RTVSPropertyOp4
 70
     1
102
RTVSPropertyOp5
 70
     1
102
RTVSPropertyOp6
 70
     1
102
RTVSPropertyOp7
 70
     1
102
RTVSPropertyOp8
 70
     1
102
RTVSPropertyOp9
 70
     1
102
RTVSPropertyOp10
 70
     1
102
RTVSPropertyOp11
 70
     1
102
RTVSPropertyOp12
 70
     1
102
RTVSPropertyOp13
 70
     1
102
RTVSPropertyOp14
 70
     1
102
RTVSPropertyOp15
 70
     1
102
RTVSPropertyOp16
 70
     1
102
RTVSPropertyOp17
 70
     1
102
RTVSPropertyOp18
 70
     1
102
RTVSPropertyOp19
 70
     1
102
RTVSPropertyOp20
 70
     1
102
RTVSPropertyOp21
 70
     1
102
RTVSPropertyOp22
 70
     1
102
RTVSPropertyOp23
 70
     1
102
RTVSPropertyOp24
 70
     1
102
RTVSPropertyOp25
 70
     1
102
RTVSPropertyOp26
 70
     1
102
RTVSPropertyOp27
 70
     1
102
RTVSPropertyOp28
 70
     1
102
RTVSPropertyOp29
 70
     1
102
RTVSPropertyOp30
 70
     1
102
RTVSPropertyOp31
 70
     1
102
RTVSPropertyOp32
 70
     1
102
RTVSPropertyOp33
 70
     1
102
RTVSPropertyOp34
 70
     1
102
RTVSPropertyOp35
 70
     1
102
RTVSPropertyOp36
 70
     1
102
RTVSPropertyOp37
 70
     1
102
RTVSPropertyOp38
 70
     1
102
RTVSPropertyOp39
 70
     1
102
RTVSPropertyOp40
 70
     1
102
RTVSPropertyOp41
 70
     1
102
RTVSPropertyOp42
 70
     1
102
RTVSPropertyOp43
 70
     1
102
RTVSPropertyOp44
 70
     1
102
RTVSPropertyOp45
 70
     1
102
RTVSPropertyOp46
 70
     1
102
RTVSPropertyOp47
 70
     1
102
RTVSPropertyOp48
 70
     1
102
RTVSPropertyOp49
 70
     1
102
RTVSPropertyOp50
 70
     1
102
RTVSPropertyOp51
 70
     0
102
RTVSPropertyOp52
 70
     0
102
RTVSPropertyOp53
 70
     1
102
RTVSPropertyOp54
 70
     1
102
RTVSPropertyOp55
 70
     1
102
RTVSPropertyOp56
 70
     1
102
RTVSPropertyOp57
 70
     1
102
RTVSPropertyOp58
 70
     1
102
RTVSPropertyOp59
 70
     1
102
RTVSPropertyOp60
 70
     1
102
RTVSPropertyOp61
 70
     1
102
RTVSPropertyOp62
 70
     1
  0
XRECORD
  5
200F
102
{ACAD_REACTORS
330
200E
102
}
330
200E
100
AcDbXrecord
280
     1
102
RTVSPost2010Prop28
280
     0
102
RTVSPost2010PropOp28
 70
     1
102
RTVSPost2010Prop29
280
     1
102
RTVSPost2010PropOp29
 70
     1
102
RTVSPost2010Prop30
280
     1
102
RTVSPost2010PropOp30
 70
     1
102
RTVSPost2010Prop31
280
     0
102
RTVSPost2010PropOp31
 70
     1
102
RTVSPost2010Prop32
280
     0
102
RTVSPost2010PropOp32
 70
     1
102
RTVSPost2010Prop33
280
     0
102
RTVSPost2010PropOp33
 70
     1
102
RTVSPost2010Prop34
280
     0
102
RTVSPost2010PropOp34
 70
     1
102
RTVSPost2010Prop35
280
     0
102
RTVSPost2010PropOp35
 70
     1
102
RTVSPost2010Prop36
280
     0
102
RTVSPost2010PropOp36
 70
     1
102
RTVSPost2010Prop37
 90
       50
102
RTVSPost2010PropOp37
 70
     1
102
RTVSPost2010Prop38
140
0.0
102
RTVSPost2010PropOp38
 70
     1
102
RTVSPost2010Prop39
140
1.0
102
RTVSPost2010PropOp39
 70
     1
102
RTVSPost2010Prop40
 90
        0
102
RTVSPost2010PropOp40
 70
     1
102
RTVSPost2010Prop41ColorIndex
 90
       18
102
RTVSPost2010Prop41ColorRGB
 90
        0
102
RTVSPost2010PropOp41
 70
     1
102
RTVSPost2010Prop42
 90
       50
102
RTVSPost2010PropOp42
 70
     1
102
RTVSPost2010Prop43
 90
        3
102
RTVSPost2010PropOp43
 70
     1
102
RTVSPost2010Prop44ColorIndex
 90
        5
102
RTVSPost2010Prop44ColorRGB
 90
      255
102
RTVSPost2010PropOp44
 70
     1
102
RTVSPost2010Prop45
280
     0
102
RTVSPost2010PropOp45
 70
     1
102
RTVSPost2010Prop46
 90
       50
102
RTVSPost2010PropOp46
 70
     1
102
RTVSPost2010Prop47
 90
       50
102
RTVSPost2010PropOp47
 70
     1
102
RTVSPost2010Prop48
 90
       50
102
RTVSPost2010PropOp48
 70
     1
102
RTVSPost2010Prop49
280
     0
102
RTVSPost2010PropOp49
 70
     1
102
RTVSPost2010Prop50
 90
       50
102
RTVSPost2010PropOp50
 70
     1
102
RTVSPost2010Prop51ColorIndex
 90
      256
102
RTVSPost2010Prop51ColorRGB
 90
-16777216
102
RTVSPost2010PropOp51
 70
     0
102
RTVSPost2010Prop52
140
1.0
102
RTVSPost2010PropOp52
 70
     0
102
RTVSPost2010Prop53
 90
        2
102
RTVSPost2010PropOp53
 70
     1
102
RTVSPost2010Prop54
  1
strokes_ogs.tif
102
RTVSPost2010PropOp54
 70
     1
102
RTVSPost2010Prop55
280
     0
102
RTVSPost2010PropOp55
 70
     1
102
RTVSPost2010Prop56
140
1.0
102
RTVSPost2010PropOp56
 70
     1
102
RTVSPost2010Prop57
140
1.0
102
RTVSPost2010PropOp57
 70
     1
102
RTVSPropertyOp0
 70
     1
102
RTVSPropertyOp1
 70
     1
102
RTVSPropertyOp2
 70
     1
102
RTVSPropertyOp3
 70
     1
102
RTVSPropertyOp4
 70
     1
102
RTVSPropertyOp5
 70
     1
102
RTVSPropertyOp6
 70
     1
102
RTVSPropertyOp7
 70
     1
102
RTVSPropertyOp8
 70
     1
102
RTVSPropertyOp9
 70
     1
102
RTVSPropertyOp10
 70
     1
102
RTVSPropertyOp11
 70
     1
102
RTVSPropertyOp12
 70
     1
102
RTVSPropertyOp13
 70
     1
102
RTVSPropertyOp14
 70
     1
102
RTVSPropertyOp15
 70
     1
102
RTVSPropertyOp16
 70
     1
102
RTVSPropertyOp17
 70
     1
102
RTVSPropertyOp18
 70
     1
102
RTVSPropertyOp19
 70
     1
102
RTVSPropertyOp20
 70
     1
102
RTVSPropertyOp21
 70
     1
102
RTVSPropertyOp22
 70
     1
102
RTVSPropertyOp23
 70
     1
102
RTVSPropertyOp24
 70
     1
102
RTVSPropertyOp25
 70
     1
102
RTVSPropertyOp26
 70
     1
102
RTVSPropertyOp27
 70
     1
102
RTVSPropertyOp28
 70
     1
102
RTVSPropertyOp29
 70
     1
102
RTVSPropertyOp30
 70
     1
102
RTVSPropertyOp31
 70
     1
102
RTVSPropertyOp32
 70
     1
102
RTVSPropertyOp33
 70
     1
102
RTVSPropertyOp34
 70
     1
102
RTVSPropertyOp35
 70
     1
102
RTVSPropertyOp36
 70
     1
102
RTVSPropertyOp37
 70
     1
102
RTVSPropertyOp38
 70
     1
102
RTVSPropertyOp39
 70
     1
102
RTVSPropertyOp40
 70
     1
102
RTVSPropertyOp41
 70
     1
102
RTVSPropertyOp42
 70
     1
102
RTVSPropertyOp43
 70
     1
102
RTVSPropertyOp44
 70
     1
102
RTVSPropertyOp45
 70
     1
102
RTVSPropertyOp46
 70
     1
102
RTVSPropertyOp47
 70
     1
102
RTVSPropertyOp48
 70
     1
102
RTVSPropertyOp49
 70
     1
102
RTVSPropertyOp50
 70
     1
102
RTVSPropertyOp51
 70
     0
102
RTVSPropertyOp52
 70
     0
102
RTVSPropertyOp53
 70
     1
102
RTVSPropertyOp54
 70
     1
102
RTVSPropertyOp55
 70
     1
102
RTVSPropertyOp56
 70
     1
102
RTVSPropertyOp57
 70
     1
102
RTVSPropertyOp58
 70
     1
102
RTVSPropertyOp59
 70
     1
102
RTVSPropertyOp60
 70
     1
102
RTVSPropertyOp61
 70
     1
102
RTVSPropertyOp62
 70
     1
  0
XRECORD
  5
2009
102
{ACAD_REACTORS
330
2008
102
}
330
2008
100
AcDbXrecord
280
     1
102
RTVSPost2010Prop28
280
     0
102
RTVSPost2010PropOp28
 70
     1
102
RTVSPost2010Prop29
280
     1
102
RTVSPost2010PropOp29
 70
     1
102
RTVSPost2010Prop30
280
     1
102
RTVSPost2010PropOp30
 70
     1
102
RTVSPost2010Prop31
280
     0
102
RTVSPost2010PropOp31
 70
     1
102
RTVSPost2010Prop32
280
     0
102
RTVSPost2010PropOp32
 70
     1
102
RTVSPost2010Prop33
280
     0
102
RTVSPost2010PropOp33
 70
     1
102
RTVSPost2010Prop34
280
     0
102
RTVSPost2010PropOp34
 70
     1
102
RTVSPost2010Prop35
280
     0
102
RTVSPost2010PropOp35
 70
     1
102
RTVSPost2010Prop36
280
     0
102
RTVSPost2010PropOp36
 70
     1
102
RTVSPost2010Prop37
 90
       50
102
RTVSPost2010PropOp37
 70
     1
102
RTVSPost2010Prop38
140
0.0
102
RTVSPost2010PropOp38
 70
     1
102
RTVSPost2010Prop39
140
1.0
102
RTVSPost2010PropOp39
 70
     1
102
RTVSPost2010Prop40
 90
        0
102
RTVSPost2010PropOp40
 70
     1
102
RTVSPost2010Prop41ColorIndex
 90
       18
102
RTVSPost2010Prop41ColorRGB
 90
        0
102
RTVSPost2010PropOp41
 70
     1
102
RTVSPost2010Prop42
 90
       50
102
RTVSPost2010PropOp42
 70
     1
102
RTVSPost2010Prop43
 90
        3
102
RTVSPost2010PropOp43
 70
     1
102
RTVSPost2010Prop44ColorIndex
 90
        5
102
RTVSPost2010Prop44ColorRGB
 90
      255
102
RTVSPost2010PropOp44
 70
     1
102
RTVSPost2010Prop45
280
     0
102
RTVSPost2010PropOp45
 70
     1
102
RTVSPost2010Prop46
 90
       50
102
RTVSPost2010PropOp46
 70
     1
102
RTVSPost2010Prop47
 90
       50
102
RTVSPost2010PropOp47
 70
     1
102
RTVSPost2010Prop48
 90
       50
102
RTVSPost2010PropOp48
 70
     1
102
RTVSPost2010Prop49
280
     0
102
RTVSPost2010PropOp49
 70
     1
102
RTVSPost2010Prop50
 90
       50
102
RTVSPost2010PropOp50
 70
     1
102
RTVSPost2010Prop51ColorIndex
 90
      256
102
RTVSPost2010Prop51ColorRGB
 90
-16777216
102
RTVSPost2010PropOp51
 70
     0
102
RTVSPost2010Prop52
140
1.0
102
RTVSPost2010PropOp52
 70
     0
102
RTVSPost2010Prop53
 90
        2
102
RTVSPost2010PropOp53
 70
     1
102
RTVSPost2010Prop54
  1
strokes_ogs.tif
102
RTVSPost2010PropOp54
 70
     1
102
RTVSPost2010Prop55
280
     0
102
RTVSPost2010PropOp55
 70
     1
102
RTVSPost2010Prop56
140
1.0
102
RTVSPost2010PropOp56
 70
     1
102
RTVSPost2010Prop57
140
1.0
102
RTVSPost2010PropOp57
 70
     1
102
RTVSPropertyOp0
 70
     1
102
RTVSPropertyOp1
 70
     1
102
RTVSPropertyOp2
 70
     1
102
RTVSPropertyOp3
 70
     1
102
RTVSPropertyOp4
 70
     1
102
RTVSPropertyOp5
 70
     1
102
RTVSPropertyOp6
 70
     1
102
RTVSPropertyOp7
 70
     1
102
RTVSPropertyOp8
 70
     1
102
RTVSPropertyOp9
 70
     1
102
RTVSPropertyOp10
 70
     1
102
RTVSPropertyOp11
 70
     1
102
RTVSPropertyOp12
 70
     1
102
RTVSPropertyOp13
 70
     1
102
RTVSPropertyOp14
 70
     1
102
RTVSPropertyOp15
 70
     1
102
RTVSPropertyOp16
 70
     1
102
RTVSPropertyOp17
 70
     1
102
RTVSPropertyOp18
 70
     1
102
RTVSPropertyOp19
 70
     1
102
RTVSPropertyOp20
 70
     1
102
RTVSPropertyOp21
 70
     1
102
RTVSPropertyOp22
 70
     1
102
RTVSPropertyOp23
 70
     1
102
RTVSPropertyOp24
 70
     1
102
RTVSPropertyOp25
 70
     1
102
RTVSPropertyOp26
 70
     1
102
RTVSPropertyOp27
 70
     1
102
RTVSPropertyOp28
 70
     1
102
RTVSPropertyOp29
 70
     1
102
RTVSPropertyOp30
 70
     1
102
RTVSPropertyOp31
 70
     1
102
RTVSPropertyOp32
 70
     1
102
RTVSPropertyOp33
 70
     1
102
RTVSPropertyOp34
 70
     1
102
RTVSPropertyOp35
 70
     1
102
RTVSPropertyOp36
 70
     1
102
RTVSPropertyOp37
 70
     1
102
RTVSPropertyOp38
 70
     1
102
RTVSPropertyOp39
 70
     1
102
RTVSPropertyOp40
 70
     1
102
RTVSPropertyOp41
 70
     1
102
RTVSPropertyOp42
 70
     1
102
RTVSPropertyOp43
 70
     1
102
RTVSPropertyOp44
 70
     1
102
RTVSPropertyOp45
 70
     1
102
RTVSPropertyOp46
 70
     1
102
RTVSPropertyOp47
 70
     1
102
RTVSPropertyOp48
 70
     1
102
RTVSPropertyOp49
 70
     1
102
RTVSPropertyOp50
 70
     1
102
RTVSPropertyOp51
 70
     0
102
RTVSPropertyOp52
 70
     0
102
RTVSPropertyOp53
 70
     1
102
RTVSPropertyOp54
 70
     1
102
RTVSPropertyOp55
 70
     1
102
RTVSPropertyOp56
 70
     1
102
RTVSPropertyOp57
 70
     1
102
RTVSPropertyOp58
 70
     1
102
RTVSPropertyOp59
 70
     1
102
RTVSPropertyOp60
 70
     1
102
RTVSPropertyOp61
 70
     1
102
RTVSPropertyOp62
 70
     1
  0
XRECORD
  5
200B
102
{ACAD_REACTORS
330
200A
102
}
330
200A
100
AcDbXrecord
280
     1
102
RTVSPost2010Prop28
280
     0
102
RTVSPost2010PropOp28
 70
     1
102
RTVSPost2010Prop29
280
     1
102
RTVSPost2010PropOp29
 70
     1
102
RTVSPost2010Prop30
280
     1
102
RTVSPost2010PropOp30
 70
     1
102
RTVSPost2010Prop31
280
     0
102
RTVSPost2010PropOp31
 70
     1
102
RTVSPost2010Prop32
280
     0
102
RTVSPost2010PropOp32
 70
     1
102
RTVSPost2010Prop33
280
     0
102
RTVSPost2010PropOp33
 70
     1
102
RTVSPost2010Prop34
280
     0
102
RTVSPost2010PropOp34
 70
     1
102
RTVSPost2010Prop35
280
     0
102
RTVSPost2010PropOp35
 70
     1
102
RTVSPost2010Prop36
280
     0
102
RTVSPost2010PropOp36
 70
     1
102
RTVSPost2010Prop37
 90
       50
102
RTVSPost2010PropOp37
 70
     1
102
RTVSPost2010Prop38
140
0.0
102
RTVSPost2010PropOp38
 70
     1
102
RTVSPost2010Prop39
140
1.0
102
RTVSPost2010PropOp39
 70
     1
102
RTVSPost2010Prop40
 90
        0
102
RTVSPost2010PropOp40
 70
     1
102
RTVSPost2010Prop41ColorIndex
 90
       18
102
RTVSPost2010Prop41ColorRGB
 90
        0
102
RTVSPost2010PropOp41
 70
     1
102
RTVSPost2010Prop42
 90
       50
102
RTVSPost2010PropOp42
 70
     1
102
RTVSPost2010Prop43
 90
        3
102
RTVSPost2010PropOp43
 70
     1
102
RTVSPost2010Prop44ColorIndex
 90
        5
102
RTVSPost2010Prop44ColorRGB
 90
      255
102
RTVSPost2010PropOp44
 70
     1
102
RTVSPost2010Prop45
280
     0
102
RTVSPost2010PropOp45
 70
     1
102
RTVSPost2010Prop46
 90
       50
102
RTVSPost2010PropOp46
 70
     1
102
RTVSPost2010Prop47
 90
       50
102
RTVSPost2010PropOp47
 70
     1
102
RTVSPost2010Prop48
 90
       50
102
RTVSPost2010PropOp48
 70
     1
102
RTVSPost2010Prop49
280
     0
102
RTVSPost2010PropOp49
 70
     1
102
RTVSPost2010Prop50
 90
       50
102
RTVSPost2010PropOp50
 70
     1
102
RTVSPost2010Prop51ColorIndex
 90
      256
102
RTVSPost2010Prop51ColorRGB
 90
-16777216
102
RTVSPost2010PropOp51
 70
     0
102
RTVSPost2010Prop52
140
1.0
102
RTVSPost2010PropOp52
 70
     0
102
RTVSPost2010Prop53
 90
        2
102
RTVSPost2010PropOp53
 70
     1
102
RTVSPost2010Prop54
  1
strokes_ogs.tif
102
RTVSPost2010PropOp54
 70
     1
102
RTVSPost2010Prop55
280
     0
102
RTVSPost2010PropOp55
 70
     1
102
RTVSPost2010Prop56
140
1.0
102
RTVSPost2010PropOp56
 70
     1
102
RTVSPost2010Prop57
140
1.0
102
RTVSPost2010PropOp57
 70
     1
102
RTVSPropertyOp0
 70
     1
102
RTVSPropertyOp1
 70
     1
102
RTVSPropertyOp2
 70
     1
102
RTVSPropertyOp3
 70
     1
102
RTVSPropertyOp4
 70
     1
102
RTVSPropertyOp5
 70
     1
102
RTVSPropertyOp6
 70
     1
102
RTVSPropertyOp7
 70
     1
102
RTVSPropertyOp8
 70
     1
102
RTVSPropertyOp9
 70
     1
102
RTVSPropertyOp10
 70
     1
102
RTVSPropertyOp11
 70
     1
102
RTVSPropertyOp12
 70
     1
102
RTVSPropertyOp13
 70
     1
102
RTVSPropertyOp14
 70
     1
102
RTVSPropertyOp15
 70
     1
102
RTVSPropertyOp16
 70
     1
102
RTVSPropertyOp17
 70
     1
102
RTVSPropertyOp18
 70
     1
102
RTVSPropertyOp19
 70
     1
102
RTVSPropertyOp20
 70
     1
102
RTVSPropertyOp21
 70
     1
102
RTVSPropertyOp22
 70
     1
102
RTVSPropertyOp23
 70
     1
102
RTVSPropertyOp24
 70
     1
102
RTVSPropertyOp25
 70
     1
102
RTVSPropertyOp26
 70
     1
102
RTVSPropertyOp27
 70
     1
102
RTVSPropertyOp28
 70
     1
102
RTVSPropertyOp29
 70
     1
102
RTVSPropertyOp30
 70
     1
102
RTVSPropertyOp31
 70
     1
102
RTVSPropertyOp32
 70
     1
102
RTVSPropertyOp33
 70
     1
102
RTVSPropertyOp34
 70
     1
102
RTVSPropertyOp35
 70
     1
102
RTVSPropertyOp36
 70
     1
102
RTVSPropertyOp37
 70
     1
102
RTVSPropertyOp38
 70
     1
102
RTVSPropertyOp39
 70
     1
102
RTVSPropertyOp40
 70
     1
102
RTVSPropertyOp41
 70
     1
102
RTVSPropertyOp42
 70
     1
102
RTVSPropertyOp43
 70
     1
102
RTVSPropertyOp44
 70
     1
102
RTVSPropertyOp45
 70
     1
102
RTVSPropertyOp46
 70
     1
102
RTVSPropertyOp47
 70
     1
102
RTVSPropertyOp48
 70
     1
102
RTVSPropertyOp49
 70
     1
102
RTVSPropertyOp50
 70
     1
102
RTVSPropertyOp51
 70
     0
102
RTVSPropertyOp52
 70
     0
102
RTVSPropertyOp53
 70
     1
102
RTVSPropertyOp54
 70
     1
102
RTVSPropertyOp55
 70
     1
102
RTVSPropertyOp56
 70
     1
102
RTVSPropertyOp57
 70
     1
102
RTVSPropertyOp58
 70
     1
102
RTVSPropertyOp59
 70
     1
102
RTVSPropertyOp60
 70
     1
102
RTVSPropertyOp61
 70
     1
102
RTVSPropertyOp62
 70
     1
  0
XRECORD
  5
2001
102
{ACAD_REACTORS
330
2000
102
}
330
2000
100
AcDbXrecord
280
     1
102
RTVSPost2010Prop28
280
     0
102
RTVSPost2010PropOp28
 70
     1
102
RTVSPost2010Prop29
280
     1
102
RTVSPost2010PropOp29
 70
     1
102
RTVSPost2010Prop30
280
     1
102
RTVSPost2010PropOp30
 70
     1
102
RTVSPost2010Prop31
280
     0
102
RTVSPost2010PropOp31
 70
     1
102
RTVSPost2010Prop32
280
     0
102
RTVSPost2010PropOp32
 70
     1
102
RTVSPost2010Prop33
280
     0
102
RTVSPost2010PropOp33
 70
     1
102
RTVSPost2010Prop34
280
     0
102
RTVSPost2010PropOp34
 70
     1
102
RTVSPost2010Prop35
280
     0
102
RTVSPost2010PropOp35
 70
     1
102
RTVSPost2010Prop36
280
     0
102
RTVSPost2010PropOp36
 70
     1
102
RTVSPost2010Prop37
 90
       50
102
RTVSPost2010PropOp37
 70
     1
102
RTVSPost2010Prop38
140
0.0
102
RTVSPost2010PropOp38
 70
     1
102
RTVSPost2010Prop39
140
1.0
102
RTVSPost2010PropOp39
 70
     1
102
RTVSPost2010Prop40
 90
        0
102
RTVSPost2010PropOp40
 70
     1
102
RTVSPost2010Prop41ColorIndex
 90
       18
102
RTVSPost2010Prop41ColorRGB
 90
        0
102
RTVSPost2010PropOp41
 70
     1
102
RTVSPost2010Prop42
 90
       50
102
RTVSPost2010PropOp42
 70
     1
102
RTVSPost2010Prop43
 90
        3
102
RTVSPost2010PropOp43
 70
     1
102
RTVSPost2010Prop44ColorIndex
 90
        5
102
RTVSPost2010Prop44ColorRGB
 90
      255
102
RTVSPost2010PropOp44
 70
     1
102
RTVSPost2010Prop45
280
     0
102
RTVSPost2010PropOp45
 70
     1
102
RTVSPost2010Prop46
 90
       50
102
RTVSPost2010PropOp46
 70
     1
102
RTVSPost2010Prop47
 90
       50
102
RTVSPost2010PropOp47
 70
     1
102
RTVSPost2010Prop48
 90
       50
102
RTVSPost2010PropOp48
 70
     1
102
RTVSPost2010Prop49
280
     0
102
RTVSPost2010PropOp49
 70
     1
102
RTVSPost2010Prop50
 90
       50
102
RTVSPost2010PropOp50
 70
     1
102
RTVSPost2010Prop51ColorIndex
 90
      256
102
RTVSPost2010Prop51ColorRGB
 90
-16777216
102
RTVSPost2010PropOp51
 70
     0
102
RTVSPost2010Prop52
140
1.0
102
RTVSPost2010PropOp52
 70
     0
102
RTVSPost2010Prop53
 90
        2
102
RTVSPost2010PropOp53
 70
     1
102
RTVSPost2010Prop54
  1
strokes_ogs.tif
102
RTVSPost2010PropOp54
 70
     1
102
RTVSPost2010Prop55
280
     0
102
RTVSPost2010PropOp55
 70
     1
102
RTVSPost2010Prop56
140
1.0
102
RTVSPost2010PropOp56
 70
     1
102
RTVSPost2010Prop57
140
1.0
102
RTVSPost2010PropOp57
 70
     1
102
RTVSPropertyOp0
 70
     1
102
RTVSPropertyOp1
 70
     1
102
RTVSPropertyOp2
 70
     1
102
RTVSPropertyOp3
 70
     1
102
RTVSPropertyOp4
 70
     1
102
RTVSPropertyOp5
 70
     1
102
RTVSPropertyOp6
 70
     1
102
RTVSPropertyOp7
 70
     1
102
RTVSPropertyOp8
 70
     1
102
RTVSPropertyOp9
 70
     1
102
RTVSPropertyOp10
 70
     1
102
RTVSPropertyOp11
 70
     1
102
RTVSPropertyOp12
 70
     1
102
RTVSPropertyOp13
 70
     1
102
RTVSPropertyOp14
 70
     1
102
RTVSPropertyOp15
 70
     1
102
RTVSPropertyOp16
 70
     1
102
RTVSPropertyOp17
 70
     1
102
RTVSPropertyOp18
 70
     1
102
RTVSPropertyOp19
 70
     1
102
RTVSPropertyOp20
 70
     1
102
RTVSPropertyOp21
 70
     1
102
RTVSPropertyOp22
 70
     1
102
RTVSPropertyOp23
 70
     1
102
RTVSPropertyOp24
 70
     1
102
RTVSPropertyOp25
 70
     1
102
RTVSPropertyOp26
 70
     1
102
RTVSPropertyOp27
 70
     1
102
RTVSPropertyOp28
 70
     1
102
RTVSPropertyOp29
 70
     1
102
RTVSPropertyOp30
 70
     1
102
RTVSPropertyOp31
 70
     1
102
RTVSPropertyOp32
 70
     1
102
RTVSPropertyOp33
 70
     1
102
RTVSPropertyOp34
 70
     1
102
RTVSPropertyOp35
 70
     1
102
RTVSPropertyOp36
 70
     1
102
RTVSPropertyOp37
 70
     1
102
RTVSPropertyOp38
 70
     1
102
RTVSPropertyOp39
 70
     1
102
RTVSPropertyOp40
 70
     1
102
RTVSPropertyOp41
 70
     1
102
RTVSPropertyOp42
 70
     1
102
RTVSPropertyOp43
 70
     1
102
RTVSPropertyOp44
 70
     1
102
RTVSPropertyOp45
 70
     1
102
RTVSPropertyOp46
 70
     1
102
RTVSPropertyOp47
 70
     1
102
RTVSPropertyOp48
 70
     1
102
RTVSPropertyOp49
 70
     1
102
RTVSPropertyOp50
 70
     1
102
RTVSPropertyOp51
 70
     0
102
RTVSPropertyOp52
 70
     0
102
RTVSPropertyOp53
 70
     1
102
RTVSPropertyOp54
 70
     1
102
RTVSPropertyOp55
 70
     1
102
RTVSPropertyOp56
 70
     1
102
RTVSPropertyOp57
 70
     1
102
RTVSPropertyOp58
 70
     1
102
RTVSPropertyOp59
 70
     1
102
RTVSPropertyOp60
 70
     1
102
RTVSPropertyOp61
 70
     1
102
RTVSPropertyOp62
 70
     1
  0
XRECORD
  5
1FF5
102
{ACAD_REACTORS
330
1FF4
102
}
330
1FF4
100
AcDbXrecord
280
     1
102
RTVSPost2010Prop28
280
     0
102
RTVSPost2010PropOp28
 70
     1
102
RTVSPost2010Prop29
280
     1
102
RTVSPost2010PropOp29
 70
     1
102
RTVSPost2010Prop30
280
     1
102
RTVSPost2010PropOp30
 70
     1
102
RTVSPost2010Prop31
280
     0
102
RTVSPost2010PropOp31
 70
     1
102
RTVSPost2010Prop32
280
     0
102
RTVSPost2010PropOp32
 70
     1
102
RTVSPost2010Prop33
280
     0
102
RTVSPost2010PropOp33
 70
     1
102
RTVSPost2010Prop34
280
     0
102
RTVSPost2010PropOp34
 70
     1
102
RTVSPost2010Prop35
280
     0
102
RTVSPost2010PropOp35
 70
     1
102
RTVSPost2010Prop36
280
     0
102
RTVSPost2010PropOp36
 70
     1
102
RTVSPost2010Prop37
 90
       50
102
RTVSPost2010PropOp37
 70
     1
102
RTVSPost2010Prop38
140
0.0
102
RTVSPost2010PropOp38
 70
     1
102
RTVSPost2010Prop39
140
1.0
102
RTVSPost2010PropOp39
 70
     1
102
RTVSPost2010Prop40
 90
        0
102
RTVSPost2010PropOp40
 70
     1
102
RTVSPost2010Prop41ColorIndex
 90
       18
102
RTVSPost2010Prop41ColorRGB
 90
        0
102
RTVSPost2010PropOp41
 70
     1
102
RTVSPost2010Prop42
 90
       50
102
RTVSPost2010PropOp42
 70
     1
102
RTVSPost2010Prop43
 90
        3
102
RTVSPost2010PropOp43
 70
     1
102
RTVSPost2010Prop44ColorIndex
 90
        5
102
RTVSPost2010Prop44ColorRGB
 90
      255
102
RTVSPost2010PropOp44
 70
     1
102
RTVSPost2010Prop45
280
     0
102
RTVSPost2010PropOp45
 70
     1
102
RTVSPost2010Prop46
 90
       50
102
RTVSPost2010PropOp46
 70
     1
102
RTVSPost2010Prop47
 90
       50
102
RTVSPost2010PropOp47
 70
     1
102
RTVSPost2010Prop48
 90
       50
102
RTVSPost2010PropOp48
 70
     1
102
RTVSPost2010Prop49
280
     0
102
RTVSPost2010PropOp49
 70
     1
102
RTVSPost2010Prop50
 90
       50
102
RTVSPost2010PropOp50
 70
     1
102
RTVSPost2010Prop51ColorIndex
 90
      256
102
RTVSPost2010Prop51ColorRGB
 90
-16777216
102
RTVSPost2010PropOp51
 70
     0
102
RTVSPost2010Prop52
140
1.0
102
RTVSPost2010PropOp52
 70
     0
102
RTVSPost2010Prop53
 90
        2
102
RTVSPost2010PropOp53
 70
     1
102
RTVSPost2010Prop54
  1
strokes_ogs.tif
102
RTVSPost2010PropOp54
 70
     1
102
RTVSPost2010Prop55
280
     0
102
RTVSPost2010PropOp55
 70
     1
102
RTVSPost2010Prop56
140
1.0
102
RTVSPost2010PropOp56
 70
     1
102
RTVSPost2010Prop57
140
1.0
102
RTVSPost2010PropOp57
 70
     1
102
RTVSPropertyOp0
 70
     1
102
RTVSPropertyOp1
 70
     1
102
RTVSPropertyOp2
 70
     1
102
RTVSPropertyOp3
 70
     1
102
RTVSPropertyOp4
 70
     1
102
RTVSPropertyOp5
 70
     1
102
RTVSPropertyOp6
 70
     1
102
RTVSPropertyOp7
 70
     1
102
RTVSPropertyOp8
 70
     1
102
RTVSPropertyOp9
 70
     1
102
RTVSPropertyOp10
 70
     1
102
RTVSPropertyOp11
 70
     1
102
RTVSPropertyOp12
 70
     1
102
RTVSPropertyOp13
 70
     1
102
RTVSPropertyOp14
 70
     1
102
RTVSPropertyOp15
 70
     1
102
RTVSPropertyOp16
 70
     1
102
RTVSPropertyOp17
 70
     1
102
RTVSPropertyOp18
 70
     1
102
RTVSPropertyOp19
 70
     1
102
RTVSPropertyOp20
 70
     1
102
RTVSPropertyOp21
 70
     1
102
RTVSPropertyOp22
 70
     1
102
RTVSPropertyOp23
 70
     1
102
RTVSPropertyOp24
 70
     1
102
RTVSPropertyOp25
 70
     1
102
RTVSPropertyOp26
 70
     1
102
RTVSPropertyOp27
 70
     1
102
RTVSPropertyOp28
 70
     1
102
RTVSPropertyOp29
 70
     1
102
RTVSPropertyOp30
 70
     1
102
RTVSPropertyOp31
 70
     1
102
RTVSPropertyOp32
 70
     1
102
RTVSPropertyOp33
 70
     1
102
RTVSPropertyOp34
 70
     1
102
RTVSPropertyOp35
 70
     1
102
RTVSPropertyOp36
 70
     1
102
RTVSPropertyOp37
 70
     1
102
RTVSPropertyOp38
 70
     1
102
RTVSPropertyOp39
 70
     1
102
RTVSPropertyOp40
 70
     1
102
RTVSPropertyOp41
 70
     1
102
RTVSPropertyOp42
 70
     1
102
RTVSPropertyOp43
 70
     1
102
RTVSPropertyOp44
 70
     1
102
RTVSPropertyOp45
 70
     1
102
RTVSPropertyOp46
 70
     1
102
RTVSPropertyOp47
 70
     1
102
RTVSPropertyOp48
 70
     1
102
RTVSPropertyOp49
 70
     1
102
RTVSPropertyOp50
 70
     1
102
RTVSPropertyOp51
 70
     0
102
RTVSPropertyOp52
 70
     0
102
RTVSPropertyOp53
 70
     1
102
RTVSPropertyOp54
 70
     1
102
RTVSPropertyOp55
 70
     1
102
RTVSPropertyOp56
 70
     1
102
RTVSPropertyOp57
 70
     1
102
RTVSPropertyOp58
 70
     1
102
RTVSPropertyOp59
 70
     1
102
RTVSPropertyOp60
 70
     1
102
RTVSPropertyOp61
 70
     1
102
RTVSPropertyOp62
 70
     1
  0
XRECORD
  5
200D
102
{ACAD_REACTORS
330
200C
102
}
330
200C
100
AcDbXrecord
280
     1
102
RTVSPost2010Prop28
280
     0
102
RTVSPost2010PropOp28
 70
     1
102
RTVSPost2010Prop29
280
     1
102
RTVSPost2010PropOp29
 70
     1
102
RTVSPost2010Prop30
280
     1
102
RTVSPost2010PropOp30
 70
     1
102
RTVSPost2010Prop31
280
     0
102
RTVSPost2010PropOp31
 70
     1
102
RTVSPost2010Prop32
280
     0
102
RTVSPost2010PropOp32
 70
     1
102
RTVSPost2010Prop33
280
     0
102
RTVSPost2010PropOp33
 70
     1
102
RTVSPost2010Prop34
280
     0
102
RTVSPost2010PropOp34
 70
     1
102
RTVSPost2010Prop35
280
     0
102
RTVSPost2010PropOp35
 70
     1
102
RTVSPost2010Prop36
280
     0
102
RTVSPost2010PropOp36
 70
     1
102
RTVSPost2010Prop37
 90
       50
102
RTVSPost2010PropOp37
 70
     1
102
RTVSPost2010Prop38
140
0.0
102
RTVSPost2010PropOp38
 70
     1
102
RTVSPost2010Prop39
140
1.0
102
RTVSPost2010PropOp39
 70
     1
102
RTVSPost2010Prop40
 90
        0
102
RTVSPost2010PropOp40
 70
     1
102
RTVSPost2010Prop41ColorIndex
 90
       18
102
RTVSPost2010Prop41ColorRGB
 90
        0
102
RTVSPost2010PropOp41
 70
     1
102
RTVSPost2010Prop42
 90
       50
102
RTVSPost2010PropOp42
 70
     1
102
RTVSPost2010Prop43
 90
        3
102
RTVSPost2010PropOp43
 70
     1
102
RTVSPost2010Prop44ColorIndex
 90
        5
102
RTVSPost2010Prop44ColorRGB
 90
      255
102
RTVSPost2010PropOp44
 70
     1
102
RTVSPost2010Prop45
280
     0
102
RTVSPost2010PropOp45
 70
     1
102
RTVSPost2010Prop46
 90
       50
102
RTVSPost2010PropOp46
 70
     1
102
RTVSPost2010Prop47
 90
       50
102
RTVSPost2010PropOp47
 70
     1
102
RTVSPost2010Prop48
 90
       50
102
RTVSPost2010PropOp48
 70
     1
102
RTVSPost2010Prop49
280
     0
102
RTVSPost2010PropOp49
 70
     1
102
RTVSPost2010Prop50
 90
       50
102
RTVSPost2010PropOp50
 70
     1
102
RTVSPost2010Prop51ColorIndex
 90
      256
102
RTVSPost2010Prop51ColorRGB
 90
-16777216
102
RTVSPost2010PropOp51
 70
     0
102
RTVSPost2010Prop52
140
1.0
102
RTVSPost2010PropOp52
 70
     0
102
RTVSPost2010Prop53
 90
        2
102
RTVSPost2010PropOp53
 70
     1
102
RTVSPost2010Prop54
  1
strokes_ogs.tif
102
RTVSPost2010PropOp54
 70
     1
102
RTVSPost2010Prop55
280
     0
102
RTVSPost2010PropOp55
 70
     1
102
RTVSPost2010Prop56
140
1.0
102
RTVSPost2010PropOp56
 70
     1
102
RTVSPost2010Prop57
140
1.0
102
RTVSPost2010PropOp57
 70
     1
102
RTVSPropertyOp0
 70
     1
102
RTVSPropertyOp1
 70
     1
102
RTVSPropertyOp2
 70
     1
102
RTVSPropertyOp3
 70
     1
102
RTVSPropertyOp4
 70
     1
102
RTVSPropertyOp5
 70
     1
102
RTVSPropertyOp6
 70
     1
102
RTVSPropertyOp7
 70
     1
102
RTVSPropertyOp8
 70
     1
102
RTVSPropertyOp9
 70
     1
102
RTVSPropertyOp10
 70
     1
102
RTVSPropertyOp11
 70
     1
102
RTVSPropertyOp12
 70
     1
102
RTVSPropertyOp13
 70
     1
102
RTVSPropertyOp14
 70
     1
102
RTVSPropertyOp15
 70
     1
102
RTVSPropertyOp16
 70
     1
102
RTVSPropertyOp17
 70
     1
102
RTVSPropertyOp18
 70
     1
102
RTVSPropertyOp19
 70
     1
102
RTVSPropertyOp20
 70
     1
102
RTVSPropertyOp21
 70
     1
102
RTVSPropertyOp22
 70
     1
102
RTVSPropertyOp23
 70
     1
102
RTVSPropertyOp24
 70
     1
102
RTVSPropertyOp25
 70
     1
102
RTVSPropertyOp26
 70
     1
102
RTVSPropertyOp27
 70
     1
102
RTVSPropertyOp28
 70
     1
102
RTVSPropertyOp29
 70
     1
102
RTVSPropertyOp30
 70
     1
102
RTVSPropertyOp31
 70
     1
102
RTVSPropertyOp32
 70
     1
102
RTVSPropertyOp33
 70
     1
102
RTVSPropertyOp34
 70
     1
102
RTVSPropertyOp35
 70
     1
102
RTVSPropertyOp36
 70
     1
102
RTVSPropertyOp37
 70
     1
102
RTVSPropertyOp38
 70
     1
102
RTVSPropertyOp39
 70
     1
102
RTVSPropertyOp40
 70
     1
102
RTVSPropertyOp41
 70
     1
102
RTVSPropertyOp42
 70
     1
102
RTVSPropertyOp43
 70
     1
102
RTVSPropertyOp44
 70
     1
102
RTVSPropertyOp45
 70
     1
102
RTVSPropertyOp46
 70
     1
102
RTVSPropertyOp47
 70
     1
102
RTVSPropertyOp48
 70
     1
102
RTVSPropertyOp49
 70
     1
102
RTVSPropertyOp50
 70
     1
102
RTVSPropertyOp51
 70
     0
102
RTVSPropertyOp52
 70
     0
102
RTVSPropertyOp53
 70
     1
102
RTVSPropertyOp54
 70
     1
102
RTVSPropertyOp55
 70
     1
102
RTVSPropertyOp56
 70
     1
102
RTVSPropertyOp57
 70
     1
102
RTVSPropertyOp58
 70
     1
102
RTVSPropertyOp59
 70
     1
102
RTVSPropertyOp60
 70
     1
102
RTVSPropertyOp61
 70
     1
102
RTVSPropertyOp62
 70
     1
  0
ENDSEC
  0
EOF
